  0
SECTION
  2
HEADER
  9
$ACADVER
  1
AC1015
  9
$ACADMAINTVER
 70
    20
  9
$DWGCODEPAGE
  3
ANSI_932
  9
$INSBASE
 10
0.0
 20
0.0
 30
0.0
  9
$EXTMIN
 10
-135.2160822476895
 20
-83.28252422801597
 30
-0.0000000000022887
  9
$EXTMAX
 10
165.0143123936251
 20
140.0162591766418
 30
0.0000000000000001
  9
$LIMMIN
 10
-183.6960535536322
 20
-98.80700473228536
  9
$LIMMAX
 10
146.2980620938981
 20
91.25963262647294
  9
$ORTHOMODE
 70
     0
  9
$REGENMODE
 70
     1
  9
$FILLMODE
 70
     1
  9
$QTEXTMODE
 70
     0
  9
$MIRRTEXT
 70
     0
  9
$LTSCALE
 40
1.0
  9
$ATTMODE
 70
     1
  9
$TEXTSIZE
 40
2.5
  9
$TRACEWID
 40
1.0
  9
$TEXTSTYLE
  7
STANDARD
  9
$CLAYER
  8
AM_0
  9
$CELTYPE
  6
BYLAYER
  9
$CECOLOR
 62
   256
  9
$CELTSCALE
 40
1.0
  9
$DISPSILH
 70
     0
  9
$DIMSCALE
 40
0.5
  9
$DIMASZ
 40
2.5
  9
$DIMEXO
 40
1.0
  9
$DIMDLI
 40
12.0
  9
$DIMRND
 40
0.0
  9
$DIMDLE
 40
0.0
  9
$DIMEXE
 40
1.0
  9
$DIMTP
 40
0.1
  9
$DIMTM
 40
0.1
  9
$DIMTXT
 40
3.2
  9
$DIMCEN
 40
0.0
  9
$DIMTSZ
 40
0.0
  9
$DIMTOL
 70
     0
  9
$DIMLIM
 70
     0
  9
$DIMTIH
 70
     0
  9
$DIMTOH
 70
     0
  9
$DIMSE1
 70
     0
  9
$DIMSE2
 70
     0
  9
$DIMTAD
 70
     3
  9
$DIMZIN
 70
     8
  9
$DIMBLK
  1
OPEN30
  9
$DIMASO
 70
     1
  9
$DIMSHO
 70
     1
  9
$DIMPOST
  1

  9
$DIMAPOST
  1
"
  9
$DIMALT
 70
     0
  9
$DIMALTD
 70
     2
  9
$DIMALTF
 40
0.0393701
  9
$DIMLFAC
 40
1.0
  9
$DIMTOFL
 70
     1
  9
$DIMTVP
 40
0.0
  9
$DIMTIX
 70
     0
  9
$DIMSOXD
 70
     0
  9
$DIMSAH
 70
     0
  9
$DIMBLK1
  1

  9
$DIMBLK2
  1

  9
$DIMSTYLE
  2
AM_JIS
  9
$DIMCLRD
 70
   256
  9
$DIMCLRE
 70
   256
  9
$DIMCLRT
 70
     2
  9
$DIMTFAC
 40
0.71
  9
$DIMGAP
 40
1.5
  9
$DIMJUST
 70
     0
  9
$DIMSD1
 70
     0
  9
$DIMSD2
 70
     0
  9
$DIMTOLJ
 70
     0
  9
$DIMTZIN
 70
     0
  9
$DIMALTZ
 70
     0
  9
$DIMALTTZ
 70
     0
  9
$DIMUPT
 70
     0
  9
$DIMDEC
 70
     3
  9
$DIMTDEC
 70
     3
  9
$DIMALTU
 70
     2
  9
$DIMALTTD
 70
     2
  9
$DIMTXSTY
  7
ASAMI
  9
$DIMAUNIT
 70
     0
  9
$DIMADEC
 70
     0
  9
$DIMALTRND
 40
0.0
  9
$DIMAZIN
 70
     2
  9
$DIMDSEP
 70
    46
  9
$DIMATFIT
 70
     3
  9
$DIMFRAC
 70
     0
  9
$DIMLDRBLK
  1
OPEN30
  9
$DIMLUNIT
 70
     2
  9
$DIMLWD
 70
    -1
  9
$DIMLWE
 70
    -1
  9
$DIMTMOVE
 70
     0
  9
$LUNITS
 70
     2
  9
$LUPREC
 70
     2
  9
$SKETCHINC
 40
1.0
  9
$FILLETRAD
 40
0.4
  9
$AUNITS
 70
     0
  9
$AUPREC
 70
     0
  9
$MENU
  1
.
  9
$ELEVATION
 40
0.0
  9
$PELEVATION
 40
0.0
  9
$THICKNESS
 40
0.0
  9
$LIMCHECK
 70
     1
  9
$CHAMFERA
 40
1.0
  9
$CHAMFERB
 40
1.0
  9
$CHAMFERC
 40
20.0
  9
$CHAMFERD
 40
0.0
  9
$SKPOLY
 70
     0
  9
$TDCREATE
 40
2452802.716478762
  9
$TDUCREATE
 40
2452802.341478762
  9
$TDUPDATE
 40
2455610.657527489
  9
$TDUUPDATE
 40
2455610.282527489
  9
$TDINDWG
 40
0.8554951042
  9
$TDUSRTIMER
 40
0.8554949190
  9
$USRTIMER
 70
     1
  9
$ANGBASE
 50
0.0
  9
$ANGDIR
 70
     0
  9
$PDMODE
 70
     0
  9
$PDSIZE
 40
0.0
  9
$PLINEWID
 40
0.0
  9
$SPLFRAME
 70
     0
  9
$SPLINETYPE
 70
     6
  9
$SPLINESEGS
 70
     8
  9
$HANDSEED
  5
911C
  9
$SURFTAB1
 70
     6
  9
$SURFTAB2
 70
     6
  9
$SURFTYPE
 70
     6
  9
$SURFU
 70
     6
  9
$SURFV
 70
     6
  9
$UCSBASE
  2

  9
$UCSNAME
  2

  9
$UCSORG
 10
-0.0000000000002682
 20
0.000000000000161
 30
0.0
  9
$UCSXDIR
 10
1.0
 20
0.000000000000002
 30
0.0
  9
$UCSYDIR
 10
-0.000000000000002
 20
1.0
 30
0.0
  9
$UCSORTHOREF
  2

  9
$UCSORTHOVIEW
 70
     0
  9
$UCSORGTOP
 10
0.0
 20
0.0
 30
0.0
  9
$UCSORGBOTTOM
 10
0.0
 20
0.0
 30
0.0
  9
$UCSORGLEFT
 10
0.0
 20
0.0
 30
0.0
  9
$UCSORGRIGHT
 10
0.0
 20
0.0
 30
0.0
  9
$UCSORGFRONT
 10
0.0
 20
0.0
 30
0.0
  9
$UCSORGBACK
 10
0.0
 20
0.0
 30
0.0
  9
$PUCSBASE
  2

  9
$PUCSNAME
  2

  9
$PUCSORG
 10
0.0
 20
0.0
 30
0.0
  9
$PUCSXDIR
 10
1.0
 20
0.0
 30
0.0
  9
$PUCSYDIR
 10
0.0
 20
1.0
 30
0.0
  9
$PUCSORTHOREF
  2

  9
$PUCSORTHOVIEW
 70
     0
  9
$PUCSORGTOP
 10
0.0
 20
0.0
 30
0.0
  9
$PUCSORGBOTTOM
 10
0.0
 20
0.0
 30
0.0
  9
$PUCSORGLEFT
 10
0.0
 20
0.0
 30
0.0
  9
$PUCSORGRIGHT
 10
0.0
 20
0.0
 30
0.0
  9
$PUCSORGFRONT
 10
0.0
 20
0.0
 30
0.0
  9
$PUCSORGBACK
 10
0.0
 20
0.0
 30
0.0
  9
$USERI1
 70
     0
  9
$USERI2
 70
     0
  9
$USERI3
 70
     0
  9
$USERI4
 70
     0
  9
$USERI5
 70
     0
  9
$USERR1
 40
0.0
  9
$USERR2
 40
0.0
  9
$USERR3
 40
0.0
  9
$USERR4
 40
0.0
  9
$USERR5
 40
0.0
  9
$WORLDVIEW
 70
     1
  9
$SHADEDGE
 70
     3
  9
$SHADEDIF
 70
    70
  9
$TILEMODE
 70
     1
  9
$MAXACTVP
 70
    64
  9
$PINSBASE
 10
0.0
 20
0.0
 30
0.0
  9
$PLIMCHECK
 70
     0
  9
$PEXTMIN
 10
1.000000000000000E+20
 20
1.000000000000000E+20
 30
1.000000000000000E+20
  9
$PEXTMAX
 10
-1.000000000000000E+20
 20
-1.000000000000000E+20
 30
-1.000000000000000E+20
  9
$PLIMMIN
 10
0.0
 20
0.0
  9
$PLIMMAX
 10
841.0
 20
594.0
  9
$UNITMODE
 70
     0
  9
$VISRETAIN
 70
     1
  9
$PLINEGEN
 70
     0
  9
$PSLTSCALE
 70
     0
  9
$TREEDEPTH
 70
  3020
  9
$CMLSTYLE
  2
STANDARD
  9
$CMLJUST
 70
     0
  9
$CMLSCALE
 40
20.0
  9
$PROXYGRAPHICS
 70
     1
  9
$MEASUREMENT
 70
     1
  9
$CELWEIGHT
370
    -1
  9
$ENDCAPS
280
     0
  9
$JOINSTYLE
280
     0
  9
$LWDISPLAY
290
     0
  9
$INSUNITS
 70
     4
  9
$HYPERLINKBASE
  1

  9
$STYLESHEET
  1
ASAMI.ctb
  9
$XEDIT
290
     1
  9
$CEPSNTYPE
380
     0
  9
$PSTYLEMODE
290
     1
  9
$FINGERPRINTGUID
  2
{AFB28963-8C59-40AE-9337-C84526B81ACE}
  9
$VERSIONGUID
  2
{0DA1A1A7-1A71-4600-9951-C9D69B94F417}
  9
$EXTNAMES
290
     1
  9
$PSVPSCALE
 40
0.0
  9
$OLESTARTUP
290
     0
  0
ENDSEC
  0
SECTION
  2
CLASSES
  0
CLASS
  1
ACDBDICTIONARYWDFLT
  2
AcDbDictionaryWithDefault
  3
ObjectDBX Classes
 90
        0
280
     0
281
     0
  0
CLASS
  1
ACDBPLACEHOLDER
  2
AcDbPlaceHolder
  3
ObjectDBX Classes
 90
        0
280
     0
281
     0
  0
CLASS
  1
LAYOUT
  2
AcDbLayout
  3
ObjectDBX Classes
 90
        0
280
     0
281
     0
  0
CLASS
  1
AMGSETTINGSOBJ
  2
AmgSettingsObj
  3
"AcadM|Product Description: AutoCAD Mechanical 2000|Company: Autodesk"
 90
        0
280
     0
281
     0
  0
CLASS
  1
ACME_DOCUMENT
  2
AcMeDbDoc
  3
AcMeServices
 90
        0
280
     0
281
     0
  0
CLASS
  1
ACMESCOPE
  2
AcMeScope
  3
AcMeServices
 90
        0
280
     0
281
     0
  0
CLASS
  1
ACMECOMMANDHISTORY
  2
AcMeCommandHistory
  3
AcMeServices
 90
        0
280
     0
281
     0
  0
CLASS
  1
DICTIONARYVAR
  2
AcDbDictionaryVar
  3
ObjectDBX Classes
 90
        0
280
     0
281
     0
  0
CLASS
  1
ACIMSYSVARMAN
  2
AcImSysVarManager
  3
AcMeServices
 90
        0
280
     0
281
     0
  0
CLASS
  1
ACIMREALSYSVAR
  2
AcImRealSysVar
  3
AcMeServices
 90
        0
280
     0
281
     0
  0
CLASS
  1
ACIMINTSYSVAR
  2
AcImIntSysVar
  3
AcMeServices
 90
        0
280
     0
281
     0
  0
CLASS
  1
ACMEDRAWINGMAN
  2
AcMeDrawingMan
  3
AcMeServices
 90
        0
280
     0
281
     0
  0
CLASS
  1
ACMEVIEW
  2
AcMeView
  3
AcMeServices
 90
        0
280
     0
281
     0
  0
CLASS
  1
ACDBENTITYCACHE
  2
AcMeEntityCache
  3
AcMeServices
 90
        0
280
     0
281
     0
  0
CLASS
  1
GSMANAGER
  2
AcMeGSManager
  3
AcMeServices
 90
        0
280
     0
281
     0
  0
CLASS
  1
AMDTINTERNALREACTOR
  2
AmdtInternalReactor
  3
AcMeServices
 90
        0
280
     0
281
     0
  0
CLASS
  1
ACMESTATEMGR
  2
AcMeStateMgr
  3
AcMeServices
 90
        0
280
     0
281
     0
  0
CLASS
  1
ACME_DATABASE
  2
AcMeDbDatabase
  3
AcMeServices
 90
        0
280
     0
281
     0
  0
CLASS
  1
ACRFINSADJUSTERMGR
  2
AcRfInsAdjusterMgr
  3
AcMeServices
 90
        0
280
     0
281
     0
  0
CLASS
  1
ACMDATADICTIONARY
  2
AcmDataDictionary
  3
"AcmSymBB|Product Description: AutoCAD Mechanical 2004 DX|Company: Autodesk"
 90
        0
280
     0
281
     0
  0
CLASS
  1
ACMDATAENTRYBLOCK
  2
AcmDataEntryBlock
  3
"AcmSymBB|Product Description: AutoCAD Mechanical 2004 DX|Company: Autodesk"
 90
    32768
280
     0
281
     0
  0
CLASS
  1
AMGOBJPROPCFG
  2
AmgObjPropCfg
  3
"AmgLay|Product Description: AutoCAD Mechanical 2000|Company: Autodesk"
 90
        1
280
     0
281
     0
  0
CLASS
  1
ACAMGFILTERDAT
  2
AcAmgFilterDat
  3
"AcadM|Product Description: AutoCAD Mechanical 2000|Company: Autodesk"
 90
    32768
280
     0
281
     0
  0
CLASS
  1
LAYER_INDEX
  2
AcDbLayerIndex
  3
ObjectDBX Classes
 90
        0
280
     0
281
     0
  0
CLASS
  1
IDBUFFER
  2
AcDbIdBuffer
  3
ObjectDBX Classes
 90
        0
280
     0
281
     0
  0
CLASS
  1
ACIMSTRSYSVAR
  2
AcImStrSysVar
  3
AcMeServices
 90
        0
280
     0
281
     0
  0
CLASS
  1
ACMSTANDARDJIS
  2
AcmStandardJIS
  3
"Amdt_StdImp|Product Description: AutoCAD Mechanical 2004 DX|Company: Autodesk"
 90
    32768
280
     0
281
     0
  0
CLASS
  1
ACMSURFSTANDARDJIS
  2
AcmSurfTextStdJIS
  3
"Amdt_StdImp|Product Description: AutoCAD Mechanical 2004 DX|Company: Autodesk"
 90
    32768
280
     0
281
     0
  0
CLASS
  1
ACMFCFSTANDARDJIS
  2
AcmFCFStdJIS
  3
"Amdt_StdImp|Product Description: AutoCAD Mechanical 2004 DX|Company: Autodesk"
 90
    32768
280
     0
281
     0
  0
CLASS
  1
ACMWELDSTANDARDJIS
  2
AcmWeldingStdJIS
  3
"Amdt_StdImp|Product Description: AutoCAD Mechanical 2004 DX|Company: Autodesk"
 90
    32768
280
     0
281
     0
  0
CLASS
  1
ACMIDSTANDARDJIS
  2
AcmIdStdJIS
  3
"Amdt_StdImp|Product Description: AutoCAD Mechanical 2004 DX|Company: Autodesk"
 90
    32768
280
     0
281
     0
  0
CLASS
  1
ACMDATUMSTANDARDJIS
  2
AcmDatumStdJIS
  3
"Amdt_StdImp|Product Description: AutoCAD Mechanical 2004 DX|Company: Autodesk"
 90
    32768
280
     0
281
     0
  0
CLASS
  1
ACMBOMSTANDARDJIS
  2
AcmBOMStdJIS
  3
"Amdt_StdImp|Product Description: AutoCAD Mechanical 2004 DX|Company: Autodesk"
 90
    32768
280
     0
281
     0
  0
CLASS
  1
ACMSTANDARDANSI
  2
AcmStandardANSI
  3
"Amdt_StdImp|Product Description: AutoCAD Mechanical 2004 DX|Company: Autodesk"
 90
    32768
280
     0
281
     0
  0
CLASS
  1
ACMSURFSTANDARDANSI
  2
AcmSurfTextStdANSI
  3
"Amdt_StdImp|Product Description: AutoCAD Mechanical 2004 DX|Company: Autodesk"
 90
    32768
280
     0
281
     0
  0
CLASS
  1
ACMFCFSTANDARDANSI
  2
AcmFCFStdANSI
  3
"Amdt_StdImp|Product Description: AutoCAD Mechanical 2004 DX|Company: Autodesk"
 90
    32768
280
     0
281
     0
  0
CLASS
  1
ACMWELDSTANDARDANSI
  2
AcmWeldingStdANSI
  3
"Amdt_StdImp|Product Description: AutoCAD Mechanical 2004 DX|Company: Autodesk"
 90
    32768
280
     0
281
     0
  0
CLASS
  1
ACMIDSTANDARDANSI
  2
AcmIdStdANSI
  3
"Amdt_StdImp|Product Description: AutoCAD Mechanical 2004 DX|Company: Autodesk"
 90
    32768
280
     0
281
     0
  0
CLASS
  1
ACMDATUMSTANDARDANSI
  2
AcmDatumStdANSI
  3
"Amdt_StdImp|Product Description: AutoCAD Mechanical 2004 DX|Company: Autodesk"
 90
    32768
280
     0
281
     0
  0
CLASS
  1
ACMBOMSTANDARDANSI
  2
AcmBOMStdANSI
  3
"Amdt_StdImp|Product Description: AutoCAD Mechanical 2004 DX|Company: Autodesk"
 90
    32768
280
     0
281
     0
  0
CLASS
  1
ACMSTANDARDBSI
  2
AcmStandardBSI
  3
"Amdt_StdImp|Product Description: AutoCAD Mechanical 2004 DX|Company: Autodesk"
 90
    32768
280
     0
281
     0
  0
CLASS
  1
ACMSURFSTANDARDBSI
  2
AcmSurfTextStdBSI
  3
"Amdt_StdImp|Product Description: AutoCAD Mechanical 2004 DX|Company: Autodesk"
 90
    32768
280
     0
281
     0
  0
CLASS
  1
ACMFCFSTANDARDBSI
  2
AcmFCFStdBSI
  3
"Amdt_StdImp|Product Description: AutoCAD Mechanical 2004 DX|Company: Autodesk"
 90
    32768
280
     0
281
     0
  0
CLASS
  1
ACMWELDSTANDARDBSI
  2
AcmWeldingStdBSI
  3
"Amdt_StdImp|Product Description: AutoCAD Mechanical 2004 DX|Company: Autodesk"
 90
    32768
280
     0
281
     0
  0
CLASS
  1
ACMIDSTANDARDBSI
  2
AcmIdStdBSI
  3
"Amdt_StdImp|Product Description: AutoCAD Mechanical 2004 DX|Company: Autodesk"
 90
    32768
280
     0
281
     0
  0
CLASS
  1
ACMDATUMSTANDARDBSI
  2
AcmDatumStdBSI
  3
"Amdt_StdImp|Product Description: AutoCAD Mechanical 2004 DX|Company: Autodesk"
 90
    32768
280
     0
281
     0
  0
CLASS
  1
ACMBOMSTANDARDBSI
  2
AcmBOMStdBSI
  3
"Amdt_StdImp|Product Description: AutoCAD Mechanical 2004 DX|Company: Autodesk"
 90
    32768
280
     0
281
     0
  0
CLASS
  1
STDPART2D
  2
AmgStdPart
  3
"AmgStdPart|Product Description: AutoCAD Mechanical 2000|Company: Autodesk"
 90
    33791
280
     0
281
     1
  0
CLASS
  1
PLOTSETTINGS
  2
AcDbPlotSettings
  3
ObjectDBX Classes
 90
        0
280
     0
281
     0
  0
CLASS
  1
TABLESTYLE
  2
AcDbTableStyle
  3
ObjectDBX Classes
 90
     2047
280
     0
281
     0
  0
CLASS
  1
ACGREFMASTER
  2
AcGrefMaster
  3
AcAttribServices
 90
        0
280
     0
281
     0
  0
CLASS
  1
AM_DRAWING_MGR
  2
AcDmDwgMgr
  3
AcMechDwgViewMgmt
 90
        0
280
     0
281
     0
  0
CLASS
  1
AM_DWG_DOCUMENT
  2
AcDmDwgDocument
  3
AcMechDwgViewMgmt
 90
        0
280
     0
281
     0
  0
CLASS
  1
AM_DWG_SHEET
  2
AcDmSheet
  3
AcMechDwgViewMgmt
 90
        0
280
     0
281
     0
  0
CLASS
  1
AM_VIEWDIMPARMAP
  2
AcDmViewDimParMap
  3
AcMechDwgViewMgmt
 90
        0
280
     0
281
     0
  0
CLASS
  1
AM_DWGMGR_NAME
  2
AcDmDwgMgrName
  3
AcMechDwgViewMgmt
 90
        0
280
     0
281
     0
  0
CLASS
  1
ACGREFACADMASTER
  2
AcGrefacadMaster
  3
AcGrefServices
 90
        0
280
     0
281
     0
  0
CLASS
  1
AMDTMENUSTATEMGR
  2
AmdtMenuStateMgr
  3
McadcomServices
 90
        0
280
     0
281
     0
  0
CLASS
  1
AMDTMCOMMENUSTATE
  2
AmdtMcomMenuState
  3
McadcomServices
 90
        0
280
     0
281
     0
  0
CLASS
  1
AMIMASTER
  2
AmiMaster
  3
AmiServices
 90
        0
280
     0
281
     0
  0
CLASS
  1
MAPIAMMOUDLE
  2
MApiAmModule
  3
MApiAmServices
 90
        0
280
     0
281
     0
  0
CLASS
  1
AMDTADMENUSTATE
  2
AmdtAdMenuState
  3
DesignerServices
 90
        0
280
     0
281
     0
  0
CLASS
  1
ADAPPL
  2
AcAdAppl
  3
DesignerServices
 90
        0
280
     0
281
     0
  0
CLASS
  1
DEPMGR
  2
AcAdDepMgr
  3
DesignerServices
 90
        0
280
     0
281
     0
  0
CLASS
  1
PARAMMGR
  2
AcAdParamMgr
  3
DesignerServices
 90
        0
280
     0
281
     0
  0
CLASS
  1
PARAMSCOPE
  2
AcAdParamScope
  3
DesignerServices
 90
        0
280
     0
281
     0
  0
CLASS
  1
NAMEDAPPL
  2
AcAdNamedAppl
  3
DesignerServices
 90
        0
280
     0
281
     0
  0
CLASS
  1
AMDTDMMENUSTATE
  2
AmdtDmMenuState
  3
AcMechDwgViewMgmt
 90
        0
280
     0
281
     0
  0
CLASS
  1
AMDTAMMENUSTATE
  2
AmdtAmMenuState
  3
DesignerAssemblies
 90
        0
280
     0
281
     0
  0
CLASS
  1
ACAMPROJECT
  2
AcAmProject
  3
DesignerAssemblies
 90
        0
280
     0
281
     0
  0
CLASS
  1
ACAMGRCOMPDEF
  2
AcAmGrCompDef
  3
DesignerAssemblies
 90
        0
280
     0
281
     0
  0
CLASS
  1
ACCMCONTEXT
  2
AcCmContext
  3
DesignerAssemblies
 90
        0
280
     0
281
     0
  0
CLASS
  1
ACAMCOMPDEF
  2
AcAmCompDef
  3
DesignerAssemblies
 90
        0
280
     0
281
     0
  0
CLASS
  1
ACAMCOMPDEFMGR
  2
AcAmCompDefMgr
  3
DesignerAssemblies
 90
        0
280
     0
281
     0
  0
CLASS
  1
AMCONTEXTMGR
  2
AcAmContextMgr
  3
DesignerAssemblies
 90
        0
280
     0
281
     0
  0
CLASS
  1
ACAMCONTEXTMODELER
  2
AcAmContextModeler
  3
DesignerAssemblies
 90
        0
280
     0
281
     0
  0
CLASS
  1
CATALOGSTATE
  2
AcAmCatalogState
  3
DesignerAssemblies
 90
        0
280
     0
281
     0
  0
CLASS
  1
ACAMGRCOMPDEFSET
  2
AcAmGrCompDefSet
  3
DesignerAssemblies
 90
        0
280
     0
281
     0
  0
CLASS
  1
AMDTBROWSERDBTAB
  2
AmdtBrowserDbTab
  3
McadcomServices
 90
        0
280
     0
281
     0
  0
CLASS
  1
CBROWSERAPPOBJECT
  2
CBrowserAppObject
  3
McadcomServices
 90
        0
280
     0
281
     0
  0
CLASS
  1
DM_PLACEHOLDER
  2
AcDmSelsetPlaceholder
  3
AcMechDwgViewMgmt
 90
        0
280
     0
281
     0
  0
ENDSEC
  0
SECTION
  2
TABLES
  0
TABLE
  2
VPORT
  5
8
330
0
100
AcDbSymbolTable
 70
     7
  0
VPORT
  5
9111
330
8
100
AcDbSymbolTableRecord
100
AcDbViewportTableRecord
  2
*Active
 70
     0
 10
0.0
 20
0.0
 11
1.0
 21
1.0
 12
19.92248291836677
 22
-12.14968449329357
 13
0.0
 23
0.0
 14
2.5
 24
2.5
 15
10.0
 25
10.0
 16
0.0
 26
0.0
 36
1.0
 17
0.0
 27
0.0
 37
0.0
 40
157.8309168551278
 41
2.166666666666666
 42
50.0
 43
0.0
 44
0.0
 50
0.0
 51
0.0
 71
     0
 72
   100
 73
     1
 74
     3
 75
     0
 76
     0
 77
     0
 78
     0
281
     0
 65
     0
110
-0.0000000000002682
120
0.000000000000161
130
0.0
111
1.0
121
0.000000000000002
131
0.0
112
-0.000000000000002
122
1.0
132
0.0
 79
     0
146
0.0
  0
ENDTAB
  0
TABLE
  2
LTYPE
  5
5
330
0
100
AcDbSymbolTable
 70
    13
  0
LTYPE
  5
14
330
5
100
AcDbSymbolTableRecord
100
AcDbLinetypeTableRecord
  2
BYBLOCK
 70
     0
  3

 72
    65
 73
     0
 40
0.0
  0
LTYPE
  5
15
330
5
100
AcDbSymbolTableRecord
100
AcDbLinetypeTableRecord
  2
BYLAYER
 70
     0
  3

 72
    65
 73
     0
 40
0.0
  0
LTYPE
  5
16
330
5
100
AcDbSymbolTableRecord
100
AcDbLinetypeTableRecord
  2
CONTINUOUS
 70
     0
  3
Solid line
 72
    65
 73
     0
 40
0.0
  0
LTYPE
  5
4B
330
5
100
AcDbSymbolTableRecord
100
AcDbLinetypeTableRecord
  2
AM_ISO02W050
 70
     0
  3
__ __ __ __ __ __ __ __ __ __ __ __ __ __ __
 72
    65
 73
     2
 40
7.5
 49
6.0
 74
     0
 49
-1.5
 74
     0
  0
LTYPE
  5
4C
330
5
100
AcDbSymbolTableRecord
100
AcDbLinetypeTableRecord
  2
AM_ISO08W050
 70
     0
  3
____ . ____ . ____ . ____ . ____ . ____ . ____
 72
    65
 73
     4
 40
18.0
 49
12.0
 74
     0
 49
-1.5
 74
     0
 49
3.0
 74
     0
 49
-1.5
 74
     0
  0
LTYPE
  5
4D
330
5
100
AcDbSymbolTableRecord
100
AcDbLinetypeTableRecord
  2
AM_ISO09W050
 70
     0
  3
_____ . . _____ . . _____ . . ____ .. ____
 72
    65
 73
     6
 40
22.5
 49
12.0
 74
     0
 49
-1.5
 74
     0
 49
3.0
 74
     0
 49
-1.5
 74
     0
 49
3.0
 74
     0
 49
-1.5
 74
     0
  0
LTYPE
  5
4E
330
5
100
AcDbSymbolTableRecord
100
AcDbLinetypeTableRecord
  2
AMCONSTR
 70
     0
  3
_______________________
 72
    65
 73
     2
 40
9999.0
 49
9999.0
 74
     0
 49
0.0
 74
     0
  0
LTYPE
  5
4F
330
5
100
AcDbSymbolTableRecord
100
AcDbLinetypeTableRecord
  2
AM_ISO02W050X2
 70
     0
  3
 _ _ _ _ _ _ _ _ _ _ _ _
 72
    65
 73
     2
 40
3.75
 49
3.0
 74
     0
 49
-0.75
 74
     0
  0
LTYPE
  5
50
330
5
100
AcDbSymbolTableRecord
100
AcDbLinetypeTableRecord
  2
AM_ISO08W050X2
 70
     0
  3
__ . __ . __ . __ . __ . __
 72
    65
 73
     4
 40
9.0
 49
6.0
 74
     0
 49
-0.75
 74
     0
 49
1.5
 74
     0
 49
-0.75
 74
     0
  0
LTYPE
  5
53
330
5
100
AcDbSymbolTableRecord
100
AcDbLinetypeTableRecord
  2
AMZIGZAG
 70
     0
  3
/\/-/\/-/\/-/\/-/\/-/\/
 72
    65
 73
     2
 40
11.00009999999999
 49
0.0001
 74
     4
 75
   135
340
52
 46
0.04
 50
0.0
 44
0.0
 45
0.0
 49
-11.0
 74
     0
  0
LTYPE
  5
8F89
330
5
100
AcDbSymbolTableRecord
100
AcDbLinetypeTableRecord
  2
HIDDEN
 70
     0
  3
Hidden __ __ __ __ __ __ __ __ __ __ __ __ __ _
 72
    65
 73
     2
 40
9.524999999999998
 49
6.349999999999999
 74
     0
 49
-3.174999999999999
 74
     0
  0
LTYPE
  5
8F8A
330
5
100
AcDbSymbolTableRecord
100
AcDbLinetypeTableRecord
  2
PHANTOM2
 70
     0
  3
Phantom (.5x) ___ _ _ ___ _ _ ___ _ _ ___ _ _
 72
    65
 73
     6
 40
31.75
 49
15.875
 74
     0
 49
-3.174999999999999
 74
     0
 49
3.174999999999999
 74
     0
 49
-3.174999999999999
 74
     0
 49
3.174999999999999
 74
     0
 49
-3.174999999999999
 74
     0
  0
LTYPE
  5
8F8B
330
5
100
AcDbSymbolTableRecord
100
AcDbLinetypeTableRecord
  2
CENTER
 70
     0
  3
Center ____ _ ____ _ ____ _ ____ _ ____ _ ____
 72
    65
 73
     4
 40
50.8
 49
31.75
 74
     0
 49
-6.349999999999999
 74
     0
 49
6.349999999999999
 74
     0
 49
-6.349999999999999
 74
     0
  0
ENDTAB
  0
TABLE
  2
LAYER
  5
2
330
0
100
AcDbSymbolTable
 70
     7
  0
LAYER
  5
10
330
2
100
AcDbSymbolTableRecord
100
AcDbLayerTableRecord
  2
0
 70
     0
 62
     7
  6
CONTINUOUS
370
    -3
390
F
  0
LAYER
  5
3F9
330
2
100
AcDbSymbolTableRecord
100
AcDbLayerTableRecord
  2
AM_0
 70
     0
 62
     7
  6
CONTINUOUS
370
    -3
390
F
  0
LAYER
  5
BA4
330
2
100
AcDbSymbolTableRecord
100
AcDbLayerTableRecord
  2
AM_5
 70
     0
 62
     3
  6
CONTINUOUS
370
    -3
390
F
  0
LAYER
  5
BA6
330
2
100
AcDbSymbolTableRecord
100
AcDbLayerTableRecord
  2
AM_7
 70
     0
 62
     4
  6
AM_ISO08W050
370
    -3
390
F
  0
LAYER
  5
E64
330
2
100
AcDbSymbolTableRecord
100
AcDbLayerTableRecord
  2
AM_6
 70
     0
 62
     2
  6
CONTINUOUS
370
    -3
390
F
  0
LAYER
  5
F4D
330
2
100
AcDbSymbolTableRecord
100
AcDbLayerTableRecord
  2
DEFPOINTS
 70
     0
 62
     7
  6
CONTINUOUS
290
     0
370
    -3
390
F
  0
LAYER
  5
4E80
330
2
100
AcDbSymbolTableRecord
100
AcDbLayerTableRecord
  2
AM_11
 70
     0
 62
     3
  6
AM_ISO09W050
370
    -3
390
F
  0
ENDTAB
  0
TABLE
  2
STYLE
  5
3
330
0
100
AcDbSymbolTable
 70
     5
  0
STYLE
  5
11
330
3
100
AcDbSymbolTableRecord
100
AcDbTextStyleTableRecord
  2
STANDARD
 70
     0
 40
0.0
 41
1.0
 50
0.0
 71
     0
 42
2.5
  3
simplex.shx
  4
EXTFONT.SHX
  0
STYLE
  5
52
330
3
100
AcDbSymbolTableRecord
100
AcDbTextStyleTableRecord
  2

 70
     1
 40
0.0
 41
1.0
 50
0.0
 71
     0
 42
2.5
  3
ltypeshp.shx
  4

  0
STYLE
  5
6B
330
3
100
AcDbSymbolTableRecord
100
AcDbTextStyleTableRecord
  2
ASAMI
 70
     0
 40
0.0
 41
1.0
 50
0.0
 71
     0
 42
2.5
  3
simplex.shx
  4
EXTFONT.SHX
  0
ENDTAB
  0
TABLE
  2
VIEW
  5
6
330
0
100
AcDbSymbolTable
 70
     0
  0
ENDTAB
  0
TABLE
  2
UCS
  5
7
330
0
100
AcDbSymbolTable
 70
     0
  0
ENDTAB
  0
TABLE
  2
APPID
  5
9
330
0
100
AcDbSymbolTable
 70
    31
  0
APPID
  5
12
330
9
100
AcDbSymbolTableRecord
100
AcDbRegAppTableRecord
  2
ACAD
 70
     0
  0
APPID
  5
30
330
9
100
AcDbSymbolTableRecord
100
AcDbRegAppTableRecord
  2
MCAD_NO_VIS
 70
     0
  0
APPID
  5
31
330
9
100
AcDbSymbolTableRecord
100
AcDbRegAppTableRecord
  2
ACAD_TEMP_GRAPHIC
 70
     0
  0
APPID
  5
2C2
330
9
100
AcDbSymbolTableRecord
100
AcDbRegAppTableRecord
  2
GENIUS_GENDTOL_13
 70
     0
  0
APPID
  5
339
330
9
100
AcDbSymbolTableRecord
100
AcDbRegAppTableRecord
  2
GENIUS_GENODEF_13
 70
     0
  0
APPID
  5
33A
330
9
100
AcDbSymbolTableRecord
100
AcDbRegAppTableRecord
  2
GENIUS_GENOBJ-N-RSBK_13
 70
     0
  0
APPID
  5
33B
330
9
100
AcDbSymbolTableRecord
100
AcDbRegAppTableRecord
  2
GENIUS_GENOBJ-N-LIB_13
 70
     0
  0
APPID
  5
33C
330
9
100
AcDbSymbolTableRecord
100
AcDbRegAppTableRecord
  2
GENIUS_GENSCALE_13
 70
     0
  0
APPID
  5
378
330
9
100
AcDbSymbolTableRecord
100
AcDbRegAppTableRecord
  2
GENIUS_GENDIMSH_14
 70
     0
  0
APPID
  5
BB0
330
9
100
AcDbSymbolTableRecord
100
AcDbRegAppTableRecord
  2
GENIUS_GENOBJ-N-CEN_13
 70
     0
  0
APPID
  5
BB1
330
9
100
AcDbSymbolTableRecord
100
AcDbRegAppTableRecord
  2
GENIUS_GENFIL_13
 70
     0
  0
APPID
  5
BB2
330
9
100
AcDbSymbolTableRecord
100
AcDbRegAppTableRecord
  2
GENIUS_GENOBJ-N-CHA_13
 70
     0
  0
APPID
  5
1FAF
330
9
100
AcDbSymbolTableRecord
100
AcDbRegAppTableRecord
  2
GENIUS_GENOBJ-N-CRS_13
 70
     0
  0
APPID
  5
1FB0
330
9
100
AcDbSymbolTableRecord
100
AcDbRegAppTableRecord
  2
GENIUS_GENOENT_13
 70
     0
  0
APPID
  5
1FB1
330
9
100
AcDbSymbolTableRecord
100
AcDbRegAppTableRecord
  2
GENIUS_GENOREF_13
 70
     0
  0
APPID
  5
1FB2
330
9
100
AcDbSymbolTableRecord
100
AcDbRegAppTableRecord
  2
GENIUS_GENOLIS_13
 70
     0
  0
APPID
  5
1FB7
330
9
100
AcDbSymbolTableRecord
100
AcDbRegAppTableRecord
  2
GENIUS_GENOBJ-N-FIL_13
 70
     0
  0
APPID
  5
22A8
330
9
100
AcDbSymbolTableRecord
100
AcDbRegAppTableRecord
  2
GEVID1056506048
 70
     0
  0
APPID
  5
22A9
330
9
100
AcDbSymbolTableRecord
100
AcDbRegAppTableRecord
  2
GEVDC
 70
     0
  0
APPID
  5
22AC
330
9
100
AcDbSymbolTableRecord
100
AcDbRegAppTableRecord
  2
GENIUS_GENBH_13
 70
     0
  0
APPID
  5
22B8
330
9
100
AcDbSymbolTableRecord
100
AcDbRegAppTableRecord
  2
GENIUS_GENOBJ-NBEHI-BHF_13
 70
     0
  0
APPID
  5
22BA
330
9
100
AcDbSymbolTableRecord
100
AcDbRegAppTableRecord
  2
GENIUS_GENOBJ-NBEHI-BHB_13
 70
     0
  0
APPID
  5
35C9
330
9
100
AcDbSymbolTableRecord
100
AcDbRegAppTableRecord
  2
GENIUS_GENREC_14
 70
     0
  0
APPID
  5
35CA
330
9
100
AcDbSymbolTableRecord
100
AcDbRegAppTableRecord
  2
GENIUS_GENOBJ-N-REC_13
 70
     0
  0
APPID
  5
8F8D
330
9
100
AcDbSymbolTableRecord
100
AcDbRegAppTableRecord
  2
AD_DRAW
 70
     0
  0
APPID
  5
8F90
330
9
100
AcDbSymbolTableRecord
100
AcDbRegAppTableRecord
  2
ACATTRIBSERVICES
 70
     0
  0
APPID
  5
8FAE
330
9
100
AcDbSymbolTableRecord
100
AcDbRegAppTableRecord
  2
DESIGNERASSEMBLIES
 70
     0
  0
APPID
  5
8FB3
330
9
100
AcDbSymbolTableRecord
100
AcDbRegAppTableRecord
  2
ACADM_DIM_EDIT
 70
     0
  0
APPID
  5
8FB4
330
9
100
AcDbSymbolTableRecord
100
AcDbRegAppTableRecord
  2
AMDT_DM_ADJ
 70
     0
  0
APPID
  5
8FB9
330
9
100
AcDbSymbolTableRecord
100
AcDbRegAppTableRecord
  2
GENIUS_GENSCREG_15
 70
     0
  0
APPID
  5
8FBA
330
9
100
AcDbSymbolTableRecord
100
AcDbRegAppTableRecord
  2
GENIUS_GENOBJ-N-SDF_13
 70
     0
  0
ENDTAB
  0
TABLE
  2
DIMSTYLE
  5
A
330
0
100
AcDbSymbolTable
 70
     9
100
AcDbDimStyleTable
 71
     0
  0
DIMSTYLE
105
58
330
A
100
AcDbSymbolTableRecord
100
AcDbDimStyleTableRecord
  2
AM_JIS
 70
     0
  4
"
 41
2.5
 42
1.0
 43
12.0
 44
1.0
 47
0.1
 48
0.1
 73
     0
 74
     0
 77
     3
 78
     8
140
3.2
141
0.0
143
0.0393701
146
0.71
147
1.5
172
     1
176
   256
177
   256
178
     2
271
     3
272
     3
283
     0
340
6B
341
59
342
59
  0
DIMSTYLE
105
60
102
{ACAD_REACTORS
330
8B99
102
}
330
A
100
AcDbSymbolTableRecord
100
AcDbDimStyleTableRecord
  2
AM_JIS$4
 70
     0
  4
"
 41
2.5
 42
1.0
 43
10.0
 44
1.0
 47
0.1
 48
0.1
 73
     0
 77
     3
 78
     8
140
3.2
141
0.0
143
0.0393701
146
0.71
147
1.5
176
   256
177
   256
178
     2
271
     2
272
     3
283
     0
288
     1
340
6B
341
59
342
59
  0
DIMSTYLE
105
62
330
A
100
AcDbSymbolTableRecord
100
AcDbDimStyleTableRecord
  2
AM_JIS$7
 70
     0
  4
"
 41
2.5
 42
1.0
 43
10.0
 44
1.0
 47
0.1
 48
0.1
 73
     0
 74
     0
 77
     3
 78
     8
140
3.2
141
0.0
143
0.0393701
146
0.71
147
1.5
172
     1
176
   256
177
   256
178
     2
271
     2
272
     3
283
     0
340
6B
341
59
342
59
  0
DIMSTYLE
105
B34
102
{ACAD_REACTORS
330
833C
330
844D
330
87C0
330
8A88
102
}
330
A
100
AcDbSymbolTableRecord
100
AcDbDimStyleTableRecord
  2
AM_JIS$2
 70
     0
  4
"
 41
2.5
 42
1.0
 43
12.0
 44
1.0
 47
0.1
 48
0.1
 73
     0
 74
     0
 77
     3
 78
     8
140
3.2
141
0.0
143
0.0393701
146
0.71
147
1.5
172
     1
176
   256
177
   256
178
     2
271
     3
272
     3
283
     0
340
6B
341
59
342
59
  0
DIMSTYLE
105
3B48
102
{ACAD_REACTORS
330
8554
330
7F83
330
867D
330
8712
330
88A4
330
8953
330
89E8
330
7EEC
102
}
330
A
100
AcDbSymbolTableRecord
100
AcDbDimStyleTableRecord
  2
AM_JIS$0
 70
     0
  4
"
 41
2.5
 42
0.0
 43
10.0
 44
1.0
 47
0.1
 48
0.1000000001
 73
     0
 74
     0
 77
     3
 78
     1
140
3.799999999999998
141
0.0
143
0.0393701
146
0.71
147
1.5
172
     1
176
     3
177
     3
178
     2
271
     2
272
     2
275
     1
283
     0
284
     8
340
11
341
59
342
59
  0
ENDTAB
  0
TABLE
  2
BLOCK_RECORD
  5
1
330
0
100
AcDbSymbolTable
 70
    16
  0
BLOCK_RECORD
  5
1F
102
{ACAD_XDICTIONARY
360
74
102
}
330
1
100
AcDbSymbolTableRecord
100
AcDbBlockTableRecord
  2
*MODEL_SPACE
340
8F54
  0
BLOCK_RECORD
  5
101
102
{ACAD_XDICTIONARY
360
8EF9
102
}
330
1
100
AcDbSymbolTableRecord
100
AcDbBlockTableRecord
  2
*PAPER_SPACE
340
8F55
  0
BLOCK_RECORD
  5
59
330
1
100
AcDbSymbolTableRecord
100
AcDbBlockTableRecord
  2
_OPEN30
340
0
102
{BLKREFS
331
903D
331
903E
331
9046
331
9047
331
9066
331
9067
331
906F
331
9070
331
9078
331
9079
331
9099
331
909A
331
90A2
331
90A3
331
90B5
331
90CB
331
90CC
331
90D7
331
90E4
331
90E5
331
90FB
331
90FC
331
9108
331
9109
102
}
  0
BLOCK_RECORD
  5
7EED
330
1
100
AcDbSymbolTableRecord
100
AcDbBlockTableRecord
  2
*D2
340
0
  0
BLOCK_RECORD
  5
7F84
330
1
100
AcDbSymbolTableRecord
100
AcDbBlockTableRecord
  2
*D3
340
0
  0
BLOCK_RECORD
  5
833D
330
1
100
AcDbSymbolTableRecord
100
AcDbBlockTableRecord
  2
*D4
340
0
  0
BLOCK_RECORD
  5
844E
330
1
100
AcDbSymbolTableRecord
100
AcDbBlockTableRecord
  2
*D5
340
0
  0
BLOCK_RECORD
  5
8555
330
1
100
AcDbSymbolTableRecord
100
AcDbBlockTableRecord
  2
*D6
340
0
  0
BLOCK_RECORD
  5
867E
330
1
100
AcDbSymbolTableRecord
100
AcDbBlockTableRecord
  2
*D7
340
0
  0
BLOCK_RECORD
  5
8713
330
1
100
AcDbSymbolTableRecord
100
AcDbBlockTableRecord
  2
*D8
340
0
  0
BLOCK_RECORD
  5
87C1
330
1
100
AcDbSymbolTableRecord
100
AcDbBlockTableRecord
  2
*D9
340
0
  0
BLOCK_RECORD
  5
88A5
330
1
100
AcDbSymbolTableRecord
100
AcDbBlockTableRecord
  2
*D10
340
0
  0
BLOCK_RECORD
  5
8954
330
1
100
AcDbSymbolTableRecord
100
AcDbBlockTableRecord
  2
*D11
340
0
  0
BLOCK_RECORD
  5
89E9
330
1
100
AcDbSymbolTableRecord
100
AcDbBlockTableRecord
  2
*D12
340
0
  0
BLOCK_RECORD
  5
8A89
330
1
100
AcDbSymbolTableRecord
100
AcDbBlockTableRecord
  2
*D13
340
0
  0
BLOCK_RECORD
  5
8B9A
330
1
100
AcDbSymbolTableRecord
100
AcDbBlockTableRecord
  2
*D14
340
0
  0
ENDTAB
  0
ENDSEC
  0
SECTION
  2
BLOCKS
  0
BLOCK
  5
20
330
1F
100
AcDbEntity
  8
0
100
AcDbBlockBegin
  2
*MODEL_SPACE
 70
     0
 10
0.0
 20
0.0
 30
0.0
  3
*MODEL_SPACE
  1

  0
ENDBLK
  5
21
330
1F
100
AcDbEntity
  8
0
100
AcDbBlockEnd
  0
BLOCK
  5
103
330
101
100
AcDbEntity
 67
     1
  8
0
100
AcDbBlockBegin
  2
*PAPER_SPACE
 70
     0
 10
0.0
 20
0.0
 30
0.0
  3
*PAPER_SPACE
  1

  0
ENDBLK
  5
104
330
101
100
AcDbEntity
 67
     1
  8
0
100
AcDbBlockEnd
  0
BLOCK
  5
5D
330
59
100
AcDbEntity
  8
0
100
AcDbBlockBegin
  2
_OPEN30
 70
     0
 10
0.0
 20
0.0
 30
0.0
  3
_OPEN30
  1

  0
LINE
  5
5A
330
59
100
AcDbEntity
  8
0
 62
     0
100
AcDbLine
 10
-1.0
 20
0.26794919
 30
0.0
 11
0.0
 21
0.0
 31
0.0
  0
LINE
  5
5B
330
59
100
AcDbEntity
  8
0
 62
     0
100
AcDbLine
 10
0.0
 20
0.0
 30
0.0
 11
-1.0
 21
-0.26794919
 31
0.0
  0
LINE
  5
5C
330
59
100
AcDbEntity
  8
0
 62
     0
100
AcDbLine
 10
0.0
 20
0.0
 30
0.0
 11
-1.0
 21
0.0
 31
0.0
  0
ENDBLK
  5
5E
330
59
100
AcDbEntity
  8
0
100
AcDbBlockEnd
  0
BLOCK
  5
7EF7
330
7EED
100
AcDbEntity
  8
0
100
AcDbBlockBegin
  2
*D2
 70
     1
 10
0.0
 20
0.0
 30
0.0
  3
*D2
  1

  0
LINE
  5
903A
330
7EED
100
AcDbEntity
  8
AM_5
100
AcDbLine
 10
151.0000038146926
 20
7.223541259766729
 30
0.0
 11
165.0000038146926
 21
7.223541259766768
 31
0.0
  0
LINE
  5
903B
330
7EED
100
AcDbEntity
  8
AM_5
100
AcDbLine
 10
151.0000038146925
 20
32.22354125976672
 30
0.0
 11
165.0000038146925
 21
32.22354125976676
 31
0.0
  0
LINE
  5
903C
330
7EED
100
AcDbEntity
  8
AM_5
100
AcDbLine
 10
164.0000038146926
 20
9.723541259766767
 30
0.0
 11
164.0000038146925
 21
29.72354125976676
 31
0.0
  0
INSERT
  5
903D
330
7EED
100
AcDbEntity
  8
AM_5
100
AcDbBlockReference
  2
_OPEN30
 10
164.0000038146926
 20
7.223541259766766
 30
0.0
 41
2.5
 42
2.5
 43
2.5
 50
270.0000000000002
  0
INSERT
  5
903E
330
7EED
100
AcDbEntity
  8
AM_5
100
AcDbBlockReference
  2
_OPEN30
 10
164.0000038146925
 20
32.22354125976676
 30
0.0
 41
2.5
 42
2.5
 43
2.5
 50
90.00000000000015
  0
MTEXT
  5
903F
330
7EED
100
AcDbEntity
  8
AM_5
 62
     2
100
AcDbMText
 10
160.9000038146926
 20
19.72354125976675
 30
0.0
 40
3.2
 41
0.0
 71
     5
 72
     1
  1
25
  7
ASAMI
 11
-0.0000000000000028
 21
1.0
 31
0.0
 73
     1
 44
1.0
1001
ACAD
1000
MTEXTBEGIN
1070
    73
1070
     1
1070
    44
1040
1.0
1070
    74
1070
     0
1000
MTEXTEND
  0
POINT
  5
9040
330
7EED
100
AcDbEntity
  8
DEFPOINTS
 62
     0
100
AcDbPoint
 10
150.0000038146926
 20
7.22354125976626
 30
0.0
  0
POINT
  5
9041
330
7EED
100
AcDbEntity
  8
DEFPOINTS
 62
     0
100
AcDbPoint
 10
150.0000038146926
 20
32.22354125976625
 30
0.0
  0
POINT
  5
9042
330
7EED
100
AcDbEntity
  8
DEFPOINTS
 62
     0
100
AcDbPoint
 10
164.0000038146926
 20
32.22354125976625
 30
0.0
  0
ENDBLK
  5
7EF8
330
7EED
100
AcDbEntity
  8
0
100
AcDbBlockEnd
  0
BLOCK
  5
7F8E
330
7F84
100
AcDbEntity
  8
0
100
AcDbBlockBegin
  2
*D3
 70
     1
 10
0.0
 20
0.0
 30
0.0
  3
*D3
  1

  0
LINE
  5
9043
330
7F84
100
AcDbEntity
  8
AM_5
100
AcDbLine
 10
92.368264376599
 20
-45.60624282394122
 30
0.0
 11
105.8912258500936
 21
-41.98277583963219
 31
0.0
  0
LINE
  5
9044
330
7F84
100
AcDbEntity
  8
AM_5
100
AcDbLine
 10
85.89778876200087
 20
-21.45809855619178
 30
0.0
 11
99.42074947413036
 21
-17.83463177588994
 31
0.0
  0
LINE
  5
9045
330
7F84
100
AcDbEntity
  8
AM_5
100
AcDbLine
 10
104.2782523547888
 20
-39.82678036110163
 30
0.0
 11
99.10187133036451
 21
-20.50826539503606
 31
0.0
  0
INSERT
  5
9046
330
7F84
100
AcDbEntity
  8
AM_5
100
AcDbBlockReference
  2
_OPEN30
 10
104.9253000305583
 20
-42.24159490993997
 30
0.0
 41
2.5
 42
2.5
 43
2.5
 50
285.0000014950998
  0
INSERT
  5
9047
330
7F84
100
AcDbEntity
  8
AM_5
100
AcDbBlockReference
  2
_OPEN30
 10
98.45482365459503
 20
-18.09345084619773
 30
0.0
 41
2.5
 42
2.5
 43
2.5
 50
105.0000014950998
  0
MTEXT
  5
9048
330
7F84
100
AcDbEntity
  8
AM_5
 62
     2
100
AcDbMText
 10
104.6844318831362
 20
-29.3651837601147
 30
0.0
 40
3.2
 41
0.0
 71
     5
 72
     1
  1
25
  7
ASAMI
 11
0.2588190703077897
 21
-0.9659258195353364
 31
0.0
 73
     1
 44
1.0
1001
ACAD
1000
MTEXTBEGIN
1070
    73
1070
     1
1070
    44
1040
1.0
1070
    74
1070
     0
1000
MTEXTEND
  0
POINT
  5
9049
330
7F84
100
AcDbEntity
  8
DEFPOINTS
 62
     0
100
AcDbPoint
 10
91.40233855706354
 20
-45.86506189424926
 30
0.0
  0
POINT
  5
904A
330
7F84
100
AcDbEntity
  8
DEFPOINTS
 62
     0
100
AcDbPoint
 10
84.93186294246546
 20
-21.71691762649981
 30
0.0
  0
POINT
  5
904B
330
7F84
100
AcDbEntity
  8
DEFPOINTS
 62
     0
100
AcDbPoint
 10
98.45482365459497
 20
-18.09345084619801
 30
0.0
  0
ENDBLK
  5
7F8F
330
7F84
100
AcDbEntity
  8
0
100
AcDbBlockEnd
  0
BLOCK
  5
834D
330
833D
100
AcDbEntity
  8
0
100
AcDbBlockBegin
  2
*D4
 70
     1
 10
0.0
 20
0.0
 30
0.0
  3
*D4
  1

  0
LINE
  5
90D4
330
833D
100
AcDbEntity
  8
AM_5
370
    -2
100
AcDbLine
 10
10.77958220828598
 20
-41.45978974885137
 30
0.0
 11
-9.036463980501455
 21
-44.24474916572219
 31
0.0
  0
ARC
  5
90D5
330
833D
100
AcDbEntity
  8
AM_5
370
    -2
100
AcDbCircle
 10
11.76985030633266
 20
-41.32061685640816
 30
0.0
 40
20.01078922755858
100
AcDbArc
 50
173.6744393105565
 51
180.8372136230048
  0
ARC
  5
90D6
330
833D
100
AcDbEntity
  8
AM_5
370
    -2
100
AcDbCircle
 10
11.76985030633266
 20
-41.32061685640816
 30
0.0
 40
20.01078922755858
100
AcDbArc
 50
187.9999879354532
 51
195.0000014950803
  0
INSERT
  5
90D7
330
833D
100
AcDbEntity
  8
AM_5
370
    -2
100
AcDbBlockReference
  2
_OPEN30
 10
-8.046195882454775
 20
-44.10557627327897
 30
0.0
 41
2.5
 42
2.5
 43
2.5
 50
274.418600779229
  0
MTEXT
  5
90D8
330
833D
100
AcDbEntity
  8
AM_5
 62
     2
100
AcDbMText
 10
-11.29977124996649
 20
-39.94179853270668
 30
0.0
 40
3.2
 41
0.0
 71
     5
 72
     1
  1
7°
  7
ASAMI
 11
0.0596612391781625
 21
0.9982186817224601
 31
0.0
 73
     1
 44
1.0
1001
ACAD
1000
MTEXTBEGIN
1070
    73
1070
     1
1070
    44
1040
1.0
1070
    74
1070
     0
1000
MTEXTEND
  0
POINT
  5
90D9
330
833D
100
AcDbEntity
  8
DEFPOINTS
 62
     0
100
AcDbPoint
 10
-7.753922171363797
 20
-45.70855415642984
 30
0.0
  0
POINT
  5
90DA
330
833D
100
AcDbEntity
  8
DEFPOINTS
 62
     0
100
AcDbPoint
 10
11.72861930282216
 20
-41.33166467165506
 30
0.0
  0
POINT
  5
90DB
330
833D
100
AcDbEntity
  8
DEFPOINTS
 62
     0
100
AcDbPoint
 10
16.89651589852525
 20
-40.6001120956652
 30
0.0
  0
POINT
  5
90DC
330
833D
100
AcDbEntity
  8
DEFPOINTS
 62
     0
100
AcDbPoint
 10
11.76985030633254
 20
-41.32061685640819
 30
0.0
  0
POINT
  5
90DD
330
833D
100
AcDbEntity
  8
DEFPOINTS
 62
     0
100
AcDbPoint
 10
11.76985030633254
 20
-41.32061685640819
 30
0.0
  0
ENDBLK
  5
834E
330
833D
100
AcDbEntity
  8
0
100
AcDbBlockEnd
  0
BLOCK
  5
845E
330
844E
100
AcDbEntity
  8
0
100
AcDbBlockBegin
  2
*D5
 70
     1
 10
0.0
 20
0.0
 30
0.0
  3
*D5
  1

  0
LINE
  5
90C6
330
844E
100
AcDbEntity
  8
AM_5
370
    -2
100
AcDbLine
 10
12.04116943801804
 20
-42.33319355304977
 30
0.0
 11
21.64943742179537
 21
-78.19173472935964
 31
0.0
  0
LINE
  5
90C7
330
844E
100
AcDbEntity
  8
AM_5
370
    -2
100
AcDbLine
 10
15.0631943948316
 20
-49.47191795625656
 30
0.0
 11
26.06926118652356
 21
-76.71288210981941
 31
0.0
  0
ARC
  5
90C8
330
844E
100
AcDbEntity
  8
AM_5
370
    -2
100
AcDbCircle
 10
11.76984279481932
 20
-41.32058882306116
 30
0.0
 40
37.17181932312008
100
AcDbArc
 50
277.2916640451838
 51
281.1458326441238
  0
ARC
  5
90C9
330
844E
100
AcDbEntity
  8
AM_5
370
    -2
100
AcDbCircle
 10
11.76984279481932
 20
-41.32058882306116
 30
0.0
 40
37.17181932312008
100
AcDbArc
 50
295.8541737641016
 51
299.7083423630417
  0
ARC
  5
90CA
330
844E
100
AcDbEntity
  8
AM_5
370
    -2
100
AcDbCircle
 10
11.76984279481932
 20
-41.32058882306116
 30
0.0
 40
37.17181932312008
100
AcDbArc
 50
285.000001243064
 51
292.0000051651615
  0
INSERT
  5
90CB
330
844E
100
AcDbEntity
  8
AM_5
370
    -2
100
AcDbBlockReference
  2
_OPEN30
 10
21.39061835573655
 20
-77.22580890868577
 30
0.0
 41
2.5
 42
2.5
 43
2.5
 50
13.07291694359396
  0
INSERT
  5
90CC
330
844E
100
AcDbEntity
  8
AM_5
370
    -2
100
AcDbBlockReference
  2
_OPEN30
 10
25.69465450952288
 20
-75.78569828902307
 30
0.0
 41
2.5
 42
2.5
 43
2.5
 50
203.9270894646315
  0
MTEXT
  5
90CD
330
844E
100
AcDbEntity
  8
AM_5
 62
     2
100
AcDbMText
 10
18.8042403647927
 20
-74.65834703825752
 30
0.0
 40
3.2
 41
0.0
 71
     5
 72
     1
  1
7°
  7
ASAMI
 11
0.9784554766224173
 21
0.2064579382528025
 31
0.0
 73
     1
 44
1.0
1001
ACAD
1000
MTEXTBEGIN
1070
    73
1070
     1
1070
    44
1040
1.0
1070
    74
1070
     0
1000
MTEXTEND
  0
POINT
  5
90CE
330
844E
100
AcDbEntity
  8
DEFPOINTS
 62
     0
100
AcDbPoint
 10
24.27992712488381
 20
-76.32404496449606
 30
0.0
  0
POINT
  5
90CF
330
844E
100
AcDbEntity
  8
DEFPOINTS
 62
     0
100
AcDbPoint
 10
14.68858771783078
 20
-48.54473413546025
 30
0.0
  0
POINT
  5
90D0
330
844E
100
AcDbEntity
  8
DEFPOINTS
 62
     0
100
AcDbPoint
 10
11.76985030633254
 20
-41.32061685640818
 30
0.0
  0
POINT
  5
90D1
330
844E
100
AcDbEntity
  8
DEFPOINTS
 62
     0
100
AcDbPoint
 10
11.7823503719591
 20
-41.36726773237596
 30
0.0
  0
POINT
  5
90D2
330
844E
100
AcDbEntity
  8
DEFPOINTS
 62
     0
100
AcDbPoint
 10
11.76985412102952
 20
-41.32061685640818
 30
0.0
  0
ENDBLK
  5
845F
330
844E
100
AcDbEntity
  8
0
100
AcDbBlockEnd
  0
BLOCK
  5
855F
330
8555
100
AcDbEntity
  8
0
100
AcDbBlockBegin
  2
*D6
 70
     1
 10
0.0
 20
0.0
 30
0.0
  3
*D6
  1

  0
LINE
  5
9063
330
8555
100
AcDbEntity
  8
AM_5
100
AcDbLine
 10
10.80392448679734
 20
-41.57943592671588
 30
0.0
 11
-8.525013497380342
 21
-46.75860979071756
 31
0.0
  0
LINE
  5
9064
330
8555
100
AcDbEntity
  8
AM_5
100
AcDbLine
 10
18.43351118342138
 20
-65.41700230244805
 30
0.0
 11
-2.054535866725093
 21
-70.90675853703351
 31
0.0
  0
LINE
  5
9065
330
8555
100
AcDbEntity
  8
AM_5
100
AcDbLine
 10
-6.91204000207553
 20
-48.9146052692481
 30
0.0
 11
-1.735657722959231
 21
-68.23312491788738
 31
0.0
  0
INSERT
  5
9066
330
8555
100
AcDbEntity
  8
AM_5
100
AcDbBlockReference
  2
_OPEN30
 10
-7.559087677845006
 20
-46.49979072040976
 30
0.0
 41
2.5
 42
2.5
 43
2.5
 50
105.0000014950998
  0
INSERT
  5
9067
330
8555
100
AcDbEntity
  8
AM_5
100
AcDbBlockReference
  2
_OPEN30
 10
-1.088610047189757
 20
-70.64793946672572
 30
0.0
 41
2.5
 42
2.5
 43
2.5
 50
285.0000014950999
  0
MTEXT
  5
9068
330
8555
100
AcDbEntity
  8
AM_5
 62
     2
100
AcDbMText
 10
-1.32947882195786
 20
-57.77152597561359
 30
0.0
 40
3.2
 41
0.0
 71
     5
 72
     1
  1
25
  7
ASAMI
 11
0.2588190703077906
 21
-0.9659258195353363
 31
0.0
 73
     1
 44
1.0
1001
ACAD
1000
MTEXTBEGIN
1070
    73
1070
     1
1070
    44
1040
1.0
1070
    74
1070
     0
1000
MTEXTEND
  0
POINT
  5
9069
330
8555
100
AcDbEntity
  8
DEFPOINTS
 62
     0
100
AcDbPoint
 10
11.76985030633254
 20
-41.32061685640813
 30
0.0
  0
POINT
  5
906A
330
8555
100
AcDbEntity
  8
DEFPOINTS
 62
     0
100
AcDbPoint
 10
19.39943700295649
 20
-65.15818323214034
 30
0.0
  0
POINT
  5
906B
330
8555
100
AcDbEntity
  8
DEFPOINTS
 62
     0
100
AcDbPoint
 10
-1.088610047189991
 20
-70.64793946672573
 30
0.0
  0
ENDBLK
  5
8560
330
8555
100
AcDbEntity
  8
0
100
AcDbBlockEnd
  0
BLOCK
  5
8688
330
867E
100
AcDbEntity
  8
0
100
AcDbBlockBegin
  2
*D7
 70
     1
 10
0.0
 20
0.0
 30
0.0
  3
*D7
  1

  0
LINE
  5
906C
330
867E
100
AcDbEntity
  8
AM_5
100
AcDbLine
 10
-0.0000000000002785
 20
4.000000000000198
 30
0.0
 11
-0.0000000000001937
 21
57.22354125976689
 31
0.0
  0
LINE
  5
906D
330
867E
100
AcDbEntity
  8
AM_5
100
AcDbLine
 10
150.0000038146925
 20
33.22354125976669
 30
0.0
 11
150.0000038146926
 21
57.22354125976666
 31
0.0
  0
LINE
  5
906E
330
867E
100
AcDbEntity
  8
AM_5
100
AcDbLine
 10
2.499999999999804
 20
56.22354125976688
 30
0.0
 11
147.5000038146925
 21
56.22354125976666
 31
0.0
  0
INSERT
  5
906F
330
867E
100
AcDbEntity
  8
AM_5
100
AcDbBlockReference
  2
_OPEN30
 10
-0.0000000000001953
 20
56.22354125976689
 30
0.0
 41
2.5
 42
2.5
 43
2.5
 50
179.9999999999998
  0
INSERT
  5
9070
330
867E
100
AcDbEntity
  8
AM_5
100
AcDbBlockReference
  2
_OPEN30
 10
150.0000038146926
 20
56.22354125976666
 30
0.0
 41
2.5
 42
2.5
 43
2.5
 50
359.9999999999999
  0
MTEXT
  5
9071
330
867E
100
AcDbEntity
  8
AM_5
 62
     2
100
AcDbMText
 10
75.0000019073462
 20
59.32354125976678
 30
0.0
 40
3.2
 41
0.0
 71
     5
 72
     1
  1
150
  7
ASAMI
 73
     1
 44
1.0
1001
ACAD
1000
MTEXTBEGIN
1070
    73
1070
     1
1070
    44
1040
1.0
1070
    74
1070
     0
1000
MTEXTEND
  0
POINT
  5
9072
330
867E
100
AcDbEntity
  8
DEFPOINTS
 62
     0
100
AcDbPoint
 10
-0.0000000000002713
 20
3.000000000000198
 30
0.0
  0
POINT
  5
9073
330
867E
100
AcDbEntity
  8
DEFPOINTS
 62
     0
100
AcDbPoint
 10
150.0000038146926
 20
32.22354125976625
 30
0.0
  0
POINT
  5
9074
330
867E
100
AcDbEntity
  8
DEFPOINTS
 62
     0
100
AcDbPoint
 10
150.0000038146927
 20
56.22354125976622
 30
0.0
  0
ENDBLK
  5
8689
330
867E
100
AcDbEntity
  8
0
100
AcDbBlockEnd
  0
BLOCK
  5
871D
330
8713
100
AcDbEntity
  8
0
100
AcDbBlockBegin
  2
*D8
 70
     1
 10
0.0
 20
0.0
 30
0.0
  3
*D8
  1

  0
LINE
  5
9075
330
8713
100
AcDbEntity
  8
AM_5
100
AcDbLine
 10
-0.0000000000002785
 20
4.000000000000198
 30
0.0
 11
-0.0000000000002096
 21
47.22354125976632
 31
0.0
  0
LINE
  5
9076
330
8713
100
AcDbEntity
  8
AM_5
100
AcDbLine
 10
19.0000047683717
 20
10.35773849487327
 30
0.0
 11
19.00000476837176
 21
47.2235412597663
 31
0.0
  0
LINE
  5
9077
330
8713
100
AcDbEntity
  8
AM_5
100
AcDbLine
 10
2.499999999999788
 20
46.22354125976632
 30
0.0
 11
16.50000476837176
 21
46.2235412597663
 31
0.0
  0
INSERT
  5
9078
330
8713
100
AcDbEntity
  8
AM_5
100
AcDbBlockReference
  2
_OPEN30
 10
-0.0000000000002112
 20
46.22354125976633
 30
0.0
 41
2.5
 42
2.5
 43
2.5
 50
179.9999999999998
  0
INSERT
  5
9079
330
8713
100
AcDbEntity
  8
AM_5
100
AcDbBlockReference
  2
_OPEN30
 10
19.00000476837176
 20
46.2235412597663
 30
0.0
 41
2.5
 42
2.5
 43
2.5
 50
359.9999999999999
  0
MTEXT
  5
907A
330
8713
100
AcDbEntity
  8
AM_5
 62
     2
100
AcDbMText
 10
9.50000238418578
 20
49.32354125976631
 30
0.0
 40
3.2
 41
0.0
 71
     5
 72
     1
  1
19
  7
ASAMI
 73
     1
 44
1.0
1001
ACAD
1000
MTEXTBEGIN
1070
    73
1070
     1
1070
    44
1040
1.0
1070
    74
1070
     0
1000
MTEXTEND
  0
POINT
  5
907B
330
8713
100
AcDbEntity
  8
DEFPOINTS
 62
     0
100
AcDbPoint
 10
-0.0000000000002713
 20
3.000000000000198
 30
0.0
  0
POINT
  5
907C
330
8713
100
AcDbEntity
  8
DEFPOINTS
 62
     0
100
AcDbPoint
 10
19.00000476837173
 20
9.357738494873215
 30
0.0
  0
POINT
  5
907D
330
8713
100
AcDbEntity
  8
DEFPOINTS
 62
     0
100
AcDbPoint
 10
19.0000047683719
 20
46.22354125976624
 30
0.0
  0
ENDBLK
  5
871E
330
8713
100
AcDbEntity
  8
0
100
AcDbBlockEnd
  0
BLOCK
  5
87D0
330
87C1
100
AcDbEntity
  8
0
100
AcDbBlockBegin
  2
*D9
 70
     1
 10
0.0
 20
0.0
 30
0.0
  3
*D9
  1

  0
LINE
  5
90DF
330
87C1
100
AcDbEntity
  8
AM_5
370
    -2
100
AcDbLine
 10
25.38569681529605
 20
33.18946708995008
 30
0.0
 11
28.80204713991004
 21
45.93946084530475
 31
0.0
  0
LINE
  5
90E0
330
87C1
100
AcDbEntity
  8
AM_5
370
    -2
100
AcDbLine
 10
19.00000476837169
 20
10.69228002514351
 30
0.0
 11
19.00000476837167
 21
47.22992412994709
 31
0.0
  0
ARC
  5
90E1
330
87C1
100
AcDbEntity
  8
AM_5
370
    -2
100
AcDbCircle
 10
19.00000476837169
 20
9.357738494873279
 30
0.0
 40
36.87218563507381
100
AcDbArc
 50
71.11450025171173
 51
75.00000086217918
  0
LINE
  5
90E2
330
87C1
100
AcDbEntity
  8
AM_5
370
    -2
100
AcDbLine
 10
30.93471915798609
 20
44.24499499270748
 30
0.0
 11
42.59690702123268
 21
40.25543274912676
 31
0.0
  0
ARC
  5
90E3
330
87C1
100
AcDbEntity
  8
AM_5
370
    -2
100
AcDbCircle
 10
19.00000476837169
 20
9.357738494873279
 30
0.0
 40
36.87218563507381
100
AcDbArc
 50
78.88550147264663
 51
86.11449938953255
  0
INSERT
  5
90E4
330
87C1
100
AcDbEntity
  8
AM_5
370
    -2
100
AcDbBlockReference
  2
_OPEN30
 10
28.54322810934265
 20
44.97353501512101
 30
0.0
 41
2.5
 42
2.5
 43
2.5
 50
346.9427511674129
  0
INSERT
  5
90E5
330
87C1
100
AcDbEntity
  8
AM_5
370
    -2
100
AcDbBlockReference
  2
_OPEN30
 10
19.00000476837167
 20
46.22992412994709
 30
0.0
 41
2.5
 42
2.5
 43
2.5
 50
178.0572496947663
  0
MTEXT
  5
90E6
330
87C1
100
AcDbEntity
  8
AM_5
 62
     2
100
AcDbMText
 10
37.76921481290218
 20
45.18333251524314
 30
0.0
 40
3.2
 41
0.0
 71
     5
 72
     1
  1
15°
  7
ASAMI
 11
0.9461673046213054
 21
-0.323677975255738
 31
0.0
 73
     1
 44
1.0
1001
ACAD
1000
MTEXTBEGIN
1070
    73
1070
     1
1070
    44
1040
1.0
1070
    74
1070
     0
1000
MTEXTEND
  0
POINT
  5
90E7
330
87C1
100
AcDbEntity
  8
DEFPOINTS
 62
     0
100
AcDbPoint
 10
22.21362730988078
 20
46.08961434770774
 30
0.0
  0
POINT
  5
90E8
330
87C1
100
AcDbEntity
  8
DEFPOINTS
 62
     0
100
AcDbPoint
 10
19.00000476837172
 20
9.357738494873215
 30
0.0
  0
POINT
  5
90E9
330
87C1
100
AcDbEntity
  8
DEFPOINTS
 62
     0
100
AcDbPoint
 10
19.00000476837172
 20
9.357738494873215
 30
0.0
  0
POINT
  5
90EA
330
87C1
100
AcDbEntity
  8
DEFPOINTS
 62
     0
100
AcDbPoint
 10
25.12687778472876
 20
32.22354125976624
 30
0.0
  0
POINT
  5
90EB
330
87C1
100
AcDbEntity
  8
DEFPOINTS
 62
     0
100
AcDbPoint
 10
19.00000476837172
 20
9.692280025143443
 30
0.0
  0
ENDBLK
  5
87D1
330
87C1
100
AcDbEntity
  8
0
100
AcDbBlockEnd
  0
BLOCK
  5
88AF
330
88A5
100
AcDbEntity
  8
0
100
AcDbBlockBegin
  2
*D10
 70
     1
 10
0.0
 20
0.0
 30
0.0
  3
*D10
  1

  0
LINE
  5
9103
330
88A5
100
AcDbEntity
  8
AM_5
100
AcDbLine
 10
2.810533534702722
 20
-0.1565959488426634
 30
0.0
 11
-13.71243069891256
 21
-4.583911235211489
 31
0.0
  0
LINE
  5
9104
330
88A5
100
AcDbEntity
  8
AM_5
100
AcDbLine
 10
1.257619145160209
 20
5.638958977023543
 30
0.0
 11
-15.26534508845508
 21
1.211643690654714
 31
0.0
  0
LINE
  5
9105
330
88A5
100
AcDbEntity
  8
AM_5
100
AcDbLine
 10
-14.94646692978667
 20
3.885277308023454
 30
0.0
 11
-15.59351459209624
 21
6.300091860468366
 31
0.0
  0
LINE
  5
9106
330
88A5
100
AcDbEntity
  8
AM_5
100
AcDbLine
 10
-12.09945721562503
 20
-6.739906722732579
 30
0.0
 11
-10.16324411564728
 21
-13.96595179300107
 31
0.0
  0
LINE
  5
9107
330
88A5
100
AcDbEntity
  8
AM_5
100
AcDbLine
 10
-14.29941926747711
 20
1.470462755578539
 30
0.0
 11
-12.74650487793459
 21
-4.325092170287664
 31
0.0
  0
INSERT
  5
9108
330
88A5
100
AcDbEntity
  8
AM_5
100
AcDbBlockReference
  2
_OPEN30
 10
-14.29941926747711
 20
1.470462755578539
 30
0.0
 41
2.5
 42
2.5
 43
2.5
 50
285.0000011757394
  0
INSERT
  5
9109
330
88A5
100
AcDbEntity
  8
AM_5
100
AcDbBlockReference
  2
_OPEN30
 10
-12.74650487793459
 20
-4.325092170287664
 30
0.0
 41
2.5
 42
2.5
 43
2.5
 50
105.0000011757394
  0
MTEXT
  5
910A
330
88A5
100
AcDbEntity
  8
AM_5
 62
     2
100
AcDbMText
 10
-7.813456789449683
 20
-10.75799743282542
 30
0.0
 40
3.2
 41
0.0
 71
     5
 72
     1
  1
6
  7
ASAMI
 11
0.2588190649238248
 21
-0.9659258209779657
 31
0.0
 73
     1
 44
1.0
1001
ACAD
1000
MTEXTBEGIN
1070
    73
1070
     1
1070
    44
1040
1.0
1070
    74
1070
     0
1000
MTEXTEND
  0
POINT
  5
910B
330
88A5
100
AcDbEntity
  8
DEFPOINTS
 62
     0
100
AcDbPoint
 10
3.776459355680688
 20
0.1022231160811482
 30
0.0
  0
POINT
  5
910C
330
88A5
100
AcDbEntity
  8
DEFPOINTS
 62
     0
100
AcDbPoint
 10
2.223544966138194
 20
5.897778041947359
 30
0.0
  0
POINT
  5
910D
330
88A5
100
AcDbEntity
  8
DEFPOINTS
 62
     0
100
AcDbPoint
 10
-14.29941926747711
 20
1.470462755578588
 30
0.0
  0
ENDBLK
  5
88B0
330
88A5
100
AcDbEntity
  8
0
100
AcDbBlockEnd
  0
BLOCK
  5
895E
330
8954
100
AcDbEntity
  8
0
100
AcDbBlockBegin
  2
*D11
 70
     1
 10
0.0
 20
0.0
 30
0.0
  3
*D11
  1

  0
LINE
  5
9096
330
8954
100
AcDbEntity
  8
AM_5
100
AcDbLine
 10
-0.896108145200063
 20
2.217339402226482
 30
0.0
 11
-28.52296149369188
 21
2.217339402226404
 31
0.0
  0
LINE
  5
9097
330
8954
100
AcDbEntity
  8
AM_5
100
AcDbLine
 10
24.12687778472866
 20
32.22354125976633
 30
0.0
 11
-28.52296149369196
 21
32.22354125976617
 31
0.0
  0
LINE
  5
9098
330
8954
100
AcDbEntity
  8
AM_5
100
AcDbLine
 10
-27.52296149369188
 20
4.717339402226407
 30
0.0
 11
-27.52296149369195
 21
29.72354125976618
 31
0.0
  0
INSERT
  5
9099
330
8954
100
AcDbEntity
  8
AM_5
100
AcDbBlockReference
  2
_OPEN30
 10
-27.52296149369188
 20
2.217339402226407
 30
0.0
 41
2.5
 42
2.5
 43
2.5
 50
270.0000000000002
  0
INSERT
  5
909A
330
8954
100
AcDbEntity
  8
AM_5
100
AcDbBlockReference
  2
_OPEN30
 10
-27.52296149369196
 20
32.22354125976618
 30
0.0
 41
2.5
 42
2.5
 43
2.5
 50
90.00000000000015
  0
MTEXT
  5
909B
330
8954
100
AcDbEntity
  8
AM_5
 62
     2
100
AcDbMText
 10
-31.46105673178716
 20
17.22044033099628
 30
0.0
 40
3.2
 41
0.0
 71
     5
 72
     1
  1
(30)
  7
ASAMI
 11
-0.0000000000000028
 21
1.0
 31
0.0
 73
     1
 44
1.0
1001
ACAD
1000
MTEXTBEGIN
1070
    73
1070
     1
1070
    44
1040
1.0
1070
    74
1070
     0
1000
MTEXTEND
  0
POINT
  5
909C
330
8954
100
AcDbEntity
  8
DEFPOINTS
 62
     0
100
AcDbPoint
 10
0.103891854799944
 20
2.217339402226484
 30
0.0
  0
POINT
  5
909D
330
8954
100
AcDbEntity
  8
DEFPOINTS
 62
     0
100
AcDbPoint
 10
25.12687778472876
 20
32.22354125976625
 30
0.0
  0
POINT
  5
909E
330
8954
100
AcDbEntity
  8
DEFPOINTS
 62
     0
100
AcDbPoint
 10
-27.52296149369187
 20
32.22354125976627
 30
0.0
  0
ENDBLK
  5
895F
330
8954
100
AcDbEntity
  8
0
100
AcDbBlockEnd
  0
BLOCK
  5
89F3
330
89E9
100
AcDbEntity
  8
0
100
AcDbBlockBegin
  2
*D12
 70
     1
 10
0.0
 20
0.0
 30
0.0
  3
*D12
  1

  0
LINE
  5
909F
330
89E9
100
AcDbEntity
  8
AM_5
100
AcDbLine
 10
-1.00000000000027
 20
0.0000000000001677
 30
0.0
 11
-38.52296149369186
 21
0.0000000000000617
 31
0.0
  0
LINE
  5
90A0
330
89E9
100
AcDbEntity
  8
AM_5
100
AcDbLine
 10
24.12687778472866
 20
32.22354125976633
 30
0.0
 11
-38.52296149369196
 21
32.22354125976615
 31
0.0
  0
LINE
  5
90A1
330
89E9
100
AcDbEntity
  8
AM_5
100
AcDbLine
 10
-37.52296149369187
 20
2.500000000000064
 30
0.0
 11
-37.52296149369195
 21
29.72354125976616
 31
0.0
  0
INSERT
  5
90A2
330
89E9
100
AcDbEntity
  8
AM_5
100
AcDbBlockReference
  2
_OPEN30
 10
-37.52296149369186
 20
0.0000000000000645
 30
0.0
 41
2.5
 42
2.5
 43
2.5
 50
270.0000000000002
  0
INSERT
  5
90A3
330
89E9
100
AcDbEntity
  8
AM_5
100
AcDbBlockReference
  2
_OPEN30
 10
-37.52296149369195
 20
32.22354125976616
 30
0.0
 41
2.5
 42
2.5
 43
2.5
 50
90.00000000000015
  0
MTEXT
  5
90A4
330
89E9
100
AcDbEntity
  8
AM_5
 62
     2
100
AcDbMText
 10
-40.62296149369191
 20
16.1117706298831
 30
0.0
 40
3.2
 41
0.0
 71
     5
 72
     1
  1
32.2
  7
ASAMI
 11
-0.0000000000000028
 21
1.0
 31
0.0
 73
     1
 44
1.0
1001
ACAD
1000
MTEXTBEGIN
1070
    73
1070
     1
1070
    44
1040
1.0
1070
    74
1070
     0
1000
MTEXTEND
  0
POINT
  5
90A5
330
89E9
100
AcDbEntity
  8
DEFPOINTS
 62
     0
100
AcDbPoint
 10
-0.0000000000002699
 20
0.0000000000001705
 30
0.0
  0
POINT
  5
90A6
330
89E9
100
AcDbEntity
  8
DEFPOINTS
 62
     0
100
AcDbPoint
 10
25.12687778472876
 20
32.22354125976625
 30
0.0
  0
POINT
  5
90A7
330
89E9
100
AcDbEntity
  8
DEFPOINTS
 62
     0
100
AcDbPoint
 10
-37.52296149369185
 20
32.22354125976627
 30
0.0
  0
ENDBLK
  5
89F4
330
89E9
100
AcDbEntity
  8
0
100
AcDbBlockEnd
  0
BLOCK
  5
8A99
330
8A89
100
AcDbEntity
  8
0
100
AcDbBlockBegin
  2
*D13
 70
     1
 10
0.0
 20
0.0
 30
0.0
  3
*D13
  1

  0
LINE
  5
90F8
330
8A89
100
AcDbEntity
  8
AM_5
370
    -2
100
AcDbLine
 10
-9.196142860065229
 20
0.0000000000001446
 30
0.0
 11
-38.50514612297889
 21
0.0000000000000568
 31
0.0
  0
LINE
  5
90F9
330
8A89
100
AcDbEntity
  8
AM_5
370
    -2
100
AcDbLine
 10
-9.162068681043196
 20
-0.2588190649236763
 30
0.0
 11
-37.47239171981894
 21
-7.844547883280287
 31
0.0
  0
ARC
  5
90FA
330
8A89
100
AcDbEntity
  8
AM_5
370
    -2
100
AcDbCircle
 10
-8.196142860065231
 20
0.0000000000001472
 30
0.0
 40
29.30900326291365
100
AcDbArc
 50
184.888699456226
 51
190.1113017195134
  0
INSERT
  5
90FB
330
8A89
100
AcDbEntity
  8
AM_5
370
    -2
100
AcDbBlockReference
  2
_OPEN30
 10
-37.50514612297888
 20
0.0000000000000613
 30
0.0
 41
2.5
 42
2.5
 43
2.5
 50
92.4443497281131
  0
INSERT
  5
90FC
330
8A89
100
AcDbEntity
  8
AM_5
370
    -2
100
AcDbBlockReference
  2
_OPEN30
 10
-36.50646589884098
 20
-7.585728818356464
 30
0.0
 41
2.5
 42
2.5
 43
2.5
 50
282.5556514476264
  0
MTEXT
  5
90FD
330
8A89
100
AcDbEntity
  8
AM_5
 62
     2
100
AcDbMText
 10
-33.7781452463247
 20
-5.698509098424906
 30
0.0
 40
3.2
 41
0.0
 71
     5
 72
     1
  1
15°
  7
ASAMI
 11
0.2174256319960321
 21
-0.9760768896716724
 31
0.0
 73
     1
 44
1.0
1001
ACAD
1000
MTEXTBEGIN
1070
    73
1070
     1
1070
    44
1040
1.0
1070
    74
1070
     0
1000
MTEXTEND
  0
POINT
  5
90FE
330
8A89
100
AcDbEntity
  8
DEFPOINTS
 62
     0
100
AcDbPoint
 10
-37.39361649946061
 20
-2.55444814828839
 30
0.0
  0
POINT
  5
90FF
330
8A89
100
AcDbEntity
  8
DEFPOINTS
 62
     0
100
AcDbPoint
 10
-1.712875366211239
 20
1.737186431885162
 30
0.0
  0
POINT
  5
9100
330
8A89
100
AcDbEntity
  8
DEFPOINTS
 62
     0
100
AcDbPoint
 10
2.999999999999733
 20
0.0000000000001702
 30
0.0
  0
POINT
  5
9101
330
8A89
100
AcDbEntity
  8
DEFPOINTS
 62
     0
100
AcDbPoint
 10
-0.0000000000002682
 20
0.0000000000001705
 30
0.0
  0
POINT
  5
9102
330
8A89
100
AcDbEntity
  8
DEFPOINTS
 62
     0
100
AcDbPoint
 10
26.70023202896082
 20
9.350456237793249
 30
0.0
  0
ENDBLK
  5
8A9A
330
8A89
100
AcDbEntity
  8
0
100
AcDbBlockEnd
  0
BLOCK
  5
8BA0
330
8B9A
100
AcDbEntity
  8
0
100
AcDbBlockBegin
  2
*D14
 70
     1
 10
0.0
 20
0.0
 30
0.0
  3
*D14
  1

  0
LINE
  5
90B3
330
8B9A
100
AcDbEntity
  8
AM_5
370
    -2
100
AcDbLine
 10
-117.2125835259168
 20
37.39974807211563
 30
0.0
 11
-127.3270628330764
 21
12.92021913875094
 31
0.0
  0
MTEXT
  5
90B4
330
8B9A
100
AcDbEntity
  8
AM_5
 62
     2
100
AcDbMText
 10
-122.7743760633264
 20
32.05681230261325
 30
0.0
 40
3.2
 41
0.0
 71
     5
 72
     1
  1
%%c280
  7
ASAMI
 11
0.3818688267946599
 21
0.9242165325952951
 31
0.0
 73
     1
 44
1.0
1001
ACAD
1000
MTEXTBEGIN
1070
    73
1070
     1
1070
    44
1040
1.0
1070
    74
1070
     0
1000
MTEXTEND
  0
INSERT
  5
90B5
330
8B9A
100
AcDbEntity
  8
AM_5
370
    -2
100
AcDbBlockReference
  2
_OPEN30
 10
-128.281734900063
 20
10.6096778072627
 30
0.0
 41
2.5
 42
2.5
 43
2.5
 50
247.5505097749105
  0
POINT
  5
90B6
330
8B9A
100
AcDbEntity
  8
DEFPOINTS
 62
     0
100
AcDbPoint
 10
-128.281734900063
 20
10.60967780726307
 30
0.0
  0
POINT
  5
90B7
330
8B9A
100
AcDbEntity
  8
DEFPOINTS
 62
     0
100
AcDbPoint
 10
-74.82009914881029
 20
139.9999923706041
 30
0.0
  0
ENDBLK
  5
8BA1
330
8B9A
100
AcDbEntity
  8
0
100
AcDbBlockEnd
  0
ENDSEC
  0
SECTION
  2
ENTITIES
  0
TEXT
  5
388D
330
1F
100
AcDbEntity
  8
AM_6
100
AcDbText
 10
50.18132512376761
 20
-83.282115279217
 30
0.0
 40
5.0
  1
GDER2525-615W
 51
359.9999999999998
 72
     4
 11
81.60989655233903
 21
-80.782115279217
 31
0.0
100
AcDbText
  0
SPLINE
  5
7CA3
330
1F
100
AcDbEntity
  8
AM_0
100
AcDbSpline
210
0.0
220
0.0
230
1.0
 70
     8
 71
     3
 72
     9
 73
     5
 74
     0
 42
0.0000000001
 43
0.0000000001
 40
9.634093390617461
 40
9.634093390617461
 40
9.634093390617461
 40
9.634093390617461
 40
18.15832259325161
 40
35.99791091088693
 40
35.99791091088693
 40
35.99791091088693
 40
35.99791091088693
 10
18.46622758313282
 20
-61.67539132911137
 30
0.0
 10
17.718993125523
 20
-58.55457905533038
 30
0.0
 10
16.21553381741809
 20
-47.09315373621865
 30
0.0
 10
24.07377908095978
 20
-55.14997670304595
 30
0.0
 10
30.1898660011011
 20
-62.26689619431629
 30
0.0
  0
LINE
  5
7CA4
330
1F
100
AcDbEntity
  8
AM_0
100
AcDbLine
 10
21.14607387047959
 20
-39.49795831758926
 30
0.0
 11
25.47602086526114
 21
-30.21235765535827
 31
0.0
  0
LINE
  5
7CA5
330
1F
100
AcDbEntity
  8
AM_0
100
AcDbLine
 10
26.4898834228512
 20
7.223541259766245
 30
0.0
 11
150.0000038146926
 21
7.223541259766288
 31
0.0
  0
LINE
  5
7CA6
330
1F
100
AcDbEntity
  8
AM_0
100
AcDbLine
 10
24.08059883117675
 20
28.31877136230519
 30
0.0
 11
37.68540501594509
 21
31.96417236328125
 31
0.0
  0
LINE
  5
7CA7
330
1F
100
AcDbEntity
  8
AM_0
100
AcDbLine
 10
24.48884487152075
 20
27.91052246093721
 30
0.0
 11
37.81481432914698
 21
31.48120880126923
 31
0.0
  0
LINE
  5
7CA8
330
1F
100
AcDbEntity
  8
AM_0
100
AcDbLine
 10
25.12687683105433
 20
32.22354125976625
 30
0.0
 11
150.0000038146926
 21
32.22354125976628
 31
0.0
  0
LINE
  5
7CA9
330
1F
100
AcDbEntity
  8
AM_0
100
AcDbLine
 10
19.39943700295651
 20
-65.15818323214027
 30
0.0
 11
91.40233855706352
 21
-45.86506189424921
 31
0.0
  0
LINE
  5
7CAA
330
1F
100
AcDbEntity
  8
AM_0
100
AcDbLine
 10
15.05319457513057
 20
-48.9377929123163
 30
0.0
 11
36.00712733727653
 21
-45.9929114731073
 31
0.0
  0
LINE
  5
7CAB
330
1F
100
AcDbEntity
  8
AM_0
100
AcDbLine
 10
16.47930198174674
 20
-40.15383447725723
 30
0.0
 11
32.66819625359738
 21
-37.87863077242326
 31
0.0
  0
LINE
  5
7CAC
330
1F
100
AcDbEntity
  8
AM_0
100
AcDbLine
 10
19.0070972965355
 20
-39.35260690767727
 30
0.0
 11
24.50864356023026
 21
-27.55450357515831
 31
0.0
  0
LINE
  5
7CAD
330
1F
100
AcDbEntity
  8
AM_0
100
AcDbLine
 10
7.86431312561073
 20
2.232833862305198
 30
0.0
 11
43.1205978393551
 21
11.67972564697321
 31
0.0
  0
LINE
  5
7CAE
330
1F
100
AcDbEntity
  8
AM_0
100
AcDbLine
 10
15.8174419403077
 20
4.881504058838229
 30
0.0
 11
42.99119567871064
 21
12.16268920898419
 31
0.0
  0
LINE
  5
7CB0
330
1F
100
AcDbEntity
  8
AM_0
100
AcDbLine
 10
14.6885772274133
 20
-48.54473795015818
 30
0.0
 11
36.59375529748156
 21
-45.46616663057823
 31
0.0
  0
LINE
  5
7CB1
330
1F
100
AcDbEntity
  8
AM_0
100
AcDbLine
 10
14.95537620049679
 20
-48.57273019869323
 30
0.0
 11
36.60278087121156
 21
-45.53038324434719
 31
0.0
  0
LINE
  5
7CB6
330
1F
100
AcDbEntity
  8
AM_11
100
AcDbLine
 10
0.1022300720217512
 20
2.223541259766192
 30
0.0
 11
11.71255249518198
 21
-41.10677038113935
 31
0.0
  0
SPLINE
  5
7CB7
330
1F
100
AcDbEntity
  8
AM_0
100
AcDbSpline
210
0.0
220
0.0
230
1.0
 70
     8
 71
     3
 72
    11
 73
     7
 74
     5
 42
0.0000000001
 43
0.0000000001
 44
0.0000000001
 40
0.0
 40
0.0
 40
0.0
 40
0.0
 40
2.07811907025417
 40
4.079695040805515
 40
6.088972369011324
 40
8.105159974353329
 40
8.105159974353329
 40
8.105159974353329
 40
8.105159974353329
 10
14.84433799248893
 20
-40.88852609713027
 30
0.0
 10
14.69407237418379
 20
-41.57569670472451
 30
0.0
 10
14.39907585229151
 20
-42.92472745090149
 30
0.0
 10
14.93786998211124
 20
-44.92423227914348
 30
0.0
 10
15.37146772058588
 20
-46.87570530862045
 30
0.0
 10
15.73751047734829
 20
-48.16839948185597
 30
0.0
 10
15.92084603768545
 20
-48.81585611422023
 30
0.0
 11
14.84433799248893
 21
-40.88852609713027
 31
0.0
 11
14.56375174981308
 21
-42.94761575777526
 31
0.0
 11
14.92066245537949
 21
-44.9171134384392
 31
0.0
 11
15.39001565438462
 21
-46.87080301363418
 31
0.0
 11
15.92084603768545
 21
-48.81585611422023
 31
0.0
  0
ARC
  5
7CB8
330
1F
100
AcDbEntity
  8
AM_0
100
AcDbCircle
 10
15.38340096932603
 20
-47.99951089937626
 30
0.0
 40
0.8831947445868999
100
AcDbArc
 50
218.1213571263944
 51
277.9999999948684
  0
LINE
  5
7CB9
330
1F
100
AcDbEntity
  8
AM_0
100
AcDbLine
 10
14.95537810784537
 20
-48.57273019869323
 30
0.0
 11
15.01712565880979
 21
-48.80317606050919
 31
0.0
  0
LINE
  5
7CBB
330
1F
100
AcDbEntity
  8
AM_0
100
AcDbLine
 10
15.01712565880979
 20
-48.80317606050919
 30
0.0
 11
19.39943700295651
 21
-65.15818323214027
 31
0.0
  0
LINE
  5
7CBC
330
1F
100
AcDbEntity
  8
AM_0
100
AcDbLine
 10
14.68858771783078
 20
-48.54473413546025
 30
0.0
 11
11.76985412102953
 21
-41.32061685640818
 31
0.0
  0
LINE
  5
7CBD
330
1F
100
AcDbEntity
  8
AM_0
100
AcDbLine
 10
16.89651589852525
 20
-40.6001120956652
 30
0.0
 11
11.76985030633254
 21
-41.32061685640818
 31
0.0
  0
LINE
  5
7CBE
330
1F
100
AcDbEntity
  8
AM_0
100
AcDbLine
 10
19.54345517617428
 20
-48.3067313583612
 30
0.0
 11
17.6418686435814
 21
-39.9904433639762
 31
0.0
  0
LINE
  5
7CBF
330
1F
100
AcDbEntity
  8
AM_0
100
AcDbLine
 10
18.53020673257077
 20
-39.86559595186719
 30
0.0
 11
19.71317797166062
 21
-48.2828742416622
 31
0.0
  0
LINE
  5
7CC0
330
1F
100
AcDbEntity
  8
AM_0
100
AcDbLine
 10
17.34479432564933
 20
-40.03219141085121
 30
0.0
 11
16.89652686577994
 21
-40.60010446627125
 31
0.0
  0
LINE
  5
7CC1
330
1F
100
AcDbEntity
  8
AM_0
100
AcDbLine
 10
16.47929339867784
 20
-40.15383829195426
 30
0.0
 11
16.03551154595572
 21
-40.72112192232626
 31
0.0
  0
LINE
  5
7CC2
330
1F
100
AcDbEntity
  8
AM_0
100
AcDbLine
 10
19.00709920388413
 20
-39.35261453707225
 30
0.0
 11
19.12225776177604
 21
-39.78239358980617
 31
0.0
  0
ARC
  5
7CC8
330
1F
100
AcDbEntity
  8
AM_0
100
AcDbCircle
 10
2.999999999999725
 20
3.000000000000168
 30
0.0
 40
3.0
100
AcDbArc
 50
102.9999971744097
 51
286.9999863575699
  0
ARC
  5
7CC9
330
1F
100
AcDbEntity
  8
AM_0
100
AcDbCircle
 10
2.999999999999725
 20
3.000000000000168
 30
0.0
 40
2.328857660293599
100
AcDbArc
 50
104.9999995067958
 51
284.9999976855636
  0
LINE
  5
7CCA
330
1F
100
AcDbEntity
  8
AM_0
100
AcDbLine
 10
3.877117156982744
 20
0.1310844421391829
 30
0.0
 11
6.647594451904732
 21
0.9781036376951977
 31
0.0
  0
ARC
  5
7CD0
330
1F
100
AcDbEntity
  8
AM_0
100
AcDbCircle
 10
2.999999999999725
 20
3.000000000000168
 30
0.0
 40
1.8376451730728
100
AcDbArc
 50
104.9999995067958
 51
284.9999976855636
  0
ARC
  5
7CD1
330
1F
100
AcDbEntity
  8
AM_0
100
AcDbCircle
 10
2.999999999999725
 20
3.000000000000168
 30
0.0
 40
1.352302074432399
100
AcDbArc
 50
104.9999995067958
 51
284.9999976855636
  0
LINE
  5
7CD2
330
1F
100
AcDbEntity
  8
AM_7
100
AcDbLine
 10
-8.131340317150753
 20
0.0173637904668463
 30
0.0
 11
26.70023202896082
 21
9.350456237793249
 31
0.0
  0
CIRCLE
  5
7CD5
330
1F
100
AcDbEntity
  8
AM_0
100
AcDbCircle
 10
27.94070434570283
 20
20.03559875488315
 30
0.0
 40
5.0
  0
CIRCLE
  5
7CD6
330
1F
100
AcDbEntity
  8
AM_0
100
AcDbCircle
 10
27.94070434570283
 20
20.03559875488315
 30
0.0
 40
4.5
  0
LINE
  5
7CD7
330
1F
100
AcDbEntity
  8
AM_0
100
AcDbLine
 10
19.55768299102775
 20
9.507167816162221
 30
0.0
 11
24.4888477325437
 21
27.9105300903322
 31
0.0
  0
LINE
  5
7CD8
330
1F
100
AcDbEntity
  8
AM_0
100
AcDbLine
 10
19.00000476837173
 20
9.357738494873215
 30
0.0
 11
25.12687778472876
 21
32.22354125976625
 31
0.0
  0
LINE
  5
7CDA
330
1F
100
AcDbEntity
  8
AM_0
100
AcDbLine
 10
6.829036712646722
 20
6.096534729004189
 30
0.0
 11
19.55768299102775
 21
9.507167816162221
 31
0.0
  0
ARC
  5
7CDC
330
1F
100
AcDbEntity
  8
AM_0
100
AcDbCircle
 10
1.373367309570721
 20
6.153732299805199
 30
0.0
 40
2.9815871715546
100
AcDbArc
 50
345.3087856047732
 51
4.536683790592528
  0
ARC
  5
7CDD
330
1F
100
AcDbEntity
  8
AM_0
100
AcDbCircle
 10
1.373367309570721
 20
6.153732299805199
 30
0.0
 40
3.5
100
AcDbArc
 50
345.3087856047732
 51
5.797488046280117
  0
LINE
  5
7CDE
330
1F
100
AcDbEntity
  8
AM_0
100
AcDbLine
 10
5.147966384887706
 20
6.574810028076228
 30
0.0
 11
6.246646881103726
 21
5.940486907959153
 31
0.0
  0
LINE
  5
7CDF
330
1F
100
AcDbEntity
  8
AM_0
100
AcDbLine
 10
2.325145721435728
 20
5.923110961914233
 30
0.0
 11
5.147958755493715
 21
6.574806213379189
 31
0.0
  0
ARC
  5
7CE0
330
1F
100
AcDbEntity
  8
AM_0
100
AcDbCircle
 10
8.144531249999726
 20
4.378471374512228
 30
0.0
 40
3.5
100
AcDbArc
 50
165.3087871986337
 51
224.6912168239141
  0
ARC
  5
7CE1
330
1F
100
AcDbEntity
  8
AM_0
100
AcDbCircle
 10
3.168167114257708
 20
-0.5445327758787931
 30
0.0
 40
2.9815871715546
100
AcDbArc
 50
25.46331576357136
 51
44.69121523004967
  0
LINE
  5
7CE2
330
1F
100
AcDbEntity
  8
AM_0
100
AcDbLine
 10
5.431909561157719
 20
5.515125274658145
 30
0.0
 11
6.363658905029732
 21
2.037788391113223
 31
0.0
  0
LINE
  5
7CE3
330
1F
100
AcDbEntity
  8
AM_0
100
AcDbLine
 10
5.431909561157719
 20
5.515125274658145
 30
0.0
 11
6.880798339843704
 21
5.903354644775219
 31
0.0
  0
LINE
  5
7CE4
330
1F
100
AcDbEntity
  8
AM_0
100
AcDbLine
 10
5.431901931762706
 20
5.51512145996122
 30
0.0
 11
6.670621871948707
 21
3.983535766602186
 31
0.0
  0
ARC
  5
7CE5
330
1F
100
AcDbEntity
  8
AM_0
100
AcDbCircle
 10
2.999999999999725
 20
3.000000000000168
 30
0.0
 40
0.8000000119209001
100
AcDbArc
 50
104.9999995067958
 51
284.9999976855636
  0
ARC
  5
7CE6
330
1F
100
AcDbEntity
  8
AM_0
100
AcDbCircle
 10
8.144531249999726
 20
4.378471374512228
 30
0.0
 40
4.018412590026898
100
AcDbArc
 50
165.3087871986337
 51
224.6912168239141
  0
LINE
  5
7CE7
330
1F
100
AcDbEntity
  8
AM_0
100
AcDbLine
 10
2.792951583862712
 20
3.772743225098166
 30
0.0
 11
4.133686065673725
 21
4.131992340088173
 31
0.0
  0
LINE
  5
7CE8
330
1F
100
AcDbEntity
  8
AM_0
100
AcDbLine
 10
2.5243911743167
 20
4.775028228760163
 30
0.0
 11
4.217073440551712
 21
5.228584289551178
 31
0.0
  0
LINE
  5
7CE9
330
1F
100
AcDbEntity
  8
AM_0
100
AcDbLine
 10
2.650005340576723
 20
4.306221008301179
 30
0.0
 11
4.139427185058718
 21
4.705310821533145
 31
0.0
  0
LINE
  5
7CEA
330
1F
100
AcDbEntity
  8
AM_0
100
AcDbLine
 10
2.397254943847723
 20
5.249504089355183
 30
0.0
 11
4.329828262329709
 21
5.767333984375169
 31
0.0
  0
LINE
  5
7CEB
330
1F
100
AcDbEntity
  8
AM_0
100
AcDbLine
 10
3.602760314941729
 20
0.7504959106441898
 30
0.0
 11
5.535333633422747
 21
1.268325805664175
 31
0.0
  0
LINE
  5
7CEC
330
1F
100
AcDbEntity
  8
AM_0
100
AcDbLine
 10
3.350009918212758
 20
1.693775177002179
 30
0.0
 11
4.839429855346747
 21
2.092864990234203
 31
0.0
  0
LINE
  5
7CED
330
1F
100
AcDbEntity
  8
AM_0
100
AcDbLine
 10
3.475624084472751
 20
1.224971771240176
 30
0.0
 11
5.168308258056737
 21
1.678524017334153
 31
0.0
  0
LINE
  5
7CEE
330
1F
100
AcDbEntity
  8
AM_0
100
AcDbLine
 10
3.20706367492674
 20
2.227260589600233
 30
0.0
 11
4.547798156738717
 21
2.586509704590183
 31
0.0
  0
ARC
  5
7CEF
330
1F
100
AcDbEntity
  8
AM_0
100
AcDbCircle
 10
3.168167114257708
 20
-0.5445327758787931
 30
0.0
 40
3.5
100
AcDbArc
 50
24.20251236165434
 51
44.69121523004967
  0
LINE
  5
7CF0
330
1F
100
AcDbEntity
  8
AM_0
100
AcDbLine
 10
6.246644973754722
 20
5.940483093262229
 30
0.0
 11
6.829036712646722
 21
6.096534729004189
 31
0.0
  0
LINE
  5
7CF1
330
1F
100
AcDbEntity
  8
AM_0
100
AcDbLine
 10
6.363658905029732
 20
2.037788391113223
 30
0.0
 11
7.812547683715716
 21
2.426017761230183
 31
0.0
  0
LINE
  5
7CF2
330
1F
100
AcDbEntity
  8
AM_0
100
AcDbLine
 10
6.670625686645717
 20
3.983539581299223
 30
0.0
 11
6.363656997680759
 21
2.037792205811171
 31
0.0
  0
LINE
  5
7CF3
330
1F
100
AcDbEntity
  8
AM_0
100
AcDbLine
 10
6.647598266601743
 20
0.9781112670901837
 30
0.0
 11
7.281917572021749
 21
2.076782226562214
 31
0.0
  0
LINE
  5
7CF4
330
1F
100
AcDbEntity
  8
AM_0
100
AcDbLine
 10
7.281921386718731
 20
2.076782226562214
 30
0.0
 11
7.86431312561073
 21
2.232833862305198
 31
0.0
  0
LINE
  5
7CF5
330
1F
100
AcDbEntity
  8
AM_0
100
AcDbLine
 10
6.829036712646722
 20
6.096534729004189
 30
0.0
 11
7.86431312561073
 21
2.232833862305198
 31
0.0
  0
LINE
  5
7CF6
330
1F
100
AcDbEntity
  8
AM_0
100
AcDbLine
 10
13.66980171203673
 20
7.929512023926177
 30
0.0
 11
14.70507812499969
 21
4.065811157227127
 31
0.0
  0
LINE
  5
7CF7
330
1F
100
AcDbEntity
  8
AM_0
100
AcDbLine
 10
14.91157531738273
 20
8.262245178223166
 30
0.0
 11
15.8174419403077
 21
4.881504058838229
 31
0.0
  0
LINE
  5
7CF8
330
1F
100
AcDbEntity
  8
AM_0
100
AcDbLine
 10
15.54159927368167
 20
4.289955139160211
 30
0.0
 11
15.8174419403077
 21
4.881504058838229
 31
0.0
  0
ARC
  5
7CF9
330
1F
100
AcDbEntity
  8
AM_0
100
AcDbCircle
 10
22.31851959228571
 20
8.176380157471209
 30
0.0
 40
3.0
100
AcDbArc
 50
282.9999989956472
 51
333.1896838471928
  0
ARC
  5
7CFA
330
1F
100
AcDbEntity
  8
AM_0
100
AcDbCircle
 10
22.31851959228571
 20
8.176380157471209
 30
0.0
 40
2.328857660293599
100
AcDbArc
 50
284.9999944978368
 51
315.8189930707583
  0
LINE
  5
7CFB
330
1F
100
AcDbEntity
  8
AM_0
100
AcDbLine
 10
22.99337577819873
 20
5.253273010254186
 30
0.0
 11
20.17056274414072
 21
4.601573944092192
 31
0.0
  0
LINE
  5
7CFC
330
1F
100
AcDbEntity
  8
AM_0
100
AcDbLine
 10
22.9212770462037
 20
5.92687606811523
 30
0.0
 11
20.98870277404771
 21
5.409046173096212
 31
0.0
  0
ARC
  5
7CFD
330
1F
100
AcDbEntity
  8
AM_0
100
AcDbCircle
 10
23.9451446533207
 20
5.022644042969202
 30
0.0
 40
3.5
100
AcDbArc
 50
170.2145022681062
 51
185.7974832368447
  0
ARC
  5
7CFE
330
1F
100
AcDbEntity
  8
AM_0
100
AcDbCircle
 10
23.9451446533207
 20
5.022644042969202
 30
0.0
 40
2.9815871715546
100
AcDbArc
 50
165.5204274402598
 51
184.5366849575717
  0
LINE
  5
7CFF
330
1F
100
AcDbEntity
  8
AM_0
100
AcDbLine
 10
20.17056083679168
 20
4.601570129394243
 30
0.0
 11
19.07188034057672
 21
5.235893249512226
 31
0.0
  0
LINE
  5
7D00
330
1F
100
AcDbEntity
  8
AM_0
100
AcDbLine
 10
28.68785238265967
 20
17.24721145629916
 30
0.0
 11
25.89946651458716
 21
17.99436187744123
 31
0.0
  0
LINE
  5
7D01
330
1F
100
AcDbEntity
  8
AM_0
100
AcDbLine
 10
27.19355583190877
 20
22.82398986816417
 30
0.0
 11
25.15231609344452
 21
20.78274536132823
 31
0.0
  0
LINE
  5
7D02
330
1F
100
AcDbEntity
  8
AM_0
100
AcDbLine
 10
25.15231418609578
 20
20.78275299072322
 30
0.0
 11
25.89946174621558
 21
17.99436187744123
 31
0.0
  0
LINE
  5
7D03
330
1F
100
AcDbEntity
  8
AM_0
100
AcDbLine
 10
30.72908425331086
 20
19.28845977783214
 30
0.0
 11
28.68784427642798
 21
17.24721908569318
 31
0.0
  0
LINE
  5
7D04
330
1F
100
AcDbEntity
  8
AM_0
100
AcDbLine
 10
29.98194313049275
 20
22.07685089111316
 30
0.0
 11
30.72909092903102
 21
19.28845214843714
 31
0.0
  0
LINE
  5
7D05
330
1F
100
AcDbEntity
  8
AM_0
100
AcDbLine
 10
27.19356203079188
 20
22.82398986816417
 30
0.0
 11
29.98194789886439
 21
22.0768432617192
 31
0.0
  0
LINE
  5
7D06
330
1F
100
AcDbEntity
  8
AM_0
100
AcDbLine
 10
24.08059597015368
 20
28.31877136230519
 30
0.0
 11
24.48884201049768
 21
27.91052246093721
 31
0.0
  0
SPLINE
  5
7D07
330
1F
100
AcDbEntity
  8
AM_0
100
AcDbSpline
210
0.0
220
0.0
230
1.0
 70
     8
 71
     3
 72
    11
 73
     7
 74
     5
 42
0.0000000001
 43
0.0000000001
 44
0.0000000001
 40
0.0
 40
0.0
 40
0.0
 40
0.0
 40
2.078117672677054
 40
4.079691044730305
 40
6.088967556043305
 40
8.105155180770816
 40
8.105155180770816
 40
8.105155180770816
 40
8.105155180770816
 10
34.44233756524261
 20
-38.13420785982628
 30
0.0
 10
34.77618824495412
 20
-38.753340567307
 30
0.0
 10
35.43159272286398
 20
-39.96880117159268
 30
0.0
 10
35.46482778651834
 20
-42.03935631469656
 30
0.0
 10
35.58591265179808
 20
-44.03474816129164
 30
0.0
 10
35.59036732828765
 20
-45.37826020456636
 30
0.0
 10
35.59259849053552
 20
-46.05116952974724
 30
0.0
 11
34.44233756524261
 21
-38.13420785982628
 31
0.0
 11
35.27961020928553
 21
-40.03619302828319
 31
0.0
 11
35.47940116387553
 21
-42.02777017672024
 31
0.0
 11
35.56673484307452
 21
-44.0351478012323
 31
0.0
 11
35.59259849053552
 21
-46.05116952974724
 31
0.0
  0
ARC
  5
7D09
330
1F
100
AcDbEntity
  8
AM_0
100
AcDbCircle
 10
33.69791465264455
 20
-45.33621896822426
 30
0.0
 40
3.0
100
AcDbArc
 50
206.8986186596344
 51
353.9999994061506
  0
LINE
  5
7D0A
330
1F
100
AcDbEntity
  8
AM_0
100
AcDbLine
 10
38.73612552148063
 20
-38.48004831392728
 30
0.0
 11
44.11034636956356
 21
-58.53691400606628
 31
0.0
  0
LINE
  5
7D15
330
1F
100
AcDbEntity
  8
AM_0
100
AcDbLine
 10
39.47427230340156
 20
-35.9677955063102
 30
0.0
 11
59.9781327770346
 21
-30.47380174715516
 31
0.0
  0
LINE
  5
7D16
330
1F
100
AcDbEntity
  8
AM_0
100
AcDbLine
 10
54.75355201226352
 20
-29.80317033846318
 30
0.0
 11
84.93186294246548
 21
-21.71691762649976
 31
0.0
  0
LINE
  5
7D17
330
1F
100
AcDbEntity
  8
AM_0
100
AcDbLine
 10
52.29477172356759
 20
-20.62687601168118
 30
0.0
 11
55.2711892650716
 21
-31.73502267916222
 31
0.0
  0
LINE
  5
7D18
330
1F
100
AcDbEntity
  8
AM_0
100
AcDbLine
 10
24.50863724213792
 20
-27.55450738985523
 30
0.0
 11
51.68239074212255
 21
-20.27332223970818
 31
0.0
  0
LINE
  5
7D19
330
1F
100
AcDbEntity
  8
AM_0
100
AcDbLine
 10
24.23279445630265
 20
-28.14605821688125
 30
0.0
 11
51.81180816155557
 21
-20.75628389437115
 31
0.0
  0
LINE
  5
7D1A
330
1F
100
AcDbEntity
  8
AM_0
100
AcDbLine
 10
51.81180816155557
 20
-20.75628580172024
 30
0.0
 11
54.78822761040856
 21
-31.86443246920117
 31
0.0
  0
ARC
  5
7D1F
330
1F
100
AcDbEntity
  8
AM_0
100
AcDbCircle
 10
36.5154271648516
 20
-36.46299661715027
 30
0.0
 40
3.0
100
AcDbArc
 50
286.0332313645316
 51
15.00000041741381
  0
LINE
  5
7D20
330
1F
100
AcDbEntity
  8
AM_0
100
AcDbLine
 10
29.98322682839591
 20
-37.9932738693472
 30
0.0
 11
49.34622626763461
 21
-32.80497469027017
 31
0.0
  0
LINE
  5
7D25
330
1F
100
AcDbEntity
  8
AM_0
100
AcDbLine
 10
30.61729150277335
 20
-38.16686929781423
 30
0.0
 11
31.80026298028184
 21
-46.58414758760925
 31
0.0
  0
ARC
  5
7D26
330
1F
100
AcDbEntity
  8
AM_0
100
AcDbCircle
 10
30.24204354745104
 20
-38.95919717867326
 30
0.0
 40
1.0
100
AcDbArc
 50
104.9999995067958
 51
140.9124852947513
  0
LINE
  5
7D28
330
1F
100
AcDbEntity
  8
AM_0
100
AcDbLine
 10
36.68148665887054
 20
-45.64980234224725
 30
0.0
 11
37.51133590203461
 21
-37.75431360323426
 31
0.0
  0
LINE
  5
7D29
330
1F
100
AcDbEntity
  8
AM_0
100
AcDbLine
 10
31.96998458367538
 20
-46.56029810030423
 30
0.0
 11
31.50562720757693
 21
-38.04201807100723
 31
0.0
  0
ARC
  5
7D2A
330
1F
100
AcDbEntity
  8
AM_0
100
AcDbCircle
 10
35.8842092083085
 20
-45.11831583101723
 30
0.0
 40
0.8831947445868999
100
AcDbArc
 50
277.9999999948684
 51
337.8786428633488
  0
LINE
  5
7D2B
330
1F
100
AcDbEntity
  8
AM_0
100
AcDbLine
 10
32.39014869195193
 20
-38.42262186129021
 30
0.0
 11
37.51682048302757
 21
-37.70211710054826
 31
0.0
  0
LINE
  5
7D2C
330
1F
100
AcDbEntity
  8
AM_0
100
AcDbLine
 10
31.80270152550895
 20
-38.00027002413223
 30
0.0
 11
32.39014487725455
 21
-38.42262567598827
 31
0.0
  0
LINE
  5
7D2D
330
1F
100
AcDbEntity
  8
AM_0
100
AcDbLine
 10
32.66819816094596
 20
-37.87863077242326
 30
0.0
 11
33.25115352135856
 21
-38.30161584932824
 31
0.0
  0
LINE
  5
7D2E
330
1F
100
AcDbEntity
  8
AM_0
100
AcDbLine
 10
23.66340541106427
 20
-29.3671218307732
 30
0.0
 11
25.47602086526114
 21
-30.21235765535827
 31
0.0
  0
LINE
  5
7D32
330
1F
100
AcDbEntity
  8
AM_0
100
AcDbLine
 10
39.3582025097006
 20
-35.48125757296025
 30
0.0
 11
39.41320662957355
 21
-35.68654169161327
 31
0.0
  0
ARC
  5
7D34
330
1F
100
AcDbEntity
  8
AM_0
100
AcDbCircle
 10
49.6050420330156
 20
-33.77089799959622
 30
0.0
 40
1.0
100
AcDbArc
 50
45.00000125223688
 51
104.9999995067958
  0
LINE
  5
7D35
330
1F
100
AcDbEntity
  8
AM_0
100
AcDbLine
 10
37.80588012200548
 20
-24.50916399080727
 30
0.0
 11
38.15943389397752
 21
-23.89679063875625
 31
0.0
  0
LINE
  5
7D36
330
1F
100
AcDbEntity
  8
AM_0
100
AcDbLine
 10
47.46513801079857
 20
-21.92097200472328
 30
0.0
 11
46.85276465874858
 21
-21.56741823275029
 31
0.0
  0
LINE
  5
7D37
330
1F
100
AcDbEntity
  8
AM_0
100
AcDbLine
 10
51.68239455681954
 20
-20.27332414705715
 30
0.0
 11
52.2947640941726
 21
-20.62687791903015
 31
0.0
  0
LINE
  5
7D39
330
1F
100
AcDbEntity
  8
AM_0
100
AcDbLine
 10
59.46049361687858
 20
-28.54194940645624
 30
0.0
 11
59.9781327770346
 21
-30.47380174715516
 31
0.0
  0
ARC
  5
7D3D
330
1F
100
AcDbEntity
  8
AM_0
100
AcDbCircle
 10
41.46357727050751
 20
23.65904235839826
 30
0.0
 40
4.0
100
AcDbArc
 50
285.0000013280268
 51
104.9999995067958
  0
LINE
  5
7D3E
330
1F
100
AcDbEntity
  8
AM_0
100
AcDbLine
 10
37.81481432914698
 20
31.48120880126923
 30
0.0
 11
42.99119567871064
 21
12.16268920898419
 31
0.0
  0
LINE
  5
7D3F
330
1F
100
AcDbEntity
  8
AM_0
100
AcDbLine
 10
38.29777741432166
 20
31.61061859130921
 30
0.0
 11
43.47415828704803
 21
12.29209899902319
 31
0.0
  0
LINE
  5
7D40
330
1F
100
AcDbEntity
  8
AM_0
100
AcDbLine
 10
42.99119472503637
 20
12.16269302368219
 30
0.0
 11
43.29737377166711
 21
11.98591995239319
 31
0.0
  0
LINE
  5
7D41
330
1F
100
AcDbEntity
  8
AM_0
100
AcDbLine
 10
48.69191551208375
 20
12.1373291015622
 30
0.0
 11
50.00856113433774
 21
7.223541259766187
 31
0.0
  0
LINE
  5
7D42
330
1F
100
AcDbEntity
  8
AM_0
100
AcDbLine
 10
43.47414970397912
 20
12.2921028137212
 30
0.0
 11
43.12059879302942
 21
11.67973709106421
 31
0.0
  0
LINE
  5
7D43
330
1F
100
AcDbEntity
  8
AM_0
100
AcDbLine
 10
41.53292608261067
 20
19.53652191162126
 30
0.0
 11
42.49885177612268
 21
19.79534149169921
 31
0.0
  0
ARC
  5
7D44
330
1F
100
AcDbEntity
  8
AM_0
100
AcDbCircle
 10
44.82820892333868
 20
11.10205078125021
 30
0.0
 40
4.0
100
AcDbArc
 50
15.00000041741381
 51
104.9999995067958
  0
LINE
  5
7D45
330
1F
100
AcDbEntity
  8
AM_0
100
AcDbLine
 10
42.82701015472387
 20
14.70693588256823
 30
0.0
 11
43.79293632507294
 21
14.96575546264624
 31
0.0
  0
ARC
  5
7D46
330
1F
100
AcDbEntity
  8
AM_0
100
AcDbCircle
 10
38.87537384033173
 20
33.31835174560523
 30
0.0
 40
4.0
100
AcDbArc
 50
285.0000013280268
 51
344.1153722643053
  0
LINE
  5
7D47
330
1F
100
AcDbEntity
  8
AM_0
100
AcDbLine
 10
38.94472265243507
 20
29.19583129882829
 30
0.0
 11
39.91064834594691
 21
29.45465087890625
 31
0.0
  0
LINE
  5
7D48
330
1F
100
AcDbEntity
  8
AM_0
100
AcDbLine
 10
39.46237277984584
 20
27.26393127441423
 30
0.0
 11
40.42829847335779
 21
27.52275085449224
 31
0.0
  0
LINE
  5
7D49
330
1F
100
AcDbEntity
  8
AM_0
100
AcDbLine
 10
37.68540501594509
 20
31.96417236328125
 30
0.0
 11
38.29777789115869
 21
31.61061859130921
 31
0.0
  0
LINE
  5
7D4A
330
1F
100
AcDbEntity
  8
AM_0
100
AcDbLine
 10
37.81481456756562
 20
31.48120880126923
 30
0.0
 11
37.9915914535519
 21
31.78739929199223
 31
0.0
  0
LINE
  5
7D4B
330
1F
100
AcDbEntity
  8
AM_0
100
AcDbLine
 10
150.0000038146926
 20
32.22354125976628
 30
0.0
 11
150.0000038146926
 21
7.223541259766288
 31
0.0
  0
ELLIPSE
  5
7D4C
330
1F
100
AcDbEntity
  8
AM_0
100
AcDbEllipse
 10
-83.23597744471012
 20
2.999996185303191
 30
0.0
 11
-0.0000001744261714
 21
1.995185851982037
 31
0.0
210
0.0
220
0.0
230
1.0
 40
0.1227854829396624
 41
2.92422615340166
 42
6.283185404299452
  0
ELLIPSE
  5
7D4D
330
1F
100
AcDbEntity
  8
AM_0
100
AcDbEllipse
 10
-75.17589596277011
 20
2.999996185303188
 30
0.0
 11
0.0000000000000024
 21
-2.999999999973278
 31
0.0
210
0.0
220
0.0
230
1.0
 40
0.1227849324544265
 41
6.283184951179851
 42
9.288650651817539
  0
ARC
  5
7D4E
330
1F
100
AcDbEntity
  8
AM_11
100
AcDbCircle
 10
-74.82009914881023
 20
139.9999923706041
 30
0.0
 40
140.0
100
AcDbArc
 50
244.8387895366785
 51
278.5445654714143
  0
LINE
  5
7D4F
330
1F
100
AcDbEntity
  8
AM_0
100
AcDbLine
 10
-84.98025539881009
 20
11.03076934814413
 30
0.0
 11
-74.8075411654101
 21
11.03076934814419
 31
0.0
  0
LINE
  5
7D50
330
1F
100
AcDbEntity
  8
AM_0
100
AcDbLine
 10
-83.58845547205008
 20
5.940486907959158
 30
0.0
 11
-75.0404970980301
 21
6.574806213379134
 31
0.0
  0
LINE
  5
7D51
330
1F
100
AcDbEntity
  8
AM_0
100
AcDbLine
 10
-83.2359774447101
 20
4.995189666748162
 30
0.0
 11
-75.41600063806008
 21
6.389572143555143
 31
0.0
  0
LINE
  5
7D52
330
1F
100
AcDbEntity
  8
AM_0
100
AcDbLine
 10
-76.74865749842007
 20
10.19827651977516
 30
0.0
 11
-85.0759737826001
 21
9.099597930908092
 31
0.0
  0
LINE
  5
7D53
330
1F
100
AcDbEntity
  8
AM_0
100
AcDbLine
 10
-85.0759737826001
 20
9.099594116211168
 30
0.0
 11
-76.6393282747801
 21
9.099594116211166
 31
0.0
  0
LINE
  5
7D54
330
1F
100
AcDbEntity
  8
AM_0
100
AcDbLine
 10
-82.99777248865009
 20
2.534126281738169
 30
0.0
 11
-74.82009914881007
 21
2.223541259766195
 31
0.0
  0
LINE
  5
7D55
330
1F
100
AcDbEntity
  8
AM_0
100
AcDbLine
 10
-83.23597744471006
 20
1.004806518555145
 30
0.0
 11
-75.17590359217007
 21
-0.0000038146968088
 31
0.0
  0
LINE
  5
7D56
330
1F
100
AcDbEntity
  8
AM_0
100
AcDbLine
 10
-80.82009914881011
 20
22.74201202392625
 30
0.0
 11
-74.8200991488101
 21
22.74201202392618
 31
0.0
  0
LINE
  5
7D57
330
1F
100
AcDbEntity
  8
AM_0
100
AcDbLine
 10
-80.82009914881012
 20
13.81916427612322
 30
0.0
 11
-74.82009914881013
 21
13.81916427612316
 31
0.0
  0
LINE
  5
7D58
330
1F
100
AcDbEntity
  8
AM_0
100
AcDbLine
 10
-99.82009914881011
 20
32.22354125976615
 30
0.0
 11
-74.8200991488101
 21
32.22354125976619
 31
0.0
  0
LINE
  5
7D59
330
1F
100
AcDbEntity
  8
AM_7
100
AcDbLine
 10
-61.29716518885009
 20
20.03559875488309
 30
0.0
 11
-100.88548305994
 21
20.03559875488315
 31
0.0
  0
LINE
  5
7D5A
330
1F
100
AcDbEntity
  8
AM_7
100
AcDbLine
 10
-94.4052737093501
 20
4.94739913940413
 30
0.0
 11
-72.84152248865009
 21
4.947399139404184
 31
0.0
  0
LINE
  5
7D5C
330
1F
100
AcDbEntity
  8
AM_0
100
AcDbLine
 10
-99.82009914881011
 20
32.22354125976615
 30
0.0
 11
-99.82009914881011
 21
2.758415222168144
 31
0.0
  0
LINE
  5
7D5D
330
1F
100
AcDbEntity
  8
AM_0
100
AcDbLine
 10
-99.82009914881011
 20
2.758419036865182
 30
0.0
 11
-87.82009914881006
 21
1.051761627197154
 31
0.0
  0
LINE
  5
7D5E
330
1F
100
AcDbEntity
  8
AM_0
100
AcDbLine
 10
-99.82009914881011
 20
9.507167816162171
 30
0.0
 11
-84.98025539881009
 21
9.507167816162111
 31
0.0
  0
LINE
  5
7D5F
330
1F
100
AcDbEntity
  8
AM_0
100
AcDbLine
 10
-87.82009914881006
 20
1.051761627197154
 30
0.0
 11
-83.18313625818007
 21
1.051761627197154
 31
0.0
  0
LINE
  5
7D60
330
1F
100
AcDbEntity
  8
AM_0
100
AcDbLine
 10
-83.58845547205008
 20
5.940490722656138
 30
0.0
 11
-85.0759737826001
 21
9.099601745605131
 31
0.0
  0
LINE
  5
7D61
330
1F
100
AcDbEntity
  8
AM_0
100
AcDbLine
 10
-83.58845547205008
 20
5.940483093262176
 30
0.0
 11
-83.2359774447101
 21
4.99518585205118
 31
0.0
  0
LINE
  5
7D62
330
1F
100
AcDbEntity
  8
AM_0
100
AcDbLine
 10
-84.98025539881009
 20
11.03076934814413
 30
0.0
 11
-84.98025539881009
 21
9.099594116211168
 31
0.0
  0
LINE
  5
7D64
330
1F
100
AcDbEntity
  8
AM_0
100
AcDbLine
 10
-80.82009914881011
 20
22.74201202392625
 30
0.0
 11
-80.82009914881012
 21
13.81916427612322
 31
0.0
  0
LINE
  5
7D66
330
1F
100
AcDbEntity
  8
AM_0
100
AcDbLine
 10
-74.82009914881013
 20
25.44740295410214
 30
0.0
 11
-74.8200991488101
 21
22.74201202392618
 31
0.0
  0
LINE
  5
7D67
330
1F
100
AcDbEntity
  8
AM_0
100
AcDbLine
 10
-65.3200991488101
 20
31.96417236328119
 30
0.0
 11
-65.32009914881007
 21
9.357738494873162
 31
0.0
  0
LINE
  5
7D68
330
1F
100
AcDbEntity
  8
AM_0
100
AcDbLine
 10
-64.8200991488101
 20
31.48120880126919
 30
0.0
 11
-64.8200991488101
 21
4.881507873535158
 31
0.0
  0
LINE
  5
7D6A
330
1F
100
AcDbEntity
  8
AM_0
100
AcDbLine
 10
-74.82009914881013
 20
13.81916427612316
 30
0.0
 11
-74.82009914881007
 21
9.357738494873162
 31
0.0
  0
LINE
  5
7D6D
330
1F
100
AcDbEntity
  8
AM_0
100
AcDbLine
 10
-66.5681307650201
 20
8.906856536865236
 30
0.0
 11
-75.31736019617011
 21
7.012027740478176
 31
0.0
  0
LINE
  5
7D6E
330
1F
100
AcDbEntity
  8
AM_0
100
AcDbLine
 10
-76.6393282747801
 20
9.357738494873162
 30
0.0
 11
-64.82009914881007
 21
9.35773849487316
 31
0.0
  0
LINE
  5
7D6F
330
1F
100
AcDbEntity
  8
AM_0
100
AcDbLine
 10
-74.8200915194101
 20
2.232833862305144
 30
0.0
 11
-65.3200991488101
 21
4.290256500244197
 31
0.0
  0
LINE
  5
7D70
330
1F
100
AcDbEntity
  8
AM_0
100
AcDbLine
 10
-64.82009914881007
 20
8.262245178223222
 30
0.0
 11
-75.0404970980301
 21
6.04880523681618
 31
0.0
  0
LINE
  5
7D71
330
1F
100
AcDbEntity
  8
AM_0
100
AcDbLine
 10
-75.0404970980301
 20
6.574806213379134
 30
0.0
 11
-75.0404970980301
 21
5.789970397949161
 31
0.0
  0
LINE
  5
7D72
330
1F
100
AcDbEntity
  8
AM_0
100
AcDbLine
 10
-75.41599300867011
 20
6.389568328857196
 30
0.0
 11
-75.0930331087701
 21
5.923110961914177
 31
0.0
  0
LINE
  5
7D73
330
1F
100
AcDbEntity
  8
AM_0
100
AcDbLine
 10
-77.2758334017401
 20
11.03077316284213
 30
0.0
 11
-76.74865749842007
 21
10.19828414917015
 31
0.0
  0
LINE
  5
7D74
330
1F
100
AcDbEntity
  8
AM_0
100
AcDbLine
 10
-76.6393282747801
 20
9.099601745605129
 30
0.0
 11
-75.0404894686301
 21
6.574806213379134
 31
0.0
  0
LINE
  5
7D75
330
1F
100
AcDbEntity
  8
AM_0
100
AcDbLine
 10
-76.74865749842007
 20
10.19827651977516
 30
0.0
 11
-76.6393282747801
 21
9.099590301514126
 31
0.0
  0
LINE
  5
7D76
330
1F
100
AcDbEntity
  8
AM_0
100
AcDbLine
 10
-75.41599300867011
 20
6.389572143555143
 30
0.0
 11
-75.0404970980301
 21
6.574802398682153
 31
0.0
  0
LINE
  5
7D77
330
1F
100
AcDbEntity
  8
AM_0
100
AcDbLine
 10
-66.35646847254008
 20
7.929515838623161
 30
0.0
 11
-66.35646847254012
 21
4.065811157227187
 31
0.0
  0
LINE
  5
7D78
330
1F
100
AcDbEntity
  8
AM_0
100
AcDbLine
 10
-65.3200991488101
 20
4.290260314941178
 30
0.0
 11
-64.8200991488101
 21
4.881507873535158
 31
0.0
  0
LINE
  5
7D79
330
1F
100
AcDbEntity
  8
AM_0
100
AcDbLine
 10
-66.3564608431401
 20
7.929515838623161
 30
0.0
 11
-66.5681307650201
 21
8.906856536865236
 31
0.0
  0
LINE
  5
7D7A
330
1F
100
AcDbEntity
  8
AM_0
100
AcDbLine
 10
-77.32009914881013
 20
28.31877899169916
 30
0.0
 11
-65.32009914881012
 21
28.31877899169922
 31
0.0
  0
LINE
  5
7D7B
330
1F
100
AcDbEntity
  8
AM_0
100
AcDbLine
 10
-77.3200991488101
 20
31.96417236328114
 30
0.0
 11
-65.3200991488101
 21
31.96417236328119
 31
0.0
  0
LINE
  5
7D7C
330
1F
100
AcDbEntity
  8
AM_0
100
AcDbLine
 10
-77.3200991488101
 20
32.22354125976619
 30
0.0
 11
-77.32009914881013
 21
25.44740295410214
 31
0.0
  0
LINE
  5
7D7E
330
1F
100
AcDbEntity
  8
AM_0
100
AcDbLine
 10
-77.32009914881013
 20
25.44740295410214
 30
0.0
 11
-74.82009914881013
 21
25.44740295410214
 31
0.0
  0
LINE
  5
7D7F
330
1F
100
AcDbEntity
  8
AM_0
100
AcDbLine
 10
-74.8200991488101
 20
32.22354125976619
 30
0.0
 11
-74.8200991488101
 21
31.96417236328114
 31
0.0
  0
LINE
  5
7D80
330
1F
100
AcDbEntity
  8
AM_0
100
AcDbLine
 10
-65.32009151941011
 20
28.31876373291016
 30
0.0
 11
-64.82009151941011
 21
27.91051483154319
 31
0.0
  0
LINE
  5
7D81
330
1F
100
AcDbEntity
  8
AM_0
100
AcDbLine
 10
-65.3200838900201
 20
31.96416473388717
 30
0.0
 11
-64.8200838900201
 21
31.48120880126919
 31
0.0
  0
DIMENSION
  5
7EEC
330
1F
100
AcDbEntity
  8
AM_5
100
AcDbDimension
  2
*D2
 10
164.0000038146926
 20
32.22354125976625
 30
0.0
 11
160.9000038146926
 21
19.72354125976628
 31
0.0
 70
    32
  1
<>
 71
     5
 42
25.0
 51
359.9999999999998
  3
AM_JIS$0
100
AcDbAlignedDimension
 13
150.0000038146926
 23
7.22354125976626
 33
0.0
 14
150.0000038146926
 24
32.22354125976625
 34
0.0
 50
90.00000000000003
100
AcDbRotatedDimension
1001
GENIUS_GENDTOL_13
1000

1000
h7
1000

1040
0.0
1001
ACAD
1000
DSTYLE
1002
{
1070
   287
1070
     3
1070
    42
1040
1.0
1070
    43
1040
12.0
1070
    48
1040
0.1
1070
    78
1070
     8
1070
   140
1040
3.2
1070
   176
1070
   256
1070
   177
1070
   256
1070
   271
1070
     0
1070
   272
1070
     3
1070
   275
1070
     0
1070
   284
1070
     0
1070
   289
1070
     3
1070
   340
1005
6B
1070
   371
1070
    -1
1070
   372
1070
    -1
1002
}
  0
DIMENSION
  5
7F83
330
1F
100
AcDbEntity
  8
AM_5
100
AcDbDimension
  2
*D3
 10
98.45482365459497
 20
-18.09345084619801
 30
0.0
 11
104.6844318831361
 21
-29.36518376011501
 31
0.0
 70
    32
  1
<>
 71
     5
 42
24.99999852510292
 51
359.9999999999998
  3
AM_JIS$0
100
AcDbAlignedDimension
 13
91.40233855706354
 23
-45.86506189424926
 33
0.0
 14
84.93186294246548
 24
-21.71691762649981
 34
0.0
 50
105.0000014950998
100
AcDbRotatedDimension
1001
GENIUS_GENDTOL_13
1000

1000
h7
1000

1040
0.0
1001
ACAD
1000
DSTYLE
1002
{
1070
   287
1070
     3
1070
    40
1040
1.0
1070
    42
1040
1.0
1070
    43
1040
12.0
1070
    48
1040
0.1
1070
    78
1070
     8
1070
   140
1040
3.2
1070
   176
1070
   256
1070
   177
1070
   256
1070
   271
1070
     0
1070
   272
1070
     3
1070
   275
1070
     0
1070
   284
1070
     0
1070
   289
1070
     3
1070
   340
1005
6B
1070
   371
1070
    -1
1070
   372
1070
    -1
1002
}
  0
DIMENSION
  5
833C
330
1F
100
AcDbEntity
  8
AM_5
100
AcDbDimension
  2
*D4
 10
11.76985030633254
 20
-41.32061685640818
 30
0.0
 11
-8.205293336626979
 21
-40.12674837415896
 31
0.0
 70
   162
  1
<>
 71
     5
 42
0.1221732842997412
 51
359.9999999999998
  3
AM_JIS$2
100
AcDb2LineAngularDimension
 13
16.89651589852525
 23
-40.6001120956652
 33
0.0
 14
11.76985030633254
 24
-41.32061685640818
 34
0.0
 15
11.72861930282216
 25
-41.33166467165505
 35
0.0
 16
-7.753922171363797
 26
-45.70855415642984
 36
0.0
1001
GENIUS_GENDTOL_13
1000

1000
h7
1000

1040
0.0
1001
ACAD
1000
DSTYLE
1002
{
1070
    75
1070
     1
1070
   282
1070
     1
1002
}
  0
DIMENSION
  5
844D
330
1F
100
AcDbEntity
  8
AM_5
100
AcDbDimension
  2
*D5
 10
11.76985412102953
 20
-41.32061685640818
 30
0.0
 11
19.44425997337617
 21
-77.69155901578706
 31
0.0
 70
   162
  1
<>
 71
     5
 42
0.1221731160931174
 51
359.9999999999998
  3
AM_JIS$2
100
AcDb2LineAngularDimension
 13
11.76985030633254
 23
-41.32061685640818
 33
0.0
 14
11.7823503719591
 24
-41.36726773237596
 34
0.0
 15
14.68858771783078
 25
-48.54473413546025
 35
0.0
 16
24.27992712488381
 26
-76.32404496449606
 36
0.0
1001
GENIUS_GENDTOL_13
1000

1000
h7
1000

1040
0.0
  0
DIMENSION
  5
8554
330
1F
100
AcDbEntity
  8
AM_5
100
AcDbDimension
  2
*D6
 10
-1.088610047189991
 20
-70.64793946672573
 30
0.0
 11
-1.329478821958028
 21
-57.77152597561358
 31
0.0
 70
    32
  1
<>
 71
     5
 42
25.00000337286
 51
359.9999999999998
  3
AM_JIS$0
100
AcDbAlignedDimension
 13
11.76985030633254
 23
-41.32061685640813
 33
0.0
 14
19.39943700295649
 24
-65.15818323214033
 34
0.0
 50
285.0000014950997
100
AcDbRotatedDimension
1001
GENIUS_GENDTOL_13
1000

1000
h7
1000

1040
0.0
1001
ACAD
1000
DSTYLE
1002
{
1070
   287
1070
     3
1070
    40
1040
1.0
1070
    42
1040
1.0
1070
    43
1040
12.0
1070
    48
1040
0.1
1070
    78
1070
     8
1070
   140
1040
3.2
1070
   176
1070
   256
1070
   177
1070
   256
1070
   271
1070
     0
1070
   272
1070
     3
1070
   275
1070
     0
1070
   284
1070
     0
1070
   289
1070
     3
1070
   340
1005
6B
1070
   371
1070
    -1
1070
   372
1070
    -1
1002
}
  0
LINE
  5
8673
330
1F
100
AcDbEntity
  8
AM_11
100
AcDbLine
 10
2.999999999999733
 20
0.0000000000001701
 30
0.0
 11
-0.0000000000002682
 21
0.0000000000001705
 31
0.0
  0
LINE
  5
8674
330
1F
100
AcDbEntity
  8
AM_11
100
AcDbLine
 10
-0.0000000000002731
 20
3.000000000000169
 30
0.0
 11
-0.0000000000002682
 21
0.0000000000001705
 31
0.0
  0
DIMENSION
  5
867D
330
1F
100
AcDbEntity
  8
AM_5
100
AcDbDimension
  2
*D7
 10
150.0000038146927
 20
56.22354125976622
 30
0.0
 11
75.00000190734637
 21
59.32354125976655
 31
0.0
 70
    32
  1
<>
 71
     5
 42
150.0000038146928
 51
359.9999999999998
  3
AM_JIS$0
100
AcDbAlignedDimension
 13
-0.0000000000002713
 23
3.000000000000198
 33
0.0
 14
150.0000038146926
 24
32.22354125976625
 34
0.0
 50
180.0
100
AcDbRotatedDimension
1001
GENIUS_GENDTOL_13
1000

1000
h7
1000

1040
0.0
1001
ACAD
1000
DSTYLE
1002
{
1070
   287
1070
     3
1070
    40
1040
1.0
1070
    42
1040
1.0
1070
    43
1040
12.0
1070
    48
1040
0.1
1070
    78
1070
     8
1070
   140
1040
3.2
1070
   176
1070
   256
1070
   177
1070
   256
1070
   271
1070
     0
1070
   272
1070
     3
1070
   275
1070
     0
1070
   284
1070
     0
1070
   289
1070
     3
1070
   340
1005
6B
1070
   371
1070
    -1
1070
   372
1070
    -1
1002
}
  0
DIMENSION
  5
8712
330
1F
100
AcDbEntity
  8
AM_5
100
AcDbDimension
  2
*D8
 10
19.0000047683719
 20
46.22354125976624
 30
0.0
 11
9.500002384185924
 21
49.32354125976629
 31
0.0
 70
    32
  1
<>
 71
     5
 42
19.00000476837197
 51
359.9999999999998
  3
AM_JIS$0
100
AcDbAlignedDimension
 13
-0.0000000000002713
 23
3.000000000000198
 33
0.0
 14
19.00000476837173
 24
9.357738494873215
 34
0.0
 50
180.0
100
AcDbRotatedDimension
1001
GENIUS_GENDTOL_13
1000

1000
h7
1000

1040
0.0
1001
ACAD
1000
DSTYLE
1002
{
1070
   287
1070
     3
1070
    40
1040
1.0
1070
    42
1040
1.0
1070
    43
1040
12.0
1070
    48
1040
0.1
1070
    78
1070
     8
1070
   140
1040
3.2
1070
   176
1070
   256
1070
   177
1070
   256
1070
   271
1070
     0
1070
   272
1070
     3
1070
   275
1070
     0
1070
   284
1070
     0
1070
   289
1070
     3
1070
   340
1005
6B
1070
   371
1070
    -1
1070
   372
1070
    -1
1002
}
  0
DIMENSION
  5
87C0
330
1F
100
AcDbEntity
  8
AM_5
100
AcDbDimension
  2
*D9
 10
19.00000476837173
 20
9.692280025143443
 30
0.0
 11
37.76921481290231
 21
45.18333251524303
 31
0.0
 70
    34
  1
<>
 71
     5
 42
0.2617993727512839
 51
359.9999999999998
  3
AM_JIS$2
100
AcDb2LineAngularDimension
 13
19.00000476837173
 23
9.357738494873215
 33
0.0
 14
25.12687778472876
 24
32.22354125976625
 34
0.0
 15
19.00000476837173
 25
9.357738494873215
 35
0.0
 16
22.21362730988078
 26
46.08961434770774
 36
0.0
1001
GENIUS_GENDTOL_13
1000

1000
h7
1000

1040
0.0
  0
DIMENSION
  5
88A4
330
1F
100
AcDbEntity
  8
AM_5
100
AcDbDimension
  2
*D10
 10
-14.29941926747711
 20
1.470462755578588
 30
0.0
 11
-10.80782683448141
 21
-11.56033653408925
 31
0.0
 70
   160
  1
<>
 71
     5
 42
5.999999999998353
 51
359.9999999999998
  3
AM_JIS$0
100
AcDbAlignedDimension
 13
3.776459355680687
 23
0.1022231160811482
 33
0.0
 14
2.223544966138194
 24
5.897778041947359
 34
0.0
 50
285.0000011757393
100
AcDbRotatedDimension
1001
GENIUS_GENDTOL_13
1000

1000
h7
1000

1040
0.0
1001
ACAD
1000
DSTYLE
1002
{
1070
   287
1070
     3
1070
    40
1040
1.0
1070
    42
1040
1.0
1070
    43
1040
12.0
1070
    48
1040
0.1
1070
    78
1070
     8
1070
   140
1040
3.2
1070
   176
1070
   256
1070
   177
1070
   256
1070
   271
1070
     0
1070
   272
1070
     3
1070
   275
1070
     0
1070
   284
1070
     0
1070
   289
1070
     3
1070
   340
1005
6B
1070
   371
1070
    -1
1070
   372
1070
    -1
1002
}
  0
DIMENSION
  5
8953
330
1F
100
AcDbEntity
  8
AM_5
100
AcDbDimension
  2
*D11
 10
-27.52296149369187
 20
32.22354125976627
 30
0.0
 11
-31.46105673178711
 21
17.22044033099637
 31
0.0
 70
    32
  1
(<>)
 71
     5
 42
30.00620185753977
 51
359.9999999999998
  3
AM_JIS$0
100
AcDbAlignedDimension
 13
0.103891854799944
 23
2.217339402226484
 33
0.0
 14
25.12687778472876
 24
32.22354125976625
 34
0.0
 50
270.0
100
AcDbRotatedDimension
1001
GENIUS_GENDTOL_13
1000

1000
h7
1000

1040
0.0
1001
ACAD
1000
DSTYLE
1002
{
1070
   287
1070
     3
1070
    40
1040
1.0
1070
    42
1040
1.0
1070
    43
1040
12.0
1070
    48
1040
0.1
1070
    78
1070
     8
1070
   140
1040
3.2
1070
   176
1070
   256
1070
   177
1070
   256
1070
   271
1070
     0
1070
   272
1070
     3
1070
   275
1070
     0
1070
   284
1070
     0
1070
   289
1070
     3
1070
   340
1005
6B
1070
   371
1070
    -1
1070
   372
1070
    -1
1002
}
  0
DIMENSION
  5
89E8
330
1F
100
AcDbEntity
  8
AM_5
100
AcDbDimension
  2
*D12
 10
-37.52296149369185
 20
32.22354125976627
 30
0.0
 11
-40.62296149369186
 21
16.11177062988322
 31
0.0
 70
    32
  1
<>
 71
     5
 42
32.22354125976609
 51
359.9999999999998
  3
AM_JIS$0
100
AcDbAlignedDimension
 13
-0.0000000000002699
 23
0.0000000000001705
 33
0.0
 14
25.12687778472876
 24
32.22354125976625
 34
0.0
 50
270.0000000000001
100
AcDbRotatedDimension
1001
GENIUS_GENDTOL_13
1000

1000
h7
1000

1040
0.0
1001
ACAD
1000
DSTYLE
1002
{
1070
   287
1070
     3
1070
    40
1040
1.0
1070
    42
1040
1.0
1070
    43
1040
12.0
1070
    48
1040
0.1
1070
    78
1070
     8
1070
   140
1040
3.2
1070
   176
1070
   256
1070
   177
1070
   256
1070
   271
1070
     1
1070
   272
1070
     3
1070
   275
1070
     0
1070
   284
1070
     0
1070
   289
1070
     3
1070
   340
1005
6B
1070
   371
1070
    -1
1070
   372
1070
    -1
1002
}
  0
DIMENSION
  5
8A88
330
1F
100
AcDbEntity
  8
AM_5
100
AcDbDimension
  2
*D13
 10
26.70023202896082
 20
9.350456237793249
 30
0.0
 11
-36.8039836043069
 21
-6.372528557612501
 31
0.0
 70
   162
  1
<>
 71
     5
 42
0.2617994083196695
 51
359.9999999999998
  3
AM_JIS$2
100
AcDb2LineAngularDimension
 13
2.999999999999733
 23
0.0000000000001701
 33
0.0
 14
-0.0000000000002682
 24
0.0000000000001705
 34
0.0
 15
-1.712875366211239
 25
1.737186431885162
 35
0.0
 16
-37.39361649946061
 26
-2.55444814828839
 36
0.0
1001
GENIUS_GENDTOL_13
1000

1000
h7
1000

1040
0.0
  0
DIMENSION
  5
8B99
330
1F
100
AcDbEntity
  8
AM_5
100
AcDbDimension
  2
*D14
 10
-74.82009914881029
 20
139.9999923706041
 30
0.0
 11
-119.9093048122809
 21
30.87301893955015
 31
0.0
 70
   164
  1
%%c280
 71
     5
 42
139.9999999999999
 51
359.9999999999998
  3
AM_JIS$4
100
AcDbRadialDimension
 15
-128.281734900063
 25
10.60967780726307
 35
0.0
 40
0.0
1001
ACAD
1000
DSTYLE
1002
{
1070
   287
1070
     3
1070
    43
1040
12.0
1070
    74
1070
     0
1070
   172
1070
     1
1070
   271
1070
     0
1070
   288
1070
     0
1070
   289
1070
     3
1002
}
  0
MTEXT
  5
8E8C
330
1F
100
AcDbEntity
  8
AM_6
100
AcDbMText
 10
-33.5593658233838
 20
-19.43787810574448
 30
0.0
 40
5.0
 41
0.0
 71
     5
 72
     5
  1
\T1.40;\W0.59;＋７°
 73
     1
 44
1.0
1001
ACAD
1000
MTEXTBEGIN
1070
    73
1070
     1
1070
    44
1040
1.0
1070
    74
1070
     0
1000
MTEXTEND
  0
MTEXT
  5
8E8D
330
1F
100
AcDbEntity
  8
AM_6
100
AcDbMText
 10
-51.31738544244663
 20
-9.483651171339836
 30
0.0
 40
5.0
 41
0.0
 71
     5
 72
     5
  1
\T1.40;\W0.59;０°
 73
     1
 44
1.0
1001
ACAD
1000
MTEXTBEGIN
1070
    73
1070
     1
1070
    44
1040
1.0
1070
    74
1070
     0
1000
MTEXTEND
  0
LEADER
  5
8E8E
330
1F
100
AcDbEntity
  8
AM_5
  6
Continuous
 48
0.5
100
AcDbLeader
  3
AM_JIS$7
 76
     2
 10
-53.38696313162204
 20
-12.8325170947331
 30
0.0
 10
-50.79877248304913
 20
-22.49177530204617
 30
0.0
211
0.8660254140444164
221
-0.4999999822291972
231
0.0
1001
ACAD
1000
DSTYLE
1002
{
1070
     6
1000
OPEN30
1070
   173
1070
     1
1070
   176
1070
     0
1002
}
  0
LEADER
  5
8E8F
330
1F
100
AcDbEntity
  8
AM_5
  6
Continuous
 48
0.5
100
AcDbLeader
  3
AM_JIS$7
 76
     2
 10
-41.13951427574398
 20
-19.90358465347099
 30
0.0
 10
-50.79877248304913
 20
-22.49177530204617
 30
0.0
211
0.8660254140444164
221
-0.4999999822291972
231
0.0
1001
ACAD
1000
DSTYLE
1002
{
1070
     6
1000
OPEN30
1070
   173
1070
     1
1070
   176
1070
     0
1002
}
  0
VIEWPORT
  5
110
102
{ACAD_XDICTIONARY
360
9114
102
}
330
101
100
AcDbEntity
 67
     1
  8
0
100
AcDbViewport
 10
420.5
 20
297.0
 30
0.0
 40
948.9782706766916
 41
628.452
 68
     1
 69
     1
 12
420.5
 22
297.0
 13
0.0
 23
0.0
 14
10.0
 24
10.0
 15
10.0
 25
10.0
 16
0.0
 26
0.0
 36
1.0
 17
0.0
 27
0.0
 37
0.0
 42
50.0
 43
0.0
 44
0.0
 45
628.452
 50
0.0
 51
0.0
 72
   100
 90
    32800
  1

281
     0
 71
     1
 74
     0
110
-0.0000000000002682
120
0.000000000000161
130
0.0
111
1.0
121
0.000000000000002
131
0.0
112
-0.000000000000002
122
1.0
132
0.0
 79
     0
146
0.0
1001
GENIUS_GENSCREG_15
1000
PF
1040
1.0
1000
DF
1040
1.0
1000
MIN
1011
-53.98913533834582
1021
-17.226
1031
0.0
1000
MAX
1011
894.9891353383458
1021
611.226
1031
0.0
1000
FLAGS
1070
     4
1001
GENIUS_GENODEF_13
1002
{
1000
HIER
1070
     0
1002
}
1002
{
1000
MANEDIT
1070
     0
1002
}
1002
{
1000
NOSEL
1070
     0
1002
}
1002
{
1000
BEHIND
1070
     0
1002
}
1002
{
1000
OTHER
1070
     0
1002
}
1002
{
1000
REACTOR
1002
}
1001
GENIUS_GENOBJ-N-SDF_13
1002
{
1000
OWNER
1000
GEN
1002
}
  0
ENDSEC
  0
SECTION
  2
OBJECTS
  0
DICTIONARY
  5
C
330
0
100
AcDbDictionary
281
     1
  3
ACAD_COLOR
350
8F51
  3
ACAD_GROUP
350
D
  3
ACAD_LAYOUT
350
1A
  3
ACAD_MATERIAL
350
8F50
  3
ACAD_MLINESTYLE
350
17
  3
ACAD_PLOTSETTINGS
350
19
  3
ACAD_PLOTSTYLENAME
350
E
  3
ACAD_TABLESTYLE
350
8F52
  3
ACDBHEADERROUNDTRIPXREC
350
9113
  3
ACDBVARIABLEDICTIONARY
350
34
  3
ACMDICTIONARY
350
43
  3
AMG
350
2B
  3
AMGSNAPSETTINGS
350
6E
  3
DWGPROPS
350
9112
  0
DICTIONARY
  5
74
330
1F
100
AcDbDictionary
280
     1
281
     1
  3
ACAD_INDEX
360
8EC7
  3
ACAD_LAYOUTSELFREF
360
8EF4
  0
DICTIONARY
  5
8EF9
330
101
100
AcDbDictionary
280
     1
281
     1
  3
ACAD_LAYOUTSELFREF
360
8EFA
  0
DICTIONARY
  5
9114
330
110
100
AcDbDictionary
280
     1
281
     1
  3
ACAD_XREC_ROUNDTRIP
360
9115
  0
DICTIONARY
  5
8F51
102
{ACAD_REACTORS
330
C
102
}
330
C
100
AcDbDictionary
281
     1
  0
DICTIONARY
  5
D
102
{ACAD_REACTORS
330
C
102
}
330
C
100
AcDbDictionary
281
     1
  0
DICTIONARY
  5
1A
102
{ACAD_REACTORS
330
C
102
}
330
C
100
AcDbDictionary
281
     1
  3
Model
350
8F54
  3
レイアウト1
350
8F55
  0
DICTIONARY
  5
8F50
102
{ACAD_REACTORS
330
C
102
}
330
C
100
AcDbDictionary
281
     1
  0
DICTIONARY
  5
17
102
{ACAD_REACTORS
330
C
102
}
330
C
100
AcDbDictionary
281
     1
  3
STANDARD
350
18
  0
DICTIONARY
  5
19
102
{ACAD_REACTORS
330
C
102
}
330
C
100
AcDbDictionary
281
     1
  3
ASAMI
350
399D
  0
ACDBDICTIONARYWDFLT
  5
E
102
{ACAD_REACTORS
330
C
102
}
330
C
100
AcDbDictionary
281
     1
  3
Normal
350
F
100
AcDbDictionaryWithDefault
340
F
  0
DICTIONARY
  5
8F52
102
{ACAD_REACTORS
330
C
102
}
330
C
100
AcDbDictionary
281
     1
  3
Standard
350
8F53
  0
DICTIONARY
  5
9113
102
{ACAD_REACTORS
330
C
102
}
330
C
100
AcDbDictionary
281
     1
  0
DICTIONARY
  5
34
102
{ACAD_REACTORS
330
C
102
}
330
C
100
AcDbDictionary
281
     1
  3
CTABLESTYLE
350
910E
  3
DIMASSOC
350
910F
  3
INDEXCTL
350
35
  3
PROJECTNAME
350
9110
  3
SORTENTS
350
B5E
  0
DICTIONARY
  5
43
102
{ACAD_REACTORS
330
C
102
}
330
C
100
AcDbDictionary
281
     1
  3
ACMSTDDICTIONARY
350
260
  0
DICTIONARY
  5
2B
102
{ACAD_REACTORS
330
C
102
}
330
C
100
AcDbDictionary
281
     1
  0
DICTIONARY
  5
6E
102
{ACAD_REACTORS
330
C
102
}
330
C
100
AcDbDictionary
281
     1
  0
XRECORD
  5
9112
102
{ACAD_REACTORS
330
C
102
}
330
C
100
AcDbXrecord
280
     1
  1
DWGPROPS COOKIE
  2

  3

  4

  6

  7

  8

  9

300
AmdtFileType=82
301
=
302
=
303
=
304
=
305
=
306
=
307
=
308
=
309
=
 40
0.8554945601851851
 41
2452802.716478762
 42
2455610.657527489
  1

 90
        1
  0
DICTIONARY
  5
8EC7
102
{ACAD_REACTORS
330
74
102
}
330
74
100
AcDbDictionary
281
     1
  3
*A1
350
8EC8
  0
XRECORD
  5
8EF4
102
{ACAD_REACTORS
330
74
102
}
330
74
100
AcDbXrecord
280
     1
340
1F
  0
XRECORD
  5
8EFA
102
{ACAD_REACTORS
330
8EF9
102
}
330
8EF9
100
AcDbXrecord
280
     1
340
101
  0
XRECORD
  5
9115
102
{ACAD_REACTORS
330
9114
102
}
330
9114
100
AcDbXrecord
280
     1
102
SHADEPLOT
 70
     0
  0
LAYOUT
  5
8F54
102
{ACAD_XDICTIONARY
360
9118
102
}
102
{ACAD_REACTORS
330
1A
102
}
330
1A
100
AcDbPlotSettings
  1

  2
SII LP-1010 (C2 VR)2R
  4

  6

 40
0.0
 41
0.0
 42
0.0
 43
0.0
 44
0.0
 45
0.0
 46
0.0
 47
0.0
 48
0.0
 49
0.0
140
0.0
141
0.0
142
1.0
143
1.0
 70
  1712
 72
     0
 73
     0
 74
     0
  7
sei_cad.ctb
 75
     0
147
1.0
148
0.0
149
0.0
100
AcDbLayout
  1
Model
 70
     1
 71
     0
 10
0.0
 20
0.0
 11
12.0
 21
9.0
 12
0.0
 22
0.0
 32
0.0
 14
0.0
 24
0.0
 34
0.0
 15
0.0
 25
0.0
 35
0.0
146
0.0
 13
0.0
 23
0.0
 33
0.0
 16
1.0
 26
0.0
 36
0.0
 17
0.0
 27
1.0
 37
0.0
 76
     0
330
1F
  0
LAYOUT
  5
8F55
102
{ACAD_XDICTIONARY
360
911A
102
}
102
{ACAD_REACTORS
330
1A
102
}
330
1A
100
AcDbPlotSettings
  1

  2
SII LP-1010 (C2 VR)2R
  4

  6

 40
0.0
 41
0.0
 42
0.0
 43
0.0
 44
0.0
 45
0.0
 46
0.0
 47
0.0
 48
0.0
 49
0.0
140
0.0
141
0.0
142
1.0
143
1.0
 70
   688
 72
     0
 73
     0
 74
     5
  7
sei_cad.ctb
 75
    16
147
1.0
148
0.0
149
0.0
100
AcDbLayout
  1
レイアウト1
 70
     0
 71
     1
 10
0.0
 20
0.0
 11
841.0
 21
594.0
 12
0.0
 22
0.0
 32
0.0
 14
1.000000000000000E+20
 24
1.000000000000000E+20
 34
1.000000000000000E+20
 15
-1.000000000000000E+20
 25
-1.000000000000000E+20
 35
-1.000000000000000E+20
146
0.0
 13
0.0
 23
0.0
 33
0.0
 16
1.0
 26
0.0
 36
0.0
 17
0.0
 27
1.0
 37
0.0
 76
     0
330
101
331
110
  0
MLINESTYLE
  5
18
102
{ACAD_REACTORS
330
17
102
}
330
17
100
AcDbMlineStyle
  2
STANDARD
 70
     0
  3

 62
   256
 51
90.0
 52
90.0
 71
     2
 49
0.5
 62
   256
  6
BYLAYER
 49
-0.5
 62
   256
  6
BYLAYER
  0
PLOTSETTINGS
  5
399D
102
{ACAD_XDICTIONARY
360
9116
102
}
102
{ACAD_REACTORS
330
19
102
}
330
19
100
AcDbPlotSettings
  1
asami
  2
RICOH imagio MF1540
  4
A4
  6

 40
5.831416606903076
 41
7.651742935180664
 42
4.90008544921875
 43
5.789077758789062
 44
296.9683227539062
 45
209.9733276367186
 46
0.0
 47
0.0
 48
-156.6707931774246
 49
-74.57609991074048
140
58.59973180214831
141
60.61068161925597
142
1.0
143
1.095343097833084
 70
  1712
 72
     1
 73
     1
 74
     4
  7
asami.ctb
 75
     0
147
0.9129559514076438
148
156.6707931774246
149
74.57609991074048
  0
ACDBPLACEHOLDER
  5
F
102
{ACAD_REACTORS
330
E
102
}
330
E
  0
TABLESTYLE
  5
8F53
102
{ACAD_REACTORS
330
8F52
102
}
330
8F52
100
AcDbTableStyle
  3
Standard
 70
     0
 71
     0
 40
1.5
 41
1.5
280
     0
281
     0
  7
STANDARD
140
4.5
170
     2
 62
     0
 63
     7
283
     0
274
    -2
284
     1
 64
     0
275
    -2
285
     1
 65
     0
276
    -2
286
     1
 66
     0
277
    -2
287
     1
 67
     0
278
    -2
288
     1
 68
     0
279
    -2
289
     1
 69
     0
  7
STANDARD
140
6.0
170
     5
 62
     0
 63
     7
283
     0
274
    -2
284
     1
 64
     0
275
    -2
285
     1
 65
     0
276
    -2
286
     1
 66
     0
277
    -2
287
     1
 67
     0
278
    -2
288
     1
 68
     0
279
    -2
289
     1
 69
     0
  7
STANDARD
140
4.5
170
     5
 62
     0
 63
     7
283
     0
274
    -2
284
     1
 64
     0
275
    -2
285
     1
 65
     0
276
    -2
286
     1
 66
     0
277
    -2
287
     1
 67
     0
278
    -2
288
     1
 68
     0
279
    -2
289
     1
 69
     0
  0
DICTIONARYVAR
  5
910E
102
{ACAD_REACTORS
330
34
102
}
330
34
100
DictionaryVariables
280
     0
  1
STANDARD
  0
DICTIONARYVAR
  5
910F
102
{ACAD_REACTORS
330
34
102
}
330
34
100
DictionaryVariables
280
     0
  1
1
  0
DICTIONARYVAR
  5
35
102
{ACAD_REACTORS
330
34
102
}
330
34
100
DictionaryVariables
280
     0
  1
1
  0
DICTIONARYVAR
  5
9110
102
{ACAD_REACTORS
330
34
102
}
330
34
100
DictionaryVariables
280
     0
  1

  0
DICTIONARYVAR
  5
B5E
102
{ACAD_REACTORS
330
34
102
}
330
34
100
DictionaryVariables
280
     0
  1
96
  0
DICTIONARY
  5
260
102
{ACAD_REACTORS
330
43
102
}
330
43
100
AcDbDictionary
281
     1
  0
LAYER_INDEX
  5
8EC8
102
{ACAD_REACTORS
330
8EC7
102
}
330
8EC7
100
AcDbIndex
 40
2455610.657527489
100
AcDbLayerIndex
  8
0
360
8EC9
 90
        0
  8
AM_0
360
8ECA
 90
      163
  8
AM_5
360
8ECB
 90
       15
  8
AM_7
360
8ECC
 90
        3
  8
AM_6
360
8ECD
 90
        3
  8
DEFPOINTS
360
8ECE
 90
        0
  8
AM_11
360
8ECF
 90
        4
  0
DICTIONARY
  5
9118
330
8F54
100
AcDbDictionary
280
     1
281
     1
  3
ACAD_XREC_ROUNDTRIP
360
9119
  0
DICTIONARY
  5
911A
330
8F55
100
AcDbDictionary
280
     1
281
     1
  3
ACAD_XREC_ROUNDTRIP
360
911B
  0
DICTIONARY
  5
9116
330
399D
100
AcDbDictionary
280
     1
281
     1
  3
ACAD_XREC_ROUNDTRIP
360
9117
  0
IDBUFFER
  5
8EC9
330
0
100
AcDbIdBuffer
  0
IDBUFFER
  5
8ECA
330
0
100
AcDbIdBuffer
330
7CA3
330
7CA4
330
7CA5
330
7CA6
330
7CA7
330
7CA8
330
7CA9
330
7CAA
330
7CAB
330
7CAC
330
7CAD
330
7CAE
330
7CB0
330
7CB1
330
7CB7
330
7CB8
330
7CB9
330
7CBB
330
7CBC
330
7CBD
330
7CBE
330
7CBF
330
7CC0
330
7CC1
330
7CC2
330
7CC8
330
7CC9
330
7CCA
330
7CD0
330
7CD1
330
7CD5
330
7CD6
330
7CD7
330
7CD8
330
7CDA
330
7CDC
330
7CDD
330
7CDE
330
7CDF
330
7CE0
330
7CE1
330
7CE2
330
7CE3
330
7CE4
330
7CE5
330
7CE6
330
7CE7
330
7CE8
330
7CE9
330
7CEA
330
7CEB
330
7CEC
330
7CED
330
7CEE
330
7CEF
330
7CF0
330
7CF1
330
7CF2
330
7CF3
330
7CF4
330
7CF5
330
7CF6
330
7CF7
330
7CF8
330
7CF9
330
7CFA
330
7CFB
330
7CFC
330
7CFD
330
7CFE
330
7CFF
330
7D00
330
7D01
330
7D02
330
7D03
330
7D04
330
7D05
330
7D06
330
7D07
330
7D09
330
7D0A
330
7D15
330
7D16
330
7D17
330
7D18
330
7D19
330
7D1A
330
7D1F
330
7D20
330
7D25
330
7D26
330
7D28
330
7D29
330
7D2A
330
7D2B
330
7D2C
330
7D2D
330
7D2E
330
7D32
330
7D34
330
7D35
330
7D36
330
7D37
330
7D39
330
7D3D
330
7D3E
330
7D3F
330
7D40
330
7D41
330
7D42
330
7D43
330
7D44
330
7D45
330
7D46
330
7D47
330
7D48
330
7D49
330
7D4A
330
7D4B
330
7D4C
330
7D4D
330
7D4F
330
7D50
330
7D51
330
7D52
330
7D53
330
7D54
330
7D55
330
7D56
330
7D57
330
7D58
330
7D5C
330
7D5D
330
7D5E
330
7D5F
330
7D60
330
7D61
330
7D62
330
7D64
330
7D66
330
7D67
330
7D68
330
7D6A
330
7D6D
330
7D6E
330
7D6F
330
7D70
330
7D71
330
7D72
330
7D73
330
7D74
330
7D75
330
7D76
330
7D77
330
7D78
330
7D79
330
7D7A
330
7D7B
330
7D7C
330
7D7E
330
7D7F
330
7D80
330
7D81
  0
IDBUFFER
  5
8ECB
330
0
100
AcDbIdBuffer
330
7EEC
330
7F83
330
833C
330
844D
330
8554
330
867D
330
8712
330
87C0
330
88A4
330
8953
330
89E8
330
8A88
330
8B99
330
8E8E
330
8E8F
  0
IDBUFFER
  5
8ECC
330
0
100
AcDbIdBuffer
330
7CD2
330
7D59
330
7D5A
  0
IDBUFFER
  5
8ECD
330
0
100
AcDbIdBuffer
330
388D
330
8E8C
330
8E8D
  0
IDBUFFER
  5
8ECE
330
0
100
AcDbIdBuffer
  0
IDBUFFER
  5
8ECF
330
0
100
AcDbIdBuffer
330
7CB6
330
7D4E
330
8673
330
8674
  0
XRECORD
  5
9119
102
{ACAD_REACTORS
330
9118
102
}
330
9118
100
AcDbXrecord
280
     1
102
SHADEPLOT
 70
     0
102
SHADEPLOTRESLEVEL
 70
     2
102
SHADEPLOTCUSTOMDPI
 70
   300
  0
XRECORD
  5
911B
102
{ACAD_REACTORS
330
911A
102
}
330
911A
100
AcDbXrecord
280
     1
102
SHADEPLOT
 70
     0
102
SHADEPLOTRESLEVEL
 70
     2
102
SHADEPLOTCUSTOMDPI
 70
   300
  0
XRECORD
  5
9117
102
{ACAD_REACTORS
330
9116
102
}
330
9116
100
AcDbXrecord
280
     1
102
SHADEPLOT
 70
     0
102
SHADEPLOTRESLEVEL
 70
     2
102
SHADEPLOTCUSTOMDPI
 70
   300
  0
ENDSEC
  0
EOF
