  0
SECTION
  2
HEADER
  9
$ACADVER
  1
AC1015
  9
$ACADMAINTVER
 70
    20
  9
$DWGCODEPAGE
  3
ANSI_932
  9
$INSBASE
 10
0.0
 20
0.0
 30
0.0
  9
$EXTMIN
 10
-97.54634089205945
 20
-74.71106653767435
 30
-0.0000000000022887
  9
$EXTMAX
 10
165.0006446803012
 20
160.7059184172092
 30
0.0000000000000001
  9
$LIMMIN
 10
-188.2500954327742
 20
-99.81871331848594
  9
$LIMMAX
 10
105.4726640217964
 20
75.80279206735224
  9
$ORTHOMODE
 70
     0
  9
$REGENMODE
 70
     1
  9
$FILLMODE
 70
     1
  9
$QTEXTMODE
 70
     0
  9
$MIRRTEXT
 70
     0
  9
$LTSCALE
 40
1.0
  9
$ATTMODE
 70
     1
  9
$TEXTSIZE
 40
2.5
  9
$TRACEWID
 40
1.0
  9
$TEXTSTYLE
  7
STANDARD
  9
$CLAYER
  8
AM_0
  9
$CELTYPE
  6
BYLAYER
  9
$CECOLOR
 62
   256
  9
$CELTSCALE
 40
1.0
  9
$DISPSILH
 70
     0
  9
$DIMSCALE
 40
1.0
  9
$DIMASZ
 40
2.5
  9
$DIMEXO
 40
1.0
  9
$DIMDLI
 40
12.0
  9
$DIMRND
 40
0.0
  9
$DIMDLE
 40
0.0
  9
$DIMEXE
 40
1.0
  9
$DIMTP
 40
0.1
  9
$DIMTM
 40
0.1
  9
$DIMTXT
 40
3.2
  9
$DIMCEN
 40
0.0
  9
$DIMTSZ
 40
0.0
  9
$DIMTOL
 70
     0
  9
$DIMLIM
 70
     0
  9
$DIMTIH
 70
     0
  9
$DIMTOH
 70
     0
  9
$DIMSE1
 70
     0
  9
$DIMSE2
 70
     0
  9
$DIMTAD
 70
     3
  9
$DIMZIN
 70
     8
  9
$DIMBLK
  1
OPEN30
  9
$DIMASO
 70
     1
  9
$DIMSHO
 70
     1
  9
$DIMPOST
  1

  9
$DIMAPOST
  1
"
  9
$DIMALT
 70
     0
  9
$DIMALTD
 70
     2
  9
$DIMALTF
 40
0.0393701
  9
$DIMLFAC
 40
1.0
  9
$DIMTOFL
 70
     1
  9
$DIMTVP
 40
0.0
  9
$DIMTIX
 70
     0
  9
$DIMSOXD
 70
     0
  9
$DIMSAH
 70
     0
  9
$DIMBLK1
  1

  9
$DIMBLK2
  1

  9
$DIMSTYLE
  2
AM_JIS
  9
$DIMCLRD
 70
   256
  9
$DIMCLRE
 70
   256
  9
$DIMCLRT
 70
     2
  9
$DIMTFAC
 40
0.71
  9
$DIMGAP
 40
1.5
  9
$DIMJUST
 70
     0
  9
$DIMSD1
 70
     0
  9
$DIMSD2
 70
     0
  9
$DIMTOLJ
 70
     0
  9
$DIMTZIN
 70
     0
  9
$DIMALTZ
 70
     0
  9
$DIMALTTZ
 70
     0
  9
$DIMUPT
 70
     0
  9
$DIMDEC
 70
     3
  9
$DIMTDEC
 70
     3
  9
$DIMALTU
 70
     2
  9
$DIMALTTD
 70
     2
  9
$DIMTXSTY
  7
ASAMI
  9
$DIMAUNIT
 70
     0
  9
$DIMADEC
 70
     0
  9
$DIMALTRND
 40
0.0
  9
$DIMAZIN
 70
     2
  9
$DIMDSEP
 70
    46
  9
$DIMATFIT
 70
     3
  9
$DIMFRAC
 70
     0
  9
$DIMLDRBLK
  1
OPEN30
  9
$DIMLUNIT
 70
     2
  9
$DIMLWD
 70
    -1
  9
$DIMLWE
 70
    -1
  9
$DIMTMOVE
 70
     0
  9
$LUNITS
 70
     2
  9
$LUPREC
 70
     2
  9
$SKETCHINC
 40
1.0
  9
$FILLETRAD
 40
0.4
  9
$AUNITS
 70
     0
  9
$AUPREC
 70
     0
  9
$MENU
  1
.
  9
$ELEVATION
 40
0.0
  9
$PELEVATION
 40
0.0
  9
$THICKNESS
 40
0.0
  9
$LIMCHECK
 70
     1
  9
$CHAMFERA
 40
1.0
  9
$CHAMFERB
 40
1.0
  9
$CHAMFERC
 40
20.0
  9
$CHAMFERD
 40
0.0
  9
$SKPOLY
 70
     0
  9
$TDCREATE
 40
2452802.716478762
  9
$TDUCREATE
 40
2452802.341478762
  9
$TDUPDATE
 40
2455610.655247928
  9
$TDUUPDATE
 40
2455610.280247928
  9
$TDINDWG
 40
0.9071590972
  9
$TDUSRTIMER
 40
0.9071572917
  9
$USRTIMER
 70
     1
  9
$ANGBASE
 50
0.0
  9
$ANGDIR
 70
     0
  9
$PDMODE
 70
     0
  9
$PDSIZE
 40
0.0
  9
$PLINEWID
 40
0.0
  9
$SPLFRAME
 70
     0
  9
$SPLINETYPE
 70
     6
  9
$SPLINESEGS
 70
     8
  9
$HANDSEED
  5
8C89
  9
$SURFTAB1
 70
     6
  9
$SURFTAB2
 70
     6
  9
$SURFTYPE
 70
     6
  9
$SURFU
 70
     6
  9
$SURFV
 70
     6
  9
$UCSBASE
  2

  9
$UCSNAME
  2

  9
$UCSORG
 10
-0.0000000000002682
 20
0.000000000000161
 30
0.0
  9
$UCSXDIR
 10
1.0
 20
0.000000000000002
 30
0.0
  9
$UCSYDIR
 10
-0.000000000000002
 20
1.0
 30
0.0
  9
$UCSORTHOREF
  2

  9
$UCSORTHOVIEW
 70
     0
  9
$UCSORGTOP
 10
0.0
 20
0.0
 30
0.0
  9
$UCSORGBOTTOM
 10
0.0
 20
0.0
 30
0.0
  9
$UCSORGLEFT
 10
0.0
 20
0.0
 30
0.0
  9
$UCSORGRIGHT
 10
0.0
 20
0.0
 30
0.0
  9
$UCSORGFRONT
 10
0.0
 20
0.0
 30
0.0
  9
$UCSORGBACK
 10
0.0
 20
0.0
 30
0.0
  9
$PUCSBASE
  2

  9
$PUCSNAME
  2

  9
$PUCSORG
 10
0.0
 20
0.0
 30
0.0
  9
$PUCSXDIR
 10
1.0
 20
0.0
 30
0.0
  9
$PUCSYDIR
 10
0.0
 20
1.0
 30
0.0
  9
$PUCSORTHOREF
  2

  9
$PUCSORTHOVIEW
 70
     0
  9
$PUCSORGTOP
 10
0.0
 20
0.0
 30
0.0
  9
$PUCSORGBOTTOM
 10
0.0
 20
0.0
 30
0.0
  9
$PUCSORGLEFT
 10
0.0
 20
0.0
 30
0.0
  9
$PUCSORGRIGHT
 10
0.0
 20
0.0
 30
0.0
  9
$PUCSORGFRONT
 10
0.0
 20
0.0
 30
0.0
  9
$PUCSORGBACK
 10
0.0
 20
0.0
 30
0.0
  9
$USERI1
 70
     0
  9
$USERI2
 70
     0
  9
$USERI3
 70
     0
  9
$USERI4
 70
     0
  9
$USERI5
 70
     0
  9
$USERR1
 40
0.0
  9
$USERR2
 40
0.0
  9
$USERR3
 40
0.0
  9
$USERR4
 40
0.0
  9
$USERR5
 40
0.0
  9
$WORLDVIEW
 70
     1
  9
$SHADEDGE
 70
     3
  9
$SHADEDIF
 70
    70
  9
$TILEMODE
 70
     1
  9
$MAXACTVP
 70
    64
  9
$PINSBASE
 10
0.0
 20
0.0
 30
0.0
  9
$PLIMCHECK
 70
     0
  9
$PEXTMIN
 10
1.000000000000000E+20
 20
1.000000000000000E+20
 30
1.000000000000000E+20
  9
$PEXTMAX
 10
-1.000000000000000E+20
 20
-1.000000000000000E+20
 30
-1.000000000000000E+20
  9
$PLIMMIN
 10
0.0
 20
0.0
  9
$PLIMMAX
 10
841.0
 20
594.0
  9
$UNITMODE
 70
     0
  9
$VISRETAIN
 70
     1
  9
$PLINEGEN
 70
     0
  9
$PSLTSCALE
 70
     0
  9
$TREEDEPTH
 70
  3020
  9
$CMLSTYLE
  2
STANDARD
  9
$CMLJUST
 70
     0
  9
$CMLSCALE
 40
20.0
  9
$PROXYGRAPHICS
 70
     1
  9
$MEASUREMENT
 70
     1
  9
$CELWEIGHT
370
    -1
  9
$ENDCAPS
280
     0
  9
$JOINSTYLE
280
     0
  9
$LWDISPLAY
290
     0
  9
$INSUNITS
 70
     4
  9
$HYPERLINKBASE
  1

  9
$STYLESHEET
  1
ASAMI.ctb
  9
$XEDIT
290
     1
  9
$CEPSNTYPE
380
     0
  9
$PSTYLEMODE
290
     1
  9
$FINGERPRINTGUID
  2
{AFB28963-8C59-40AE-9337-C84526B81ACE}
  9
$VERSIONGUID
  2
{966E0BA4-F607-4E09-961B-156D01325F12}
  9
$EXTNAMES
290
     1
  9
$PSVPSCALE
 40
0.0
  9
$OLESTARTUP
290
     0
  0
ENDSEC
  0
SECTION
  2
CLASSES
  0
CLASS
  1
ACDBDICTIONARYWDFLT
  2
AcDbDictionaryWithDefault
  3
ObjectDBX Classes
 90
        0
280
     0
281
     0
  0
CLASS
  1
ACDBPLACEHOLDER
  2
AcDbPlaceHolder
  3
ObjectDBX Classes
 90
        0
280
     0
281
     0
  0
CLASS
  1
LAYOUT
  2
AcDbLayout
  3
ObjectDBX Classes
 90
        0
280
     0
281
     0
  0
CLASS
  1
AMGSETTINGSOBJ
  2
AmgSettingsObj
  3
"AcadM|Product Description: AutoCAD Mechanical 2000|Company: Autodesk"
 90
        0
280
     0
281
     0
  0
CLASS
  1
ACME_DOCUMENT
  2
AcMeDbDoc
  3
AcMeServices
 90
        0
280
     0
281
     0
  0
CLASS
  1
ACMESCOPE
  2
AcMeScope
  3
AcMeServices
 90
        0
280
     0
281
     0
  0
CLASS
  1
ACMECOMMANDHISTORY
  2
AcMeCommandHistory
  3
AcMeServices
 90
        0
280
     0
281
     0
  0
CLASS
  1
DICTIONARYVAR
  2
AcDbDictionaryVar
  3
ObjectDBX Classes
 90
        0
280
     0
281
     0
  0
CLASS
  1
ACIMSYSVARMAN
  2
AcImSysVarManager
  3
AcMeServices
 90
        0
280
     0
281
     0
  0
CLASS
  1
ACIMREALSYSVAR
  2
AcImRealSysVar
  3
AcMeServices
 90
        0
280
     0
281
     0
  0
CLASS
  1
ACIMINTSYSVAR
  2
AcImIntSysVar
  3
AcMeServices
 90
        0
280
     0
281
     0
  0
CLASS
  1
ACMEDRAWINGMAN
  2
AcMeDrawingMan
  3
AcMeServices
 90
        0
280
     0
281
     0
  0
CLASS
  1
ACMEVIEW
  2
AcMeView
  3
AcMeServices
 90
        0
280
     0
281
     0
  0
CLASS
  1
ACDBENTITYCACHE
  2
AcMeEntityCache
  3
AcMeServices
 90
        0
280
     0
281
     0
  0
CLASS
  1
GSMANAGER
  2
AcMeGSManager
  3
AcMeServices
 90
        0
280
     0
281
     0
  0
CLASS
  1
AMDTINTERNALREACTOR
  2
AmdtInternalReactor
  3
AcMeServices
 90
        0
280
     0
281
     0
  0
CLASS
  1
ACMESTATEMGR
  2
AcMeStateMgr
  3
AcMeServices
 90
        0
280
     0
281
     0
  0
CLASS
  1
ACME_DATABASE
  2
AcMeDbDatabase
  3
AcMeServices
 90
        0
280
     0
281
     0
  0
CLASS
  1
ACRFINSADJUSTERMGR
  2
AcRfInsAdjusterMgr
  3
AcMeServices
 90
        0
280
     0
281
     0
  0
CLASS
  1
ACMDATADICTIONARY
  2
AcmDataDictionary
  3
"AcmSymBB|Product Description: AutoCAD Mechanical 2004 DX|Company: Autodesk"
 90
        0
280
     0
281
     0
  0
CLASS
  1
ACMDATAENTRYBLOCK
  2
AcmDataEntryBlock
  3
"AcmSymBB|Product Description: AutoCAD Mechanical 2004 DX|Company: Autodesk"
 90
    32768
280
     0
281
     0
  0
CLASS
  1
AMGOBJPROPCFG
  2
AmgObjPropCfg
  3
"AmgLay|Product Description: AutoCAD Mechanical 2000|Company: Autodesk"
 90
        1
280
     0
281
     0
  0
CLASS
  1
ACAMGFILTERDAT
  2
AcAmgFilterDat
  3
"AcadM|Product Description: AutoCAD Mechanical 2000|Company: Autodesk"
 90
    32768
280
     0
281
     0
  0
CLASS
  1
LAYER_INDEX
  2
AcDbLayerIndex
  3
ObjectDBX Classes
 90
        0
280
     0
281
     0
  0
CLASS
  1
IDBUFFER
  2
AcDbIdBuffer
  3
ObjectDBX Classes
 90
        0
280
     0
281
     0
  0
CLASS
  1
ACIMSTRSYSVAR
  2
AcImStrSysVar
  3
AcMeServices
 90
        0
280
     0
281
     0
  0
CLASS
  1
ACMSTANDARDJIS
  2
AcmStandardJIS
  3
"Amdt_StdImp|Product Description: AutoCAD Mechanical 2004 DX|Company: Autodesk"
 90
    32768
280
     0
281
     0
  0
CLASS
  1
ACMSURFSTANDARDJIS
  2
AcmSurfTextStdJIS
  3
"Amdt_StdImp|Product Description: AutoCAD Mechanical 2004 DX|Company: Autodesk"
 90
    32768
280
     0
281
     0
  0
CLASS
  1
ACMFCFSTANDARDJIS
  2
AcmFCFStdJIS
  3
"Amdt_StdImp|Product Description: AutoCAD Mechanical 2004 DX|Company: Autodesk"
 90
    32768
280
     0
281
     0
  0
CLASS
  1
ACMWELDSTANDARDJIS
  2
AcmWeldingStdJIS
  3
"Amdt_StdImp|Product Description: AutoCAD Mechanical 2004 DX|Company: Autodesk"
 90
    32768
280
     0
281
     0
  0
CLASS
  1
ACMIDSTANDARDJIS
  2
AcmIdStdJIS
  3
"Amdt_StdImp|Product Description: AutoCAD Mechanical 2004 DX|Company: Autodesk"
 90
    32768
280
     0
281
     0
  0
CLASS
  1
ACMDATUMSTANDARDJIS
  2
AcmDatumStdJIS
  3
"Amdt_StdImp|Product Description: AutoCAD Mechanical 2004 DX|Company: Autodesk"
 90
    32768
280
     0
281
     0
  0
CLASS
  1
ACMBOMSTANDARDJIS
  2
AcmBOMStdJIS
  3
"Amdt_StdImp|Product Description: AutoCAD Mechanical 2004 DX|Company: Autodesk"
 90
    32768
280
     0
281
     0
  0
CLASS
  1
ACMSTANDARDANSI
  2
AcmStandardANSI
  3
"Amdt_StdImp|Product Description: AutoCAD Mechanical 2004 DX|Company: Autodesk"
 90
    32768
280
     0
281
     0
  0
CLASS
  1
ACMSURFSTANDARDANSI
  2
AcmSurfTextStdANSI
  3
"Amdt_StdImp|Product Description: AutoCAD Mechanical 2004 DX|Company: Autodesk"
 90
    32768
280
     0
281
     0
  0
CLASS
  1
ACMFCFSTANDARDANSI
  2
AcmFCFStdANSI
  3
"Amdt_StdImp|Product Description: AutoCAD Mechanical 2004 DX|Company: Autodesk"
 90
    32768
280
     0
281
     0
  0
CLASS
  1
ACMWELDSTANDARDANSI
  2
AcmWeldingStdANSI
  3
"Amdt_StdImp|Product Description: AutoCAD Mechanical 2004 DX|Company: Autodesk"
 90
    32768
280
     0
281
     0
  0
CLASS
  1
ACMIDSTANDARDANSI
  2
AcmIdStdANSI
  3
"Amdt_StdImp|Product Description: AutoCAD Mechanical 2004 DX|Company: Autodesk"
 90
    32768
280
     0
281
     0
  0
CLASS
  1
ACMDATUMSTANDARDANSI
  2
AcmDatumStdANSI
  3
"Amdt_StdImp|Product Description: AutoCAD Mechanical 2004 DX|Company: Autodesk"
 90
    32768
280
     0
281
     0
  0
CLASS
  1
ACMBOMSTANDARDANSI
  2
AcmBOMStdANSI
  3
"Amdt_StdImp|Product Description: AutoCAD Mechanical 2004 DX|Company: Autodesk"
 90
    32768
280
     0
281
     0
  0
CLASS
  1
ACMSTANDARDBSI
  2
AcmStandardBSI
  3
"Amdt_StdImp|Product Description: AutoCAD Mechanical 2004 DX|Company: Autodesk"
 90
    32768
280
     0
281
     0
  0
CLASS
  1
ACMSURFSTANDARDBSI
  2
AcmSurfTextStdBSI
  3
"Amdt_StdImp|Product Description: AutoCAD Mechanical 2004 DX|Company: Autodesk"
 90
    32768
280
     0
281
     0
  0
CLASS
  1
ACMFCFSTANDARDBSI
  2
AcmFCFStdBSI
  3
"Amdt_StdImp|Product Description: AutoCAD Mechanical 2004 DX|Company: Autodesk"
 90
    32768
280
     0
281
     0
  0
CLASS
  1
ACMWELDSTANDARDBSI
  2
AcmWeldingStdBSI
  3
"Amdt_StdImp|Product Description: AutoCAD Mechanical 2004 DX|Company: Autodesk"
 90
    32768
280
     0
281
     0
  0
CLASS
  1
ACMIDSTANDARDBSI
  2
AcmIdStdBSI
  3
"Amdt_StdImp|Product Description: AutoCAD Mechanical 2004 DX|Company: Autodesk"
 90
    32768
280
     0
281
     0
  0
CLASS
  1
ACMDATUMSTANDARDBSI
  2
AcmDatumStdBSI
  3
"Amdt_StdImp|Product Description: AutoCAD Mechanical 2004 DX|Company: Autodesk"
 90
    32768
280
     0
281
     0
  0
CLASS
  1
ACMBOMSTANDARDBSI
  2
AcmBOMStdBSI
  3
"Amdt_StdImp|Product Description: AutoCAD Mechanical 2004 DX|Company: Autodesk"
 90
    32768
280
     0
281
     0
  0
CLASS
  1
STDPART2D
  2
AmgStdPart
  3
"AmgStdPart|Product Description: AutoCAD Mechanical 2000|Company: Autodesk"
 90
    33791
280
     0
281
     1
  0
CLASS
  1
PLOTSETTINGS
  2
AcDbPlotSettings
  3
ObjectDBX Classes
 90
        0
280
     0
281
     0
  0
CLASS
  1
TABLESTYLE
  2
AcDbTableStyle
  3
ObjectDBX Classes
 90
     2047
280
     0
281
     0
  0
CLASS
  1
ACGREFMASTER
  2
AcGrefMaster
  3
AcAttribServices
 90
        0
280
     0
281
     0
  0
CLASS
  1
AM_DRAWING_MGR
  2
AcDmDwgMgr
  3
AcMechDwgViewMgmt
 90
        0
280
     0
281
     0
  0
CLASS
  1
AM_DWG_DOCUMENT
  2
AcDmDwgDocument
  3
AcMechDwgViewMgmt
 90
        0
280
     0
281
     0
  0
CLASS
  1
AM_DWG_SHEET
  2
AcDmSheet
  3
AcMechDwgViewMgmt
 90
        0
280
     0
281
     0
  0
CLASS
  1
AM_VIEWDIMPARMAP
  2
AcDmViewDimParMap
  3
AcMechDwgViewMgmt
 90
        0
280
     0
281
     0
  0
CLASS
  1
AM_DWGMGR_NAME
  2
AcDmDwgMgrName
  3
AcMechDwgViewMgmt
 90
        0
280
     0
281
     0
  0
CLASS
  1
ACGREFACADMASTER
  2
AcGrefacadMaster
  3
AcGrefServices
 90
        0
280
     0
281
     0
  0
CLASS
  1
AMDTMENUSTATEMGR
  2
AmdtMenuStateMgr
  3
McadcomServices
 90
        0
280
     0
281
     0
  0
CLASS
  1
AMDTMCOMMENUSTATE
  2
AmdtMcomMenuState
  3
McadcomServices
 90
        0
280
     0
281
     0
  0
CLASS
  1
AMIMASTER
  2
AmiMaster
  3
AmiServices
 90
        0
280
     0
281
     0
  0
CLASS
  1
MAPIAMMOUDLE
  2
MApiAmModule
  3
MApiAmServices
 90
        0
280
     0
281
     0
  0
CLASS
  1
AMDTADMENUSTATE
  2
AmdtAdMenuState
  3
DesignerServices
 90
        0
280
     0
281
     0
  0
CLASS
  1
ADAPPL
  2
AcAdAppl
  3
DesignerServices
 90
        0
280
     0
281
     0
  0
CLASS
  1
DEPMGR
  2
AcAdDepMgr
  3
DesignerServices
 90
        0
280
     0
281
     0
  0
CLASS
  1
PARAMMGR
  2
AcAdParamMgr
  3
DesignerServices
 90
        0
280
     0
281
     0
  0
CLASS
  1
PARAMSCOPE
  2
AcAdParamScope
  3
DesignerServices
 90
        0
280
     0
281
     0
  0
CLASS
  1
NAMEDAPPL
  2
AcAdNamedAppl
  3
DesignerServices
 90
        0
280
     0
281
     0
  0
CLASS
  1
AMDTDMMENUSTATE
  2
AmdtDmMenuState
  3
AcMechDwgViewMgmt
 90
        0
280
     0
281
     0
  0
CLASS
  1
AMDTAMMENUSTATE
  2
AmdtAmMenuState
  3
DesignerAssemblies
 90
        0
280
     0
281
     0
  0
CLASS
  1
ACAMPROJECT
  2
AcAmProject
  3
DesignerAssemblies
 90
        0
280
     0
281
     0
  0
CLASS
  1
ACAMGRCOMPDEF
  2
AcAmGrCompDef
  3
DesignerAssemblies
 90
        0
280
     0
281
     0
  0
CLASS
  1
ACCMCONTEXT
  2
AcCmContext
  3
DesignerAssemblies
 90
        0
280
     0
281
     0
  0
CLASS
  1
ACAMCOMPDEF
  2
AcAmCompDef
  3
DesignerAssemblies
 90
        0
280
     0
281
     0
  0
CLASS
  1
ACAMCOMPDEFMGR
  2
AcAmCompDefMgr
  3
DesignerAssemblies
 90
        0
280
     0
281
     0
  0
CLASS
  1
AMCONTEXTMGR
  2
AcAmContextMgr
  3
DesignerAssemblies
 90
        0
280
     0
281
     0
  0
CLASS
  1
ACAMCONTEXTMODELER
  2
AcAmContextModeler
  3
DesignerAssemblies
 90
        0
280
     0
281
     0
  0
CLASS
  1
CATALOGSTATE
  2
AcAmCatalogState
  3
DesignerAssemblies
 90
        0
280
     0
281
     0
  0
CLASS
  1
ACAMGRCOMPDEFSET
  2
AcAmGrCompDefSet
  3
DesignerAssemblies
 90
        0
280
     0
281
     0
  0
CLASS
  1
AMDTBROWSERDBTAB
  2
AmdtBrowserDbTab
  3
McadcomServices
 90
        0
280
     0
281
     0
  0
CLASS
  1
CBROWSERAPPOBJECT
  2
CBrowserAppObject
  3
McadcomServices
 90
        0
280
     0
281
     0
  0
CLASS
  1
DM_PLACEHOLDER
  2
AcDmSelsetPlaceholder
  3
AcMechDwgViewMgmt
 90
        0
280
     0
281
     0
  0
ENDSEC
  0
SECTION
  2
TABLES
  0
TABLE
  2
VPORT
  5
8
330
0
100
AcDbSymbolTable
 70
     4
  0
VPORT
  5
8C7E
330
8
100
AcDbSymbolTableRecord
100
AcDbViewportTableRecord
  2
*Active
 70
     0
 10
0.0
 20
0.0
 11
1.0
 21
1.0
 12
44.99776401420257
 22
-11.58306754352298
 13
0.0
 23
0.0
 14
2.5
 24
2.5
 15
10.0
 25
10.0
 16
0.0
 26
0.0
 36
1.0
 17
0.0
 27
0.0
 37
0.0
 40
147.1287681362418
 41
2.166666666666666
 42
50.0
 43
0.0
 44
0.0
 50
0.0
 51
0.0
 71
     0
 72
   100
 73
     1
 74
     3
 75
     0
 76
     0
 77
     0
 78
     0
281
     0
 65
     0
110
-0.0000000000002682
120
0.000000000000161
130
0.0
111
1.0
121
0.000000000000002
131
0.0
112
-0.000000000000002
122
1.0
132
0.0
 79
     0
146
0.0
  0
ENDTAB
  0
TABLE
  2
LTYPE
  5
5
330
0
100
AcDbSymbolTable
 70
    13
  0
LTYPE
  5
14
330
5
100
AcDbSymbolTableRecord
100
AcDbLinetypeTableRecord
  2
BYBLOCK
 70
     0
  3

 72
    65
 73
     0
 40
0.0
  0
LTYPE
  5
15
330
5
100
AcDbSymbolTableRecord
100
AcDbLinetypeTableRecord
  2
BYLAYER
 70
     0
  3

 72
    65
 73
     0
 40
0.0
  0
LTYPE
  5
16
330
5
100
AcDbSymbolTableRecord
100
AcDbLinetypeTableRecord
  2
CONTINUOUS
 70
     0
  3
Solid line
 72
    65
 73
     0
 40
0.0
  0
LTYPE
  5
4B
330
5
100
AcDbSymbolTableRecord
100
AcDbLinetypeTableRecord
  2
AM_ISO02W050
 70
     0
  3
__ __ __ __ __ __ __ __ __ __ __ __ __ __ __
 72
    65
 73
     2
 40
7.5
 49
6.0
 74
     0
 49
-1.5
 74
     0
  0
LTYPE
  5
4C
330
5
100
AcDbSymbolTableRecord
100
AcDbLinetypeTableRecord
  2
AM_ISO08W050
 70
     0
  3
____ . ____ . ____ . ____ . ____ . ____ . ____
 72
    65
 73
     4
 40
18.0
 49
12.0
 74
     0
 49
-1.5
 74
     0
 49
3.0
 74
     0
 49
-1.5
 74
     0
  0
LTYPE
  5
4D
330
5
100
AcDbSymbolTableRecord
100
AcDbLinetypeTableRecord
  2
AM_ISO09W050
 70
     0
  3
_____ . . _____ . . _____ . . ____ .. ____
 72
    65
 73
     6
 40
22.5
 49
12.0
 74
     0
 49
-1.5
 74
     0
 49
3.0
 74
     0
 49
-1.5
 74
     0
 49
3.0
 74
     0
 49
-1.5
 74
     0
  0
LTYPE
  5
4E
330
5
100
AcDbSymbolTableRecord
100
AcDbLinetypeTableRecord
  2
AMCONSTR
 70
     0
  3
_______________________
 72
    65
 73
     2
 40
9999.0
 49
9999.0
 74
     0
 49
0.0
 74
     0
  0
LTYPE
  5
4F
330
5
100
AcDbSymbolTableRecord
100
AcDbLinetypeTableRecord
  2
AM_ISO02W050X2
 70
     0
  3
 _ _ _ _ _ _ _ _ _ _ _ _
 72
    65
 73
     2
 40
3.75
 49
3.0
 74
     0
 49
-0.75
 74
     0
  0
LTYPE
  5
50
330
5
100
AcDbSymbolTableRecord
100
AcDbLinetypeTableRecord
  2
AM_ISO08W050X2
 70
     0
  3
__ . __ . __ . __ . __ . __
 72
    65
 73
     4
 40
9.0
 49
6.0
 74
     0
 49
-0.75
 74
     0
 49
1.5
 74
     0
 49
-0.75
 74
     0
  0
LTYPE
  5
53
330
5
100
AcDbSymbolTableRecord
100
AcDbLinetypeTableRecord
  2
AMZIGZAG
 70
     0
  3
/\/-/\/-/\/-/\/-/\/-/\/
 72
    65
 73
     2
 40
11.00009999999999
 49
0.0001
 74
     4
 75
   135
340
52
 46
0.04
 50
0.0
 44
0.0
 45
0.0
 49
-11.0
 74
     0
  0
LTYPE
  5
8BBF
330
5
100
AcDbSymbolTableRecord
100
AcDbLinetypeTableRecord
  2
HIDDEN
 70
     0
  3
Hidden __ __ __ __ __ __ __ __ __ __ __ __ __ _
 72
    65
 73
     2
 40
9.524999999999998
 49
6.349999999999999
 74
     0
 49
-3.174999999999999
 74
     0
  0
LTYPE
  5
8BC0
330
5
100
AcDbSymbolTableRecord
100
AcDbLinetypeTableRecord
  2
PHANTOM2
 70
     0
  3
Phantom (.5x) ___ _ _ ___ _ _ ___ _ _ ___ _ _
 72
    65
 73
     6
 40
31.75
 49
15.875
 74
     0
 49
-3.174999999999999
 74
     0
 49
3.174999999999999
 74
     0
 49
-3.174999999999999
 74
     0
 49
3.174999999999999
 74
     0
 49
-3.174999999999999
 74
     0
  0
LTYPE
  5
8BC1
330
5
100
AcDbSymbolTableRecord
100
AcDbLinetypeTableRecord
  2
CENTER
 70
     0
  3
Center ____ _ ____ _ ____ _ ____ _ ____ _ ____
 72
    65
 73
     4
 40
50.8
 49
31.75
 74
     0
 49
-6.349999999999999
 74
     0
 49
6.349999999999999
 74
     0
 49
-6.349999999999999
 74
     0
  0
ENDTAB
  0
TABLE
  2
LAYER
  5
2
330
0
100
AcDbSymbolTable
 70
     7
  0
LAYER
  5
10
330
2
100
AcDbSymbolTableRecord
100
AcDbLayerTableRecord
  2
0
 70
     0
 62
     7
  6
CONTINUOUS
370
    -3
390
F
  0
LAYER
  5
3F9
330
2
100
AcDbSymbolTableRecord
100
AcDbLayerTableRecord
  2
AM_0
 70
     0
 62
     7
  6
CONTINUOUS
370
    -3
390
F
  0
LAYER
  5
BA4
330
2
100
AcDbSymbolTableRecord
100
AcDbLayerTableRecord
  2
AM_5
 70
     0
 62
     3
  6
CONTINUOUS
370
    -3
390
F
  0
LAYER
  5
BA6
330
2
100
AcDbSymbolTableRecord
100
AcDbLayerTableRecord
  2
AM_7
 70
     0
 62
     4
  6
AM_ISO08W050
370
    -3
390
F
  0
LAYER
  5
E64
330
2
100
AcDbSymbolTableRecord
100
AcDbLayerTableRecord
  2
AM_6
 70
     0
 62
     2
  6
CONTINUOUS
370
    -3
390
F
  0
LAYER
  5
F4D
330
2
100
AcDbSymbolTableRecord
100
AcDbLayerTableRecord
  2
DEFPOINTS
 70
     0
 62
     7
  6
CONTINUOUS
290
     0
370
    -3
390
F
  0
LAYER
  5
4E80
330
2
100
AcDbSymbolTableRecord
100
AcDbLayerTableRecord
  2
AM_11
 70
     0
 62
     3
  6
AM_ISO09W050
370
    -3
390
F
  0
ENDTAB
  0
TABLE
  2
STYLE
  5
3
330
0
100
AcDbSymbolTable
 70
     5
  0
STYLE
  5
11
330
3
100
AcDbSymbolTableRecord
100
AcDbTextStyleTableRecord
  2
STANDARD
 70
     0
 40
0.0
 41
1.0
 50
0.0
 71
     0
 42
2.5
  3
simplex.shx
  4
EXTFONT.SHX
  0
STYLE
  5
52
330
3
100
AcDbSymbolTableRecord
100
AcDbTextStyleTableRecord
  2

 70
     1
 40
0.0
 41
1.0
 50
0.0
 71
     0
 42
2.5
  3
ltypeshp.shx
  4

  0
STYLE
  5
6B
330
3
100
AcDbSymbolTableRecord
100
AcDbTextStyleTableRecord
  2
ASAMI
 70
     0
 40
0.0
 41
1.0
 50
0.0
 71
     0
 42
2.5
  3
simplex.shx
  4
EXTFONT.SHX
  0
ENDTAB
  0
TABLE
  2
VIEW
  5
6
330
0
100
AcDbSymbolTable
 70
     0
  0
ENDTAB
  0
TABLE
  2
UCS
  5
7
330
0
100
AcDbSymbolTable
 70
     0
  0
ENDTAB
  0
TABLE
  2
APPID
  5
9
330
0
100
AcDbSymbolTable
 70
    31
  0
APPID
  5
12
330
9
100
AcDbSymbolTableRecord
100
AcDbRegAppTableRecord
  2
ACAD
 70
     0
  0
APPID
  5
30
330
9
100
AcDbSymbolTableRecord
100
AcDbRegAppTableRecord
  2
MCAD_NO_VIS
 70
     0
  0
APPID
  5
31
330
9
100
AcDbSymbolTableRecord
100
AcDbRegAppTableRecord
  2
ACAD_TEMP_GRAPHIC
 70
     0
  0
APPID
  5
2C2
330
9
100
AcDbSymbolTableRecord
100
AcDbRegAppTableRecord
  2
GENIUS_GENDTOL_13
 70
     0
  0
APPID
  5
339
330
9
100
AcDbSymbolTableRecord
100
AcDbRegAppTableRecord
  2
GENIUS_GENODEF_13
 70
     0
  0
APPID
  5
33A
330
9
100
AcDbSymbolTableRecord
100
AcDbRegAppTableRecord
  2
GENIUS_GENOBJ-N-RSBK_13
 70
     0
  0
APPID
  5
33B
330
9
100
AcDbSymbolTableRecord
100
AcDbRegAppTableRecord
  2
GENIUS_GENOBJ-N-LIB_13
 70
     0
  0
APPID
  5
33C
330
9
100
AcDbSymbolTableRecord
100
AcDbRegAppTableRecord
  2
GENIUS_GENSCALE_13
 70
     0
  0
APPID
  5
378
330
9
100
AcDbSymbolTableRecord
100
AcDbRegAppTableRecord
  2
GENIUS_GENDIMSH_14
 70
     0
  0
APPID
  5
BB0
330
9
100
AcDbSymbolTableRecord
100
AcDbRegAppTableRecord
  2
GENIUS_GENOBJ-N-CEN_13
 70
     0
  0
APPID
  5
BB1
330
9
100
AcDbSymbolTableRecord
100
AcDbRegAppTableRecord
  2
GENIUS_GENFIL_13
 70
     0
  0
APPID
  5
BB2
330
9
100
AcDbSymbolTableRecord
100
AcDbRegAppTableRecord
  2
GENIUS_GENOBJ-N-CHA_13
 70
     0
  0
APPID
  5
1FAF
330
9
100
AcDbSymbolTableRecord
100
AcDbRegAppTableRecord
  2
GENIUS_GENOBJ-N-CRS_13
 70
     0
  0
APPID
  5
1FB0
330
9
100
AcDbSymbolTableRecord
100
AcDbRegAppTableRecord
  2
GENIUS_GENOENT_13
 70
     0
  0
APPID
  5
1FB1
330
9
100
AcDbSymbolTableRecord
100
AcDbRegAppTableRecord
  2
GENIUS_GENOREF_13
 70
     0
  0
APPID
  5
1FB2
330
9
100
AcDbSymbolTableRecord
100
AcDbRegAppTableRecord
  2
GENIUS_GENOLIS_13
 70
     0
  0
APPID
  5
1FB7
330
9
100
AcDbSymbolTableRecord
100
AcDbRegAppTableRecord
  2
GENIUS_GENOBJ-N-FIL_13
 70
     0
  0
APPID
  5
22A8
330
9
100
AcDbSymbolTableRecord
100
AcDbRegAppTableRecord
  2
GEVID1056506048
 70
     0
  0
APPID
  5
22A9
330
9
100
AcDbSymbolTableRecord
100
AcDbRegAppTableRecord
  2
GEVDC
 70
     0
  0
APPID
  5
22AC
330
9
100
AcDbSymbolTableRecord
100
AcDbRegAppTableRecord
  2
GENIUS_GENBH_13
 70
     0
  0
APPID
  5
22B8
330
9
100
AcDbSymbolTableRecord
100
AcDbRegAppTableRecord
  2
GENIUS_GENOBJ-NBEHI-BHF_13
 70
     0
  0
APPID
  5
22BA
330
9
100
AcDbSymbolTableRecord
100
AcDbRegAppTableRecord
  2
GENIUS_GENOBJ-NBEHI-BHB_13
 70
     0
  0
APPID
  5
35C9
330
9
100
AcDbSymbolTableRecord
100
AcDbRegAppTableRecord
  2
GENIUS_GENREC_14
 70
     0
  0
APPID
  5
35CA
330
9
100
AcDbSymbolTableRecord
100
AcDbRegAppTableRecord
  2
GENIUS_GENOBJ-N-REC_13
 70
     0
  0
APPID
  5
8BC3
330
9
100
AcDbSymbolTableRecord
100
AcDbRegAppTableRecord
  2
AD_DRAW
 70
     0
  0
APPID
  5
8BC6
330
9
100
AcDbSymbolTableRecord
100
AcDbRegAppTableRecord
  2
ACATTRIBSERVICES
 70
     0
  0
APPID
  5
8BE4
330
9
100
AcDbSymbolTableRecord
100
AcDbRegAppTableRecord
  2
DESIGNERASSEMBLIES
 70
     0
  0
APPID
  5
8BE9
330
9
100
AcDbSymbolTableRecord
100
AcDbRegAppTableRecord
  2
ACADM_DIM_EDIT
 70
     0
  0
APPID
  5
8BEA
330
9
100
AcDbSymbolTableRecord
100
AcDbRegAppTableRecord
  2
AMDT_DM_ADJ
 70
     0
  0
APPID
  5
8BEF
330
9
100
AcDbSymbolTableRecord
100
AcDbRegAppTableRecord
  2
GENIUS_GENSCREG_15
 70
     0
  0
APPID
  5
8BF0
330
9
100
AcDbSymbolTableRecord
100
AcDbRegAppTableRecord
  2
GENIUS_GENOBJ-N-SDF_13
 70
     0
  0
ENDTAB
  0
TABLE
  2
DIMSTYLE
  5
A
330
0
100
AcDbSymbolTable
 70
     9
100
AcDbDimStyleTable
 71
     0
  0
DIMSTYLE
105
58
330
A
100
AcDbSymbolTableRecord
100
AcDbDimStyleTableRecord
  2
AM_JIS
 70
     0
  4
"
 41
2.5
 42
1.0
 43
12.0
 44
1.0
 47
0.1
 48
0.1
 73
     0
 74
     0
 77
     3
 78
     8
140
3.2
141
0.0
143
0.0393701
146
0.71
147
1.5
172
     1
176
   256
177
   256
178
     2
271
     3
272
     3
283
     0
340
6B
341
59
342
59
  0
DIMSTYLE
105
60
102
{ACAD_REACTORS
330
85A8
102
}
330
A
100
AcDbSymbolTableRecord
100
AcDbDimStyleTableRecord
  2
AM_JIS$4
 70
     0
  4
"
 41
2.5
 42
1.0
 43
10.0
 44
1.0
 47
0.1
 48
0.1
 73
     0
 77
     3
 78
     8
140
3.2
141
0.0
143
0.0393701
146
0.71
147
1.5
176
   256
177
   256
178
     2
271
     2
272
     3
283
     0
288
     1
340
6B
341
59
342
59
  0
DIMSTYLE
105
62
330
A
100
AcDbSymbolTableRecord
100
AcDbDimStyleTableRecord
  2
AM_JIS$7
 70
     0
  4
"
 41
2.5
 42
1.0
 43
10.0
 44
1.0
 47
0.1
 48
0.1
 73
     0
 74
     0
 77
     3
 78
     8
140
3.2
141
0.0
143
0.0393701
146
0.71
147
1.5
172
     1
176
   256
177
   256
178
     2
271
     2
272
     3
283
     0
340
6B
341
59
342
59
  0
DIMSTYLE
105
B34
102
{ACAD_REACTORS
330
817F
330
8319
330
8495
330
8AC7
102
}
330
A
100
AcDbSymbolTableRecord
100
AcDbDimStyleTableRecord
  2
AM_JIS$2
 70
     0
  4
"
 41
2.5
 42
1.0
 43
12.0
 44
1.0
 47
0.1
 48
0.1
 73
     0
 74
     0
 77
     3
 78
     8
140
3.2
141
0.0
143
0.0393701
146
0.71
147
1.5
172
     1
176
   256
177
   256
178
     2
271
     3
272
     3
283
     0
340
6B
341
59
342
59
  0
DIMSTYLE
105
3B48
102
{ACAD_REACTORS
330
7DA6
330
7E32
330
7EDD
330
80D2
330
8277
330
8853
330
88FC
330
8AC3
330
8AC4
330
8AC5
330
8AC6
102
}
330
A
100
AcDbSymbolTableRecord
100
AcDbDimStyleTableRecord
  2
AM_JIS$0
 70
     0
  4
"
 41
2.5
 42
0.0
 43
10.0
 44
1.0
 47
0.1
 48
0.1000000001
 73
     0
 74
     0
 77
     3
 78
     1
140
3.799999999999998
141
0.0
143
0.0393701
146
0.71
147
1.5
172
     1
176
     3
177
     3
178
     2
271
     2
272
     2
275
     1
283
     0
284
     8
340
11
341
59
342
59
  0
ENDTAB
  0
TABLE
  2
BLOCK_RECORD
  5
1
330
0
100
AcDbSymbolTable
 70
    21
  0
BLOCK_RECORD
  5
1F
102
{ACAD_XDICTIONARY
360
74
102
}
330
1
100
AcDbSymbolTableRecord
100
AcDbBlockTableRecord
  2
*MODEL_SPACE
340
8B8A
  0
BLOCK_RECORD
  5
101
102
{ACAD_XDICTIONARY
360
8B2F
102
}
330
1
100
AcDbSymbolTableRecord
100
AcDbBlockTableRecord
  2
*PAPER_SPACE
340
8B8B
  0
BLOCK_RECORD
  5
59
330
1
100
AcDbSymbolTableRecord
100
AcDbBlockTableRecord
  2
_OPEN30
340
0
102
{BLKREFS
331
8A84
331
8A85
331
8A90
331
8A91
331
8A9E
331
8A9F
331
8AAE
331
8AAF
331
8ABA
331
8ABB
331
8BF5
331
8BF6
331
8BFE
331
8BFF
331
8C07
331
8C08
331
8C10
331
8C11
331
8C26
331
8C27
331
8C33
331
8C4B
331
8C51
331
8C52
331
8C5A
331
8C5B
331
8C65
331
8C66
331
8C73
331
8C74
102
}
  0
BLOCK_RECORD
  5
7DA7
330
1
100
AcDbSymbolTableRecord
100
AcDbBlockTableRecord
  2
*D2
340
0
  0
BLOCK_RECORD
  5
7E33
330
1
100
AcDbSymbolTableRecord
100
AcDbBlockTableRecord
  2
*D3
340
0
  0
BLOCK_RECORD
  5
7EDE
330
1
100
AcDbSymbolTableRecord
100
AcDbBlockTableRecord
  2
*D4
340
0
  0
BLOCK_RECORD
  5
80D3
330
1
100
AcDbSymbolTableRecord
100
AcDbBlockTableRecord
  2
*D5
340
0
  0
BLOCK_RECORD
  5
8180
330
1
100
AcDbSymbolTableRecord
100
AcDbBlockTableRecord
  2
*D6
340
0
  0
BLOCK_RECORD
  5
8278
330
1
100
AcDbSymbolTableRecord
100
AcDbBlockTableRecord
  2
*D7
340
0
  0
BLOCK_RECORD
  5
831A
330
1
100
AcDbSymbolTableRecord
100
AcDbBlockTableRecord
  2
*D8
340
0
  0
BLOCK_RECORD
  5
8496
330
1
100
AcDbSymbolTableRecord
100
AcDbBlockTableRecord
  2
*D9
340
0
  0
BLOCK_RECORD
  5
85A9
330
1
100
AcDbSymbolTableRecord
100
AcDbBlockTableRecord
  2
*D10
340
0
  0
BLOCK_RECORD
  5
8854
330
1
100
AcDbSymbolTableRecord
100
AcDbBlockTableRecord
  2
*D11
340
0
  0
BLOCK_RECORD
  5
88FD
330
1
100
AcDbSymbolTableRecord
100
AcDbBlockTableRecord
  2
*D12
340
0
  0
BLOCK_RECORD
  5
8A1A
330
1
100
AcDbSymbolTableRecord
100
AcDbBlockTableRecord
  2
_NONE
340
0
  0
ENDTAB
  0
ENDSEC
  0
SECTION
  2
BLOCKS
  0
BLOCK
  5
20
330
1F
100
AcDbEntity
  8
0
100
AcDbBlockBegin
  2
*MODEL_SPACE
 70
     0
 10
0.0
 20
0.0
 30
0.0
  3
*MODEL_SPACE
  1

  0
ENDBLK
  5
21
330
1F
100
AcDbEntity
  8
0
100
AcDbBlockEnd
  0
BLOCK
  5
103
330
101
100
AcDbEntity
 67
     1
  8
0
100
AcDbBlockBegin
  2
*PAPER_SPACE
 70
     0
 10
0.0
 20
0.0
 30
0.0
  3
*PAPER_SPACE
  1

  0
ENDBLK
  5
104
330
101
100
AcDbEntity
 67
     1
  8
0
100
AcDbBlockEnd
  0
BLOCK
  5
5D
330
59
100
AcDbEntity
  8
0
100
AcDbBlockBegin
  2
_OPEN30
 70
     0
 10
0.0
 20
0.0
 30
0.0
  3
_OPEN30
  1

  0
LINE
  5
5A
330
59
100
AcDbEntity
  8
0
 62
     0
100
AcDbLine
 10
-1.0
 20
0.26794919
 30
0.0
 11
0.0
 21
0.0
 31
0.0
  0
LINE
  5
5B
330
59
100
AcDbEntity
  8
0
 62
     0
100
AcDbLine
 10
0.0
 20
0.0
 30
0.0
 11
-1.0
 21
-0.26794919
 31
0.0
  0
LINE
  5
5C
330
59
100
AcDbEntity
  8
0
 62
     0
100
AcDbLine
 10
0.0
 20
0.0
 30
0.0
 11
-1.0
 21
0.0
 31
0.0
  0
ENDBLK
  5
5E
330
59
100
AcDbEntity
  8
0
100
AcDbBlockEnd
  0
BLOCK
  5
7DB1
330
7DA7
100
AcDbEntity
  8
0
100
AcDbBlockBegin
  2
*D2
 70
     1
 10
0.0
 20
0.0
 30
0.0
  3
*D2
  1

  0
LINE
  5
8BF2
330
7DA7
100
AcDbEntity
  8
AM_5
100
AcDbLine
 10
150.9995248859015
 20
-56.41029639203271
 30
0.0
 11
164.9995912279386
 21
-56.41029639203266
 31
0.0
  0
LINE
  5
8BF3
330
7DA7
100
AcDbEntity
  8
AM_5
100
AcDbLine
 10
150.9994134293556
 20
-31.41029639108904
 30
0.0
 11
164.9995912279385
 21
-31.410296391089
 31
0.0
  0
LINE
  5
8BF4
330
7DA7
100
AcDbEntity
  8
AM_5
100
AcDbLine
 10
163.9995912279386
 20
-53.91029639203266
 30
0.0
 11
163.9995912279385
 21
-33.910296391089
 31
0.0
  0
INSERT
  5
8BF5
330
7DA7
100
AcDbEntity
  8
AM_5
100
AcDbBlockReference
  2
_OPEN30
 10
163.9995912279386
 20
-56.41029639203266
 30
0.0
 41
2.5
 42
2.5
 43
2.5
 50
270.0000000000002
  0
INSERT
  5
8BF6
330
7DA7
100
AcDbEntity
  8
AM_5
100
AcDbBlockReference
  2
_OPEN30
 10
163.9995912279385
 20
-31.410296391089
 30
0.0
 41
2.5
 42
2.5
 43
2.5
 50
90.00000000000015
  0
MTEXT
  5
8BF7
330
7DA7
100
AcDbEntity
  8
AM_5
 62
     2
100
AcDbMText
 10
160.8995912279385
 20
-43.91029639156084
 30
0.0
 40
3.2
 41
0.0
 71
     5
 72
     1
  1
25
  7
ASAMI
 11
-0.0000000000000028
 21
1.0
 31
0.0
 73
     1
 44
1.0
1001
ACAD
1000
MTEXTBEGIN
1070
    73
1070
     1
1070
    44
1040
1.0
1070
    74
1070
     0
1000
MTEXTEND
  0
POINT
  5
8BF8
330
7DA7
100
AcDbEntity
  8
DEFPOINTS
 62
     0
100
AcDbPoint
 10
149.9995248859013
 20
-56.41029639203317
 30
0.0
  0
POINT
  5
8BF9
330
7DA7
100
AcDbEntity
  8
DEFPOINTS
 62
     0
100
AcDbPoint
 10
149.9994134293555
 20
-31.4102963910895
 30
0.0
  0
POINT
  5
8BFA
330
7DA7
100
AcDbEntity
  8
DEFPOINTS
 62
     0
100
AcDbPoint
 10
163.9995912279384
 20
-31.41029639108951
 30
0.0
  0
ENDBLK
  5
7DB2
330
7DA7
100
AcDbEntity
  8
0
100
AcDbBlockEnd
  0
BLOCK
  5
7E3D
330
7E33
100
AcDbEntity
  8
0
100
AcDbBlockBegin
  2
*D3
 70
     1
 10
0.0
 20
0.0
 30
0.0
  3
*D3
  1

  0
LINE
  5
8BFB
330
7E33
100
AcDbEntity
  8
AM_5
100
AcDbLine
 10
150.9997246763881
 20
-3.000796103025089
 30
0.0
 11
164.9995912279385
 21
-3.000796103025049
 31
0.0
  0
LINE
  5
8BFC
330
7E33
100
AcDbEntity
  8
AM_5
100
AcDbLine
 10
150.9998573604622
 20
21.99920389662281
 30
0.0
 11
164.9995912279385
 21
21.99920389662285
 31
0.0
  0
LINE
  5
8BFD
330
7E33
100
AcDbEntity
  8
AM_5
100
AcDbLine
 10
163.9995912279385
 20
-0.5007961030250523
 30
0.0
 11
163.9995912279385
 21
19.49920389662285
 31
0.0
  0
INSERT
  5
8BFE
330
7E33
100
AcDbEntity
  8
AM_5
100
AcDbBlockReference
  2
_OPEN30
 10
163.9995912279385
 20
-3.000796103025052
 30
0.0
 41
2.5
 42
2.5
 43
2.5
 50
270.0000000000002
  0
INSERT
  5
8BFF
330
7E33
100
AcDbEntity
  8
AM_5
100
AcDbBlockReference
  2
_OPEN30
 10
163.9995912279385
 20
21.99920389662285
 30
0.0
 41
2.5
 42
2.5
 43
2.5
 50
90.00000000000015
  0
MTEXT
  5
8C00
330
7E33
100
AcDbEntity
  8
AM_5
 62
     2
100
AcDbMText
 10
160.8995912279385
 20
9.499203896798883
 30
0.0
 40
3.2
 41
0.0
 71
     5
 72
     1
  1
25
  7
ASAMI
 11
-0.0000000000000028
 21
1.0
 31
0.0
 73
     1
 44
1.0
1001
ACAD
1000
MTEXTBEGIN
1070
    73
1070
     1
1070
    44
1040
1.0
1070
    74
1070
     0
1000
MTEXTEND
  0
POINT
  5
8C01
330
7E33
100
AcDbEntity
  8
DEFPOINTS
 62
     0
100
AcDbPoint
 10
149.9997246763881
 20
-3.000796103025558
 30
0.0
  0
POINT
  5
8C02
330
7E33
100
AcDbEntity
  8
DEFPOINTS
 62
     0
100
AcDbPoint
 10
149.9998573604623
 20
21.99920389662235
 30
0.0
  0
POINT
  5
8C03
330
7E33
100
AcDbEntity
  8
DEFPOINTS
 62
     0
100
AcDbPoint
 10
163.9995912279385
 20
21.99920389662234
 30
0.0
  0
ENDBLK
  5
7E3E
330
7E33
100
AcDbEntity
  8
0
100
AcDbBlockEnd
  0
BLOCK
  5
7EE8
330
7EDE
100
AcDbEntity
  8
0
100
AcDbBlockBegin
  2
*D4
 70
     1
 10
0.0
 20
0.0
 30
0.0
  3
*D4
  1

  0
LINE
  5
8C04
330
7EDE
100
AcDbEntity
  8
AM_5
100
AcDbLine
 10
-0.0000000000566108
 20
0.9999787705483051
 30
0.0
 11
-0.0000000000565344
 21
48.98728816417104
 31
0.0
  0
LINE
  5
8C05
330
7EDE
100
AcDbEntity
  8
AM_5
100
AcDbLine
 10
149.9998573604622
 20
22.99920389662278
 30
0.0
 11
149.9998573604623
 21
48.98728816417081
 31
0.0
  0
LINE
  5
8C06
330
7EDE
100
AcDbEntity
  8
AM_5
100
AcDbLine
 10
2.499999999943463
 20
47.98728816417103
 30
0.0
 11
147.4998573604622
 21
47.98728816417081
 31
0.0
  0
INSERT
  5
8C07
330
7EDE
100
AcDbEntity
  8
AM_5
100
AcDbBlockReference
  2
_OPEN30
 10
-0.000000000056536
 20
47.98728816417104
 30
0.0
 41
2.5
 42
2.5
 43
2.5
 50
179.9999999999998
  0
INSERT
  5
8C08
330
7EDE
100
AcDbEntity
  8
AM_5
100
AcDbBlockReference
  2
_OPEN30
 10
149.9998573604623
 20
47.98728816417081
 30
0.0
 41
2.5
 42
2.5
 43
2.5
 50
359.9999999999999
  0
MTEXT
  5
8C09
330
7EDE
100
AcDbEntity
  8
AM_5
 62
     2
100
AcDbMText
 10
74.99992868020287
 20
51.08728816417093
 30
0.0
 40
3.2
 41
0.0
 71
     5
 72
     1
  1
150
  7
ASAMI
 73
     1
 44
1.0
1001
ACAD
1000
MTEXTBEGIN
1070
    73
1070
     1
1070
    44
1040
1.0
1070
    74
1070
     0
1000
MTEXTEND
  0
POINT
  5
8C0A
330
7EDE
100
AcDbEntity
  8
DEFPOINTS
 62
     0
100
AcDbPoint
 10
-0.0000000000566124
 20
-0.0000212294516948
 30
0.0
  0
POINT
  5
8C0B
330
7EDE
100
AcDbEntity
  8
DEFPOINTS
 62
     0
100
AcDbPoint
 10
149.9998573604623
 20
21.99920389662235
 30
0.0
  0
POINT
  5
8C0C
330
7EDE
100
AcDbEntity
  8
DEFPOINTS
 62
     0
100
AcDbPoint
 10
149.9998573604624
 20
47.98728816417037
 30
0.0
  0
ENDBLK
  5
7EE9
330
7EDE
100
AcDbEntity
  8
0
100
AcDbBlockEnd
  0
BLOCK
  5
80DD
330
80D3
100
AcDbEntity
  8
0
100
AcDbBlockBegin
  2
*D5
 70
     1
 10
0.0
 20
0.0
 30
0.0
  3
*D5
  1

  0
LINE
  5
8C0D
330
80D3
100
AcDbEntity
  8
AM_5
100
AcDbLine
 10
-0.000000000056617
 20
0.9999787705482972
 30
0.0
 11
-0.0000000000567913
 21
38.67502390906349
 31
0.0
  0
LINE
  5
8C0E
330
80D3
100
AcDbEntity
  8
AM_5
100
AcDbLine
 10
19.99990512952171
 20
8.999893853357102
 30
0.0
 11
19.99990512952158
 21
38.67502390906358
 31
0.0
  0
LINE
  5
8C0F
330
80D3
100
AcDbEntity
  8
AM_5
100
AcDbLine
 10
2.499999999943212
 20
37.6750239090635
 30
0.0
 11
17.49990512952158
 21
37.67502390906357
 31
0.0
  0
INSERT
  5
8C10
330
80D3
100
AcDbEntity
  8
AM_5
100
AcDbBlockReference
  2
_OPEN30
 10
-0.0000000000567866
 20
37.67502390906348
 30
0.0
 41
2.5
 42
2.5
 43
2.5
 50
180.0000000000002
  0
INSERT
  5
8C11
330
80D3
100
AcDbEntity
  8
AM_5
100
AcDbBlockReference
  2
_OPEN30
 10
19.99990512952158
 20
37.67502390906358
 30
0.0
 41
2.5
 42
2.5
 43
2.5
 50
0.0000000000002544
  0
MTEXT
  5
8C12
330
80D3
100
AcDbEntity
  8
AM_5
 62
     2
100
AcDbMText
 10
9.999952564732383
 20
40.77502390906352
 30
0.0
 40
3.2
 41
0.0
 71
     5
 72
     1
  1
20
  7
ASAMI
 73
     1
 44
1.0
1001
ACAD
1000
MTEXTBEGIN
1070
    73
1070
     1
1070
    44
1040
1.0
1070
    74
1070
     0
1000
MTEXTEND
  0
POINT
  5
8C13
330
80D3
100
AcDbEntity
  8
DEFPOINTS
 62
     0
100
AcDbPoint
 10
-0.0000000000566124
 20
-0.0000212294517027
 30
0.0
  0
POINT
  5
8C14
330
80D3
100
AcDbEntity
  8
DEFPOINTS
 62
     0
100
AcDbPoint
 10
19.99990512952174
 20
7.999893853357043
 30
0.0
  0
POINT
  5
8C15
330
80D3
100
AcDbEntity
  8
DEFPOINTS
 62
     0
100
AcDbPoint
 10
19.99990512952169
 20
37.67502390906352
 30
0.0
  0
ENDBLK
  5
80DE
330
80D3
100
AcDbEntity
  8
0
100
AcDbBlockEnd
  0
BLOCK
  5
818F
330
8180
100
AcDbEntity
  8
0
100
AcDbBlockBegin
  2
*D6
 70
     1
 10
0.0
 20
0.0
 30
0.0
  3
*D6
  1

  0
LINE
  5
8C6E
330
8180
100
AcDbEntity
  8
AM_5
370
    -2
100
AcDbLine
 10
25.52729193498377
 20
19.85325490677724
 30
0.0
 11
32.96391739354712
 21
35.8009368190148
 31
0.0
  0
LINE
  5
8C6F
330
8180
100
AcDbEntity
  8
AM_5
370
    -2
100
AcDbLine
 10
19.99991043688474
 20
8.999893853343127
 30
0.0
 11
20.00006793357132
 21
38.67502390904947
 31
0.0
  0
ARC
  5
8C70
330
8180
100
AcDbEntity
  8
AM_5
370
    -2
100
AcDbCircle
 10
19.99990512952177
 20
7.999893853357209
 30
0.0
 40
29.67513005612428
100
AcDbArc
 50
60.17135954385177
 51
64.99970709998684
  0
LINE
  5
8C71
330
8180
100
AcDbEntity
  8
AM_5
370
    -2
100
AcDbLine
 10
34.76054239984905
 20
33.74357135331272
 30
0.0
 11
45.98208034354626
 21
27.30948472359886
 31
0.0
  0
ARC
  5
8C72
330
8180
100
AcDbEntity
  8
AM_5
370
    -2
100
AcDbCircle
 10
19.99990512952177
 20
7.999893853357209
 30
0.0
 40
29.67513005612428
100
AcDbArc
 50
69.82805465612184
 51
85.17134835436603
  0
INSERT
  5
8C73
330
8180
100
AcDbEntity
  8
AM_5
370
    -2
100
AcDbBlockReference
  2
_OPEN30
 10
32.54129449870345
 20
34.89463119244396
 30
0.0
 41
2.5
 42
2.5
 43
2.5
 50
337.4138808780543
  0
INSERT
  5
8C74
330
8180
100
AcDbEntity
  8
AM_5
370
    -2
100
AcDbBlockReference
  2
_OPEN30
 10
20.00006262620835
 20
37.67502390906354
 30
0.0
 41
2.5
 42
2.5
 43
2.5
 50
177.5855221324335
  0
MTEXT
  5
8C75
330
8180
100
AcDbEntity
  8
AM_5
 62
     2
100
AcDbMText
 10
41.91327514578974
 20
33.21583049808871
 30
0.0
 40
3.2
 41
0.0
 71
     5
 72
     1
  1
25°
  7
ASAMI
 11
0.8675169224622351
 21
-0.4974076690619605
 31
0.0
 73
     1
 44
1.0
1001
ACAD
1000
MTEXTBEGIN
1070
    73
1070
     1
1070
    44
1040
1.0
1070
    74
1070
     0
1000
MTEXTEND
  0
POINT
  5
8C76
330
8180
100
AcDbEntity
  8
DEFPOINTS
 62
     0
100
AcDbPoint
 10
24.300930826072
 20
37.36168061447755
 30
0.0
  0
POINT
  5
8C77
330
8180
100
AcDbEntity
  8
DEFPOINTS
 62
     0
100
AcDbPoint
 10
19.99990512952174
 20
7.999893853357042
 30
0.0
  0
POINT
  5
8C78
330
8180
100
AcDbEntity
  8
DEFPOINTS
 62
     0
100
AcDbPoint
 10
19.99988655375136
 20
4.499893853406353
 30
0.0
  0
POINT
  5
8C79
330
8180
100
AcDbEntity
  8
DEFPOINTS
 62
     0
100
AcDbPoint
 10
19.99989451422894
 20
5.999787041865209
 30
0.0
  0
POINT
  5
8C7A
330
8180
100
AcDbEntity
  8
DEFPOINTS
 62
     0
100
AcDbPoint
 10
25.10466904014016
 20
18.94694928020633
 30
0.0
  0
ENDBLK
  5
8190
330
8180
100
AcDbEntity
  8
0
100
AcDbBlockEnd
  0
BLOCK
  5
8282
330
8278
100
AcDbEntity
  8
0
100
AcDbBlockBegin
  2
*D7
 70
     1
 10
0.0
 20
0.0
 30
0.0
  3
*D7
  1

  0
LINE
  5
8C23
330
8278
100
AcDbEntity
  8
AM_5
100
AcDbLine
 10
-1.001044312563055
 20
-31.40580002787538
 30
0.0
 11
-15.00104431256301
 21
-31.40580002787542
 31
0.0
  0
LINE
  5
8C24
330
8278
100
AcDbEntity
  8
AM_5
100
AcDbLine
 10
0.1997202004569099
 20
-56.40951428685465
 30
0.0
 11
-15.00104431256294
 21
-56.40951428685468
 31
0.0
  0
LINE
  5
8C25
330
8278
100
AcDbEntity
  8
AM_5
100
AcDbLine
 10
-14.001044312563
 20
-33.90580002787542
 30
0.0
 11
-14.00104431256294
 21
-53.90951428685468
 31
0.0
  0
INSERT
  5
8C26
330
8278
100
AcDbEntity
  8
AM_5
100
AcDbBlockReference
  2
_OPEN30
 10
-14.00104431256301
 20
-31.40580002787542
 30
0.0
 41
2.5
 42
2.5
 43
2.5
 50
90.00000000000017
  0
INSERT
  5
8C27
330
8278
100
AcDbEntity
  8
AM_5
100
AcDbBlockReference
  2
_OPEN30
 10
-14.00104431256294
 20
-56.40951428685468
 30
0.0
 41
2.5
 42
2.5
 43
2.5
 50
270.0000000000002
  0
MTEXT
  5
8C28
330
8278
100
AcDbEntity
  8
AM_5
 62
     2
100
AcDbMText
 10
-17.10104431256297
 20
-43.90765715736505
 30
0.0
 40
3.2
 41
0.0
 71
     5
 72
     1
  1
25
  7
ASAMI
 11
-0.0000000000000028
 21
1.0
 31
0.0
 73
     1
 44
1.0
1001
ACAD
1000
MTEXTBEGIN
1070
    73
1070
     1
1070
    44
1040
1.0
1070
    74
1070
     0
1000
MTEXTEND
  0
POINT
  5
8C29
330
8278
100
AcDbEntity
  8
DEFPOINTS
 62
     0
100
AcDbPoint
 10
-0.0010443125631527
 20
-31.40580002787538
 30
0.0
  0
POINT
  5
8C2A
330
8278
100
AcDbEntity
  8
DEFPOINTS
 62
     0
100
AcDbPoint
 10
1.199720200456734
 20
-56.40951428685465
 30
0.0
  0
POINT
  5
8C2B
330
8278
100
AcDbEntity
  8
DEFPOINTS
 62
     0
100
AcDbPoint
 10
-14.00104431256311
 20
-56.40951428685465
 30
0.0
  0
ENDBLK
  5
8283
330
8278
100
AcDbEntity
  8
0
100
AcDbBlockEnd
  0
BLOCK
  5
8329
330
831A
100
AcDbEntity
  8
0
100
AcDbBlockBegin
  2
*D8
 70
     1
 10
0.0
 20
0.0
 30
0.0
  3
*D8
  1

  0
LINE
  5
8C2C
330
831A
100
AcDbEntity
  8
AM_5
370
    -2
100
AcDbLine
 10
-0.9935911433032034
 20
-31.28393621541378
 30
0.0
 11
-14.91348812800482
 21
-29.57486651402413
 31
0.0
  0
LINE
  5
8C2D
330
831A
100
AcDbEntity
  8
AM_5
370
    -2
100
AcDbLine
 10
-1.001044312563048
 20
-31.40580002787539
 30
0.0
 11
-15.02546769853202
 21
-31.40580002787574
 31
0.0
  0
ARC
  5
8C2E
330
831A
100
AcDbEntity
  8
AM_5
370
    -2
100
AcDbCircle
 10
-0.0010443125630482
 20
-31.40580002787537
 30
0.0
 40
14.02442338596897
100
AcDbArc
 50
152.4634148632021
 51
173.000319279475
  0
LINE
  5
8C2F
330
831A
100
AcDbEntity
  8
AM_5
370
    -2
100
AcDbLine
 10
-12.43672227640886
 20
-24.92210008968939
 30
0.0
 11
-7.865528634893964
 21
-16.15459194183958
 31
0.0
  0
ARC
  5
8C30
330
831A
100
AcDbEntity
  8
AM_5
370
    -2
100
AcDbCircle
 10
-0.0010443125630482
 20
-31.40580002787537
 30
0.0
 40
14.02442338596897
100
AcDbArc
 50
152.5460332415314
 51
162.7731762605032
  0
ARC
  5
8C31
330
831A
100
AcDbEntity
  8
AM_5
370
    -2
100
AcDbCircle
 10
-0.0010443125630482
 20
-31.40580002787537
 30
0.0
 40
14.02442338596897
100
AcDbArc
 50
180.0000000000013
 51
190.2271430189731
  0
ARC
  5
8C32
330
831A
100
AcDbEntity
  8
AM_5
370
    -2
100
AcDbCircle
 10
-0.0010443125630482
 20
-31.40580002787537
 30
0.0
 40
14.02442338596897
100
AcDbArc
 50
173.000319279475
 51
180.0000000000013
  0
INSERT
  5
8C33
330
831A
100
AcDbEntity
  8
AM_5
370
    -2
100
AcDbBlockReference
  2
_OPEN30
 10
-13.92094129726466
 20
-29.69673032648572
 30
0.0
 41
2.5
 42
2.5
 43
2.5
 50
257.8867477699891
  0
MTEXT
  5
8C34
330
831A
100
AcDbEntity
  8
AM_5
 62
     2
100
AcDbMText
 10
-12.89994447137584
 20
-19.10516981627196
 30
0.0
 40
3.2
 41
0.0
 71
     5
 72
     1
  1
7°
  7
ASAMI
 11
0.4623149030621028
 21
0.8867158115240073
 31
0.0
 73
     1
 44
1.0
1001
ACAD
1000
MTEXTBEGIN
1070
    73
1070
     1
1070
    44
1040
1.0
1070
    74
1070
     0
1000
MTEXTEND
  0
POINT
  5
8C35
330
831A
100
AcDbEntity
  8
DEFPOINTS
 62
     0
100
AcDbPoint
 10
-14.01384080519134
 20
-30.83484839673613
 30
0.0
  0
POINT
  5
8C36
330
831A
100
AcDbEntity
  8
DEFPOINTS
 62
     0
100
AcDbPoint
 10
-0.0010443125631527
 20
-31.40580002787538
 30
0.0
  0
POINT
  5
8C37
330
831A
100
AcDbEntity
  8
DEFPOINTS
 62
     0
100
AcDbPoint
 10
-0.0010443125631527
 20
-31.40580002787538
 30
0.0
  0
POINT
  5
8C38
330
831A
100
AcDbEntity
  8
DEFPOINTS
 62
     0
100
AcDbPoint
 10
6.847126273874749
 20
-32.24661090974412
 30
0.0
  0
POINT
  5
8C39
330
831A
100
AcDbEntity
  8
DEFPOINTS
 62
     0
100
AcDbPoint
 10
0.1438038539604634
 20
-31.40580002787537
 30
0.0
  0
ENDBLK
  5
832A
330
831A
100
AcDbEntity
  8
0
100
AcDbBlockEnd
  0
BLOCK
  5
84A6
330
8496
100
AcDbEntity
  8
0
100
AcDbBlockBegin
  2
*D9
 70
     1
 10
0.0
 20
0.0
 30
0.0
  3
*D9
  1

  0
LINE
  5
8C60
330
8496
100
AcDbEntity
  8
AM_5
370
    -2
100
AcDbLine
 10
-0.0010443125630655
 20
-32.42806759165901
 30
0.0
 11
-0.0010443125631809
 21
-65.31670067276785
 31
0.0
  0
LINE
  5
8C61
330
8496
100
AcDbEntity
  8
AM_5
370
    -2
100
AcDbLine
 10
1.100826118203706
 20
-39.8682903348447
 30
0.0
 11
4.377412565949012
 21
-65.03284714638964
 31
0.0
  0
ARC
  5
8C62
330
8496
100
AcDbEntity
  8
AM_5
370
    -2
100
AcDbCircle
 10
-0.0010443125630615
 20
-31.40580002787538
 30
0.0
 40
32.91090064489247
100
AcDbArc
 50
261.2932245877189
 51
265.6466122938593
  0
ARC
  5
8C63
330
8496
100
AcDbEntity
  8
AM_5
370
    -2
100
AcDbCircle
 10
-0.0010443125630615
 20
-31.40580002787538
 30
0.0
 40
32.91090064489247
100
AcDbArc
 50
281.7719290599064
 51
286.1253167660469
  0
ARC
  5
8C64
330
8496
100
AcDbEntity
  8
AM_5
370
    -2
100
AcDbCircle
 10
-0.0010443125630615
 20
-31.40580002787538
 30
0.0
 40
32.91090064489247
100
AcDbArc
 50
269.9999999999998
 51
277.418541353766
  0
INSERT
  5
8C65
330
8496
100
AcDbEntity
  8
AM_5
370
    -2
100
AcDbBlockReference
  2
_OPEN30
 10
-0.0010443125631765
 20
-64.31670067276785
 30
0.0
 41
2.5
 42
2.5
 43
2.5
 50
357.8233061469295
  0
INSERT
  5
8C66
330
8496
100
AcDbEntity
  8
AM_5
370
    -2
100
AcDbBlockReference
  2
_OPEN30
 10
4.248296063725664
 20
-64.04121771517373
 30
0.0
 41
2.5
 42
2.5
 43
2.5
 50
189.5952352068362
  0
MTEXT
  5
8C67
330
8496
100
AcDbEntity
  8
AM_5
 62
     2
100
AcDbMText
 10
-2.28738208522633
 20
-61.12889638153515
 30
0.0
 40
3.2
 41
0.0
 71
     5
 72
     1
  1
7°
  7
ASAMI
 11
0.9970546246730815
 21
-0.0766946896337731
 31
0.0
 73
     1
 44
1.0
1001
ACAD
1000
MTEXTBEGIN
1070
    73
1070
     1
1070
    44
1040
1.0
1070
    74
1070
     0
1000
MTEXTEND
  0
POINT
  5
8C68
330
8496
100
AcDbEntity
  8
DEFPOINTS
 62
     0
100
AcDbPoint
 10
2.836253669153372
 20
-64.19416871893609
 30
0.0
  0
POINT
  5
8C69
330
8496
100
AcDbEntity
  8
DEFPOINTS
 62
     0
100
AcDbPoint
 10
0.9717096159802443
 20
-38.87666090362877
 30
0.0
  0
POINT
  5
8C6A
330
8496
100
AcDbEntity
  8
DEFPOINTS
 62
     0
100
AcDbPoint
 10
-0.001044312563153
 20
-31.40580002787538
 30
0.0
  0
POINT
  5
8C6B
330
8496
100
AcDbEntity
  8
DEFPOINTS
 62
     0
100
AcDbPoint
 10
-0.001044312563153
 20
-31.42806759165902
 30
0.0
  0
POINT
  5
8C6C
330
8496
100
AcDbEntity
  8
DEFPOINTS
 62
     0
100
AcDbPoint
 10
-0.001044312563153
 20
-31.40580002787538
 30
0.0
  0
ENDBLK
  5
84A7
330
8496
100
AcDbEntity
  8
0
100
AcDbBlockEnd
  0
BLOCK
  5
85AF
330
85A9
100
AcDbEntity
  8
0
100
AcDbBlockBegin
  2
*D10
 70
     1
 10
0.0
 20
0.0
 30
0.0
  3
*D10
  1

  0
LINE
  5
8C49
330
85A9
100
AcDbEntity
  8
AM_5
370
    -2
100
AcDbLine
 10
-86.97238845314975
 20
25.80216760550387
 30
0.0
 11
-92.56273177944761
 21
3.275672048791751
 31
0.0
  0
MTEXT
  5
8C4A
330
85A9
100
AcDbEntity
  8
AM_5
 62
     2
100
AcDbMText
 10
-91.68206263162465
 20
19.694838565832
 30
0.0
 40
3.2
 41
0.0
 71
     5
 72
     1
  1
%%c325
  7
ASAMI
 11
0.2408613034203581
 21
0.9705595460942342
 31
0.0
 73
     1
 44
1.0
1001
ACAD
1000
MTEXTBEGIN
1070
    73
1070
     1
1070
    44
1040
1.0
1070
    74
1070
     0
1000
MTEXTEND
  0
INSERT
  5
8C4B
330
85A9
100
AcDbEntity
  8
AM_5
370
    -2
100
AcDbBlockReference
  2
_OPEN30
 10
-93.16488503799851
 20
0.8492731835561642
 30
0.0
 41
2.5
 42
2.5
 43
2.5
 50
256.0626192488182
  0
POINT
  5
8C4C
330
85A9
100
AcDbEntity
  8
DEFPOINTS
 62
     0
100
AcDbPoint
 10
-93.16488503799851
 20
0.8492731835564484
 30
0.0
  0
POINT
  5
8C4D
330
85A9
100
AcDbEntity
  8
DEFPOINTS
 62
     0
100
AcDbPoint
 10
-53.49502909971582
 20
160.700427463362
 30
0.0
  0
ENDBLK
  5
85B0
330
85A9
100
AcDbEntity
  8
0
100
AcDbBlockEnd
  0
BLOCK
  5
8860
330
8854
100
AcDbEntity
  8
0
100
AcDbBlockBegin
  2
*D11
 70
     1
 10
0.0
 20
0.0
 30
0.0
  3
*D11
  1

  0
LINE
  5
8C4E
330
8854
100
AcDbEntity
  8
AM_5
 62
     3
370
    -2
100
AcDbLine
 10
3.999999999943406
 20
-4.000021229451682
 30
0.0
 11
-15.00000000005661
 21
-4.000021229451736
 31
0.0
  0
LINE
  5
8C4F
330
8854
100
AcDbEntity
  8
AM_5
 62
     3
370
    -2
100
AcDbLine
 10
3.999999999943368
 20
3.999978770548317
 30
0.0
 11
-15.00000000005663
 21
3.999978770548263
 31
0.0
  0
LINE
  5
8C50
330
8854
100
AcDbEntity
  8
AM_5
 62
     3
370
    -2
100
AcDbLine
 10
-14.00000000005661
 20
-1.500021229451733
 30
0.0
 11
-14.00000000005662
 21
1.499978770548266
 31
0.0
  0
INSERT
  5
8C51
330
8854
100
AcDbEntity
  8
AM_5
 62
     3
370
    -2
100
AcDbBlockReference
  2
_OPEN30
 10
-14.0000000000566
 20
-4.000021229451734
 30
0.0
 41
2.5
 42
2.5
 43
2.5
 50
270.0000000000002
  0
INSERT
  5
8C52
330
8854
100
AcDbEntity
  8
AM_5
 62
     3
370
    -2
100
AcDbBlockReference
  2
_OPEN30
 10
-14.00000000005663
 20
3.999978770548266
 30
0.0
 41
2.5
 42
2.5
 43
2.5
 50
90.00000000000015
  0
MTEXT
  5
8C53
330
8854
100
AcDbEntity
  8
AM_5
 62
     2
100
AcDbMText
 10
-17.40000000005662
 20
-0.0000212294517699
 30
0.0
 40
3.799999999999998
 41
0.0
 71
     5
 72
     1
  1
8
 11
-0.0000000000000028
 21
1.0
 31
0.0
 73
     1
 44
1.0
1001
ACAD
1000
MTEXTBEGIN
1070
    73
1070
     1
1070
    44
1040
1.0
1070
    74
1070
     0
1000
MTEXTEND
  0
POINT
  5
8C54
330
8854
100
AcDbEntity
  8
DEFPOINTS
 62
     0
100
AcDbPoint
 10
3.999999999943394
 20
-4.000021229451695
 30
0.0
  0
POINT
  5
8C55
330
8854
100
AcDbEntity
  8
DEFPOINTS
 62
     0
100
AcDbPoint
 10
3.99999999994338
 20
3.999978770548304
 30
0.0
  0
POINT
  5
8C56
330
8854
100
AcDbEntity
  8
DEFPOINTS
 62
     0
100
AcDbPoint
 10
-14.00000000005662
 20
3.999978770548309
 30
0.0
  0
ENDBLK
  5
8861
330
8854
100
AcDbEntity
  8
0
100
AcDbBlockEnd
  0
BLOCK
  5
8907
330
88FD
100
AcDbEntity
  8
0
100
AcDbBlockBegin
  2
*D12
 70
     1
 10
0.0
 20
0.0
 30
0.0
  3
*D12
  1

  0
LINE
  5
8C57
330
88FD
100
AcDbEntity
  8
AM_5
 62
     3
370
    -2
100
AcDbLine
 10
30.39267962776682
 20
21.99983869532788
 30
0.0
 11
-25.00000000005667
 21
21.99983869532773
 31
0.0
  0
LINE
  5
8C58
330
88FD
100
AcDbEntity
  8
AM_5
 62
     3
370
    -2
100
AcDbLine
 10
3.999999999943406
 20
-4.000021229451682
 30
0.0
 11
-25.00000000005659
 21
-4.000021229451764
 31
0.0
  0
LINE
  5
8C59
330
88FD
100
AcDbEntity
  8
AM_5
 62
     3
370
    -2
100
AcDbLine
 10
-24.00000000005665
 20
19.49983869532773
 30
0.0
 11
-24.00000000005659
 21
-1.500021229451761
 31
0.0
  0
INSERT
  5
8C5A
330
88FD
100
AcDbEntity
  8
AM_5
 62
     3
370
    -2
100
AcDbBlockReference
  2
_OPEN30
 10
-24.00000000005666
 20
21.99983869532773
 30
0.0
 41
2.5
 42
2.5
 43
2.5
 50
90.00000000000017
  0
INSERT
  5
8C5B
330
88FD
100
AcDbEntity
  8
AM_5
 62
     3
370
    -2
100
AcDbBlockReference
  2
_OPEN30
 10
-24.00000000005658
 20
-4.000021229451761
 30
0.0
 41
2.5
 42
2.5
 43
2.5
 50
270.0000000000002
  0
MTEXT
  5
8C5C
330
88FD
100
AcDbEntity
  8
AM_5
 62
     2
100
AcDbMText
 10
-27.40000000005662
 20
8.999908732937974
 30
0.0
 40
3.799999999999998
 41
0.0
 71
     5
 72
     1
  1
26
 11
-0.0000000000000028
 21
1.0
 31
0.0
 73
     1
 44
1.0
1001
ACAD
1000
MTEXTBEGIN
1070
    73
1070
     1
1070
    44
1040
1.0
1070
    74
1070
     0
1000
MTEXTEND
  0
POINT
  5
8C5D
330
88FD
100
AcDbEntity
  8
DEFPOINTS
 62
     0
100
AcDbPoint
 10
30.39267962776689
 20
21.99983869532779
 30
0.0
  0
POINT
  5
8C5E
330
88FD
100
AcDbEntity
  8
DEFPOINTS
 62
     0
100
AcDbPoint
 10
3.999999999943394
 20
-4.000021229451695
 30
0.0
  0
POINT
  5
8C5F
330
88FD
100
AcDbEntity
  8
DEFPOINTS
 62
     0
100
AcDbPoint
 10
-24.0000000000566
 20
-4.000021229451687
 30
0.0
  0
ENDBLK
  5
8908
330
88FD
100
AcDbEntity
  8
0
100
AcDbBlockEnd
  0
BLOCK
  5
8A1B
330
8A1A
100
AcDbEntity
  8
0
100
AcDbBlockBegin
  2
_NONE
 70
     0
 10
0.0
 20
0.0
 30
0.0
  3
_NONE
  1

  0
ENDBLK
  5
8A1C
330
8A1A
100
AcDbEntity
  8
0
100
AcDbBlockEnd
  0
ENDSEC
  0
SECTION
  2
ENTITIES
  0
TEXT
  5
388D
330
1F
100
AcDbEntity
  8
AM_6
100
AcDbText
 10
39.37034956568557
 20
-74.69398503326221
 30
0.0
 40
5.0
  1
GDER2525-800W
 51
359.9999999999998
 72
     4
 11
71.27511147044747
 21
-72.19398503326221
 31
0.0
100
AcDbText
  0
LINE
  5
78F8
330
1F
100
AcDbEntity
  8
AM_0
100
AcDbLine
 10
31.99630670930017
 20
-3.000169816055342
 30
0.0
 11
44.36788874037594
 21
-3.000235476531595
 31
0.0
  0
LINE
  5
78F9
330
1F
100
AcDbEntity
  8
AM_0
100
AcDbLine
 10
30.66025244540015
 20
20.9998372752076
 30
0.0
 11
38.49960791403976
 21
20.99979566890275
 31
0.0
  0
LINE
  5
78FA
330
1F
100
AcDbEntity
  8
AM_0
100
AcDbLine
 10
30.39267962776689
 20
21.99983869532779
 30
0.0
 11
38.49961322140272
 21
21.99979566888868
 31
0.0
  0
LINE
  5
78FB
330
1F
100
AcDbEntity
  8
AM_0
100
AcDbLine
 10
30.39243548714689
 20
21.9998386966235
 30
0.0
 11
44.37778704944992
 21
21.99976447128657
 31
0.0
  0
LINE
  5
78FC
330
1F
100
AcDbEntity
  8
AM_0
100
AcDbLine
 10
18.40836035669454
 20
-2.000097699878004
 30
0.0
 11
38.49948584469159
 21
-2.000204330773295
 31
0.0
  0
LINE
  5
78FD
330
1F
100
AcDbEntity
  8
AM_0
100
AcDbLine
 10
17.60024958059295
 20
-3.00009341095491
 30
0.0
 11
38.4994805373286
 21
-3.000204330759226
 31
0.0
  0
SPLINE
  5
7902
330
1F
100
AcDbEntity
  8
AM_0
100
AcDbSpline
210
0.0
220
0.0
230
1.0
 70
     8
 71
     3
 72
    11
 73
     7
 74
     5
 42
0.0000000001
 43
0.0000000001
 44
0.0000000001
 40
0.0
 40
0.0
 40
0.0
 40
0.0
 40
0.985158863876461
 40
1.50759825703112
 40
2.15932959860146
 40
3.106278138713406
 40
3.106278138713406
 40
3.106278138713406
 40
3.106278138713406
 10
6.025610298355391
 20
1.139967409565266
 30
0.0
 10
5.981795961498871
 20
1.462401621074695
 30
0.0
 10
5.914746452734416
 20
1.955825852539334
 30
0.0
 10
6.037235204826314
 20
2.714959752617815
 30
0.0
 10
6.709801813680005
 20
3.087534052994064
 30
0.0
 10
6.925956006411538
 20
3.588275697788093
 30
0.0
 10
7.053990955491405
 20
3.884880774854544
 30
0.0
 11
6.025610298355391
 21
1.139967409565266
 31
0.0
 11
5.959316076618254
 21
2.122893176466626
 31
0.0
 11
6.090422276296865
 21
2.628614526545541
 31
0.0
 11
6.56787214049598
 21
3.0722307669621
 31
0.0
 11
7.053990955491405
 21
3.884880774854544
 31
0.0
  0
SPLINE
  5
7903
330
1F
100
AcDbEntity
  8
AM_0
100
AcDbSpline
210
0.0
220
0.0
230
1.0
 70
     8
 71
     3
 72
    11
 73
     7
 74
     5
 42
0.0000000001
 43
0.0000000001
 44
0.0000000001
 40
0.0
 40
0.0
 40
0.0
 40
0.0
 40
0.9851588638763992
 40
1.507598257031109
 40
2.159329598601388
 40
3.106278138713323
 40
3.106278138713323
 40
3.106278138713323
 40
3.106278138713323
 10
6.025598197574314
 20
-1.140031369702645
 30
0.0
 10
5.981780438169483
 20
-1.46246511611671
 30
0.0
 10
5.914725691845827
 20
-1.955888635841386
 30
0.0
 10
6.037206385932533
 20
-2.715023836061626
 30
0.0
 10
6.709769039974299
 20
-3.087605275527028
 30
0.0
 10
6.925917917458303
 20
-3.588349214710358
 30
0.0
 10
7.053949718149342
 20
-3.884955650816002
 30
0.0
 11
6.025598197574314
 21
-1.140031369702645
 31
0.0
 11
5.959293542353295
 21
-2.122956432853575
 31
0.0
 11
6.090394373931022
 21
-2.628679174560422
 31
0.0
 11
6.567839529238429
 21
-3.072300482951353
 31
0.0
 11
7.053949718149342
 21
-3.884955650816002
 31
0.0
  0
ARC
  5
7904
330
1F
100
AcDbEntity
  8
AM_11
100
AcDbCircle
 10
-53.49502909971591
 20
160.7004274633621
 30
0.0
 40
164.6999969482402
100
AcDbArc
 50
254.5688921541043
 51
278.5287497488838
  0
LINE
  5
7909
330
1F
100
AcDbEntity
  8
AM_7
100
AcDbLine
 10
-81.86822321972835
 20
10.00062687620903
 30
0.0
 11
-39.57839893975187
 21
10.00040242876187
 31
0.0
  0
LINE
  5
790B
330
1F
100
AcDbEntity
  8
AM_0
100
AcDbLine
 10
-69.59004250896891
 20
-2.597338679359967
 30
0.0
 11
-67.97523658488962
 21
-2.824352254604338
 31
0.0
  0
LINE
  5
790C
330
1F
100
AcDbEntity
  8
AM_0
100
AcDbLine
 10
-77.97523751428231
 20
-2.999439561832206
 30
0.0
 11
-66.73022713846075
 21
-2.999499243183795
 31
0.0
  0
LINE
  5
790D
330
1F
100
AcDbEntity
  8
AM_0
100
AcDbLine
 10
-77.97531314508542
 20
0.0005299210314551
 30
0.0
 11
-60.44253728230517
 21
-0.002553854423856
 31
0.0
  0
LINE
  5
790E
330
1F
100
AcDbEntity
  8
AM_0
100
AcDbLine
 10
-77.97529722283456
 20
3.000560438569193
 30
0.0
 11
-61.60221983048511
 21
3.000473540704641
 31
0.0
  0
LINE
  5
7910
330
1F
100
AcDbEntity
  8
AM_0
100
AcDbLine
 10
-77.97519638293824
 20
22.0005604383016
 30
0.0
 11
-55.47519638325507
 21
22.00044102263488
 31
0.0
  0
LINE
  5
7911
330
1F
100
AcDbEntity
  8
AM_0
100
AcDbLine
 10
-77.97529722283456
 20
3.000560438569193
 30
0.0
 11
-77.97522822711603
 21
16.00056043838609
 31
0.0
  0
LINE
  5
7912
330
1F
100
AcDbEntity
  8
AM_0
100
AcDbLine
 10
-77.40331488031495
 20
-1.499427338422082
 30
0.0
 11
-72.98241974029997
 21
-2.120742915985959
 31
0.0
  0
LINE
  5
7913
330
1F
100
AcDbEntity
  8
AM_0
100
AcDbLine
 10
-77.97523751428231
 20
-2.999439561832206
 30
0.0
 11
-77.97522912661452
 21
-1.419056261074461
 31
0.0
  0
LINE
  5
7914
330
1F
100
AcDbEntity
  8
AM_0
100
AcDbLine
 10
-77.97521747100209
 20
0.7770649547146155
 30
0.0
 11
-77.97521363122996
 21
1.500545179314411
 31
0.0
  0
LINE
  5
7915
330
1F
100
AcDbEntity
  8
AM_0
100
AcDbLine
 10
-77.97524438532356
 20
-1.419041002203487
 30
0.0
 11
-77.40334539796593
 21
-1.499442597050107
 31
0.0
  0
LINE
  5
7916
330
1F
100
AcDbEntity
  8
AM_0
100
AcDbLine
 10
-77.97521363114902
 20
1.500560438104412
 30
0.0
 11
-77.97521033324034
 21
2.121944105085657
 31
0.0
  0
LINE
  5
7917
330
1F
100
AcDbEntity
  8
AM_0
100
AcDbLine
 10
-77.97521033315934
 20
2.121959363875657
 30
0.0
 11
-77.97520780322134
 21
2.598643934178949
 31
0.0
  0
LINE
  5
7918
330
1F
100
AcDbEntity
  8
AM_0
100
AcDbLine
 10
-77.97520780314034
 20
2.59865919296895
 30
0.0
 11
-77.97520621261589
 21
2.898341810154744
 31
0.0
  0
LINE
  5
7919
330
1F
100
AcDbEntity
  8
AM_0
100
AcDbLine
 10
-77.97522912653352
 20
-1.41904100228446
 30
0.0
 11
-77.97522571289881
 21
-0.7758525257335291
 31
0.0
  0
LINE
  5
791A
330
1F
100
AcDbEntity
  8
AM_0
100
AcDbLine
 10
-77.97532840371343
 20
0.0005604386924578
 30
0.0
 11
-77.97523272987312
 21
0.7770496960055884
 31
0.0
  0
LINE
  5
791B
330
1F
100
AcDbEntity
  8
AM_0
100
AcDbLine
 10
-77.97525623039785
 20
-0.7758372667815533
 30
0.0
 11
-77.9753436625034
 21
0.0005604387734312
 31
0.0
  0
LINE
  5
791C
330
1F
100
AcDbEntity
  8
AM_0
100
AcDbLine
 10
-77.97514517696999
 20
2.89843336256082
 30
0.0
 11
-77.97523618727962
 21
3.000636732195273
 31
0.0
  0
LINE
  5
791D
330
1F
100
AcDbEntity
  8
AM_0
100
AcDbLine
 10
-72.98238922255802
 20
-2.120712398567905
 30
0.0
 11
-69.59008828582483
 21
-2.597430231847016
 31
0.0
  0
LINE
  5
7922
330
1F
100
AcDbEntity
  8
AM_0
100
AcDbLine
 10
-77.97522822711603
 20
16.00056043838609
 30
0.0
 11
-77.97519638293824
 21
22.0005604383016
 31
0.0
  0
LINE
  5
7929
330
1F
100
AcDbEntity
  8
AM_0
100
AcDbLine
 10
-42.97529722332745
 20
3.000374680865441
 30
0.0
 11
-42.97523129155501
 21
15.42307365530048
 31
0.0
  0
LINE
  5
792A
330
1F
100
AcDbEntity
  8
AM_0
100
AcDbLine
 10
-43.9752972233134
 20
3.000379988228424
 30
0.0
 11
-43.97522822759486
 21
16.00037998804533
 31
0.0
  0
LINE
  5
792B
330
1F
100
AcDbEntity
  8
AM_0
100
AcDbLine
 10
-53.14660721383939
 20
3.082231031860524
 30
0.0
 11
-53.21670401346954
 21
3.47363460214519
 31
0.0
  0
LINE
  5
792C
330
1F
100
AcDbEntity
  8
AM_0
100
AcDbLine
 10
-61.47889797165049
 20
3.061828477011639
 30
0.0
 11
-61.56198114192505
 21
3.238220519526644
 31
0.0
  0
LINE
  5
792D
330
1F
100
AcDbEntity
  8
AM_0
100
AcDbLine
 10
-62.00865295157932
 20
2.997530751502674
 30
0.0
 11
-61.99275259983317
 21
3.128206936645606
 31
0.0
  0
LINE
  5
792E
330
1F
100
AcDbEntity
  8
AM_0
100
AcDbLine
 10
-63.47117736570971
 20
2.997523254860576
 30
0.0
 11
-63.48707633028208
 21
3.128214867564006
 31
0.0
  0
LINE
  5
792F
330
1F
100
AcDbEntity
  8
AM_0
100
AcDbLine
 10
-64.00116054582679
 20
3.061658758104595
 30
0.0
 11
-63.91813653917353
 21
3.237897331138535
 31
0.0
  0
LINE
  5
7930
330
1F
100
AcDbEntity
  8
AM_0
100
AcDbLine
 10
-64.40198603933129
 20
4.500488400101271
 30
0.0
 11
-64.40199400037575
 21
3.000488400122388
 31
0.0
  0
LINE
  5
7931
330
1F
100
AcDbEntity
  8
AM_0
100
AcDbLine
 10
-64.87880064098902
 20
3.000490930708291
 30
0.0
 11
-64.87879267994452
 21
4.500490930687174
 31
0.0
  0
LINE
  5
7933
330
1F
100
AcDbEntity
  8
AM_0
100
AcDbLine
 10
-53.13630796537438
 20
3.000428609037535
 30
0.0
 11
-42.97531248211747
 21
3.000374680946443
 31
0.0
  0
LINE
  5
7934
330
1F
100
AcDbEntity
  8
AM_0
100
AcDbLine
 10
-53.13563790525215
 20
-2.999571394603227
 30
0.0
 11
-43.97534432628122
 21
-2.999620011606103
 31
0.0
  0
LINE
  5
7935
330
1F
100
AcDbEntity
  8
AM_0
100
AcDbLine
 10
-60.44238465473307
 20
0.0049229514061818
 30
0.0
 11
-53.78660771607808
 21
-0.0024213331779404
 31
0.0
  0
LINE
  5
7936
330
1F
100
AcDbEntity
  8
AM_0
100
AcDbLine
 10
-61.57612997317931
 20
-3.253020860551788
 30
0.0
 11
-53.46343253512332
 21
-4.002560377552289
 31
0.0
  0
LINE
  5
7937
330
1F
100
AcDbEntity
  8
AM_0
100
AcDbLine
 10
-63.48712481961381
 20
-3.133000342226825
 30
0.0
 11
-55.14443176650775
 21
-3.903735537907825
 31
0.0
  0
LINE
  5
7938
330
1F
100
AcDbEntity
  8
AM_0
100
AcDbLine
 10
-63.88301470621132
 20
-3.2468745838671
 30
0.0
 11
-56.13611625074378
 21
-4.002515675069719
 31
0.0
  0
LINE
  5
7939
330
1F
100
AcDbEntity
  8
AM_0
100
AcDbLine
 10
-61.39474623320278
 20
-2.779266940394439
 30
0.0
 11
-61.31098976928956
 21
-2.596360280427849
 31
0.0
  0
LINE
  5
793A
330
1F
100
AcDbEntity
  8
AM_0
100
AcDbLine
 10
-61.47772415420842
 20
-2.897232198252187
 30
0.0
 11
-61.30802957149814
 21
-2.597733587158689
 31
0.0
  0
LINE
  5
793B
330
1F
100
AcDbEntity
  8
AM_0
100
AcDbLine
 10
-65.21252694317212
 20
-2.999507298169578
 30
0.0
 11
-64.48904671857228
 21
-2.999511137941726
 31
0.0
  0
LINE
  5
793C
330
1F
100
AcDbEntity
  8
AM_0
100
AcDbLine
 10
-65.97523751445135
 20
-2.999503250187746
 30
0.0
 11
-61.60064950181293
 21
-2.99952646771418
 31
0.0
  0
LINE
  5
793D
330
1F
100
AcDbEntity
  8
AM_0
100
AcDbLine
 10
-65.55682625956723
 20
-2.999505470848151
 30
0.0
 11
-65.2969538230509
 21
-2.999506850085499
 31
0.0
  0
LINE
  5
793E
330
1F
100
AcDbEntity
  8
AM_0
100
AcDbLine
 10
-65.83383431621337
 20
-2.999504000665854
 30
0.0
 11
-65.21254220196208
 21
-2.999507298088606
 31
0.0
  0
LINE
  5
793F
330
1F
100
AcDbEntity
  8
AM_0
100
AcDbLine
 10
-66.31062569803664
 20
-2.999501470160926
 30
0.0
 11
-65.83384957499333
 21
-2.999504000584881
 31
0.0
  0
LINE
  5
7940
330
1F
100
AcDbEntity
  8
AM_0
100
AcDbLine
 10
-66.61033883280236
 20
-2.999499879474531
 30
0.0
 11
-66.31064095682666
 21
-2.999501470079951
 31
0.0
  0
LINE
  5
7941
330
1F
100
AcDbEntity
  8
AM_0
100
AcDbLine
 10
-66.71252694315096
 20
-2.999499337125161
 30
0.0
 11
-66.61033883280236
 21
-2.999499879474531
 31
0.0
  0
LINE
  5
7942
330
1F
100
AcDbEntity
  8
AM_0
100
AcDbLine
 10
-66.73022713846075
 20
-2.999499243183795
 30
0.0
 11
-65.97525277324137
 21
-2.999503250106772
 31
0.0
  0
LINE
  5
7943
330
1F
100
AcDbEntity
  8
AM_0
100
AcDbLine
 10
-67.14367874349273
 20
-2.897110574234648
 30
0.0
 11
-65.97519173767643
 21
-2.999426956480693
 31
0.0
  0
LINE
  5
7944
330
1F
100
AcDbEntity
  8
AM_0
100
AcDbLine
 10
-67.97512977344059
 20
-2.824367513961209
 30
0.0
 11
-66.73013558508284
 21
-2.999377173359694
 31
0.0
  0
LINE
  5
7945
330
1F
100
AcDbEntity
  8
AM_0
100
AcDbLine
 10
-67.97514503231155
 20
-2.824382772670236
 30
0.0
 11
-65.97516121993447
 21
-2.999396439072672
 31
0.0
  0
LINE
  5
7946
330
1F
100
AcDbEntity
  8
AM_0
100
AcDbLine
 10
-67.97532813859141
 20
-2.824535359588441
 30
0.0
 11
-67.1437550379996
 21
-2.897217385349694
 31
0.0
  0
LINE
  5
7947
330
1F
100
AcDbEntity
  8
AM_0
100
AcDbLine
 10
-67.97520606722861
 20
-2.824336995976284
 30
0.0
 11
-66.7301050673409
 21
-2.999346655941667
 31
0.0
  0
LINE
  5
7948
330
1F
100
AcDbEntity
  8
AM_0
100
AcDbLine
 10
-61.40760951620706
 20
-2.802597560604671
 30
0.0
 11
-61.39489882230753
 21
-2.779495821424621
 31
0.0
  0
LINE
  5
7949
330
1F
100
AcDbEntity
  8
AM_0
100
AcDbLine
 10
-61.47879316958483
 20
-3.066833633000886
 30
0.0
 11
-61.40750270468707
 21
-2.802597561171542
 31
0.0
  0
LINE
  5
794A
330
1F
100
AcDbEntity
  8
AM_0
100
AcDbLine
 10
-61.56206131888261
 20
-3.243453674469112
 30
0.0
 11
-61.47902205344939
 21
-3.067215101516144
 31
0.0
  0
LINE
  5
794B
330
1F
100
AcDbEntity
  8
AM_0
100
AcDbLine
 10
-61.57616049092132
 20
-3.25305137795981
 30
0.0
 11
-61.56209183589572
 21
-3.243346862787138
 31
0.0
  0
LINE
  5
794C
330
1F
100
AcDbEntity
  8
AM_0
100
AcDbLine
 10
-61.60078683156081
 20
-2.999648537295332
 30
0.0
 11
-61.47807510773508
 21
-2.89749159579954
 31
0.0
  0
LINE
  5
794D
330
1F
100
AcDbEntity
  8
AM_0
100
AcDbLine
 10
-61.99284686634467
 20
-3.133160860792305
 30
0.0
 11
-61.57614523221234
 21
-3.253066636830784
 31
0.0
  0
LINE
  5
794E
330
1F
100
AcDbEntity
  8
AM_0
100
AcDbLine
 10
-61.99281634844077
 20
-3.133099825794279
 30
0.0
 11
-62.00882212501909
 21
-3.002499765263952
 31
0.0
  0
LINE
  5
794F
330
1F
100
AcDbEntity
  8
AM_0
100
AcDbLine
 10
-63.47123972761942
 20
-3.002507262472921
 30
0.0
 11
-62.00885264268009
 21
-3.002515023891977
 31
0.0
  0
LINE
  5
7950
330
1F
100
AcDbEntity
  8
AM_0
100
AcDbLine
 10
-63.47123972761942
 20
-3.002507262472921
 30
0.0
 11
-62.00885264268009
 21
-3.002515023891977
 31
0.0
  0
LINE
  5
7951
330
1F
100
AcDbEntity
  8
AM_0
100
AcDbLine
 10
-63.48714007848479
 20
-3.133015600935851
 30
0.0
 11
-63.47123972761942
 21
-3.002507262472921
 31
0.0
  0
LINE
  5
7952
330
1F
100
AcDbEntity
  8
AM_0
100
AcDbLine
 10
-63.88301470621132
 20
-3.2468745838671
 30
0.0
 11
-63.48712481953288
 21
-3.132985083436825
 31
0.0
  0
LINE
  5
7953
330
1F
100
AcDbEntity
  8
AM_0
100
AcDbLine
 10
-63.91943730338305
 20
-3.221941529228832
 30
0.0
 11
-63.8831367774221
 21
-3.247042429899227
 31
0.0
  0
LINE
  5
7954
330
1F
100
AcDbEntity
  8
AM_0
100
AcDbLine
 10
-63.91934574983325
 20
-3.22178894182473
 30
0.0
 11
-64.00233736793467
 21
-3.045503711315593
 31
0.0
  0
LINE
  5
7955
330
1F
100
AcDbEntity
  8
AM_0
100
AcDbLine
 10
-64.00236788559567
 20
-3.045518969943618
 30
0.0
 11
-64.01475777831092
 21
-2.999544172745335
 31
0.0
  0
LINE
  5
7956
330
1F
100
AcDbEntity
  8
AM_0
100
AcDbLine
 10
-64.48903145978227
 20
-2.999511138022728
 30
0.0
 11
-64.40193429181346
 21
-2.999511600279009
 31
0.0
  0
LINE
  5
7957
330
1F
100
AcDbEntity
  8
AM_0
100
AcDbLine
 10
-60.44233887803914
 20
0.0049839863132303
 30
0.0
 11
-60.44323863072143
 21
0.1021824774199257
 31
0.0
  0
LINE
  5
7958
330
1F
100
AcDbEntity
  8
AM_0
100
AcDbLine
 10
-60.44357543396625
 20
-0.1069392248954745
 30
0.0
 11
-60.44236939578108
 21
0.0049534688952048
 31
0.0
  0
LINE
  5
7959
330
1F
100
AcDbEntity
  8
AM_0
100
AcDbLine
 10
-60.48752184120638
 20
-0.3132073022088565
 30
0.0
 11
-60.44363647017899
 21
-0.1071375888315532
 31
0.0
  0
LINE
  5
795A
330
1F
100
AcDbEntity
  8
AM_0
100
AcDbLine
 10
-60.44326914862539
 20
0.1021214424218709
 30
0.0
 11
-60.48747276668478
 21
0.3082221408994411
 31
0.0
  0
LINE
  5
795B
330
1F
100
AcDbEntity
  8
AM_0
100
AcDbLine
 10
-60.62833237230512
 20
-0.770237804882716
 30
0.0
 11
-60.48759813620921
 21
-0.3134056660639334
 31
0.0
  0
LINE
  5
795C
330
1F
100
AcDbEntity
  8
AM_0
100
AcDbLine
 10
-60.48751854329775
 20
0.3081763647723886
 30
0.0
 11
-60.62830896402113
 21
0.7652693971647108
 31
0.0
  0
LINE
  5
795D
330
1F
100
AcDbEntity
  8
AM_0
100
AcDbLine
 10
-60.64452197827886
 20
-0.7760360587986856
 30
0.0
 11
-60.51216478651785
 21
-0.3133902768898241
 31
0.0
  0
LINE
  5
795E
330
1F
100
AcDbEntity
  8
AM_0
100
AcDbLine
 10
-60.51208519360642
 20
0.3081917539465263
 30
0.0
 11
-60.64608539108519
 21
0.7769882415108027
 31
0.0
  0
LINE
  5
795F
330
1F
100
AcDbEntity
  8
AM_0
100
AcDbLine
 10
-60.83085024260703
 20
-1.377292394115404
 30
0.0
 11
-60.62836289012812
 21
-0.7702835810907135
 31
0.0
  0
LINE
  5
7960
330
1F
100
AcDbEntity
  8
AM_0
100
AcDbLine
 10
-60.62829370498814
 20
0.7653151734537103
 30
0.0
 11
-60.83078987301353
 21
1.372326135872933
 31
0.0
  0
LINE
  5
7961
330
1F
100
AcDbEntity
  8
AM_0
100
AcDbLine
 10
-60.87677984750149
 20
-1.499728673792038
 30
0.0
 11
-60.64464404996556
 21
-0.7762954575708153
 31
0.0
  0
LINE
  5
7962
330
1F
100
AcDbEntity
  8
AM_0
100
AcDbLine
 10
-60.64611590882713
 20
0.7769577240927771
 30
0.0
 11
-60.87830506221176
 21
1.500439181025067
 31
0.0
  0
LINE
  5
7963
330
1F
100
AcDbEntity
  8
AM_0
100
AcDbLine
 10
-61.02998034637754
 20
-1.924929276717382
 30
0.0
 11
-60.83091127880981
 21
-1.377490758051483
 31
0.0
  0
LINE
  5
7964
330
1F
100
AcDbEntity
  8
AM_0
100
AcDbLine
 10
-60.83080513196545
 20
1.372295618373906
 30
0.0
 11
-61.02991416417233
 21
1.919888838215494
 31
0.0
  0
LINE
  5
7965
330
1F
100
AcDbEntity
  8
AM_0
100
AcDbLine
 10
-61.10297943341418
 20
-2.120912776007476
 30
0.0
 11
-60.87677984725853
 21
-1.499682897422037
 31
0.0
  0
LINE
  5
7966
330
1F
100
AcDbEntity
  8
AM_0
100
AcDbLine
 10
-60.87832032083974
 20
1.500469698686041
 30
0.0
 11
-61.10462012343696
 21
2.121869825529993
 31
0.0
  0
LINE
  5
7967
330
1F
100
AcDbEntity
  8
AM_0
100
AcDbLine
 10
-61.04774181202463
 20
-1.96924070589144
 30
0.0
 11
-61.03002612339547
 21
-1.925051346794408
 31
0.0
  0
LINE
  5
7968
330
1F
100
AcDbEntity
  8
AM_0
100
AcDbLine
 10
-61.30796853544733
 20
-2.59756574080264
 30
0.0
 11
-61.10300995131808
 21
-2.120973811005502
 31
0.0
  0
LINE
  5
7969
330
1F
100
AcDbEntity
  8
AM_0
100
AcDbLine
 10
-61.10457434698592
 20
2.121885084077045
 30
0.0
 11
-61.30946683649408
 21
2.598586000622569
 31
0.0
  0
LINE
  5
796A
330
1F
100
AcDbEntity
  8
AM_0
100
AcDbLine
 10
-61.31367827231599
 20
2.596693933134171
 30
0.0
 11
-61.39486934682878
 21
2.77419985720716
 31
0.0
  0
LINE
  5
796B
330
1F
100
AcDbEntity
  8
AM_0
100
AcDbLine
 10
-61.39474727635682
 20
2.774230374139288
 30
0.0
 11
-61.4075340179342
 21
2.797530612903509
 31
0.0
  0
LINE
  5
796C
330
1F
100
AcDbEntity
  8
AM_0
100
AcDbLine
 10
-61.40745772325532
 20
2.797667941598556
 30
0.0
 11
-61.47876064190261
 21
3.061950546592763
 31
0.0
  0
LINE
  5
796D
330
1F
100
AcDbEntity
  8
AM_0
100
AcDbLine
 10
-61.30966520115895
 20
2.598509707735369
 30
0.0
 11
-61.47946341532218
 21
2.898193226100355
 31
0.0
  0
LINE
  5
796E
330
1F
100
AcDbEntity
  8
AM_0
100
AcDbLine
 10
-61.60228086605007
 20
3.000397247078561
 30
0.0
 11
-61.47937186258218
 21
2.898193225614458
 31
0.0
  0
LINE
  5
796F
330
1F
100
AcDbEntity
  8
AM_0
100
AcDbLine
 10
-64.01747251559618
 20
3.000562653277294
 30
0.0
 11
-64.00097743930399
 21
3.0618571213928
 31
0.0
  0
LINE
  5
7970
330
1F
100
AcDbEntity
  8
AM_0
100
AcDbLine
 10
-53.14663995758667
 20
-3.087263596952558
 30
0.0
 11
-53.0861362949962
 21
-2.604170656340689
 31
0.0
  0
LINE
  5
7971
330
1F
100
AcDbEntity
  8
AM_0
100
AcDbLine
 10
-53.21674091169256
 20
-3.47863590557687
 30
0.0
 11
-53.14663995750571
 21
-3.087248338162557
 31
0.0
  0
LINE
  5
7972
330
1F
100
AcDbEntity
  8
AM_0
100
AcDbLine
 10
-53.29440967732204
 20
-3.766782466014622
 30
0.0
 11
-53.21672565346942
 21
-3.478742717177842
 31
0.0
  0
LINE
  5
7973
330
1F
100
AcDbEntity
  8
AM_0
100
AcDbLine
 10
-53.32135764137365
 20
-3.944379368894507
 30
0.0
 11
-53.30155086956131
 21
-3.781659747453905
 31
0.0
  0
LINE
  5
7974
330
1F
100
AcDbEntity
  8
AM_0
100
AcDbLine
 10
-53.37760153219397
 20
-3.943310955157718
 30
0.0
 11
-53.29456226675073
 21
-3.767072382194745
 31
0.0
  0
LINE
  5
7975
330
1F
100
AcDbEntity
  8
AM_0
100
AcDbLine
 10
-53.46343253479943
 20
-4.002499342392288
 30
0.0
 11
-53.37769308435706
 21
-3.943204143141817
 31
0.0
  0
LINE
  5
7976
330
1F
100
AcDbEntity
  8
AM_0
100
AcDbLine
 10
-53.37723530149389
 20
-3.939587812571394
 30
0.0
 11
-53.32134238258362
 21
-3.94437936897548
 31
0.0
  0
LINE
  5
7977
330
1F
100
AcDbEntity
  8
AM_0
100
AcDbLine
 10
-55.14443176666969
 20
-3.903766055487826
 30
0.0
 11
-55.13764130889569
 21
-3.847873147186438
 31
0.0
  0
LINE
  5
7978
330
1F
100
AcDbEntity
  8
AM_0
100
AcDbLine
 10
-55.28537741625006
 20
-3.944277392398694
 30
0.0
 11
-55.14438598990482
 21
-3.903689761780773
 31
0.0
  0
LINE
  5
7979
330
1F
100
AcDbEntity
  8
AM_0
100
AcDbLine
 10
-53.13563790525215
 20
-2.999571394603227
 30
0.0
 11
-52.97534432615446
 21
-2.999572245339427
 31
0.0
  0
LINE
  5
797A
330
1F
100
AcDbEntity
  8
AM_0
100
AcDbLine
 10
-55.78684203574851
 20
-3.90202314402335
 30
0.0
 11
-55.28545371044298
 21
-3.944323168353766
 31
0.0
  0
LINE
  5
797B
330
1F
100
AcDbEntity
  8
AM_0
100
AcDbLine
 10
-56.13610099195375
 20
-4.002515675150693
 30
0.0
 11
-55.78682677695848
 21
-3.902023144104325
 31
0.0
  0
LINE
  5
797C
330
1F
100
AcDbEntity
  8
AM_0
100
AcDbLine
 10
-52.89540425575011
 20
-0.2612456432018374
 30
0.0
 11
-52.89131352671169
 21
-0.0024413436191734
 31
0.0
  0
LINE
  5
797D
330
1F
100
AcDbEntity
  8
AM_0
100
AcDbLine
 10
-52.89134404421071
 20
-0.0024260846671976
 30
0.0
 11
-52.89543202570728
 21
0.2564545522628608
 31
0.0
  0
LINE
  5
797E
330
1F
100
AcDbEntity
  8
AM_0
100
AcDbLine
 10
-52.90773463807084
 20
-0.5025633267934126
 30
0.0
 11
-52.89552632670795
 21
-0.2613677128739678
 31
0.0
  0
LINE
  5
797F
330
1F
100
AcDbEntity
  8
AM_0
100
AcDbLine
 10
-52.8955083204671
 20
0.2563019647777568
 30
0.0
 11
-52.90771407208978
 21
0.4974061555414923
 31
0.0
  0
LINE
  5
7980
330
1F
100
AcDbEntity
  8
AM_0
100
AcDbLine
 10
-52.90772933078886
 20
0.4974214144024902
 30
0.0
 11
-52.9271221525746
 21
0.7045138024901777
 31
0.0
  0
LINE
  5
7981
330
1F
100
AcDbEntity
  8
AM_0
100
AcDbLine
 10
-52.92711439945644
 20
-0.7096860266709284
 30
0.0
 11
-52.90771937937176
 21
-0.5025785856644149
 31
0.0
  0
LINE
  5
7982
330
1F
100
AcDbEntity
  8
AM_0
100
AcDbLine
 10
-52.97162090413302
 20
-0.0722651361497439
 30
0.0
 11
-52.9716201638589
 21
0.0672154546682665
 31
0.0
  0
LINE
  5
7983
330
1F
100
AcDbEntity
  8
AM_0
100
AcDbLine
 10
-52.97902506037104
 20
-0.7587732755728695
 30
0.0
 11
-52.97162090413302
 21
-0.0722651361497439
 31
0.0
  0
LINE
  5
7984
330
1F
100
AcDbEntity
  8
AM_0
100
AcDbLine
 10
-52.97162016369689
 20
0.0672459722382629
 30
0.0
 11
-52.97901703291977
 21
0.753738931435814
 31
0.0
  0
LINE
  5
7985
330
1F
100
AcDbEntity
  8
AM_0
100
AcDbLine
 10
-53.00113856820779
 20
-1.422469447287814
 30
0.0
 11
-52.979040319161
 21
-0.7587732754918959
 31
0.0
  0
LINE
  5
7986
330
1F
100
AcDbEntity
  8
AM_0
100
AcDbLine
 10
-52.97903229179069
 20
0.7537236727267869
 30
0.0
 11
-53.00112349596428
 21
1.417404820252167
 31
0.0
  0
LINE
  5
7987
330
1F
100
AcDbEntity
  8
AM_0
100
AcDbLine
 10
-53.03712209007806
 20
-2.043730852998938
 30
0.0
 11
-53.00112330933682
 21
-1.422454188578787
 31
0.0
  0
LINE
  5
7988
330
1F
100
AcDbEntity
  8
AM_0
100
AcDbLine
 10
-53.00112349572133
 20
1.417450596622168
 30
0.0
 11
-53.03711568176908
 21
2.038727643124539
 31
0.0
  0
LINE
  5
7989
330
1F
100
AcDbEntity
  8
AM_0
100
AcDbLine
 10
-53.0861362949962
 20
-2.604170656340689
 30
0.0
 11
-53.03712209024006
 21
-2.043761370578939
 31
0.0
  0
LINE
  5
798A
330
1F
100
AcDbEntity
  8
AM_0
100
AcDbLine
 10
-53.03710042298906
 20
2.038727643043565
 30
0.0
 11
-53.08610867866558
 21
2.599229001786036
 31
0.0
  0
LINE
  5
798B
330
1F
100
AcDbEntity
  8
AM_0
100
AcDbLine
 10
-53.08609341987563
 20
2.599229001705063
 30
0.0
 11
-53.14659195504935
 21
3.082231031779522
 31
0.0
  0
LINE
  5
798C
330
1F
100
AcDbEntity
  8
AM_0
100
AcDbLine
 10
-52.9962244669179
 20
-1.277160025126695
 30
0.0
 11
-52.92711439937544
 21
-0.709670767880928
 31
0.0
  0
LINE
  5
798D
330
1F
100
AcDbEntity
  8
AM_0
100
AcDbLine
 10
-52.92710689362269
 20
0.7045443199891767
 30
0.0
 11
-52.99619567862826
 21
1.272034310696406
 31
0.0
  0
LINE
  5
798E
330
1F
100
AcDbEntity
  8
AM_0
100
AcDbLine
 10
-52.97851375406293
 20
0.7045293340340581
 30
0.0
 11
-52.92710689370368
 21
0.7045290611991763
 31
0.0
  0
LINE
  5
798F
330
1F
100
AcDbEntity
  8
AM_0
100
AcDbLine
 10
-52.97852125973467
 20
-0.7096704950460462
 30
0.0
 11
-52.92711439937544
 21
-0.709670767880928
 31
0.0
  0
LINE
  5
7990
330
1F
100
AcDbEntity
  8
AM_0
100
AcDbLine
 10
-53.78663823397204
 20
-0.0024823681759951
 30
0.0
 11
-52.9716506814389
 21
0.0672154548302418
 31
0.0
  0
LINE
  5
7991
330
1F
100
AcDbEntity
  8
AM_0
100
AcDbLine
 10
-53.7866382338911
 20
-0.0024671093859947
 30
0.0
 11
-52.97163616292305
 21
-0.0722651360687704
 31
0.0
  0
LINE
  5
7992
330
1F
100
AcDbEntity
  8
AM_0
100
AcDbLine
 10
-43.97532906749114
 20
-2.999620011687076
 30
0.0
 11
-43.9752972233134
 21
3.000379988228424
 31
0.0
  0
LINE
  5
7993
330
1F
100
AcDbEntity
  8
AM_0
100
AcDbLine
 10
-43.97529854974918
 20
-2.999589494269051
 30
0.0
 11
-42.97540005449723
 21
-1.999701612609206
 31
0.0
  0
LINE
  5
7994
330
1F
100
AcDbEntity
  8
AM_0
100
AcDbLine
 10
-42.9753237601423
 20
-1.999625319064128
 30
0.0
 11
-42.97529722332745
 21
3.000374680865441
 31
0.0
  0
LINE
  5
7995
330
1F
100
AcDbEntity
  8
AM_0
100
AcDbLine
 10
-43.9752972233134
 20
3.000379988228424
 30
0.0
 11
-42.97529722332745
 21
3.000374680865441
 31
0.0
  0
LINE
  5
7999
330
1F
100
AcDbEntity
  8
AM_0
100
AcDbLine
 10
-55.47519638325507
 20
22.00044102263488
 30
0.0
 11
-43.97519638341708
 21
22.00037998796083
 31
0.0
  0
LINE
  5
799A
330
1F
100
AcDbEntity
  8
AM_0
100
AcDbLine
 10
-58.97528130149914
 20
6.000368045900624
 30
0.0
 11
-52.97528130158365
 21
6.00033620172281
 31
0.0
  0
LINE
  5
799B
330
1F
100
AcDbEntity
  8
AM_0
100
AcDbLine
 10
-58.97523884259545
 20
14.00036804578796
 30
0.0
 11
-52.97523884267996
 21
14.00033620161013
 31
0.0
  0
LINE
  5
799C
330
1F
100
AcDbEntity
  8
AM_0
100
AcDbLine
 10
-62.73149958915478
 20
4.500479534223342
 30
0.0
 11
-52.97528926214221
 21
4.500427754473983
 31
0.0
  0
LINE
  5
799D
330
1F
100
AcDbEntity
  8
AM_0
100
AcDbLine
 10
-52.97523884267996
 20
14.00033620161013
 30
0.0
 11
-52.9752282275491
 21
16.00041249552198
 31
0.0
  0
LINE
  5
799E
330
1F
100
AcDbEntity
  8
AM_0
100
AcDbLine
 10
-61.57608021061825
 20
3.248093030885664
 30
0.0
 11
-53.46348162887869
 21
3.997454881610943
 31
0.0
  0
LINE
  5
799F
330
1F
100
AcDbEntity
  8
AM_0
100
AcDbLine
 10
-63.48709158915306
 20
3.128199608855009
 30
0.0
 11
-55.14437509650313
 21
3.898861507801293
 31
0.0
  0
LINE
  5
79A0
330
1F
100
AcDbEntity
  8
AM_0
100
AcDbLine
 10
-63.90377796522431
 20
3.247968055712514
 30
0.0
 11
-56.135783875093
 21
3.997438546908918
 31
0.0
  0
LINE
  5
79A1
330
1F
100
AcDbEntity
  8
AM_0
100
AcDbLine
 10
-64.87879267994452
 20
4.500490930687174
 30
0.0
 11
-62.73151484794475
 21
4.500479534304314
 31
0.0
  0
LINE
  5
79A2
330
1F
100
AcDbEntity
  8
AM_0
100
AcDbLine
 10
-64.87879267994452
 20
4.500490930687174
 30
0.0
 11
-64.48890010183004
 21
4.500488861385757
 31
0.0
  0
LINE
  5
79A3
330
1F
100
AcDbEntity
  8
AM_0
100
AcDbLine
 10
-61.57621754077103
 20
3.24789466735451
 30
0.0
 11
-61.56202691893292
 21
3.238098449459594
 31
0.0
  0
LINE
  5
79A4
330
1F
100
AcDbEntity
  8
AM_0
100
AcDbLine
 10
-61.99278311741313
 20
3.128206936807552
 30
0.0
 11
-61.57606495174729
 21
3.248108289594691
 31
0.0
  0
LINE
  5
79A5
330
1F
100
AcDbEntity
  8
AM_0
100
AcDbLine
 10
-63.90382374231318
 20
3.247830726855463
 30
0.0
 11
-63.48713736640387
 21
3.128031762417956
 31
0.0
  0
LINE
  5
79A6
330
1F
100
AcDbEntity
  8
AM_0
100
AcDbLine
 10
-63.91804498498583
 20
3.238171988862641
 30
0.0
 11
-63.90397632996023
 21
3.247876504035314
 31
0.0
  0
LINE
  5
79A7
330
1F
100
AcDbEntity
  8
AM_0
100
AcDbLine
 10
-64.48890010183004
 20
4.500488861385757
 30
0.0
 11
-64.40198603933129
 21
4.500488400101271
 31
0.0
  0
LINE
  5
79A9
330
1F
100
AcDbEntity
  8
AM_0
100
AcDbLine
 10
-58.97528130149914
 20
6.000368045900624
 30
0.0
 11
-58.97523884259545
 21
14.00036804578796
 31
0.0
  0
LINE
  5
79AE
330
1F
100
AcDbEntity
  8
AM_0
100
AcDbLine
 10
-58.46709915552133
 20
3.772566886842136
 30
0.0
 11
-58.46709529242581
 21
4.500441642691905
 31
0.0
  0
LINE
  5
79AF
330
1F
100
AcDbEntity
  8
AM_0
100
AcDbLine
 10
-52.97528926214221
 20
4.500427754473954
 30
0.0
 11
-52.97528130158365
 21
6.00033620172281
 31
0.0
  0
LINE
  5
79B0
330
1F
100
AcDbEntity
  8
AM_0
100
AcDbLine
 10
-53.27689875225263
 20
3.696733676503677
 30
0.0
 11
-53.27689448674794
 21
4.500429355202365
 31
0.0
  0
LINE
  5
79B1
330
1F
100
AcDbEntity
  8
AM_0
100
AcDbLine
 10
-53.2166124599297
 20
3.473787189549292
 30
0.0
 11
-53.294400237511
 21
3.761888798691339
 31
0.0
  0
LINE
  5
79B2
330
1F
100
AcDbEntity
  8
AM_0
100
AcDbLine
 10
-53.30144971998237
 20
3.776598308755674
 30
0.0
 11
-53.32125476425551
 21
3.939379175590553
 31
0.0
  0
LINE
  5
79B3
330
1F
100
AcDbEntity
  8
AM_0
100
AcDbLine
 10
-53.29452230871179
 20
3.761720952659211
 30
0.0
 11
-53.37752918503639
 21
3.938112994769292
 31
0.0
  0
LINE
  5
79B4
330
1F
100
AcDbEntity
  8
AM_0
100
AcDbLine
 10
-53.46345111113668
 20
3.997485399028996
 30
0.0
 11
-53.37745289068145
 21
3.938189288304365
 31
0.0
  0
LINE
  5
79B5
330
1F
100
AcDbEntity
  8
AM_0
100
AcDbLine
 10
-53.3772087696596
 20
3.934496660058678
 30
0.0
 11
-53.32133105860042
 21
3.93930288205548
 31
0.0
  0
LINE
  5
79B6
330
1F
100
AcDbEntity
  8
AM_0
100
AcDbLine
 10
-55.14442087303512
 20
3.898830990464241
 30
0.0
 11
-55.13763100911624
 21
3.84283119856719
 31
0.0
  0
LINE
  5
79B7
330
1F
100
AcDbEntity
  8
AM_0
100
AcDbLine
 10
-55.28542712872263
 20
3.939160718326214
 30
0.0
 11
-55.14442087392597
 21
3.898663143784241
 31
0.0
  0
LINE
  5
79B8
330
1F
100
AcDbEntity
  8
AM_0
100
AcDbLine
 10
-55.78677012566122
 20
3.897049121324877
 30
0.0
 11
-55.28538135138081
 21
3.939343823553238
 31
0.0
  0
LINE
  5
79B9
330
1F
100
AcDbEntity
  8
AM_0
100
AcDbLine
 10
-56.13581439299696
 20
3.997377511920896
 30
0.0
 11
-55.78681590243609
 21
3.896972827627828
 31
0.0
  0
LINE
  5
79BD
330
1F
100
AcDbEntity
  8
AM_0
100
AcDbLine
 10
-55.47521230582993
 20
19.00034946994712
 30
0.0
 11
-55.47519638325507
 21
22.00044102263488
 31
0.0
  0
LINE
  5
79BE
330
1F
100
AcDbEntity
  8
AM_0
100
AcDbLine
 10
-55.4752096516625
 20
19.5004410226701
 30
0.0
 11
-55.47519638325507
 21
22.00044102263488
 31
0.0
  0
LINE
  5
79C1
330
1F
100
AcDbEntity
  8
AM_0
100
AcDbLine
 10
-52.9752282274681
 20
16.00042775431198
 30
0.0
 11
-52.9752123053792
 21
19.00042775426971
 31
0.0
  0
LINE
  5
79C2
330
1F
100
AcDbEntity
  8
AM_0
100
AcDbLine
 10
-55.47522756478183
 20
19.00031895244812
 30
0.0
 11
-52.97522756433117
 21
19.00039723677071
 31
0.0
  0
LINE
  5
79C3
330
1F
100
AcDbEntity
  8
AM_0
100
AcDbLine
 10
-55.47522756478183
 20
19.00031895244812
 30
0.0
 11
-52.97522756433117
 21
19.00039723677071
 31
0.0
  0
LINE
  5
79C4
330
1F
100
AcDbEntity
  8
AM_0
100
AcDbLine
 10
-55.47519638325507
 20
22.00044102263488
 30
0.0
 11
-52.97519638329031
 21
22.00042775422748
 31
0.0
  0
LINE
  5
79C7
330
1F
100
AcDbEntity
  8
AM_0
100
AcDbLine
 10
-42.9752370898426
 20
14.33057487601584
 30
0.0
 11
-42.97523393786695
 21
14.92446220510748
 31
0.0
  0
LINE
  5
79C8
330
1F
100
AcDbEntity
  8
AM_0
100
AcDbLine
 10
-42.97525039368046
 20
14.69892204406167
 30
0.0
 11
-42.97525500263798
 21
13.8305138409539
 31
0.0
  0
LINE
  5
79DC
330
1F
100
AcDbEntity
  8
AM_0
100
AcDbLine
 10
-42.97527993791457
 20
9.132271653520071
 30
0.0
 11
-42.97528859866018
 21
7.500435716043064
 31
0.0
  0
LINE
  5
79DE
330
1F
100
AcDbEntity
  8
AM_0
100
AcDbLine
 10
-42.97527575181464
 20
7.045983201318456
 30
0.0
 11
-42.97527386035391
 21
7.402367478653451
 31
0.0
  0
LINE
  5
79DF
330
1F
100
AcDbEntity
  8
AM_0
100
AcDbLine
 10
-42.97527386027296
 20
7.402382737443454
 30
0.0
 11
-42.97527030605015
 21
8.072060471814019
 31
0.0
  0
LINE
  5
79E0
330
1F
100
AcDbEntity
  8
AM_0
100
AcDbLine
 10
-42.97528620522057
 20
5.076378709156196
 30
0.0
 11
-42.97528305324499
 21
5.670266038247839
 31
0.0
  0
LINE
  5
79E1
330
1F
100
AcDbEntity
  8
AM_0
100
AcDbLine
 10
-42.97528305316398
 20
5.67028129703784
 30
0.0
 11
-42.97527712918933
 21
6.786461716942121
 31
0.0
  0
LINE
  5
79E2
330
1F
100
AcDbEntity
  8
AM_0
100
AcDbLine
 10
-42.97527712910839
 20
6.786476975732121
 30
0.0
 11
-42.97526914733203
 21
8.290383225710947
 31
0.0
  0
LINE
  5
79E3
330
1F
100
AcDbEntity
  8
AM_0
100
AcDbLine
 10
-42.97527320697559
 20
7.52547538881172
 30
0.0
 11
-42.97526935967191
 21
8.250374680791487
 31
0.0
  0
LINE
  5
79E4
330
1F
100
AcDbEntity
  8
AM_0
100
AcDbLine
 10
-42.97527615892085
 20
6.969277268699535
 30
0.0
 11
-42.97527320705653
 21
7.525460130021719
 31
0.0
  0
LINE
  5
79E5
330
1F
100
AcDbEntity
  8
AM_0
100
AcDbLine
 10
-42.97527801434374
 20
6.619683152494452
 30
0.0
 11
-42.97527615892085
 21
6.969277268699535
 31
0.0
  0
LINE
  5
79E6
330
1F
100
AcDbEntity
  8
AM_0
100
AcDbLine
 10
-42.9752786475571
 20
6.500374680816158
 30
0.0
 11
-42.97527801442469
 21
6.619667893704452
 31
0.0
  0
LINE
  5
79E7
330
1F
100
AcDbEntity
  8
AM_0
100
AcDbLine
 10
-42.97530026682511
 20
5.301949387944014
 30
0.0
 11
-42.97530186706761
 21
5.000435716078279
 31
0.0
  0
LINE
  5
79E8
330
1F
100
AcDbEntity
  8
AM_0
100
AcDbLine
 10
-42.97529565916333
 20
6.170113450431792
 30
0.0
 11
-42.97530026682511
 21
5.301949387944014
 31
0.0
  0
LINE
  5
79E9
330
1F
100
AcDbEntity
  8
AM_0
100
AcDbLine
 10
-42.97529327370063
 20
6.619576341055456
 30
0.0
 11
-42.97529390602317
 21
6.500435716057162
 31
0.0
  0
LINE
  5
79EA
330
1F
100
AcDbEntity
  8
AM_0
100
AcDbLine
 10
-42.97529141690101
 20
6.969429856670537
 30
0.0
 11
-42.97529327370063
 21
6.619576341055456
 31
0.0
  0
LINE
  5
79EB
330
1F
100
AcDbEntity
  8
AM_0
100
AcDbLine
 10
-42.97529029219616
 20
7.181343919167551
 30
0.0
 11
-42.9752912523417
 21
7.000435716050112
 31
0.0
  0
LINE
  5
79EC
330
1F
100
AcDbEntity
  8
AM_0
100
AcDbLine
 10
-42.97528859866018
 20
7.500435716043064
 30
0.0
 11
-42.97529565786759
 21
6.170357591061796
 31
0.0
  0
LINE
  5
79ED
330
1F
100
AcDbEntity
  8
AM_0
100
AcDbLine
 10
-42.97528846519866
 20
7.525582200412721
 30
0.0
 11
-42.97529141690101
 21
6.969429856670537
 31
0.0
  0
LINE
  5
79EE
330
1F
100
AcDbEntity
  8
AM_0
100
AcDbLine
 10
-42.9752875270808
 20
7.70234001291022
 30
0.0
 11
-42.97529029219616
 21
7.181343919167551
 31
0.0
  0
LINE
  5
79EF
330
1F
100
AcDbEntity
  8
AM_0
100
AcDbLine
 10
-42.975284618138
 20
8.250435716032491
 30
0.0
 11
-42.97528846519866
 21
7.525582200412721
 31
0.0
  0
LINE
  5
79F0
330
1F
100
AcDbEntity
  8
AM_0
100
AcDbLine
 10
-42.97528329129721
 20
8.500435716028965
 30
0.0
 11
-42.9752875270808
 21
7.70234001291022
 31
0.0
  0
LINE
  5
7A00
330
1F
100
AcDbEntity
  8
AM_0
100
AcDbLine
 10
-42.97525462586025
 20
11.0264824688424
 30
0.0
 11
-42.97524983703743
 21
11.92878044245969
 31
0.0
  0
LINE
  5
7A01
330
1F
100
AcDbEntity
  8
AM_0
100
AcDbLine
 10
-42.97524983703743
 20
11.92878044245969
 30
0.0
 11
-42.9752462828146
 21
12.59845817682025
 31
0.0
  0
LINE
  5
7A02
330
1F
100
AcDbEntity
  8
AM_0
100
AcDbLine
 10
-42.9752462827336
 20
12.59847343561026
 30
0.0
 11
-42.97524439127293
 21
12.95485771295523
 31
0.0
  0
LINE
  5
7A04
330
1F
100
AcDbEntity
  8
AM_0
100
AcDbLine
 10
-42.97525099510766
 20
11.71057975886276
 30
0.0
 11
-42.97524301397919
 21
13.21436393853159
 31
0.0
  0
LINE
  5
7A05
330
1F
100
AcDbEntity
  8
AM_0
100
AcDbLine
 10
-42.97524301389818
 20
13.21437919732159
 30
0.0
 11
-42.9752370899236
 21
14.33055961722585
 31
0.0
  0
LINE
  5
7A07
330
1F
100
AcDbEntity
  8
AM_0
100
AcDbLine
 10
-42.97524212914874
 20
13.38108146782923
 30
0.0
 11
-42.97524149609732
 21
13.50035942192756
 31
0.0
  0
LINE
  5
7A08
330
1F
100
AcDbEntity
  8
AM_0
100
AcDbLine
 10
-42.97524398465257
 20
13.03147209283415
 30
0.0
 11
-42.97524212914874
 21
13.38108146782923
 31
0.0
  0
LINE
  5
7A09
330
1F
100
AcDbEntity
  8
AM_0
100
AcDbLine
 10
-42.97524693659787
 20
12.475273972722
 30
0.0
 11
-42.9752439847336
 21
13.03145683404415
 31
0.0
  0
LINE
  5
7A0A
330
1F
100
AcDbEntity
  8
AM_0
100
AcDbLine
 10
-42.97525078333467
 20
11.75048149226219
 30
0.0
 11
-42.97524693667889
 21
12.475258713932
 31
0.0
  0
LINE
  5
7A13
330
1F
100
AcDbEntity
  8
AM_0
100
AcDbLine
 10
-42.97526219530691
 20
12.47528923159299
 30
0.0
 11
-42.97526604236757
 21
11.75043571598321
 31
0.0
  0
LINE
  5
7A14
330
1F
100
AcDbEntity
  8
AM_0
100
AcDbLine
 10
-42.97526206184538
 20
12.50043571597263
 30
0.0
 11
-42.97527072259099
 21
10.86859977849562
 31
0.0
  0
LINE
  5
7A15
330
1F
100
AcDbEntity
  8
AM_0
100
AcDbLine
 10
-42.97526036830942
 20
12.81952751283814
 30
0.0
 11
-42.97526313342479
 21
12.29853141909546
 31
0.0
  0
LINE
  5
7A16
330
1F
100
AcDbEntity
  8
AM_0
100
AcDbLine
 10
-42.97525940816387
 20
13.0004357159656
 30
0.0
 11
-42.97526036830942
 21
12.81952751283814
 31
0.0
  0
LINE
  5
7A17
330
1F
100
AcDbEntity
  8
AM_0
100
AcDbLine
 10
-42.9752592436045
 20
13.03144157533515
 30
0.0
 11
-42.97526219530691
 21
12.47528923159299
 31
0.0
  0
LINE
  5
7A18
330
1F
100
AcDbEntity
  8
AM_0
100
AcDbLine
 10
-42.9752567544824
 20
13.50043571595856
 30
0.0
 11
-42.97525738810071
 21
13.38105095033023
 31
0.0
  0
LINE
  5
7A19
330
1F
100
AcDbEntity
  8
AM_0
100
AcDbLine
 10
-42.97525500263798
 20
13.8305138409539
 30
0.0
 11
-42.97526206184538
 21
12.50043571597263
 31
0.0
  0
LINE
  5
7A21
330
1F
100
AcDbEntity
  8
AM_0
100
AcDbLine
 10
-42.97523129155501
 20
15.42307365530048
 30
0.0
 11
-42.9752016908751
 21
21.00035942182191
 31
0.0
  0
LINE
  5
7A22
330
1F
100
AcDbEntity
  8
AM_0
100
AcDbLine
 10
-43.97522822759486
 20
16.00037998804533
 30
0.0
 11
-43.97519638341708
 21
22.00037998796083
 31
0.0
  0
LINE
  5
7A23
330
1F
100
AcDbEntity
  8
AM_0
100
AcDbLine
 10
-42.97524879343796
 20
15.00043571593742
 30
0.0
 11
-42.97525039368046
 21
14.69892204406167
 31
0.0
  0
LINE
  5
7A24
330
1F
100
AcDbEntity
  8
AM_0
100
AcDbLine
 10
-42.97529324402
 20
21.00028312836785
 30
0.0
 11
-43.97527267785295
 21
22.00028843563573
 31
0.0
  0
ARC
  5
7A25
330
1F
100
AcDbEntity
  8
AM_0
100
AcDbCircle
 10
3.999999999943387
 20
-0.0000212294516953
 30
0.0
 40
3.1599998474121
100
AcDbArc
 50
87.99977121467597
 51
179.9996599383203
  0
ARC
  5
7A26
330
1F
100
AcDbEntity
  8
AM_0
100
AcDbCircle
 10
3.999999999943387
 20
-0.0000212294516953
 30
0.0
 40
2.699999809265098
100
AcDbArc
 50
87.99974389391751
 51
179.9996462779486
  0
ARC
  5
7A27
330
1F
100
AcDbEntity
  8
AM_0
100
AcDbCircle
 10
3.999999999943387
 20
-0.0000212294516953
 30
0.0
 40
2.189999818801899
100
AcDbArc
 50
87.99960729013314
 51
179.9996599383203
  0
ARC
  5
7A28
330
1F
100
AcDbEntity
  8
AM_0
100
AcDbCircle
 10
3.999999999943387
 20
-0.0000212294516953
 30
0.0
 40
3.1599998474121
100
AcDbArc
 50
179.9996735987018
 51
271.9995759827241
  0
ARC
  5
7A29
330
1F
100
AcDbEntity
  8
AM_0
100
AcDbCircle
 10
3.999999999943387
 20
-0.0000212294516953
 30
0.0
 40
2.699999809265098
100
AcDbArc
 50
179.9996735987018
 51
271.9995759827241
  0
ARC
  5
7A2A
330
1F
100
AcDbEntity
  8
AM_0
100
AcDbCircle
 10
3.999999999943387
 20
-0.0000212294516953
 30
0.0
 40
2.189999818801899
100
AcDbArc
 50
179.9996735987018
 51
271.9997125865083
  0
ARC
  5
7A2B
330
1F
100
AcDbEntity
  8
AM_0
100
AcDbCircle
 10
3.999999999943387
 20
-0.0000212294516953
 30
0.0
 40
4.0
100
AcDbArc
 50
85.07808949530881
 51
274.0000564283542
  0
LINE
  5
7A2C
330
1F
100
AcDbEntity
  8
AM_7
100
AcDbLine
 10
-2.371292114216881
 20
0.0000125853081084
 30
0.0
 11
21.85788214576431
 21
-0.0001160077140061
 31
0.0
  0
ARC
  5
7A2F
330
1F
100
AcDbEntity
  8
AM_0
100
AcDbCircle
 10
2.759730297350191
 20
4.843735353177985
 30
0.0
 40
4.999998569488498
100
AcDbArc
 50
331.0283762061925
 51
348.7613299709199
  0
LINE
  5
7A30
330
1F
100
AcDbEntity
  8
AM_0
100
AcDbLine
 10
4.110292029584261
 20
3.158059239922957
 30
0.0
 11
6.56787214049598
 21
3.0722307669621
 31
0.0
  0
LINE
  5
7A31
330
1F
100
AcDbEntity
  8
AM_7
100
AcDbLine
 10
3.999973749811661
 20
-4.946005116102062
 30
0.0
 11
4.000025144482439
 21
4.737649668921571
 31
0.0
  0
LINE
  5
7A33
330
1F
100
AcDbEntity
  8
AM_0
100
AcDbLine
 10
20.99987859269282
 20
2.999888546064517
 30
0.0
 11
20.99990395289211
 21
7.778193599707213
 31
0.0
  0
LINE
  5
7A34
330
1F
100
AcDbEntity
  8
AM_0
100
AcDbLine
 10
19.99987859270692
 20
2.999893853427472
 30
0.0
 11
19.99990512952174
 21
7.999893853357043
 31
0.0
  0
LINE
  5
7A35
330
1F
100
AcDbEntity
  8
AM_0
100
AcDbLine
 10
19.86755435784297
 20
2.996858056700154
 30
0.0
 11
19.99720898197654
 21
3.127518379317854
 31
0.0
  0
LINE
  5
7A36
330
1F
100
AcDbEntity
  8
AM_0
100
AcDbLine
 10
8.993286780928917
 20
2.997114134635191
 30
0.0
 11
8.144093933038165
 21
3.852495838891919
 31
0.0
  0
LINE
  5
7A37
330
1F
100
AcDbEntity
  8
AM_0
100
AcDbLine
 10
17.60017328600508
 20
-3.000215480859985
 30
0.0
 11
18.40825354428373
 21
-2.000265545991133
 31
0.0
  0
LINE
  5
7A38
330
1F
100
AcDbEntity
  8
AM_0
100
AcDbLine
 10
9.530884452234378
 20
2.999949416179284
 30
0.0
 11
18.40837163471934
 21
2.99990230013254
 31
0.0
  0
LINE
  5
7A39
330
1F
100
AcDbEntity
  8
AM_0
100
AcDbLine
 10
8.992858207340363
 20
-3.003053709854687
 30
0.0
 11
20.90344170326256
 21
-3.003116923644448
 31
0.0
  0
LINE
  5
7A3B
330
1F
100
AcDbEntity
  8
AM_0
100
AcDbLine
 10
9.530852608056596
 20
-3.000050583736217
 30
0.0
 11
17.60023432180292
 21
-3.000093410873908
 31
0.0
  0
ARC
  5
7A3C
330
1F
100
AcDbEntity
  8
AM_0
100
AcDbCircle
 10
2.75967888259544
 20
-4.843703611525559
 30
0.0
 40
5.0
100
AcDbArc
 50
11.20527950338686
 51
28.97101561481083
  0
LINE
  5
7A3D
330
1F
100
AcDbEntity
  8
AM_0
100
AcDbLine
 10
4.094208701284516
 20
-2.698370728509464
 30
0.0
 11
6.090394373931022
 21
-2.628679174560422
 31
0.0
  0
LINE
  5
7A3E
330
1F
100
AcDbEntity
  8
AM_0
100
AcDbLine
 10
7.999985139335539
 20
-2.800030251834092
 30
0.0
 11
8.000014860438543
 21
2.799945334027036
 31
0.0
  0
LINE
  5
7A3F
330
1F
100
AcDbEntity
  8
AM_0
100
AcDbLine
 10
9.500152548033302
 20
-2.882557745018195
 30
0.0
 11
9.50018314546344
 21
2.882533197280601
 31
0.0
  0
LINE
  5
7A40
330
1F
100
AcDbEntity
  8
AM_0
100
AcDbLine
 10
8.000351334078745
 20
-2.803082011587652
 30
0.0
 11
8.987655104624257
 21
-0.1008320025090572
 31
0.0
  0
LINE
  5
7A41
330
1F
100
AcDbEntity
  8
AM_0
100
AcDbLine
 10
8.000351334321695
 20
-2.803036235217652
 30
0.0
 11
8.0003810554247
 21
2.796939350633472
 31
0.0
  0
LINE
  5
7A42
330
1F
100
AcDbEntity
  8
AM_0
100
AcDbLine
 10
4.11025850741942
 20
-3.158102869368085
 30
0.0
 11
6.567839529238429
 21
-3.072300482951353
 31
0.0
  0
LINE
  5
7A43
330
1F
100
AcDbEntity
  8
AM_0
100
AcDbLine
 10
3.999978770491511
 20
-4.000021229395361
 30
0.0
 11
8.147028489251628
 21
-3.855222072301378
 31
0.0
  0
LINE
  5
7A44
330
1F
100
AcDbEntity
  8
AM_0
100
AcDbLine
 10
9.530898384740542
 20
-2.999989548819164
 30
0.0
 11
9.500198324727252
 21
-2.882496710101142
 31
0.0
  0
LINE
  5
7A45
330
1F
100
AcDbEntity
  8
AM_0
100
AcDbLine
 10
8.147013230461627
 20
-3.855222072220405
 30
0.0
 11
8.992736136301491
 21
-3.003191038306815
 31
0.0
  0
LINE
  5
7A46
330
1F
100
AcDbEntity
  8
AM_0
100
AcDbLine
 10
8.000351334321695
 20
-2.803036235217652
 30
0.0
 11
9.500152970040575
 21
-2.803044195209301
 31
0.0
  0
LINE
  5
7A47
330
1F
100
AcDbEntity
  8
AM_0
100
AcDbLine
 10
4.094237343519584
 20
2.698327269454503
 30
0.0
 11
6.090422276215864
 21
2.628599267755541
 31
0.0
  0
ARC
  5
7A48
330
1F
100
AcDbEntity
  8
AM_0
100
AcDbCircle
 10
3.999999999943387
 20
-0.0000212294516953
 30
0.0
 40
1.209999799728399
100
AcDbArc
 50
87.99998978073137
 51
179.9996599383203
  0
ARC
  5
7A49
330
1F
100
AcDbEntity
  8
AM_0
100
AcDbCircle
 10
11.50833129850565
 20
-0.000091596471143
 30
0.0
 40
5.599999904632599
100
AcDbArc
 50
168.253455773574
 51
179.9993457496219
  0
ARC
  5
7A4A
330
1F
100
AcDbEntity
  8
AM_0
100
AcDbCircle
 10
11.5083312988296
 20
-0.0000305613111414
 30
0.0
 40
5.599999904632599
100
AcDbArc
 50
179.9999914298713
 51
191.7458814059165
  0
ARC
  5
7A4B
330
1F
100
AcDbEntity
  8
AM_0
100
AcDbCircle
 10
3.999999999943387
 20
-0.0000212294516953
 30
0.0
 40
1.209999799728399
100
AcDbArc
 50
179.9996735987018
 51
271.9993574166746
  0
LINE
  5
7A4C
330
1F
100
AcDbEntity
  8
AM_0
100
AcDbLine
 10
4.076473408034533
 20
2.188653291466985
 30
0.0
 11
5.959316076618254
 21
2.122893176466626
 31
0.0
  0
LINE
  5
7A4D
330
1F
100
AcDbEntity
  8
AM_0
100
AcDbLine
 10
4.04222748725937
 20
1.209237579648694
 30
0.0
 11
6.025610298355391
 21
1.139967409565266
 31
0.0
  0
LINE
  5
7A4E
330
1F
100
AcDbEntity
  8
AM_0
100
AcDbLine
 10
4.076434917060058
 20
-2.188696561910395
 30
0.0
 11
5.959278283563325
 21
-2.122956432772602
 31
0.0
  0
LINE
  5
7A4F
330
1F
100
AcDbEntity
  8
AM_0
100
AcDbLine
 10
4.042214651306156
 20
-1.209280486717223
 30
0.0
 11
6.025598197574314
 21
-1.140031369702645
 31
0.0
  0
ARC
  5
7A50
330
1F
100
AcDbEntity
  8
AM_0
100
AcDbCircle
 10
11.5083312988296
 20
-0.0000305613111414
 30
0.0
 40
5.0
100
AcDbArc
 50
151.0284017057142
 51
208.9709728124404
  0
LINE
  5
7A51
330
1F
100
AcDbEntity
  8
AM_0
100
AcDbLine
 10
9.50021366361034
 20
2.882640008648629
 30
0.0
 11
9.53091497020927
 21
3.000025709967311
 31
0.0
  0
LINE
  5
7A52
330
1F
100
AcDbEntity
  8
AM_0
100
AcDbLine
 10
9.003066824864934
 20
-0.0361500774637793
 30
0.0
 11
9.003067176173205
 21
0.0300425494853099
 31
0.0
  0
LINE
  5
7A53
330
1F
100
AcDbEntity
  8
AM_0
100
AcDbLine
 10
8.993088415778121
 20
2.996946289007987
 30
0.0
 11
9.530869177490531
 21
2.996943434810283
 31
0.0
  0
LINE
  5
7A54
330
1F
100
AcDbEntity
  8
AM_0
100
AcDbLine
 10
9.003097694725031
 20
0.0302256547933635
 30
0.0
 11
8.987701919289238
 21
0.094800931815237
 31
0.0
  0
LINE
  5
7A55
330
1F
100
AcDbEntity
  8
AM_0
100
AcDbLine
 10
8.98767140089939
 20
0.0946483440871842
 30
0.0
 11
9.50015309034217
 21
0.0946456241608555
 31
0.0
  0
LINE
  5
7A56
330
1F
100
AcDbEntity
  8
AM_0
100
AcDbLine
 10
8.987853470422951
 20
-0.1005420865718835
 30
0.0
 11
9.003188894941958
 21
-0.0361958544816534
 31
0.0
  0
LINE
  5
7A57
330
1F
100
AcDbEntity
  8
AM_0
100
AcDbLine
 10
8.987670363900152
 20
-0.100740449850085
 30
0.0
 11
9.500152053342935
 21
-0.1007431697764137
 31
0.0
  0
LINE
  5
7A58
330
1F
100
AcDbEntity
  8
AM_0
100
AcDbLine
 10
8.987473036315467
 20
0.0945873099899839
 30
0.0
 11
8.000182690840775
 21
2.796878316536272
 31
0.0
  0
LINE
  5
7A59
330
1F
100
AcDbEntity
  8
AM_0
100
AcDbLine
 10
8.000381055505673
 20
2.796954609423474
 30
0.0
 11
9.500182691224555
 21
2.796946649431824
 31
0.0
  0
LINE
  5
7A5A
330
1F
100
AcDbEntity
  8
AM_0
100
AcDbLine
 10
17.60028009817295
 20
-3.000093411116885
 30
0.0
 11
17.60031194235068
 21
2.999906588798616
 31
0.0
  0
LINE
  5
7A5B
330
1F
100
AcDbEntity
  8
AM_0
100
AcDbLine
 10
26.4714603924177
 20
-3.943805044483888
 30
0.0
 11
27.14736464775866
 21
-3.767630653240609
 31
0.0
  0
LINE
  5
7A5C
330
1F
100
AcDbEntity
  8
AM_0
100
AcDbLine
 10
21.79809024106388
 20
-3.904229459961662
 30
0.0
 11
22.94658856078044
 21
-3.944823934369672
 31
0.0
  0
LINE
  5
7A5D
330
1F
100
AcDbEntity
  8
AM_0
100
AcDbLine
 10
21.79802920574189
 20
-3.904259977217712
 30
0.0
 11
20.90351799753651
 21
-3.003055888889342
 31
0.0
  0
LINE
  5
7A5E
330
1F
100
AcDbEntity
  8
AM_0
100
AcDbLine
 10
19.99737411657565
 20
-3.133528984926777
 30
0.0
 11
21.7980597234029
 21
-3.904244718589687
 31
0.0
  0
LINE
  5
7A5F
330
1F
100
AcDbEntity
  8
AM_0
100
AcDbLine
 10
19.86755303140716
 20
-3.003111425807297
 30
0.0
 11
20.90344170326256
 21
-3.003116923644448
 31
0.0
  0
LINE
  5
7A60
330
1F
100
AcDbEntity
  8
AM_0
100
AcDbLine
 10
19.99720626916681
 20
-3.133666313135954
 30
0.0
 11
19.86750725471324
 21
-3.003172460714345
 31
0.0
  0
LINE
  5
7A61
330
1F
100
AcDbEntity
  8
AM_0
100
AcDbLine
 10
25.77208873933811
 20
-4.003188539695507
 30
0.0
 11
26.4712467694487
 21
-3.943789784560117
 31
0.0
  0
LINE
  5
7A62
330
1F
100
AcDbEntity
  8
AM_0
100
AcDbLine
 10
22.94652752546846
 20
-3.944854451625752
 30
0.0
 11
23.8839409863495
 21
-3.000203054735913
 31
0.0
  0
LINE
  5
7A63
330
1F
100
AcDbEntity
  8
AM_0
100
AcDbLine
 10
22.98626162533761
 20
-3.904693529688465
 30
0.0
 11
25.77242443318398
 21
-4.003096988747181
 31
0.0
  0
LINE
  5
7A64
330
1F
100
AcDbEntity
  8
AM_0
100
AcDbLine
 10
19.99987859270692
 20
2.999893853427472
 30
0.0
 11
20.99987859269282
 21
2.999888546064517
 31
0.0
  0
LINE
  5
7A65
330
1F
100
AcDbEntity
  8
AM_0
100
AcDbLine
 10
19.99987859270692
 20
2.999893853427472
 30
0.0
 11
20.99987859269282
 21
2.999888546064517
 31
0.0
  0
LINE
  5
7A66
330
1F
100
AcDbEntity
  8
AM_0
100
AcDbLine
 10
19.84388799212911
 20
2.999894681326202
 30
0.0
 11
19.86758489153879
 21
2.999894555558149
 31
0.0
  0
LINE
  5
7A67
330
1F
100
AcDbEntity
  8
AM_0
100
AcDbLine
 10
19.76698369525018
 20
2.999895089485227
 30
0.0
 11
19.84388799212911
 21
2.999894681326202
 31
0.0
  0
LINE
  5
7A68
330
1F
100
AcDbEntity
  8
AM_0
100
AcDbLine
 10
19.68008489154141
 20
2.999895550688712
 30
0.0
 11
19.76698369525018
 21
2.999895089485227
 31
0.0
  0
LINE
  5
7A69
330
1F
100
AcDbEntity
  8
AM_0
100
AcDbLine
 10
19.60928411029243
 20
2.999895926454151
 30
0.0
 11
19.68008489154141
 21
2.999895550688712
 31
0.0
  0
LINE
  5
7A6A
330
1F
100
AcDbEntity
  8
AM_0
100
AcDbLine
 10
19.54438848041334
 20
2.999896270878828
 30
0.0
 11
19.60926885150243
 21
2.999895926535123
 31
0.0
  0
LINE
  5
7A6B
330
1F
100
AcDbEntity
  8
AM_0
100
AcDbLine
 10
19.45768804095456
 20
2.999896731029514
 30
0.0
 11
19.52946538470354
 21
2.999896350081093
 31
0.0
  0
LINE
  5
7A6C
330
1F
100
AcDbEntity
  8
AM_0
100
AcDbLine
 10
18.40838689350934
 20
2.999902300051565
 30
0.0
 11
19.99986333391692
 21
2.999893853508445
 31
0.0
  0
LINE
  5
7A6D
330
1F
100
AcDbEntity
  8
AM_0
100
AcDbLine
 10
18.40836035669454
 20
-2.000097699878004
 30
0.0
 11
18.40838689350934
 21
2.999902300051565
 31
0.0
  0
LINE
  5
7A6E
330
1F
100
AcDbEntity
  8
AM_0
100
AcDbLine
 10
30.49581842807132
 20
-3.000161852419375
 30
0.0
 11
31.11715631868257
 21
-3.000165150085103
 31
0.0
  0
LINE
  5
7A6F
330
1F
100
AcDbEntity
  8
AM_0
100
AcDbLine
 10
29.7724297562015
 20
-3.000158013133152
 30
0.0
 11
30.49581842807132
 21
-3.000161852419375
 31
0.0
  0
LINE
  5
7A70
330
1F
100
AcDbEntity
  8
AM_0
100
AcDbLine
 10
29.02926569371198
 20
-3.000154068891725
 30
0.0
 11
29.7724297562015
 21
-3.000158013133152
 31
0.0
  0
LINE
  5
7A71
330
1F
100
AcDbEntity
  8
AM_0
100
AcDbLine
 10
28.35119515678849
 20
-3.088437823646494
 30
0.0
 11
28.44094782149648
 21
-3.000364569525253
 31
0.0
  0
LINE
  5
7A72
330
1F
100
AcDbEntity
  8
AM_0
100
AcDbLine
 10
27.78033126445443
 20
-3.479578592690125
 30
0.0
 11
28.35110360373457
 21
-3.088498858310594
 31
0.0
  0
LINE
  5
7A73
330
1F
100
AcDbEntity
  8
AM_0
100
AcDbLine
 10
27.14754775330965
 20
-3.767615395422432
 30
0.0
 11
27.78014815882248
 21
-3.479609109298331
 31
0.0
  0
LINE
  5
7A74
330
1F
100
AcDbEntity
  8
AM_0
100
AcDbLine
 10
31.89376764680162
 20
-3.000169271843327
 30
0.0
 11
31.99630670930017
 21
-3.000169816055342
 31
0.0
  0
LINE
  5
7A75
330
1F
100
AcDbEntity
  8
AM_0
100
AcDbLine
 10
31.59396295930586
 20
-3.000167680671034
 30
0.0
 11
31.89376764680162
 21
-3.000169271843327
 31
0.0
  0
LINE
  5
7A76
330
1F
100
AcDbEntity
  8
AM_0
100
AcDbLine
 10
31.11715631868257
 20
-3.000165150085103
 30
0.0
 11
31.59396295930586
 21
-3.000167680671034
 31
0.0
  0
LINE
  5
7A77
330
1F
100
AcDbEntity
  8
AM_0
100
AcDbLine
 10
4.343191317179906
 20
3.985236958933549
 30
0.0
 11
8.144093932957165
 21
3.852480580101918
 31
0.0
  0
LINE
  5
7A78
330
1F
100
AcDbEntity
  8
AM_0
100
AcDbLine
 10
20.99990395289211
 20
7.778193599707213
 30
0.0
 11
25.87779760548009
 21
18.23870848259242
 31
0.0
  0
LINE
  5
7A79
330
1F
100
AcDbEntity
  8
AM_0
100
AcDbLine
 10
19.99990512952174
 20
7.999893853357043
 30
0.0
 11
25.10466904014016
 21
18.94694928020633
 31
0.0
  0
LINE
  5
7A7A
330
1F
100
AcDbEntity
  8
AM_0
100
AcDbLine
 10
30.7793905461293
 20
14.77417441136078
 30
0.0
 11
32.00009131302195
 21
14.32986251273247
 31
0.0
  0
LINE
  5
7A7B
330
1F
100
AcDbEntity
  8
AM_0
100
AcDbLine
 10
26.99990820843224
 20
14.33004163840909
 30
0.0
 11
28.22046110272437
 21
14.77417273374815
 31
0.0
  0
LINE
  5
7A7C
330
1F
100
AcDbEntity
  8
AM_0
100
AcDbLine
 10
26.34324298652181
 20
10.84556331200071
 30
0.0
 11
26.66963266737728
 21
11.63367803482334
 31
0.0
  0
LINE
  5
7A7D
330
1F
100
AcDbEntity
  8
AM_0
100
AcDbLine
 10
26.66961532361546
 20
8.365809992879354
 30
0.0
 11
26.34320349130604
 21
9.154019733086505
 31
0.0
  0
LINE
  5
7A7E
330
1F
100
AcDbEntity
  8
AM_0
100
AcDbLine
 10
26.0048781421645
 20
13.49507072309305
 30
0.0
 11
26.99981665513536
 21
14.32993482737501
 31
0.0
  0
LINE
  5
7A7F
330
1F
100
AcDbEntity
  8
AM_0
100
AcDbLine
 10
26.00471897198153
 20
6.504805831269385
 30
0.0
 11
26.99980121036577
 21
5.669824353705029
 31
0.0
  0
LINE
  5
7A80
330
1F
100
AcDbEntity
  8
AM_0
100
AcDbLine
 10
24.72537282192121
 20
8.720617674964989
 30
0.0
 11
24.50003781473725
 21
9.999915745917665
 31
0.0
  0
LINE
  5
7A81
330
1F
100
AcDbEntity
  8
AM_0
100
AcDbLine
 10
19.99990512952174
 20
7.999893853357043
 30
0.0
 11
20.99991921168211
 21
7.778193599626241
 31
0.0
  0
LINE
  5
7A82
330
1F
100
AcDbEntity
  8
AM_0
100
AcDbLine
 10
19.99988655375136
 20
4.499893853406354
 30
0.0
 11
19.99989451422894
 21
5.99978704186521
 31
0.0
  0
LINE
  5
7A83
330
1F
100
AcDbEntity
  8
AM_0
100
AcDbLine
 10
19.99989451422894
 20
5.99978704186521
 30
0.0
 11
19.99989716791043
 21
6.49978704185819
 31
0.0
  0
LINE
  5
7A84
330
1F
100
AcDbEntity
  8
AM_0
100
AcDbLine
 10
19.99987927629229
 20
3.128693291905654
 30
0.0
 11
19.99988655367036
 21
4.499878594616355
 31
0.0
  0
LINE
  5
7A85
330
1F
100
AcDbEntity
  8
AM_0
100
AcDbLine
 10
25.80428041194517
 20
6.673080820851971
 30
0.0
 11
26.00468845432053
 21
6.504790572641359
 31
0.0
  0
LINE
  5
7A86
330
1F
100
AcDbEntity
  8
AM_0
100
AcDbLine
 10
25.66960693814829
 20
6.785843986784561
 30
0.0
 11
25.80409730582731
 21
6.67295875150376
 31
0.0
  0
LINE
  5
7A87
330
1F
100
AcDbEntity
  8
AM_0
100
AcDbLine
 10
25.52385632377577
 20
7.038087802329533
 30
0.0
 11
25.66960693839125
 21
6.785889763154563
 31
0.0
  0
LINE
  5
7A88
330
1F
100
AcDbEntity
  8
AM_0
100
AcDbLine
 10
25.80415834139222
 20
6.67303504512984
 30
0.0
 11
25.52388684159871
 21
7.03813357853756
 31
0.0
  0
LINE
  5
7A89
330
1F
100
AcDbEntity
  8
AM_0
100
AcDbLine
 10
25.52379528869674
 20
7.038103061443456
 30
0.0
 11
25.23549838014162
 21
7.537784156976819
 31
0.0
  0
LINE
  5
7A8A
330
1F
100
AcDbEntity
  8
AM_0
100
AcDbLine
 10
25.23558993327654
 20
7.537860450440923
 30
0.0
 11
24.94701836659241
 21
8.037556806212
 31
0.0
  0
LINE
  5
7A8B
330
1F
100
AcDbEntity
  8
AM_0
100
AcDbLine
 10
24.94686577805454
 20
8.037434736711848
 30
0.0
 11
24.80135930405902
 21
8.289632774601079
 31
0.0
  0
LINE
  5
7A8C
330
1F
100
AcDbEntity
  8
AM_0
100
AcDbLine
 10
24.77099523291607
 20
8.462804932826662
 30
0.0
 11
24.80151189283985
 21
8.289800620471229
 31
0.0
  0
LINE
  5
7A8D
330
1F
100
AcDbEntity
  8
AM_0
100
AcDbLine
 10
24.94698784893144
 20
8.037541547593979
 30
0.0
 11
24.77096471493116
 21
8.462728639038635
 31
0.0
  0
LINE
  5
7A8E
330
1F
100
AcDbEntity
  8
AM_0
100
AcDbLine
 10
24.77087316227216
 20
8.462743898314533
 30
0.0
 11
24.72522023362629
 21
8.720541381824807
 31
0.0
  0
LINE
  5
7A8F
330
1F
100
AcDbEntity
  8
AM_0
100
AcDbLine
 10
26.23187985443713
 20
9.99966241377337
 30
0.0
 11
26.34318195047099
 21
10.84539546564466
 31
0.0
  0
LINE
  5
7A90
330
1F
100
AcDbEntity
  8
AM_0
100
AcDbLine
 10
26.34298986825604
 20
9.154019734220275
 30
0.0
 11
26.23166623219698
 21
9.99981500279714
 31
0.0
  0
LINE
  5
7A91
330
1F
100
AcDbEntity
  8
AM_0
100
AcDbLine
 10
25.80422417266359
 20
13.32675208589416
 30
0.0
 11
26.00478658861468
 21
13.49491813568898
 31
0.0
  0
LINE
  5
7A92
330
1F
100
AcDbEntity
  8
AM_0
100
AcDbLine
 10
25.66967157142438
 20
13.21383776094205
 30
0.0
 11
25.80413261959968
 21
13.32669105122006
 31
0.0
  0
LINE
  5
7A93
330
1F
100
AcDbEntity
  8
AM_0
100
AcDbLine
 10
25.52407086672225
 20
12.96145816260429
 30
0.0
 11
25.66970208819452
 21
13.21368517289007
 31
0.0
  0
LINE
  5
7A94
330
1F
100
AcDbEntity
  8
AM_0
100
AcDbLine
 10
25.5239487961693
 20
12.96141238688216
 30
0.0
 11
25.80407158355885
 21
13.326523204864
 31
0.0
  0
LINE
  5
7A95
330
1F
100
AcDbEntity
  8
AM_0
100
AcDbLine
 10
25.23567710203236
 20
12.46188693929762
 30
0.0
 11
25.52391827818437
 21
12.96133609310414
 31
0.0
  0
LINE
  5
7A96
330
1F
100
AcDbEntity
  8
AM_0
100
AcDbLine
 10
24.94706971404952
 20
11.96226994076476
 30
0.0
 11
25.23561606654846
 21
12.46182590447157
 31
0.0
  0
LINE
  5
7A97
330
1F
100
AcDbEntity
  8
AM_0
100
AcDbLine
 10
24.80149952667441
 20
11.70984456589503
 30
0.0
 11
24.94688660687887
 21
11.96194950716656
 31
0.0
  0
LINE
  5
7A98
330
1F
100
AcDbEntity
  8
AM_0
100
AcDbLine
 10
24.77101154866787
 20
11.53697790641333
 30
0.0
 11
24.80153004425441
 21
11.70984456573304
 31
0.0
  0
LINE
  5
7A99
330
1F
100
AcDbEntity
  8
AM_0
100
AcDbLine
 10
24.77095051318393
 20
11.53691687157729
 30
0.0
 11
24.94688660663593
 21
11.96190373079657
 31
0.0
  0
LINE
  5
7A9A
330
1F
100
AcDbEntity
  8
AM_0
100
AcDbLine
 10
24.72566105902102
 20
11.27911987073122
 30
0.0
 11
24.77104206567098
 21
11.5368710947314
 31
0.0
  0
LINE
  5
7A9B
330
1F
100
AcDbEntity
  8
AM_0
100
AcDbLine
 10
24.50003781457528
 20
9.999885228337666
 30
0.0
 11
24.72563054200791
 21
11.2792266824232
 31
0.0
  0
LINE
  5
7A9C
330
1F
100
AcDbEntity
  8
AM_0
100
AcDbLine
 10
34.27423146396183
 20
8.720490701756236
 30
0.0
 11
34.50003781419151
 21
9.999786378338004
 31
0.0
  0
LINE
  5
7A9D
330
1F
100
AcDbEntity
  8
AM_0
100
AcDbLine
 10
32.3300462314218
 20
8.365718915757955
 30
0.0
 11
32.6564359122773
 21
9.153833638580524
 31
0.0
  0
LINE
  5
7A9E
330
1F
100
AcDbEntity
  8
AM_0
100
AcDbLine
 10
30.94344495615614
 20
7.49983577201204
 30
0.0
 11
32.38678708188223
 21
9.999812852916681
 31
0.0
  0
LINE
  5
7A9F
330
1F
100
AcDbEntity
  8
AM_0
100
AcDbLine
 10
28.05654310032191
 20
7.499774799898011
 30
0.0
 11
26.61295285304862
 21
9.999767202810636
 31
0.0
  0
LINE
  5
7AA0
330
1F
100
AcDbEntity
  8
AM_0
100
AcDbLine
 10
30.5331235715933
 20
5.135824277823252
 30
0.0
 11
30.77906520891355
 21
5.225361546742993
 31
0.0
  0
LINE
  5
7AA1
330
1F
100
AcDbEntity
  8
AM_0
100
AcDbLine
 10
30.34560211555104
 20
6.843176957671721
 30
0.0
 11
31.13368978593414
 21
7.169680343359038
 31
0.0
  0
LINE
  5
7AA2
330
1F
100
AcDbEntity
  8
AM_0
100
AcDbLine
 10
28.05666517103681
 20
7.49985109320014
 30
0.0
 11
30.94338392099613
 21
7.499835772335989
 31
0.0
  0
LINE
  5
7AA3
330
1F
100
AcDbEntity
  8
AM_0
100
AcDbLine
 10
30.36802315526387
 20
5.075781819110238
 30
0.0
 11
30.53300150087839
 21
5.135747984531155
 31
0.0
  0
LINE
  5
7AA4
330
1F
100
AcDbEntity
  8
AM_0
100
AcDbLine
 10
30.0769159778619
 20
5.075844399281697
 30
0.0
 11
30.36817574347779
 21
5.07584285346042
 31
0.0
  0
LINE
  5
7AA5
330
1F
100
AcDbEntity
  8
AM_0
100
AcDbLine
 10
30.07676338980997
 20
5.075813882511545
 30
0.0
 11
30.53303201878234
 21
5.135809019529153
 31
0.0
  0
LINE
  5
7AA6
330
1F
100
AcDbEntity
  8
AM_0
100
AcDbLine
 10
29.49944063603422
 20
6.7318533235563
 30
0.0
 11
30.34517486913714
 21
6.843115924779287
 31
0.0
  0
LINE
  5
7AA7
330
1F
100
AcDbEntity
  8
AM_0
100
AcDbLine
 10
29.49976754037001
 20
5.075847462417931
 30
0.0
 11
30.0769159778619
 21
5.075844399281697
 31
0.0
  0
LINE
  5
7AA8
330
1F
100
AcDbEntity
  8
AM_0
100
AcDbLine
 10
28.92286324349814
 20
5.075850524258448
 30
0.0
 11
29.49976754037001
 21
5.075847462417931
 31
0.0
  0
LINE
  5
7AA9
330
1F
100
AcDbEntity
  8
AM_0
100
AcDbLine
 10
28.653982241958
 20
6.843079124182401
 30
0.0
 11
29.49968477624927
 21
6.731777028310551
 31
0.0
  0
LINE
  5
7AAA
330
1F
100
AcDbEntity
  8
AM_0
100
AcDbLine
 10
28.92286324349814
 20
5.075850524258448
 30
0.0
 11
28.63160347788226
 21
5.075852070079725
 31
0.0
  0
LINE
  5
7AAB
330
1F
100
AcDbEntity
  8
AM_0
100
AcDbLine
 10
28.46635111092539
 20
5.135881023304852
 30
0.0
 11
28.92261910304013
 21
5.075881043134193
 31
0.0
  0
LINE
  5
7AAC
330
1F
100
AcDbEntity
  8
AM_0
100
AcDbLine
 10
28.46650369760061
 20
5.135652140665063
 30
0.0
 11
28.63151192408947
 21
5.075653706305649
 31
0.0
  0
LINE
  5
7AAD
330
1F
100
AcDbEntity
  8
AM_0
100
AcDbLine
 10
28.22044094096467
 20
5.225298832350665
 30
0.0
 11
28.46653421550455
 21
5.135713175653085
 31
0.0
  0
LINE
  5
7AAE
330
1F
100
AcDbEntity
  8
AM_0
100
AcDbLine
 10
27.86586751938834
 20
7.169514581417907
 30
0.0
 11
28.65395172398308
 21
6.843002830404378
 31
0.0
  0
LINE
  5
7AAF
330
1F
100
AcDbEntity
  8
AM_0
100
AcDbLine
 10
27.18892935828291
 20
7.688957871441721
 30
0.0
 11
27.86589803784918
 21
7.169682427935931
 31
0.0
  0
LINE
  5
7AB0
330
1F
100
AcDbEntity
  8
AM_0
100
AcDbLine
 10
26.99980120955592
 20
5.669671765815031
 30
0.0
 11
28.22050197644863
 21
5.225359867176711
 31
0.0
  0
LINE
  5
7AB1
330
1F
100
AcDbEntity
  8
AM_0
100
AcDbLine
 10
27.1890209114988
 20
7.689049423695826
 30
0.0
 11
26.66973739417841
 21
8.365855768591478
 31
0.0
  0
LINE
  5
7AB2
330
1F
100
AcDbEntity
  8
AM_0
100
AcDbLine
 10
34.22857579829205
 20
8.462586891333819
 30
0.0
 11
34.27395680494201
 21
8.72033811532396
 31
0.0
  0
LINE
  5
7AB3
330
1F
100
AcDbEntity
  8
AM_0
100
AcDbLine
 10
34.19808781915174
 20
8.28950660880216
 30
0.0
 11
34.22857579715828
 21
8.462373268283817
 31
0.0
  0
LINE
  5
7AB4
330
1F
100
AcDbEntity
  8
AM_0
100
AcDbLine
 10
34.05267022080037
 20
8.03729485617257
 30
0.0
 11
34.19811833599286
 21
8.289369279540187
 31
0.0
  0
LINE
  5
7AB5
330
1F
100
AcDbEntity
  8
AM_0
100
AcDbLine
 10
34.05273125604135
 20
8.037310114638648
 30
0.0
 11
34.22869786706335
 21
8.462296973695947
 31
0.0
  0
LINE
  5
7AB6
330
1F
100
AcDbEntity
  8
AM_0
100
AcDbLine
 10
33.76409335015459
 20
7.537632081107719
 30
0.0
 11
34.05267022023347
 21
8.037188044642567
 31
0.0
  0
LINE
  5
7AB7
330
1F
100
AcDbEntity
  8
AM_0
100
AcDbLine
 10
33.47554699708883
 20
7.037969305880925
 30
0.0
 11
33.76406283216969
 21
7.537555787319695
 31
0.0
  0
LINE
  5
7AB8
330
1F
100
AcDbEntity
  8
AM_0
100
AcDbLine
 10
33.32997681028056
 20
6.78565074253118
 30
0.0
 11
33.47536389040406
 21
7.037740425012719
 31
0.0
  0
LINE
  5
7AB9
330
1F
100
AcDbEntity
  8
AM_0
100
AcDbLine
 10
33.19557679783218
 20
6.672904263459264
 30
0.0
 11
33.33003784600747
 21
6.785757553727255
 31
0.0
  0
LINE
  5
7ABA
330
1F
100
AcDbEntity
  8
AM_0
100
AcDbLine
 10
33.19551576259121
 20
6.672889004993185
 30
0.0
 11
33.4755469977367
 21
7.038091376190925
 31
0.0
  0
LINE
  5
7ABB
330
1F
100
AcDbEntity
  8
AM_0
100
AcDbLine
 10
32.99516697000406
 20
6.504783989214564
 30
0.0
 11
33.19548524484924
 21
6.672858487575161
 31
0.0
  0
LINE
  5
7ABC
330
1F
100
AcDbEntity
  8
AM_0
100
AcDbLine
 10
31.99983172730848
 20
5.669691005198221
 30
0.0
 11
32.9950448989652
 21
6.504646660752433
 31
0.0
  0
LINE
  5
7ABD
330
1F
100
AcDbEntity
  8
AM_0
100
AcDbLine
 10
31.81038931867189
 20
7.688841790946275
 30
0.0
 11
32.32983260715704
 21
8.365490035051726
 31
0.0
  0
LINE
  5
7ABE
330
1F
100
AcDbEntity
  8
AM_0
100
AcDbLine
 10
31.13381185648709
 20
7.169726119081167
 30
0.0
 11
31.81057242502272
 21
7.689009636654452
 31
0.0
  0
LINE
  5
7ABF
330
1F
100
AcDbEntity
  8
AM_0
100
AcDbLine
 10
30.77927883261143
 20
5.225483615929227
 30
0.0
 11
31.99955706869357
 21
5.669614712715917
 31
0.0
  0
LINE
  5
7AC0
330
1F
100
AcDbEntity
  8
AM_0
100
AcDbLine
 10
30.34566613877516
 20
13.15622627382087
 30
0.0
 11
31.13375034336995
 21
12.82971452280733
 31
0.0
  0
LINE
  5
7AC1
330
1F
100
AcDbEntity
  8
AM_0
100
AcDbLine
 10
28.05644756723166
 20
12.49985109442546
 30
0.0
 11
30.94341045781098
 21
12.49983577226556
 31
0.0
  0
LINE
  5
7AC2
330
1F
100
AcDbEntity
  8
AM_0
100
AcDbLine
 10
29.49984153457879
 20
13.26760466429062
 30
0.0
 11
30.34551355129009
 21
13.15630256858069
 31
0.0
  0
LINE
  5
7AC3
330
1F
100
AcDbEntity
  8
AM_0
100
AcDbLine
 10
28.65380212593886
 20
13.15638784104727
 30
0.0
 11
29.49953635904178
 21
13.26765044228029
 31
0.0
  0
LINE
  5
7AC4
330
1F
100
AcDbEntity
  8
AM_0
100
AcDbLine
 10
27.86592807859581
 20
12.8298844542162
 30
0.0
 11
28.65398523132789
 21
13.15637258128544
 31
0.0
  0
LINE
  5
7AC5
330
1F
100
AcDbEntity
  8
AM_0
100
AcDbLine
 10
27.18919802755915
 20
12.31058567770088
 30
0.0
 11
27.86595859609479
 21
12.82986919526423
 31
0.0
  0
LINE
  5
7AC6
330
1F
100
AcDbEntity
  8
AM_0
100
AcDbLine
 10
26.66966318584809
 20
11.63384588134133
 30
0.0
 11
27.18907595676325
 21
12.31049412560875
 31
0.0
  0
LINE
  5
7AC7
330
1F
100
AcDbEntity
  8
AM_0
100
AcDbLine
 10
26.61304440569765
 20
9.999751943534738
 30
0.0
 11
28.05638653142379
 21
12.4997290244394
 31
0.0
  0
LINE
  5
7AC8
330
1F
100
AcDbEntity
  8
AM_0
100
AcDbLine
 10
34.49982419179938
 20
9.999908449781775
 30
0.0
 11
34.27424504399543
 21
11.2792065220302
 31
0.0
  0
LINE
  5
7AC9
330
1F
100
AcDbEntity
  8
AM_0
100
AcDbLine
 10
34.27427556108947
 20
11.27911496913825
 30
0.0
 11
34.22865314944679
 21
11.53680564096658
 31
0.0
  0
LINE
  5
7ACA
330
1F
100
AcDbEntity
  8
AM_0
100
AcDbLine
 10
34.22871418467776
 20
11.53682089943266
 30
0.0
 11
34.19819752515892
 21
11.70990150572809
 31
0.0
  0
LINE
  5
7ACB
330
1F
100
AcDbEntity
  8
AM_0
100
AcDbLine
 10
34.05275208745719
 20
11.96231316633335
 30
0.0
 11
34.19825856039993
 21
11.70991676419414
 31
0.0
  0
LINE
  5
7ACC
330
1F
100
AcDbEntity
  8
AM_0
100
AcDbLine
 10
34.22862263162381
 20
11.53675986475855
 30
0.0
 11
34.05259949924323
 21
11.96225213199321
 31
0.0
  0
LINE
  5
7ACD
330
1F
100
AcDbEntity
  8
AM_0
100
AcDbLine
 10
34.05278260518916
 20
11.96234368375139
 30
0.0
 11
33.76421103801915
 21
12.46194848680247
 31
0.0
  0
LINE
  5
7ACE
330
1F
100
AcDbEntity
  8
AM_0
100
AcDbLine
 10
33.76418052004423
 20
12.46187219301445
 30
0.0
 11
33.47585309349419
 21
12.96147699476978
 31
0.0
  0
LINE
  5
7ACF
330
1F
100
AcDbEntity
  8
AM_0
100
AcDbLine
 10
33.47563946995829
 20
12.96138544316355
 30
0.0
 11
33.32988885534272
 21
13.21358348234853
 31
0.0
  0
LINE
  5
7AD0
330
1F
100
AcDbEntity
  8
AM_0
100
AcDbLine
 10
33.19552055862162
 20
13.32659078728145
 30
0.0
 11
33.3300109257337
 21
13.21359874049065
 31
0.0
  0
LINE
  5
7AD1
330
1F
100
AcDbEntity
  8
AM_0
100
AcDbLine
 10
33.19545952355261
 20
13.32660604639537
 30
0.0
 11
33.47573102277926
 21
12.96140070146766
 31
0.0
  0
LINE
  5
7AD2
330
1F
100
AcDbEntity
  8
AM_0
100
AcDbLine
 10
32.99511251593229
 20
13.49482000034201
 30
0.0
 11
33.19555107636359
 21
13.32662130469947
 31
0.0
  0
LINE
  5
7AD3
330
1F
100
AcDbEntity
  8
AM_0
100
AcDbLine
 10
32.65643591308711
 20
9.153986226470525
 30
0.0
 11
32.76776852670096
 21
9.999719278179872
 31
0.0
  0
LINE
  5
7AD4
330
1F
100
AcDbEntity
  8
AM_0
100
AcDbLine
 10
32.7675854216459
 20
9.999795573091665
 30
0.0
 11
32.6562617855868
 21
10.84559084167853
 31
0.0
  0
LINE
  5
7AD5
330
1F
100
AcDbEntity
  8
AM_0
100
AcDbLine
 10
32.65635333799288
 20
10.84552980603262
 30
0.0
 11
32.32994150568346
 21
11.63373954623981
 31
0.0
  0
LINE
  5
7AD6
330
1F
100
AcDbEntity
  8
AM_0
100
AcDbLine
 10
32.00009131342689
 20
14.32993880668247
 30
0.0
 11
32.99517355173015
 21
13.49494207032807
 31
0.0
  0
LINE
  5
7AD7
330
1F
100
AcDbEntity
  8
AM_0
100
AcDbLine
 10
32.3300635762364
 20
11.6337853219619
 30
0.0
 11
31.81053591828604
 21
12.31059166816331
 31
0.0
  0
LINE
  5
7AD8
330
1F
100
AcDbEntity
  8
AM_0
100
AcDbLine
 10
31.13375034409879
 20
12.82985185190734
 30
0.0
 11
31.81050540062507
 21
12.31057640953525
 31
0.0
  0
LINE
  5
7AD9
330
1F
100
AcDbEntity
  8
AM_0
100
AcDbLine
 10
32.38666501141029
 20
9.999782335984553
 30
0.0
 11
30.94331890475704
 21
12.49977473759146
 31
0.0
  0
LINE
  5
7ADA
330
1F
100
AcDbEntity
  8
AM_0
100
AcDbLine
 10
25.10466904030212
 20
18.94697979778633
 30
0.0
 11
30.39206927515408
 21
21.99964033430712
 31
0.0
  0
LINE
  5
7ADB
330
1F
100
AcDbEntity
  8
AM_0
100
AcDbLine
 10
25.87779760548009
 20
18.23870848259242
 30
0.0
 11
30.65997778647134
 21
20.99969994756532
 31
0.0
  0
LINE
  5
7ADC
330
1F
100
AcDbEntity
  8
AM_0
100
AcDbLine
 10
25.10466904022116
 20
18.94696453899633
 30
0.0
 11
25.87776708790009
 21
18.23870848275439
 31
0.0
  0
LINE
  5
7ADD
330
1F
100
AcDbEntity
  8
AM_0
100
AcDbLine
 10
30.53360244761237
 20
14.86380584280871
 30
0.0
 11
30.77945158193717
 21
14.77429648135686
 31
0.0
  0
LINE
  5
7ADE
330
1F
100
AcDbEntity
  8
AM_0
100
AcDbLine
 10
30.3682280098596
 20
14.92374324395172
 30
0.0
 11
30.53351089407256
 21
14.86365325540462
 31
0.0
  0
LINE
  5
7ADF
330
1F
100
AcDbEntity
  8
AM_0
100
AcDbLine
 10
30.07660203330372
 20
14.92374479171662
 30
0.0
 11
30.53338882376256
 21
14.86365325605248
 31
0.0
  0
LINE
  5
7AE0
330
1F
100
AcDbEntity
  8
AM_0
100
AcDbLine
 10
30.07672410409961
 20
14.92383634379874
 30
0.0
 11
30.3682280103455
 21
14.92383479668172
 31
0.0
  0
LINE
  5
7AE1
330
1F
100
AcDbEntity
  8
AM_0
100
AcDbLine
 10
29.49981980723772
 20
14.92383940563923
 30
0.0
 11
30.07672410409961
 21
14.92383634379874
 31
0.0
  0
LINE
  5
7AE2
330
1F
100
AcDbEntity
  8
AM_0
100
AcDbLine
 10
28.92315965099585
 20
14.923842466184
 30
0.0
 11
29.49981980723772
 21
14.92383940563923
 31
0.0
  0
LINE
  5
7AE3
330
1F
100
AcDbEntity
  8
AM_0
100
AcDbLine
 10
28.63144212234784
 20
14.92396608474479
 30
0.0
 11
28.92294602802684
 21
14.92385772610776
 31
0.0
  0
LINE
  5
7AE4
330
1F
100
AcDbEntity
  8
AM_0
100
AcDbLine
 10
28.46652481043557
 20
14.86372526079998
 30
0.0
 11
28.63144212186194
 21
14.92387453201479
 31
0.0
  0
LINE
  5
7AE5
330
1F
100
AcDbEntity
  8
AM_0
100
AcDbLine
 10
28.46658584575756
 20
14.86375577805605
 30
0.0
 11
28.92309861583584
 21
14.92384246650791
 31
0.0
  0
LINE
  5
7AE6
330
1F
100
AcDbEntity
  8
AM_0
100
AcDbLine
 10
28.22079679689418
 20
14.77432531985648
 30
0.0
 11
28.46649429310853
 21
14.86377103733196
 31
0.0
  0
LINE
  5
7AE7
330
1F
100
AcDbEntity
  8
AM_0
100
AcDbLine
 10
30.66006933969724
 20
20.99979149980942
 30
0.0
 11
30.39249652198297
 21
21.99977766113958
 31
0.0
  0
LINE
  5
7AEA
330
1F
100
AcDbEntity
  8
AM_0
100
AcDbLine
 10
44.37778704944992
 20
21.99976447128657
 30
0.0
 11
149.9998573604623
 21
21.99920389662235
 31
0.0
  0
LINE
  5
7AEB
330
1F
100
AcDbEntity
  8
AM_0
100
AcDbLine
 10
44.36813288099594
 20
-3.000235477827341
 30
0.0
 11
149.9997246763881
 21
-3.000796103025558
 31
0.0
  0
LINE
  5
7AEC
330
1F
100
AcDbEntity
  8
AM_0
100
AcDbLine
 10
39.49985205465567
 20
20.99979036024402
 30
0.0
 11
39.49972998530749
 21
-2.000209639432023
 31
0.0
  0
LINE
  5
7AED
330
1F
100
AcDbEntity
  8
AM_0
100
AcDbLine
 10
38.49972998532159
 20
-2.000204332069041
 30
0.0
 11
38.49985205466977
 21
20.99979566760701
 31
0.0
  0
LINE
  5
7AEE
330
1F
100
AcDbEntity
  8
AM_0
100
AcDbLine
 10
42.49976827284855
 20
-0.5362210451035269
 30
0.0
 11
43.32810352257218
 21
-1.171815040998292
 31
0.0
  0
LINE
  5
7AEF
330
1F
100
AcDbEntity
  8
AM_0
100
AcDbLine
 10
42.49976827284855
 20
-0.5362210451035269
 30
0.0
 11
43.32810352257218
 21
-1.171815040998292
 31
0.0
  0
LINE
  5
7AF0
330
1F
100
AcDbEntity
  8
AM_0
100
AcDbLine
 10
38.49963312481367
 20
-3.000280625519076
 30
0.0
 11
38.99957474309517
 21
-2.500329055243692
 31
0.0
  0
LINE
  5
7AF1
330
1F
100
AcDbEntity
  8
AM_0
100
AcDbLine
 10
38.99954422519122
 20
-2.500390090241689
 30
0.0
 11
38.49954687887978
 21
-2.000387436567246
 31
0.0
  0
LINE
  5
7AF2
330
1F
100
AcDbEntity
  8
AM_0
100
AcDbLine
 10
41.53532337355605
 20
-0.1363593590587541
 30
0.0
 11
42.4999208621153
 21
-0.5359616464933725
 31
0.0
  0
LINE
  5
7AF3
330
1F
100
AcDbEntity
  8
AM_0
100
AcDbLine
 10
41.53532337355605
 20
-0.1363593590587541
 30
0.0
 11
42.4999208621153
 21
-0.5359616464933725
 31
0.0
  0
LINE
  5
7AF4
330
1F
100
AcDbEntity
  8
AM_0
100
AcDbLine
 10
40.49983215250635
 20
-0.0002607236790722
 30
0.0
 11
41.53523181969229
 21
-0.1365729816128535
 31
0.0
  0
LINE
  5
7AF5
330
1F
100
AcDbEntity
  8
AM_0
100
AcDbLine
 10
40.49983215250635
 20
-0.0002607236790722
 30
0.0
 11
41.53523181969229
 21
-0.1365729816128535
 31
0.0
  0
LINE
  5
7AF6
330
1F
100
AcDbEntity
  8
AM_0
100
AcDbLine
 10
38.99954422519122
 20
-2.500390090241689
 30
0.0
 11
39.49948584338174
 21
-2.000453778766309
 31
0.0
  0
LINE
  5
7AF7
330
1F
100
AcDbEntity
  8
AM_0
100
AcDbLine
 10
39.4997406000334
 20
-0.0002096394601904
 30
0.0
 11
40.49974060001932
 21
-0.0002149468231734
 31
0.0
  0
LINE
  5
7AF8
330
1F
100
AcDbEntity
  8
AM_0
100
AcDbLine
 10
44.36798029326793
 20
-3.00020495943752
 30
0.0
 11
43.96371924370249
 21
-2.000111261133294
 31
0.0
  0
LINE
  5
7AF9
330
1F
100
AcDbEntity
  8
AM_0
100
AcDbLine
 10
44.36798029326793
 20
-3.00020495943752
 30
0.0
 11
43.96371924370249
 21
-2.000111261133294
 31
0.0
  0
LINE
  5
7AFA
330
1F
100
AcDbEntity
  8
AM_0
100
AcDbLine
 10
43.96381079628055
 20
-2.000141779199192
 30
0.0
 11
43.3280730054071
 21
-1.171738746886343
 31
0.0
  0
LINE
  5
7AFB
330
1F
100
AcDbEntity
  8
AM_0
100
AcDbLine
 10
43.96381079628055
 20
-2.000141779199192
 30
0.0
 11
43.3280730054071
 21
-1.171738746886343
 31
0.0
  0
LINE
  5
7AFC
330
1F
100
AcDbEntity
  8
AM_0
100
AcDbLine
 10
42.50505484504543
 20
6.538623287288349
 30
0.0
 11
43.33144371792719
 21
7.174498417951614
 31
0.0
  0
LINE
  5
7AFD
330
1F
100
AcDbEntity
  8
AM_0
100
AcDbLine
 10
42.50011723550676
 20
13.46403835266158
 30
0.0
 11
43.32848300273947
 21
12.82842909781481
 31
0.0
  0
LINE
  5
7AFE
330
1F
100
AcDbEntity
  8
AM_0
100
AcDbLine
 10
41.54197898796097
 20
6.137932597895859
 30
0.0
 11
42.50471915080463
 21
6.538455442389992
 31
0.0
  0
LINE
  5
7AFF
330
1F
100
AcDbEntity
  8
AM_0
100
AcDbLine
 10
40.50837840098401
 20
5.99973923104736
 30
0.0
 11
41.54167381217096
 21
6.137932599515527
 31
0.0
  0
LINE
  5
7B00
330
1F
100
AcDbEntity
  8
AM_0
100
AcDbLine
 10
39.49977244364431
 20
5.999683548935285
 30
0.0
 11
40.5085615061301
 21
5.99967819492557
 31
0.0
  0
LINE
  5
7B01
330
1F
100
AcDbEntity
  8
AM_0
100
AcDbLine
 10
41.53503146481678
 20
13.8634727960077
 30
0.0
 11
42.49987309399594
 21
13.46387050727733
 31
0.0
  0
LINE
  5
7B02
330
1F
100
AcDbEntity
  8
AM_0
100
AcDbLine
 10
40.50030318289308
 20
13.99951039218814
 30
0.0
 11
41.53493991118594
 21
13.86330494981359
 31
0.0
  0
LINE
  5
7B03
330
1F
100
AcDbEntity
  8
AM_0
100
AcDbLine
 10
39.49981490206211
 20
13.99959199608262
 30
0.0
 11
40.50005904266799
 21
13.99958668742388
 31
0.0
  0
LINE
  5
7B04
330
1F
100
AcDbEntity
  8
AM_0
100
AcDbLine
 10
43.96551183248246
 20
8.002375912113652
 30
0.0
 11
44.36392392920414
 21
8.965996844479608
 31
0.0
  0
LINE
  5
7B05
330
1F
100
AcDbEntity
  8
AM_0
100
AcDbLine
 10
43.33123009325752
 20
7.174193243305385
 30
0.0
 11
43.96523717250082
 21
8.002040220211373
 31
0.0
  0
LINE
  5
7B06
330
1F
100
AcDbEntity
  8
AM_0
100
AcDbLine
 10
44.36380185864119
 20
8.965951068767484
 30
0.0
 11
44.49979367229687
 21
9.999519682954121
 31
0.0
  0
LINE
  5
7B07
330
1F
100
AcDbEntity
  8
AM_0
100
AcDbLine
 10
44.50006833219754
 20
9.999840116076402
 30
0.0
 11
44.36384335910006
 21
11.03531752365637
 31
0.0
  0
LINE
  5
7B08
330
1F
100
AcDbEntity
  8
AM_0
100
AcDbLine
 10
44.36347714686432
 20
11.03507338496998
 30
0.0
 11
43.96382406323018
 21
11.99967511546754
 31
0.0
  0
LINE
  5
7B09
330
1F
100
AcDbEntity
  8
AM_0
100
AcDbLine
 10
43.96409872215904
 20
11.99981244310984
 30
0.0
 11
43.32836093185259
 21
12.82832228693271
 31
0.0
  0
LINE
  5
7B0A
330
1F
100
AcDbEntity
  8
AM_0
100
AcDbLine
 10
42.50893854993857
 20
19.54086630885925
 30
0.0
 11
43.33377102649232
 21
20.17677196535286
 31
0.0
  0
LINE
  5
7B0B
330
1F
100
AcDbEntity
  8
AM_0
100
AcDbLine
 10
42.50893854993857
 20
19.54086630885925
 30
0.0
 11
43.33377102649232
 21
20.17677196535286
 31
0.0
  0
LINE
  5
7B0C
330
1F
100
AcDbEntity
  8
AM_0
100
AcDbLine
 10
41.54775477913072
 20
19.13950422270475
 30
0.0
 11
42.50884699712759
 21
19.54085105055515
 31
0.0
  0
LINE
  5
7B0D
330
1F
100
AcDbEntity
  8
AM_0
100
AcDbLine
 10
41.54775477913072
 20
19.13950422270475
 30
0.0
 11
42.50884699712759
 21
19.54085105055515
 31
0.0
  0
LINE
  5
7B0E
330
1F
100
AcDbEntity
  8
AM_0
100
AcDbLine
 10
40.5152528179182
 20
18.99998333537545
 30
0.0
 11
41.54760219212153
 21
19.13967207018458
 31
0.0
  0
LINE
  5
7B0F
330
1F
100
AcDbEntity
  8
AM_0
100
AcDbLine
 10
40.5152528179182
 20
18.99998333537545
 30
0.0
 11
41.54760219212153
 21
19.13967207018458
 31
0.0
  0
LINE
  5
7B10
330
1F
100
AcDbEntity
  8
AM_0
100
AcDbLine
 10
39.49984143936283
 20
18.99968354875219
 30
0.0
 11
40.51497815809853
 21
18.99967816105314
 31
0.0
  0
LINE
  5
7B11
330
1F
100
AcDbEntity
  8
AM_0
100
AcDbLine
 10
38.99979367286025
 20
21.49973197908241
 30
0.0
 11
38.4997963265488
 21
21.99973463275686
 31
0.0
  0
LINE
  5
7B12
330
1F
100
AcDbEntity
  8
AM_0
100
AcDbLine
 10
38.49966894830894
 20
20.9996278218988
 30
0.0
 11
38.99961056649943
 21
21.49956413337421
 31
0.0
  0
LINE
  5
7B13
330
1F
100
AcDbEntity
  8
AM_0
100
AcDbLine
 10
38.99979367286025
 20
21.49973197908241
 30
0.0
 11
39.49979101925272
 21
20.99974458419795
 31
0.0
  0
LINE
  5
7B14
330
1F
100
AcDbEntity
  8
AM_0
100
AcDbLine
 10
43.33395413261018
 20
20.17689403470107
 30
0.0
 11
43.96661843557907
 21
21.00420696111362
 31
0.0
  0
LINE
  5
7B15
330
1F
100
AcDbEntity
  8
AM_0
100
AcDbLine
 10
43.96664895332105
 20
21.00423747853164
 30
0.0
 11
44.37772601339911
 21
21.99959662493052
 31
0.0
  0
LINE
  5
7B16
330
1F
100
AcDbEntity
  8
AM_0
100
AcDbLine
 10
43.96664895332105
 20
21.00423747853164
 30
0.0
 11
44.37772601339911
 21
21.99959662493052
 31
0.0
  0
LINE
  5
7B17
330
1F
100
AcDbEntity
  8
AM_0
100
AcDbLine
 10
150.0001015010822
 20
21.9992038953266
 30
0.0
 11
149.9999688170081
 21
-3.000796104321304
 31
0.0
  0
LINE
  5
7B1A
330
1F
100
AcDbEntity
  8
AM_0
100
AcDbLine
 10
34.49964430319491
 20
-33.90968339192764
 30
0.0
 11
38.49964430313855
 21
-33.90970462137949
 31
0.0
  0
LINE
  5
7B1B
330
1F
100
AcDbEntity
  8
AM_0
100
AcDbLine
 10
31.99622633448016
 20
-33.90967010537983
 30
0.0
 11
44.36780836555593
 21
-33.90973576585615
 31
0.0
  0
LINE
  5
7B1C
330
1F
100
AcDbEntity
  8
AM_0
100
AcDbLine
 10
19.99952488773242
 20
-56.40960643484778
 30
0.0
 11
149.9995248859013
 21
-56.41029639203317
 31
0.0
  0
LINE
  5
7B1D
330
1F
100
AcDbEntity
  8
AM_0
100
AcDbLine
 10
18.4081579110886
 20
-21.40959798839271
 30
0.0
 11
38.49946650455565
 21
-21.40970462025979
 31
0.0
  0
LINE
  5
7B1E
330
1F
100
AcDbEntity
  8
AM_0
100
AcDbLine
 10
17.59980299435699
 20
-22.40959369817381
 30
0.0
 11
38.4994611971927
 21
-22.4097046202457
 31
0.0
  0
LINE
  5
7B25
330
1F
100
AcDbEntity
  8
AM_0
100
AcDbLine
 10
19.99952488773242
 20
-56.40960643484778
 30
0.0
 11
19.99960178035615
 21
-41.92169139599182
 31
0.0
  0
LINE
  5
7B26
330
1F
100
AcDbEntity
  8
AM_0
100
AcDbLine
 10
2.078485103002603
 20
-51.41659902883361
 30
0.0
 11
2.69981048022964
 21
-48.02429885958815
 31
0.0
  0
LINE
  5
7B27
330
1F
100
AcDbEntity
  8
AM_0
100
AcDbLine
 10
1.199720200456734
 20
-56.40951428685465
 30
0.0
 11
1.200208935226724
 21
-39.07392774136037
 31
0.0
  0
LINE
  5
7B2A
330
1F
100
AcDbEntity
  8
AM_0
100
AcDbLine
 10
1.601777069184233
 20
-55.83753308330631
 30
0.0
 11
2.078591914816055
 21
-51.4165456236385
 31
0.0
  0
LINE
  5
7B2B
330
1F
100
AcDbEntity
  8
AM_0
100
AcDbLine
 10
1.568342026672037
 20
-56.40950861387047
 30
0.0
 11
19.99928074711242
 21
-56.40960643355205
 31
0.0
  0
LINE
  5
7B2C
330
1F
100
AcDbEntity
  8
AM_0
100
AcDbLine
 10
1.568326767841536
 20
-56.40951624318347
 30
0.0
 11
1.601639739598336
 21
-55.83762463531144
 31
0.0
  0
LINE
  5
7B2D
330
1F
100
AcDbEntity
  8
AM_0
100
AcDbLine
 10
1.301954087215786
 20
-56.40950720005298
 30
0.0
 11
1.568326767882037
 21
-56.40950861378946
 31
0.0
  0
LINE
  5
7B2E
330
1F
100
AcDbEntity
  8
AM_0
100
AcDbLine
 10
1.199750718077207
 20
-56.40950665762259
 30
0.0
 11
1.301938828425786
 21
-56.40950719997199
 31
0.0
  0
LINE
  5
7B33
330
1F
100
AcDbEntity
  8
AM_0
100
AcDbLine
 10
1.914363968745076
 20
-39.46413691494583
 30
0.0
 11
2.422770553672874
 21
-39.6540352431268
 31
0.0
  0
LINE
  5
7B34
330
1F
100
AcDbEntity
  8
AM_0
100
AcDbLine
 10
1.916301856010873
 20
-39.46016964007085
 30
0.0
 11
2.078578669003176
 21
-39.53717398034386
 31
0.0
  0
LINE
  5
7B37
330
1F
100
AcDbEntity
  8
AM_0
100
AcDbLine
 10
0.9717096159802441
 20
-38.87666090362878
 30
0.0
 11
0.0997509220972003
 21
-32.22087166879374
 31
0.0
  0
LINE
  5
7B38
330
1F
100
AcDbEntity
  8
AM_0
100
AcDbLine
 10
1.496854039301749
 20
-39.26499987240632
 30
0.0
 11
1.914333451408024
 21
-39.4640911384139
 31
0.0
  0
LINE
  5
7B39
330
1F
100
AcDbEntity
  8
AM_0
100
AcDbLine
 10
1.182554576002642
 20
-39.06267429072212
 30
0.0
 11
1.496762485599956
 21
-39.2651829773904
 31
0.0
  0
LINE
  5
7B3A
330
1F
100
AcDbEntity
  8
AM_0
100
AcDbLine
 10
1.040358668418803
 20
-38.92179676601484
 30
0.0
 11
1.182569835197566
 21
-39.06259799686312
 31
0.0
  0
LINE
  5
7B3B
330
1F
100
AcDbEntity
  8
AM_0
100
AcDbLine
 10
0.981719374959424
 20
-38.87791217745423
 30
0.0
 11
1.040511256794699
 21
-38.92170521409468
 31
0.0
  0
LINE
  5
7B3C
330
1F
100
AcDbEntity
  8
AM_0
100
AcDbLine
 10
0.9792779707340443
 20
-38.87753069476676
 30
0.0
 11
1.040572292400097
 21
-38.9216212910786
 31
0.0
  0
LINE
  5
7B40
330
1F
100
AcDbEntity
  8
AM_0
100
AcDbLine
 10
0.0997509219757259
 20
-32.22089455698375
 30
0.0
 11
-0.0010443125631527
 21
-31.40580002787538
 31
0.0
  0
LINE
  5
7B47
330
1F
100
AcDbEntity
  8
AM_0
100
AcDbLine
 10
11.89773950057863
 20
-32.27990187534218
 30
0.0
 11
19.11391063142252
 21
-23.68006377025049
 31
0.0
  0
LINE
  5
7B48
330
1F
100
AcDbEntity
  8
AM_0
100
AcDbLine
 10
9.530843459940967
 20
-31.98928567566172
 30
0.0
 11
17.59966566436617
 21
-22.40976154412494
 31
0.0
  0
LINE
  5
7B49
330
1F
100
AcDbEntity
  8
AM_0
100
AcDbLine
 10
11.89783105359208
 20
-32.27984847005806
 30
0.0
 11
20.42620684328571
 21
-33.3270891678287
 31
0.0
  0
LINE
  5
7B4A
330
1F
100
AcDbEntity
  8
AM_0
100
AcDbLine
 10
8.992772690293577
 20
-32.00641844004507
 30
0.0
 11
20.9031958368258
 21
-33.46888399675441
 31
0.0
  0
LINE
  5
7B4B
330
1F
100
AcDbEntity
  8
AM_0
100
AcDbLine
 10
7.956854501040251
 20
-40.44302793240006
 30
0.0
 11
19.86727764757248
 21
-41.90549348910938
 31
0.0
  0
LINE
  5
7B4C
330
1F
100
AcDbEntity
  8
AM_0
100
AcDbLine
 10
4.199837624402844
 20
-40.03484301451211
 30
0.0
 11
19.45419169663495
 21
-41.90802425570235
 31
0.0
  0
LINE
  5
7B4D
330
1F
100
AcDbEntity
  8
AM_0
100
AcDbLine
 10
4.199814406390542
 20
-44.40952257988048
 30
0.0
 11
19.999344435468
 21
-44.40960643372103
 31
0.0
  0
LINE
  5
7B4E
330
1F
100
AcDbEntity
  8
AM_0
100
AcDbLine
 10
7.956869759830224
 20
-40.44302793248104
 30
0.0
 11
8.992803207782628
 21
-32.00643369899706
 31
0.0
  0
LINE
  5
7B4F
330
1F
100
AcDbEntity
  8
AM_0
100
AcDbLine
 10
7.82713961960735
 20
-40.42712758575587
 30
0.0
 11
8.098180988230495
 21
-31.89655041087064
 31
0.0
  0
LINE
  5
7B50
330
1F
100
AcDbEntity
  8
AM_0
100
AcDbLine
 10
4.433159898060236
 20
-40.01033100821774
 30
0.0
 11
4.004904004390908
 21
-31.89772650130405
 31
0.0
  0
LINE
  5
7B51
330
1F
100
AcDbEntity
  8
AM_0
100
AcDbLine
 10
4.199814406390542
 20
-44.40952257988048
 30
0.0
 11
4.199837624483846
 21
-40.0348277557321
 31
0.0
  0
LINE
  5
7B52
330
1F
100
AcDbEntity
  8
AM_0
100
AcDbLine
 10
3.423364723535881
 20
-45.57797549024665
 30
0.0
 11
4.199844923363171
 21
-44.40963702096047
 31
0.0
  0
LINE
  5
7B53
330
1F
100
AcDbEntity
  8
AM_0
100
AcDbLine
 10
3.247701130588493
 20
-46.40950989730292
 30
0.0
 11
3.423288429909828
 21
-45.57791445468473
 31
0.0
  0
LINE
  5
7B54
330
1F
100
AcDbEntity
  8
AM_0
100
AcDbLine
 10
2.699795221358667
 20
-48.02431411829611
 30
0.0
 11
3.247701130467018
 21
-46.40953278548692
 31
0.0
  0
LINE
  5
7B55
330
1F
100
AcDbEntity
  8
AM_0
100
AcDbLine
 10
4.433144639189262
 20
-40.01034626691677
 30
0.0
 11
7.827139619445346
 21
-40.42715810333588
 31
0.0
  0
LINE
  5
7B56
330
1F
100
AcDbEntity
  8
AM_0
100
AcDbLine
 10
4.317559388003813
 20
-39.99603290932371
 30
0.0
 11
4.43323619248616
 21
-40.01023945588264
 31
0.0
  0
LINE
  5
7B57
330
1F
100
AcDbEntity
  8
AM_0
100
AcDbLine
 10
3.640924086375945
 20
-39.91302150567339
 30
0.0
 11
4.317422058417916
 21
-39.99612446133483
 31
0.0
  0
LINE
  5
7B58
330
1F
100
AcDbEntity
  8
AM_0
100
AcDbLine
 10
3.423318501470814
 20
-39.91190645916152
 30
0.0
 11
4.199807107025319
 21
-40.03480486738012
 31
0.0
  0
LINE
  5
7B59
330
1F
100
AcDbEntity
  8
AM_0
100
AcDbLine
 10
3.060068141582034
 20
-39.84171410156903
 30
0.0
 11
3.640954603955945
 21
-39.91302150583536
 31
0.0
  0
LINE
  5
7B5A
330
1F
100
AcDbEntity
  8
AM_0
100
AcDbLine
 10
3.006921847258807
 20
-39.82890406609221
 30
0.0
 11
3.060022365252505
 21
-39.84170647193608
 31
0.0
  0
LINE
  5
7B5B
330
1F
100
AcDbEntity
  8
AM_0
100
AcDbLine
 10
3.194650573566489
 20
-39.8582095668271
 30
0.0
 11
3.423349019050815
 21
-39.91190645932349
 31
0.0
  0
LINE
  5
7B5C
330
1F
100
AcDbEntity
  8
AM_0
100
AcDbLine
 10
2.422740036173876
 20
-39.65401998417483
 30
0.0
 11
3.006921847177804
 21
-39.82891932488218
 31
0.0
  0
LINE
  5
7B5D
330
1F
100
AcDbEntity
  8
AM_0
100
AcDbLine
 10
2.078532892440703
 20
-39.53721212707096
 30
0.0
 11
2.699823918743815
 21
-39.74220199675082
 31
0.0
  0
LINE
  5
7B5E
330
1F
100
AcDbEntity
  8
AM_0
100
AcDbLine
 10
7.827139619688321
 20
-40.42711232696589
 30
0.0
 11
7.956839242331224
 21
-40.44301267352909
 31
0.0
  0
LINE
  5
7B5F
330
1F
100
AcDbEntity
  8
AM_0
100
AcDbLine
 10
9.530904495455388
 20
-31.98921701143562
 30
0.0
 11
11.89778527730305
 21
-32.27983321102514
 31
0.0
  0
LINE
  5
7B60
330
1F
100
AcDbEntity
  8
AM_0
100
AcDbLine
 10
3.482476598659728
 20
-31.32979922907417
 30
0.0
 11
3.581582369398062
 21
-31.3418999747846
 31
0.0
  0
LINE
  5
7B61
330
1F
100
AcDbEntity
  8
AM_0
100
AcDbLine
 10
3.387716906930221
 20
-31.821879414627
 30
0.0
 11
3.448708920811781
 21
-31.32558762407679
 31
0.0
  0
LINE
  5
7B62
330
1F
100
AcDbEntity
  8
AM_0
100
AcDbLine
 10
4.004965039874831
 20
-31.89766546646799
 30
0.0
 11
6.847172050356221
 21
-32.24658802180707
 31
0.0
  0
LINE
  5
7B63
330
1F
100
AcDbEntity
  8
AM_0
100
AcDbLine
 10
3.739388662783311
 20
-31.36132525080018
 30
0.0
 11
6.949973118459182
 21
-31.75553784718278
 31
0.0
  0
LINE
  5
7B64
330
1F
100
AcDbEntity
  8
AM_0
100
AcDbLine
 10
-0.0010443125631527
 20
-31.40580002787538
 30
0.0
 11
6.847126273874748
 21
-32.24661090974413
 31
0.0
  0
LINE
  5
7B65
330
1F
100
AcDbEntity
  8
AM_0
100
AcDbLine
 10
3.678427166684229
 20
-31.85757889455238
 30
0.0
 11
3.739434439315288
 21
-31.36129473346314
 31
0.0
  0
LINE
  5
7B66
330
1F
100
AcDbEntity
  8
AM_0
100
AcDbLine
 10
3.581582369276587
 20
-31.34192286297462
 30
0.0
 11
3.739373403962814
 21
-31.36133288010919
 31
0.0
  0
LINE
  5
7B6D
330
1F
100
AcDbEntity
  8
AM_0
100
AcDbLine
 10
9.499882955774468
 20
-32.0686388438642
 30
0.0
 11
9.499883181314713
 21
-32.02614311632476
 31
0.0
  0
LINE
  5
7B6E
330
1F
100
AcDbEntity
  8
AM_0
100
AcDbLine
 10
9.499806886838312
 20
-32.02624229804988
 30
0.0
 11
9.530736647722592
 21
-31.98941537480482
 31
0.0
  0
LINE
  5
7B6F
330
1F
100
AcDbEntity
  8
AM_0
100
AcDbLine
 10
8.098165729440495
 20
-31.89655041078967
 30
0.0
 11
8.99275743134163
 21
-32.00644895754408
 31
0.0
  0
LINE
  5
7B70
330
1F
100
AcDbEntity
  8
AM_0
100
AcDbLine
 10
6.95009518925508
 20
-31.75544629510066
 30
0.0
 11
8.098303059026392
 21
-31.89645885877852
 31
0.0
  0
LINE
  5
7B71
330
1F
100
AcDbEntity
  8
AM_0
100
AcDbLine
 10
6.847111015044276
 20
-32.2466185390532
 30
0.0
 11
6.950003636110182
 21
-31.75552258855471
 31
0.0
  0
LINE
  5
7B72
330
1F
100
AcDbEntity
  8
AM_0
100
AcDbLine
 10
3.448693661950811
 20
-31.32560288277578
 30
0.0
 11
3.482491857449757
 21
-31.32979922915515
 31
0.0
  0
LINE
  5
7B75
330
1F
100
AcDbEntity
  8
AM_0
100
AcDbLine
 10
26.75109228761664
 20
-42.83630089805533
 30
0.0
 11
29.02919995755749
 21
-36.9015214237661
 31
0.0
  0
LINE
  5
7B76
330
1F
100
AcDbEntity
  8
AM_0
100
AcDbLine
 10
23.22106574514089
 20
-42.31731548810592
 30
0.0
 11
25.77237639145175
 21
-34.5705257450384
 31
0.0
  0
LINE
  5
7B77
330
1F
100
AcDbEntity
  8
AM_0
100
AcDbLine
 10
19.99693149393636
 20
-41.92137857664961
 30
0.0
 11
21.79774176276185
 21
-33.57870624931583
 31
0.0
  0
LINE
  5
7B78
330
1F
100
AcDbEntity
  8
AM_0
100
AcDbLine
 10
19.86727764757248
 20
-41.90549348910938
 30
0.0
 11
20.90321109553482
 21
-33.46889925562536
 31
0.0
  0
LINE
  5
7B79
330
1F
100
AcDbEntity
  8
AM_0
100
AcDbLine
 10
26.43977817077819
 20
-43.64694530292971
 30
0.0
 11
26.73958669865348
 21
-42.92335222859224
 31
0.0
  0
LINE
  5
7B7A
330
1F
100
AcDbEntity
  8
AM_0
100
AcDbLine
 10
26.42025393508023
 20
-42.32532807282893
 30
0.0
 11
26.77386175156601
 21
-42.20497625082225
 31
0.0
  0
LINE
  5
7B7B
330
1F
100
AcDbEntity
  8
AM_0
100
AcDbLine
 10
26.43977817077819
 20
-43.64694530292971
 30
0.0
 11
26.73958669865348
 21
-42.92335222859224
 31
0.0
  0
LINE
  5
7B7C
330
1F
100
AcDbEntity
  8
AM_0
100
AcDbLine
 10
26.42971440535595
 20
-42.32136083787903
 30
0.0
 11
26.7830780806953
 21
-42.20110819670658
 31
0.0
  0
LINE
  5
7B7D
330
1F
100
AcDbEntity
  8
AM_0
100
AcDbLine
 10
26.24730265884889
 20
-43.86300110512536
 30
0.0
 11
26.62102457354635
 21
-43.17471726096351
 31
0.0
  0
LINE
  5
7B7E
330
1F
100
AcDbEntity
  8
AM_0
100
AcDbLine
 10
19.76670156176919
 20
-42.9242841540599
 30
0.0
 11
19.67978825290688
 21
-42.78228540176749
 31
0.0
  0
LINE
  5
7B7F
330
1F
100
AcDbEntity
  8
AM_0
100
AcDbLine
 10
22.35478085891674
 20
-44.75045450617083
 30
0.0
 11
23.06522851563866
 21
-45.04476980021553
 31
0.0
  0
LINE
  5
7B80
330
1F
100
AcDbEntity
  8
AM_0
100
AcDbLine
 10
22.35484189444116
 20
-44.75038584194375
 30
0.0
 11
22.7452219587054
 21
-44.90019870485058
 31
0.0
  0
LINE
  5
7B81
330
1F
100
AcDbEntity
  8
AM_0
100
AcDbLine
 10
22.35484189444116
 20
-44.75038584194375
 30
0.0
 11
22.7452219587054
 21
-44.90019870485058
 31
0.0
  0
LINE
  5
7B82
330
1F
100
AcDbEntity
  8
AM_0
100
AcDbLine
 10
21.75227354180259
 20
-44.5191128074656
 30
0.0
 11
22.35478085920018
 21
-44.75040110040882
 31
0.0
  0
LINE
  5
7B83
330
1F
100
AcDbEntity
  8
AM_0
100
AcDbLine
 10
21.66535954032521
 20
-44.50761484862325
 30
0.0
 11
21.75227354232899
 21
-44.51901362533657
 31
0.0
  0
LINE
  5
7B84
330
1F
100
AcDbEntity
  8
AM_0
100
AcDbLine
 10
21.75230405990899
 20
-44.51901362549853
 30
0.0
 11
21.66535954032521
 21
-44.50761484862325
 31
0.0
  0
LINE
  5
7B85
330
1F
100
AcDbEntity
  8
AM_0
100
AcDbLine
 10
21.34529194892039
 20
-44.36291405322637
 30
0.0
 11
21.75227354176212
 21
-44.51912043686057
 31
0.0
  0
LINE
  5
7B86
330
1F
100
AcDbEntity
  8
AM_0
100
AcDbLine
 10
21.34529194892039
 20
-44.36291405322637
 30
0.0
 11
21.75227354176212
 21
-44.51912043686057
 31
0.0
  0
LINE
  5
7B87
330
1F
100
AcDbEntity
  8
AM_0
100
AcDbLine
 10
20.94172831831937
 20
-44.20793602025245
 30
0.0
 11
21.66535953963685
 21
-44.50774454833021
 31
0.0
  0
LINE
  5
7B88
330
1F
100
AcDbEntity
  8
AM_0
100
AcDbLine
 10
20.6591366946932
 20
-43.99129023332315
 30
0.0
 11
21.34516987767906
 21
-44.36308952865249
 31
0.0
  0
LINE
  5
7B89
330
1F
100
AcDbEntity
  8
AM_0
100
AcDbLine
 10
20.65901462527403
 20
-43.99112238599626
 30
0.0
 11
20.94171305965085
 21
-44.20791313198754
 31
0.0
  0
LINE
  5
7B8A
330
1F
100
AcDbEntity
  8
AM_0
100
AcDbLine
 10
20.32030140450123
 20
-43.73132444574664
 30
0.0
 11
20.65915195384767
 21
-43.99122156885311
 31
0.0
  0
LINE
  5
7B8B
330
1F
100
AcDbEntity
  8
AM_0
100
AcDbLine
 10
20.32037769888666
 20
-43.73124052281154
 30
0.0
 11
20.65899936636256
 21
-43.99114527409825
 31
0.0
  0
LINE
  5
7B8C
330
1F
100
AcDbEntity
  8
AM_0
100
AcDbLine
 10
20.32024036938173
 20
-43.73131681602265
 30
0.0
 11
20.14665758551999
 21
-43.50511960569262
 31
0.0
  0
LINE
  5
7B8D
330
1F
100
AcDbEntity
  8
AM_0
100
AcDbLine
 10
20.6590756595432
 20
-43.99129023299921
 30
0.0
 11
20.14661180935246
 21
-43.50508145847967
 31
0.0
  0
LINE
  5
7B8E
330
1F
100
AcDbEntity
  8
AM_0
100
AcDbLine
 10
20.14662706810196
 20
-43.50508908795065
 30
0.0
 11
20.6590756595432
 21
-43.99129023299921
 31
0.0
  0
LINE
  5
7B8F
330
1F
100
AcDbEntity
  8
AM_0
100
AcDbLine
 10
20.08896439577495
 20
-43.45015714129314
 30
0.0
 11
20.14682543252393
 21
-43.50505857142344
 31
0.0
  0
LINE
  5
7B90
330
1F
100
AcDbEntity
  8
AM_0
100
AcDbLine
 10
20.08902543150182
 20
-43.45005033008711
 30
0.0
 11
20.02677011240698
 21
-43.34825098844407
 31
0.0
  0
LINE
  5
7B91
330
1F
100
AcDbEntity
  8
AM_0
100
AcDbLine
 10
19.99958456908401
 20
-45.16459605902914
 30
0.0
 11
19.99958857600702
 21
-44.40962169380575
 31
0.0
  0
LINE
  5
7B92
330
1F
100
AcDbEntity
  8
AM_0
100
AcDbLine
 10
20.02667855931258
 20
-43.34831965250816
 30
0.0
 11
19.84357435589859
 21
-43.10990773100438
 31
0.0
  0
LINE
  5
7B93
330
1F
100
AcDbEntity
  8
AM_0
100
AcDbLine
 10
19.84343702663662
 20
-43.1099382478555
 30
0.0
 11
19.76653371472477
 21
-42.9243528177191
 31
0.0
  0
LINE
  5
7B94
330
1F
100
AcDbEntity
  8
AM_0
100
AcDbLine
 10
25.96290719721769
 20
-44.26830355081915
 30
0.0
 11
26.43956454651342
 21
-43.64717418363597
 31
0.0
  0
LINE
  5
7B95
330
1F
100
AcDbEntity
  8
AM_0
100
AcDbLine
 10
25.34159729395494
 20
-44.74503822938269
 30
0.0
 11
25.9627546088823
 21
-44.2683874733493
 31
0.0
  0
LINE
  5
7B96
330
1F
100
AcDbEntity
  8
AM_0
100
AcDbLine
 10
24.61820703132775
 20
-45.04476278364724
 30
0.0
 11
25.34153625859249
 21
-44.74507637603174
 31
0.0
  0
LINE
  5
7B97
330
1F
100
AcDbEntity
  8
AM_0
100
AcDbLine
 10
23.84116791464782
 20
-45.14696965815504
 30
0.0
 11
24.61768823229531
 21
-45.04480092786678
 31
0.0
  0
LINE
  5
7B98
330
1F
100
AcDbEntity
  8
AM_0
100
AcDbLine
 10
25.96290719721769
 20
-44.26830355081915
 30
0.0
 11
26.43956454651342
 21
-43.64717418363597
 31
0.0
  0
LINE
  5
7B99
330
1F
100
AcDbEntity
  8
AM_0
100
AcDbLine
 10
25.70829817955157
 20
-44.43097614971494
 30
0.0
 11
26.24721110603792
 21
-43.86301636342847
 31
0.0
  0
LINE
  5
7B9A
330
1F
100
AcDbEntity
  8
AM_0
100
AcDbLine
 10
25.34159729395494
 20
-44.74503822938269
 30
0.0
 11
25.9627546088823
 21
-44.2683874733493
 31
0.0
  0
LINE
  5
7B9B
330
1F
100
AcDbEntity
  8
AM_0
100
AcDbLine
 10
25.0405103631634
 20
-44.8401904400004
 30
0.0
 11
25.70808455593467
 21
-44.43108296010417
 31
0.0
  0
LINE
  5
7B9C
330
1F
100
AcDbEntity
  8
AM_0
100
AcDbLine
 10
24.61820703132775
 20
-45.04476278364724
 30
0.0
 11
25.34153625859249
 21
-44.74507637603174
 31
0.0
  0
LINE
  5
7B9D
330
1F
100
AcDbEntity
  8
AM_0
100
AcDbLine
 10
24.28944106707677
 20
-45.06268248652115
 30
0.0
 11
25.0403882928129
 21
-44.84019806874756
 31
0.0
  0
LINE
  5
7B9E
330
1F
100
AcDbEntity
  8
AM_0
100
AcDbLine
 10
23.84116791464782
 20
-45.14696965815504
 30
0.0
 11
24.61768823229531
 21
-45.04480092786678
 31
0.0
  0
LINE
  5
7B9F
330
1F
100
AcDbEntity
  8
AM_0
100
AcDbLine
 10
23.50626835113931
 20
-45.08312510728361
 30
0.0
 11
24.28919692668972
 21
-45.06263670885846
 31
0.0
  0
LINE
  5
7BA0
330
1F
100
AcDbEntity
  8
AM_0
100
AcDbLine
 10
23.0651674806811
 20
-45.04473165291963
 30
0.0
 11
23.84150360829126
 21
-45.14691625417564
 31
0.0
  0
LINE
  5
7BA1
330
1F
100
AcDbEntity
  8
AM_0
100
AcDbLine
 10
23.0651674806811
 20
-45.04473165291963
 30
0.0
 11
23.84150360829126
 21
-45.14691625417564
 31
0.0
  0
LINE
  5
7BA2
330
1F
100
AcDbEntity
  8
AM_0
100
AcDbLine
 10
22.74522195854344
 20
-44.9002292224286
 30
0.0
 11
23.50666507965931
 21
-45.0831251093892
 31
0.0
  0
LINE
  5
7BA3
330
1F
100
AcDbEntity
  8
AM_0
100
AcDbLine
 10
19.99697727034686
 20
-41.92137094749257
 30
0.0
 11
23.22109626284236
 21
-42.31729260008786
 31
0.0
  0
LINE
  5
7BA4
330
1F
100
AcDbEntity
  8
AM_0
100
AcDbLine
 10
19.86735394164392
 20
-41.90547060133429
 30
0.0
 11
19.99697727034686
 21
-41.92137094749257
 31
0.0
  0
LINE
  5
7BA5
330
1F
100
AcDbEntity
  8
AM_0
100
AcDbLine
 10
19.67960514707249
 20
-42.78235406534565
 30
0.0
 11
19.6088056337889
 21
-42.54344682923354
 31
0.0
  0
LINE
  5
7BA6
330
1F
100
AcDbEntity
  8
AM_0
100
AcDbLine
 10
19.60875985722645
 20
-42.54348497596065
 30
0.0
 11
19.54381928523332
 21
-42.38629621576523
 31
0.0
  0
LINE
  5
7BA7
330
1F
100
AcDbEntity
  8
AM_0
100
AcDbLine
 10
19.54384980346119
 20
-42.38617414561718
 30
0.0
 11
19.52895782343821
 21
-42.27348027995845
 31
0.0
  0
LINE
  5
7BA8
330
1F
100
AcDbEntity
  8
AM_0
100
AcDbLine
 10
19.52903411718576
 20
-42.27351842733335
 30
0.0
 11
19.45725805828737
 21
-42.03142972851838
 31
0.0
  0
LINE
  5
7BA9
330
1F
100
AcDbEntity
  8
AM_0
100
AcDbLine
 10
19.4573496113413
 20
-42.03136869384429
 30
0.0
 11
19.45417643804739
 21
-41.90798610864133
 31
0.0
  0
LINE
  5
7BAA
330
1F
100
AcDbEntity
  8
AM_0
100
AcDbLine
 10
19.45377970929445
 20
-41.90803188290575
 30
0.0
 11
19.45231514898824
 21
-41.85462611341207
 31
0.0
  0
LINE
  5
7BAB
330
1F
100
AcDbEntity
  8
AM_0
100
AcDbLine
 10
25.96664016424827
 20
-42.41757267461728
 30
0.0
 11
26.42000979416678
 21
-42.32538147729314
 31
0.0
  0
LINE
  5
7BAC
330
1F
100
AcDbEntity
  8
AM_0
100
AcDbLine
 10
25.4276078570093
 20
-42.47877281670806
 30
0.0
 11
25.96660964666827
 21
-42.41757267445531
 31
0.0
  0
LINE
  5
7BAD
330
1F
100
AcDbEntity
  8
AM_0
100
AcDbLine
 10
24.81853788168186
 20
-42.50724248454303
 30
0.0
 11
25.42748578681076
 21
-42.47874992787017
 31
0.0
  0
LINE
  5
7BAE
330
1F
100
AcDbEntity
  8
AM_0
100
AcDbLine
 10
24.72683258617834
 20
-42.50219896803968
 30
0.0
 11
24.76391141970757
 21
-42.50670050761055
 31
0.0
  0
LINE
  5
7BAF
330
1F
100
AcDbEntity
  8
AM_0
100
AcDbLine
 10
25.97704668025378
 20
-42.41345285679837
 30
0.0
 11
26.42943974694347
 21
-42.32139898340132
 31
0.0
  0
LINE
  5
7BB0
330
1F
100
AcDbEntity
  8
AM_0
100
AcDbLine
 10
25.43838058395482
 20
-42.47465300083278
 30
0.0
 11
25.9768940922828
 21
-42.41346811477857
 31
0.0
  0
LINE
  5
7BB1
330
1F
100
AcDbEntity
  8
AM_0
100
AcDbLine
 10
24.82964630235179
 20
-42.50305400589939
 30
0.0
 11
25.43810592574482
 21
-42.47465299937505
 31
0.0
  0
LINE
  5
7BB2
330
1F
100
AcDbEntity
  8
AM_0
100
AcDbLine
 10
24.76372831404509
 20
-42.50673865360871
 30
0.0
 11
24.81841581137186
 21
-42.50724248389515
 31
0.0
  0
LINE
  5
7BB3
330
1F
100
AcDbEntity
  8
AM_0
100
AcDbLine
 10
24.72655792789737
 20
-42.50221422537195
 30
0.0
 11
24.82958526735377
 21
-42.50302348799547
 31
0.0
  0
LINE
  5
7BB4
330
1F
100
AcDbEntity
  8
AM_0
100
AcDbLine
 10
24.19280583468528
 20
-42.43660622898492
 30
0.0
 11
24.72674103340785
 21
-42.50220659695377
 31
0.0
  0
LINE
  5
7BB5
330
1F
100
AcDbEntity
  8
AM_0
100
AcDbLine
 10
23.51693347231494
 20
-42.35363297635386
 30
0.0
 11
24.19295842245381
 21
-42.43662911797478
 31
0.0
  0
LINE
  5
7BB6
330
1F
100
AcDbEntity
  8
AM_0
100
AcDbLine
 10
23.22100471018333
 20
-42.31727734081196
 30
0.0
 11
23.51690295501839
 21
-42.35357957043187
 31
0.0
  0
LINE
  5
7BB7
330
1F
100
AcDbEntity
  8
AM_0
100
AcDbLine
 10
26.62117716293454
 20
-43.17443497417336
 30
0.0
 11
27.76911173516739
 21
-40.18405410374675
 31
0.0
  0
LINE
  5
7BB8
330
1F
100
AcDbEntity
  8
AM_0
100
AcDbLine
 10
26.73955618188333
 20
-42.92319964054029
 30
0.0
 11
26.75103125295254
 21
-42.83620934499139
 31
0.0
  0
LINE
  5
7BB9
330
1F
100
AcDbEntity
  8
AM_0
100
AcDbLine
 10
26.62120768043357
 20
-43.17445023312536
 30
0.0
 11
26.75109228733319
 21
-42.83635430381535
 31
0.0
  0
LINE
  5
7BBA
330
1F
100
AcDbEntity
  8
AM_0
100
AcDbLine
 10
27.0258155623344
 20
-42.07576616225075
 30
0.0
 11
27.76923380693512
 21
-40.18377944619461
 31
0.0
  0
LINE
  5
7BBB
330
1F
100
AcDbEntity
  8
AM_0
100
AcDbLine
 10
26.94854491085999
 20
-42.10283484393776
 30
0.0
 11
27.01861341880405
 21
-42.07484296728632
 31
0.0
  0
LINE
  5
7BBC
330
1F
100
AcDbEntity
  8
AM_0
100
AcDbLine
 10
26.7832001510458
 20
-42.20110056796447
 30
0.0
 11
26.94814818121625
 21
-42.10304846488216
 31
0.0
  0
LINE
  5
7BBE
330
1F
100
AcDbEntity
  8
AM_0
100
AcDbLine
 10
26.47132002785927
 20
-34.6563296254872
 30
0.0
 11
27.14734497792716
 21
-34.73934102589815
 31
0.0
  0
LINE
  5
7BBF
330
1F
100
AcDbEntity
  8
AM_0
100
AcDbLine
 10
20.84364375138022
 20
-32.909610914562
 30
0.0
 11
34.49964961055789
 21
-32.90968339194173
 31
0.0
  0
LINE
  5
7BC0
330
1F
100
AcDbEntity
  8
AM_0
100
AcDbLine
 10
21.79768072760185
 20
-33.5787062489919
 30
0.0
 11
22.94611747929414
 21
-33.71970355510456
 31
0.0
  0
LINE
  5
7BC1
330
1F
100
AcDbEntity
  8
AM_0
100
AcDbLine
 10
20.90321109541332
 20
-33.46892214380538
 30
0.0
 11
21.79774176264038
 21
-33.57872913749584
 31
0.0
  0
LINE
  5
7BC2
330
1F
100
AcDbEntity
  8
AM_0
100
AcDbLine
 10
20.42610003143178
 20
-33.32715020242181
 30
0.0
 11
20.84362849263069
 21
-32.90960328509097
 31
0.0
  0
LINE
  5
7BC3
330
1F
100
AcDbEntity
  8
AM_0
100
AcDbLine
 10
20.35212502880483
 20
-33.40124648950067
 30
0.0
 11
20.42596270152194
 21
-33.32730278958289
 31
0.0
  0
LINE
  5
7BC4
330
1F
100
AcDbEntity
  8
AM_0
100
AcDbLine
 10
20.35209451175123
 20
-33.40114730720865
 30
0.0
 11
21.89555053724004
 21
-33.5906544002627
 31
0.0
  0
LINE
  5
7BC5
330
1F
100
AcDbEntity
  8
AM_0
100
AcDbLine
 10
26.44727486569502
 20
-34.14960037188365
 30
0.0
 11
26.4133393405292
 21
-34.14551083630544
 31
0.0
  0
LINE
  5
7BC6
330
1F
100
AcDbEntity
  8
AM_0
100
AcDbLine
 10
26.35260672626012
 20
-34.64176448127243
 30
0.0
 11
26.38629811015806
 21
-34.6459760858649
 31
0.0
  0
LINE
  5
7BC7
330
1F
100
AcDbEntity
  8
AM_0
100
AcDbLine
 10
26.15659512335904
 20
-34.11393140971028
 30
0.0
 11
26.31430986417627
 21
-34.13332616765991
 31
0.0
  0
LINE
  5
7BC8
330
1F
100
AcDbEntity
  8
AM_0
100
AcDbLine
 10
26.38620655782298
 20
-34.64589979142896
 30
0.0
 11
26.44724434823649
 21
-34.14957748354171
 31
0.0
  0
LINE
  5
7BC9
330
1F
100
AcDbEntity
  8
AM_0
100
AcDbLine
 10
26.31430986429774
 20
-34.13330327946989
 30
0.0
 11
26.4134308932592
 21
-34.14551083679134
 31
0.0
  0
LINE
  5
7BCA
330
1F
100
AcDbEntity
  8
AM_0
100
AcDbLine
 10
26.09558785080898
 20
-34.61020031199949
 30
0.0
 11
26.15662564106051
 21
-34.11390852168222
 31
0.0
  0
LINE
  5
7BCB
330
1F
100
AcDbEntity
  8
AM_0
100
AcDbLine
 10
26.09558785056603
 20
-34.61024608836951
 30
0.0
 11
26.25351621435226
 21
-34.62965610624294
 31
0.0
  0
LINE
  5
7BCC
330
1F
100
AcDbEntity
  8
AM_0
100
AcDbLine
 10
25.77219328610323
 20
-34.57050285588665
 30
0.0
 11
26.47141158072074
 21
-34.6563067377831
 31
0.0
  0
LINE
  5
7BCD
330
1F
100
AcDbEntity
  8
AM_0
100
AcDbLine
 10
22.9461174794156
 20
-33.71968066691454
 30
0.0
 11
26.15656460590051
 21
-34.11390852135829
 31
0.0
  0
LINE
  5
7BCE
330
1F
100
AcDbEntity
  8
AM_0
100
AcDbLine
 10
22.92701081426239
 20
-34.22110726229561
 30
0.0
 11
22.94605644406317
 21
-33.71971881357064
 31
0.0
  0
LINE
  5
7BCF
330
1F
100
AcDbEntity
  8
AM_0
100
AcDbLine
 10
22.92701081446486
 20
-34.22106911532562
 30
0.0
 11
25.7722238038047
 21
-34.57047996785859
 31
0.0
  0
LINE
  5
7BD0
330
1F
100
AcDbEntity
  8
AM_0
100
AcDbLine
 10
30.49557169537993
 20
-36.50416745095753
 30
0.0
 11
31.11672901026673
 21
-36.02752432431814
 31
0.0
  0
LINE
  5
7BD1
330
1F
100
AcDbEntity
  8
AM_0
100
AcDbLine
 10
30.49557169537993
 20
-36.50416745095753
 30
0.0
 11
31.11672901026673
 21
-36.02752432431814
 31
0.0
  0
LINE
  5
7BD2
330
1F
100
AcDbEntity
  8
AM_0
100
AcDbLine
 10
29.06011428541487
 20
-36.89752378510961
 30
0.0
 11
29.77196781006713
 21
-36.80382333954327
 31
0.0
  0
LINE
  5
7BD3
330
1F
100
AcDbEntity
  8
AM_0
100
AcDbLine
 10
29.77190677491714
 20
-36.80382333921934
 30
0.0
 11
30.49551066035141
 21
-36.50414456245357
 31
0.0
  0
LINE
  5
7BD4
330
1F
100
AcDbEntity
  8
AM_0
100
AcDbLine
 10
29.77227298609011
 20
-36.80377756479298
 30
0.0
 11
30.49563273086386
 21
-36.50410641613146
 31
0.0
  0
LINE
  5
7BD5
330
1F
100
AcDbEntity
  8
AM_0
100
AcDbLine
 10
29.71454301203593
 20
-35.0545554566144
 30
0.0
 11
29.77484570665197
 21
-35.06204784209282
 31
0.0
  0
LINE
  5
7BD6
330
1F
100
AcDbEntity
  8
AM_0
100
AcDbLine
 10
29.53485562914122
 20
-35.03249029396792
 30
0.0
 11
29.71454301235985
 21
-35.0544944214644
 31
0.0
  0
LINE
  5
7BD7
330
1F
100
AcDbEntity
  8
AM_0
100
AcDbLine
 10
29.46521008543373
 20
-35.86726012697552
 30
0.0
 11
29.77502881203099
 21
-35.06206310185461
 31
0.0
  0
LINE
  5
7BD8
330
1F
100
AcDbEntity
  8
AM_0
100
AcDbLine
 10
29.24155137694791
 20
-34.99647036571531
 30
0.0
 11
29.53500821715269
 21
-35.03246740658776
 31
0.0
  0
LINE
  5
7BD9
330
1F
100
AcDbEntity
  8
AM_0
100
AcDbLine
 10
29.02904736938407
 20
-36.90157482872622
 30
0.0
 11
29.77190677516012
 21
-36.80377756284937
 31
0.0
  0
LINE
  5
7BDA
330
1F
100
AcDbEntity
  8
AM_0
100
AcDbLine
 10
28.84302258402
 20
-34.94751805525765
 30
0.0
 11
29.24145982393449
 21
-34.99652377098943
 31
0.0
  0
LINE
  5
7BDB
330
1F
100
AcDbEntity
  8
AM_0
100
AcDbLine
 10
28.3511405803008
 20
-34.88712878695046
 30
0.0
 11
28.84308361912951
 21
-34.94752568498157
 31
0.0
  0
LINE
  5
7BDC
330
1F
100
AcDbEntity
  8
AM_0
100
AcDbLine
 10
27.78030965351905
 20
-34.81702688038255
 30
0.0
 11
28.3511100627208
 21
-34.8871287867885
 31
0.0
  0
LINE
  5
7BDD
330
1F
100
AcDbEntity
  8
AM_0
100
AcDbLine
 10
27.14755860105816
 20
-34.7393257682419
 30
0.0
 11
27.78037068871953
 21
-34.8170192513165
 31
0.0
  0
LINE
  5
7BDE
330
1F
100
AcDbEntity
  8
AM_0
100
AcDbLine
 10
29.06048049692175
 20
-36.89741697553319
 30
0.0
 11
29.46527112075571
 21
-35.86722960972946
 31
0.0
  0
LINE
  5
7BDF
330
1F
100
AcDbEntity
  8
AM_0
100
AcDbLine
 10
29.73697341717604
 20
-35.05734030467071
 30
0.0
 11
30.56144770632335
 21
-32.9096624904748
 31
0.0
  0
LINE
  5
7BE0
330
1F
100
AcDbEntity
  8
AM_0
100
AcDbLine
 10
31.99613478170968
 20
-33.90967773429391
 30
0.0
 11
31.89335571941103
 21
-33.12947241584717
 31
0.0
  0
LINE
  5
7BE1
330
1F
100
AcDbEntity
  8
AM_0
100
AcDbLine
 10
31.59378308970212
 20
-35.40608978345855
 30
0.0
 11
31.89353058229596
 21
-34.6825195969771
 31
0.0
  0
LINE
  5
7BE2
330
1F
100
AcDbEntity
  8
AM_0
100
AcDbLine
 10
31.11700366943856
 20
-36.02734122030584
 30
0.0
 11
31.59366101874425
 21
-35.40621185312068
 31
0.0
  0
LINE
  5
7BE3
330
1F
100
AcDbEntity
  8
AM_0
100
AcDbLine
 10
31.89359161883268
 20
-34.68226019788101
 30
0.0
 11
31.99564651961236
 21
-33.90606902809249
 31
0.0
  0
LINE
  5
7BE4
330
1F
100
AcDbEntity
  8
AM_0
100
AcDbLine
 10
34.49964430319491
 20
-33.90968339192764
 30
0.0
 11
34.49964961055789
 21
-32.90968339194173
 31
0.0
  0
LINE
  5
7BE5
330
1F
100
AcDbEntity
  8
AM_0
100
AcDbLine
 10
31.89353058322726
 20
-34.68234412089708
 30
0.0
 11
31.99604322902016
 21
-33.90967010440802
 31
0.0
  0
LINE
  5
7BE6
330
1F
100
AcDbEntity
  8
AM_0
100
AcDbLine
 10
31.99549393147944
 20
-33.90611480364267
 30
0.0
 11
31.89320313131859
 21
-33.12951056200733
 31
0.0
  0
LINE
  5
7BE7
330
1F
100
AcDbEntity
  8
AM_0
100
AcDbLine
 10
31.59378308929723
 20
-35.40616607739852
 30
0.0
 11
31.89356109939004
 21
-34.68261114986908
 31
0.0
  0
LINE
  5
7BE8
330
1F
100
AcDbEntity
  8
AM_0
100
AcDbLine
 10
31.89326416635711
 20
-33.12953345052128
 30
0.0
 11
31.80220087969044
 21
-32.90975299894224
 31
0.0
  0
LINE
  5
7BE9
330
1F
100
AcDbEntity
  8
AM_0
100
AcDbLine
 10
31.11700366943856
 20
-36.02734122030584
 30
0.0
 11
31.59366101874425
 21
-35.40621185312068
 31
0.0
  0
LINE
  5
7BEA
330
1F
100
AcDbEntity
  8
AM_0
100
AcDbLine
 10
17.59987928850947
 20
-22.40955555160869
 30
0.0
 11
19.11401744350942
 21
-23.67995695928734
 31
0.0
  0
LINE
  5
7BEB
330
1F
100
AcDbEntity
  8
AM_0
100
AcDbLine
 10
17.59980299423551
 20
-22.40961658636377
 30
0.0
 11
18.40803583976631
 21
-21.40978872261482
 31
0.0
  0
LINE
  5
7BEC
330
1F
100
AcDbEntity
  8
AM_0
100
AcDbLine
 10
26.49971064534463
 20
-21.40964093319994
 30
0.0
 11
26.68061884847207
 21
-21.40964189334542
 31
0.0
  0
LINE
  5
7BED
330
1F
100
AcDbEntity
  8
AM_0
100
AcDbLine
 10
26.46870478597506
 20
-21.40964076864058
 30
0.0
 11
27.02485712971724
 21
-21.40964372034293
 31
0.0
  0
LINE
  5
7BEE
330
1F
100
AcDbEntity
  8
AM_0
100
AcDbLine
 10
25.66963252035631
 20
-21.40963652767403
 30
0.0
 11
26.99971064533758
 21
-21.4096435868814
 31
0.0
  0
LINE
  5
7BEF
330
1F
100
AcDbEntity
  8
AM_0
100
AcDbLine
 10
25.99971064535168
 20
-21.40963827951845
 30
0.0
 11
26.11909541098001
 21
-21.40963891313672
 31
0.0
  0
LINE
  5
7BF0
330
1F
100
AcDbEntity
  8
AM_0
100
AcDbLine
 10
24.80122431724857
 20
-21.40963191871649
 30
0.0
 11
25.66963252035631
 21
-21.40963652767403
 31
0.0
  0
LINE
  5
7BF1
330
1F
100
AcDbEntity
  8
AM_0
100
AcDbLine
 10
24.4997106453728
 20
-21.409630318474
 30
0.0
 11
24.80122431724857
 21
-21.40963191871649
 31
0.0
  0
LINE
  5
7BF2
330
1F
100
AcDbEntity
  8
AM_0
100
AcDbLine
 10
26.11909541098001
 20
-21.40963891313672
 30
0.0
 11
26.46870478597506
 21
-21.40964076864058
 31
0.0
  0
LINE
  5
7BF3
330
1F
100
AcDbEntity
  8
AM_0
100
AcDbLine
 10
30.02070673904503
 20
-21.40965962040426
 30
0.0
 11
30.99971064528125
 21
-21.40966481633331
 31
0.0
  0
LINE
  5
7BF4
330
1F
100
AcDbEntity
  8
AM_0
100
AcDbLine
 10
30.36787470779015
 20
-21.40966146295065
 30
0.0
 11
31.99971064526715
 21
-21.40967012369629
 31
0.0
  0
LINE
  5
7BF5
330
1F
100
AcDbEntity
  8
AM_0
100
AcDbLine
 10
30.40571650466961
 20
-21.40966166379082
 30
0.0
 11
31.24971064527773
 21
-21.40966614317407
 31
0.0
  0
LINE
  5
7BF6
330
1F
100
AcDbEntity
  8
AM_0
100
AcDbLine
 10
27.02485712971724
 20
-21.40964372034293
 30
0.0
 11
27.74971064532704
 21
-21.40964756740368
 31
0.0
  0
LINE
  5
7BF7
330
1F
100
AcDbEntity
  8
AM_0
100
AcDbLine
 10
26.99971064533758
 20
-21.4096435868814
 30
0.0
 11
28.63154658281462
 21
-21.40965224762711
 31
0.0
  0
LINE
  5
7BF8
330
1F
100
AcDbEntity
  8
AM_0
100
AcDbLine
 10
27.99971064532351
 20
-21.40964889424445
 30
0.0
 11
28.9789586921897
 21
-21.40965409146924
 31
0.0
  0
LINE
  5
7BF9
330
1F
100
AcDbEntity
  8
AM_0
100
AcDbLine
 10
26.68061884847207
 20
-21.40964189334542
 30
0.0
 11
27.20161494221474
 21
-21.40964465846079
 31
0.0
  0
LINE
  5
7BFA
330
1F
100
AcDbEntity
  8
AM_0
100
AcDbLine
 10
27.74971064532704
 20
-21.40964756740368
 30
0.0
 11
28.59394892656513
 21
-21.40965204808268
 31
0.0
  0
LINE
  5
7BFB
330
1F
100
AcDbEntity
  8
AM_0
100
AcDbLine
 10
28.9789586921897
 20
-21.40965409146924
 30
0.0
 11
30.02046259842504
 21
-21.4096596191085
 31
0.0
  0
LINE
  5
7BFC
330
1F
100
AcDbEntity
  8
AM_0
100
AcDbLine
 10
29.49995478593237
 20
-21.40965685658461
 30
0.0
 11
30.40571650466961
 21
-21.40966166379082
 31
0.0
  0
LINE
  5
7BFD
330
1F
100
AcDbEntity
  8
AM_0
100
AcDbLine
 10
28.63154658281462
 20
-21.40965224762711
 30
0.0
 11
30.36787470779015
 21
-21.40966146295065
 31
0.0
  0
LINE
  5
7BFE
330
1F
100
AcDbEntity
  8
AM_0
100
AcDbLine
 10
28.59394892656513
 20
-21.40965204808268
 30
0.0
 11
29.49995478593237
 21
-21.40965685658461
 31
0.0
  0
LINE
  5
7BFF
330
1F
100
AcDbEntity
  8
AM_0
100
AcDbLine
 10
27.20161494221474
 20
-21.40964465846079
 30
0.0
 11
27.99971064532351
 21
-21.40964889424445
 31
0.0
  0
LINE
  5
7C00
330
1F
100
AcDbEntity
  8
AM_0
100
AcDbLine
 10
34.19819697336622
 20
-21.40968179186121
 30
0.0
 11
34.49971064523198
 21
-21.40968339210369
 31
0.0
  0
LINE
  5
7C01
330
1F
100
AcDbEntity
  8
AM_0
100
AcDbLine
 10
31.97456416089752
 20
-21.40966999023476
 30
0.0
 11
32.53071650463969
 21
-21.40967294193712
 31
0.0
  0
LINE
  5
7C02
330
1F
100
AcDbEntity
  8
AM_0
100
AcDbLine
 10
31.99971064526715
 20
-21.40967012369629
 30
0.0
 11
33.32978877024843
 21
-21.40967718290367
 31
0.0
  0
LINE
  5
7C03
330
1F
100
AcDbEntity
  8
AM_0
100
AcDbLine
 10
32.53071650463969
 20
-21.40967294193712
 30
0.0
 11
32.88057002025477
 21
-21.40967479873669
 31
0.0
  0
LINE
  5
7C04
330
1F
100
AcDbEntity
  8
AM_0
100
AcDbLine
 10
32.88057002025477
 20
-21.40967479873669
 30
0.0
 11
32.9997106452531
 21
-21.40967543105924
 31
0.0
  0
LINE
  5
7C05
330
1F
100
AcDbEntity
  8
AM_0
100
AcDbLine
 10
33.33003291087844
 20
-21.40967718419942
 30
0.0
 11
34.19819697336622
 21
-21.40968179186121
 31
0.0
  0
LINE
  5
7C06
330
1F
100
AcDbEntity
  8
AM_0
100
AcDbLine
 10
30.99971064528125
 20
-21.40966481633331
 30
0.0
 11
31.79780634840003
 21
-21.4096690521169
 31
0.0
  0
LINE
  5
7C07
330
1F
100
AcDbEntity
  8
AM_0
100
AcDbLine
 10
31.79780634840003
 20
-21.4096690521169
 30
0.0
 11
32.31880244214268
 21
-21.40967181723227
 31
0.0
  0
LINE
  5
7C08
330
1F
100
AcDbEntity
  8
AM_0
100
AcDbLine
 10
31.24971064527773
 20
-21.40966614317407
 30
0.0
 11
31.97456416089752
 21
-21.40966999023476
 31
0.0
  0
LINE
  5
7C09
330
1F
100
AcDbEntity
  8
AM_0
100
AcDbLine
 10
32.31880244214268
 20
-21.40967181723227
 30
0.0
 11
32.49971064526014
 21
-21.40967277737775
 31
0.0
  0
LINE
  5
7C0B
330
1F
100
AcDbEntity
  8
AM_0
100
AcDbLine
 10
44.36806577459332
 20
-31.40973576718709
 30
0.0
 11
149.9994134293555
 21
-31.4102963910895
 31
0.0
  0
LINE
  5
7C0D
330
1F
100
AcDbEntity
  8
AM_0
100
AcDbLine
 10
39.4997053377986
 20
-22.40970992890439
 30
0.0
 11
39.49964430312448
 21
-33.90970992874246
 31
0.0
  0
LINE
  5
7C0E
330
1F
100
AcDbEntity
  8
AM_0
100
AcDbLine
 10
38.49964430313855
 20
-33.90970462137949
 30
0.0
 11
38.49970533781267
 21
-22.40970462154145
 31
0.0
  0
LINE
  5
7C11
330
1F
100
AcDbEntity
  8
AM_0
100
AcDbLine
 10
42.49965757148965
 20
-31.40972585086658
 30
0.0
 11
43.32802671210799
 21
-31.40973024732229
 31
0.0
  0
LINE
  5
7C12
330
1F
100
AcDbEntity
  8
AM_0
100
AcDbLine
 10
42.49965757148965
 20
-31.40972585086658
 30
0.0
 11
43.32802671210799
 21
-31.40973024732229
 31
0.0
  0
LINE
  5
7C13
330
1F
100
AcDbEntity
  8
AM_0
100
AcDbLine
 10
40.49964430311038
 20
-33.90971523610541
 30
0.0
 11
40.4996575715178
 21
-31.4097152361406
 31
0.0
  0
LINE
  5
7C14
330
1F
100
AcDbEntity
  8
AM_0
100
AcDbLine
 10
41.53505796213323
 20
-31.40972073138629
 30
0.0
 11
42.49965757148965
 21
-31.40972585086658
 31
0.0
  0
LINE
  5
7C15
330
1F
100
AcDbEntity
  8
AM_0
100
AcDbLine
 10
41.53481382150324
 20
-31.40972073009054
 30
0.0
 11
42.49965757148965
 21
-31.40972585086658
 31
0.0
  0
LINE
  5
7C16
330
1F
100
AcDbEntity
  8
AM_0
100
AcDbLine
 10
40.5001458527678
 20
-31.4097152387321
 30
0.0
 11
41.53456968088326
 21
-31.4097207287948
 31
0.0
  0
LINE
  5
7C17
330
1F
100
AcDbEntity
  8
AM_0
100
AcDbLine
 10
40.4996575715178
 20
-31.4097152361406
 30
0.0
 11
41.53481382150324
 21
-31.40972073009054
 31
0.0
  0
LINE
  5
7C18
330
1F
100
AcDbEntity
  8
AM_0
100
AcDbLine
 10
39.49965757153191
 20
-31.40970992877765
 30
0.0
 11
40.4996575715178
 21
-31.4097152361406
 31
0.0
  0
LINE
  5
7C19
330
1F
100
AcDbEntity
  8
AM_0
100
AcDbLine
 10
39.49965757153191
 20
-31.40970992877765
 30
0.0
 11
40.49990171214782
 21
-31.40971523743635
 31
0.0
  0
LINE
  5
7C1A
330
1F
100
AcDbEntity
  8
AM_0
100
AcDbLine
 10
44.36805189674132
 20
-34.02456578424024
 30
0.0
 11
44.36806577459332
 21
-31.40973576718709
 31
0.0
  0
LINE
  5
7C1B
330
1F
100
AcDbEntity
  8
AM_0
100
AcDbLine
 10
44.36342710271341
 20
-31.40973574256797
 30
0.0
 11
44.49965757146148
 21
-31.40973646559253
 31
0.0
  0
LINE
  5
7C1C
330
1F
100
AcDbEntity
  8
AM_0
100
AcDbLine
 10
43.96376889959905
 20
-31.40973362143683
 30
0.0
 11
44.36342710271341
 21
-31.40973574256797
 31
0.0
  0
LINE
  5
7C1D
330
1F
100
AcDbEntity
  8
AM_0
100
AcDbLine
 10
43.96376889959905
 20
-31.40973362143683
 30
0.0
 11
44.36806577459332
 21
-31.40973576718709
 31
0.0
  0
LINE
  5
7C1E
330
1F
100
AcDbEntity
  8
AM_0
100
AcDbLine
 10
43.32802671210799
 20
-31.40973024732229
 30
0.0
 11
43.96376889959905
 21
-31.40973362143683
 31
0.0
  0
LINE
  5
7C1F
330
1F
100
AcDbEntity
  8
AM_0
100
AcDbLine
 10
43.32802671210799
 20
-31.40973024732229
 30
0.0
 11
43.96376889959905
 21
-31.40973362143683
 31
0.0
  0
LINE
  5
7C20
330
1F
100
AcDbEntity
  8
AM_0
100
AcDbLine
 10
38.49949171388187
 20
-22.40987246708764
 30
0.0
 11
38.99946384969286
 21
-21.90992852638423
 31
0.0
  0
LINE
  5
7C21
330
1F
100
AcDbEntity
  8
AM_0
100
AcDbLine
 10
38.99964695601319
 20
-21.90976831006603
 30
0.0
 11
38.49964960970169
 21
-21.40976565639161
 31
0.0
  0
LINE
  5
7C22
330
1F
100
AcDbEntity
  8
AM_0
100
AcDbLine
 10
38.99964695601319
 20
-21.90976831006603
 30
0.0
 11
39.49961378478515
 21
-22.40976333418851
 31
0.0
  0
LINE
  5
7C25
330
1F
100
AcDbEntity
  8
AM_0
100
AcDbLine
 10
149.9996575699755
 20
-31.41029639238525
 30
0.0
 11
149.9995248859013
 21
-56.41029639203317
 31
0.0
  0
DIMENSION
  5
7DA6
330
1F
100
AcDbEntity
  8
AM_5
100
AcDbDimension
  2
*D2
 10
163.9995912279384
 20
-31.41029639108951
 30
0.0
 11
160.8995912279384
 21
-43.91029639156131
 31
0.0
 70
    32
  1
<>
 71
     5
 42
25.00000000094367
 51
359.9999999999998
  3
AM_JIS$0
100
AcDbAlignedDimension
 13
149.9995248859013
 23
-56.41029639203317
 33
0.0
 14
149.9994134293555
 24
-31.4102963910895
 34
0.0
 50
89.99999999999998
100
AcDbRotatedDimension
1001
GENIUS_GENDTOL_13
1000

1000
h7
1000

1040
0.0
1001
ACAD
1000
DSTYLE
1002
{
1070
   287
1070
     3
1070
    40
1040
1.0
1070
    42
1040
1.0
1070
    43
1040
12.0
1070
    48
1040
0.1
1070
    78
1070
     8
1070
   140
1040
3.2
1070
   176
1070
   256
1070
   177
1070
   256
1070
   271
1070
     0
1070
   272
1070
     3
1070
   275
1070
     0
1070
   284
1070
     0
1070
   289
1070
     3
1070
   340
1005
6B
1070
   371
1070
    -1
1070
   372
1070
    -1
1002
}
  0
DIMENSION
  5
7E32
330
1F
100
AcDbEntity
  8
AM_5
100
AcDbDimension
  2
*D3
 10
163.9995912279385
 20
21.99920389662234
 30
0.0
 11
160.8995912279385
 21
9.499203896798414
 31
0.0
 70
    32
  1
<>
 71
     5
 42
24.9999999996479
 51
359.9999999999998
  3
AM_JIS$0
100
AcDbAlignedDimension
 13
149.9997246763881
 23
-3.000796103025558
 33
0.0
 14
149.9998573604623
 24
21.99920389662235
 34
0.0
 50
89.99999999999998
100
AcDbRotatedDimension
1001
GENIUS_GENDTOL_13
1000

1000
h7
1000

1040
0.0
1001
ACAD
1000
DSTYLE
1002
{
1070
   287
1070
     3
1070
    40
1040
1.0
1070
    42
1040
1.0
1070
    43
1040
12.0
1070
    48
1040
0.1
1070
    78
1070
     8
1070
   140
1040
3.2
1070
   176
1070
   256
1070
   177
1070
   256
1070
   271
1070
     0
1070
   272
1070
     3
1070
   275
1070
     0
1070
   284
1070
     0
1070
   289
1070
     3
1070
   340
1005
6B
1070
   371
1070
    -1
1070
   372
1070
    -1
1002
}
  0
DIMENSION
  5
7EDD
330
1F
100
AcDbEntity
  8
AM_5
100
AcDbDimension
  2
*D4
 10
149.9998573604624
 20
47.98728816417037
 30
0.0
 11
74.99992868020301
 21
51.0872881641707
 31
0.0
 70
    32
  1
<>
 71
     5
 42
149.9998573605188
 51
359.9999999999998
  3
AM_JIS$0
100
AcDbAlignedDimension
 13
-0.0000000000566124
 23
-0.0000212294516948
 33
0.0
 14
149.9998573604623
 24
21.99920389662235
 34
0.0
 50
180.0
100
AcDbRotatedDimension
1001
GENIUS_GENDTOL_13
1000

1000
h7
1000

1040
0.0
1001
ACAD
1000
DSTYLE
1002
{
1070
   287
1070
     3
1070
    40
1040
1.0
1070
    42
1040
1.0
1070
    43
1040
12.0
1070
    48
1040
0.1
1070
    78
1070
     8
1070
   140
1040
3.2
1070
   176
1070
   256
1070
   177
1070
   256
1070
   271
1070
     0
1070
   272
1070
     3
1070
   275
1070
     0
1070
   284
1070
     0
1070
   289
1070
     3
1070
   340
1005
6B
1070
   371
1070
    -1
1070
   372
1070
    -1
1002
}
  0
DIMENSION
  5
80D2
330
1F
100
AcDbEntity
  8
AM_5
100
AcDbDimension
  2
*D5
 10
19.99990512952169
 20
37.67502390906352
 30
0.0
 11
9.999952564732502
 21
40.77502390906349
 31
0.0
 70
    32
  1
<>
 71
     5
 42
19.99990512957837
 51
359.9999999999998
  3
AM_JIS$0
100
AcDbAlignedDimension
 13
-0.0000000000566124
 23
-0.0000212294517027
 33
0.0
 14
19.99990512952174
 24
7.999893853357043
 34
0.0
 50
180.0000000000002
100
AcDbRotatedDimension
1001
GENIUS_GENDTOL_13
1000

1000
h7
1000

1040
0.0
1001
ACAD
1000
DSTYLE
1002
{
1070
   287
1070
     3
1070
    40
1040
1.0
1070
    42
1040
1.0
1070
    43
1040
12.0
1070
    48
1040
0.1
1070
    78
1070
     8
1070
   140
1040
3.2
1070
   176
1070
   256
1070
   177
1070
   256
1070
   271
1070
     0
1070
   272
1070
     3
1070
   275
1070
     0
1070
   284
1070
     0
1070
   289
1070
     3
1070
   340
1005
6B
1070
   371
1070
    -1
1070
   372
1070
    -1
1002
}
  0
DIMENSION
  5
817F
330
1F
100
AcDbEntity
  8
AM_5
100
AcDbDimension
  2
*D6
 10
25.10466904014016
 20
18.94694928020633
 30
0.0
 11
41.91327514578983
 21
33.21583049808859
 31
0.0
 70
    34
  1
<>
 71
     5
 42
0.4363321177052148
 51
359.9999999999998
  3
AM_JIS$2
100
AcDb2LineAngularDimension
 13
19.99988655375136
 23
4.499893853406354
 33
0.0
 14
19.99989451422894
 24
5.99978704186521
 34
0.0
 15
19.99990512952174
 25
7.999893853357043
 35
0.0
 16
24.300930826072
 26
37.36168061447755
 36
0.0
1001
GENIUS_GENDTOL_13
1000

1000
h7
1000

1040
0.0
  0
DIMENSION
  5
8277
330
1F
100
AcDbEntity
  8
AM_5
100
AcDbDimension
  2
*D7
 10
-14.00104431256311
 20
-56.40951428685465
 30
0.0
 11
-17.1010443125631
 21
-43.90765715736501
 31
0.0
 70
    32
  1
<>
 71
     5
 42
25.00371425897927
 51
359.9999999999998
  3
AM_JIS$0
100
AcDbAlignedDimension
 13
-0.0010443125631527
 23
-31.40580002787538
 33
0.0
 14
1.199720200456734
 24
-56.40951428685465
 34
0.0
 50
270.0000000000001
100
AcDbRotatedDimension
1001
GENIUS_GENDTOL_13
1000

1000
h7
1000

1040
0.0
1001
ACAD
1000
DSTYLE
1002
{
1070
   287
1070
     3
1070
     7
1000
OPEN30
1070
     5
1000

1070
   173
1070
     1
1070
     6
1000
OPEN30
1070
    40
1040
1.0
1070
    42
1040
1.0
1070
    43
1040
12.0
1070
    48
1040
0.1
1070
    78
1070
     8
1070
   140
1040
3.2
1070
   176
1070
   256
1070
   177
1070
   256
1070
   271
1070
     0
1070
   272
1070
     3
1070
   275
1070
     0
1070
   284
1070
     0
1070
   289
1070
     3
1070
   340
1005
6B
1070
   371
1070
    -1
1070
   372
1070
    -1
1002
}
  0
DIMENSION
  5
8319
330
1F
100
AcDbEntity
  8
AM_5
100
AcDbDimension
  2
*D8
 10
0.1438038539604632
 20
-31.40580002787538
 30
0.0
 11
-12.8999444713759
 21
-19.10516981627192
 31
0.0
 70
    34
  1
<>
 71
     5
 42
0.1221674751615549
 51
359.9999999999998
  3
AM_JIS$2
100
AcDb2LineAngularDimension
 13
-0.0010443125631527
 23
-31.40580002787538
 33
0.0
 14
6.847126273874748
 24
-32.24661090974413
 34
0.0
 15
-0.0010443125631527
 25
-31.40580002787538
 35
0.0
 16
-14.01384080519134
 26
-30.83484839673613
 36
0.0
1001
GENIUS_GENDTOL_13
1000

1000
h7
1000

1040
0.0
1001
ACAD
1000
DSTYLE
1002
{
1070
   271
1070
     0
1070
   282
1070
     1
1070
   281
1070
     0
1070
     6
1000
OPEN30
1070
     5
1000

1070
   173
1070
     1
1070
     7
1000
NONE
1002
}
  0
DIMENSION
  5
8495
330
1F
100
AcDbEntity
  8
AM_5
100
AcDbDimension
  2
*D9
 10
-0.0010443125631527
 20
-31.40580002787538
 30
0.0
 11
-2.525135623091212
 21
-64.21976571802169
 31
0.0
 70
   162
  1
<>
 71
     5
 42
0.1294779723185773
 51
359.9999999999998
  3
AM_JIS$2
100
AcDb2LineAngularDimension
 13
-0.0010443125631527
 23
-31.40580002787538
 33
0.0
 14
-0.0010443125631527
 24
-31.42806759165902
 34
0.0
 15
0.9717096159802441
 25
-38.87666090362878
 35
0.0
 16
2.836253669153372
 26
-64.19416871893609
 36
0.0
1001
GENIUS_GENDTOL_13
1000

1000
h7
1000

1040
0.0
1001
ACAD
1000
DSTYLE
1002
{
1070
   271
1070
     0
1002
}
  0
DIMENSION
  5
85A8
330
1F
100
AcDbEntity
  8
AM_5
100
AcDbDimension
  2
*D10
 10
-53.49502909971582
 20
160.700427463362
 30
0.0
 11
-88.67332803873249
 21
18.94816852522914
 31
0.0
 70
   164
  1
%%c325
 71
     5
 42
164.6999969482401
 51
359.9999999999998
  3
AM_JIS$4
100
AcDbRadialDimension
 15
-93.16488503799851
 25
0.8492731835564484
 35
0.0
 40
0.0
1001
ACAD
1000
DSTYLE
1002
{
1070
   287
1070
     3
1070
    43
1040
12.0
1070
    74
1070
     0
1070
   172
1070
     1
1070
   271
1070
     0
1070
   288
1070
     0
1070
   289
1070
     3
1002
}
  0
DIMENSION
  5
8853
330
1F
100
AcDbEntity
  8
AM_5
100
AcDbDimension
  2
*D11
 10
-14.00000000005662
 20
3.999978770548309
 30
0.0
 11
-14.00000000005662
 21
-0.0000212294517197
 31
0.0
 70
   160
  1
<>
 71
     5
 42
8.0
 51
359.9999999999998
  3
AM_JIS$0
100
AcDbAlignedDimension
 13
3.999999999943394
 23
-4.000021229451695
 33
0.0
 14
3.99999999994338
 24
3.999978770548304
 34
0.0
 50
270.0000000000001
100
AcDbRotatedDimension
1001
GENIUS_GENDTOL_13
1000

1000
h7
1000

1040
0.0
1001
ACAD
1000
DSTYLE
1002
{
1070
   271
1070
     0
1002
}
  0
DIMENSION
  5
88FC
330
1F
100
AcDbEntity
  8
AM_5
100
AcDbDimension
  2
*D12
 10
-24.0000000000566
 20
-4.000021229451687
 30
0.0
 11
-27.4000000000566
 21
8.999908732938054
 31
0.0
 70
    32
  1
<>
 71
     5
 42
25.99985992477949
 51
359.9999999999998
  3
AM_JIS$0
100
AcDbAlignedDimension
 13
30.39267962776689
 23
21.99983869532779
 33
0.0
 14
3.999999999943394
 24
-4.000021229451695
 34
0.0
 50
270.0000000000001
100
AcDbRotatedDimension
1001
GENIUS_GENDTOL_13
1000

1000
h7
1000

1040
0.0
1001
ACAD
1000
DSTYLE
1002
{
1070
   271
1070
     0
1002
}
  0
MTEXT
  5
89D1
330
1F
100
AcDbEntity
  8
AM_6
100
AcDbMText
 10
-25.07243587066991
 20
-33.36582459603379
 30
0.0
 40
5.0
 41
0.0
 71
     5
 72
     5
  1
\T1.4;\W0.59;＋７°
  7
ASAMI
 73
     1
 44
1.0
1001
ACAD
1000
MTEXTBEGIN
1070
    73
1070
     1
1070
    44
1040
1.0
1070
    74
1070
     0
1000
MTEXTEND
  0
LEADER
  5
89D2
330
1F
100
AcDbEntity
  8
AM_5
  6
Continuous
 48
0.5
100
AcDbLeader
  3
AM_JIS$7
 76
     2
 10
-42.49569868424117
 20
-23.47102900316295
 30
0.0
 10
-42.49569868424113
 20
-33.47102900316296
 30
0.0
211
1.0
221
0.0000000000000057
231
0.0
1001
ACAD
1000
DSTYLE
1002
{
1070
     6
1000
OPEN30
1070
   173
1070
     1
1070
   176
1070
     0
1070
   341
1005
59
1002
}
  0
MTEXT
  5
89D3
330
1F
100
AcDbEntity
  8
AM_6
100
AcDbMText
 10
-40.15866421436632
 20
-20.01269265377621
 30
0.0
 40
5.0
 41
0.0
 71
     5
 72
     5
  1
\T1.40;\W0.59;０°
  7
ASAMI
 73
     1
 44
1.0
1001
ACAD
1000
MTEXTBEGIN
1070
    73
1070
     1
1070
    44
1040
1.0
1070
    74
1070
     0
1000
MTEXTEND
  0
LEADER
  5
89D4
330
1F
100
AcDbEntity
  8
AM_5
  6
Continuous
 48
0.5
100
AcDbLeader
  3
AM_JIS$7
 76
     2
 10
-32.49569868424113
 20
-33.47102900316289
 30
0.0
 10
-42.49569868424113
 20
-33.47102900316296
 30
0.0
211
1.0
221
0.0000000000000057
231
0.0
1001
ACAD
1000
DSTYLE
1002
{
1070
     6
1000
OPEN30
1070
   173
1070
     1
1070
   176
1070
     0
1070
   341
1005
59
1002
}
  0
VIEWPORT
  5
110
102
{ACAD_XDICTIONARY
360
8C81
102
}
330
101
100
AcDbEntity
 67
     1
  8
0
100
AcDbViewport
 10
420.5
 20
297.0
 30
0.0
 40
948.9782706766916
 41
628.452
 68
     1
 69
     1
 12
420.5
 22
297.0
 13
0.0
 23
0.0
 14
10.0
 24
10.0
 15
10.0
 25
10.0
 16
0.0
 26
0.0
 36
1.0
 17
0.0
 27
0.0
 37
0.0
 42
50.0
 43
0.0
 44
0.0
 45
628.452
 50
0.0
 51
0.0
 72
   100
 90
    32800
  1

281
     0
 71
     1
 74
     0
110
-0.0000000000002682
120
0.000000000000161
130
0.0
111
1.0
121
0.000000000000002
131
0.0
112
-0.000000000000002
122
1.0
132
0.0
 79
     0
146
0.0
1001
GENIUS_GENSCREG_15
1000
PF
1040
1.0
1000
DF
1040
1.0
1000
MIN
1011
-53.98913533834582
1021
-17.226
1031
0.0
1000
MAX
1011
894.9891353383458
1021
611.226
1031
0.0
1000
FLAGS
1070
     4
1001
GENIUS_GENODEF_13
1002
{
1000
HIER
1070
     0
1002
}
1002
{
1000
MANEDIT
1070
     0
1002
}
1002
{
1000
NOSEL
1070
     0
1002
}
1002
{
1000
BEHIND
1070
     0
1002
}
1002
{
1000
OTHER
1070
     0
1002
}
1002
{
1000
REACTOR
1002
}
1001
GENIUS_GENOBJ-N-SDF_13
1002
{
1000
OWNER
1000
GEN
1002
}
  0
ENDSEC
  0
SECTION
  2
OBJECTS
  0
DICTIONARY
  5
C
330
0
100
AcDbDictionary
281
     1
  3
ACAD_COLOR
350
8B87
  3
ACAD_GROUP
350
D
  3
ACAD_LAYOUT
350
1A
  3
ACAD_MATERIAL
350
8B86
  3
ACAD_MLINESTYLE
350
17
  3
ACAD_PLOTSETTINGS
350
19
  3
ACAD_PLOTSTYLENAME
350
E
  3
ACAD_TABLESTYLE
350
8B88
  3
ACDBHEADERROUNDTRIPXREC
350
8C80
  3
ACDBVARIABLEDICTIONARY
350
34
  3
ACMDICTIONARY
350
43
  3
AMG
350
2B
  3
AMGSNAPSETTINGS
350
6E
  3
DWGPROPS
350
8C7F
  0
DICTIONARY
  5
74
330
1F
100
AcDbDictionary
280
     1
281
     1
  3
ACAD_INDEX
360
8AFD
  3
ACAD_LAYOUTSELFREF
360
8B2A
  0
DICTIONARY
  5
8B2F
330
101
100
AcDbDictionary
280
     1
281
     1
  3
ACAD_LAYOUTSELFREF
360
8B30
  0
DICTIONARY
  5
8C81
330
110
100
AcDbDictionary
280
     1
281
     1
  3
ACAD_XREC_ROUNDTRIP
360
8C82
  0
DICTIONARY
  5
8B87
102
{ACAD_REACTORS
330
C
102
}
330
C
100
AcDbDictionary
281
     1
  0
DICTIONARY
  5
D
102
{ACAD_REACTORS
330
C
102
}
330
C
100
AcDbDictionary
281
     1
  0
DICTIONARY
  5
1A
102
{ACAD_REACTORS
330
C
102
}
330
C
100
AcDbDictionary
281
     1
  3
Model
350
8B8A
  3
レイアウト1
350
8B8B
  0
DICTIONARY
  5
8B86
102
{ACAD_REACTORS
330
C
102
}
330
C
100
AcDbDictionary
281
     1
  0
DICTIONARY
  5
17
102
{ACAD_REACTORS
330
C
102
}
330
C
100
AcDbDictionary
281
     1
  3
STANDARD
350
18
  0
DICTIONARY
  5
19
102
{ACAD_REACTORS
330
C
102
}
330
C
100
AcDbDictionary
281
     1
  3
ASAMI
350
399D
  0
ACDBDICTIONARYWDFLT
  5
E
102
{ACAD_REACTORS
330
C
102
}
330
C
100
AcDbDictionary
281
     1
  3
Normal
350
F
100
AcDbDictionaryWithDefault
340
F
  0
DICTIONARY
  5
8B88
102
{ACAD_REACTORS
330
C
102
}
330
C
100
AcDbDictionary
281
     1
  3
Standard
350
8B89
  0
DICTIONARY
  5
8C80
102
{ACAD_REACTORS
330
C
102
}
330
C
100
AcDbDictionary
281
     1
  0
DICTIONARY
  5
34
102
{ACAD_REACTORS
330
C
102
}
330
C
100
AcDbDictionary
281
     1
  3
CTABLESTYLE
350
8C7B
  3
DIMASSOC
350
8C7C
  3
INDEXCTL
350
35
  3
PROJECTNAME
350
8C7D
  3
SORTENTS
350
B5E
  0
DICTIONARY
  5
43
102
{ACAD_REACTORS
330
C
102
}
330
C
100
AcDbDictionary
281
     1
  3
ACMSTDDICTIONARY
350
260
  0
DICTIONARY
  5
2B
102
{ACAD_REACTORS
330
C
102
}
330
C
100
AcDbDictionary
281
     1
  0
DICTIONARY
  5
6E
102
{ACAD_REACTORS
330
C
102
}
330
C
100
AcDbDictionary
281
     1
  0
XRECORD
  5
8C7F
102
{ACAD_REACTORS
330
C
102
}
330
C
100
AcDbXrecord
280
     1
  1
DWGPROPS COOKIE
  2

  3

  4

  6

  7

  8

  9

300
AmdtFileType=82
301
=
302
=
303
=
304
=
305
=
306
=
307
=
308
=
309
=
 40
0.9071581944444444
 41
2452802.716478762
 42
2455610.655247928
  1

 90
        1
  0
DICTIONARY
  5
8AFD
102
{ACAD_REACTORS
330
74
102
}
330
74
100
AcDbDictionary
281
     1
  3
*A1
350
8AFE
  0
XRECORD
  5
8B2A
102
{ACAD_REACTORS
330
74
102
}
330
74
100
AcDbXrecord
280
     1
340
1F
  0
XRECORD
  5
8B30
102
{ACAD_REACTORS
330
8B2F
102
}
330
8B2F
100
AcDbXrecord
280
     1
340
101
  0
XRECORD
  5
8C82
102
{ACAD_REACTORS
330
8C81
102
}
330
8C81
100
AcDbXrecord
280
     1
102
SHADEPLOT
 70
     0
  0
LAYOUT
  5
8B8A
102
{ACAD_XDICTIONARY
360
8C85
102
}
102
{ACAD_REACTORS
330
1A
102
}
330
1A
100
AcDbPlotSettings
  1

  2
SII LP-1010 (C2 VR)2R
  4

  6

 40
0.0
 41
0.0
 42
0.0
 43
0.0
 44
0.0
 45
0.0
 46
0.0
 47
0.0
 48
0.0
 49
0.0
140
0.0
141
0.0
142
1.0
143
1.0
 70
  1712
 72
     0
 73
     0
 74
     0
  7
sei_cad.ctb
 75
     0
147
1.0
148
0.0
149
0.0
100
AcDbLayout
  1
Model
 70
     1
 71
     0
 10
0.0
 20
0.0
 11
12.0
 21
9.0
 12
0.0
 22
0.0
 32
0.0
 14
0.0
 24
0.0
 34
0.0
 15
0.0
 25
0.0
 35
0.0
146
0.0
 13
0.0
 23
0.0
 33
0.0
 16
1.0
 26
0.0
 36
0.0
 17
0.0
 27
1.0
 37
0.0
 76
     0
330
1F
  0
LAYOUT
  5
8B8B
102
{ACAD_XDICTIONARY
360
8C87
102
}
102
{ACAD_REACTORS
330
1A
102
}
330
1A
100
AcDbPlotSettings
  1

  2
SII LP-1010 (C2 VR)2R
  4

  6

 40
0.0
 41
0.0
 42
0.0
 43
0.0
 44
0.0
 45
0.0
 46
0.0
 47
0.0
 48
0.0
 49
0.0
140
0.0
141
0.0
142
1.0
143
1.0
 70
   688
 72
     0
 73
     0
 74
     5
  7
sei_cad.ctb
 75
    16
147
1.0
148
0.0
149
0.0
100
AcDbLayout
  1
レイアウト1
 70
     0
 71
     1
 10
0.0
 20
0.0
 11
841.0
 21
594.0
 12
0.0
 22
0.0
 32
0.0
 14
1.000000000000000E+20
 24
1.000000000000000E+20
 34
1.000000000000000E+20
 15
-1.000000000000000E+20
 25
-1.000000000000000E+20
 35
-1.000000000000000E+20
146
0.0
 13
0.0
 23
0.0
 33
0.0
 16
1.0
 26
0.0
 36
0.0
 17
0.0
 27
1.0
 37
0.0
 76
     0
330
101
331
110
  0
MLINESTYLE
  5
18
102
{ACAD_REACTORS
330
17
102
}
330
17
100
AcDbMlineStyle
  2
STANDARD
 70
     0
  3

 62
   256
 51
90.0
 52
90.0
 71
     2
 49
0.5
 62
   256
  6
BYLAYER
 49
-0.5
 62
   256
  6
BYLAYER
  0
PLOTSETTINGS
  5
399D
102
{ACAD_XDICTIONARY
360
8C83
102
}
102
{ACAD_REACTORS
330
19
102
}
330
19
100
AcDbPlotSettings
  1
asami
  2
RICOH imagio MF1540
  4
A4
  6

 40
5.831416606903076
 41
7.651742935180664
 42
4.90008544921875
 43
5.789077758789062
 44
296.9683227539062
 45
209.9733276367186
 46
0.0
 47
0.0
 48
-156.6707931774246
 49
-74.57609991074048
140
58.59973180214831
141
60.61068161925597
142
1.0
143
1.095343097833084
 70
  1712
 72
     1
 73
     1
 74
     4
  7
asami.ctb
 75
     0
147
0.9129559514076438
148
156.6707931774246
149
74.57609991074048
  0
ACDBPLACEHOLDER
  5
F
102
{ACAD_REACTORS
330
E
102
}
330
E
  0
TABLESTYLE
  5
8B89
102
{ACAD_REACTORS
330
8B88
102
}
330
8B88
100
AcDbTableStyle
  3
Standard
 70
     0
 71
     0
 40
1.5
 41
1.5
280
     0
281
     0
  7
STANDARD
140
4.5
170
     2
 62
     0
 63
     7
283
     0
274
    -2
284
     1
 64
     0
275
    -2
285
     1
 65
     0
276
    -2
286
     1
 66
     0
277
    -2
287
     1
 67
     0
278
    -2
288
     1
 68
     0
279
    -2
289
     1
 69
     0
  7
STANDARD
140
6.0
170
     5
 62
     0
 63
     7
283
     0
274
    -2
284
     1
 64
     0
275
    -2
285
     1
 65
     0
276
    -2
286
     1
 66
     0
277
    -2
287
     1
 67
     0
278
    -2
288
     1
 68
     0
279
    -2
289
     1
 69
     0
  7
STANDARD
140
4.5
170
     5
 62
     0
 63
     7
283
     0
274
    -2
284
     1
 64
     0
275
    -2
285
     1
 65
     0
276
    -2
286
     1
 66
     0
277
    -2
287
     1
 67
     0
278
    -2
288
     1
 68
     0
279
    -2
289
     1
 69
     0
  0
DICTIONARYVAR
  5
8C7B
102
{ACAD_REACTORS
330
34
102
}
330
34
100
DictionaryVariables
280
     0
  1
STANDARD
  0
DICTIONARYVAR
  5
8C7C
102
{ACAD_REACTORS
330
34
102
}
330
34
100
DictionaryVariables
280
     0
  1
1
  0
DICTIONARYVAR
  5
35
102
{ACAD_REACTORS
330
34
102
}
330
34
100
DictionaryVariables
280
     0
  1
1
  0
DICTIONARYVAR
  5
8C7D
102
{ACAD_REACTORS
330
34
102
}
330
34
100
DictionaryVariables
280
     0
  1

  0
DICTIONARYVAR
  5
B5E
102
{ACAD_REACTORS
330
34
102
}
330
34
100
DictionaryVariables
280
     0
  1
96
  0
DICTIONARY
  5
260
102
{ACAD_REACTORS
330
43
102
}
330
43
100
AcDbDictionary
281
     1
  0
LAYER_INDEX
  5
8AFE
102
{ACAD_REACTORS
330
8AFD
102
}
330
8AFD
100
AcDbIndex
 40
2455610.655247928
100
AcDbLayerIndex
  8
0
360
8AFF
 90
        0
  8
AM_0
360
8B00
 90
      676
  8
AM_5
360
8B01
 90
       13
  8
AM_7
360
8B02
 90
        3
  8
AM_6
360
8B03
 90
        3
  8
DEFPOINTS
360
8B04
 90
        0
  8
AM_11
360
8B05
 90
        1
  0
DICTIONARY
  5
8C85
330
8B8A
100
AcDbDictionary
280
     1
281
     1
  3
ACAD_XREC_ROUNDTRIP
360
8C86
  0
DICTIONARY
  5
8C87
330
8B8B
100
AcDbDictionary
280
     1
281
     1
  3
ACAD_XREC_ROUNDTRIP
360
8C88
  0
DICTIONARY
  5
8C83
330
399D
100
AcDbDictionary
280
     1
281
     1
  3
ACAD_XREC_ROUNDTRIP
360
8C84
  0
IDBUFFER
  5
8AFF
330
0
100
AcDbIdBuffer
  0
IDBUFFER
  5
8B00
330
0
100
AcDbIdBuffer
330
78F8
330
78F9
330
78FA
330
78FB
330
78FC
330
78FD
330
7902
330
7903
330
790B
330
790C
330
790D
330
790E
330
7910
330
7911
330
7912
330
7913
330
7914
330
7915
330
7916
330
7917
330
7918
330
7919
330
791A
330
791B
330
791C
330
791D
330
7922
330
7929
330
792A
330
792B
330
792C
330
792D
330
792E
330
792F
330
7930
330
7931
330
7933
330
7934
330
7935
330
7936
330
7937
330
7938
330
7939
330
793A
330
793B
330
793C
330
793D
330
793E
330
793F
330
7940
330
7941
330
7942
330
7943
330
7944
330
7945
330
7946
330
7947
330
7948
330
7949
330
794A
330
794B
330
794C
330
794D
330
794E
330
794F
330
7950
330
7951
330
7952
330
7953
330
7954
330
7955
330
7956
330
7957
330
7958
330
7959
330
795A
330
795B
330
795C
330
795D
330
795E
330
795F
330
7960
330
7961
330
7962
330
7963
330
7964
330
7965
330
7966
330
7967
330
7968
330
7969
330
796A
330
796B
330
796C
330
796D
330
796E
330
796F
330
7970
330
7971
330
7972
330
7973
330
7974
330
7975
330
7976
330
7977
330
7978
330
7979
330
797A
330
797B
330
797C
330
797D
330
797E
330
797F
330
7980
330
7981
330
7982
330
7983
330
7984
330
7985
330
7986
330
7987
330
7988
330
7989
330
798A
330
798B
330
798C
330
798D
330
798E
330
798F
330
7990
330
7991
330
7992
330
7993
330
7994
330
7995
330
7999
330
799A
330
799B
330
799C
330
799D
330
799E
330
799F
330
79A0
330
79A1
330
79A2
330
79A3
330
79A4
330
79A5
330
79A6
330
79A7
330
79A9
330
79AE
330
79AF
330
79B0
330
79B1
330
79B2
330
79B3
330
79B4
330
79B5
330
79B6
330
79B7
330
79B8
330
79B9
330
79BD
330
79BE
330
79C1
330
79C2
330
79C3
330
79C4
330
79C7
330
79C8
330
79DC
330
79DE
330
79DF
330
79E0
330
79E1
330
79E2
330
79E3
330
79E4
330
79E5
330
79E6
330
79E7
330
79E8
330
79E9
330
79EA
330
79EB
330
79EC
330
79ED
330
79EE
330
79EF
330
79F0
330
7A00
330
7A01
330
7A02
330
7A04
330
7A05
330
7A07
330
7A08
330
7A09
330
7A0A
330
7A13
330
7A14
330
7A15
330
7A16
330
7A17
330
7A18
330
7A19
330
7A21
330
7A22
330
7A23
330
7A24
330
7A25
330
7A26
330
7A27
330
7A28
330
7A29
330
7A2A
330
7A2B
330
7A2F
330
7A30
330
7A33
330
7A34
330
7A35
330
7A36
330
7A37
330
7A38
330
7A39
330
7A3B
330
7A3C
330
7A3D
330
7A3E
330
7A3F
330
7A40
330
7A41
330
7A42
330
7A43
330
7A44
330
7A45
330
7A46
330
7A47
330
7A48
330
7A49
330
7A4A
330
7A4B
330
7A4C
330
7A4D
330
7A4E
330
7A4F
330
7A50
330
7A51
330
7A52
330
7A53
330
7A54
330
7A55
330
7A56
330
7A57
330
7A58
330
7A59
330
7A5A
330
7A5B
330
7A5C
330
7A5D
330
7A5E
330
7A5F
330
7A60
330
7A61
330
7A62
330
7A63
330
7A64
330
7A65
330
7A66
330
7A67
330
7A68
330
7A69
330
7A6A
330
7A6B
330
7A6C
330
7A6D
330
7A6E
330
7A6F
330
7A70
330
7A71
330
7A72
330
7A73
330
7A74
330
7A75
330
7A76
330
7A77
330
7A78
330
7A79
330
7A7A
330
7A7B
330
7A7C
330
7A7D
330
7A7E
330
7A7F
330
7A80
330
7A81
330
7A82
330
7A83
330
7A84
330
7A85
330
7A86
330
7A87
330
7A88
330
7A89
330
7A8A
330
7A8B
330
7A8C
330
7A8D
330
7A8E
330
7A8F
330
7A90
330
7A91
330
7A92
330
7A93
330
7A94
330
7A95
330
7A96
330
7A97
330
7A98
330
7A99
330
7A9A
330
7A9B
330
7A9C
330
7A9D
330
7A9E
330
7A9F
330
7AA0
330
7AA1
330
7AA2
330
7AA3
330
7AA4
330
7AA5
330
7AA6
330
7AA7
330
7AA8
330
7AA9
330
7AAA
330
7AAB
330
7AAC
330
7AAD
330
7AAE
330
7AAF
330
7AB0
330
7AB1
330
7AB2
330
7AB3
330
7AB4
330
7AB5
330
7AB6
330
7AB7
330
7AB8
330
7AB9
330
7ABA
330
7ABB
330
7ABC
330
7ABD
330
7ABE
330
7ABF
330
7AC0
330
7AC1
330
7AC2
330
7AC3
330
7AC4
330
7AC5
330
7AC6
330
7AC7
330
7AC8
330
7AC9
330
7ACA
330
7ACB
330
7ACC
330
7ACD
330
7ACE
330
7ACF
330
7AD0
330
7AD1
330
7AD2
330
7AD3
330
7AD4
330
7AD5
330
7AD6
330
7AD7
330
7AD8
330
7AD9
330
7ADA
330
7ADB
330
7ADC
330
7ADD
330
7ADE
330
7ADF
330
7AE0
330
7AE1
330
7AE2
330
7AE3
330
7AE4
330
7AE5
330
7AE6
330
7AE7
330
7AEA
330
7AEB
330
7AEC
330
7AED
330
7AEE
330
7AEF
330
7AF0
330
7AF1
330
7AF2
330
7AF3
330
7AF4
330
7AF5
330
7AF6
330
7AF7
330
7AF8
330
7AF9
330
7AFA
330
7AFB
330
7AFC
330
7AFD
330
7AFE
330
7AFF
330
7B00
330
7B01
330
7B02
330
7B03
330
7B04
330
7B05
330
7B06
330
7B07
330
7B08
330
7B09
330
7B0A
330
7B0B
330
7B0C
330
7B0D
330
7B0E
330
7B0F
330
7B10
330
7B11
330
7B12
330
7B13
330
7B14
330
7B15
330
7B16
330
7B17
330
7B1A
330
7B1B
330
7B1C
330
7B1D
330
7B1E
330
7B25
330
7B26
330
7B27
330
7B2A
330
7B2B
330
7B2C
330
7B2D
330
7B2E
330
7B33
330
7B34
330
7B37
330
7B38
330
7B39
330
7B3A
330
7B3B
330
7B3C
330
7B40
330
7B47
330
7B48
330
7B49
330
7B4A
330
7B4B
330
7B4C
330
7B4D
330
7B4E
330
7B4F
330
7B50
330
7B51
330
7B52
330
7B53
330
7B54
330
7B55
330
7B56
330
7B57
330
7B58
330
7B59
330
7B5A
330
7B5B
330
7B5C
330
7B5D
330
7B5E
330
7B5F
330
7B60
330
7B61
330
7B62
330
7B63
330
7B64
330
7B65
330
7B66
330
7B6D
330
7B6E
330
7B6F
330
7B70
330
7B71
330
7B72
330
7B75
330
7B76
330
7B77
330
7B78
330
7B79
330
7B7A
330
7B7B
330
7B7C
330
7B7D
330
7B7E
330
7B7F
330
7B80
330
7B81
330
7B82
330
7B83
330
7B84
330
7B85
330
7B86
330
7B87
330
7B88
330
7B89
330
7B8A
330
7B8B
330
7B8C
330
7B8D
330
7B8E
330
7B8F
330
7B90
330
7B91
330
7B92
330
7B93
330
7B94
330
7B95
330
7B96
330
7B97
330
7B98
330
7B99
330
7B9A
330
7B9B
330
7B9C
330
7B9D
330
7B9E
330
7B9F
330
7BA0
330
7BA1
330
7BA2
330
7BA3
330
7BA4
330
7BA5
330
7BA6
330
7BA7
330
7BA8
330
7BA9
330
7BAA
330
7BAB
330
7BAC
330
7BAD
330
7BAE
330
7BAF
330
7BB0
330
7BB1
330
7BB2
330
7BB3
330
7BB4
330
7BB5
330
7BB6
330
7BB7
330
7BB8
330
7BB9
330
7BBA
330
7BBB
330
7BBC
330
7BBE
330
7BBF
330
7BC0
330
7BC1
330
7BC2
330
7BC3
330
7BC4
330
7BC5
330
7BC6
330
7BC7
330
7BC8
330
7BC9
330
7BCA
330
7BCB
330
7BCC
330
7BCD
330
7BCE
330
7BCF
330
7BD0
330
7BD1
330
7BD2
330
7BD3
330
7BD4
330
7BD5
330
7BD6
330
7BD7
330
7BD8
330
7BD9
330
7BDA
330
7BDB
330
7BDC
330
7BDD
330
7BDE
330
7BDF
330
7BE0
330
7BE1
330
7BE2
330
7BE3
330
7BE4
330
7BE5
330
7BE6
330
7BE7
330
7BE8
330
7BE9
330
7BEA
330
7BEB
330
7BEC
330
7BED
330
7BEE
330
7BEF
330
7BF0
330
7BF1
330
7BF2
330
7BF3
330
7BF4
330
7BF5
330
7BF6
330
7BF7
330
7BF8
330
7BF9
330
7BFA
330
7BFB
330
7BFC
330
7BFD
330
7BFE
330
7BFF
330
7C00
330
7C01
330
7C02
330
7C03
330
7C04
330
7C05
330
7C06
330
7C07
330
7C08
330
7C09
330
7C0B
330
7C0D
330
7C0E
330
7C11
330
7C12
330
7C13
330
7C14
330
7C15
330
7C16
330
7C17
330
7C18
330
7C19
330
7C1A
330
7C1B
330
7C1C
330
7C1D
330
7C1E
330
7C1F
330
7C20
330
7C21
330
7C22
330
7C25
  0
IDBUFFER
  5
8B01
330
0
100
AcDbIdBuffer
330
7DA6
330
7E32
330
7EDD
330
80D2
330
817F
330
8277
330
8319
330
8495
330
85A8
330
8853
330
88FC
330
89D2
330
89D4
  0
IDBUFFER
  5
8B02
330
0
100
AcDbIdBuffer
330
7909
330
7A2C
330
7A31
  0
IDBUFFER
  5
8B03
330
0
100
AcDbIdBuffer
330
388D
330
89D1
330
89D3
  0
IDBUFFER
  5
8B04
330
0
100
AcDbIdBuffer
  0
IDBUFFER
  5
8B05
330
0
100
AcDbIdBuffer
330
7904
  0
XRECORD
  5
8C86
102
{ACAD_REACTORS
330
8C85
102
}
330
8C85
100
AcDbXrecord
280
     1
102
SHADEPLOT
 70
     0
102
SHADEPLOTRESLEVEL
 70
     2
102
SHADEPLOTCUSTOMDPI
 70
   300
  0
XRECORD
  5
8C88
102
{ACAD_REACTORS
330
8C87
102
}
330
8C87
100
AcDbXrecord
280
     1
102
SHADEPLOT
 70
     0
102
SHADEPLOTRESLEVEL
 70
     2
102
SHADEPLOTCUSTOMDPI
 70
   300
  0
XRECORD
  5
8C84
102
{ACAD_REACTORS
330
8C83
102
}
330
8C83
100
AcDbXrecord
280
     1
102
SHADEPLOT
 70
     0
102
SHADEPLOTRESLEVEL
 70
     2
102
SHADEPLOTCUSTOMDPI
 70
   300
  0
ENDSEC
  0
EOF
