  0
SECTION
  2
HEADER
  9
$ACADVER
  1
AC1015
  9
$ACADMAINTVER
 70
     6
  9
$DWGCODEPAGE
  3
ANSI_932
  9
$INSBASE
 10
0.0
 20
0.0
 30
0.0
  9
$EXTMIN
 10
-156.691557800271
 20
-150.8673814691659
 30
-0.0000000000000076
  9
$EXTMAX
 10
171.0038308873818
 20
68.25211128905744
 30
0.0000000000000076
  9
$LIMMIN
 10
-210.0
 20
-147.5
  9
$LIMMAX
 10
209.0
 20
148.5
  9
$ORTHOMODE
 70
     0
  9
$REGENMODE
 70
     1
  9
$FILLMODE
 70
     1
  9
$QTEXTMODE
 70
     0
  9
$MIRRTEXT
 70
     1
  9
$LTSCALE
 40
1.0
  9
$ATTMODE
 70
     1
  9
$TEXTSIZE
 40
2.5
  9
$TRACEWID
 40
1.0
  9
$TEXTSTYLE
  7
STANDARD
  9
$CLAYER
  8
AM_0
  9
$CELTYPE
  6
ByLayer
  9
$CECOLOR
 62
   256
  9
$CELTSCALE
 40
1.0
  9
$DISPSILH
 70
     0
  9
$DIMSCALE
 40
1.0
  9
$DIMASZ
 40
2.5
  9
$DIMEXO
 40
0.0
  9
$DIMDLI
 40
10.0
  9
$DIMRND
 40
0.0
  9
$DIMDLE
 40
0.0
  9
$DIMEXE
 40
1.0
  9
$DIMTP
 40
0.1
  9
$DIMTM
 40
0.1000000001
  9
$DIMTXT
 40
3.8
  9
$DIMCEN
 40
0.0
  9
$DIMTSZ
 40
0.0
  9
$DIMTOL
 70
     0
  9
$DIMLIM
 70
     0
  9
$DIMTIH
 70
     0
  9
$DIMTOH
 70
     0
  9
$DIMSE1
 70
     0
  9
$DIMSE2
 70
     0
  9
$DIMTAD
 70
     3
  9
$DIMZIN
 70
     1
  9
$DIMBLK
  1
Open30
  9
$DIMASO
 70
     1
  9
$DIMSHO
 70
     1
  9
$DIMPOST
  1

  9
$DIMAPOST
  1
"
  9
$DIMALT
 70
     0
  9
$DIMALTD
 70
     2
  9
$DIMALTF
 40
0.0393701
  9
$DIMLFAC
 40
1.0
  9
$DIMTOFL
 70
     1
  9
$DIMTVP
 40
0.0
  9
$DIMTIX
 70
     0
  9
$DIMSOXD
 70
     0
  9
$DIMSAH
 70
     0
  9
$DIMBLK1
  1

  9
$DIMBLK2
  1

  9
$DIMSTYLE
  2
AM_JIS
  9
$DIMCLRD
 70
     3
  9
$DIMCLRE
 70
     3
  9
$DIMCLRT
 70
     2
  9
$DIMTFAC
 40
0.71
  9
$DIMGAP
 40
1.5
  9
$DIMJUST
 70
     0
  9
$DIMSD1
 70
     0
  9
$DIMSD2
 70
     0
  9
$DIMTOLJ
 70
     0
  9
$DIMTZIN
 70
     8
  9
$DIMALTZ
 70
     0
  9
$DIMALTTZ
 70
     0
  9
$DIMUPT
 70
     0
  9
$DIMDEC
 70
     2
  9
$DIMTDEC
 70
     2
  9
$DIMALTU
 70
     2
  9
$DIMALTTD
 70
     2
  9
$DIMTXSTY
  7
STANDARD
  9
$DIMAUNIT
 70
     1
  9
$DIMADEC
 70
     0
  9
$DIMALTRND
 40
0.0
  9
$DIMAZIN
 70
     2
  9
$DIMDSEP
 70
    46
  9
$DIMATFIT
 70
     3
  9
$DIMFRAC
 70
     0
  9
$DIMLDRBLK
  1
Open30
  9
$DIMLUNIT
 70
     2
  9
$DIMLWD
 70
    13
  9
$DIMLWE
 70
    13
  9
$DIMTMOVE
 70
     0
  9
$LUNITS
 70
     2
  9
$LUPREC
 70
     2
  9
$SKETCHINC
 40
1.0
  9
$FILLETRAD
 40
2.5
  9
$AUNITS
 70
     1
  9
$AUPREC
 70
     5
  9
$MENU
  1
.
  9
$ELEVATION
 40
0.0
  9
$PELEVATION
 40
0.0
  9
$THICKNESS
 40
0.0
  9
$LIMCHECK
 70
     0
  9
$CHAMFERA
 40
2.5
  9
$CHAMFERB
 40
2.5
  9
$CHAMFERC
 40
20.0
  9
$CHAMFERD
 40
0.0
  9
$SKPOLY
 70
     0
  9
$TDCREATE
 40
2451856.608395394
  9
$TDUCREATE
 40
2451856.233395394
  9
$TDUPDATE
 40
2455468.351992905
  9
$TDUUPDATE
 40
2455467.976992905
  9
$TDINDWG
 40
0.0422986111
  9
$TDUSRTIMER
 40
0.0422939815
  9
$USRTIMER
 70
     1
  9
$ANGBASE
 50
0.0
  9
$ANGDIR
 70
     0
  9
$PDMODE
 70
     0
  9
$PDSIZE
 40
0.0
  9
$PLINEWID
 40
0.0
  9
$SPLFRAME
 70
     0
  9
$SPLINETYPE
 70
     6
  9
$SPLINESEGS
 70
     8
  9
$HANDSEED
  5
22A6
  9
$SURFTAB1
 70
     6
  9
$SURFTAB2
 70
     6
  9
$SURFTYPE
 70
     6
  9
$SURFU
 70
     6
  9
$SURFV
 70
     6
  9
$UCSBASE
  2

  9
$UCSNAME
  2

  9
$UCSORG
 10
0.0
 20
0.0
 30
0.0
  9
$UCSXDIR
 10
1.0
 20
0.0
 30
0.0
  9
$UCSYDIR
 10
0.0
 20
1.0
 30
0.0
  9
$UCSORTHOREF
  2

  9
$UCSORTHOVIEW
 70
     0
  9
$UCSORGTOP
 10
0.0
 20
0.0
 30
0.0
  9
$UCSORGBOTTOM
 10
0.0
 20
0.0
 30
0.0
  9
$UCSORGLEFT
 10
0.0
 20
0.0
 30
0.0
  9
$UCSORGRIGHT
 10
0.0
 20
0.0
 30
0.0
  9
$UCSORGFRONT
 10
0.0
 20
0.0
 30
0.0
  9
$UCSORGBACK
 10
0.0
 20
0.0
 30
0.0
  9
$PUCSBASE
  2

  9
$PUCSNAME
  2

  9
$PUCSORG
 10
0.0
 20
0.0
 30
0.0
  9
$PUCSXDIR
 10
1.0
 20
0.0
 30
0.0
  9
$PUCSYDIR
 10
0.0
 20
1.0
 30
0.0
  9
$PUCSORTHOREF
  2

  9
$PUCSORTHOVIEW
 70
     0
  9
$PUCSORGTOP
 10
0.0
 20
0.0
 30
0.0
  9
$PUCSORGBOTTOM
 10
0.0
 20
0.0
 30
0.0
  9
$PUCSORGLEFT
 10
0.0
 20
0.0
 30
0.0
  9
$PUCSORGRIGHT
 10
0.0
 20
0.0
 30
0.0
  9
$PUCSORGFRONT
 10
0.0
 20
0.0
 30
0.0
  9
$PUCSORGBACK
 10
0.0
 20
0.0
 30
0.0
  9
$USERI1
 70
     0
  9
$USERI2
 70
     0
  9
$USERI3
 70
     0
  9
$USERI4
 70
     0
  9
$USERI5
 70
     0
  9
$USERR1
 40
0.0
  9
$USERR2
 40
0.0
  9
$USERR3
 40
0.0
  9
$USERR4
 40
0.0
  9
$USERR5
 40
0.0
  9
$WORLDVIEW
 70
     1
  9
$SHADEDGE
 70
     3
  9
$SHADEDIF
 70
    70
  9
$TILEMODE
 70
     1
  9
$MAXACTVP
 70
    64
  9
$PINSBASE
 10
0.0
 20
0.0
 30
0.0
  9
$PLIMCHECK
 70
     0
  9
$PEXTMIN
 10
1.000000000000000E+20
 20
1.000000000000000E+20
 30
1.000000000000000E+20
  9
$PEXTMAX
 10
-1.000000000000000E+20
 20
-1.000000000000000E+20
 30
-1.000000000000000E+20
  9
$PLIMMIN
 10
0.0
 20
0.0
  9
$PLIMMAX
 10
420.0
 20
297.0
  9
$UNITMODE
 70
     0
  9
$VISRETAIN
 70
     1
  9
$PLINEGEN
 70
     0
  9
$PSLTSCALE
 70
     1
  9
$TREEDEPTH
 70
  3020
  9
$CMLSTYLE
  2
Standard
  9
$CMLJUST
 70
     0
  9
$CMLSCALE
 40
20.0
  9
$PROXYGRAPHICS
 70
     1
  9
$MEASUREMENT
 70
     1
  9
$CELWEIGHT
370
    -1
  9
$ENDCAPS
280
     0
  9
$JOINSTYLE
280
     0
  9
$LWDISPLAY
290
     0
  9
$INSUNITS
 70
     4
  9
$HYPERLINKBASE
  1

  9
$STYLESHEET
  1
sei_cad.ctb
  9
$XEDIT
290
     1
  9
$CEPSNTYPE
380
     0
  9
$PSTYLEMODE
290
     1
  9
$FINGERPRINTGUID
  2
{403304E0-8DA2-11D3-AB8C-000629E2A613}
  9
$VERSIONGUID
  2
{0C56BFF4-62B7-41D3-BC6F-270CF69BB2CA}
  9
$EXTNAMES
290
     1
  9
$PSVPSCALE
 40
0.0
  9
$OLESTARTUP
290
     0
  0
ENDSEC
  0
SECTION
  2
CLASSES
  0
CLASS
  1
ACDBDICTIONARYWDFLT
  2
AcDbDictionaryWithDefault
  3
ObjectDBX Classes
 90
        0
280
     0
281
     0
  0
CLASS
  1
ACDBPLACEHOLDER
  2
AcDbPlaceHolder
  3
ObjectDBX Classes
 90
        0
280
     0
281
     0
  0
CLASS
  1
LAYOUT
  2
AcDbLayout
  3
ObjectDBX Classes
 90
        0
280
     0
281
     0
  0
CLASS
  1
ACME_DOCUMENT
  2
AcMeDbDoc
  3
AcMeServices
 90
        0
280
     1
281
     0
  0
CLASS
  1
ACMESCOPE
  2
AcMeScope
  3
AcMeServices
 90
        0
280
     1
281
     0
  0
CLASS
  1
ACMECOMMANDHISTORY
  2
AcMeCommandHistory
  3
AcMeServices
 90
        0
280
     1
281
     0
  0
CLASS
  1
DICTIONARYVAR
  2
AcDbDictionaryVar
  3
ObjectDBX Classes
 90
        0
280
     0
281
     0
  0
CLASS
  1
ACIMSYSVARMAN
  2
AcImSysVarManager
  3
AcMeServices
 90
        0
280
     1
281
     0
  0
CLASS
  1
ACIMREALSYSVAR
  2
AcImRealSysVar
  3
AcMeServices
 90
        0
280
     1
281
     0
  0
CLASS
  1
ACIMINTSYSVAR
  2
AcImIntSysVar
  3
AcMeServices
 90
        0
280
     1
281
     0
  0
CLASS
  1
ACMEDRAWINGMAN
  2
AcMeDrawingMan
  3
AcMeServices
 90
        0
280
     1
281
     0
  0
CLASS
  1
ACMEVIEW
  2
AcMeView
  3
AcMeServices
 90
        0
280
     1
281
     0
  0
CLASS
  1
ACDBENTITYCACHE
  2
AcMeEntityCache
  3
AcMeServices
 90
        0
280
     1
281
     0
  0
CLASS
  1
GSMANAGER
  2
AcMeGSManager
  3
AcMeServices
 90
        0
280
     1
281
     0
  0
CLASS
  1
AMDTINTERNALREACTOR
  2
AmdtInternalReactor
  3
AcMeServices
 90
        0
280
     1
281
     0
  0
CLASS
  1
ACMESTATEMGR
  2
AcMeStateMgr
  3
AcMeServices
 90
        0
280
     1
281
     0
  0
CLASS
  1
ACME_DATABASE
  2
AcMeDbDatabase
  3
AcMeServices
 90
        0
280
     1
281
     0
  0
CLASS
  1
ACRFINSADJUSTERMGR
  2
AcRfInsAdjusterMgr
  3
AcMeServices
 90
        0
280
     1
281
     0
  0
CLASS
  1
AMGSETTINGSOBJ
  2
AmgSettingsObj
  3
"AcadM|Product Description: AutoCAD Mechanical 2000|Company: Autodesk"
 90
        0
280
     1
281
     0
  0
CLASS
  1
ACMDATADICTIONARY
  2
AcmDataDictionary
  3
"AcmSymBB|Product Description: AutoCAD Mechanical 2004 DX|Company: Autodesk"
 90
        0
280
     1
281
     0
  0
CLASS
  1
ACMDATAENTRYBLOCK
  2
AcmDataEntryBlock
  3
"AcmSymBB|Product Description: AutoCAD Mechanical 2004 DX|Company: Autodesk"
 90
        0
280
     1
281
     0
  0
CLASS
  1
AMGOBJPROPCFG
  2
AmgObjPropCfg
  3
"AmgLay|Product Description: AutoCAD Mechanical 2000|Company: Autodesk"
 90
        1
280
     1
281
     0
  0
CLASS
  1
ACAMGFILTERDAT
  2
AcAmgFilterDat
  3
"AcadM|Product Description: AutoCAD Mechanical 2000|Company: Autodesk"
 90
        0
280
     1
281
     0
  0
CLASS
  1
LAYER_INDEX
  2
AcDbLayerIndex
  3
ObjectDBX Classes
 90
        0
280
     0
281
     0
  0
CLASS
  1
IDBUFFER
  2
AcDbIdBuffer
  3
ObjectDBX Classes
 90
        0
280
     0
281
     0
  0
CLASS
  1
ACIMSTRSYSVAR
  2
AcImStrSysVar
  3
AcMeServices
 90
        0
280
     1
281
     0
  0
CLASS
  1
ACMSTANDARDJIS
  2
AcmStandardJIS
  3
"Amdt_StdImp|Product Description: AutoCAD Mechanical 2004 DX|Company: Autodesk"
 90
        0
280
     1
281
     0
  0
CLASS
  1
ACMSURFSTANDARDJIS
  2
AcmSurfTextStdJIS
  3
"Amdt_StdImp|Product Description: AutoCAD Mechanical 2004 DX|Company: Autodesk"
 90
        0
280
     1
281
     0
  0
CLASS
  1
ACMFCFSTANDARDJIS
  2
AcmFCFStdJIS
  3
"Amdt_StdImp|Product Description: AutoCAD Mechanical 2004 DX|Company: Autodesk"
 90
        0
280
     1
281
     0
  0
CLASS
  1
ACMWELDSTANDARDJIS
  2
AcmWeldingStdJIS
  3
"Amdt_StdImp|Product Description: AutoCAD Mechanical 2004 DX|Company: Autodesk"
 90
        0
280
     1
281
     0
  0
CLASS
  1
ACMIDSTANDARDJIS
  2
AcmIdStdJIS
  3
"Amdt_StdImp|Product Description: AutoCAD Mechanical 2004 DX|Company: Autodesk"
 90
        0
280
     1
281
     0
  0
CLASS
  1
ACMDATUMSTANDARDJIS
  2
AcmDatumStdJIS
  3
"Amdt_StdImp|Product Description: AutoCAD Mechanical 2004 DX|Company: Autodesk"
 90
        0
280
     1
281
     0
  0
CLASS
  1
ACMBOMSTANDARDJIS
  2
AcmBOMStdJIS
  3
"Amdt_StdImp|Product Description: AutoCAD Mechanical 2004 DX|Company: Autodesk"
 90
        0
280
     1
281
     0
  0
CLASS
  1
TABLESTYLE
  2
AcDbTableStyle
  3
ObjectDBX Classes
 90
     2047
280
     0
281
     0
  0
CLASS
  1
ACGREFMASTER
  2
AcGrefMaster
  3
AcAttribServices
 90
        0
280
     1
281
     0
  0
CLASS
  1
AM_DRAWING_MGR
  2
AcDmDwgMgr
  3
AcMechDwgViewMgmt
 90
        0
280
     1
281
     0
  0
CLASS
  1
AM_DWG_DOCUMENT
  2
AcDmDwgDocument
  3
AcMechDwgViewMgmt
 90
        0
280
     1
281
     0
  0
CLASS
  1
AM_DWG_SHEET
  2
AcDmSheet
  3
AcMechDwgViewMgmt
 90
        0
280
     1
281
     0
  0
CLASS
  1
AM_VIEWDIMPARMAP
  2
AcDmViewDimParMap
  3
AcMechDwgViewMgmt
 90
        0
280
     1
281
     0
  0
CLASS
  1
AM_DWGMGR_NAME
  2
AcDmDwgMgrName
  3
AcMechDwgViewMgmt
 90
        0
280
     1
281
     0
  0
CLASS
  1
ACGREFACADMASTER
  2
AcGrefacadMaster
  3
AcGrefServices
 90
        0
280
     1
281
     0
  0
CLASS
  1
AMDTMENUSTATEMGR
  2
AmdtMenuStateMgr
  3
McadcomServices
 90
        0
280
     1
281
     0
  0
CLASS
  1
AMDTMCOMMENUSTATE
  2
AmdtMcomMenuState
  3
McadcomServices
 90
        0
280
     1
281
     0
  0
CLASS
  1
AMIMASTER
  2
AmiMaster
  3
AmiServices
 90
        0
280
     1
281
     0
  0
CLASS
  1
MAPIAMMOUDLE
  2
MApiAmModule
  3
MApiAmServices
 90
        0
280
     1
281
     0
  0
CLASS
  1
AMDTADMENUSTATE
  2
AmdtAdMenuState
  3
DesignerServices
 90
        0
280
     1
281
     0
  0
CLASS
  1
ADAPPL
  2
AcAdAppl
  3
DesignerServices
 90
        0
280
     1
281
     0
  0
CLASS
  1
DEPMGR
  2
AcAdDepMgr
  3
DesignerServices
 90
        0
280
     1
281
     0
  0
CLASS
  1
PARAMMGR
  2
AcAdParamMgr
  3
DesignerServices
 90
        0
280
     1
281
     0
  0
CLASS
  1
PARAMSCOPE
  2
AcAdParamScope
  3
DesignerServices
 90
        0
280
     1
281
     0
  0
CLASS
  1
NAMEDAPPL
  2
AcAdNamedAppl
  3
DesignerServices
 90
        0
280
     1
281
     0
  0
CLASS
  1
AMDTDMMENUSTATE
  2
AmdtDmMenuState
  3
AcMechDwgViewMgmt
 90
        0
280
     1
281
     0
  0
CLASS
  1
AMDTAMMENUSTATE
  2
AmdtAmMenuState
  3
DesignerAssemblies
 90
        0
280
     1
281
     0
  0
CLASS
  1
ACAMPROJECT
  2
AcAmProject
  3
DesignerAssemblies
 90
        0
280
     1
281
     0
  0
CLASS
  1
ACAMGRCOMPDEF
  2
AcAmGrCompDef
  3
DesignerAssemblies
 90
        0
280
     1
281
     0
  0
CLASS
  1
ACCMCONTEXT
  2
AcCmContext
  3
DesignerAssemblies
 90
        0
280
     1
281
     0
  0
CLASS
  1
ACAMCOMPDEF
  2
AcAmCompDef
  3
DesignerAssemblies
 90
        0
280
     1
281
     0
  0
CLASS
  1
ACAMCOMPDEFMGR
  2
AcAmCompDefMgr
  3
DesignerAssemblies
 90
        0
280
     1
281
     0
  0
CLASS
  1
AMCONTEXTMGR
  2
AcAmContextMgr
  3
DesignerAssemblies
 90
        0
280
     1
281
     0
  0
CLASS
  1
ACAMCONTEXTMODELER
  2
AcAmContextModeler
  3
DesignerAssemblies
 90
        0
280
     1
281
     0
  0
CLASS
  1
ACAMGTITLESTD
  2
AcAmgTitleStd
  3
"TITLEAPP"
 90
        0
280
     1
281
     0
  0
CLASS
  1
ACMDETAILSTANDARDJIS
  2
AmdtDetailSymStdJIS
  3
"Amdt_StdImp|Product Description: AutoCAD Mechanical 2004 DX|Company: Autodesk"
 90
        0
280
     1
281
     0
  0
CLASS
  1
ACMSECTIONSTANDARDJIS
  2
AmdtSectionSymStdJIS
  3
"Amdt_StdImp|Product Description: AutoCAD Mechanical 2004 DX|Company: Autodesk"
 90
        0
280
     1
281
     0
  0
CLASS
  1
ACMCENTERLINESTANDARDJIS
  2
AmdtCenterLineStdJIS
  3
"Amdt_StdImp|Product Description: AutoCAD Mechanical 2004 DX|Company: Autodesk"
 90
        0
280
     1
281
     0
  0
CLASS
  1
ACMTHREADLINESTANDARDJIS
  2
AmdtThreadLineStdJIS
  3
"Amdt_StdImp|Product Description: AutoCAD Mechanical 2004 DX|Company: Autodesk"
 90
        0
280
     1
281
     0
  0
CLASS
  1
ACMNOTESTANDARDJIS
  2
AmdtNoteStdJIS
  3
"Amdt_StdImp|Product Description: AutoCAD Mechanical 2004 DX|Company: Autodesk"
 90
        0
280
     1
281
     0
  0
CLASS
  1
AMDTNOTETEMPLATEDB
  2
AmdtNoteTemplateDB
  3
AMDT_STDIMP_MODULE_NAME
 90
        0
280
     1
281
     0
  0
CLASS
  1
ACAMGLAYSTD
  2
AcAmgLayStd
  3
"AcAmgLayStd|Product Description: AutoCAD Mechanical 2000|Company: Autodesk"
 90
        0
280
     1
281
     0
  0
CLASS
  1
ACAMGDIMSTD
  2
AcAmgDimStd
  3
"AcAmgDimStd|Product Description: AutoCAD Mechanical 2000|Company: Autodesk"
 90
        0
280
     1
281
     0
  0
CLASS
  1
ACAMGHOLECHARTSTDJIS
  2
AcAmgHoleChartStdJIS
  3
ACMSYMBB_MODULE_NAME
 90
        0
280
     1
281
     0
  0
CLASS
  1
CATALOGSTATE
  2
AcAmCatalogState
  3
DesignerAssemblies
 90
        0
280
     1
281
     0
  0
CLASS
  1
ACAMGRCOMPDEFSET
  2
AcAmGrCompDefSet
  3
DesignerAssemblies
 90
        0
280
     1
281
     0
  0
CLASS
  1
AMDTBROWSERDBTAB
  2
AmdtBrowserDbTab
  3
McadcomServices
 90
        0
280
     1
281
     0
  0
CLASS
  1
CBROWSERAPPOBJECT
  2
CBrowserAppObject
  3
McadcomServices
 90
        0
280
     1
281
     0
  0
CLASS
  1
DM_PLACEHOLDER
  2
AcDmSelsetPlaceholder
  3
AcMechDwgViewMgmt
 90
        0
280
     1
281
     0
  0
CLASS
  1
SORTENTSTABLE
  2
AcDbSortentsTable
  3
ObjectDBX Classes
 90
        0
280
     0
281
     0
  0
ENDSEC
  0
SECTION
  2
TABLES
  0
TABLE
  2
VPORT
  5
8
330
0
100
AcDbSymbolTable
 70
     3
  0
VPORT
  5
229F
330
8
100
AcDbSymbolTableRecord
100
AcDbViewportTableRecord
  2
*Active
 70
     0
 10
0.0
 20
0.0
 11
1.0
 21
1.0
 12
7.15613654355543
 22
-41.30763509005425
 13
0.0
 23
0.0
 14
2.5
 24
2.5
 15
10.0
 25
10.0
 16
0.0
 26
0.0
 36
1.0
 17
0.0
 27
0.0
 37
0.0
 40
221.0500609763575
 41
1.697058823529412
 42
50.0
 43
0.0
 44
0.0
 50
0.0
 51
0.0
 71
     0
 72
  2000
 73
     1
 74
     3
 75
     0
 76
     0
 77
     0
 78
     0
281
     0
 65
     1
110
0.0
120
0.0
130
0.0
111
1.0
121
0.0
131
0.0
112
0.0
122
1.0
132
0.0
 79
     0
146
0.0
  0
ENDTAB
  0
TABLE
  2
LTYPE
  5
5
330
0
100
AcDbSymbolTable
 70
    13
  0
LTYPE
  5
14
330
5
100
AcDbSymbolTableRecord
100
AcDbLinetypeTableRecord
  2
ByBlock
 70
     0
  3

 72
    65
 73
     0
 40
0.0
  0
LTYPE
  5
15
330
5
100
AcDbSymbolTableRecord
100
AcDbLinetypeTableRecord
  2
ByLayer
 70
     0
  3

 72
    65
 73
     0
 40
0.0
  0
LTYPE
  5
16
330
5
100
AcDbSymbolTableRecord
100
AcDbLinetypeTableRecord
  2
Continuous
 70
     0
  3
Solid line
 72
    65
 73
     0
 40
0.0
  0
LTYPE
  5
48
330
5
100
AcDbSymbolTableRecord
100
AcDbLinetypeTableRecord
  2
AM_ISO02W050
 70
     0
  3
__ __ __ __ __ __ __ __ __ __ __ __ __ __ __
 72
    65
 73
     2
 40
7.5
 49
6.0
 74
     0
 49
-1.5
 74
     0
  0
LTYPE
  5
49
330
5
100
AcDbSymbolTableRecord
100
AcDbLinetypeTableRecord
  2
AM_ISO08W050
 70
     0
  3
____ . ____ . ____ . ____ . ____ . ____ . ____
 72
    65
 73
     4
 40
18.0
 49
12.0
 74
     0
 49
-1.5
 74
     0
 49
3.0
 74
     0
 49
-1.5
 74
     0
  0
LTYPE
  5
4A
330
5
100
AcDbSymbolTableRecord
100
AcDbLinetypeTableRecord
  2
AM_ISO09W050
 70
     0
  3
_____ . . _____ . . _____ . . ____ .. ____
 72
    65
 73
     6
 40
22.5
 49
12.0
 74
     0
 49
-1.5
 74
     0
 49
3.0
 74
     0
 49
-1.5
 74
     0
 49
3.0
 74
     0
 49
-1.5
 74
     0
  0
LTYPE
  5
4B
330
5
100
AcDbSymbolTableRecord
100
AcDbLinetypeTableRecord
  2
Amconstr
 70
     0
  3
_______________________
 72
    65
 73
     2
 40
9999.0
 49
9999.0
 74
     0
 49
0.0
 74
     0
  0
LTYPE
  5
4C
330
5
100
AcDbSymbolTableRecord
100
AcDbLinetypeTableRecord
  2
AM_ISO02W050x2
 70
     0
  3
 _ _ _ _ _ _ _ _ _ _ _ _
 72
    65
 73
     2
 40
3.75
 49
3.0
 74
     0
 49
-0.75
 74
     0
  0
LTYPE
  5
4D
330
5
100
AcDbSymbolTableRecord
100
AcDbLinetypeTableRecord
  2
AM_ISO08W050x2
 70
     0
  3
__ . __ . __ . __ . __ . __
 72
    65
 73
     4
 40
9.0
 49
6.0
 74
     0
 49
-0.75
 74
     0
 49
1.5
 74
     0
 49
-0.75
 74
     0
  0
LTYPE
  5
50
330
5
100
AcDbSymbolTableRecord
100
AcDbLinetypeTableRecord
  2
Amzigzag
 70
     0
  3
/\/-/\/-/\/-/\/-/\/-/\/
 72
    65
 73
     2
 40
11.0001
 49
0.0001
 74
     4
 75
   135
340
4F
 46
0.04
 50
0.0
 44
0.0
 45
0.0
 49
-11.0
 74
     0
  0
LTYPE
  5
118
330
5
100
AcDbSymbolTableRecord
100
AcDbLinetypeTableRecord
  2
CENTER
 70
     0
  3
____ _ ____ _ ____ _ ____ _ ____ _ ____ _ ____
 72
    65
 73
     4
 40
17.5
 49
13.0
 74
     0
 49
-1.5
 74
     0
 49
1.5
 74
     0
 49
-1.5
 74
     0
  0
LTYPE
  5
7AA
330
5
100
AcDbSymbolTableRecord
100
AcDbLinetypeTableRecord
  2
ACJISTGB
 70
     0
  3
__ . . __ . .
 72
    65
 73
     6
 40
9.0
 49
4.0
 74
     0
 49
-1.0
 74
     0
 49
1.0
 74
     0
 49
-1.0
 74
     0
 49
1.0
 74
     0
 49
-1.0
 74
     0
  0
LTYPE
  5
7AB
330
5
100
AcDbSymbolTableRecord
100
AcDbLinetypeTableRecord
  2
ACJISTGL
 70
     0
  3
_ _ _ _ _
 72
    65
 73
     2
 40
3.0
 49
2.0
 74
     0
 49
-1.0
 74
     0
  0
LTYPE
  5
1E9F
330
5
100
AcDbSymbolTableRecord
100
AcDbLinetypeTableRecord
  2
HIDDEN
 70
     0
  3
Hidden __ __ __ __ __ __ __ __ __ __ __ __ __ _
 72
    65
 73
     2
 40
9.524999999999999
 49
6.35
 74
     0
 49
-3.175
 74
     0
  0
LTYPE
  5
1EA0
330
5
100
AcDbSymbolTableRecord
100
AcDbLinetypeTableRecord
  2
PHANTOM2
 70
     0
  3
Phantom (.5x) ___ _ _ ___ _ _ ___ _ _ ___ _ _
 72
    65
 73
     6
 40
31.75
 49
15.875
 74
     0
 49
-3.175
 74
     0
 49
3.175
 74
     0
 49
-3.175
 74
     0
 49
3.175
 74
     0
 49
-3.175
 74
     0
  0
ENDTAB
  0
TABLE
  2
LAYER
  5
2
102
{ACAD_XDICTIONARY
360
2154
102
}
330
0
100
AcDbSymbolTable
 70
     7
  0
LAYER
  5
10
330
2
100
AcDbSymbolTableRecord
100
AcDbLayerTableRecord
  2
0
 70
     0
 62
     7
  6
Continuous
370
    -3
390
F
  0
LAYER
  5
68
330
2
100
AcDbSymbolTableRecord
100
AcDbLayerTableRecord
  2
AM_5
 70
     0
 62
     3
  6
Continuous
370
    13
390
F
  0
LAYER
  5
7B
330
2
100
AcDbSymbolTableRecord
100
AcDbLayerTableRecord
  2
Defpoints
 70
     0
 62
     7
  6
Continuous
290
     0
370
    -3
390
F
  0
LAYER
  5
5A3
330
2
100
AcDbSymbolTableRecord
100
AcDbLayerTableRecord
  2
AM_7
 70
     0
 62
     4
  6
AM_ISO08W050
370
    13
390
F
  0
LAYER
  5
5A4
330
2
100
AcDbSymbolTableRecord
100
AcDbLayerTableRecord
  2
AM_6
 70
     0
 62
     2
  6
Continuous
370
    30
390
F
  0
LAYER
  5
5F1
330
2
100
AcDbSymbolTableRecord
100
AcDbLayerTableRecord
  2
AM_0
 70
     0
 62
     7
  6
Continuous
370
    30
390
F
  0
LAYER
  5
12E1
330
2
100
AcDbSymbolTableRecord
100
AcDbLayerTableRecord
  2
PV0001_1
 70
     0
 62
     7
  6
Continuous
370
    -3
390
F
  0
ENDTAB
  0
TABLE
  2
STYLE
  5
3
330
0
100
AcDbSymbolTable
 70
     5
  0
STYLE
  5
11
330
3
100
AcDbSymbolTableRecord
100
AcDbTextStyleTableRecord
  2
STANDARD
 70
     0
 40
3.8
 41
1.0
 50
0.0
 71
     0
 42
2.5
  3
ISOCP.SHX
  4
EXTFONT.SHX
  0
STYLE
  5
4F
330
3
100
AcDbSymbolTableRecord
100
AcDbTextStyleTableRecord
  2

 70
     1
 40
0.0
 41
1.0
 50
0.0
 71
     0
 42
2.5
  3
ltypeshp.shx
  4

  0
STYLE
  5
7A2
330
3
100
AcDbSymbolTableRecord
100
AcDbTextStyleTableRecord
  2
ACJISTS
 70
     0
 40
1.0
 41
1.0
 50
0.0
 71
     0
 42
2.5
  3
isocp.shx
  4
bigfont.shx
  0
STYLE
  5
7A9
330
3
100
AcDbSymbolTableRecord
100
AcDbTextStyleTableRecord
  2
ACJISGDT
 70
     0
 40
0.0
 41
1.0
 50
0.0
 71
     0
 42
2.5
  3
amgdt.shx
  4

  0
STYLE
  5
2152
330
3
100
AcDbSymbolTableRecord
100
AcDbTextStyleTableRecord
  2
ACISOTS
 70
     0
 40
1.0
 41
1.0
 50
0.0
 71
     0
 42
1.0
  3
isocp.shx
  4
extfont.shx
  0
ENDTAB
  0
TABLE
  2
VIEW
  5
6
330
0
100
AcDbSymbolTable
 70
     6
  0
VIEW
  5
4F5
330
6
100
AcDbSymbolTableRecord
100
AcDbViewTableRecord
  2
AM_VIEW1
 70
     0
 40
150.0
 10
113.2040050062578
 20
225.0
 41
226.4080100125157
 11
0.0
 21
0.0
 31
1.0
 12
0.0
 22
0.0
 32
0.0
 42
50.0
 43
0.0
 44
0.0
 50
0.0
 71
     0
281
     0
 72
     0
  0
VIEW
  5
4F6
330
6
100
AcDbSymbolTableRecord
100
AcDbViewTableRecord
  2
AM_VIEW2
 70
     0
 40
150.0
 10
309.7959949937422
 20
225.0
 41
226.4080100125157
 11
0.0
 21
0.0
 31
1.0
 12
0.0
 22
0.0
 32
0.0
 42
50.0
 43
0.0
 44
0.0
 50
0.0
 71
     0
281
     0
 72
     0
  0
VIEW
  5
4F7
330
6
100
AcDbSymbolTableRecord
100
AcDbViewTableRecord
  2
AM_VIEW3
 70
     0
 40
150.0
 10
113.2040050062578
 20
75.0
 41
226.4080100125157
 11
0.0
 21
0.0
 31
1.0
 12
0.0
 22
0.0
 32
0.0
 42
50.0
 43
0.0
 44
0.0
 50
0.0
 71
     0
281
     0
 72
     0
  0
VIEW
  5
4F8
330
6
100
AcDbSymbolTableRecord
100
AcDbViewTableRecord
  2
AM_VIEW4
 70
     0
 40
150.0
 10
309.7959949937422
 20
75.0
 41
226.4080100125157
 11
0.0
 21
0.0
 31
1.0
 12
0.0
 22
0.0
 32
0.0
 42
50.0
 43
0.0
 44
0.0
 50
0.0
 71
     0
281
     0
 72
     0
  0
VIEW
  5
4F9
330
6
100
AcDbSymbolTableRecord
100
AcDbViewTableRecord
  2
AM_VIEW5
 70
     0
 40
150.0
 10
211.5
 20
150.0
 41
226.4080100125157
 11
0.0
 21
0.0
 31
1.0
 12
0.0
 22
0.0
 32
0.0
 42
50.0
 43
0.0
 44
0.0
 50
0.0
 71
     0
281
     0
 72
     0
  0
VIEW
  5
4FA
330
6
100
AcDbSymbolTableRecord
100
AcDbViewTableRecord
  2
AM_VIEW6
 70
     0
 40
299.9970000000001
 10
211.5
 20
150.0
 41
452.8114918648312
 11
0.0
 21
0.0
 31
1.0
 12
0.0
 22
0.0
 32
0.0
 42
50.0
 43
0.0
 44
0.0
 50
0.0
 71
     0
281
     0
 72
     0
  0
ENDTAB
  0
TABLE
  2
UCS
  5
7
330
0
100
AcDbSymbolTable
 70
     0
  0
ENDTAB
  0
TABLE
  2
APPID
  5
9
330
0
100
AcDbSymbolTable
 70
    32
  0
APPID
  5
12
330
9
100
AcDbSymbolTableRecord
100
AcDbRegAppTableRecord
  2
ACAD
 70
     0
  0
APPID
  5
2C
330
9
100
AcDbSymbolTableRecord
100
AcDbRegAppTableRecord
  2
MCAD_NO_VIS
 70
     0
  0
APPID
  5
2D
330
9
100
AcDbSymbolTableRecord
100
AcDbRegAppTableRecord
  2
ACAD_TEMP_GRAPHIC
 70
     0
  0
APPID
  5
B5
330
9
100
AcDbSymbolTableRecord
100
AcDbRegAppTableRecord
  2
GENIUS_GENDTOL_13
 70
     0
  0
APPID
  5
12C
330
9
100
AcDbSymbolTableRecord
100
AcDbRegAppTableRecord
  2
GENIUS_GENCFG_13
 70
     0
  0
APPID
  5
12D
330
9
100
AcDbSymbolTableRecord
100
AcDbRegAppTableRecord
  2
GENIUS_GENCFG0_13
 70
     0
  0
APPID
  5
12E
330
9
100
AcDbSymbolTableRecord
100
AcDbRegAppTableRecord
  2
GENIUS_GENCFG1_13
 70
     0
  0
APPID
  5
12F
330
9
100
AcDbSymbolTableRecord
100
AcDbRegAppTableRecord
  2
GENIUS_GENCFG2_13
 70
     0
  0
APPID
  5
130
330
9
100
AcDbSymbolTableRecord
100
AcDbRegAppTableRecord
  2
GENIUS_GENCFG3_13
 70
     0
  0
APPID
  5
131
330
9
100
AcDbSymbolTableRecord
100
AcDbRegAppTableRecord
  2
GENIUS_GENCFG4_13
 70
     0
  0
APPID
  5
53B
330
9
100
AcDbSymbolTableRecord
100
AcDbRegAppTableRecord
  2
GENIUS_GENBLLY_14
 70
     0
  0
APPID
  5
53C
330
9
100
AcDbSymbolTableRecord
100
AcDbRegAppTableRecord
  2
GENIUS_GENODEF_13
 70
     0
  0
APPID
  5
53D
330
9
100
AcDbSymbolTableRecord
100
AcDbRegAppTableRecord
  2
GENIUS_GENOBJ-N-CEN_13
 70
     0
  0
APPID
  5
549
330
9
100
AcDbSymbolTableRecord
100
AcDbRegAppTableRecord
  2
GENIUS_GENTRA_14
 70
     0
  0
APPID
  5
553
330
9
100
AcDbSymbolTableRecord
100
AcDbRegAppTableRecord
  2
GENIUS_GENOBJ-N-TIT_13
 70
     0
  0
APPID
  5
554
330
9
100
AcDbSymbolTableRecord
100
AcDbRegAppTableRecord
  2
GENIUS_GENTITLE_13
 70
     0
  0
APPID
  5
555
330
9
100
AcDbSymbolTableRecord
100
AcDbRegAppTableRecord
  2
GENIUS_GENOENT_13
 70
     0
  0
APPID
  5
556
330
9
100
AcDbSymbolTableRecord
100
AcDbRegAppTableRecord
  2
GENIUS_GENOREF_13
 70
     0
  0
APPID
  5
557
330
9
100
AcDbSymbolTableRecord
100
AcDbRegAppTableRecord
  2
GENIUS_GENOLIS_13
 70
     0
  0
APPID
  5
558
330
9
100
AcDbSymbolTableRecord
100
AcDbRegAppTableRecord
  2
GENIUS_GENZVEED_13
 70
     0
  0
APPID
  5
559
330
9
100
AcDbSymbolTableRecord
100
AcDbRegAppTableRecord
  2
GENIUS_GENSCREG_15
 70
     0
  0
APPID
  5
55A
330
9
100
AcDbSymbolTableRecord
100
AcDbRegAppTableRecord
  2
GENIUS_GENOBJ-N-SDF_13
 70
     0
  0
APPID
  5
567
330
9
100
AcDbSymbolTableRecord
100
AcDbRegAppTableRecord
  2
GENIUS_GENREC_14
 70
     0
  0
APPID
  5
568
330
9
100
AcDbSymbolTableRecord
100
AcDbRegAppTableRecord
  2
GENIUS_GENOBJ-N-REC_13
 70
     0
  0
APPID
  5
609
330
9
100
AcDbSymbolTableRecord
100
AcDbRegAppTableRecord
  2
GENIUS_GENOBJ-N-HTC_13
 70
     0
  0
APPID
  5
60A
330
9
100
AcDbSymbolTableRecord
100
AcDbRegAppTableRecord
  2
GENIUS_GENHATCH_13
 70
     0
  0
APPID
  5
1EA2
330
9
100
AcDbSymbolTableRecord
100
AcDbRegAppTableRecord
  2
AD_DRAW
 70
     0
  0
APPID
  5
1EA5
330
9
100
AcDbSymbolTableRecord
100
AcDbRegAppTableRecord
  2
ACATTRIBSERVICES
 70
     0
  0
APPID
  5
1EC3
330
9
100
AcDbSymbolTableRecord
100
AcDbRegAppTableRecord
  2
DESIGNERASSEMBLIES
 70
     0
  0
APPID
  5
1ED6
330
9
100
AcDbSymbolTableRecord
100
AcDbRegAppTableRecord
  2
ACADM_DIM_EDIT
 70
     0
  0
APPID
  5
1ED7
330
9
100
AcDbSymbolTableRecord
100
AcDbRegAppTableRecord
  2
AMDT_DM_ADJ
 70
     0
  0
APPID
  5
2153
330
9
100
AcDbSymbolTableRecord
100
AcDbRegAppTableRecord
  2
ACAD_PSEXT
 70
     0
  0
ENDTAB
  0
TABLE
  2
DIMSTYLE
  5
A
330
0
100
AcDbSymbolTable
 70
    12
100
AcDbDimStyleTable
  0
DIMSTYLE
105
69
330
A
100
AcDbSymbolTableRecord
100
AcDbDimStyleTableRecord
  2
AM_JIS
 70
     0
  4
"
 41
2.5
 42
0.0
 43
10.0
 44
1.0
 47
0.1
 48
0.1000000001
 73
     0
 74
     0
 77
     3
 78
     1
 79
     2
140
3.8
141
0.0
143
0.0393701
146
0.71
147
1.5
172
     1
176
     3
177
     3
178
     2
271
     2
272
     2
275
     1
283
     0
284
     8
340
11
341
6A
342
6A
371
    13
372
    13
  0
DIMSTYLE
105
70
330
A
100
AcDbSymbolTableRecord
100
AcDbDimStyleTableRecord
  2
AM_JIS$3
 70
     0
  4
"
 41
2.5
 42
0.0
 43
10.0
 44
1.0
 47
0.1
 48
0.1000000001
 73
     0
 74
     0
 77
     3
 78
     1
 79
     2
140
3.8
141
0.0
143
0.0393701
146
0.71
147
1.5
172
     1
176
     3
177
     3
178
     2
271
     2
272
     2
275
     1
283
     0
284
     8
288
     1
289
     0
340
11
341
6A
342
6A
371
    13
372
    13
  0
DIMSTYLE
105
71
330
A
100
AcDbSymbolTableRecord
100
AcDbDimStyleTableRecord
  2
AM_JIS$4
 70
     0
  4
"
 41
2.5
 42
0.0
 43
10.0
 44
1.0
 47
0.1
 48
0.1000000001
 73
     0
 74
     0
 77
     3
 78
     1
 79
     2
140
3.8
141
0.0
143
0.0393701
146
0.71
147
1.5
172
     1
176
     3
177
     3
178
     2
271
     2
272
     2
275
     1
283
     0
284
     8
288
     1
289
     0
340
11
341
6A
342
6A
371
    13
372
    13
  0
DIMSTYLE
105
72
330
A
100
AcDbSymbolTableRecord
100
AcDbDimStyleTableRecord
  2
AM_JIS$6
 70
     0
  4
"
 41
2.5
 42
0.0
 43
10.0
 44
1.0
 47
0.1
 48
0.1000000001
 73
     0
 74
     0
 78
     1
 79
     2
140
3.8
141
0.0
143
0.0393701
146
0.71
147
1.5
172
     1
176
     3
177
     3
178
     2
271
     2
272
     2
275
     1
283
     0
284
     8
340
11
341
6A
342
6A
371
    13
372
    13
  0
DIMSTYLE
105
73
330
A
100
AcDbSymbolTableRecord
100
AcDbDimStyleTableRecord
  2
AM_JIS$7
 70
     0
  4
"
 41
2.5
 42
0.0
 43
10.0
 44
1.0
 47
0.1
 48
0.1000000001
 73
     0
 74
     0
 77
     3
 78
     1
 79
     2
140
5.0
141
0.0
143
0.0393701
146
0.71
147
1.5
172
     1
176
     3
177
     3
178
     2
271
     2
272
     2
275
     1
283
     0
284
     8
340
11
341
6A
342
6A
371
    13
372
    13
  0
DIMSTYLE
105
74
330
A
100
AcDbSymbolTableRecord
100
AcDbDimStyleTableRecord
  2
AM_JIS$SF
 70
     0
  4
"
 41
2.5
 42
1.0
 43
10.0
 44
1.0
 47
0.1
 48
0.1
 73
     0
 74
     0
 75
     1
 76
     1
 77
     3
 78
     8
 79
     2
140
3.5
141
0.0
143
0.0393701
146
0.71
147
1.5
176
   256
177
   256
178
     2
271
     2
272
     3
274
     4
340
11
341
6A
342
6A
343
6A
344
6A
371
    -1
372
    -1
  0
DIMSTYLE
105
79
330
A
100
AcDbSymbolTableRecord
100
AcDbDimStyleTableRecord
  2
AM_JIS$SH
 70
     0
  4
"
 41
2.5
 42
1.0
 43
10.0
 44
1.0
 47
0.1
 48
0.1
 73
     0
 74
     0
 75
     1
 76
     1
 77
     3
 78
     8
 79
     2
140
3.5
141
0.0
143
0.0393701
144
2.0
146
0.71
147
1.5
173
     1
176
   256
177
   256
178
     2
271
     2
272
     3
274
     4
340
11
341
6A
342
6A
343
75
344
6A
371
    -1
372
    -1
  0
DIMSTYLE
105
124
330
A
100
AcDbSymbolTableRecord
100
AcDbDimStyleTableRecord
  2
STANDARD
 70
     0
340
11
  0
DIMSTYLE
105
927
102
{ACAD_REACTORS
330
12E2
330
1368
330
13B3
330
13F6
330
14AA
330
14ED
330
1530
330
1FD5
102
}
330
A
100
AcDbSymbolTableRecord
100
AcDbDimStyleTableRecord
  2
AM_JIS$0
 70
     0
  4
"
 41
2.5
 42
0.0
 43
10.0
 44
1.0
 47
0.1
 48
0.1000000001
 73
     0
 74
     0
 77
     3
 78
     1
 79
     2
140
3.8
141
0.0
143
0.0393701
146
0.71
147
1.5
172
     1
176
     3
177
     3
178
     2
271
     2
272
     2
275
     1
283
     0
284
     8
289
     0
340
11
341
6A
342
6A
371
    13
372
    13
  0
DIMSTYLE
105
9A0
102
{ACAD_REACTORS
330
1615
330
16C2
330
2071
102
}
330
A
100
AcDbSymbolTableRecord
100
AcDbDimStyleTableRecord
  2
AM_JIS$2
 70
     0
  4
"
 41
2.5
 42
0.0
 43
10.0
 44
1.0
 47
0.1
 48
0.1000000001
 73
     0
 74
     0
 77
     3
 78
     1
 79
     2
140
3.8
141
0.0
143
0.0393701
146
0.71
147
1.5
172
     1
176
     3
177
     3
178
     2
271
     2
272
     2
275
     1
283
     0
284
     8
289
     0
340
11
341
6A
342
6A
371
    13
372
    13
  0
DIMSTYLE
105
15D2
330
A
100
AcDbSymbolTableRecord
100
AcDbDimStyleTableRecord
  2
AM_JISORG4P43
 70
     0
  4
"
 41
2.5
 42
0.0
 43
10.0
 44
1.0
 47
0.1
 48
0.1000000001
 73
     0
 74
     0
 77
     3
 78
     1
 79
     2
140
3.8
141
0.0
143
0.0393701
144
4.433288122850203
146
0.71
147
1.5
172
     1
176
     3
177
     3
178
     2
271
     2
272
     2
275
     1
283
     0
284
     8
340
11
341
6A
342
6A
371
    13
372
    13
  0
DIMSTYLE
105
15D5
102
{ACAD_REACTORS
330
15D9
102
}
330
A
100
AcDbSymbolTableRecord
100
AcDbDimStyleTableRecord
  2
AM_JISORG4P43$3
 70
     0
  4
"
 41
2.5
 42
0.0
 43
10.0
 44
1.0
 47
0.1
 48
0.1000000001
 73
     0
 74
     0
 77
     3
 78
     1
 79
     2
140
3.8
141
0.0
143
0.0393701
144
4.433288122850203
146
0.71
147
1.5
172
     1
176
     3
177
     3
178
     2
271
     2
272
     2
275
     1
283
     0
284
     8
288
     1
289
     0
340
11
341
6A
342
6A
371
    13
372
    13
  0
ENDTAB
  0
TABLE
  2
BLOCK_RECORD
  5
1
330
0
100
AcDbSymbolTable
 70
    20
  0
BLOCK_RECORD
  5
1F
102
{ACAD_XDICTIONARY
360
10B
102
}
330
1
100
AcDbSymbolTableRecord
100
AcDbBlockTableRecord
  2
*Model_Space
340
22
  0
BLOCK_RECORD
  5
1B
330
1
100
AcDbSymbolTableRecord
100
AcDbBlockTableRecord
  2
*Paper_Space
340
1E
  0
BLOCK_RECORD
  5
23
330
1
100
AcDbSymbolTableRecord
100
AcDbBlockTableRecord
  2
*Paper_Space0
340
26
  0
BLOCK_RECORD
  5
6A
330
1
100
AcDbSymbolTableRecord
100
AcDbBlockTableRecord
  2
_Open30
340
0
102
{BLKREFS
331
216A
331
216B
331
2172
331
2173
331
217B
331
217C
331
229A
331
229B
331
222C
331
222D
331
221A
331
221B
331
2240
331
2241
331
21A8
331
21B1
331
21B2
331
21BD
331
21BE
331
21C8
331
21C9
331
21D2
102
}
  0
BLOCK_RECORD
  5
75
330
1
100
AcDbSymbolTableRecord
100
AcDbBlockTableRecord
  2
GENAXEH
340
0
  0
BLOCK_RECORD
  5
12E3
330
1
100
AcDbSymbolTableRecord
100
AcDbBlockTableRecord
  2
*D3
340
0
  0
BLOCK_RECORD
  5
1369
330
1
100
AcDbSymbolTableRecord
100
AcDbBlockTableRecord
  2
*D4
340
0
  0
BLOCK_RECORD
  5
13B4
330
1
100
AcDbSymbolTableRecord
100
AcDbBlockTableRecord
  2
*D5
340
0
  0
BLOCK_RECORD
  5
13F7
330
1
100
AcDbSymbolTableRecord
100
AcDbBlockTableRecord
  2
*D6
340
0
  0
BLOCK_RECORD
  5
14AB
330
1
100
AcDbSymbolTableRecord
100
AcDbBlockTableRecord
  2
*D7
340
0
  0
BLOCK_RECORD
  5
14EE
330
1
100
AcDbSymbolTableRecord
100
AcDbBlockTableRecord
  2
*D8
340
0
  0
BLOCK_RECORD
  5
1531
330
1
100
AcDbSymbolTableRecord
100
AcDbBlockTableRecord
  2
*D9
340
0
  0
BLOCK_RECORD
  5
159E
330
1
100
AcDbSymbolTableRecord
100
AcDbBlockTableRecord
  2
_None
340
0
  0
BLOCK_RECORD
  5
15DA
330
1
100
AcDbSymbolTableRecord
100
AcDbBlockTableRecord
  2
*D11
340
0
  0
BLOCK_RECORD
  5
1616
330
1
100
AcDbSymbolTableRecord
100
AcDbBlockTableRecord
  2
*D12
340
0
  0
BLOCK_RECORD
  5
16C3
330
1
100
AcDbSymbolTableRecord
100
AcDbBlockTableRecord
  2
*D13
340
0
  0
BLOCK_RECORD
  5
1C29
330
1
100
AcDbSymbolTableRecord
100
AcDbBlockTableRecord
  2
*U14
340
0
102
{BLKREFS
331
1C2E
102
}
  0
BLOCK_RECORD
  5
1C2F
330
1
100
AcDbSymbolTableRecord
100
AcDbBlockTableRecord
  2
*U15
340
0
102
{BLKREFS
331
1C33
102
}
  0
BLOCK_RECORD
  5
1C34
330
1
100
AcDbSymbolTableRecord
100
AcDbBlockTableRecord
  2
*U16
340
0
102
{BLKREFS
331
1C38
102
}
  0
BLOCK_RECORD
  5
1EBA
330
1
100
AcDbSymbolTableRecord
100
AcDbBlockTableRecord
  2
*U17
340
0
  0
BLOCK_RECORD
  5
1FD6
330
1
100
AcDbSymbolTableRecord
100
AcDbBlockTableRecord
  2
*D18
340
0
  0
BLOCK_RECORD
  5
2072
330
1
100
AcDbSymbolTableRecord
100
AcDbBlockTableRecord
  2
*D19
340
0
  0
ENDTAB
  0
ENDSEC
  0
SECTION
  2
BLOCKS
  0
BLOCK
  5
20
330
1F
100
AcDbEntity
  8
0
100
AcDbBlockBegin
  2
*Model_Space
 70
     0
 71
     0
 10
0.0
 20
0.0
 30
0.0
  3
*Model_Space
  1

  0
ENDBLK
  5
21
330
1F
100
AcDbEntity
  8
0
100
AcDbBlockEnd
  0
BLOCK
  5
1C
330
1B
100
AcDbEntity
 67
     1
  8
0
100
AcDbBlockBegin
  2
*Paper_Space
 70
     0
 71
     0
 10
0.0
 20
0.0
 30
0.0
  3
*Paper_Space
  1

  0
ENDBLK
  5
1D
330
1B
100
AcDbEntity
 67
     1
  8
0
100
AcDbBlockEnd
  0
BLOCK
  5
24
330
23
100
AcDbEntity
  8
0
100
AcDbBlockBegin
  2
*Paper_Space0
 70
     0
 71
     0
 10
0.0
 20
0.0
 30
0.0
  3
*Paper_Space0
  1

  0
ENDBLK
  5
25
330
23
100
AcDbEntity
  8
0
100
AcDbBlockEnd
  0
BLOCK
  5
6E
330
6A
100
AcDbEntity
  8
0
100
AcDbBlockBegin
  2
_Open30
 70
     0
 71
     0
 10
0.0
 20
0.0
 30
0.0
  3
_Open30
  1

  0
LINE
  5
6B
330
6A
100
AcDbEntity
  8
0
 62
     0
370
    -2
100
AcDbLine
 10
-1.0
 20
0.26794919
 30
0.0
 11
0.0
 21
0.0
 31
0.0
  0
LINE
  5
6C
330
6A
100
AcDbEntity
  8
0
 62
     0
370
    -2
100
AcDbLine
 10
0.0
 20
0.0
 30
0.0
 11
-1.0
 21
-0.26794919
 31
0.0
  0
LINE
  5
6D
330
6A
100
AcDbEntity
  8
0
 62
     0
370
    -2
100
AcDbLine
 10
0.0
 20
0.0
 30
0.0
 11
-1.0
 21
0.0
 31
0.0
  0
ENDBLK
  5
6F
330
6A
100
AcDbEntity
  8
0
100
AcDbBlockEnd
  0
BLOCK
  5
77
330
75
100
AcDbEntity
  8
0
100
AcDbBlockBegin
  2
GENAXEH
 70
     0
 71
     0
 10
0.0
 20
0.0
 30
0.0
  3
GENAXEH
  1

  0
LINE
  5
76
330
75
100
AcDbEntity
  8
0
100
AcDbLine
 10
-1.0
 20
0.0
 30
0.0
 11
1.0
 21
0.0
 31
0.0
  0
ENDBLK
  5
78
330
75
100
AcDbEntity
  8
0
100
AcDbBlockEnd
  0
BLOCK
  5
12ED
330
12E3
100
AcDbEntity
  8
0
100
AcDbBlockBegin
  2
*D3
 70
     1
 71
     0
 10
0.0
 20
0.0
 30
0.0
  3
*D3
  1

  0
LINE
  5
2167
330
12E3
100
AcDbEntity
  8
AM_5
 62
     3
370
    13
100
AcDbLine
 10
0.0
 20
4.271804075082592
 30
0.0
 11
-0.0000000000000022
 21
-32.45049263969941
 31
0.0
  0
LINE
  5
2168
330
12E3
100
AcDbEntity
  8
AM_5
 62
     3
370
    13
100
AcDbLine
 10
149.999984741206
 20
8.200007657846591
 30
0.0
 11
149.999984741206
 21
-32.45049263969941
 31
0.0
  0
LINE
  5
2169
330
12E3
100
AcDbEntity
  8
AM_5
 62
     3
370
    13
100
AcDbLine
 10
2.499999999999998
 20
-31.45049263969941
 30
0.0
 11
147.499984741206
 21
-31.45049263969941
 31
0.0
  0
INSERT
  5
216A
330
12E3
100
AcDbEntity
  8
AM_5
 62
     3
370
    13
100
AcDbBlockReference
  2
_Open30
 10
-0.0000000000000022
 20
-31.45049263969941
 30
0.0
 41
2.5
 42
2.5
 43
2.5
 50
180.0
  0
INSERT
  5
216B
330
12E3
100
AcDbEntity
  8
AM_5
 62
     3
370
    13
100
AcDbBlockReference
  2
_Open30
 10
149.999984741206
 20
-31.45049263969941
 30
0.0
 41
2.5
 42
2.5
 43
2.5
  0
MTEXT
  5
216C
330
12E3
100
AcDbEntity
  8
AM_5
 62
     2
370
    13
100
AcDbMText
 10
74.99999237060399
 20
-28.05049263969941
 30
0.0
 40
3.8
 41
0.0
 71
     5
 72
     1
  1
150
 73
     1
 44
1.0
  0
POINT
  5
216D
330
12E3
100
AcDbEntity
  8
Defpoints
 62
     0
100
AcDbPoint
 10
0.0
 20
4.271804075082592
 30
0.0
  0
POINT
  5
216E
330
12E3
100
AcDbEntity
  8
Defpoints
 62
     0
100
AcDbPoint
 10
149.999984741206
 20
8.200007657846591
 30
0.0
  0
POINT
  5
216F
330
12E3
100
AcDbEntity
  8
Defpoints
 62
     0
100
AcDbPoint
 10
149.999984741206
 20
-31.45049263969941
 30
0.0
  0
ENDBLK
  5
12EE
330
12E3
100
AcDbEntity
  8
0
100
AcDbBlockEnd
  0
BLOCK
  5
1373
330
1369
100
AcDbEntity
  8
0
100
AcDbBlockBegin
  2
*D4
 70
     1
 71
     0
 10
0.0
 20
0.0
 30
0.0
  3
*D4
  1

  0
LINE
  5
2170
330
1369
100
AcDbEntity
  8
AM_5
 62
     3
370
    13
100
AcDbLine
 10
0.1362954145064066
 20
2.964725136468651
 30
0.0
 11
-31.000015258789
 21
2.96472513646866
 31
0.0
  0
LINE
  5
2171
330
1369
100
AcDbEntity
  8
AM_5
 62
     3
370
    13
100
AcDbLine
 10
-30.00001525878899
 20
30.70000002845261
 30
0.0
 11
-30.000015258789
 21
5.46472513646866
 31
0.0
  0
INSERT
  5
2172
330
1369
100
AcDbEntity
  8
AM_5
 62
     3
370
    13
100
AcDbBlockReference
  2
_Open30
 10
-30.00001525878899
 20
33.20000002845261
 30
0.0
 41
2.5
 42
2.5
 43
2.5
 50
90.0
  0
INSERT
  5
2173
330
1369
100
AcDbEntity
  8
AM_5
 62
     3
370
    13
100
AcDbBlockReference
  2
_Open30
 10
-30.000015258789
 20
2.96472513646866
 30
0.0
 41
2.5
 42
2.5
 43
2.5
 50
270.0
  0
MTEXT
  5
2174
330
1369
100
AcDbEntity
  8
AM_5
 62
     2
370
    13
100
AcDbMText
 10
-33.590015258789
 20
18.20000384314959
 30
0.0
 40
3.8
 41
0.0
 71
     5
 72
     1
  1
(30)
 11
6.123031769111886E-17
 21
1.0
 31
0.0
 73
     1
 44
1.0
  0
POINT
  5
2175
330
1369
100
AcDbEntity
  8
Defpoints
 62
     0
100
AcDbPoint
 10
37.2698676586144
 20
33.20000002845259
 30
0.0
  0
POINT
  5
2176
330
1369
100
AcDbEntity
  8
Defpoints
 62
     0
100
AcDbPoint
 10
0.1362954145064066
 20
2.964725136468651
 30
0.0
  0
POINT
  5
2177
330
1369
100
AcDbEntity
  8
Defpoints
 62
     0
100
AcDbPoint
 10
-30.000015258789
 20
2.96472513646866
 30
0.0
  0
ENDBLK
  5
1374
330
1369
100
AcDbEntity
  8
0
100
AcDbBlockEnd
  0
BLOCK
  5
13BE
330
13B4
100
AcDbEntity
  8
0
100
AcDbBlockBegin
  2
*D5
 70
     1
 71
     0
 10
0.0
 20
0.0
 30
0.0
  3
*D5
  1

  0
LINE
  5
2178
330
13B4
100
AcDbEntity
  8
AM_5
 62
     3
370
    13
100
AcDbLine
 10
19.0
 20
11.36034701331559
 30
0.0
 11
19.0
 21
48.58589480384259
 31
0.0
  0
LINE
  5
2179
330
13B4
100
AcDbEntity
  8
AM_5
 62
     3
370
    13
100
AcDbLine
 10
0.0
 20
4.235278348764588
 30
0.0
 11
0.0000000000000027
 21
48.58589480384259
 31
0.0
  0
LINE
  5
217A
330
13B4
100
AcDbEntity
  8
AM_5
 62
     3
370
    13
100
AcDbLine
 10
16.5
 20
47.58589480384259
 30
0.0
 11
2.500000000000003
 21
47.58589480384259
 31
0.0
  0
INSERT
  5
217B
330
13B4
100
AcDbEntity
  8
AM_5
 62
     3
370
    13
100
AcDbBlockReference
  2
_Open30
 10
19.0
 20
47.58589480384259
 30
0.0
 41
2.5
 42
2.5
 43
2.5
  0
INSERT
  5
217C
330
13B4
100
AcDbEntity
  8
AM_5
 62
     3
370
    13
100
AcDbBlockReference
  2
_Open30
 10
0.0000000000000027
 20
47.58589480384259
 30
0.0
 41
2.5
 42
2.5
 43
2.5
 50
180.0
  0
MTEXT
  5
217D
330
13B4
100
AcDbEntity
  8
AM_5
 62
     2
370
    13
100
AcDbMText
 10
9.5
 20
50.98589480384259
 30
0.0
 40
3.8
 41
0.0
 71
     5
 72
     1
  1
19
 73
     1
 44
1.0
  0
POINT
  5
217E
330
13B4
100
AcDbEntity
  8
Defpoints
 62
     0
100
AcDbPoint
 10
19.0
 20
11.36034701331559
 30
0.0
  0
POINT
  5
217F
330
13B4
100
AcDbEntity
  8
Defpoints
 62
     0
100
AcDbPoint
 10
0.0
 20
4.235278348764588
 30
0.0
  0
POINT
  5
2180
330
13B4
100
AcDbEntity
  8
Defpoints
 62
     0
100
AcDbPoint
 10
0.0000000000000027
 20
47.58589480384259
 30
0.0
  0
ENDBLK
  5
13BF
330
13B4
100
AcDbEntity
  8
0
100
AcDbBlockEnd
  0
BLOCK
  5
1403
330
13F7
100
AcDbEntity
  8
0
100
AcDbBlockBegin
  2
*D6
 70
     1
 71
     0
 10
0.0
 20
0.0
 30
0.0
  3
*D6
  1

  0
LINE
  5
2294
330
13F7
100
AcDbEntity
  8
AM_5
 62
     3
370
    13
100
AcDbLine
 10
2.964723587036001
 20
7.863704681397003
 30
0.0
 11
-17.54535861657719
 21
2.368044208719459
 31
0.0
  0
LINE
  5
2295
330
13F7
100
AcDbEntity
  8
AM_5
 62
     3
370
    13
100
AcDbLine
 10
5.035276412964002
 20
0.1362991333010015
 30
0.0
 11
-15.47480631104558
 21
-5.359361478816347
 31
0.0
  0
LINE
  5
2296
330
13F7
100
AcDbEntity
  8
AM_5
 62
     3
370
    13
100
AcDbLine
 10
-17.2264804650151
 20
5.041677826935752
 30
0.0
 11
-17.87352813374305
 21
7.456492377660863
 31
0.0
  0
LINE
  5
2297
330
13F7
100
AcDbEntity
  8
AM_5
 62
     3
370
    13
100
AcDbLine
 10
-13.86183282202759
 20
-7.515356962050277
 30
0.0
 11
-13.21478515329963
 21
-9.930171512775388
 31
0.0
  0
MTEXT
  5
2298
330
13F7
100
AcDbEntity
  8
AM_5
 62
     2
370
    13
100
AcDbMText
 10
-11.66734046455775
 20
-2.568723076452397
 30
0.0
 40
3.8
 41
0.0
 71
     5
 72
     1
  1
8
 11
0.2588190674911808
 21
-0.9659258202900446
 31
0.0
 73
     1
 44
1.0
  0
LINE
  5
2299
330
13F7
100
AcDbEntity
  8
AM_5
 62
     3
370
    13
100
AcDbLine
 10
-16.57943279628715
 20
2.62686327621064
 30
0.0
 11
-14.50888049075554
 21
-5.100542411325166
 31
0.0
  0
INSERT
  5
229A
330
13F7
100
AcDbEntity
  8
AM_5
 62
     3
370
    13
100
AcDbBlockReference
  2
_Open30
 10
-16.57943279628715
 20
2.62686327621064
 30
0.0
 41
2.5
 42
2.5
 43
2.5
 50
285.0000013280272
  0
INSERT
  5
229B
330
13F7
100
AcDbEntity
  8
AM_5
 62
     3
370
    13
100
AcDbBlockReference
  2
_Open30
 10
-14.50888049075554
 20
-5.100542411325166
 30
0.0
 41
2.5
 42
2.5
 43
2.5
 50
105.0000013280272
  0
POINT
  5
229C
330
13F7
100
AcDbEntity
  8
Defpoints
 62
     0
100
AcDbPoint
 10
2.964723587036001
 20
7.863704681397003
 30
0.0
  0
POINT
  5
229D
330
13F7
100
AcDbEntity
  8
Defpoints
 62
     0
100
AcDbPoint
 10
5.035276412964002
 20
0.1362991333010015
 30
0.0
  0
POINT
  5
229E
330
13F7
100
AcDbEntity
  8
Defpoints
 62
     0
100
AcDbPoint
 10
-14.50888049075554
 20
-5.100542411325166
 30
0.0
  0
ENDBLK
  5
1404
330
13F7
100
AcDbEntity
  8
0
100
AcDbBlockEnd
  0
BLOCK
  5
14B5
330
14AB
100
AcDbEntity
  8
0
100
AcDbBlockBegin
  2
*D7
 70
     1
 71
     0
 10
0.0
 20
0.0
 30
0.0
  3
*D7
  1

  0
LINE
  5
2229
330
14AB
100
AcDbEntity
  8
AM_5
 62
     3
370
    13
100
AcDbLine
 10
149.999984741206
 20
33.20000002845259
 30
0.0
 11
170.999992370596
 21
33.20000002845259
 31
0.0
  0
LINE
  5
222A
330
14AB
100
AcDbEntity
  8
AM_5
 62
     3
370
    13
100
AcDbLine
 10
149.999984741206
 20
8.200007657846591
 30
0.0
 11
170.999992370596
 21
8.200007657846586
 31
0.0
  0
LINE
  5
222B
330
14AB
100
AcDbEntity
  8
AM_5
 62
     3
370
    13
100
AcDbLine
 10
169.999992370596
 20
30.70000002845259
 30
0.0
 11
169.999992370596
 21
10.70000765784659
 31
0.0
  0
INSERT
  5
222C
330
14AB
100
AcDbEntity
  8
AM_5
 62
     3
370
    13
100
AcDbBlockReference
  2
_Open30
 10
169.999992370596
 20
33.20000002845259
 30
0.0
 41
2.5
 42
2.5
 43
2.5
 50
90.0
  0
INSERT
  5
222D
330
14AB
100
AcDbEntity
  8
AM_5
 62
     3
370
    13
100
AcDbBlockReference
  2
_Open30
 10
169.999992370596
 20
8.200007657846586
 30
0.0
 41
2.5
 42
2.5
 43
2.5
 50
270.0
  0
MTEXT
  5
222E
330
14AB
100
AcDbEntity
  8
AM_5
 62
     2
370
    13
100
AcDbMText
 10
166.599618354848
 20
20.70000765784658
 30
0.0
 40
3.8
 41
0.0
 71
     5
 72
     1
  1
25
 11
6.123031769111886E-17
 21
1.0
 31
0.0
 73
     1
 44
1.0
  0
POINT
  5
222F
330
14AB
100
AcDbEntity
  8
Defpoints
 62
     0
100
AcDbPoint
 10
149.999984741206
 20
33.20000002845259
 30
0.0
  0
POINT
  5
2230
330
14AB
100
AcDbEntity
  8
Defpoints
 62
     0
100
AcDbPoint
 10
149.999984741206
 20
8.200007657846591
 30
0.0
  0
POINT
  5
2231
330
14AB
100
AcDbEntity
  8
Defpoints
 62
     0
100
AcDbPoint
 10
169.999992370596
 20
8.200007657846586
 30
0.0
  0
ENDBLK
  5
14B6
330
14AB
100
AcDbEntity
  8
0
100
AcDbBlockEnd
  0
BLOCK
  5
14F8
330
14EE
100
AcDbEntity
  8
0
100
AcDbBlockBegin
  2
*D8
 70
     1
 71
     0
 10
0.0
 20
0.0
 30
0.0
  3
*D8
  1

  0
LINE
  5
2217
330
14EE
100
AcDbEntity
  8
AM_5
 62
     3
370
    13
100
AcDbLine
 10
116.368354797362
 20
-57.02728154198142
 30
0.0
 11
119.9941157284202
 21
-56.05576173848279
 31
0.0
  0
LINE
  5
2218
330
14EE
100
AcDbEntity
  8
AM_5
 62
     3
370
    13
100
AcDbLine
 10
123.642547607421
 20
-80.96007229820739
 30
0.0
 11
126.4645925044457
 21
-80.20390757693836
 31
0.0
  0
LINE
  5
2219
330
14EE
100
AcDbEntity
  8
AM_5
 62
     3
370
    13
100
AcDbLine
 10
119.6752375768581
 20
-58.72939535669907
 30
0.0
 11
124.8516190154277
 21
-78.04791209370443
 31
0.0
  0
INSERT
  5
221A
330
14EE
100
AcDbEntity
  8
AM_5
 62
     3
370
    13
100
AcDbBlockReference
  2
_Open30
 10
119.0281899081301
 20
-56.31458080597396
 30
0.0
 41
2.5
 42
2.5
 43
2.5
 50
105.0000013280272
  0
INSERT
  5
221B
330
14EE
100
AcDbEntity
  8
AM_5
 62
     3
370
    13
100
AcDbBlockReference
  2
_Open30
 10
125.4986666841557
 20
-80.46272664442954
 30
0.0
 41
2.5
 42
2.5
 43
2.5
 50
285.0000013280272
  0
MTEXT
  5
221C
330
14EE
100
AcDbEntity
  8
AM_5
 62
     2
370
    13
100
AcDbMText
 10
125.5479367948282
 20
-67.50856999677424
 30
0.0
 40
3.8
 41
0.0
 71
     5
 72
     1
  1
25
 11
0.2588190674911808
 21
-0.9659258202900446
 31
0.0
 73
     1
 44
1.0
  0
POINT
  5
221D
330
14EE
100
AcDbEntity
  8
Defpoints
 62
     0
100
AcDbPoint
 10
116.368354797362
 20
-57.02728154198142
 30
0.0
  0
POINT
  5
221E
330
14EE
100
AcDbEntity
  8
Defpoints
 62
     0
100
AcDbPoint
 10
123.642547607421
 20
-80.96007229820739
 30
0.0
  0
POINT
  5
221F
330
14EE
100
AcDbEntity
  8
Defpoints
 62
     0
100
AcDbPoint
 10
125.4986666841557
 20
-80.46272664442954
 30
0.0
  0
ENDBLK
  5
14F9
330
14EE
100
AcDbEntity
  8
0
100
AcDbBlockEnd
  0
BLOCK
  5
153B
330
1531
100
AcDbEntity
  8
0
100
AcDbBlockBegin
  2
*D9
 70
     1
 71
     0
 10
0.0
 20
0.0
 30
0.0
  3
*D9
  1

  0
LINE
  5
223D
330
1531
100
AcDbEntity
  8
AM_5
 62
     3
370
    13
100
AcDbLine
 10
22.978070259094
 20
-82.04665448204541
 30
0.0
 11
0.6500433533314869
 21
-88.02943181471075
 31
0.0
  0
LINE
  5
223E
330
1531
100
AcDbEntity
  8
AM_5
 62
     3
370
    13
100
AcDbLine
 10
30.6089506149285
 20
-105.8883483602184
 30
0.0
 11
7.121639447109068
 21
-112.1817550034996
 31
0.0
  0
LINE
  5
223F
330
1531
100
AcDbEntity
  8
AM_5
 62
     3
370
    13
100
AcDbLine
 10
2.263016842349479
 20
-90.18542729794467
 30
0.0
 11
7.440517598671157
 21
-109.5081213852833
 31
0.0
  0
INSERT
  5
2240
330
1531
100
AcDbEntity
  8
AM_5
 62
     3
370
    13
100
AcDbBlockReference
  2
_Open30
 10
1.615969173621529
 20
-87.77061274721956
 30
0.0
 41
2.5
 42
2.5
 43
2.5
 50
105.0000013280272
  0
INSERT
  5
2241
330
1531
100
AcDbEntity
  8
AM_5
 62
     3
370
    13
100
AcDbBlockReference
  2
_Open30
 10
8.087565267399111
 20
-111.9229359360084
 30
0.0
 41
2.5
 42
2.5
 43
2.5
 50
285.0000013280272
  0
MTEXT
  5
2242
330
1531
100
AcDbEntity
  8
AM_5
 62
     2
370
    13
100
AcDbMText
 10
8.13627564675738
 20
-98.96669034284321
 30
0.0
 40
3.8
 41
0.0
 71
     5
 72
     1
  1
25
 11
0.2588190674911808
 21
-0.9659258202900446
 31
0.0
 73
     1
 44
1.0
  0
POINT
  5
2243
330
1531
100
AcDbEntity
  8
Defpoints
 62
     0
100
AcDbPoint
 10
22.978070259094
 20
-82.04665448204541
 30
0.0
  0
POINT
  5
2244
330
1531
100
AcDbEntity
  8
Defpoints
 62
     0
100
AcDbPoint
 10
30.6089506149285
 20
-105.8883483602184
 30
0.0
  0
POINT
  5
2245
330
1531
100
AcDbEntity
  8
Defpoints
 62
     0
100
AcDbPoint
 10
8.087565267399111
 20
-111.9229359360084
 30
0.0
  0
ENDBLK
  5
153C
330
1531
100
AcDbEntity
  8
0
100
AcDbBlockEnd
  0
BLOCK
  5
159F
330
159E
100
AcDbEntity
  8
0
100
AcDbBlockBegin
  2
_None
 70
     0
 71
     0
 10
0.0
 20
0.0
 30
0.0
  3
_None
  1

  0
ENDBLK
  5
15A0
330
159E
100
AcDbEntity
  8
0
100
AcDbBlockEnd
  0
BLOCK
  5
15E1
330
15DA
100
AcDbEntity
  8
0
100
AcDbBlockBegin
  2
*D11
 70
     1
 71
     0
 10
0.0
 20
0.0
 30
0.0
  3
*D11
  1

  0
LINE
  5
21A7
330
15DA
100
AcDbEntity
  8
AM_5
 62
     3
370
    13
100
AcDbLine
 10
-121.2221149650932
 20
68.23792866417017
 30
0.0
 11
-142.9099161684803
 21
11.58902714038867
 31
0.0
  0
INSERT
  5
21A8
330
15DA
100
AcDbEntity
  8
AM_5
 62
     3
370
    13
100
AcDbBlockReference
  2
_Open30
 10
-143.8037639411452
 20
9.254281724009807
 30
0.0
 41
2.5
 42
2.5
 43
2.5
 50
249.0508590121622
  0
MTEXT
  5
21A9
330
15DA
100
AcDbEntity
  8
AM_5
 62
     2
370
    13
100
AcDbMText
 10
-139.6149112254004
 20
29.70613077078849
 30
0.0
 40
3.8
 41
0.0
 71
     5
 72
     1
  1
\U+2205280
 11
0.3575391090659486
 21
0.9338981665515399
 31
0.0
 73
     1
 44
1.0
  0
POINT
  5
21AA
330
15DA
100
AcDbEntity
  8
Defpoints
 62
     0
100
AcDbPoint
 10
-143.8037639411452
 20
9.254281724009807
 30
0.0
  0
POINT
  5
21AB
330
15DA
100
AcDbEntity
  8
Defpoints
 62
     0
100
AcDbPoint
 10
-121.2221149650932
 20
68.23792866417017
 30
0.0
  0
ENDBLK
  5
15E2
330
15DA
100
AcDbEntity
  8
0
100
AcDbBlockEnd
  0
BLOCK
  5
1624
330
1616
100
AcDbEntity
  8
0
100
AcDbBlockBegin
  2
*D12
 70
     1
 71
     0
 10
0.0
 20
0.0
 30
0.0
  3
*D12
  1

  0
LINE
  5
21AC
330
1616
100
AcDbEntity
  8
AM_5
 62
     3
370
    13
100
AcDbLine
 10
22.99145310615571
 20
-82.09659994488511
 30
0.0
 11
33.85278899929244
 21
-122.631655433367
 31
0.0
  0
LINE
  5
21AD
330
1616
100
AcDbEntity
  8
AM_5
 62
     3
370
    13
100
AcDbLine
 10
25.8507919311516
 20
-89.01195218101941
 30
0.0
 11
39.02636904985491
 21
-120.8772756934632
 31
0.0
  0
ARC
  5
21AE
330
1616
100
AcDbEntity
  8
AM_5
 62
     3
370
    13
100
AcDbCircle
 10
22.99145310615571
 20
-82.09659994488511
 30
0.0
 40
40.96497755078451
100
AcDbArc
 50
278.0056511107558
 51
281.5028258915715
  0
ARC
  5
21AF
330
1616
100
AcDbEntity
  8
AM_5
 62
     3
370
    13
100
AcDbCircle
 10
22.99145310615571
 20
-82.09659994488511
 30
0.0
 40
40.96497755078451
100
AcDbArc
 50
295.9611418933291
 51
299.4583166741448
  0
ARC
  5
21B0
330
1616
100
AcDbEntity
  8
AM_5
 62
     3
370
    13
100
AcDbCircle
 10
22.99145310615571
 20
-82.09659994488511
 30
0.0
 40
40.96497755078451
100
AcDbArc
 50
285.0000006723873
 51
292.4639671125133
  0
INSERT
  5
21B1
330
1616
100
AcDbEntity
  8
AM_5
 62
     3
370
    13
100
AcDbBlockReference
  2
_Open30
 10
33.59396994285442
 20
-121.6657296101153
 30
0.0
 41
2.5
 42
2.5
 43
2.5
 50
13.25141328197944
  0
INSERT
  5
21B2
330
1616
100
AcDbEntity
  8
AM_5
 62
     3
370
    13
100
AcDbBlockReference
  2
_Open30
 10
38.64426671406088
 20
-119.9531556769173
 30
0.0
 41
2.5
 42
2.5
 43
2.5
 50
204.2125545029212
  0
MTEXT
  5
21B3
330
1616
100
AcDbEntity
  8
AM_5
 62
     2
370
    13
100
AcDbMText
 10
28.84421771031771
 20
-119.2028350662123
 30
0.0
 40
3.8
 41
0.0
 71
     5
 72
     1
  1
7°
 11
0.9877880286541586
 21
0.1558037562048207
 31
0.0
 73
     1
 44
1.0
  0
POINT
  5
21B4
330
1616
100
AcDbEntity
  8
Defpoints
 62
     0
100
AcDbPoint
 10
36.98616025558663
 20
-120.5969578333249
 30
0.0
  0
POINT
  5
21B5
330
1616
100
AcDbEntity
  8
Defpoints
 62
     0
100
AcDbPoint
 10
12.1033509969714
 20
-41.46165158287641
 30
0.0
  0
POINT
  5
21B6
330
1616
100
AcDbEntity
  8
Defpoints
 62
     0
100
AcDbPoint
 10
12.675213813781
 20
-57.14662625328441
 30
0.0
  0
POINT
  5
21B7
330
1616
100
AcDbEntity
  8
Defpoints
 62
     0
100
AcDbPoint
 10
25.8507919311516
 20
-89.01195218101941
 30
0.0
  0
POINT
  5
21B8
330
1616
100
AcDbEntity
  8
Defpoints
 62
     0
100
AcDbPoint
 10
22.978070259094
 20
-82.04665448204541
 30
0.0
  0
ENDBLK
  5
1625
330
1616
100
AcDbEntity
  8
0
100
AcDbBlockEnd
  0
BLOCK
  5
16D1
330
16C3
100
AcDbEntity
  8
0
100
AcDbBlockBegin
  2
*D13
 70
     1
 71
     0
 10
0.0
 20
0.0
 30
0.0
  3
*D13
  1

  0
LINE
  5
21B9
330
16C3
100
AcDbEntity
  8
AM_5
 62
     3
370
    13
100
AcDbLine
 10
24.851917266845
 20
33.20000002845259
 30
0.0
 11
28.63468026758881
 21
47.31746624360498
 31
0.0
  0
ARC
  5
21BA
330
16C3
100
AcDbEntity
  8
AM_5
 62
     3
370
    13
100
AcDbCircle
 10
19.00000000000003
 20
11.36034359417266
 30
0.0
 40
36.22555215285576
100
AcDbArc
 50
67.09023274661827
 51
71.04511764330849
  0
ARC
  5
21BB
330
16C3
100
AcDbEntity
  8
AM_5
 62
     3
370
    13
100
AcDbCircle
 10
19.00000000000003
 20
11.36034359417266
 30
0.0
 40
36.22555215285576
100
AcDbArc
 50
93.95488489669025
 51
97.90976979338045
  0
ARC
  5
21BC
330
16C3
100
AcDbEntity
  8
AM_5
 62
     3
370
    13
100
AcDbCircle
 10
19.00000000000003
 20
11.36034359417266
 30
0.0
 40
36.22555215285576
100
AcDbArc
 50
75.00000253999869
 51
90.00000000000003
  0
INSERT
  5
21BD
330
16C3
100
AcDbEntity
  8
AM_5
 62
     3
370
    13
100
AcDbBlockReference
  2
_Open30
 10
28.37586126530708
 20
46.35154040584212
 30
0.0
 41
2.5
 42
2.5
 43
2.5
 50
163.0225600916536
  0
INSERT
  5
21BE
330
16C3
100
AcDbEntity
  8
AM_5
 62
     3
370
    13
100
AcDbBlockReference
  2
_Open30
 10
19.00000000000001
 20
47.58589574702842
 30
0.0
 41
2.5
 42
2.5
 43
2.5
 50
1.977442448345139
  0
MTEXT
  5
21BF
330
16C3
100
AcDbEntity
  8
AM_5
 62
     2
370
    13
100
AcDbMText
 10
24.17217208784878
 20
50.64689370120509
 30
0.0
 40
3.8
 41
0.0
 71
     5
 72
     1
  1
15°
 11
0.9914448625342651
 21
-0.1305261834055229
 31
0.0
 73
     1
 44
1.0
  0
POINT
  5
21C0
330
16C3
100
AcDbEntity
  8
Defpoints
 62
     0
100
AcDbPoint
 10
22.15726437105412
 20
47.44804663094885
 30
0.0
  0
POINT
  5
21C1
330
16C3
100
AcDbEntity
  8
Defpoints
 62
     0
100
AcDbPoint
 10
21.06915330886771
 20
19.08253024085559
 30
0.0
  0
POINT
  5
21C2
330
16C3
100
AcDbEntity
  8
Defpoints
 62
     0
100
AcDbPoint
 10
19.0
 20
50.5858948038426
 30
0.0
  0
POINT
  5
21C3
330
16C3
100
AcDbEntity
  8
Defpoints
 62
     0
100
AcDbPoint
 10
19.0
 20
48.5858948038426
 30
0.0
  0
POINT
  5
21C4
330
16C3
100
AcDbEntity
  8
Defpoints
 62
     0
100
AcDbPoint
 10
24.851917266845
 20
33.20000002845259
 30
0.0
  0
ENDBLK
  5
16D2
330
16C3
100
AcDbEntity
  8
0
100
AcDbBlockEnd
  0
BLOCK
  5
1C2A
330
1C29
100
AcDbEntity
  8
0
100
AcDbBlockBegin
  2
*U14
 70
     1
 71
     0
 10
0.0
 20
0.0
 30
0.0
  3
*U14
  1

  0
CIRCLE
  5
1C2C
330
1C29
100
AcDbEntity
  8
0
  6
Continuous
 48
0.5
370
    13
100
AcDbCircle
 10
-34.543689727783
 20
48.446666717529
 30
0.0
 40
0.3000000119209
  0
HATCH
  5
1C2D
330
1C29
100
AcDbEntity
  8
0
370
    13
100
AcDbHatch
 10
0.0
 20
0.0
 30
0.0
210
0.0
220
0.0
230
1.0
  2
SOLID
 70
     1
 71
     0
 91
        1
 92
        1
 93
        1
 72
     2
 10
-34.543689727783
 20
48.446666717529
 40
0.3000000119209
 50
0.0
 51
360.0
 73
     1
 97
        0
 75
     0
 76
     1
 98
        1
 10
0.0
 20
0.0
  0
ENDBLK
  5
1C2B
330
1C29
100
AcDbEntity
  8
0
100
AcDbBlockEnd
  0
BLOCK
  5
1C30
330
1C2F
100
AcDbEntity
  8
0
100
AcDbBlockBegin
  2
*U15
 70
     1
 71
     0
 10
0.0
 20
0.0
 30
0.0
  3
*U15
  1

  0
LEADER
  5
1C32
330
1C2F
100
AcDbEntity
  8
0
  6
Continuous
 48
0.5
370
    13
100
AcDbLeader
  3
AM_JIS$7
 76
     2
 10
-50.569900512695
 20
18.470392227172
 30
0.0
 10
-60.229160308837
 20
15.882203102111
 30
0.0
1001
ACAD
1000
DSTYLE
1002
{
1070
   173
1070
     1
1070
   341
1005
6A
1070
   176
1070
     0
1002
}
  0
ENDBLK
  5
1C31
330
1C2F
100
AcDbEntity
  8
0
100
AcDbBlockEnd
  0
BLOCK
  5
1C35
330
1C34
100
AcDbEntity
  8
0
100
AcDbBlockBegin
  2
*U16
 70
     1
 71
     0
 10
0.0
 20
0.0
 30
0.0
  3
*U16
  1

  0
LEADER
  5
1C37
330
1C34
100
AcDbEntity
  8
0
  6
Continuous
 48
0.5
370
    13
100
AcDbLeader
  3
AM_JIS$7
 76
     2
 10
-62.817352294921
 20
25.54146194458
 30
0.0
 10
-60.229160308837
 20
15.882203102111
 30
0.0
1001
ACAD
1000
DSTYLE
1002
{
1070
   173
1070
     1
1070
   341
1005
6A
1070
   176
1070
     0
1002
}
  0
ENDBLK
  5
1C36
330
1C34
100
AcDbEntity
  8
0
100
AcDbBlockEnd
  0
BLOCK
  5
1EBB
330
1EBA
100
AcDbEntity
  8
0
100
AcDbBlockBegin
  2
*U17
 70
     1
 71
     0
 10
0.0
 20
0.0
 30
0.0
  3
*U17
  1

  0
ENDBLK
  5
1EBC
330
1EBA
100
AcDbEntity
  8
0
100
AcDbBlockEnd
  0
BLOCK
  5
1FE0
330
1FD6
100
AcDbEntity
  8
0
100
AcDbBlockBegin
  2
*D18
 70
     1
 71
     0
 10
0.0
 20
0.0
 30
0.0
  3
*D18
  1

  0
LINE
  5
21C5
330
1FD6
100
AcDbEntity
  8
AM_5
 62
     3
370
    13
100
AcDbLine
 10
24.91495990908368
 20
33.20000002845258
 30
0.0
 11
-41.55357038571813
 21
33.2000000284526
 31
0.0
  0
LINE
  5
21C6
330
1FD6
100
AcDbEntity
  8
AM_5
 62
     3
370
    13
100
AcDbLine
 10
4.0
 20
0.0
 30
0.0
 11
-41.55357038571814
 21
0.0000000000000129
 31
0.0
  0
LINE
  5
21C7
330
1FD6
100
AcDbEntity
  8
AM_5
 62
     3
370
    13
100
AcDbLine
 10
-40.55357038571813
 20
30.7000000284526
 30
0.0
 11
-40.55357038571814
 21
2.500000000000012
 31
0.0
  0
INSERT
  5
21C8
330
1FD6
100
AcDbEntity
  8
AM_5
 62
     3
370
    13
100
AcDbBlockReference
  2
_Open30
 10
-40.55357038571813
 20
33.2000000284526
 30
0.0
 41
2.5
 42
2.5
 43
2.5
 50
90.0
  0
INSERT
  5
21C9
330
1FD6
100
AcDbEntity
  8
AM_5
 62
     3
370
    13
100
AcDbBlockReference
  2
_Open30
 10
-40.55357038571814
 20
0.0000000000000126
 30
0.0
 41
2.5
 42
2.5
 43
2.5
 50
270.0
  0
MTEXT
  5
21CA
330
1FD6
100
AcDbEntity
  8
AM_5
 62
     2
370
    13
100
AcDbMText
 10
-43.95394440146617
 20
16.6000000142263
 30
0.0
 40
3.8
 41
0.0
 71
     5
 72
     1
  1
33.2
 11
6.123031769111886E-17
 21
1.0
 31
0.0
 73
     1
 44
1.0
  0
POINT
  5
21CB
330
1FD6
100
AcDbEntity
  8
Defpoints
 62
     0
100
AcDbPoint
 10
24.91495990908368
 20
33.20000002845258
 30
0.0
  0
POINT
  5
21CC
330
1FD6
100
AcDbEntity
  8
Defpoints
 62
     0
100
AcDbPoint
 10
4.0
 20
0.0
 30
0.0
  0
POINT
  5
21CD
330
1FD6
100
AcDbEntity
  8
Defpoints
 62
     0
100
AcDbPoint
 10
-40.55357038571814
 20
0.0000000000000126
 30
0.0
  0
ENDBLK
  5
1FE1
330
1FD6
100
AcDbEntity
  8
0
100
AcDbBlockEnd
  0
BLOCK
  5
2082
330
2072
100
AcDbEntity
  8
0
100
AcDbBlockBegin
  2
*D19
 70
     1
 71
     0
 10
0.0
 20
0.0
 30
0.0
  3
*D19
  1

  0
LINE
  5
21CE
330
2072
100
AcDbEntity
  8
AM_5
 62
     3
370
    13
100
AcDbLine
 10
-10.92820789625305
 20
0.0000000000000004
 30
0.0
 11
-41.56707532411479
 21
0.0000000000000018
 31
0.0
  0
LINE
  5
21CF
330
2072
100
AcDbEntity
  8
AM_5
 62
     3
370
    13
100
AcDbLine
 10
-10.92820789625305
 20
0.0000000000000004
 30
0.0
 11
-40.52308095911003
 21
-7.929923433140419
 31
0.0
  0
ARC
  5
21D0
330
2072
100
AcDbEntity
  8
AM_5
 62
     3
370
    13
100
AcDbCircle
 10
-10.92820789625305
 20
0.0000000000000004
 30
0.0
 40
29.63886742786174
100
AcDbArc
 50
199.8342604379969
 51
204.6685188965492
  0
ARC
  5
21D1
330
2072
100
AcDbEntity
  8
AM_5
 62
     3
370
    13
100
AcDbCircle
 10
-10.92820789625305
 20
0.0000000000000004
 30
0.0
 40
29.63886742786174
100
AcDbArc
 50
180.0
 51
195.0000019794446
  0
INSERT
  5
21D2
330
2072
100
AcDbEntity
  8
AM_5
 62
     3
370
    13
100
AcDbBlockReference
  2
_Open30
 10
-39.5571551417626
 20
-7.671104354667263
 30
0.0
 41
2.5
 42
2.5
 43
2.5
 50
107.4171312087208
  0
MTEXT
  5
21D3
330
2072
100
AcDbEntity
  8
AM_5
 62
     2
370
    13
100
AcDbMText
 10
-36.56183181972255
 20
-5.603167715412079
 30
0.0
 40
3.8
 41
0.0
 71
     5
 72
     1
  1
15°
 11
0.2135445720291399
 21
-0.9769333220629193
 31
0.0
 73
     1
 44
1.0
  0
POINT
  5
21D4
330
2072
100
AcDbEntity
  8
Defpoints
 62
     0
100
AcDbPoint
 10
-40.4542904555851
 20
-2.583197844895311
 30
0.0
  0
POINT
  5
21D5
330
2072
100
AcDbEntity
  8
Defpoints
 62
     0
100
AcDbPoint
 10
4.0
 20
0.0
 30
0.0
  0
POINT
  5
21D6
330
2072
100
AcDbEntity
  8
Defpoints
 62
     0
100
AcDbPoint
 10
-2.154193878173999
 20
2.35099029541
 30
0.0
  0
POINT
  5
21D7
330
2072
100
AcDbEntity
  8
Defpoints
 62
     0
100
AcDbPoint
 10
21.21807289123501
 20
8.613571166992003
 30
0.0
  0
POINT
  5
21D8
330
2072
100
AcDbEntity
  8
Defpoints
 62
     0
100
AcDbPoint
 10
-1.870449497448967
 20
0.0
 30
0.0
  0
ENDBLK
  5
2083
330
2072
100
AcDbEntity
  8
0
100
AcDbBlockEnd
  0
ENDSEC
  0
SECTION
  2
ENTITIES
  0
DIMENSION
  5
12E2
330
1F
100
AcDbEntity
  8
AM_5
370
    13
100
AcDbDimension
  2
*D3
 10
149.999984741206
 20
-31.45049263969941
 30
0.0
 11
74.99999237060399
 21
-31.45049263969941
 31
0.0
 70
   160
  1
<>
 71
     5
 42
149.999984741206
  3
AM_JIS$0
100
AcDbAlignedDimension
 13
0.0
 23
4.271804075082592
 33
0.0
 14
149.999984741206
 24
8.200007657846591
 34
0.0
100
AcDbRotatedDimension
1001
ACAD
1000
DSTYLE
1002
{
1070
   284
1070
     8
1070
   271
1070
     0
1070
    45
1040
0.1
1070
   173
1070
     1
1070
   343
1005
6A
1070
   344
1005
6A
1002
}
  0
DIMENSION
  5
1368
330
1F
100
AcDbEntity
  8
AM_5
370
    13
100
AcDbDimension
  2
*D4
 10
-30.000015258789
 20
2.96472513646866
 30
0.0
 11
-30.000015258789
 21
18.20000384314959
 31
0.0
 70
   160
  1
(<>)
 71
     5
 42
30.23527489198395
  3
AM_JIS$0
100
AcDbAlignedDimension
 13
37.2698676586144
 23
33.20000002845259
 33
0.0
 14
0.1362954145064066
 24
2.964725136468651
 34
0.0
 50
90.0
100
AcDbRotatedDimension
1001
ACAD
1000
DSTYLE
1002
{
1070
    45
1040
0.01
1070
    75
1070
     1
1070
   173
1070
     1
1070
   271
1070
     0
1070
   343
1005
6A
1070
   344
1005
6A
1002
}
  0
DIMENSION
  5
13B3
330
1F
100
AcDbEntity
  8
AM_5
370
    13
100
AcDbDimension
  2
*D5
 10
0.0000000000000027
 20
47.58589480384259
 30
0.0
 11
9.5
 21
47.58589480384259
 31
0.0
 70
   160
  1
<>
 71
     5
 42
19.0
  3
AM_JIS$0
100
AcDbAlignedDimension
 13
19.0
 23
11.36034701331559
 33
0.0
 14
0.0
 24
4.235278348764588
 34
0.0
100
AcDbRotatedDimension
1001
ACAD
1000
DSTYLE
1002
{
1070
   284
1070
     8
1070
   271
1070
     0
1070
    45
1040
0.1
1070
   173
1070
     1
1070
   343
1005
6A
1070
   344
1005
6A
1002
}
  0
DIMENSION
  5
13F6
330
1F
100
AcDbEntity
  8
AM_5
370
    13
100
AcDbDimension
  2
*D6
 10
-14.50888049075554
 20
-5.100542411325166
 30
0.0
 11
-14.95148825354391
 21
-3.448707905922411
 31
0.0
 70
   160
  1
<>
 71
     5
 42
7.999999094356387
  3
AM_JIS$0
100
AcDbAlignedDimension
 13
2.964723587036001
 23
7.863704681397003
 33
0.0
 14
5.035276412964002
 24
0.1362991333010015
 34
0.0
 50
285.0000013280272
100
AcDbRotatedDimension
1001
ACAD
1000
DSTYLE
1002
{
1070
    45
1040
0.01
1070
   173
1070
     1
1070
   271
1070
     0
1070
   279
1070
     1
1070
   343
1005
6A
1070
   344
1005
6A
1002
}
  0
DIMENSION
  5
14AA
330
1F
100
AcDbEntity
  8
AM_5
370
    13
100
AcDbDimension
  2
*D7
 10
169.999992370596
 20
8.200007657846586
 30
0.0
 11
169.999992370596
 21
20.70000765784658
 31
0.0
 70
   160
  1
<>
 71
     5
 42
24.999992370606
  3
AM_JIS$0
100
AcDbAlignedDimension
 13
149.999984741206
 23
33.20000002845259
 33
0.0
 14
149.999984741206
 24
8.200007657846591
 34
0.0
 50
90.0
100
AcDbRotatedDimension
1001
ACAD
1000
DSTYLE
1002
{
1070
   284
1070
     8
1070
   271
1070
     0
1070
    45
1040
0.1
1070
   173
1070
     1
1070
   343
1005
6A
1070
   344
1005
6A
1002
}
  0
DIMENSION
  5
14ED
330
1F
100
AcDbEntity
  8
AM_5
370
    13
100
AcDbDimension
  2
*D8
 10
125.4986666841557
 20
-80.46272664442954
 30
0.0
 11
122.2634277343739
 21
-68.38865162865139
 31
0.0
 70
   160
  1
<>
 71
     5
 42
25.0000003428881
  3
AM_JIS$0
100
AcDbAlignedDimension
 13
116.368354797362
 23
-57.02728154198141
 33
0.0
 14
123.642547607421
 24
-80.96007229820741
 34
0.0
 50
285.0000013280272
100
AcDbRotatedDimension
1001
ACAD
1000
DSTYLE
1002
{
1070
   284
1070
     8
1070
   271
1070
     0
1070
    45
1040
0.1
1070
   173
1070
     1
1070
   343
1005
6A
1070
   344
1005
6A
1002
}
  0
DIMENSION
  5
1530
330
1F
100
AcDbEntity
  8
AM_5
370
    13
100
AcDbDimension
  2
*D9
 10
8.087565267399111
 20
-111.9229359360084
 30
0.0
 11
4.851766586303008
 21
-99.84677197472036
 31
0.0
 70
   160
  1
<>
 71
     5
 42
25.00432505421223
  3
AM_JIS$0
100
AcDbAlignedDimension
 13
22.978070259094
 23
-82.04665448204541
 33
0.0
 14
30.6089506149285
 24
-105.8883483602184
 34
0.0
 50
285.0000013280272
100
AcDbRotatedDimension
1001
ACAD
1000
DSTYLE
1002
{
1070
   284
1070
     8
1070
   271
1070
     0
1070
    45
1040
0.1
1070
   173
1070
     1
1070
   343
1005
6A
1070
   344
1005
6A
1002
}
  0
DIMENSION
  5
15D9
330
1F
100
AcDbEntity
  8
AM_5
370
    13
100
AcDbDimension
  2
*D11
 10
-121.2221149650932
 20
68.23792866417017
 30
0.0
 11
-136.4393081665038
 21
28.49036407470694
 31
0.0
 70
   163
  1
<>
 71
     5
 42
280.0000158344582
  3
AM_JISORG4P43$3
100
AcDbDiametricDimension
 15
-143.8037639411452
 25
9.254281724009807
 35
0.0
 40
0.0
1001
ACAD
1000
DSTYLE
1002
{
1070
    45
1040
0.1
1070
   173
1070
     1
1070
   271
1070
     0
1070
   343
1005
159E
1070
   344
1005
6A
1002
}
  0
DIMENSION
  5
1615
330
1F
100
AcDbEntity
  8
AM_5
370
    13
100
AcDbDimension
  2
*D12
 10
22.978070259094
 20
-82.04665448204541
 30
0.0
 11
29.3739504814141
 21
-122.5613143636364
 31
0.0
 70
   162
  1
<>
 71
     5
 42
0.1302707896385584
  3
AM_JIS$2
100
AcDb2LineAngularDimension
 13
12.675213813781
 23
-57.14662625328441
 33
0.0
 14
25.8507919311516
 24
-89.01195218101941
 34
0.0
 15
12.1033509969714
 25
-41.46165158287641
 35
0.0
 16
36.98616025558663
 26
-120.5969578333249
 36
0.0
1001
ACAD
1000
DSTYLE
1002
{
1070
   284
1070
     8
1070
   179
1070
     0
1070
   173
1070
     1
1070
   343
1005
6A
1070
   344
1005
6A
1002
}
  0
DIMENSION
  5
16C2
330
1F
100
AcDbEntity
  8
AM_5
370
    13
100
AcDbDimension
  2
*D13
 10
24.851917266845
 20
33.20000002845259
 30
0.0
 11
23.72838306427
 21
47.27598116858859
 31
0.0
 70
   162
  1
<>
 71
     5
 42
0.2617993434678096
  3
AM_JIS$2
100
AcDb2LineAngularDimension
 13
19.0
 23
50.58589480384259
 33
0.0
 14
19.0
 24
48.58589480384259
 34
0.0
 15
21.0691533088677
 25
19.08253024085559
 35
0.0
 16
22.15726437105412
 26
47.44804663094885
 36
0.0
1001
ACAD
1000
DSTYLE
1002
{
1070
   284
1070
     8
1070
   179
1070
     0
1070
   173
1070
     1
1070
   343
1005
6A
1070
   344
1005
6A
1070
    76
1070
     1
1002
}
  0
LINE
  5
176F
330
1F
100
AcDbEntity
  8
AM_0
  6
Continuous
 48
0.5
370
    30
100
AcDbLine
 10
63.020845413207
 20
-61.48664166466242
 30
0.0
 11
63.633205413817
 21
-61.84018780724041
 31
0.0
  0
LINE
  5
1772
330
1F
100
AcDbEntity
  8
AM_0
  6
Continuous
 48
0.5
370
    30
100
AcDbLine
 10
63.020845413207
 20
-61.48664166466242
 30
0.0
 11
62.408472061156
 21
-61.13308789268941
 31
0.0
  0
LINE
  5
1773
330
1F
100
AcDbEntity
  8
AM_7
  6
CENTER
370
    13
100
AcDbLine
 10
60.44295310974
 20
-100.1605422689104
 30
0.0
 11
50.351327896117
 21
-62.49808766380741
 31
0.0
  0
LINE
  5
1774
330
1F
100
AcDbEntity
  8
AM_0
  6
Continuous
 48
0.5
370
    30
100
AcDbLine
 10
54.535614013671
 20
-76.18350483910041
 30
0.0
 11
71.311969757079
 21
-71.68829419151741
 31
0.0
  0
LINE
  5
1775
330
1F
100
AcDbEntity
  8
AM_0
  6
Continuous
 48
0.5
370
    30
100
AcDbLine
 10
52.624950408934
 20
-77.88074185387141
 30
0.0
 11
52.685132980346
 21
-77.87237240807042
 31
0.0
  0
LINE
  5
1776
330
1F
100
AcDbEntity
  8
AM_0
  6
Continuous
 48
0.5
370
    30
100
AcDbLine
 10
52.445674896239
 20
-77.90593792931041
 30
0.0
 11
52.624919891356
 21
-77.88068463341242
 31
0.0
  0
LINE
  5
1777
330
1F
100
AcDbEntity
  8
AM_0
  6
Continuous
 48
0.5
370
    30
100
AcDbLine
 10
52.59444618225
 20
-78.73029400841242
 30
0.0
 11
52.685300827025
 21
-77.87234570518942
 31
0.0
  0
LINE
  5
1778
330
1F
100
AcDbEntity
  8
AM_0
  6
Continuous
 48
0.5
370
    30
100
AcDbLine
 10
52.153022766112
 20
-77.94706799522841
 30
0.0
 11
52.445795059203
 21
-77.90588452354841
 31
0.0
  0
LINE
  5
1779
330
1F
100
AcDbEntity
  8
AM_0
  6
Continuous
 48
0.5
370
    30
100
AcDbLine
 10
51.755418777465
 20
-78.00292279259142
 30
0.0
 11
52.152952194213
 21
-77.94714428917341
 31
0.0
  0
LINE
  5
177A
330
1F
100
AcDbEntity
  8
AM_0
  6
Continuous
 48
0.5
370
    30
100
AcDbLine
 10
51.26464653015
 20
-78.07191159264042
 30
0.0
 11
51.755458831786
 21
-78.00292660728941
 31
0.0
  0
LINE
  5
177B
330
1F
100
AcDbEntity
  8
AM_0
  6
Continuous
 48
0.5
370
    30
100
AcDbLine
 10
50.695137023925
 20
-78.1519439412734
 30
0.0
 11
51.264631271361
 21
-78.07191922203541
 31
0.0
  0
LINE
  5
177C
330
1F
100
AcDbEntity
  8
AM_0
  6
Continuous
 48
0.5
370
    30
100
AcDbLine
 10
50.063840866088
 20
-78.24065091148842
 30
0.0
 11
50.695194244384
 21
-78.1519172383924
 31
0.0
  0
LINE
  5
177D
330
1F
100
AcDbEntity
  8
AM_0
  6
Continuous
 48
0.5
370
    30
100
AcDbLine
 10
52.470132827758
 20
-79.83010556236741
 30
0.0
 11
52.59448814392
 21
-78.73025586143942
 31
0.0
  0
LINE
  5
177E
330
1F
100
AcDbEntity
  8
AM_0
  6
Continuous
 48
0.5
370
    30
100
AcDbLine
 10
51.845075607299
 20
-85.35862042442741
 30
0.0
 11
52.073467254638
 21
-83.3386848165174
 31
0.0
  0
LINE
  5
177F
330
1F
100
AcDbEntity
  8
AM_0
  6
Continuous
 48
0.5
370
    30
100
AcDbLine
 10
51.777462005614
 20
-85.40476300255241
 30
0.0
 11
51.83788299560401
 21
-85.3595931722304
 31
0.0
  0
LINE
  5
1780
330
1F
100
AcDbEntity
  8
AM_0
  6
Continuous
 48
0.5
370
    30
100
AcDbLine
 10
51.643186569213
 20
-85.54246975914441
 30
0.0
 11
51.77714347839201
 21
-85.4050681783344
 31
0.0
  0
LINE
  5
1781
330
1F
100
AcDbEntity
  8
AM_0
  6
Continuous
 48
0.5
370
    30
100
AcDbLine
 10
52.06004333496
 20
-83.46696927086342
 30
0.0
 11
52.440982818602
 21
-79.84217144981841
 31
0.0
  0
LINE
  5
1783
330
1F
100
AcDbEntity
  8
AM_0
  6
Continuous
 48
0.5
370
    30
100
AcDbLine
 10
49.389170646666
 20
-78.33551480308941
 30
0.0
 11
50.063633918761
 21
-78.24072720543342
 31
0.0
  0
LINE
  5
1784
330
1F
100
AcDbEntity
  8
AM_0
  6
Continuous
 48
0.5
370
    30
100
AcDbLine
 10
51.33285331726
 20
-85.75013424889042
 30
0.0
 11
51.643077850341
 21
-85.54250790611741
 31
0.0
  0
LINE
  5
1785
330
1F
100
AcDbEntity
  8
AM_0
  6
Continuous
 48
0.5
370
    30
100
AcDbLine
 10
49.30423259735
 20
-78.34747769371441
 30
0.0
 11
49.234731674193
 21
-77.8522689534804
 31
0.0
  0
LINE
  5
1786
330
1F
100
AcDbEntity
  8
AM_0
  6
Continuous
 48
0.5
370
    30
100
AcDbLine
 10
49.10212707519401
 20
-77.87094952599041
 30
0.0
 11
49.201028823851
 21
-77.8570869161274
 31
0.0
  0
LINE
  5
1788
330
1F
100
AcDbEntity
  8
AM_0
  6
Continuous
 48
0.5
370
    30
100
AcDbLine
 10
49.014288902282
 20
-78.38826062218141
 30
0.0
 11
49.171876907347
 21
-78.36612774864642
 31
0.0
  0
LINE
  5
1789
330
1F
100
AcDbEntity
  8
AM_0
  6
Continuous
 48
0.5
370
    30
100
AcDbLine
 10
50.919452667235
 20
-85.9562461568494
 30
0.0
 11
51.332611083983
 21
-85.75023724571642
 31
0.0
  0
LINE
  5
178A
330
1F
100
AcDbEntity
  8
AM_0
  6
Continuous
 48
0.5
370
    30
100
AcDbLine
 10
48.691638946532
 20
-78.43356396690841
 30
0.0
 11
49.389227867125
 21
-78.33546902672241
 31
0.0
  0
LINE
  5
178B
330
1F
100
AcDbEntity
  8
AM_0
  6
Continuous
 48
0.5
370
    30
100
AcDbLine
 10
50.414980888366
 20
-86.15477444664441
 30
0.0
 11
50.919322967528
 21
-85.95629574791441
 31
0.0
  0
LINE
  5
178C
330
1F
100
AcDbEntity
  8
AM_0
  6
Continuous
 48
0.5
370
    30
100
AcDbLine
 10
49.834340095519
 20
-86.33977200523842
 30
0.0
 11
50.41472339630001
 21
-86.15485074058941
 31
0.0
  0
LINE
  5
178D
330
1F
100
AcDbEntity
  8
AM_0
  6
Continuous
 48
0.5
370
    30
100
AcDbLine
 10
49.771636009215
 20
-86.36038662926141
 30
0.0
 11
49.824588775634
 21
-86.3467185689594
 31
0.0
  0
LINE
  5
178E
330
1F
100
AcDbEntity
  8
AM_0
  6
Continuous
 48
0.5
370
    30
100
AcDbLine
 10
49.734561920165
 20
-86.36562802330441
 30
0.0
 11
49.83428478240801
 21
-86.33974530235741
 31
0.0
  0
LINE
  5
178F
330
1F
100
AcDbEntity
  8
AM_0
  6
Continuous
 48
0.5
370
    30
100
AcDbLine
 10
49.202013015746
 20
-86.4404037191054
 30
0.0
 11
49.734731674193
 21
-86.36557461754342
 31
0.0
  0
LINE
  5
1790
330
1F
100
AcDbEntity
  8
AM_0
  6
Continuous
 48
0.5
370
    30
100
AcDbLine
 10
48.527688026427
 20
-86.53519894615641
 30
0.0
 11
49.20214843749901
 21
-86.44039608971141
 31
0.0
  0
LINE
  5
1791
330
1F
100
AcDbEntity
  8
AM_0
  6
Continuous
 48
0.5
370
    30
100
AcDbLine
 10
48.232439994811
 20
-86.57667996422241
 30
0.0
 11
48.527646064757
 21
-86.53516079918342
 31
0.0
  0
LINE
  5
1792
330
1F
100
AcDbEntity
  8
AM_0
  6
Continuous
 48
0.5
370
    30
100
AcDbLine
 10
45.74164772033601
 20
-78.34319378868541
 30
0.0
 11
48.944729804992
 21
-77.89304806725042
 31
0.0
  0
LINE
  5
1793
330
1F
100
AcDbEntity
  8
AM_0
  6
Continuous
 48
0.5
370
    30
100
AcDbLine
 10
45.852972984313
 20
-78.83248593346141
 30
0.0
 11
45.741597175597
 21
-78.3432471944474
 31
0.0
  0
LINE
  5
1794
330
1F
100
AcDbEntity
  8
AM_0
  6
Continuous
 48
0.5
370
    30
100
AcDbLine
 10
45.852980613707
 20
-78.83243634239642
 30
0.0
 11
48.691668510436
 21
-78.43353344933041
 31
0.0
  0
LINE
  5
1795
330
1F
100
AcDbEntity
  8
AM_0
  6
Continuous
 48
0.5
370
    30
100
AcDbLine
 10
44.5958671569817
 20
-78.50426938072641
 30
0.0
 11
45.741662979125
 21
-78.34322049156641
 31
0.0
  0
LINE
  5
1796
330
1F
100
AcDbEntity
  8
AM_0
  6
Continuous
 48
0.5
370
    30
100
AcDbLine
 10
43.7034635543816
 20
-78.62973858849041
 30
0.0
 11
44.5959177017205
 21
-78.50427701012141
 31
0.0
  0
LINE
  5
1797
330
1F
100
AcDbEntity
  8
AM_0
  6
Continuous
 48
0.5
370
    30
100
AcDbLine
 10
43.5011425018303
 20
-78.10490490929141
 30
0.0
 11
61.52124023437401
 21
-73.27643658653742
 31
0.0
  0
LINE
  5
1798
330
1F
100
AcDbEntity
  8
AM_0
  6
Continuous
 48
0.5
370
    30
100
AcDbLine
 10
43.2059116363518
 20
-78.61628033653742
 30
0.0
 11
43.50114440917901
 21
-78.1049010945934
 31
0.0
  0
LINE
  5
1799
330
1F
100
AcDbEntity
  8
AM_0
  6
Continuous
 48
0.5
370
    30
100
AcDbLine
 10
45.015763282775
 20
-87.02873684898842
 30
0.0
 11
44.59593486785821
 21
-78.50424649254342
 31
0.0
  0
LINE
  5
179A
330
1F
100
AcDbEntity
  8
AM_0
  6
Continuous
 48
0.5
370
    30
100
AcDbLine
 10
45.015803337096
 20
-87.02871396080441
 30
0.0
 11
48.232531547545
 21
-86.57666089073641
 31
0.0
  0
LINE
  5
179B
330
1F
100
AcDbEntity
  8
AM_0
  6
Continuous
 48
0.5
370
    30
100
AcDbLine
 10
44.88641071319501
 20
-87.04694821373441
 30
0.0
 11
43.7034492492669
 21
-78.62971570030641
 31
0.0
  0
LINE
  5
179C
330
1F
100
AcDbEntity
  8
AM_0
  6
Continuous
 48
0.5
370
    30
100
AcDbLine
 10
44.886484146117
 20
-87.0469138814594
 30
0.0
 11
45.015810012816
 21
-87.02872159019941
 31
0.0
  0
LINE
  5
179D
330
1F
100
AcDbEntity
  8
AM_0
  6
Continuous
 48
0.5
370
    30
100
AcDbLine
 10
43.1536369323723
 20
-78.7070052816054
 30
0.0
 11
43.2058076858513
 21
-78.6164672567034
 31
0.0
  0
LINE
  5
179E
330
1F
100
AcDbEntity
  8
AM_0
  6
Continuous
 48
0.5
370
    30
100
AcDbLine
 10
38.1722023487084
 20
-67.62711598412041
 30
0.0
 11
62.408288955687
 21
-61.13307549492341
 31
0.0
  0
LINE
  5
179F
330
1F
100
AcDbEntity
  8
AM_0
  6
Continuous
 48
0.5
370
    30
100
AcDbLine
 10
-95.87862396239399
 20
33.20000002845259
 30
0.0
 11
-95.87862396239399
 21
26.20135498046901
 31
0.0
  0
LINE
  5
17A0
330
1F
100
AcDbEntity
  8
AM_0
  6
Continuous
 48
0.5
370
    30
100
AcDbLine
 10
26.9133696556084
 20
-89.3354232503554
 30
0.0
 11
27.4535975456231
 21
-89.38726117149841
 31
0.0
  0
LINE
  5
17A1
330
1F
100
AcDbEntity
  8
AM_0
  6
Continuous
 48
0.5
370
    30
100
AcDbLine
 10
27.0908565521233
 20
-89.36352612511141
 30
0.0
 11
27.7440361976616
 21
-89.40071942345142
 31
0.0
  0
LINE
  5
17A2
330
1F
100
AcDbEntity
  8
AM_0
  6
Continuous
 48
0.5
370
    30
100
AcDbLine
 10
27.4535670280449
 20
-89.3872688008924
 30
0.0
 11
28.0631113052361
 21
-89.4050033284804
 31
0.0
  0
LINE
  5
17A3
330
1F
100
AcDbEntity
  8
AM_0
  6
Continuous
 48
0.5
370
    30
100
AcDbLine
 10
25.6012153625481
 20
-81.67870785728941
 30
0.0
 11
26.2761659622185
 21
-81.58388592735741
 31
0.0
  0
LINE
  5
17A4
330
1F
100
AcDbEntity
  8
AM_0
  6
Continuous
 48
0.5
370
    30
100
AcDbLine
 10
24.9693822860711
 20
-81.7674873067524
 30
0.0
 11
25.6012401580803
 21
-81.67873074547241
 31
0.0
  0
LINE
  5
17A5
330
1F
100
AcDbEntity
  8
AM_0
  6
Continuous
 48
0.5
370
    30
100
AcDbLine
 10
22.977564811706
 20
-82.04743268028742
 30
0.0
 11
23.0379114151
 21
-82.03892209068741
 31
0.0
  0
LINE
  5
17A6
330
1F
100
AcDbEntity
  8
AM_0
  6
Continuous
 48
0.5
370
    30
100
AcDbLine
 10
28.0631179809563
 20
-89.40498806969141
 30
0.0
 11
28.1177115440361
 21
-89.40361096397841
 31
0.0
  0
LINE
  5
17A7
330
1F
100
AcDbEntity
  8
AM_0
  6
Continuous
 48
0.5
370
    30
100
AcDbLine
 10
28.1177554130547
 20
-89.40361096397841
 30
0.0
 11
28.6973080635064
 21
-89.32214047447641
 31
0.0
  0
LINE
  5
17A8
330
1F
100
AcDbEntity
  8
AM_0
  6
Continuous
 48
0.5
370
    30
100
AcDbLine
 10
26.2761726379387
 20
-81.58390881554141
 30
0.0
 11
26.9742503166192
 21
-81.48577954308041
 31
0.0
  0
LINE
  5
17A9
330
1F
100
AcDbEntity
  8
AM_0
  6
Continuous
 48
0.5
370
    30
100
AcDbLine
 10
26.3585033416741
 20
-81.57230069176141
 30
0.0
 11
26.3922061920159
 21
-81.56750561729841
 31
0.0
  0
LINE
  5
17AA
330
1F
100
AcDbEntity
  8
AM_0
  6
Continuous
 48
0.5
370
    30
100
AcDbLine
 10
28.2520332336419
 20
-89.38470532433041
 30
0.0
 11
28.4868278503411
 21
-89.37738110558041
 31
0.0
  0
LINE
  5
17AB
330
1F
100
AcDbEntity
  8
AM_0
  6
Continuous
 48
0.5
370
    30
100
AcDbLine
 10
26.3585224151604
 20
-81.5722511006974
 30
0.0
 11
26.2889814376824
 21
-81.07708050743541
 31
0.0
  0
LINE
  5
17AC
330
1F
100
AcDbEntity
  8
AM_0
  6
Continuous
 48
0.5
370
    30
100
AcDbLine
 10
28.4867992401116
 20
-89.37739254967241
 30
0.0
 11
29.2686467170708
 21
-89.29512478844141
 31
0.0
  0
LINE
  5
17AD
330
1F
100
AcDbEntity
  8
AM_0
  6
Continuous
 48
0.5
370
    30
100
AcDbLine
 10
26.2889738082879
 20
-81.07709958092241
 30
0.0
 11
26.3227062225335
 21
-81.07240368858841
 31
0.0
  0
LINE
  5
17AE
330
1F
100
AcDbEntity
  8
AM_0
  6
Continuous
 48
0.5
370
    30
100
AcDbLine
 10
26.3226909637444
 20
-81.07241131798241
 30
0.0
 11
26.4215478897088
 21
-81.05844952599041
 31
0.0
  0
LINE
  5
17AF
330
1F
100
AcDbEntity
  8
AM_0
  6
Continuous
 48
0.5
370
    30
100
AcDbLine
 10
26.3922967910759
 20
-81.56741024986741
 30
0.0
 11
26.4912729263298
 21
-81.5535285665174
 31
0.0
  0
LINE
  5
17B0
330
1F
100
AcDbEntity
  8
AM_0
  6
Continuous
 48
0.5
370
    30
100
AcDbLine
 10
26.4911937713616
 20
-81.55360486046341
 30
0.0
 11
26.6485261917107
 21
-81.53152157799241
 31
0.0
  0
LINE
  5
17B1
330
1F
100
AcDbEntity
  8
AM_0
  6
Continuous
 48
0.5
370
    30
100
AcDbLine
 10
28.6972832679741
 20
-89.32214047447641
 30
0.0
 11
29.3722348213189
 21
-89.22731854454541
 31
0.0
  0
LINE
  5
17B2
330
1F
100
AcDbEntity
  8
AM_0
  6
Continuous
 48
0.5
370
    30
100
AcDbLine
 10
26.6485614776604
 20
-81.53149487511141
 30
0.0
 11
29.8099713325493
 21
-81.08712842003341
 31
0.0
  0
LINE
  5
17B4
330
1F
100
AcDbEntity
  8
AM_0
  6
Continuous
 48
0.5
370
    30
100
AcDbLine
 10
26.5789966583245
 20
-81.03636624351941
 30
0.0
 11
29.7822103500359
 21
-80.5861671163224
 31
0.0
  0
LINE
  5
17B5
330
1F
100
AcDbEntity
  8
AM_0
  6
Continuous
 48
0.5
370
    30
100
AcDbLine
 10
26.4215478897088
 20
-81.05847241417341
 30
0.0
 11
26.5789871215813
 21
-81.03637768761141
 31
0.0
  0
LINE
  5
17B6
330
1F
100
AcDbEntity
  8
AM_0
  6
Continuous
 48
0.5
370
    30
100
AcDbLine
 10
26.9743533134453
 20
-81.48569561974041
 30
0.0
 11
29.8100147247307
 21
-81.08709790245541
 31
0.0
  0
LINE
  5
17B7
330
1F
100
AcDbEntity
  8
AM_0
  6
Continuous
 48
0.5
370
    30
100
AcDbLine
 10
-95.87862396239399
 20
29.547416687012
 30
0.0
 11
-84.378631591794
 21
29.547416687012
 31
0.0
  0
LINE
  5
17B8
330
1F
100
AcDbEntity
  8
AM_0
  6
Continuous
 48
0.5
370
    30
100
AcDbLine
 10
29.2686781883233
 20
-89.2951514913224
 30
0.0
 11
45.250773429869
 21
-87.04912640587341
 31
0.0
  0
LINE
  5
17B9
330
1F
100
AcDbEntity
  8
AM_0
  6
Continuous
 48
0.5
370
    30
100
AcDbLine
 10
29.372337818145
 20
-89.22719265953541
 30
0.0
 11
29.4877505302422
 21
-89.2109763814594
 31
0.0
  0
LINE
  5
17BA
330
1F
100
AcDbEntity
  8
AM_0
  6
Continuous
 48
0.5
370
    30
100
AcDbLine
 10
29.4876942634575
 20
-89.21110989586342
 30
0.0
 11
32.873917937278
 21
-88.73526837364642
 31
0.0
  0
LINE
  5
17BB
330
1F
100
AcDbEntity
  8
AM_0
  6
Continuous
 48
0.5
370
    30
100
AcDbLine
 10
29.7823114395134
 20
-80.58604886070741
 30
0.0
 11
30.9278864860527
 21
-80.42507626549241
 31
0.0
  0
LINE
  5
17BC
330
1F
100
AcDbEntity
  8
AM_0
  6
Continuous
 48
0.5
370
    30
100
AcDbLine
 10
32.8739130496972
 20
-88.73521878258241
 30
0.0
 11
33.0032989978783
 21
-88.71701123253341
 31
0.0
  0
LINE
  5
17BD
330
1F
100
AcDbEntity
  8
AM_0
  6
Continuous
 48
0.5
370
    30
100
AcDbLine
 10
32.8739142417901
 20
-88.73524167076542
 30
0.0
 11
30.92779970169
 21
-80.42519833580441
 31
0.0
  0
LINE
  5
17BE
330
1F
100
AcDbEntity
  8
AM_0
  6
Continuous
 48
0.5
370
    30
100
AcDbLine
 10
29.8099718093865
 20
-81.08713986412542
 30
0.0
 11
29.7822494506829
 21
-80.58615185753341
 31
0.0
  0
LINE
  5
17BF
330
1F
100
AcDbEntity
  8
AM_0
  6
Continuous
 48
0.5
370
    30
100
AcDbLine
 10
33.0033230781548
 20
-88.7170150472304
 30
0.0
 11
44.886415481566
 21
-87.04694058433941
 31
0.0
  0
LINE
  5
17C0
330
1F
100
AcDbEntity
  8
AM_0
  6
Continuous
 48
0.5
370
    30
100
AcDbLine
 10
43.15357780456471
 20
-78.70691372887141
 30
0.0
 11
44.693480491637
 21
-78.49047925011141
 31
0.0
  0
LINE
  5
17C1
330
1F
100
AcDbEntity
  8
AM_0
  6
Continuous
 48
0.5
370
    30
100
AcDbLine
 10
30.927787780761
 20
-80.42519452110741
 30
0.0
 11
31.8203291892998
 21
-80.29980542198641
 31
0.0
  0
LINE
  5
17C2
330
1F
100
AcDbEntity
  8
AM_0
  6
Continuous
 48
0.5
370
    30
100
AcDbLine
 10
31.8203437328331
 20
-80.29977108971141
 30
0.0
 11
43.7034358978264
 21
-78.62969281212341
 31
0.0
  0
LINE
  5
17C3
330
1F
100
AcDbEntity
  8
AM_0
  6
Continuous
 48
0.5
370
    30
100
AcDbLine
 10
32.3152303695672
 20
-80.1876914693494
 30
0.0
 11
32.3355782032006
 21
-80.14411236778742
 31
0.0
  0
LINE
  5
17C4
330
1F
100
AcDbEntity
  8
AM_0
  6
Continuous
 48
0.5
370
    30
100
AcDbLine
 10
33.0033308267586
 20
-88.7170150472304
 30
0.0
 11
31.8203697204583
 21
-80.29978253380241
 31
0.0
  0
LINE
  5
17C5
330
1F
100
AcDbEntity
  8
AM_0
  6
Continuous
 48
0.5
370
    30
100
AcDbLine
 10
32.3262758254998
 20
-80.22862698570741
 30
0.0
 11
32.3152770996087
 21
-80.18758084312941
 31
0.0
  0
LINE
  5
17C6
330
1F
100
AcDbEntity
  8
AM_0
  6
Continuous
 48
0.5
370
    30
100
AcDbLine
 10
32.3356842994683
 20
-80.14387204185941
 30
0.0
 11
34.6971337813877
 21
-79.81197812096141
 31
0.0
  0
LINE
  5
17C7
330
1F
100
AcDbEntity
  8
AM_0
  6
Continuous
 48
0.5
370
    30
100
AcDbLine
 10
34.6971784606569
 20
-79.81199337975042
 30
0.0
 11
43.2060003280632
 21
-78.6161964131974
 31
0.0
  0
LINE
  5
17C9
330
1F
100
AcDbEntity
  8
AM_0
  6
Continuous
 48
0.5
370
    30
100
AcDbLine
 10
37.6502046585076
 20
-68.80228116051141
 30
0.0
 11
38.1721048355095
 21
-67.62733342186441
 31
0.0
  0
LINE
  5
17CA
330
1F
100
AcDbEntity
  8
AM_0
  6
Continuous
 48
0.5
370
    30
100
AcDbLine
 10
32.3356463909142
 20
-80.14395596519941
 30
0.0
 11
37.6501049995415
 21
-68.80245282188841
 31
0.0
  0
LINE
  5
17CB
330
1F
100
AcDbEntity
  8
AM_0
  6
Continuous
 48
0.5
370
    30
100
AcDbLine
 10
23.285858154297
 20
-82.80867077843141
 30
0.0
 11
22.97753238678
 21
-82.04744030968141
 31
0.0
  0
LINE
  5
17CC
330
1F
100
AcDbEntity
  8
AM_0
  6
Continuous
 48
0.5
370
    30
100
AcDbLine
 10
25.8507919311516
 20
-89.01195218101941
 30
0.0
 11
23.28586769104
 21
-82.8086440755504
 31
0.0
  0
LINE
  5
17CD
330
1F
100
AcDbEntity
  8
AM_0
  6
Continuous
 48
0.5
370
    30
100
AcDbLine
 10
23.21719455719
 20
-82.01376797691842
 30
0.0
 11
23.5102186203
 21
-81.97262646690841
 31
0.0
  0
LINE
  5
17CE
330
1F
100
AcDbEntity
  8
AM_0
  6
Continuous
 48
0.5
370
    30
100
AcDbLine
 10
23.510274887085
 20
-81.97258831993541
 30
0.0
 11
24.399496078491
 21
-81.84761120811942
 31
0.0
  0
LINE
  5
17CF
330
1F
100
AcDbEntity
  8
AM_0
  6
Continuous
 48
0.5
370
    30
100
AcDbLine
 10
25.8583259582512
 20
-89.0108306600234
 30
0.0
 11
25.9289369583123
 21
-89.03756024376341
 31
0.0
  0
LINE
  5
17D0
330
1F
100
AcDbEntity
  8
AM_0
  6
Continuous
 48
0.5
370
    30
100
AcDbLine
 10
23.037939071655
 20
-82.0388801290174
 30
0.0
 11
23.217211723327
 21
-82.01371838585341
 31
0.0
  0
LINE
  5
17D1
330
1F
100
AcDbEntity
  8
AM_0
  6
Continuous
 48
0.5
370
    30
100
AcDbLine
 10
25.8607778549187
 20
-89.01057126060941
 30
0.0
 11
25.928894042968
 21
-89.03765179649841
 31
0.0
  0
LINE
  5
17D2
330
1F
100
AcDbEntity
  8
AM_0
  6
Continuous
 48
0.5
370
    30
100
AcDbLine
 10
26.1025953292839
 20
-89.13705517784541
 30
0.0
 11
26.4585065841668
 21
-89.25133969322641
 31
0.0
  0
LINE
  5
17D3
330
1F
100
AcDbEntity
  8
AM_0
  6
Continuous
 48
0.5
370
    30
100
AcDbLine
 10
30.6089515686028
 20
-105.8883483602184
 30
0.0
 11
26.1225566864006
 21
-89.14336468712341
 31
0.0
  0
LINE
  5
17D4
330
1F
100
AcDbEntity
  8
AM_0
  6
Continuous
 48
0.5
370
    30
100
AcDbLine
 10
24.399496078491
 20
-81.84761120811942
 30
0.0
 11
24.9693603515618
 21
-81.76748349205441
 31
0.0
  0
LINE
  5
17D5
330
1F
100
AcDbEntity
  8
AM_0
  6
Continuous
 48
0.5
370
    30
100
AcDbLine
 10
26.4585504531853
 20
-89.2511413289684
 30
0.0
 11
26.9133362770073
 21
-89.33539273277741
 31
0.0
  0
LINE
  5
17D6
330
1F
100
AcDbEntity
  8
AM_0
  6
Continuous
 48
0.5
370
    30
100
AcDbLine
 10
25.9287805557244
 20
-89.03778149620541
 30
0.0
 11
26.1025829315178
 21
-89.13698269859741
 31
0.0
  0
LINE
  5
17D7
330
1F
100
AcDbEntity
  8
AM_0
  6
Continuous
 48
0.5
370
    30
100
AcDbLine
 10
26.9142131805413
 20
-89.33109738365641
 30
0.0
 11
27.0908970832818
 21
-89.36347653404741
 31
0.0
  0
LINE
  5
17D8
330
1F
100
AcDbEntity
  8
AM_0
  6
Continuous
370
    30
100
AcDbLine
 10
65.96263885497901
 20
-70.53345181480842
 30
0.0
 11
116.368354797362
 21
-57.02728154198141
 31
0.0
  0
LINE
  5
17D9
330
1F
100
AcDbEntity
  8
AM_0
  6
Continuous
 48
0.5
370
    30
100
AcDbLine
 10
149.999984741206
 20
33.20000002845259
 30
0.0
 11
149.999984741206
 21
8.200007657846591
 31
0.0
  0
LINE
  5
17DA
330
1F
100
AcDbEntity
  8
AM_0
  6
Continuous
370
    30
100
AcDbLine
 10
31.26574404954614
 20
8.200007657846591
 30
0.0
 11
149.999984741206
 21
8.200007657846591
 31
0.0
  0
LINE
  5
17DB
330
1F
100
AcDbEntity
  8
AM_0
  6
Continuous
 48
0.5
370
    30
100
AcDbLine
 10
61.52124023437401
 20
-73.27643658653742
 30
0.0
 11
61.780057907103
 21
-74.24236180321242
 31
0.0
  0
LINE
  5
17DC
330
1F
100
AcDbEntity
  8
AM_0
  6
Continuous
 48
0.5
370
    30
100
AcDbLine
 10
72.218074798583
 20
-75.06897046104841
 30
0.0
 11
71.312206268309
 21
-71.68822934166441
 31
0.0
  0
LINE
  5
17DE
330
1F
100
AcDbEntity
  8
AM_0
  6
Continuous
 48
0.5
370
    30
100
AcDbLine
 10
63.633266448973
 20
-61.84011914268941
 30
0.0
 11
66.609685897826
 21
-72.94826771751841
 31
0.0
  0
LINE
  5
17E1
330
1F
100
AcDbEntity
  8
AM_0
  6
Continuous
 48
0.5
370
    30
100
AcDbLine
 10
71.34192657470601
 20
-71.79914738670841
 30
0.0
 11
70.66516113281099
 21
-69.27341534630241
 31
0.0
  0
LINE
  5
17E2
330
1F
100
AcDbEntity
  8
AM_0
  6
Continuous
 48
0.5
370
    30
100
AcDbLine
 10
52.384096145629
 20
-80.38346936241641
 30
0.0
 11
72.218074798583
 21
-75.06897046104841
 31
0.0
  0
LINE
  5
17E3
330
1F
100
AcDbEntity
  8
AM_0
  6
Continuous
 48
0.5
370
    30
100
AcDbLine
 10
49.734807968138
 20
-86.36555172935941
 30
0.0
 11
49.771805763243
 21
-86.3602988912244
 31
0.0
  0
LINE
  5
17EA
330
1F
100
AcDbEntity
  8
AM_0
  6
Continuous
 48
0.5
370
    30
100
AcDbLine
 10
49.824700355529
 20
-86.34668423668342
 30
0.0
 11
50.405528068541
 21
-86.16154934898842
 31
0.0
  0
LINE
  5
17EC
330
1F
100
AcDbEntity
  8
AM_0
  6
Continuous
 48
0.5
370
    30
100
AcDbLine
 10
50.405644416808
 20
-86.1615417195934
 30
0.0
 11
50.910455703734
 21
-85.96292187706442
 31
0.0
  0
LINE
  5
17F1
330
1F
100
AcDbEntity
  8
AM_0
  6
Continuous
 48
0.5
370
    30
100
AcDbLine
 10
50.910470962523
 20
-85.96291806236741
 30
0.0
 11
51.324527740477
 21
-85.75652386681041
 31
0.0
  0
LINE
  5
17F2
330
1F
100
AcDbEntity
  8
AM_0
  6
Continuous
 48
0.5
370
    30
100
AcDbLine
 10
49.27073574066
 20
-78.3521659566544
 30
0.0
 11
49.304366111754
 21
-78.34751584068741
 31
0.0
  0
LINE
  5
17F3
330
1F
100
AcDbEntity
  8
AM_0
  6
Continuous
 48
0.5
370
    30
100
AcDbLine
 10
48.944786071776
 20
-77.89305951134142
 30
0.0
 11
49.10213279724
 21
-77.87097241417341
 31
0.0
  0
LINE
  5
17F6
330
1F
100
AcDbEntity
  8
AM_0
  6
Continuous
 48
0.5
370
    30
100
AcDbLine
 10
49.234787940978
 20
-77.85227658287542
 30
0.0
 11
49.200936317443
 21
-77.85710980431041
 31
0.0
  0
LINE
  5
17F7
330
1F
100
AcDbEntity
  8
AM_0
  6
Continuous
 48
0.5
370
    30
100
AcDbLine
 10
51.324741363524
 20
-85.75641324058941
 30
0.0
 11
51.63515472412
 21
-85.5486343099254
 31
0.0
  0
LINE
  5
17F9
330
1F
100
AcDbEntity
  8
AM_0
  6
Continuous
 48
0.5
370
    30
100
AcDbLine
 10
47.025127410888
 20
-87.8987968160294
 30
0.0
 11
48.519778251647
 21
-88.06770779625441
 31
0.0
  0
LINE
  5
17FA
330
1F
100
AcDbEntity
  8
AM_0
  6
Continuous
 48
0.5
370
    30
100
AcDbLine
 10
54.363964080809
 20
-75.19422223106841
 30
0.0
 11
54.545135498046
 21
-75.87036778465742
 31
0.0
  0
LINE
  5
17FD
330
1F
100
AcDbEntity
  8
AM_0
  6
Continuous
 48
0.5
370
    30
100
AcDbLine
 10
42.9302024841301
 20
11.325416564941
 30
0.0
 11
43.2837181091301
 21
11.937725067139
 31
0.0
  0
LINE
  5
17FE
330
1F
100
AcDbEntity
  8
AM_0
  6
Continuous
 48
0.5
370
    30
100
AcDbLine
 10
-83.378631591794
 20
32.84644132452537
 30
0.0
 11
-83.378631591794
 21
5.816299438476001
 31
0.0
  0
LINE
  5
17FF
330
1F
100
AcDbEntity
  8
AM_0
  6
Continuous
 48
0.5
370
    30
100
AcDbLine
 10
43.2837076187127
 20
11.937660217285
 30
0.0
 11
43.6372232437127
 21
12.549964904785
 31
0.0
  0
LINE
  5
1800
330
1F
100
AcDbEntity
  8
AM_0
  6
Continuous
 48
0.5
370
    30
100
AcDbLine
 10
38.3315911293023
 20
32.35173797607399
 30
0.0
 11
43.6373834609978
 21
12.550254821777
 31
0.0
  0
LINE
  5
1803
330
1F
100
AcDbEntity
  8
AM_0
  6
Continuous
 48
0.5
370
    30
100
AcDbLine
 10
8.588394165039002
 20
2.330696105957003
 30
0.0
 11
7.139013290405
 21
7.739856719971002
 31
0.0
  0
LINE
  5
1805
330
1F
100
AcDbEntity
  8
AM_7
  6
CENTER
 48
0.5
370
    13
100
AcDbLine
 10
5.280115127563001
 20
-0.7774543762210016
 30
0.0
 11
2.77379989624
 21
8.576240539551002
 31
0.0
  0
LINE
  5
1806
330
1F
100
AcDbEntity
  8
AM_0
  6
Continuous
 48
0.5
370
    30
100
AcDbLine
 10
5.035280227661001
 20
0.1363029479980042
 30
0.0
 11
9.003530502319002
 21
1.349517822266002
 31
0.0
  0
LINE
  5
1807
330
1F
100
AcDbEntity
  8
AM_0
  6
Continuous
 48
0.5
370
    30
100
AcDbLine
 10
3.300024032593001
 20
7.938285827637003
 30
0.0
 11
7.005756378174002
 21
8.79381942749
 31
0.0
  0
LINE
  5
1808
330
1F
100
AcDbEntity
  8
AM_0
  6
Continuous
 48
0.5
370
    30
100
AcDbLine
 10
4.353761672973
 20
2.842880249023999
 30
0.0
 11
6.251634597778001
 21
3.423114776611001
 31
0.0
  0
LINE
  5
1809
330
1F
100
AcDbEntity
  8
AM_0
  6
Continuous
 48
0.5
370
    30
100
AcDbLine
 10
37.106848239898
 20
33.05884552002001
 30
0.0
 11
38.3315942287438
 21
32.35173797607399
 31
0.0
  0
LINE
  5
180A
330
1F
100
AcDbEntity
  8
AM_0
  6
Continuous
 48
0.5
370
    30
100
AcDbLine
 10
3.727807998657003
 20
5.1789894104
 30
0.0
 11
5.661531448364002
 21
5.625423431397003
 31
0.0
  0
LINE
  5
180E
330
1F
100
AcDbEntity
  8
AM_0
  6
Continuous
 48
0.5
370
    30
100
AcDbLine
 10
48.984650611876
 20
11.912498474121
 30
0.0
 11
49.97940972144846
 21
8.200007657846591
 31
0.0
  0
LINE
  5
180F
330
1F
100
AcDbEntity
  8
AM_0
  6
Continuous
 48
0.5
370
    30
100
AcDbLine
 10
30.016025066375
 20
18.735549926758
 30
0.0
 11
30.7631490230553
 21
21.52391052246099
 31
0.0
  0
LINE
  5
1810
330
1F
100
AcDbEntity
  8
AM_0
  6
Continuous
 48
0.5
370
    30
100
AcDbLine
 10
30.7630321979516
 20
21.52384185791001
 30
0.0
 11
28.7218132019036
 21
23.56508636474601
 31
0.0
  0
LINE
  5
1811
330
1F
100
AcDbEntity
  8
AM_0
  6
Continuous
 48
0.5
370
    30
100
AcDbLine
 10
38.8492293357842
 20
30.41989135742199
 30
0.0
 11
39.8151550292962
 21
30.6787109375
 31
0.0
  0
LINE
  5
1812
330
1F
100
AcDbEntity
  8
AM_0
  6
Continuous
 48
0.5
370
    30
100
AcDbLine
 10
43.11974525451591
 20
14.482105255127
 30
0.0
 11
44.085671424865
 21
14.740924835205
 31
0.0
  0
LINE
  5
1814
330
1F
100
AcDbEntity
  8
AM_0
  6
Continuous
 48
0.5
370
    30
100
AcDbLine
 10
28.3207850456231
 20
7.319499969483005
 30
0.0
 11
28.3846564292901
 21
7.427803039551002
 31
0.0
  0
LINE
  5
1815
330
1F
100
AcDbEntity
  8
AM_0
  6
Continuous
 48
0.5
370
    30
100
AcDbLine
 10
27.2276244163506
 20
17.988399505615
 30
0.0
 11
30.0159807205193
 21
18.735534667969
 31
0.0
  0
LINE
  5
1816
330
1F
100
AcDbEntity
  8
AM_0
  6
Continuous
 48
0.5
370
    30
100
AcDbLine
 10
25.9332923889153
 20
22.81797027587899
 30
0.0
 11
28.7218847274773
 21
23.56517028808599
 31
0.0
  0
LINE
  5
1817
330
1F
100
AcDbEntity
  8
AM_0
  6
Continuous
 48
0.5
370
    30
100
AcDbLine
 10
27.8705854415886
 20
6.793937683106002
 30
0.0
 11
28.3206877708428
 21
7.319416046143005
 31
0.0
  0
LINE
  5
1818
330
1F
100
AcDbEntity
  8
AM_0
  6
Continuous
 48
0.5
370
    30
100
AcDbLine
 10
27.3339371681206
 20
6.351943969727003
 30
0.0
 11
27.870435714721
 21
6.79386138916
 31
0.0
  0
LINE
  5
1819
330
1F
100
AcDbEntity
  8
AM_0
  6
Continuous
 48
0.5
370
    30
100
AcDbLine
 10
25.1861495971672
 20
20.02946472168
 30
0.0
 11
25.9332742691033
 21
22.81782531738301
 31
0.0
  0
LINE
  5
181A
330
1F
100
AcDbEntity
  8
AM_0
  6
Continuous
 48
0.5
370
    30
100
AcDbLine
 10
27.2275385856621
 20
17.988288879395
 30
0.0
 11
25.1860837936394
 21
20.02946472168
 31
0.0
  0
LINE
  5
181B
330
1F
100
AcDbEntity
  8
AM_0
  6
Continuous
 48
0.5
370
    30
100
AcDbLine
 10
26.7264747619622
 20
6.006755828858005
 30
0.0
 11
27.3337492942803
 21
6.351863861083999
 31
0.0
  0
LINE
  5
181C
330
1F
100
AcDbEntity
  8
AM_0
  6
Continuous
 48
0.5
370
    30
100
AcDbLine
 10
26.0663213729851
 20
5.768394470215
 30
0.0
 11
26.7262678146355
 21
6.006717681885
 31
0.0
  0
LINE
  5
181D
330
1F
100
AcDbEntity
  8
AM_0
  6
Continuous
 48
0.5
370
    30
100
AcDbLine
 10
23.321947097778
 20
5.093421936035
 30
0.0
 11
23.98291015625
 21
6.248489379883004
 31
0.0
  0
LINE
  5
181E
330
1F
100
AcDbEntity
  8
AM_0
  6
Continuous
 48
0.5
370
    30
100
AcDbLine
 10
23.349909782409
 20
5.14249420166
 30
0.0
 11
26.06660747528
 21
5.768558502197003
 31
0.0
  0
LINE
  5
181F
330
1F
100
AcDbEntity
  8
AM_0
  6
Continuous
 48
0.5
370
    30
100
AcDbLine
 10
22.202117919922
 20
4.835414886475
 30
0.0
 11
23.321972846985
 21
5.093460083008004
 31
0.0
  0
LINE
  5
1820
330
1F
100
AcDbEntity
  8
AM_0
  6
Continuous
 48
0.5
370
    30
100
AcDbLine
 10
22.202051162719
 20
4.83536529541
 30
0.0
 11
21.104782104492
 21
5.474342346191001
 31
0.0
  0
LINE
  5
1821
330
1F
100
AcDbEntity
  8
AM_0
  6
Continuous
 48
0.5
370
    30
100
AcDbLine
 10
23.931163787842
 20
29.528434753418
 30
0.0
 11
37.1068463325493
 21
33.05884552002001
 31
0.0
  0
LINE
  5
1822
330
1F
100
AcDbEntity
  8
AM_0
  6
Continuous
 48
0.5
370
    30
100
AcDbLine
 10
20.263289451599
 20
5.113780975342003
 30
0.0
 11
22.20209980011
 21
4.835391998291001
 31
0.0
  0
LINE
  5
1823
330
1F
100
AcDbEntity
  8
AM_0
  6
Continuous
 48
0.5
370
    30
100
AcDbLine
 10
20.263160705566
 20
5.113597869873004
 30
0.0
 11
20.10410118103
 21
5.206081390381002
 31
0.0
  0
LINE
  5
1824
330
1F
100
AcDbEntity
  8
AM_0
  6
Continuous
 48
0.5
370
    30
100
AcDbLine
 10
24.91495990908368
 20
33.20000002845259
 30
0.0
 11
19.0
 21
11.125068664551
 31
0.0
  0
LINE
  5
1825
330
1F
100
AcDbEntity
  8
AM_0
  6
Continuous
 48
0.5
370
    30
100
AcDbLine
 10
17.140960693359
 20
10.626937866211
 30
0.0
 11
19.0
 21
11.12506767013
 31
0.0
  0
LINE
  5
1827
330
1F
100
AcDbEntity
  8
AM_0
  6
Continuous
 48
0.5
370
    30
100
AcDbLine
 10
21.103944778442
 20
5.477161407471002
 30
0.0
 11
42.93004131317071
 21
11.32544708252
 31
0.0
  0
LINE
  5
1828
330
1F
100
AcDbEntity
  8
AM_0
  6
Continuous
 48
0.5
370
    30
100
AcDbLine
 10
10.118865966797
 20
2.533718109131002
 30
0.0
 11
17.913290023803
 21
4.622226715088004
 31
0.0
  0
LINE
  5
1829
330
1F
100
AcDbEntity
  8
AM_0
  6
Continuous
 48
0.5
370
    30
100
AcDbLine
 10
8.565952301025
 20
8.329273223877003
 30
0.0
 11
17.14094543457
 21
10.626934051514
 31
0.0
  0
LINE
  5
182A
330
1F
100
AcDbEntity
  8
AM_0
  6
Continuous
 48
0.5
370
    30
100
AcDbLine
 10
8.566698074341002
 20
8.208023071288999
 30
0.0
 11
8.565967559814002
 21
8.329357147217003
 31
0.0
  0
LINE
  5
182B
330
1F
100
AcDbEntity
  8
AM_0
  6
Continuous
 48
0.5
370
    30
100
AcDbLine
 10
10.058801651001
 20
2.639259338378999
 30
0.0
 11
8.566686630249002
 21
8.207912445068004
 31
0.0
  0
LINE
  5
182C
330
1F
100
AcDbEntity
  8
AM_0
  6
Continuous
 48
0.5
370
    30
100
AcDbLine
 10
10.118890762329
 20
2.533790588378999
 30
0.0
 11
10.05883026123
 21
2.63932800293
 31
0.0
  0
LINE
  5
182D
330
1F
100
AcDbEntity
  8
AM_0
  6
Continuous
 48
0.5
370
    30
100
AcDbLine
 10
8.84193611145
 20
5.26001739502
 30
0.0
 11
8.82480430603
 21
5.323955535888999
 31
0.0
  0
LINE
  5
182E
330
1F
100
AcDbEntity
  8
AM_0
  6
Continuous
 48
0.5
370
    30
100
AcDbLine
 10
8.047258377075
 20
8.187175750733005
 30
0.0
 11
8.566715240478001
 21
8.326366424561002
 31
0.0
  0
LINE
  5
182F
330
1F
100
AcDbEntity
  8
AM_0
  6
Continuous
 48
0.5
370
    30
100
AcDbLine
 10
9.599981307983001
 20
2.391571044922003
 30
0.0
 11
21.104722976684
 21
5.474258422852003
 31
0.0
  0
LINE
  5
1830
330
1F
100
AcDbEntity
  8
AM_0
  6
Continuous
 48
0.5
370
    30
100
AcDbLine
 10
8.824781417846001
 20
5.324138641358005
 30
0.0
 11
8.793197631836001
 21
5.3825340271
 31
0.0
  0
LINE
  5
1831
330
1F
100
AcDbEntity
  8
AM_0
  6
Continuous
 48
0.5
370
    30
100
AcDbLine
 10
8.793210983276001
 20
5.382373809815
 30
0.0
 11
9.288230895996001
 21
5.515014648438005
 31
0.0
  0
LINE
  5
1832
330
1F
100
AcDbEntity
  8
AM_0
  6
Continuous
 48
0.5
370
    30
100
AcDbLine
 10
8.843908309936001
 20
5.193878173828004
 30
0.0
 11
8.842067718506002
 21
5.260013580322003
 31
0.0
  0
LINE
  5
1833
330
1F
100
AcDbEntity
  8
AM_0
  6
Continuous
 48
0.5
370
    30
100
AcDbLine
 10
8.843782424926001
 20
5.193641662598004
 30
0.0
 11
9.338800430298001
 21
5.326282501221002
 31
0.0
  0
LINE
  5
1834
330
1F
100
AcDbEntity
  8
AM_0
  6
Continuous
 48
0.5
370
    30
100
AcDbLine
 10
9.003526687622003
 20
1.349510192871001
 30
0.0
 11
9.599903106689002
 21
2.391399383545
 31
0.0
  0
LINE
  5
1835
330
1F
100
AcDbEntity
  8
AM_0
  6
Continuous
 48
0.5
370
    30
100
AcDbLine
 10
8.047403335571001
 20
8.187397003173999
 30
0.0
 11
7.005758285522003
 21
8.793827056885
 31
0.0
  0
LINE
  5
1836
330
1F
100
AcDbEntity
  8
AM_0
  6
Continuous
 48
0.5
370
    30
100
AcDbLine
 10
8.793037414551002
 20
5.382266998291001
 30
0.0
 11
7.139978408813001
 21
7.73694229126
 31
0.0
  0
LINE
  5
1837
330
1F
100
AcDbEntity
  8
AM_0
  6
Continuous
 48
0.5
370
    30
100
AcDbLine
 10
7.140140533447003
 20
7.737064361572003
 30
0.0
 11
8.58883857727
 21
8.125240325928004
 31
0.0
  0
LINE
  5
1838
330
1F
100
AcDbEntity
  8
AM_0
  6
Continuous
 48
0.5
370
    30
100
AcDbLine
 10
8.589538574218
 20
2.327850341797003
 30
0.0
 11
8.843790054321001
 21
5.193546295166001
 31
0.0
  0
LINE
  5
1839
330
1F
100
AcDbEntity
  8
AM_0
  6
Continuous
 48
0.5
370
    30
100
AcDbLine
 10
8.589525222778001
 20
2.32788848877
 30
0.0
 11
7.140144348144002
 21
7.737049102783004
 31
0.0
  0
LINE
  5
183A
330
1F
100
AcDbEntity
  8
AM_0
  6
Continuous
 48
0.5
370
    30
100
AcDbLine
 10
8.589525222778001
 20
2.32788848877
 30
0.0
 11
10.038223266601
 21
2.716064453125
 31
0.0
  0
LINE
  5
183B
330
1F
100
AcDbEntity
  8
AM_7
  6
CENTER
 48
0.5
370
    13
100
AcDbLine
 10
26.1231203079216
 20
27.68659210205101
 30
0.0
 11
30.2321743965142
 21
12.351390838623
 31
0.0
  0
LINE
  5
183C
330
1F
100
AcDbEntity
  8
AM_7
  6
CENTER
 48
0.5
370
    13
100
AcDbLine
 10
18.158027648926
 20
18.146354675293
 30
0.0
 11
38.3934762477868
 21
23.56842803955101
 31
0.0
  0
LINE
  5
183D
330
1F
100
AcDbEntity
  8
AM_7
  6
CENTER
 48
0.5
370
    13
100
AcDbLine
 10
-2.154193878173999
 20
2.35099029541
 30
0.0
 11
21.218072891235
 21
8.613571166992003
 31
0.0
  0
LINE
  5
183E
330
1F
100
AcDbEntity
  8
AM_0
  6
Continuous
 48
0.5
370
    30
100
AcDbLine
 10
39.496288776397
 20
28.00502777099601
 30
0.0
 11
40.4622144699089
 21
28.26384735107399
 31
0.0
  0
LINE
  5
183F
330
1F
100
AcDbEntity
  8
AM_0
  6
Continuous
 48
0.5
370
    30
100
AcDbLine
 10
41.5668420791619
 20
20.27761840820301
 30
0.0
 11
42.5327677726738
 21
20.53643798828099
 31
0.0
  0
LINE
  5
1840
330
1F
100
AcDbEntity
  8
AM_0
  6
Continuous
 48
0.5
370
    30
100
AcDbLine
 10
-93.37862396239399
 20
26.759033203125
 30
0.0
 11
-93.37862396239399
 21
23.41291809082
 31
0.0
  0
LINE
  5
1841
330
1F
100
AcDbEntity
  8
AM_0
  6
Continuous
 48
0.5
370
    30
100
AcDbLine
 10
-93.74822235107399
 20
0.0
 30
0.0
 11
-101.776008605954
 21
0.4949035644529971
 31
0.0
  0
LINE
  5
1842
330
1F
100
AcDbEntity
  8
AM_0
  6
Continuous
 48
0.5
370
    30
100
AcDbLine
 10
-100.837913513184
 20
3.184246063231996
 30
0.0
 11
-93.37862396239399
 21
2.947196960448999
 31
0.0
  0
LINE
  5
1843
330
1F
100
AcDbEntity
  8
AM_0
  6
Continuous
 48
0.5
370
    30
100
AcDbLine
 10
-101.562080383294
 20
6.214572906493999
 30
0.0
 11
-100.837928771964
 21
3.184242248535
 31
0.0
  0
LINE
  5
1844
330
1F
100
AcDbEntity
  8
AM_0
  6
Continuous
 48
0.5
370
    30
100
AcDbLine
 10
-100.837928771964
 20
3.184242248535
 30
0.0
 11
-101.562080383294
 21
0.8053932189939985
 31
0.0
  0
LINE
  5
1845
330
1F
100
AcDbEntity
  8
AM_0
  6
Continuous
 48
0.5
370
    30
100
AcDbLine
 10
-101.776008605954
 20
0.4948997497560015
 30
0.0
 11
-101.562080383294
 21
0.8053894042969958
 31
0.0
  0
LINE
  5
1846
330
1F
100
AcDbEntity
  8
AM_0
  6
Continuous
 48
0.5
370
    30
100
AcDbLine
 10
-100.937019348144
 20
3.598934173583999
 30
0.0
 11
-100.937019348144
 21
2.858703613281001
 31
0.0
  0
LINE
  5
1847
330
1F
100
AcDbEntity
  8
AM_0
  6
Continuous
 48
0.5
370
    30
100
AcDbLine
 10
-101.776008605954
 20
6.82148361206
 30
0.0
 11
-93.88103485107399
 21
7.869918823241996
 31
0.0
  0
LINE
  5
1848
330
1F
100
AcDbEntity
  8
AM_0
  6
Continuous
 48
0.5
370
    30
100
AcDbLine
 10
-101.776008605954
 20
6.82148361206
 30
0.0
 11
-101.562080383294
 21
6.214580535887997
 31
0.0
  0
LINE
  5
1849
330
1F
100
AcDbEntity
  8
AM_0
  6
Continuous
 48
0.5
370
    30
100
AcDbLine
 10
-93.74835968017399
 20
8.54972076416
 30
0.0
 11
-93.74835968017399
 21
7.453071594237997
 31
0.0
  0
LINE
  5
184A
330
1F
100
AcDbEntity
  8
AM_0
  6
Continuous
 48
0.5
370
    30
100
AcDbLine
 10
-94.14661407470399
 20
8.525684356688998
 30
0.0
 11
-95.54851531982399
 21
11.480777740478
 31
0.0
  0
LINE
  5
184B
330
1F
100
AcDbEntity
  8
AM_0
  6
Continuous
 48
0.5
370
    30
100
AcDbLine
 10
-95.65746307372399
 20
12.573944091797
 30
0.0
 11
-95.54851531982399
 21
11.480781555176
 31
0.0
  0
LINE
  5
184C
330
1F
100
AcDbEntity
  8
AM_0
  6
Continuous
 48
0.5
370
    30
100
AcDbLine
 10
-96.22566986083399
 20
12.728031158447
 30
0.0
 11
-95.65746307372399
 21
12.573940277099
 31
0.0
  0
LINE
  5
184D
330
1F
100
AcDbEntity
  8
AM_0
  6
Continuous
 48
0.5
370
    30
100
AcDbLine
 10
-96.27050018310399
 20
12.817085266113
 30
0.0
 11
-96.22566986083399
 21
12.728023529053
 31
0.0
  0
LINE
  5
184E
330
1F
100
AcDbEntity
  8
AM_0
  6
Continuous
 48
0.5
370
    30
100
AcDbLine
 10
-95.65746307372399
 20
12.573944091797
 30
0.0
 11
-103.913612365714
 21
12.075645446777
 31
0.0
  0
LINE
  5
184F
330
1F
100
AcDbEntity
  8
AM_0
  6
Continuous
 48
0.5
370
    30
100
AcDbLine
 10
-93.74835968017399
 20
8.549724578856996
 30
0.0
 11
-102.420188903804
 21
8.026336669921996
 31
0.0
  0
LINE
  5
1850
330
1F
100
AcDbEntity
  8
AM_0
  6
Continuous
 48
0.5
370
    30
100
AcDbLine
 10
-95.54851531982399
 20
11.480773925781
 30
0.0
 11
-103.698432922364
 21
10.988887786865
 31
0.0
  0
LINE
  5
1851
330
1F
100
AcDbEntity
  8
AM_0
  6
Continuous
 48
0.5
370
    30
100
AcDbLine
 10
-102.273445129394
 20
7.686206817626996
 30
0.0
 11
-103.913612365714
 21
11.48762512207
 31
0.0
  0
LINE
  5
1852
330
1F
100
AcDbEntity
  8
AM_0
  6
Continuous
 48
0.5
370
    30
100
AcDbLine
 10
-102.273445129394
 20
7.686210632323999
 30
0.0
 11
-101.776008605954
 21
6.82148361206
 31
0.0
  0
LINE
  5
1853
330
1F
100
AcDbEntity
  8
AM_5
  6
Continuous
370
    13
100
AcDbLine
 10
0.136295318603004
 20
2.964725494385
 30
0.0
 11
22.978070259094
 21
-82.28193283081001
 31
0.0
  0
LINE
  5
1854
330
1F
100
AcDbEntity
  8
AM_0
  6
Continuous
 48
0.5
370
    30
100
AcDbLine
 10
-106.378623962394
 20
1.068187713622997
 30
0.0
 11
-101.482078552244
 21
1.068187713622997
 31
0.0
  0
LINE
  5
1855
330
1F
100
AcDbEntity
  8
AM_0
  6
Continuous
 48
0.5
370
    30
100
AcDbLine
 10
-102.768959045404
 20
1.068187713622997
 30
0.0
 11
-101.776008605954
 21
0.4949073791499998
 31
0.0
  0
LINE
  5
1856
330
1F
100
AcDbEntity
  8
AM_0
  6
Continuous
 48
0.5
370
    30
100
AcDbLine
 10
-118.378623962394
 20
3.184112548827997
 30
0.0
 11
-106.378623962394
 21
1.06819152832
 31
0.0
  0
LINE
  5
1857
330
1F
100
AcDbEntity
  8
AM_0
  6
Continuous
 48
0.5
370
    30
100
AcDbLine
 10
53.588998794554
 20
-78.93374325767941
 30
0.0
 11
58.78827857971101
 21
-98.33771969810941
 31
0.0
  0
LINE
  5
1858
330
1F
100
AcDbEntity
  8
AM_0
  6
Continuous
 48
0.5
370
    30
100
AcDbLine
 10
-95.87862396239402
 20
33.20000002845259
 30
0.0
 11
-84.37863159179403
 21
33.20000002845259
 31
0.0
  0
LINE
  5
1859
330
1F
100
AcDbEntity
  8
AM_0
  6
Continuous
 48
0.5
370
    30
100
AcDbLine
 10
-95.87862396239399
 20
26.20135498046901
 30
0.0
 11
-93.37862396239399
 21
26.20135498046901
 31
0.0
  0
LINE
  5
185A
330
1F
100
AcDbEntity
  8
AM_0
  6
Continuous
 48
0.5
370
    30
100
AcDbLine
 10
-95.87862396239399
 20
26.759033203125
 30
0.0
 11
-92.378631591794
 21
26.759033203125
 31
0.0
  0
LINE
  5
185B
330
1F
100
AcDbEntity
  8
AM_0
  6
Continuous
 48
0.5
370
    30
100
AcDbLine
 10
-99.37862396239399
 20
23.41291809082
 30
0.0
 11
-92.378631591794
 21
23.41291809082
 31
0.0
  0
LINE
  5
185C
330
1F
100
AcDbEntity
  8
AM_0
  6
Continuous
 48
0.5
370
    30
100
AcDbLine
 10
-99.37862396239399
 20
14.490077972412
 30
0.0
 11
-92.378631591794
 21
14.490077972412
 31
0.0
  0
LINE
  5
185D
330
1F
100
AcDbEntity
  8
AM_0
  6
Continuous
 48
0.5
370
    30
100
AcDbLine
 10
-92.378631591794
 20
26.759033203125
 30
0.0
 11
-92.378631591794
 21
23.41291809082
 31
0.0
  0
LINE
  5
185E
330
1F
100
AcDbEntity
  8
AM_0
  6
Continuous
 48
0.5
370
    30
100
AcDbLine
 10
-99.37862396239399
 20
23.41291809082
 30
0.0
 11
-99.37862396239399
 21
14.490077972412
 31
0.0
  0
LINE
  5
185F
330
1F
100
AcDbEntity
  8
AM_0
  6
Continuous
 48
0.5
370
    30
100
AcDbLine
 10
-103.913612365714
 20
12.81708908081
 30
0.0
 11
-93.37862396239399
 21
12.81708908081
 31
0.0
  0
LINE
  5
1860
330
1F
100
AcDbEntity
  8
AM_0
  6
Continuous
 48
0.5
370
    30
100
AcDbLine
 10
-92.378631591794
 20
14.490077972412
 30
0.0
 11
-92.378631591794
 21
11.144058227539
 31
0.0
  0
LINE
  5
1861
330
1F
100
AcDbEntity
  8
AM_0
  6
Continuous
 48
0.5
370
    30
100
AcDbLine
 10
-93.37862396239399
 20
14.490077972412
 30
0.0
 11
-93.37862396239399
 21
11.144058227539
 31
0.0
  0
LINE
  5
1862
330
1F
100
AcDbEntity
  8
AM_0
  6
Continuous
 48
0.5
370
    30
100
AcDbLine
 10
-103.913612365714
 20
12.81708908081
 30
0.0
 11
-103.913612365714
 21
11.487628936767
 31
0.0
  0
LINE
  5
1863
330
1F
100
AcDbEntity
  8
AM_0
  6
Continuous
 48
0.5
370
    30
100
AcDbLine
 10
-95.38877105712399
 20
11.144058227539
 30
0.0
 11
-84.378631591794
 21
11.144058227539
 31
0.0
  0
LINE
  5
1864
330
1F
100
AcDbEntity
  8
AM_0
  6
Continuous
 48
0.5
370
    30
100
AcDbLine
 10
-84.378631591794
 20
4.641227722167997
 30
0.0
 11
-83.378631591794
 21
5.816299438476001
 31
0.0
  0
LINE
  5
1866
330
1F
100
AcDbEntity
  8
AM_0
  6
Continuous
 48
0.5
370
    30
100
AcDbLine
 10
-84.378631591794
 20
10.436786651611
 30
0.0
 11
-83.378631591794
 21
10.645931243896
 31
0.0
  0
LINE
  5
186B
330
1F
100
AcDbEntity
  8
AM_0
  6
Continuous
 48
0.5
370
    30
100
AcDbLine
 10
-84.37862396239399
 20
29.547416687012
 30
0.0
 11
-83.378631591794
 21
28.73092651367199
 31
0.0
  0
LINE
  5
186C
330
1F
100
AcDbEntity
  8
AM_0
  6
Continuous
 48
0.5
370
    30
100
AcDbLine
 10
-83.37862396239402
 20
32.84643862708458
 30
0.0
 11
-84.37863159179403
 21
33.20000002845259
 31
0.0
  0
LINE
  5
186D
330
1F
100
AcDbEntity
  8
AM_0
  6
Continuous
 48
0.5
370
    30
100
AcDbLine
 10
-93.37580108642399
 20
2.778835296631002
 30
0.0
 11
-84.378631591794
 21
4.641227722167997
 31
0.0
  0
LINE
  5
186E
330
1F
100
AcDbEntity
  8
AM_0
  6
Continuous
 48
0.5
370
    30
100
AcDbLine
 10
-84.37862396239399
 20
10.436779022217
 30
0.0
 11
-93.74835968017399
 21
8.275341033935
 31
0.0
  0
LINE
  5
186F
330
1F
100
AcDbEntity
  8
AM_0
  6
Continuous
 48
0.5
370
    30
100
AcDbLine
 10
19.489650726318
 20
6.079887390137003
 30
0.0
 11
18.225944519043
 21
10.796100616455
 31
0.0
  0
LINE
  5
1870
330
1F
100
AcDbEntity
  8
AM_7
  6
CENTER
370
    13
100
AcDbLine
 10
-122.0796062110262
 20
20.79568481445301
 30
0.0
 11
-80.67016601562401
 21
20.79568481445301
 31
0.0
  0
LINE
  5
1871
330
1F
100
AcDbEntity
  8
AM_0
  6
Continuous
 48
0.5
370
    30
100
AcDbLine
 10
-118.378623962394
 20
33.20000002845259
 30
0.0
 11
-95.87862396239399
 21
33.20000002845259
 31
0.0
  0
LINE
  5
1872
330
1F
100
AcDbEntity
  8
AM_0
  6
Continuous
 48
0.5
370
    30
100
AcDbLine
 10
-84.37862396239399
 20
11.144054412842
 30
0.0
 11
-83.378631591794
 21
11.44291305542
 31
0.0
  0
LINE
  5
1874
330
1F
100
AcDbEntity
  8
AM_0
  6
Continuous
370
    30
100
AcDbLine
 10
24.91495990908368
 20
33.20000002845258
 30
0.0
 11
149.999984741206
 21
33.20000002845259
 31
0.0
  0
LINE
  5
1875
330
1F
100
AcDbEntity
  8
AM_0
  6
Continuous
 48
0.5
370
    30
100
AcDbLine
 10
-118.378623962394
 20
11.144058227539
 30
0.0
 11
-103.765373229974
 21
11.144058227539
 31
0.0
  0
LINE
  5
1876
330
1F
100
AcDbEntity
  8
AM_0
  6
Continuous
 48
0.5
370
    30
100
AcDbLine
 10
-98.37863922118399
 20
23.41291809082
 30
0.0
 11
-98.37863922118399
 21
14.490077972412
 31
0.0
  0
LINE
  5
1877
330
1F
100
AcDbEntity
  8
AM_0
  6
Continuous
370
    30
100
AcDbLine
 10
30.6089506149285
 20
-105.8883483602184
 30
0.0
 11
123.642547607421
 21
-80.96007229820741
 31
0.0
  0
LINE
  5
1878
330
1F
100
AcDbEntity
  8
AM_0
  6
Continuous
 48
0.5
370
    30
100
AcDbLine
 10
18.780417442322
 20
4.851459503173999
 30
0.0
 11
19.489649772644
 21
6.079887390137003
 31
0.0
  0
LINE
  5
1879
330
1F
100
AcDbEntity
  8
AM_0
  6
Continuous
 48
0.5
370
    30
100
AcDbLine
 10
-118.378623962394
 20
33.20000002845259
 30
0.0
 11
-118.378623962394
 21
3.184112548827997
 31
0.0
  0
LINE
  5
187C
330
1F
100
AcDbEntity
  8
AM_0
  6
Continuous
 48
0.5
370
    30
100
AcDbLine
 10
15.915744781494
 20
10.298645019531
 30
0.0
 11
17.469438552856
 21
4.500186920166001
 31
0.0
  0
LINE
  5
187D
330
1F
100
AcDbEntity
  8
AM_0
  6
Continuous
 48
0.5
370
    30
100
AcDbLine
 10
-84.89511871337399
 20
10.317634582519
 30
0.0
 11
-84.96825408935399
 21
4.519176483153998
 31
0.0
  0
LINE
  5
187E
330
1F
100
AcDbEntity
  8
AM_0
  6
Continuous
 48
0.5
370
    30
100
AcDbLine
 10
-84.89512634277401
 20
10.317634582519
 30
0.0
 11
-85.05246734618399
 21
10.999717712402
 31
0.0
  0
LINE
  5
187F
330
1F
100
AcDbEntity
  8
AM_0
  6
Continuous
 48
0.5
370
    30
100
AcDbLine
 10
-85.05246734618399
 20
10.999717712402
 30
0.0
 11
-94.30747222900399
 21
8.864742279052997
 31
0.0
  0
ARC
  5
1B46
330
1F
100
AcDbEntity
  8
AM_0
  6
Continuous
 48
0.5
370
    30
100
AcDbCircle
 10
51.647357940673
 20
-76.6468188954974
 30
0.0
 40
3.0
100
AcDbArc
 50
285.9888761160638
 51
15.00000041741411
  0
ARC
  5
1B47
330
1F
100
AcDbEntity
  8
AM_0
  6
Continuous
 48
0.5
370
    30
100
AcDbCircle
 10
48.856657028197
 20
-85.08668591515041
 30
0.0
 40
3.0
100
AcDbArc
 50
263.5522579378926
 51
354.8782998348216
  0
ARC
  5
1B48
330
1F
100
AcDbEntity
  8
AM_0
  6
Continuous
 48
0.5
370
    30
100
AcDbCircle
 10
47.362015724181
 20
-84.9177749349254
 30
0.0
 40
3.0
100
AcDbArc
 50
224.0120537760682
 51
263.5522579378926
  0
ARC
  5
1B49
330
1F
100
AcDbEntity
  8
AM_0
  6
Continuous
 48
0.5
370
    30
100
AcDbCircle
 10
41.4974937438958
 20
24.40013885498101
 30
0.0
 40
4.0
100
AcDbArc
 50
285.0000013280272
 51
104.9999995067953
  0
ARC
  5
1B4A
330
1F
100
AcDbEntity
  8
AM_0
  6
Continuous
 48
0.5
370
    30
100
AcDbCircle
 10
45.120947837828
 20
10.877220153809
 30
0.0
 40
4.0
100
AcDbArc
 50
15.00000041741411
 51
104.9999995067953
  0
ARC
  5
1B4B
330
1F
100
AcDbEntity
  8
AM_0
  6
Continuous
 48
0.5
370
    30
100
AcDbCircle
 10
38.77988195419241
 20
34.542404174805
 30
0.0
 40
4.0
100
AcDbArc
 50
285.0000013280272
 51
340.3909091946335
  0
ARC
  5
1B4D
330
1F
100
AcDbEntity
  8
AM_0
  6
Continuous
 48
0.5
370
    30
100
AcDbCircle
 10
1.548313140868999
 20
8.357692718506002
 30
0.0
 40
4.9999985694885
100
AcDbArc
 50
346.0286807131053
 51
3.761634050943718
  0
ARC
  5
1B4E
330
1F
100
AcDbEntity
  8
AM_0
  6
Continuous
 48
0.5
370
    30
100
AcDbCircle
 10
4.055606842041001
 20
-0.9996566772460014
 30
0.0
 40
5.0
100
AcDbArc
 50
26.20558315652902
 51
43.97132012172299
  0
ARC
  5
1B50
330
1F
100
AcDbEntity
  8
AM_0
  6
Continuous
 48
0.5
370
    30
100
AcDbCircle
 10
4.0
 20
4.0
 30
0.0
 40
1.2099997997284
100
AcDbArc
 50
194.9999783329847
 51
286.9996621509533
  0
ARC
  5
1B52
330
1F
100
AcDbEntity
  8
AM_0
  6
Continuous
 48
0.5
370
    30
100
AcDbCircle
 10
4.0
 20
4.0
 30
0.0
 40
4.0
100
AcDbArc
 50
100.0783905871289
 51
289.0003575201688
  0
ARC
  5
1B53
330
1F
100
AcDbEntity
  8
AM_0
  6
Continuous
 48
0.5
370
    30
100
AcDbCircle
 10
11.25248336792
 20
5.943328857422003
 30
0.0
 40
5.0
100
AcDbArc
 50
166.0287027975347
 51
223.9712739042604
  0
ARC
  5
1B54
330
1F
100
AcDbEntity
  8
AM_0
  6
Continuous
 48
0.5
370
    30
100
AcDbCircle
 10
11.25248336792
 20
5.943328857422003
 30
0.0
 40
5.5999999046326
100
AcDbArc
 50
195.0002925216854
 51
206.7461824977371
  0
ARC
  5
1B55
330
1F
100
AcDbEntity
  8
AM_0
  6
Continuous
 48
0.5
370
    30
100
AcDbCircle
 10
11.252498626709
 20
5.943267822266002
 30
0.0
 40
5.5999999046326
100
AcDbArc
 50
183.2537605078528
 51
194.9996504839045
  0
ARC
  5
1B56
330
1F
100
AcDbEntity
  8
AM_0
  6
Continuous
 48
0.5
370
    30
100
AcDbCircle
 10
4.0
 20
4.0
 30
0.0
 40
1.2099997997284
100
AcDbArc
 50
103.0002908725465
 51
194.9999610301413
  0
CIRCLE
  5
1B5A
330
1F
100
AcDbEntity
  8
AM_0
  6
Continuous
370
    30
100
AcDbCircle
 10
27.9746212959282
 20
20.77669525146501
 30
0.0
 40
5.5
  0
CIRCLE
  5
1B5B
330
1F
100
AcDbEntity
  8
AM_0
  6
Continuous
370
    30
100
AcDbCircle
 10
27.9746212959282
 20
20.77669525146501
 30
0.0
 40
5.0
  0
ARC
  5
1B5C
330
1F
100
AcDbEntity
  8
AM_5
  6
AM_ISO09W050
370
    13
100
AcDbCircle
 10
-93.74822235107399
 20
139.999999999994
 30
0.0
 40
140.0
100
AcDbArc
 50
243.7308235702743
 51
276.401810861167
  0
SPLINE
  5
1B5E
330
1F
100
AcDbEntity
  8
AM_0
  6
Continuous
370
    30
100
AcDbSpline
210
0.0
220
0.0
230
1.0
 70
     8
 71
     3
 72
    10
 73
     6
 74
     0
 42
0.0000000001
 43
0.0000000001
 40
0.4187975104112637
 40
0.4187975104112637
 40
0.4187975104112637
 40
0.4187975104112637
 40
12.8193594646203
 40
24.52527157670685
 40
26.87204382983446
 40
26.87204382983446
 40
26.87204382983446
 40
26.87204382983446
 10
30.63290189779152
 20
-105.8853063896217
 30
0.0
 10
29.2752883605914
 20
-99.90184076476248
 30
0.0
 10
26.8204201641831
 20
-88.61504629742663
 30
0.0
 10
36.16155262113063
 20
-98.75450158577513
 30
0.0
 10
40.05457448134528
 20
-102.3777496149435
 30
0.0
 10
40.68168089842263
 20
-102.944865238971
 30
0.0
  0
SPLINE
  5
1B5F
330
1F
100
AcDbEntity
  8
AM_0
  6
Continuous
 48
0.5
370
    30
100
AcDbSpline
210
0.0
220
0.0
230
1.0
 70
     8
 71
     3
 72
    11
 73
     7
 74
     5
 42
0.0000000001
 43
0.0000000001
 44
0.0000000001
 40
0.0
 40
0.0
 40
0.0
 40
0.0
 40
0.9851590042377061
 40
1.507599124822738
 40
2.159330322093478
 40
3.106278958907703
 40
3.106278958907703
 40
3.106278958907703
 40
3.106278958907703
 10
5.661529541015
 20
5.625419616698999
 30
0.0
 10
5.535755102508395
 20
5.92552661233176
 30
0.0
 10
5.343281164187797
 20
6.384783485611035
 30
0.0
 10
5.265110910104419
 20
7.149753083743112
 30
0.0
 10
5.818331258069368
 20
7.683706998686397
 30
0.0
 10
5.897514948706587
 20
8.223331869216054
 30
0.0
 10
5.944417953491001
 20
8.54296875
 30
0.0
 11
5.661529541015
 21
5.625419616698999
 31
0.0
 11
5.343090057373001
 21
6.557693481445
 31
0.0
 11
5.338834762573001
 21
7.080116271973004
 31
0.0
 11
5.6851978302
 21
7.632190704346002
 31
0.0
 11
5.944417953491001
 21
8.54296875
 31
0.0
  0
SPLINE
  5
1B60
330
1F
100
AcDbEntity
  8
AM_0
  6
Continuous
 48
0.5
370
    30
100
AcDbSpline
210
0.0
220
0.0
230
1.0
 70
     8
 71
     3
 72
    11
 73
     7
 74
     5
 42
0.0000000001
 43
0.0000000001
 44
0.0000000001
 40
0.0
 40
0.0
 40
0.0
 40
0.0
 40
0.9851608494628378
 40
1.507598923224096
 40
2.159329665004242
 40
3.106278555193126
 40
3.106278555193126
 40
3.106278555193126
 40
3.106278555193126
 10
6.251636505127003
 20
3.423110961913999
 30
0.0
 10
6.292764587621324
 20
3.100322084866425
 30
0.0
 10
6.355703195988191
 20
2.606355882564562
 30
0.0
 10
6.670497878404672
 20
1.904792936560928
 30
0.0
 10
7.41657208204391
 20
1.718979183486357
 30
0.0
 10
7.754961582526236
 20
1.291244589140272
 30
0.0
 10
7.955400466919002
 20
1.037883758545
 30
0.0
 11
6.251636505127003
 21
3.423110961913999
 31
0.0
 11
6.441995620727003
 21
2.456516265868999
 31
0.0
 11
6.699523925781001
 21
2.001960754395
 31
0.0
 11
7.275518417358001
 21
1.69702911377
 31
0.0
 11
7.955400466919002
 21
1.037883758545
 31
0.0
  0
SPLINE
  5
1B61
330
1F
100
AcDbEntity
  8
AM_0
  6
Continuous
 48
0.5
370
    30
100
AcDbSpline
210
0.0
220
0.0
230
1.0
 70
     8
 71
     3
 72
    11
 73
     7
 74
     5
 42
0.0000000001
 43
0.0000000001
 44
0.0000000001
 40
0.0
 40
0.0
 40
0.0
 40
0.0
 40
0.1901574937812186
 40
0.7352009290576484
 40
1.289233216900722
 40
3.011721534155073
 40
3.011721534155073
 40
3.011721534155073
 40
3.011721534155073
 10
-93.74822235107399
 20
0.0
 30
0.0
 10
-93.7032589226947
 20
0.0461339484031516
 30
0.0
 10
-93.52941799925409
 20
0.2245004227011248
 30
0.0
 10
-93.50942282095294
 20
0.6878487187944287
 30
0.0
 10
-93.38057673987666
 20
1.603374895626875
 30
0.0
 10
-93.37946507989722
 20
2.368371922469391
 30
0.0
 10
-93.37862396239399
 20
2.947193145751996
 30
0.0
 11
-93.74822235107399
 21
0.0
 31
0.0
 11
-93.62419891357399
 21
0.1441459655760013
 31
0.0
 11
-93.50141143798399
 21
0.6751785278319957
 31
0.0
 11
-93.44002532958399
 21
1.225799560546996
 31
0.0
 11
-93.37862396239399
 21
2.947193145751996
 31
0.0
  0
SPLINE
  5
1B62
330
1F
100
AcDbEntity
  8
AM_0
  6
Continuous
 48
0.5
370
    30
100
AcDbSpline
210
0.0
220
0.0
230
1.0
 70
     8
 71
     3
 72
    12
 73
     8
 74
     6
 42
0.0000000001
 43
0.0000000001
 44
0.0000000001
 40
0.0
 40
0.0
 40
0.0
 40
0.0
 40
0.4380026239392322
 40
1.116450060546555
 40
2.172285817446425
 40
2.984046979621854
 40
4.965215679075263
 40
4.965215679075263
 40
4.965215679075263
 40
4.965215679075263
 10
-93.88103485107399
 20
7.869915008545
 30
0.0
 10
-93.83344648918531
 20
7.731654741940693
 30
0.0
 10
-93.71214577862311
 20
7.379235202456431
 30
0.0
 10
-93.60194685390155
 20
6.660655309618816
 30
0.0
 10
-93.50259607664673
 20
5.818681953005216
 30
0.0
 10
-93.40618277947993
 20
4.538679592064358
 30
0.0
 10
-93.39006039695981
 20
3.607632617769019
 30
0.0
 10
-93.37862396239399
 20
2.947193145751996
 30
0.0
 11
-93.88103485107399
 21
7.869915008545
 31
0.0
 11
-93.74822235107399
 21
7.452533721923999
 31
0.0
 11
-93.62419891357399
 21
6.78551864624
 31
0.0
 11
-93.50141143798399
 21
5.736846923827997
 31
0.0
 11
-93.44002532958399
 21
4.927410125731996
 31
0.0
 11
-93.37862396239399
 21
2.947193145751996
 31
0.0
  0
MTEXT
  5
1BCA
330
1F
100
AcDbEntity
  8
PV0001_1
 62
     2
370
    30
100
AcDbMText
 10
153.36076660156
 20
-55.425247192382
 30
0.0
 40
2.3
 41
0.0
 71
     4
 72
     5
  1
\W0.72;　
 73
     1
 44
1.0
  0
MTEXT
  5
1BCB
330
1F
100
AcDbEntity
  8
PV0001_1
 62
     2
370
    30
100
AcDbMText
 10
155.43576660156
 20
-55.425247192382
 30
0.0
 40
2.3
 41
0.0
 71
     4
 72
     5
  1
\W0.72;　
 73
     1
 44
1.0
  0
INSERT
  5
1C2E
330
1F
100
AcDbEntity
  8
AM_0
  6
Continuous
370
    30
100
AcDbBlockReference
  2
*U14
 10
34.679985046386
 20
-45.481941223144
 30
0.0
  0
INSERT
  5
1C33
330
1F
100
AcDbEntity
  8
AM_5
370
    13
100
AcDbBlockReference
  2
*U15
 10
34.679985046386
 20
-45.24666287437941
 30
0.0
  0
INSERT
  5
1C38
330
1F
100
AcDbEntity
  8
AM_5
370
    13
100
AcDbBlockReference
  2
*U16
 10
34.679985046386
 20
-45.24666287437941
 30
0.0
  0
DIMENSION
  5
1FD5
330
1F
100
AcDbEntity
  8
AM_5
370
    13
100
AcDbDimension
  2
*D18
 10
-40.55357038571814
 20
0.0000000000000126
 30
0.0
 11
-43.95394440146617
 21
16.6000000142263
 31
0.0
 70
    32
 71
     5
 42
33.20000002845259
  3
AM_JIS$0
100
AcDbAlignedDimension
 13
24.91495990908368
 23
33.20000002845258
 33
0.0
 14
4.0
 24
0.0
 34
0.0
 50
90.0
100
AcDbRotatedDimension
1001
ACAD
1000
DSTYLE
1002
{
1070
   271
1070
     1
1002
}
  0
LINE
  5
2070
330
1F
100
AcDbEntity
  8
AM_5
370
    13
100
AcDbLine
 10
4.0
 20
0.0
 30
0.0
 11
-1.870449497448966
 21
0.0
 31
0.0
  0
DIMENSION
  5
2071
330
1F
100
AcDbEntity
  8
AM_5
370
    13
100
AcDbDimension
  2
*D19
 10
-1.870449497448966
 20
0.0
 30
0.0
 11
-39.88340511473647
 21
-6.329219260311156
 31
0.0
 70
   162
 71
     5
 42
0.2617994223469751
  3
AM_JIS$2
100
AcDb2LineAngularDimension
 13
-2.154193878173999
 23
2.35099029541
 33
0.0
 14
21.218072891235
 24
8.613571166992003
 34
0.0
 15
4.0
 25
0.0
 35
0.0
 16
-40.4542904555851
 26
-2.583197844895311
 36
0.0
1001
ACAD
1000
DSTYLE
1002
{
1070
   281
1070
     1
1002
}
  0
TEXT
  5
215E
330
1F
100
AcDbEntity
  8
AM_6
  6
Continuous
 62
     0
370
    30
100
AcDbText
 10
5.564932746072138
 20
-150.8226851781999
 30
0.0
 40
3.8
  1
GDER2525-815S
  7
ACISOTS
100
AcDbText
  0
LINE
  5
2247
330
1F
100
AcDbEntity
  8
AM_5
100
AcDbLine
 10
-10.92820789625305
 20
0.0000000000000004
 30
0.0
 11
-2.154193878173999
 21
2.35099029541
 31
0.0
  0
TEXT
  5
225E
330
1F
100
AcDbEntity
  8
AM_6
 62
     0
100
AcDbText
 10
-29.46296480753851
 20
-18.16440275431613
 30
0.0
 40
3.5
  1
0%%D
 50
0.0001751499997476
100
AcDbText
  0
TEXT
  5
2269
330
1F
100
AcDbEntity
  8
AM_6
 62
     0
100
AcDbText
 10
-14.31089072054841
 20
-28.07744438978441
 30
0.0
 40
3.5
  1
+7%%D
 50
0.0001751499997476
100
AcDbText
  0
ENDSEC
  0
SECTION
  2
OBJECTS
  0
DICTIONARY
  5
C
330
0
100
AcDbDictionary
281
     1
  3
ACAD_COLOR
350
1E6B
  3
ACAD_GROUP
350
D
  3
ACAD_LAYOUT
350
1A
  3
ACAD_MATERIAL
350
1E6A
  3
ACAD_MLINESTYLE
350
17
  3
ACAD_PLOTSETTINGS
350
19
  3
ACAD_PLOTSTYLENAME
350
E
  3
ACAD_TABLESTYLE
350
1E6C
  3
AcAmCatalogState
350
1ED3
  3
ACDBHEADERROUNDTRIPXREC
350
22A2
  3
AcDbVariableDictionary
350
30
  3
ACDMSYSVARMGR
350
1E84
  3
ACGREF_MASTER
350
1E7C
  3
ACGREFACAD_MASTER
350
1EA6
  3
AcmDictionary
350
43
  3
ACME_BOM_MANAGER_NAME
350
36
  3
ACME_COMMAND_HISTORY
350
2F
  3
ACME_SCOPE_NAME
350
2E
  3
ACMESTATEMGR
350
3B
  3
AcmeSysVarManager
350
32
  3
AcmSystemVariableManager
350
79D
  3
AD_APPL
350
1EB1
  3
ADSYSVARMGR
350
1EB0
  3
AmdtNamedDwgMgr
350
1EA1
  3
AMG
350
3F
  3
AMGSNAPSETTINGS
350
59
  3
AMI_MASTER
350
1EA9
  3
AUTOCAD_ASSEMBLIES_PROJECT
350
1EB9
  3
Designer_Assemblies_SysVars
350
1EB4
  3
DWGPROPS
350
22A5
  3
GREFAM_MODULE
350
1EAA
  3
SAKAE_DICT
350
1E65
  0
DICTIONARY
  5
2154
330
2
100
AcDbDictionary
280
     1
281
     1
  3
ACAD_LAYERSTATES
360
2155
  0
DICTIONARY
  5
10B
330
1F
100
AcDbDictionary
280
     1
281
     1
  3
ACAD_SORTENTS
360
1FA8
  0
DICTIONARY
  5
1E6B
102
{ACAD_REACTORS
330
C
102
}
330
C
100
AcDbDictionary
281
     1
  0
DICTIONARY
  5
D
102
{ACAD_REACTORS
330
C
102
}
330
C
100
AcDbDictionary
281
     1
  0
DICTIONARY
  5
1A
102
{ACAD_REACTORS
330
C
102
}
330
C
100
AcDbDictionary
281
     1
  3
Model
350
22
  3
ﾚｲｱｳﾄ1
350
1E
  3
ﾚｲｱｳﾄ2
350
26
  0
DICTIONARY
  5
1E6A
102
{ACAD_REACTORS
330
C
102
}
330
C
100
AcDbDictionary
281
     1
  0
DICTIONARY
  5
17
102
{ACAD_REACTORS
330
C
102
}
330
C
100
AcDbDictionary
281
     1
  3
Standard
350
18
  0
DICTIONARY
  5
19
102
{ACAD_REACTORS
330
C
102
}
330
C
100
AcDbDictionary
281
     1
  0
ACDBDICTIONARYWDFLT
  5
E
102
{ACAD_REACTORS
330
C
102
}
330
C
100
AcDbDictionary
281
     1
  3
Normal
350
F
100
AcDbDictionaryWithDefault
340
F
  0
DICTIONARY
  5
1E6C
102
{ACAD_REACTORS
330
C
102
}
330
C
100
AcDbDictionary
281
     1
  3
Standard
350
1E6D
  0
ACAD_PROXY_OBJECT
  5
1ED3
102
{ACAD_REACTORS
330
C
102
}
330
C
100
AcDbProxyObject
 90
      499
 91
      570
 95
       25
 70
     0
 93
      160
310
3FFFFFFFE00A028140283A19D2E3A32B6B8400AA
  0
DICTIONARY
  5
22A2
102
{ACAD_REACTORS
330
C
102
}
330
C
100
AcDbDictionary
281
     1
  3
COLORDICT
350
22A3
  3
MATERIALDICT
350
22A4
  0
DICTIONARY
  5
30
102
{ACAD_REACTORS
330
C
102
}
330
C
100
AcDbDictionary
281
     1
  3
CTABLESTYLE
350
1EDE
  3
DIMASSOC
350
22A0
  3
HIDETEXT
350
22A1
  3
INDEXCTL
350
31
  0
ACAD_PROXY_OBJECT
  5
1E84
102
{ACAD_REACTORS
330
C
102
}
330
C
100
AcDbProxyObject
 90
      499
 91
      507
 95
       25
 70
     0
 93
      240
310
4C51A47A0000000000000000000000000000000000000000000000000000
330
1E85
330
1E86
330
1E87
330
1E88
330
1E89
330
1E8A
330
1E8B
330
1E8C
330
1E8D
330
1E8E
330
1E8F
330
1E90
330
1E91
330
1E92
330
1E93
330
1E94
330
1E95
330
1E96
330
1E97
330
1E98
330
1E99
330
1E9A
330
1E9B
330
1E9C
330
1E9D
330
1E9E
 94
        0
  0
ACAD_PROXY_OBJECT
  5
1E7C
102
{ACAD_REACTORS
330
C
102
}
330
C
100
AcDbProxyObject
 90
      499
 91
      534
 95
       25
 70
     0
 93
       34
310
0400004280
  0
ACAD_PROXY_OBJECT
  5
1EA6
102
{ACAD_REACTORS
330
C
102
}
330
C
100
AcDbProxyObject
 90
      499
 91
      540
 95
       25
 70
     0
 93
      114
310
04000041C080000000000000000000
  0
DICTIONARY
  5
43
102
{ACAD_REACTORS
330
C
102
}
330
C
100
AcDbDictionary
281
     1
  3
AcmBOMDATA
350
44
  3
AcmStdDictionary
350
7A0
  3
AMDTSECTSYM_ARROWCOLOR
350
1EC7
  0
ACAD_PROXY_OBJECT
  5
36
102
{ACAD_REACTORS
330
C
102
}
330
C
100
AcDbProxyObject
 90
      499
 91
      510
 95
       25
 70
     0
 93
       50
310
00010040400000
330
0
330
0
330
37
 94
        0
  0
ACAD_PROXY_OBJECT
  5
2F
102
{ACAD_REACTORS
330
C
102
}
330
C
100
AcDbProxyObject
 90
      499
 91
      505
 95
       25
 70
     0
 93
     3204
310
4780505455241534580505455241534580505455241534580505455241534580505455241534580504554E444F80504554E444F805044C494E4540405184D5347202D20436F6D6D616E642043414E43454C4C45442E0142541054D51150D31254201419493D51055116014115539113E01419493D5105511601419493D5105
310
5116014151549054D16014210D3D41650D3125420142541054D51150D312542014151549054D160141D0D55510D3125420142541054D51150D31254201419111115112552014151549054D1601411693D3D36014154155491D1601415454D05591501014B5354D1C80B481414104E88080819195CDADD1BDC0B985C9E08119
310
A5B1955995C9CDA5BDB8E880E4B8C8B8C0B8D0050E414D4454524553455444424D4F4440805084E202D20554E444F014213880B4815539113C0504554E444F80504554E444F8050C475249505F53545245544348805045A4F4F4D805055153415645404052D4D5347202D205050413A2020206465736B746F702E617278204
310
6696C6556657273696F6E3A20392E322E302E340
  0
ACAD_PROXY_OBJECT
  5
2E
102
{ACAD_REACTORS
330
C
102
}
330
C
100
AcDbProxyObject
 90
      499
 91
      504
 95
       25
 70
     0
 93
      586
310
09000046408000000000000000001344E200000000000000000000000000000000000000000000000000000000000000000000000000000000000000000000000000000000AAA406AA80
360
33
360
34
360
35
360
37
360
79E
360
79F
360
1E7D
360
1E7E
360
1E7F
360
1E80
360
1E81
360
1E82
360
1E85
360
1E86
360
1E87
360
1E88
360
1E89
360
1E8A
360
1E8B
360
1E8C
360
1E8D
360
1E8E
360
1E8F
360
1E90
360
1E91
360
1E92
360
1E93
360
1E94
360
1E95
360
1E96
360
1E97
360
1E98
360
1E99
360
1E9A
360
1E9B
360
1E9C
360
1E9D
360
1E9E
360
1EAC
360
1EAD
360
1EAE
360
1EAF
360
1EB5
360
1EB6
360
1EB7
360
1EB8
360
1EBD
360
1EBE
360
1EBF
360
1EC0
360
1EC1
360
1EC2
 94
        0
  0
ACAD_PROXY_OBJECT
  5
3B
102
{ACAD_REACTORS
330
C
102
}
330
C
100
AcDbProxyObject
 90
      499
 91
      515
 95
       25
 70
     0
 93
       50
310
09000042641280
  0
ACAD_PROXY_OBJECT
  5
32
102
{ACAD_REACTORS
330
C
102
}
330
C
100
AcDbProxyObject
 90
      499
 91
      507
 95
       25
 70
     0
 93
       48
310
903412000000
330
33
330
34
330
35
 94
        0
  0
ACAD_PROXY_OBJECT
  5
79D
102
{ACAD_REACTORS
330
C
102
}
330
C
100
AcDbProxyObject
 90
      499
 91
      507
 95
       25
 70
     0
 93
       40
310
90240E0000
330
79E
330
79F
 94
        0
  0
ACAD_PROXY_OBJECT
  5
1EB1
102
{ACAD_REACTORS
330
C
102
}
330
C
100
AcDbProxyObject
 90
      499
 91
      550
 95
       25
 70
     0
 93
       42
310
000900004040
330
1EAC
 94
        0
  0
ACAD_PROXY_OBJECT
  5
1EB0
102
{ACAD_REACTORS
330
C
102
}
330
C
100
AcDbProxyObject
 90
      499
 91
      507
 95
       25
 70
     0
 93
        8
310
AA
  0
ACAD_PROXY_OBJECT
  5
1EA1
102
{ACAD_REACTORS
330
C
102
}
330
C
100
AcDbProxyObject
 90
      499
 91
      539
 95
       25
 70
     0
 93
       42
310
000100005E80
330
1E7D
 94
        0
  0
DICTIONARY
  5
3F
102
{ACAD_REACTORS
330
C
102
}
330
C
100
AcDbDictionary
281
     1
  3
AcMgSettings
350
40
  3
AMGLAYCFG
350
47
  0
DICTIONARY
  5
59
102
{ACAD_REACTORS
330
C
102
}
330
C
100
AcDbDictionary
281
     1
  3
DIMENSION
350
AE3
  3
FEA
350
AE4
  3
HATCH (1)
350
AE5
  3
HATCH (2)
350
AE6
  3
SYMBOLS
350
AE7
  0
ACAD_PROXY_OBJECT
  5
1EA9
102
{ACAD_REACTORS
330
C
102
}
330
C
100
AcDbProxyObject
 90
      499
 91
      543
 95
       25
 70
     0
 93
       34
310
0500004280
  0
ACAD_PROXY_OBJECT
  5
1EB9
102
{ACAD_REACTORS
330
C
102
}
330
C
100
AcDbProxyObject
 90
      499
 91
      553
 95
       25
 70
     0
 93
       98
310
0900004E400000000000000000
330
1EC0
330
0
330
1EC1
330
0
330
0
330
0
330
0
330
0
 94
        0
  0
ACAD_PROXY_OBJECT
  5
1EB4
102
{ACAD_REACTORS
330
C
102
}
330
C
100
AcDbProxyObject
 90
      499
 91
      507
 95
       25
 70
     0
 93
       56
310
90441600000000
330
1EB5
330
1EB6
330
1EB7
330
1EB8
 94
        0
  0
XRECORD
  5
22A5
102
{ACAD_REACTORS
330
C
102
}
330
C
100
AcDbXrecord
280
     1
  1
DWGPROPS COOKIE
  2

  3

  4

  6

  7

  8

  9

300
AmdtFileType=82
301
=
302
=
303
=
304
=
305
=
306
=
307
=
308
=
309
=
 40
0.0
 41
2451856.233395394
 42
2455467.976992905
  1

 90
        1
  0
ACAD_PROXY_OBJECT
  5
1EAA
102
{ACAD_REACTORS
330
C
102
}
330
C
100
AcDbProxyObject
 90
      499
 91
      544
 95
       25
 70
     0
 93
        8
310
05
  0
DICTIONARY
  5
1E65
102
{ACAD_REACTORS
330
C
102
}
330
C
100
AcDbDictionary
281
     1
  3
XREC1
350
1E66
  0
DICTIONARY
  5
2155
102
{ACAD_REACTORS
330
2154
102
}
330
2154
100
AcDbDictionary
281
     1
  0
SORTENTSTABLE
  5
1FA8
102
{ACAD_REACTORS
330
10B
102
}
330
10B
100
AcDbSortentsTable
330
1F
331
12E2
  5
12E2
331
1368
  5
1368
331
13B3
  5
13B3
331
13F6
  5
13F6
331
14AA
  5
14AA
331
14ED
  5
14ED
331
1530
  5
1530
331
15D9
  5
15D9
331
1615
  5
1615
331
16C2
  5
16C2
331
176F
  5
176F
331
1772
  5
1772
331
1773
  5
1773
331
1774
  5
1774
331
1775
  5
1775
331
1776
  5
1776
331
1777
  5
1777
331
1778
  5
1778
331
1779
  5
1779
331
177A
  5
177A
331
177B
  5
177B
331
177C
  5
177C
331
177D
  5
177D
331
177E
  5
177E
331
177F
  5
177F
331
1780
  5
1780
331
1781
  5
1781
331
1783
  5
1783
331
1784
  5
1784
331
1785
  5
1785
331
1786
  5
1786
331
1788
  5
1788
331
1789
  5
1789
331
178A
  5
178A
331
178B
  5
178B
331
178C
  5
178C
331
178D
  5
178D
331
178E
  5
178E
331
178F
  5
178F
331
1790
  5
1790
331
1791
  5
1791
331
1792
  5
1792
331
1793
  5
1793
331
1794
  5
1794
331
1795
  5
1795
331
1796
  5
1796
331
1797
  5
1797
331
1798
  5
1798
331
1799
  5
1799
331
179A
  5
179A
331
179B
  5
179B
331
179C
  5
179C
331
179D
  5
179D
331
179E
  5
179E
331
179F
  5
179F
331
17A0
  5
17A0
331
17A1
  5
17A1
331
17A2
  5
17A2
331
17A3
  5
17A3
331
17A4
  5
17A4
331
17A5
  5
17A5
331
17A6
  5
17A6
331
17A7
  5
17A7
331
17A8
  5
17A8
331
17A9
  5
17A9
331
17AA
  5
17AA
331
17AB
  5
17AB
331
17AC
  5
17AC
331
17AD
  5
17AD
331
17AE
  5
17AE
331
17AF
  5
17AF
331
17B0
  5
17B0
331
17B1
  5
17B1
331
17B2
  5
17B2
331
17B4
  5
17B4
331
17B5
  5
17B5
331
17B6
  5
17B6
331
17B7
  5
17B7
331
17B8
  5
17B8
331
17B9
  5
17B9
331
17BA
  5
17BA
331
17BB
  5
17BB
331
17BC
  5
17BC
331
17BD
  5
17BD
331
17BE
  5
17BE
331
17BF
  5
17BF
331
17C0
  5
17C0
331
17C1
  5
17C1
331
17C2
  5
17C2
331
17C3
  5
17C3
331
17C4
  5
17C4
331
17C5
  5
17C5
331
17C6
  5
17C6
331
17C7
  5
17C7
331
17C9
  5
17C9
331
17CA
  5
17CA
331
17CB
  5
17CB
331
17CC
  5
17CC
331
17CD
  5
17CD
331
17CE
  5
17CE
331
17CF
  5
17CF
331
17D0
  5
17D0
331
17D1
  5
17D1
331
17D2
  5
17D2
331
17D3
  5
17D3
331
17D4
  5
17D4
331
17D5
  5
17D5
331
17D6
  5
17D6
331
17D7
  5
17D7
331
17D8
  5
17D8
331
17D9
  5
17D9
331
17DA
  5
17DA
331
17DB
  5
17DB
331
17DC
  5
17DC
331
17DE
  5
17DE
331
17E1
  5
17E1
331
17E2
  5
17E2
331
17E3
  5
17E3
331
17EA
  5
17EA
331
17EC
  5
17EC
331
17F1
  5
17F1
331
17F2
  5
17F2
331
17F3
  5
17F3
331
17F6
  5
17F6
331
17F7
  5
17F7
331
17F9
  5
17F9
331
17FA
  5
17FA
331
17FD
  5
17FD
331
17FE
  5
17FE
331
17FF
  5
17FF
331
1800
  5
1800
331
1803
  5
1803
331
1805
  5
1805
331
1806
  5
1806
331
1807
  5
1807
331
1808
  5
1808
331
1809
  5
1809
331
180A
  5
180A
331
180E
  5
180E
331
180F
  5
180F
331
1810
  5
1810
331
1811
  5
1811
331
1812
  5
1812
331
1814
  5
1814
331
1815
  5
1815
331
1816
  5
1816
331
1817
  5
1817
331
1818
  5
1818
331
1819
  5
1819
331
181A
  5
181A
331
181B
  5
181B
331
181C
  5
181C
331
181D
  5
181D
331
181E
  5
181E
331
181F
  5
181F
331
1820
  5
1820
331
1821
  5
1821
331
1822
  5
1822
331
1823
  5
1823
331
1824
  5
1824
331
1825
  5
1825
331
1827
  5
1827
331
1828
  5
1828
331
1829
  5
1829
331
182A
  5
182A
331
182B
  5
182B
331
182C
  5
182C
331
182D
  5
182D
331
182E
  5
182E
331
182F
  5
182F
331
1830
  5
1830
331
1831
  5
1831
331
1832
  5
1832
331
1833
  5
1833
331
1834
  5
1834
331
1835
  5
1835
331
1836
  5
1836
331
1837
  5
1837
331
1838
  5
1838
331
1839
  5
1839
331
183A
  5
183A
331
183B
  5
183B
331
183C
  5
183C
331
183D
  5
183D
331
183E
  5
183E
331
183F
  5
183F
331
1840
  5
1840
331
1841
  5
1841
331
1842
  5
1842
331
1843
  5
1843
331
1844
  5
1844
331
1845
  5
1845
331
1846
  5
1846
331
1847
  5
1847
331
1848
  5
1848
331
1849
  5
1849
331
184A
  5
184A
331
184B
  5
184B
331
184C
  5
184C
331
184D
  5
184D
331
184E
  5
184E
331
184F
  5
184F
331
1850
  5
1850
331
1851
  5
1851
331
1852
  5
1852
331
1853
  5
1853
331
1854
  5
1854
331
1855
  5
1855
331
1856
  5
1856
331
1857
  5
1857
331
1858
  5
1858
331
1859
  5
1859
331
185A
  5
185A
331
185B
  5
185B
331
185C
  5
185C
331
185D
  5
185D
331
185E
  5
185E
331
185F
  5
185F
331
1860
  5
1860
331
1861
  5
1861
331
1862
  5
1862
331
1863
  5
1863
331
1864
  5
1864
331
1866
  5
1866
331
186B
  5
186B
331
186C
  5
186C
331
186D
  5
186D
331
186E
  5
186E
331
186F
  5
186F
331
1870
  5
1870
331
1871
  5
1871
331
1872
  5
1872
331
1874
  5
1874
331
1875
  5
1875
331
1876
  5
1876
331
1877
  5
1877
331
1878
  5
1878
331
1879
  5
1879
331
187C
  5
187C
331
187D
  5
187D
331
187E
  5
187E
331
187F
  5
187F
331
1B46
  5
1B46
331
1B47
  5
1B47
331
1B48
  5
1B48
331
1B49
  5
1B49
331
1B4A
  5
1B4A
331
1B4B
  5
1B4B
331
1B4D
  5
1B4D
331
1B4E
  5
1B4E
331
1B50
  5
1B50
331
1B52
  5
1B52
331
1B53
  5
1B53
331
1B54
  5
1B54
331
1B55
  5
1B55
331
1B56
  5
1B56
331
1B5A
  5
1B5A
331
1B5B
  5
1B5B
331
1B5C
  5
1B5C
331
1B5E
  5
1B5E
331
1B5F
  5
1B5F
331
1B60
  5
1B60
331
1B61
  5
1B61
331
1B62
  5
1B62
331
1BCA
  5
1BCA
331
1BCB
  5
1BCB
331
1C2E
  5
1C2E
331
1C33
  5
1C33
331
1C38
  5
1C38
  0
LAYOUT
  5
22
102
{ACAD_REACTORS
330
1A
102
}
330
1A
100
AcDbPlotSettings
  1

  2
SII LP-2150 (D-SCAN C2)
  4
User118
  6
AM_VIEW1
 40
3.174999952316284
 41
3.174999952316284
 42
3.17498779296875
 43
3.17498779296875
 44
296.9259948730469
 45
419.9889831542969
 46
0.0
 47
0.0
 48
0.0
 49
0.0
140
423.0
141
300.0
142
1.0
143
1.03243210946902
 70
 11952
 72
     1
 73
     1
 74
     4
  7
sei_cad.ctb
 75
     0
147
0.9685866904258728
148
0.0
149
0.0
100
AcDbLayout
  1
Model
 70
     1
 71
     0
 10
0.0
 20
0.0
 11
12.0
 21
9.0
 12
0.0
 22
0.0
 32
0.0
 14
0.0
 24
0.0
 34
0.0
 15
0.0
 25
0.0
 35
0.0
146
0.0
 13
0.0
 23
0.0
 33
0.0
 16
1.0
 26
0.0
 36
0.0
 17
0.0
 27
1.0
 37
0.0
 76
     0
330
1F
  0
LAYOUT
  5
1E
102
{ACAD_REACTORS
330
1A
102
}
330
1A
100
AcDbPlotSettings
  1

  2
SII LP-2150 (D-SCAN C2)
  4

  6

 40
0.0
 41
0.0
 42
0.0
 43
0.0
 44
0.0
 45
0.0
 46
0.0
 47
0.0
 48
0.0
 49
0.0
140
0.0
141
0.0
142
1.0
143
1.0
 70
   688
 72
     0
 73
     0
 74
     5
  7
sei_cad.ctb
 75
    16
147
1.0
148
0.0
149
0.0
100
AcDbLayout
  1
ﾚｲｱｳﾄ1
 70
     1
 71
     1
 10
0.0
 20
0.0
 11
420.0
 21
297.0
 12
0.0
 22
0.0
 32
0.0
 14
1.000000000000000E+20
 24
1.000000000000000E+20
 34
1.000000000000000E+20
 15
-1.000000000000000E+20
 25
-1.000000000000000E+20
 35
-1.000000000000000E+20
146
0.0
 13
0.0
 23
0.0
 33
0.0
 16
1.0
 26
0.0
 36
0.0
 17
0.0
 27
1.0
 37
0.0
 76
     0
330
1B
  0
LAYOUT
  5
26
102
{ACAD_REACTORS
330
1A
102
}
330
1A
100
AcDbPlotSettings
  1

  2
SII LP-2150 (D-SCAN C2)
  4

  6

 40
0.0
 41
0.0
 42
0.0
 43
0.0
 44
0.0
 45
0.0
 46
0.0
 47
0.0
 48
0.0
 49
0.0
140
0.0
141
0.0
142
1.0
143
1.0
 70
   688
 72
     0
 73
     0
 74
     5
  7
sei_cad.ctb
 75
    16
147
1.0
148
0.0
149
0.0
100
AcDbLayout
  1
ﾚｲｱｳﾄ2
 70
     1
 71
     2
 10
0.0
 20
0.0
 11
12.0
 21
9.0
 12
0.0
 22
0.0
 32
0.0
 14
0.0
 24
0.0
 34
0.0
 15
0.0
 25
0.0
 35
0.0
146
0.0
 13
0.0
 23
0.0
 33
0.0
 16
1.0
 26
0.0
 36
0.0
 17
0.0
 27
1.0
 37
0.0
 76
     0
330
23
  0
MLINESTYLE
  5
18
102
{ACAD_REACTORS
330
17
102
}
330
17
100
AcDbMlineStyle
  2
STANDARD
 70
     0
  3

 62
   256
 51
90.0
 52
90.0
 71
     2
 49
0.5
 62
   256
  6
BYLAYER
 49
-0.5
 62
   256
  6
BYLAYER
  0
ACDBPLACEHOLDER
  5
F
102
{ACAD_REACTORS
330
E
102
}
330
E
  0
TABLESTYLE
  5
1E6D
102
{ACAD_REACTORS
330
1E6C
102
}
330
1E6C
100
AcDbTableStyle
  3
Standard
 70
     0
 71
     8
 40
1.5
 41
1.5
280
     0
281
     0
  7
STANDARD
140
4.5
170
     2
 62
     0
 63
     7
283
     0
274
    -2
284
     1
 64
     0
275
    -2
285
     1
 65
     0
276
    -2
286
     1
 66
     0
277
    -2
287
     1
 67
     0
278
    -2
288
     1
 68
     0
279
    -2
289
     1
 69
     0
  7
STANDARD
140
6.0
170
     5
 62
     0
 63
     7
283
     0
274
    -2
284
     1
 64
     0
275
    -2
285
     1
 65
     0
276
    -2
286
     1
 66
     0
277
    -2
287
     1
 67
     0
278
    -2
288
     1
 68
     0
279
    -2
289
     1
 69
     0
  7
STANDARD
140
4.5
170
     5
 62
     0
 63
     7
283
     0
274
    -2
284
     1
 64
     0
275
    -2
285
     1
 65
     0
276
    -2
286
     1
 66
     0
277
    -2
287
     1
 67
     0
278
    -2
288
     1
 68
     0
279
    -2
289
     1
 69
     0
  0
XRECORD
  5
22A3
102
{ACAD_REACTORS
330
22A2
102
}
330
22A2
100
AcDbXrecord
280
     1
340
1E6B
  0
XRECORD
  5
22A4
102
{ACAD_REACTORS
330
22A2
102
}
330
22A2
100
AcDbXrecord
280
     1
340
1E6A
  0
DICTIONARYVAR
  5
1EDE
102
{ACAD_REACTORS
330
30
102
}
330
30
100
DictionaryVariables
280
     0
  1
STANDARD
  0
DICTIONARYVAR
  5
22A0
102
{ACAD_REACTORS
330
30
102
}
330
30
100
DictionaryVariables
280
     0
  1
1
  0
DICTIONARYVAR
  5
22A1
102
{ACAD_REACTORS
330
30
102
}
330
30
100
DictionaryVariables
280
     0
  1
0
  0
DICTIONARYVAR
  5
31
102
{ACAD_REACTORS
330
30
102
}
330
30
100
DictionaryVariables
280
     0
  1
1
  0
ACAD_PROXY_OBJECT
  5
44
102
{ACAD_REACTORS
330
43
102
}
330
43
100
AcDbProxyObject
 90
      499
 91
      519
 95
       25
 70
     0
 93
      118
310
405010040CA904C415CD5B075DD088
350
45
 94
        0
  0
DICTIONARY
  5
7A0
102
{ACAD_REACTORS
330
43
102
}
330
43
100
AcDbDictionary
281
     1
  3
JIS
350
7A1
  0
XRECORD
  5
1EC7
102
{ACAD_REACTORS
330
43
102
}
330
43
100
AcDbXrecord
280
     1
 90
-1023410169
  0
ACAD_PROXY_OBJECT
  5
33
330
2E
100
AcDbProxyObject
 90
      499
 91
      508
 95
       25
 70
     0
 93
      156
310
00010143D050D351505391D5531054925390D490
330
2E
 94
        0
  0
ACAD_PROXY_OBJECT
  5
34
330
2E
100
AcDbProxyObject
 90
      499
 91
      508
 95
       25
 70
     0
 93
      148
310
000101439050D351531253915054925390D490
330
2E
 94
        0
  0
ACAD_PROXY_OBJECT
  5
35
330
2E
100
AcDbProxyObject
 90
      499
 91
      509
 95
       25
 70
     0
 93
      156
310
000101439050D35154D6535093D314D256915080
330
2E
 94
        0
  0
ACAD_PROXY_OBJECT
  5
37
330
2E
100
AcDbProxyObject
 90
      499
 91
      511
 95
       25
 70
     0
 93
       88
310
000101411093D34C402B00
330
2E
330
0
330
0
 94
        0
  0
ACAD_PROXY_OBJECT
  5
79E
330
2E
100
AcDbProxyObject
 90
      499
 91
      509
 95
       25
 70
     0
 93
      108
310
00010142505351D153D35054D4E0
330
2E
 94
        0
  0
ACAD_PROXY_OBJECT
  5
79F
330
2E
100
AcDbProxyObject
 90
      499
 91
      525
 95
       25
 70
     0
 93
      140
310
00010142105350D55494D511005034A49530
330
2E
 94
        0
  0
ACAD_PROXY_OBJECT
  5
1E7D
330
2E
100
AcDbProxyObject
 90
      499
 91
      535
 95
       25
 70
     0
 93
      358
310
0001014124FEA55D00507392E322E302E32014124FEA55D00507392E322E302E3240501000041505391D311658
330
2E
330
1E7E
330
1E84
 94
        0
  0
ACAD_PROXY_OBJECT
  5
1E7E
330
2E
100
AcDbProxyObject
 90
      499
 91
      536
 95
       25
 70
     0
 93
       56
310
000190240E0000
330
2E
330
1E7F
330
1E81
 94
        0
  0
ACAD_PROXY_OBJECT
  5
1E7F
330
2E
100
AcDbProxyObject
 90
      499
 91
      537
 95
       25
 70
     0
 93
       48
310
0001AA000000
330
2E
330
1E
330
1E80
330
0
 94
        0
  0
ACAD_PROXY_OBJECT
  5
1E80
330
2E
100
AcDbProxyObject
 90
      499
 91
      538
 95
       25
 70
     0
 93
       28
310
0001AAA0
330
2E
 94
        0
  0
ACAD_PROXY_OBJECT
  5
1E81
330
2E
100
AcDbProxyObject
 90
      499
 91
      537
 95
       25
 70
     0
 93
       48
310
0001AA000000
330
2E
330
26
330
1E82
330
0
 94
        0
  0
ACAD_PROXY_OBJECT
  5
1E82
330
2E
100
AcDbProxyObject
 90
      499
 91
      538
 95
       25
 70
     0
 93
       28
310
0001AAA0
330
2E
 94
        0
  0
ACAD_PROXY_OBJECT
  5
1E85
330
2E
100
AcDbProxyObject
 90
      499
 91
      509
 95
       25
 70
     0
 93
      108
310
000101421053521310D05310D010
330
2E
 94
        0
  0
ACAD_PROXY_OBJECT
  5
1E86
330
2E
100
AcDbProxyObject
 90
      499
 91
      509
 95
       25
 70
     0
 93
      124
310
00010142905354915554D15112535010
330
2E
 94
        0
  0
ACAD_PROXY_OBJECT
  5
1E87
330
2E
100
AcDbProxyObject
 90
      499
 91
      509
 95
       25
 70
     0
 93
      132
310
00010143105354D150D51253D391125360
330
2E
 94
        0
  0
ACAD_PROXY_OBJECT
  5
1E88
330
2E
100
AcDbProxyObject
 90
      499
 91
      509
 95
       25
 70
     0
 93
      124
310
00010142905355941093D49111549010
330
2E
 94
        0
  0
ACAD_PROXY_OBJECT
  5
1E89
330
2E
100
AcDbProxyObject
 90
      499
 91
      509
 95
       25
 70
     0
 93
      116
310
0001014290535115D1D0D3D313D4A0
330
2E
 94
        0
  0
ACAD_PROXY_OBJECT
  5
1E8A
330
2E
100
AcDbProxyObject
 90
      499
 91
      509
 95
       25
 70
     0
 93
      148
310
00010143505355925155D49151949154D21010
330
2E
 94
        0
  0
ACAD_PROXY_OBJECT
  5
1E8B
330
2E
100
AcDbProxyObject
 90
      499
 91
      509
 95
       25
 70
     0
 93
      172
310
00010144105350539393D51154149154D15495915010
330
2E
 94
        0
  0
ACAD_PROXY_OBJECT
  5
1E8C
330
2E
100
AcDbProxyObject
 90
      499
 91
      509
 95
       25
 70
     0
 93
      172
310
00010144105350555513D11253505494905391D15010
330
2E
 94
        0
  0
ACAD_PROXY_OBJECT
  5
1E8D
330
2E
100
AcDbProxyObject
 90
      499
 91
      509
 95
       25
 70
     0
 93
      124
310
00010142D05351561514915191125360
330
2E
 94
        0
  0
ACAD_PROXY_OBJECT
  5
1E8E
330
2E
100
AcDbProxyObject
 90
      499
 91
      509
 95
       25
 70
     0
 93
      132
310
00010142D05355105410539393D5115010
330
2E
 94
        0
  0
ACAD_PROXY_OBJECT
  5
1E8F
330
2E
100
AcDbProxyObject
 90
      499
 91
      509
 95
       25
 70
     0
 93
      108
310
00010142105350555513D0D31010
330
2E
 94
        0
  0
ACAD_PROXY_OBJECT
  5
1E90
330
2E
100
AcDbProxyObject
 90
      499
 91
      509
 95
       25
 70
     0
 93
      108
310
00010142105350D3119150551050
330
2E
 94
        0
  0
ACAD_PROXY_OBJECT
  5
1E91
330
2E
100
AcDbProxyObject
 90
      499
 91
      509
 95
       25
 70
     0
 93
      108
310
00010142105350D315925155D3F0
330
2E
 94
        0
  0
ACAD_PROXY_OBJECT
  5
1E92
330
2E
100
AcDbProxyObject
 90
      499
 91
      509
 95
       25
 70
     0
 93
      148
310
0001014350535212511156915493D112535010
330
2E
 94
        0
  0
ACAD_PROXY_OBJECT
  5
1E93
330
2E
100
AcDbProxyObject
 90
      499
 91
      509
 95
       25
 70
     0
 93
      124
310
00010142905352105510D21254D3D010
330
2E
 94
        0
  0
ACAD_PROXY_OBJECT
  5
1E94
330
2E
100
AcDbProxyObject
 90
      499
 91
      509
 95
       25
 70
     0
 93
      148
310
00010143905354D25391D31152105513105660
330
2E
 94
        0
  0
ACAD_PROXY_OBJECT
  5
1E95
330
2E
100
AcDbProxyObject
 90
      499
 91
      509
 95
       25
 70
     0
 93
      124
310
00010142D0535115D1D193111254D420
330
2E
 94
        0
  0
ACAD_PROXY_OBJECT
  5
1E96
330
2E
100
AcDbProxyObject
 90
      499
 91
      509
 95
       25
 70
     0
 93
      100
310
00010142105350555513D213A0
330
2E
 94
        0
  0
ACAD_PROXY_OBJECT
  5
1E97
330
2E
100
AcDbProxyObject
 90
      499
 91
      509
 95
       25
 70
     0
 93
      116
310
000101425053521390D3D553951010
330
2E
 94
        0
  0
ACAD_PROXY_OBJECT
  5
1E98
330
2E
100
AcDbProxyObject
 90
      499
 91
      509
 95
       25
 70
     0
 93
      108
310
0001014210535213941493D29010
330
2E
 94
        0
  0
ACAD_PROXY_OBJECT
  5
1E99
330
2E
100
AcDbProxyObject
 90
      499
 91
      509
 95
       25
 70
     0
 93
      108
310
0001014210535213951654115070
330
2E
 94
        0
  0
ACAD_PROXY_OBJECT
  5
1E9A
330
2E
100
AcDbProxyObject
 90
      499
 91
      509
 95
       25
 70
     0
 93
      108
310
000101421053521395925155D0F0
330
2E
 94
        0
  0
ACAD_PROXY_OBJECT
  5
1E9B
330
2E
100
AcDbProxyObject
 90
      499
 91
      509
 95
       25
 70
     0
 93
      140
310
00010143505354D150D51253D390D3D41660
330
2E
 94
        0
  0
ACAD_PROXY_OBJECT
  5
1E9C
330
2E
100
AcDbProxyObject
 90
      499
 91
      509
 95
       25
 70
     0
 93
      108
310
00010142105350D3141493D29030
330
2E
 94
        0
  0
ACAD_PROXY_OBJECT
  5
1E9D
330
2E
100
AcDbProxyObject
 90
      499
 91
      508
 95
       25
 70
     0
 93
      212
310
00010143905350555513D2105510D21493D500000000000002E400
330
2E
 94
        0
  0
ACAD_PROXY_OBJECT
  5
1E9E
330
2E
100
AcDbProxyObject
 90
      499
 91
      509
 95
       25
 70
     0
 93
      156
310
00010143905350555513D2105510D21111551010
330
2E
 94
        0
  0
ACAD_PROXY_OBJECT
  5
1EAC
330
2E
100
AcDbProxyObject
 90
      499
 91
      546
 95
       25
 70
     0
 93
      698
310
0001000000009AA6A9AA4051E547565204175672032342030313A32363A343720323031302028555443290141CE4B8C8B8C0B8C80518547565205365702032382030383A32363A353220323031300141CE4B8C8B8C0B8C80
330
2E
330
1EAD
330
1EAE
330
1EB0
330
0
 94
        0
  0
ACAD_PROXY_OBJECT
  5
1EAD
330
2E
100
AcDbProxyObject
 90
      499
 91
      547
 95
       25
 70
     0
 93
       70
310
0001AAA80820000000
330
2E
330
1EAD
330
1EAD
 94
        0
  0
ACAD_PROXY_OBJECT
  5
1EAE
330
2E
100
AcDbProxyObject
 90
      499
 91
      548
 95
       25
 70
     0
 93
       48
310
000100000000
330
2E
330
0
330
1EAF
330
0
330
0
 94
        0
  0
ACAD_PROXY_OBJECT
  5
1EAF
330
2E
100
AcDbProxyObject
 90
      499
 91
      549
 95
       25
 70
     0
 93
       40
310
000100AAAA
330
2E
330
0
 94
        0
  0
ACAD_PROXY_OBJECT
  5
1EB5
330
2E
100
AcDbProxyObject
 90
      499
 91
      525
 95
       25
 70
     0
 93
      180
310
00010143105050D3D35411119390535140504434F4D500
330
2E
 94
        0
  0
ACAD_PROXY_OBJECT
  5
1EB6
330
2E
100
AcDbProxyObject
 90
      499
 91
      525
 95
       25
 70
     0
 93
      212
310
0001014390505193D311115491119390535140506466F6C6465720
330
2E
 94
        0
  0
ACAD_PROXY_OBJECT
  5
1EB7
330
2E
100
AcDbProxyObject
 90
      499
 91
      525
 95
       25
 70
     0
 93
      180
310
00010143105050539393D1119390535140504284156290
330
2E
 94
        0
  0
ACAD_PROXY_OBJECT
  5
1EB8
330
2E
100
AcDbProxyObject
 90
      499
 91
      525
 95
       25
 70
     0
 93
      436
310
00010143905050D3D35415925155D31254D50052295BD96CA0A90B396CA0A894591A496CA0A8DB691A496CA0A89BA96CA0A95E28F95310
330
2E
 94
        0
  0
ACAD_PROXY_OBJECT
  5
1EBD
330
2E
100
AcDbProxyObject
 90
      499
 91
      554
 95
       25
 70
     0
 93
       32
310
00010000
330
2E
340
1EBA
330
1EBF
330
1EBA
 94
        0
  0
ACAD_PROXY_OBJECT
  5
1EBE
330
2E
100
AcDbProxyObject
 90
      499
 91
      555
 95
       25
 70
     0
 93
       18
310
000180
330
2E
 94
        0
  0
ACAD_PROXY_OBJECT
  5
1EBF
330
2E
100
AcDbProxyObject
 90
      499
 91
      556
 95
       25
 70
     0
 93
      194
310
0001014351D111548C8D4C8D4B4E0C4D54D050055401550000
330
2E
330
1EBD
330
1EBE
 94
        0
  0
ACAD_PROXY_OBJECT
  5
1EC0
330
2E
100
AcDbProxyObject
 90
      499
 91
      557
 95
       25
 70
     0
 93
      178
310
000100AAAAAAA4261C6BBA958F9220091F6ECA925B0A40
330
2E
330
1EBF
 94
        0
  0
ACAD_PROXY_OBJECT
  5
1EC1
330
2E
100
AcDbProxyObject
 90
      499
 91
      558
 95
       25
 70
     0
 93
      108
310
000190140A000000000000AAAAA0
330
2E
330
1EC2
330
1EC2
330
1EC2
330
1EC2
330
1EC2
330
0
 94
        0
  0
ACAD_PROXY_OBJECT
  5
1EC2
330
2E
100
AcDbProxyObject
 90
      499
 91
      559
 95
       25
 70
     0
 93
       51
310
00010000AAAA80
330
2E
330
1EC1
330
1EBF
 94
        0
  0
DICTIONARY
  5
40
102
{ACAD_REACTORS
330
3F
102
}
330
3F
100
AcDbDictionary
281
     1
  3
DWGSETTINGS
350
41
  3
FEM
350
54
  3
Shaft
350
53
  3
TRANSSETTINGS
350
42
  0
ACAD_PROXY_OBJECT
  5
47
102
{ACAD_REACTORS
330
3F
102
}
330
3F
100
AcDbProxyObject
 90
      499
 91
      521
 95
       25
 70
     0
 93
    23232
310
41502491013041105357CC201C00030C011E441013141105357CC603800030C011E441013241105357CCA01400030C011E441013341105357CCE01800030C010D9013441105357CD200C00030C010D9013541105357CD600C00030C010D9013641105357CDA00800030C011E9013741105357CDE01000030C010D901384110
310
5357CE200400030C011E9013941105357CE63F400030C0241102324141505357CC4C201C00030C011E902344141505357CC4C600C00030C010D902495041505357CC4CA01C00030C011E40902304E41505357CC13A01C00030C011E902314E41505357CC53A03800030C011E902324E41505357CC93A01400030C011E90233
310
4E41505357CCD3A01800030C010D902344E41505357CD13A00C00030C010D902354E41505357CD53A00C00030C010D902364E41505357CD93A00800030C011E902374E41505357CDD3A01000030C010D902384E41505357CE13A00400030C011E902394E41505357CE53A3F400030C024110332414E41905357CC4C13A01C0
310
0030C011E90334414E41905357CC4C53A00C00030C010D90349504E41905357CC4C93A01C00030C011E409044B4C494E41505357D0D3200400030C011E42504494E464F42105357D410549151A01000030C010D42D055241484D3541905357D093D4A01C00030C011E425045649455742105357D5925155D4E00400030C011
310
E42D06424548494E4441905357D25395A3F400030C0243505545241494C41505357D514A00C00030C010D4250348494441905357D21251201C00030C011E4250356495341905357D59254E01C00030C011E4250650415244494D42505357D41054911253600C00030C010D4250652454644494D42505357D49151911253601
310
000030C010D425774110531514901348070000C300479034110915312501348000000C0003FFFFFFFD034110921395901398000000C0003FFFFFFFE415092139594D06424548494E448000000C0003FFFFFFFE411093125110234418000000C0003FFFFFFFD03411093D05410234418000000C0003FFFFFFFD03411093D48C
310
9055241484D358010000C30047A411093D48CD055241484D358020000C30047A411093D48D5055241484D358000000C0003FFFFFFFE411093D48DD055241484D3581E0000C30047903411094105410234418000000C0003FFFFFFFD03411094115610234418000000C0003FFFFFFFD034110951112501358000000C0003FFF
310
FFFFD034110D0530C901348000000C0003FFFFFFFE4110D0530CD01348020000C30047A4110D0530D501348070000C30047A4110D0530DD013481E0000C30047A4110D15393901378000000C0003FFFFFFFE4110D15395D01378000000C0003FFFFFFFE4110D312539044B4C494E8000000C0003FFFFFFFE4110D3D38C5013
310
08000000C0003FFFFFFFD034110D3D38C901318000000C0003FFFFFFFD034110D3D38CD01328000000C0003FFFFFFFD034110D3D38D101328000000C0003FFFFFFFD034111115494101348000000C0003FFFFFFFD034111115510501348000000C0003FFFFFFFE4111125051D01358000000C0003FFFFFFFE4111125312501
310
358000000C0003FFFFFFFE411112535410650415244494D8000000C0003FFFFFFFE411112535490652454644494D8000000C0003FFFFFFFE411156135410234418000000C0003FFFFFFFD034111915353901388000000C0003FFFFFFFE415191535413901388030000C3004364151915354D410234418000000C0003FFFFFF
310
FE4151915354D510234418030000C300436415191535593901328000000C0003FFFFFFFE415191535595101328030000C3004364111931055101308000000C0003FFFFFFFD03411194905490234418000000C0003FFFFFFFD034111D49312501358000000C0003FFFFFFFD034111D5931250234418000000C0003FFFFFFFD0
310
34112105510D01388000000C0003FFFFFFFD014112125113901338000000C0003FFFFFFFD034112125115D01338000000C0003FFFFFFFD034112131253901348000000C0003FFFFFFFD01411213D0D3901378000000C0003FFFFFFFE411213D0D5D01378000000C0003FFFFFFFE4112539193D04494E464F8000000C0003FF
310
FFFFFE4113105112501348000000C0003FFFFFFFD034113115051101358000000C0003FFFFFFFE419397D0921395902394E8000000C0003FFFFFFFE419397D0D3D38C502304E8000000C0003FFFFFFFD03419397D0D3D38C902314E8000000C0003FFFFFFFD03419397D0D3D38CD02324E8000000C0003FFFFFFFD03419397
310
D0D3D38D102324E8000000C0003FFFFFFFD03419397D0D15393902374E8000000C0003FFFFFFFE419397D0D15395D02374E8000000C0003FFFFFFFE419397D1125312502354E8000000C0003FFFFFFFE419397D2105510D02384E8000000C0003FFFFFFFD01419397D2125113902334E8000000C0003FFFFFFFD03419397D2
310
125115D02334E8000000C0003FFFFFFFD03419397D3115051102354E8000000C0003FFFFFFFE419397D391D25410349504E8000000C0003FFFFFFFE419397D412105390334414E8000000C0003FFFFFFFE419397D510D3D3902304E8000000C0003FFFFFFFD03419397D5121312502344E8000000C0003FFFFFFFD01419397
310
D5131153902304E8000000C0003FFFFFFFD03419397D516150CD02364E8000000C0003FFFFFFFD03419397D594131250332414E8000000C0003FFFFFFFE411391D25410249508000000C0003FFFFFFFE411410530C9055241484D358010000C30047A411410530CD055241484D358020000C30047A411410530D5055241484
310
D358000000C0003FFFFFFFE411410530DD055241484D3581E0000C30047903411412105390234418000000C0003FFFFFFFE411413D4D3901368070000C30047A419413D4D49151901368050000C30047903411413D4D6101368000000C0003FFFFFFFD03411414D150D0234418000000C0003FFFFFFFD03411490D1D390137
310
8000000C0003FFFFFFFE411490D1D5D01378000000C0003FFFFFFFE4114919112501348000000C0003FFFFFFFD034114945514901348070000C30047903411494D093D01348000000C0003FFFFFFFD034114D09492D01348000000C0003FFFFFFFD014114D0D153901378000000C0003FFFFFFFD034114D150D51013480000
310
00C0003FFFFFFFD014114D15313901378000000C0003FFFFFFFD034114D15315D01378000000C0003FFFFFFFD034114D4D654D01308000000C0003FFFFFFFD034114D51312501348070000C300479034114D6508C501358000000C0003FFFFFFFD034114D6508C901358000000C0003FFFFFFFD034114D6508CD0135802000
310
0C30047A4114D6508D501358070000C300479034114D65353901378000000C0003FFFFFFFD034114D65355D01378000000C0003FFFFFFFD03411510D3D3901308000000C0003FFFFFFFD034115121312501348000000C0003FFFFFFFD01411512550C9055241484D358010000C30047A411512550CD055241484D358020000
310
C30047A411512550D5055241484D358000000C0003FFFFFFFE411512550DD055241484D3581E0000C300479034115131153901308000000C0003FFFFFFFD03415514905253105545241494C8000000C0003FFFFFFFE41151492D3901378000000C0003FFFFFFFD0341151492D5D01378000000C0003FFFFFFFD03411514931
310
2501348000000C0003FFFFFFFD01411516150C501368030000C300436411516150C901368030000C300436411516150CD01368000000C0003FFFFFFFE411516150D501368070000C30047A411516150DD013681E0000C30047A4115925155D04564945578000000C0003FFFFFFFE41159151121034849448000000C0003FFF
310
FFFFD0241159151159035649538000000C0003FFFFFFFD02411594131250232418000000C0003FFFFFFFE4116925690501348000000C0003FFFFFFFD01411354D653501358020000C30047AAAA3F400030C01013F90A4051E4091E40D0D4110D4151E4190D41D1E4391E4791E7F6
340
16
340
16
340
16
340
48
340
16
340
16
340
16
340
49
340
16
340
16
340
49
340
4A
340
16
340
16
340
16
340
16
340
48
340
16
340
16
340
16
340
49
340
16
340
16
340
49
340
4A
340
16
340
4B
340
16
340
16
340
16
340
16
340
16
340
48
340
16
340
16
340
16
340
4C
340
15
340
15
340
15
340
15
340
15
340
15
340
15
340
15
340
15
340
15
340
15
340
15
340
15
340
15
340
15
340
15
340
4D
340
15
340
15
340
15
340
15
340
15
340
15
340
15
340
15
340
15
340
15
340
15
340
15
340
15
340
15
340
15
340
16
340
15
340
15
340
15
340
15
340
15
340
15
340
15
340
15
340
4C
340
15
340
15
340
4D
340
15
340
15
340
15
340
15
340
15
340
15
340
15
340
15
340
15
340
4D
340
15
340
15
340
15
340
4C
340
15
340
15
340
15
340
15
340
15
340
15
340
15
340
15
340
15
340
15
340
15
340
15
340
15
340
15
340
15
340
15
340
15
340
15
340
15
340
4D
340
15
340
15
340
4D
340
15
340
15
340
16
340
15
340
4D
340
15
340
15
340
4C
340
15
340
15
340
16
340
15
340
4D
340
15
340
15
340
15
340
15
340
15
340
15
340
15
340
15
340
15
340
4D
340
15
340
15
340
15
340
15
340
15
340
15
340
15
340
15
340
15
340
15
340
15
340
50
340
16
 94
        0
  0
ACAD_PROXY_OBJECT
  5
AE3
102
{ACAD_REACTORS
330
59
102
}
330
59
100
AcDbProxyObject
 90
      499
 91
      522
 95
       25
 70
     0
 93
      253
310
43D1444494D454E53494F4E2C414D44545F2A5F44494D404A9012A404A9012A0
  0
ACAD_PROXY_OBJECT
  5
AE4
102
{ACAD_REACTORS
330
59
102
}
330
59
100
AcDbProxyObject
 90
      499
 91
      522
 95
       25
 70
     0
 93
      181
310
43D012A42D05357D191504B505357CA9012A404A9012A8
  0
ACAD_PROXY_OBJECT
  5
AE5
102
{ACAD_REACTORS
330
59
102
}
330
59
100
AcDbProxyObject
 90
      499
 91
      522
 95
       25
 70
     0
 93
      133
310
43D054841544348404A9012A404A9012A8
  0
ACAD_PROXY_OBJECT
  5
AE6
102
{ACAD_REACTORS
330
59
102
}
330
59
100
AcDbProxyObject
 90
      499
 91
      522
 95
       25
 70
     0
 93
      549
310
43D044C494E4549CE0B0E138B0A8B4E0B0A8B4E138B105357CE0B105357CE138B0A8B505357CE0B0A8B505357CE139012A404A910494E534552542C5354445041525432448
  0
ACAD_PROXY_OBJECT
  5
AE7
102
{ACAD_REACTORS
330
59
102
}
330
59
100
AcDbProxyObject
 90
      499
 91
      522
 95
       25
 70
     0
 93
      909
310
43D6641434D46434652414D452C41434D444154554D5441524745542C41434D444154554D49442C41434D57454C4453594D2C41434D5355524653594D2C41434D4645415449442C41434D504152545245462C41434D42414C4C4F4F4E2C414D44544544474553594D404A9012A404A9012A8
  0
XRECORD
  5
1E66
102
{ACAD_REACTORS
330
1E65
102
}
330
1E65
100
AcDbXrecord
280
     1
  1
PV
 40
1.0
 50
-12032.11369774729
 51
-8451.127478179642
 52
11974.81791823421
 53
8508.423257692724
  0
ACAD_PROXY_OBJECT
  5
45
102
{ACAD_REACTORS
330
44
102
}
330
44
100
AcDbProxyObject
 90
      499
 91
      520
 95
       25
 70
     0
 93
      157
310
057356C1D77406406AA8FFFFFFFF05DD01009010
330
1F
330
0
330
1EBF
 94
        0
  0
ACAD_PROXY_OBJECT
  5
7A1
102
{ACAD_REACTORS
330
7A0
102
}
330
7A0
100
AcDbProxyObject
 90
      499
 91
      526
 95
       25
 70
     0
 93
     2379
310
5DC33333333333309408000000C00040D29254D01640600800030C0200800030C003333333333330940C8121E8720B1B6A9BAB9332A32BC3A29BA3220480A1282C6DA8C868CA6E8C88120286A0B1B6ABB2B63234B733A9BA3220480A1082C6DA92C8A6E8C88120285A0B1B6A230BA3AB6A9BA3220480A1282C6DA849E9AA6E
310
8C88120286A0B1A0B6B3AA34BA3632A9BA3220480A2082DAC8E888CAE8C2D2D8A6F2DAA6E8C88120288A0B6B23A29B2B1BA34B7B729BCB6A9BA3220480A2282DAC8E886CADCE8CAE498D2DCCAA6E8C88120288A0B6B23A2A343932B0B22634B732A9BA3220480A1682DAC8E89CDEE8CAA6E8C88120285A0B1A0B6B3A630BCA
310
9BA3220480A1682C682DACE88D2DAA6E8C88120288A0B1A0B6B3A437B632A1B430B93A29BA3220480C812020
340
7A2
360
7A3
360
7A4
360
7A5
360
7A6
360
7A7
360
7A8
360
1EC4
360
1EC5
360
1EC6
360
1EC8
360
1EC9
360
1ECA
360
1ED0
360
1ED1
360
1ED2
340
0
340
0
 94
        0
  0
ACAD_PROXY_OBJECT
  5
41
102
{ACAD_REACTORS
330
40
102
}
330
40
100
AcDbProxyObject
 90
      499
 91
      518
 95
       25
 70
     0
 93
     2600
310
4050B44574753455454494E4753A0E8482A68AA6A88882A069492A684A1A0A723A0A92920ACA0A8419983E1A1ABE1B1820C868A9C829C8E82A12686AF87260F862666A8321A2A72224A0A50000000000000122020E868A9C889282A682A106260F86460F8666083A1A2A72224A9AA250000000000000042020C868A9C988A9
310
C94000000000000048808321A2A727A32325000000000000012202128698929C82A4A482B282A0A66665C64608421A624A722AA2CA820A82AC2624A722A1288AE8EAAA68682988A94283A620A9AA27A12520A80982109A82968AAC928AAE9FA04832829A1A0A622830020000419491559254D2505404C1055343414C454150
310
3313A314214D510539110549110540D29254D0954494D455354414D504A062805201742B734141D5915494D253D3905414C4D4B8C0C1107B44574753455454494E4753454E447D
  0
ACAD_PROXY_OBJECT
  5
54
102
{ACAD_REACTORS
330
40
102
}
330
40
100
AcDbProxyObject
 90
      499
 91
      518
 95
       25
 70
     0
 93
      411
310
4050346454D21092DCC6E486DECACC942842630BCA3B937BAB820A8320A6AFA322A0A20F688AE8EA68AA8A8929C8EA68A9C88FA0
  0
ACAD_PROXY_OBJECT
  5
53
102
{ACAD_REACTORS
330
40
102
}
330
40
100
AcDbProxyObject
 90
      499
 91
      518
 95
       25
 70
     0
 93
      591
310
40505536861667421292DCE8CAE4E4EAE0E89FC84A634B3B43A2634B732A7E80A1A98D2CED0E898D2DCCAACD2CAEE9FA028229B4B232A7E80A20F688AE8EA68AA8A8929C8EA68A9C88FA
  0
ACAD_PROXY_OBJECT
  5
42
102
{ACAD_REACTORS
330
40
102
}
330
40
100
AcDbProxyObject
 90
      499
 91
      518
 95
       25
 70
     0
 93
      852
310
4050D5452414E5353455454494E4753A2488A482AE929C8EA8A4829CA69882A8929E9C0C00800050D4F524947494E414C4C595F4F4E0600400028529A7AAA921A2A620A723A0A81A52827212AAA0A48AA68AA4AC8A0C0080001107B44574753455454494E4753454E447D0
  0
ACAD_PROXY_OBJECT
  5
7A3
330
7A1
100
AcDbProxyObject
 90
      499
 91
      527
 95
       25
 70
     0
 93
       86
310
5DEA0C80A0280A0280A034
  0
ACAD_PROXY_OBJECT
  5
7A4
330
7A1
100
AcDbProxyObject
 90
      499
 91
      528
 95
       25
 70
     0
 93
      282
310
5DD0E4050140501405014050140501405014050141101405014041000000000000001000
340
7A9
 94
        0
  0
ACAD_PROXY_OBJECT
  5
7A5
330
7A1
100
AcDbProxyObject
 90
      499
 91
      529
 95
       25
 70
     0
 93
      323
310
5DCC199999999999E99F91740501405014050140501405014050140501405014050140501405014040
340
0
 94
        0
  0
ACAD_PROXY_OBJECT
  5
7A6
330
7A1
100
AcDbProxyObject
 90
      499
 91
      530
 95
       25
 70
     0
 93
       10
310
5DC0
  0
ACAD_PROXY_OBJECT
  5
7A7
330
7A1
100
AcDbProxyObject
 90
      499
 91
      531
 95
       25
 70
     0
 93
      257
310
5DE0C16A22A7D90F49F80000000000001081400000000000004204010000618000
340
7AA
340
7AB
 94
        0
  0
ACAD_PROXY_OBJECT
  5
7A8
330
7A1
100
AcDbProxyObject
 90
      499
 91
      532
 95
       25
 70
     0
 93
     5277
310
5DD06411255115350141236025B6901405014069010000000000000910240690120281A8AA2CA0282484A4BE52028120280A032020000000000001220480D202405044E414D454050496BC914F4051C40640A80000000000004E4090193C3D3C4946284953424C414E4B28504152543A4E414D45292C424C4F434B3A4E414D
310
452C504152543A4E414D45293E3C41435F44455343524950544E3E40480A109A82A88AA492829880A091BBD2F7E80A3A80C81D0E27A15AF46E08A81203480901411393D5115014124A363B7D0147501904A0000000000000F902406428F4F1050D7D393D5114F901202832B22A72227A92028366EF6EE06F582028EA0320B4
310
0000000000001F20480C879E9E20A1AFAB27222FA620A122A61F20240506445020000000000000490201C00030C00010180000000000003E400000000000000F901073D3C4954454D3E4050180000000000003E400000000000000F901073D3C4954454D3E40501800000000000034400000000000000D101073D3C4954454
310
D3E40501800000000000034400000000000000D101073D3C4954454D3E405029010000000000000F9000000000000003E4041CF4F125511534F901418F4F1455164F9014060000000000000F9000000000000003E4041CF4F125511534F901800000000000034400000000000000D101073D3C4954454D3E40640400000000
310
0000003E400000000000000F90288800000000000020810000001800120881A068120480A032208521122080D21480D211480A1485214852050000000000003C2FC000000000000F0BF40600800030C0200400030C00CDCCCCCCCCCCEC3F3373333333333B0FC3333333333330940C80D069014090341504901A1999999999
310
9984A040100006180400800061804010000618008098A02808
340
0
340
0
 94
        0
  0
ACAD_PROXY_OBJECT
  5
1EC4
330
7A1
100
AcDbProxyObject
 90
      499
 91
      560
 95
       25
 70
     0
 93
     3042
310
5DD9740D29254D064A49535F413342929254D7D512551311505134A49535F42525F5265766973696F6E6C6973744190F4134522028323937783231306D6D2941D29254D7D04D1490E41312028353934783834316D6D2941929254D7D04C50F41344C2028323130783239376D6D2941D29254D7D04D1310E413320283239377
310
83432306D6D2941929254D7D04CD0E41322028343230783539346D6D2941929254D7D04C90F4130202838343178313138396D6D2941929254D7D04C10243129254C82557247A25E4C81050A4A49535F5449544C454143129254C82557247A25E4C81090A4A49535F5449544C45424110E979A97F0838A835883675F42525F4
310
4D29254D7D09497D4995D9A5CDA5BDB9B1A5CDD10E979A97F0838A835883675F54525F44D29254D7D51497D4995D9A5CDA5BDB9B1A5CDD10E979A97F0838A835883675F424C5F44D29254D7D09317D4995D9A5CDA5BDB9B1A5CDD10E979A97F0838A835883675F544C5F44D29254D7D51317D4995D9A5CDA5BDB9B1A5CDD00
  0
ACAD_PROXY_OBJECT
  5
1EC5
330
7A1
100
AcDbProxyObject
 90
      499
 91
      561
 95
       25
 70
     0
 93
      898
310
5DC4000000000000124048CF4F11115510525317D3105091530F880A0F11115510525317D05094D4D0D053114F8A50241C9A9999999999B93F26A666666666724FC000000000000E03F400000000000000400000000000000510000000000000024408070000C300000000000000049000
340
16
340
7A2
 94
        0
  0
ACAD_PROXY_OBJECT
  5
1EC6
330
7A1
100
AcDbProxyObject
 90
      499
 91
      562
 95
       25
 70
     0
 93
      823
310
5DC0B00000000000002480959E9E29A2A1AA24A7A72FA620A122A62FA324A929AA1F169E29A2A1AA24A7A72FA620A122A62FA620A9AA1F000000000000048803FFFE01C00030C008140380006180000000000000048800000000000000A2000000000000002480
340
118
340
7A2
 94
        0
  0
ACAD_PROXY_OBJECT
  5
1EC8
330
7A1
100
AcDbProxyObject
 90
      499
 91
      563
 95
       25
 70
     0
 93
      152
310
5DE8273108AC1C5A0640A3D0A5723F0BD1F200
  0
ACAD_PROXY_OBJECT
  5
1EC9
330
7A1
100
AcDbProxyObject
 90
      499
 91
      564
 95
       25
 70
     0
 93
       14
310
5DE0
340
0
 94
        0
  0
ACAD_PROXY_OBJECT
  5
1ECA
330
7A1
100
AcDbProxyObject
 90
      499
 91
      565
 95
       25
 70
     0
 93
     6059
310
5DD084050BA4050AA405024050E836583938376838C815B83672031405983D3C486F6C653A6469613E3C696628657175616C28486F6C653A7465726D696E6174696F6E2C223022292C2220905B82B320222C22208368838A838B22293E3C696628657175616C28486F6C653A7465726D696E6174696F6E2C223022292C486F
310
6C653A64657074682C2222293E2C203C486F6C653A63746469613E2082B482AE82E882CC905B82B3203C486F6C653A637464657074683E406901405034050E836583938376838C815B83672031405EF3D3C486F6C653A6374616E676C653E252564202525633C486F6C653A63746469613E208E4D8C8A2C203C69662865717
310
5616C28486F6C653A7461707065642C223022292C22252563222C486F6C653A6E6F6D696E616C202220782022293E3C696628657175616C28486F6C653A7461707065642C223022292C486F6C653A6469612C486F6C653A706974636864657363293E203C696628657175616C28486F6C653A7465726D696E6174696F6E2C2
310
23022292C22905B82B320222C222022293E3C696628657175616C28486F6C653A7465726D696E6174696F6E2C223022292C486F6C653A64657074682C2222293E406901405014050E836583938376838C815B83672031405C73D3C696628657175616C28486F6C653A7461707065642C223022292C22252563222C486F6C65
310
3A6E6F6D696E616C202220782022293E3C696628657175616C28486F6C653A7461707065642C223022292C486F6C653A6469612C486F6C653A706974636864657363293E203C696628657175616C28486F6C653A7465726D696E6174696F6E2C223022292C22905B82B320222C222022293E3C696628657175616C28486F6C
310
653A7465726D696E6174696F6E2C223022292C486F6C653A64657074682C2222293E4069014051E4090E836583938376838C815B83672032405173D3C535444503A444553433E203C535444503A5354443E40690E836583938376838C815B836720314050C3D3C535444503A444553433E40690240515AAABBA120
360
1ECE
330
1ECE
360
1ECF
330
1ECF
360
1ECD
330
1ECD
360
1ECC
360
1ECB
330
1ECC
330
1ECB
 94
        0
  0
ACAD_PROXY_OBJECT
  5
1ED0
330
7A1
100
AcDbProxyObject
 90
      499
 91
      567
 95
       25
 70
     0
 93
       26
310
5DD02A80
340
47
 94
        0
  0
ACAD_PROXY_OBJECT
  5
1ED1
330
7A1
100
AcDbProxyObject
 90
      499
 91
      568
 95
       25
 70
     0
 93
      250
310
5DD020000000000000A1000000000000002440408F0F9023C3E409A0DCFFFF80
340
69
340
0
340
0
340
70
340
71
340
72
340
73
340
74
340
79
340
0
 94
        0
  0
ACAD_PROXY_OBJECT
  5
1ED2
330
7A1
100
AcDbProxyObject
 90
      499
 91
      569
 95
       25
 70
     0
 93
    13889
310
5DD1D003FFFFFFFD030300030CCCCCCCCCCCC250200800030C01030300030CCCCCCCCCCCC250200800030C00050C8DC0955782CC838A83588367014ED1D15395149050D3CB1294138B0C0B23702555E0B320E2A0D620D9CB11D15395149055160B095CCB0A11D1539354D1C819D95B991A5B5E880CCC0A78000C0000000000
310
00000000000000000000010CCCCCCCCCCCC250200800030C010CCCCCCCCCCCC250200800030C020143CF4F111959985D5B1D151A5D1B194F8050A8C8A8365815B8375838B014E51D15395149050D3CB1294138B0C0B2322A0D96056E0DD60E2CB11D15395149055160B095CCB0A11D1539354D1C819D95B991A5B5E880CCC4
310
A78000C000000000000000000000000000000010CCCCCCCCCCCC250200800030C010CCCCCCCCCCCC250200800030C020143CF4F111959985D5B1D151A5D1B194F90D44111409034110541D0C4350F4050E44D03449074510F000141232D24D7C053247454E545241434F2C4A504E2C302C8CB4935F2C47454E54524154582C
310
25732C2847454E4D53472067656E64696D7A20312900010104002214000281464500A608E8A9CA8A482869E5894A09C5860591914588E8A9CA8A482A8B0584AE658508E8A9C9AA68E40CECADCC8D2DAF4406452029E9E9E27B934B3B4B71F1E24A31427A91424A9A12620A7259427B934B3B4B7149624A9A12620A7259424B
310
A32B6949496111116111711149F1E24BA32B69F00808200111A000140560052F47454E545241434F2C4A504E2C302C582C47454E54524154582C25732C2847454E4D53472067656E64696D7A20332900010100002054000280AC80A5E8E8A9CA8A482869E5894A09C586058B2588E8A9CA8A482A8B0584AE658508E8A9C9AA
310
68E40CECADCC8D2DAF4406852000202000040E800050152014BD1D15395149050D3CB1294138B0C0B148B11D15395149055160B095CCB0A11D1539354D1C819D95B991A5B5E880D8A400040400008250000A0507A6029823A2A72A2920A1A79625282716181641E99623A2A72A2920AA2C1612B9961423A2A726A9A39033B2
310
B73234B6BD101B948000808180105A000140A0F4C053047454E545241434F2C4A504E2C302C83D32C47454E54524154582C25732C2847454E4D53472067656E64696D7A203829000101010020F400028248704B5F00A668E8A9CA8A482869E5894A09C58605921C12D7C588E8A9CA8A482A8B0584AE658508E8A9C9AA68E40
310
CECADCC8D2DAF440646052000200080043280005048B4B8A69014CD1D15395149050D3CB1294138B0C0B22D2E29A4B11D15395149055160B095CCB0A11D1539354D1C819D95B991A5B5E880C8C4A4000400100086D0000A09196926BE029923A2A72A2920A1A796252827161816465A49AF9623A2A72A2920AA2C1612B9961
310
423A2A726A9A39033B2B73234B6BD10189480A02620202080043E80005048D8096DA014CD1D15395149050D3CB1294138B0C0B236025B68B11D15395149055160B095CCB0A11D1539354D1C819D95B991A5B5E880C4D0A4000404140280D0000A190687072706CD06C5069D06B0029DA3A2A72A2920A1A7962528271618164
310
1A1C1C9C1B341B141A741AC1623A2A72A2920AA2C1612B9961423A2A726A9A39033B2B73234B6BD10189A94800080820050EA000143A322A0D0E0E4E0D9A0D8A0D3A0D60053D47454E545241434F2C4A504E2C302C8C8A8343839383668362834E83582C47454E54524154582C25732C2847454E4D53472067656E64696D7A
310
2031372900010105002274000281464500A628E8A9CA8A482869E5894A09C5860591914588E8A9CA8A482A8B0584AE658508E8A9C9AA68E40CECADCC8D2DAF440626C52000202080044A8000504909497CA014CD1D15395149050D3CB1294138B0C0B242525F28B11D15395149055160B095CCB0A11D1539354D1C819D95B9
310
91A5B5E880C4E4A400040418008A521E000000000000001CA040C00000000000034408080000000000006881010000000000000D102040000000000001A204080000000000003440818000000000000728103000000000000125020600000000004028A040000000000000034408000000000000004881000000000000000D
310
102000000000000001A204000000000000003440818000000000000508143C0000000000000039408180000000000006881030000000000000D102060000000000001A2040C00000000000034408180000000000006881030000000000000E5020600000000000024A040C0000000000805140800000000000000688100000
310
00000000009102000000000000001A2040000000000000034408180000000000006881030000000000000A10284220000000878000002020000008380000020400000081800000208000000828000002028900000000
340
0
340
0
340
0
340
0
340
7A2
340
7A2
 94
        0
  0
ACAD_PROXY_OBJECT
  5
1ECE
330
1ECA
100
AcDbProxyObject
 90
      499
 91
      566
 95
       25
 70
     0
 93
     1376
310
5DE0143A0D960E4E0DDA0E32056E0D9C80C405983D3C486F6C653A6469613E3C696628657175616C28486F6C653A7465726D696E6174696F6E2C223022292C2220905B82B320222C22208368838A838B22293E3C696628657175616C28486F6C653A7465726D696E6174696F6E2C223022292C486F6C653A64657074682C22
310
22293E2C203C486F6C653A63746469613E2082B482AE82E882CC905B82B3203C486F6C653A637464657074683E
  0
ACAD_PROXY_OBJECT
  5
1ECF
330
1ECA
100
AcDbProxyObject
 90
      499
 91
      566
 95
       25
 70
     0
 93
     2072
310
5DE0143A0D960E4E0DDA0E32056E0D9C80C405EF3D3C486F6C653A6374616E676C653E252564202525633C486F6C653A63746469613E208E4D8C8A2C203C696628657175616C28486F6C653A7461707065642C223022292C22252563222C486F6C653A6E6F6D696E616C202220782022293E3C696628657175616C28486F6C
310
653A7461707065642C223022292C486F6C653A6469612C486F6C653A706974636864657363293E203C696628657175616C28486F6C653A7465726D696E6174696F6E2C223022292C22905B82B320222C222022293E3C696628657175616C28486F6C653A7465726D696E6174696F6E2C223022292C486F6C653A6465707468
310
2C2222293E
  0
ACAD_PROXY_OBJECT
  5
1ECD
330
1ECA
100
AcDbProxyObject
 90
      499
 91
      566
 95
       25
 70
     0
 93
     1752
310
5DE0143A0D960E4E0DDA0E32056E0D9C80C405C73D3C696628657175616C28486F6C653A7461707065642C223022292C22252563222C486F6C653A6E6F6D696E616C202220782022293E3C696628657175616C28486F6C653A7461707065642C223022292C486F6C653A6469612C486F6C653A706974636864657363293E20
310
3C696628657175616C28486F6C653A7465726D696E6174696F6E2C223022292C22905B82B320222C222022293E3C696628657175616C28486F6C653A7465726D696E6174696F6E2C223022292C486F6C653A64657074682C2222293E
  0
ACAD_PROXY_OBJECT
  5
1ECC
330
1ECA
100
AcDbProxyObject
 90
      499
 91
      566
 95
       25
 70
     0
 93
      344
310
5DE0143A0D960E4E0DDA0E32056E0D9C80C805173D3C535444503A444553433E203C535444503A5354443E
  0
ACAD_PROXY_OBJECT
  5
1ECB
330
1ECA
100
AcDbProxyObject
 90
      499
 91
      566
 95
       25
 70
     0
 93
      256
310
5DE0143A0D960E4E0DDA0E32056E0D9C80C4050C3D3C535444503A444553433E
  0
ENDSEC
  0
EOF
