  0
SECTION
  2
HEADER
  9
$ACADVER
  1
AC1015
  9
$ACADMAINTVER
 70
     6
  9
$DWGCODEPAGE
  3
ANSI_932
  9
$INSBASE
 10
0.0
 20
0.0
 30
0.0
  9
$EXTMIN
 10
-146.0104512024094
 20
-57.1174766183193
 30
-0.0000000000000153
  9
$EXTMAX
 10
174.5562601087804
 20
140.0095984618832
 30
0.0
  9
$LIMMIN
 10
-225.5
 20
-151.16667175292
  9
$LIMMAX
 10
193.5
 20
144.83332824707
  9
$ORTHOMODE
 70
     1
  9
$REGENMODE
 70
     1
  9
$FILLMODE
 70
     1
  9
$QTEXTMODE
 70
     0
  9
$MIRRTEXT
 70
     1
  9
$LTSCALE
 40
1.0
  9
$ATTMODE
 70
     1
  9
$TEXTSIZE
 40
2.5
  9
$TRACEWID
 40
1.0
  9
$TEXTSTYLE
  7
STANDARD
  9
$CLAYER
  8
AM_0
  9
$CELTYPE
  6
ByLayer
  9
$CECOLOR
 62
   256
  9
$CELTSCALE
 40
1.0
  9
$DISPSILH
 70
     0
  9
$DIMSCALE
 40
1.0
  9
$DIMASZ
 40
2.5
  9
$DIMEXO
 40
0.0
  9
$DIMDLI
 40
10.0
  9
$DIMRND
 40
0.0
  9
$DIMDLE
 40
0.0
  9
$DIMEXE
 40
1.0
  9
$DIMTP
 40
0.1
  9
$DIMTM
 40
0.1000000001
  9
$DIMTXT
 40
3.8
  9
$DIMCEN
 40
0.0
  9
$DIMTSZ
 40
0.0
  9
$DIMTOL
 70
     0
  9
$DIMLIM
 70
     0
  9
$DIMTIH
 70
     0
  9
$DIMTOH
 70
     0
  9
$DIMSE1
 70
     0
  9
$DIMSE2
 70
     0
  9
$DIMTAD
 70
     3
  9
$DIMZIN
 70
     1
  9
$DIMBLK
  1
Open30
  9
$DIMASO
 70
     1
  9
$DIMSHO
 70
     1
  9
$DIMPOST
  1

  9
$DIMAPOST
  1
"
  9
$DIMALT
 70
     0
  9
$DIMALTD
 70
     2
  9
$DIMALTF
 40
0.0393701
  9
$DIMLFAC
 40
1.0
  9
$DIMTOFL
 70
     1
  9
$DIMTVP
 40
0.0
  9
$DIMTIX
 70
     0
  9
$DIMSOXD
 70
     0
  9
$DIMSAH
 70
     0
  9
$DIMBLK1
  1

  9
$DIMBLK2
  1

  9
$DIMSTYLE
  2
AM_JIS
  9
$DIMCLRD
 70
     3
  9
$DIMCLRE
 70
     3
  9
$DIMCLRT
 70
     2
  9
$DIMTFAC
 40
0.71
  9
$DIMGAP
 40
1.5
  9
$DIMJUST
 70
     0
  9
$DIMSD1
 70
     0
  9
$DIMSD2
 70
     0
  9
$DIMTOLJ
 70
     0
  9
$DIMTZIN
 70
     8
  9
$DIMALTZ
 70
     0
  9
$DIMALTTZ
 70
     0
  9
$DIMUPT
 70
     0
  9
$DIMDEC
 70
     2
  9
$DIMTDEC
 70
     2
  9
$DIMALTU
 70
     2
  9
$DIMALTTD
 70
     2
  9
$DIMTXSTY
  7
STANDARD
  9
$DIMAUNIT
 70
     1
  9
$DIMADEC
 70
     0
  9
$DIMALTRND
 40
0.0
  9
$DIMAZIN
 70
     2
  9
$DIMDSEP
 70
    46
  9
$DIMATFIT
 70
     3
  9
$DIMFRAC
 70
     0
  9
$DIMLDRBLK
  1
Open30
  9
$DIMLUNIT
 70
     2
  9
$DIMLWD
 70
    13
  9
$DIMLWE
 70
    13
  9
$DIMTMOVE
 70
     0
  9
$LUNITS
 70
     2
  9
$LUPREC
 70
     2
  9
$SKETCHINC
 40
1.0
  9
$FILLETRAD
 40
2.5
  9
$AUNITS
 70
     1
  9
$AUPREC
 70
     5
  9
$MENU
  1
.
  9
$ELEVATION
 40
0.0
  9
$PELEVATION
 40
0.0
  9
$THICKNESS
 40
0.0
  9
$LIMCHECK
 70
     0
  9
$CHAMFERA
 40
2.5
  9
$CHAMFERB
 40
2.5
  9
$CHAMFERC
 40
20.0
  9
$CHAMFERD
 40
0.0
  9
$SKPOLY
 70
     0
  9
$TDCREATE
 40
2451856.608395394
  9
$TDUCREATE
 40
2451856.233395394
  9
$TDUPDATE
 40
2455469.387349896
  9
$TDUUPDATE
 40
2455469.012349896
  9
$TDINDWG
 40
0.0487982176
  9
$TDUSRTIMER
 40
0.048793588
  9
$USRTIMER
 70
     1
  9
$ANGBASE
 50
0.0
  9
$ANGDIR
 70
     0
  9
$PDMODE
 70
     0
  9
$PDSIZE
 40
0.0
  9
$PLINEWID
 40
0.0
  9
$SPLFRAME
 70
     0
  9
$SPLINETYPE
 70
     6
  9
$SPLINESEGS
 70
     8
  9
$HANDSEED
  5
21BF
  9
$SURFTAB1
 70
     6
  9
$SURFTAB2
 70
     6
  9
$SURFTYPE
 70
     6
  9
$SURFU
 70
     6
  9
$SURFV
 70
     6
  9
$UCSBASE
  2

  9
$UCSNAME
  2

  9
$UCSORG
 10
0.0
 20
0.0
 30
0.0
  9
$UCSXDIR
 10
1.0
 20
0.0
 30
0.0
  9
$UCSYDIR
 10
0.0
 20
1.0
 30
0.0
  9
$UCSORTHOREF
  2

  9
$UCSORTHOVIEW
 70
     0
  9
$UCSORGTOP
 10
0.0
 20
0.0
 30
0.0
  9
$UCSORGBOTTOM
 10
0.0
 20
0.0
 30
0.0
  9
$UCSORGLEFT
 10
0.0
 20
0.0
 30
0.0
  9
$UCSORGRIGHT
 10
0.0
 20
0.0
 30
0.0
  9
$UCSORGFRONT
 10
0.0
 20
0.0
 30
0.0
  9
$UCSORGBACK
 10
0.0
 20
0.0
 30
0.0
  9
$PUCSBASE
  2

  9
$PUCSNAME
  2

  9
$PUCSORG
 10
0.0
 20
0.0
 30
0.0
  9
$PUCSXDIR
 10
1.0
 20
0.0
 30
0.0
  9
$PUCSYDIR
 10
0.0
 20
1.0
 30
0.0
  9
$PUCSORTHOREF
  2

  9
$PUCSORTHOVIEW
 70
     0
  9
$PUCSORGTOP
 10
0.0
 20
0.0
 30
0.0
  9
$PUCSORGBOTTOM
 10
0.0
 20
0.0
 30
0.0
  9
$PUCSORGLEFT
 10
0.0
 20
0.0
 30
0.0
  9
$PUCSORGRIGHT
 10
0.0
 20
0.0
 30
0.0
  9
$PUCSORGFRONT
 10
0.0
 20
0.0
 30
0.0
  9
$PUCSORGBACK
 10
0.0
 20
0.0
 30
0.0
  9
$USERI1
 70
     0
  9
$USERI2
 70
     0
  9
$USERI3
 70
     0
  9
$USERI4
 70
     0
  9
$USERI5
 70
     0
  9
$USERR1
 40
0.0
  9
$USERR2
 40
0.0
  9
$USERR3
 40
0.0
  9
$USERR4
 40
0.0
  9
$USERR5
 40
0.0
  9
$WORLDVIEW
 70
     1
  9
$SHADEDGE
 70
     3
  9
$SHADEDIF
 70
    70
  9
$TILEMODE
 70
     1
  9
$MAXACTVP
 70
    64
  9
$PINSBASE
 10
0.0
 20
0.0
 30
0.0
  9
$PLIMCHECK
 70
     0
  9
$PEXTMIN
 10
1.000000000000000E+20
 20
1.000000000000000E+20
 30
1.000000000000000E+20
  9
$PEXTMAX
 10
-1.000000000000000E+20
 20
-1.000000000000000E+20
 30
-1.000000000000000E+20
  9
$PLIMMIN
 10
0.0
 20
0.0
  9
$PLIMMAX
 10
420.0
 20
297.0
  9
$UNITMODE
 70
     0
  9
$VISRETAIN
 70
     1
  9
$PLINEGEN
 70
     0
  9
$PSLTSCALE
 70
     1
  9
$TREEDEPTH
 70
  3020
  9
$CMLSTYLE
  2
Standard
  9
$CMLJUST
 70
     0
  9
$CMLSCALE
 40
20.0
  9
$PROXYGRAPHICS
 70
     1
  9
$MEASUREMENT
 70
     1
  9
$CELWEIGHT
370
    -1
  9
$ENDCAPS
280
     0
  9
$JOINSTYLE
280
     0
  9
$LWDISPLAY
290
     0
  9
$INSUNITS
 70
     4
  9
$HYPERLINKBASE
  1

  9
$STYLESHEET
  1
sei_cad.ctb
  9
$XEDIT
290
     1
  9
$CEPSNTYPE
380
     0
  9
$PSTYLEMODE
290
     1
  9
$FINGERPRINTGUID
  2
{403304E0-8DA2-11D3-AB8C-000629E2A613}
  9
$VERSIONGUID
  2
{28E0B076-83EE-448C-AE58-BE449E756A69}
  9
$EXTNAMES
290
     1
  9
$PSVPSCALE
 40
0.0
  9
$OLESTARTUP
290
     0
  0
ENDSEC
  0
SECTION
  2
CLASSES
  0
CLASS
  1
ACDBDICTIONARYWDFLT
  2
AcDbDictionaryWithDefault
  3
ObjectDBX Classes
 90
        0
280
     0
281
     0
  0
CLASS
  1
ACDBPLACEHOLDER
  2
AcDbPlaceHolder
  3
ObjectDBX Classes
 90
        0
280
     0
281
     0
  0
CLASS
  1
LAYOUT
  2
AcDbLayout
  3
ObjectDBX Classes
 90
        0
280
     0
281
     0
  0
CLASS
  1
ACME_DOCUMENT
  2
AcMeDbDoc
  3
AcMeServices
 90
        0
280
     1
281
     0
  0
CLASS
  1
ACMESCOPE
  2
AcMeScope
  3
AcMeServices
 90
        0
280
     1
281
     0
  0
CLASS
  1
ACMECOMMANDHISTORY
  2
AcMeCommandHistory
  3
AcMeServices
 90
        0
280
     1
281
     0
  0
CLASS
  1
DICTIONARYVAR
  2
AcDbDictionaryVar
  3
ObjectDBX Classes
 90
        0
280
     0
281
     0
  0
CLASS
  1
ACIMSYSVARMAN
  2
AcImSysVarManager
  3
AcMeServices
 90
        0
280
     1
281
     0
  0
CLASS
  1
ACIMREALSYSVAR
  2
AcImRealSysVar
  3
AcMeServices
 90
        0
280
     1
281
     0
  0
CLASS
  1
ACIMINTSYSVAR
  2
AcImIntSysVar
  3
AcMeServices
 90
        0
280
     1
281
     0
  0
CLASS
  1
ACMEDRAWINGMAN
  2
AcMeDrawingMan
  3
AcMeServices
 90
        0
280
     1
281
     0
  0
CLASS
  1
ACMEVIEW
  2
AcMeView
  3
AcMeServices
 90
        0
280
     1
281
     0
  0
CLASS
  1
ACDBENTITYCACHE
  2
AcMeEntityCache
  3
AcMeServices
 90
        0
280
     1
281
     0
  0
CLASS
  1
GSMANAGER
  2
AcMeGSManager
  3
AcMeServices
 90
        0
280
     1
281
     0
  0
CLASS
  1
AMDTINTERNALREACTOR
  2
AmdtInternalReactor
  3
AcMeServices
 90
        0
280
     1
281
     0
  0
CLASS
  1
ACMESTATEMGR
  2
AcMeStateMgr
  3
AcMeServices
 90
        0
280
     1
281
     0
  0
CLASS
  1
ACME_DATABASE
  2
AcMeDbDatabase
  3
AcMeServices
 90
        0
280
     1
281
     0
  0
CLASS
  1
ACRFINSADJUSTERMGR
  2
AcRfInsAdjusterMgr
  3
AcMeServices
 90
        0
280
     1
281
     0
  0
CLASS
  1
AMGSETTINGSOBJ
  2
AmgSettingsObj
  3
"AcadM|Product Description: AutoCAD Mechanical 2000|Company: Autodesk"
 90
        0
280
     1
281
     0
  0
CLASS
  1
ACMDATADICTIONARY
  2
AcmDataDictionary
  3
"AcmSymBB|Product Description: AutoCAD Mechanical 2004 DX|Company: Autodesk"
 90
        0
280
     1
281
     0
  0
CLASS
  1
ACMDATAENTRYBLOCK
  2
AcmDataEntryBlock
  3
"AcmSymBB|Product Description: AutoCAD Mechanical 2004 DX|Company: Autodesk"
 90
        0
280
     1
281
     0
  0
CLASS
  1
AMGOBJPROPCFG
  2
AmgObjPropCfg
  3
"AmgLay|Product Description: AutoCAD Mechanical 2000|Company: Autodesk"
 90
        1
280
     1
281
     0
  0
CLASS
  1
ACAMGFILTERDAT
  2
AcAmgFilterDat
  3
"AcadM|Product Description: AutoCAD Mechanical 2000|Company: Autodesk"
 90
        0
280
     1
281
     0
  0
CLASS
  1
LAYER_INDEX
  2
AcDbLayerIndex
  3
ObjectDBX Classes
 90
        0
280
     0
281
     0
  0
CLASS
  1
IDBUFFER
  2
AcDbIdBuffer
  3
ObjectDBX Classes
 90
        0
280
     0
281
     0
  0
CLASS
  1
ACIMSTRSYSVAR
  2
AcImStrSysVar
  3
AcMeServices
 90
        0
280
     1
281
     0
  0
CLASS
  1
ACMSTANDARDJIS
  2
AcmStandardJIS
  3
"Amdt_StdImp|Product Description: AutoCAD Mechanical 2004 DX|Company: Autodesk"
 90
        0
280
     1
281
     0
  0
CLASS
  1
ACMSURFSTANDARDJIS
  2
AcmSurfTextStdJIS
  3
"Amdt_StdImp|Product Description: AutoCAD Mechanical 2004 DX|Company: Autodesk"
 90
        0
280
     1
281
     0
  0
CLASS
  1
ACMFCFSTANDARDJIS
  2
AcmFCFStdJIS
  3
"Amdt_StdImp|Product Description: AutoCAD Mechanical 2004 DX|Company: Autodesk"
 90
        0
280
     1
281
     0
  0
CLASS
  1
ACMWELDSTANDARDJIS
  2
AcmWeldingStdJIS
  3
"Amdt_StdImp|Product Description: AutoCAD Mechanical 2004 DX|Company: Autodesk"
 90
        0
280
     1
281
     0
  0
CLASS
  1
ACMIDSTANDARDJIS
  2
AcmIdStdJIS
  3
"Amdt_StdImp|Product Description: AutoCAD Mechanical 2004 DX|Company: Autodesk"
 90
        0
280
     1
281
     0
  0
CLASS
  1
ACMDATUMSTANDARDJIS
  2
AcmDatumStdJIS
  3
"Amdt_StdImp|Product Description: AutoCAD Mechanical 2004 DX|Company: Autodesk"
 90
        0
280
     1
281
     0
  0
CLASS
  1
ACMBOMSTANDARDJIS
  2
AcmBOMStdJIS
  3
"Amdt_StdImp|Product Description: AutoCAD Mechanical 2004 DX|Company: Autodesk"
 90
        0
280
     1
281
     0
  0
CLASS
  1
TABLESTYLE
  2
AcDbTableStyle
  3
ObjectDBX Classes
 90
     2047
280
     0
281
     0
  0
CLASS
  1
ACGREFMASTER
  2
AcGrefMaster
  3
AcAttribServices
 90
        0
280
     1
281
     0
  0
CLASS
  1
AM_DRAWING_MGR
  2
AcDmDwgMgr
  3
AcMechDwgViewMgmt
 90
        0
280
     1
281
     0
  0
CLASS
  1
AM_DWG_DOCUMENT
  2
AcDmDwgDocument
  3
AcMechDwgViewMgmt
 90
        0
280
     1
281
     0
  0
CLASS
  1
AM_DWG_SHEET
  2
AcDmSheet
  3
AcMechDwgViewMgmt
 90
        0
280
     1
281
     0
  0
CLASS
  1
AM_VIEWDIMPARMAP
  2
AcDmViewDimParMap
  3
AcMechDwgViewMgmt
 90
        0
280
     1
281
     0
  0
CLASS
  1
AM_DWGMGR_NAME
  2
AcDmDwgMgrName
  3
AcMechDwgViewMgmt
 90
        0
280
     1
281
     0
  0
CLASS
  1
ACGREFACADMASTER
  2
AcGrefacadMaster
  3
AcGrefServices
 90
        0
280
     1
281
     0
  0
CLASS
  1
AMDTMENUSTATEMGR
  2
AmdtMenuStateMgr
  3
McadcomServices
 90
        0
280
     1
281
     0
  0
CLASS
  1
AMDTMCOMMENUSTATE
  2
AmdtMcomMenuState
  3
McadcomServices
 90
        0
280
     1
281
     0
  0
CLASS
  1
AMIMASTER
  2
AmiMaster
  3
AmiServices
 90
        0
280
     1
281
     0
  0
CLASS
  1
MAPIAMMOUDLE
  2
MApiAmModule
  3
MApiAmServices
 90
        0
280
     1
281
     0
  0
CLASS
  1
AMDTADMENUSTATE
  2
AmdtAdMenuState
  3
DesignerServices
 90
        0
280
     1
281
     0
  0
CLASS
  1
ADAPPL
  2
AcAdAppl
  3
DesignerServices
 90
        0
280
     1
281
     0
  0
CLASS
  1
DEPMGR
  2
AcAdDepMgr
  3
DesignerServices
 90
        0
280
     1
281
     0
  0
CLASS
  1
PARAMMGR
  2
AcAdParamMgr
  3
DesignerServices
 90
        0
280
     1
281
     0
  0
CLASS
  1
PARAMSCOPE
  2
AcAdParamScope
  3
DesignerServices
 90
        0
280
     1
281
     0
  0
CLASS
  1
NAMEDAPPL
  2
AcAdNamedAppl
  3
DesignerServices
 90
        0
280
     1
281
     0
  0
CLASS
  1
AMDTDMMENUSTATE
  2
AmdtDmMenuState
  3
AcMechDwgViewMgmt
 90
        0
280
     1
281
     0
  0
CLASS
  1
AMDTAMMENUSTATE
  2
AmdtAmMenuState
  3
DesignerAssemblies
 90
        0
280
     1
281
     0
  0
CLASS
  1
ACAMPROJECT
  2
AcAmProject
  3
DesignerAssemblies
 90
        0
280
     1
281
     0
  0
CLASS
  1
ACAMGRCOMPDEF
  2
AcAmGrCompDef
  3
DesignerAssemblies
 90
        0
280
     1
281
     0
  0
CLASS
  1
ACCMCONTEXT
  2
AcCmContext
  3
DesignerAssemblies
 90
        0
280
     1
281
     0
  0
CLASS
  1
ACAMCOMPDEF
  2
AcAmCompDef
  3
DesignerAssemblies
 90
        0
280
     1
281
     0
  0
CLASS
  1
ACAMCOMPDEFMGR
  2
AcAmCompDefMgr
  3
DesignerAssemblies
 90
        0
280
     1
281
     0
  0
CLASS
  1
AMCONTEXTMGR
  2
AcAmContextMgr
  3
DesignerAssemblies
 90
        0
280
     1
281
     0
  0
CLASS
  1
ACAMCONTEXTMODELER
  2
AcAmContextModeler
  3
DesignerAssemblies
 90
        0
280
     1
281
     0
  0
CLASS
  1
ACAMGTITLESTD
  2
AcAmgTitleStd
  3
"TITLEAPP"
 90
        0
280
     1
281
     0
  0
CLASS
  1
ACMDETAILSTANDARDJIS
  2
AmdtDetailSymStdJIS
  3
"Amdt_StdImp|Product Description: AutoCAD Mechanical 2004 DX|Company: Autodesk"
 90
        0
280
     1
281
     0
  0
CLASS
  1
ACMSECTIONSTANDARDJIS
  2
AmdtSectionSymStdJIS
  3
"Amdt_StdImp|Product Description: AutoCAD Mechanical 2004 DX|Company: Autodesk"
 90
        0
280
     1
281
     0
  0
CLASS
  1
ACMCENTERLINESTANDARDJIS
  2
AmdtCenterLineStdJIS
  3
"Amdt_StdImp|Product Description: AutoCAD Mechanical 2004 DX|Company: Autodesk"
 90
        0
280
     1
281
     0
  0
CLASS
  1
ACMTHREADLINESTANDARDJIS
  2
AmdtThreadLineStdJIS
  3
"Amdt_StdImp|Product Description: AutoCAD Mechanical 2004 DX|Company: Autodesk"
 90
        0
280
     1
281
     0
  0
CLASS
  1
ACMNOTESTANDARDJIS
  2
AmdtNoteStdJIS
  3
"Amdt_StdImp|Product Description: AutoCAD Mechanical 2004 DX|Company: Autodesk"
 90
        0
280
     1
281
     0
  0
CLASS
  1
AMDTNOTETEMPLATEDB
  2
AmdtNoteTemplateDB
  3
AMDT_STDIMP_MODULE_NAME
 90
        0
280
     1
281
     0
  0
CLASS
  1
ACAMGLAYSTD
  2
AcAmgLayStd
  3
"AcAmgLayStd|Product Description: AutoCAD Mechanical 2000|Company: Autodesk"
 90
        0
280
     1
281
     0
  0
CLASS
  1
ACAMGDIMSTD
  2
AcAmgDimStd
  3
"AcAmgDimStd|Product Description: AutoCAD Mechanical 2000|Company: Autodesk"
 90
        0
280
     1
281
     0
  0
CLASS
  1
ACAMGHOLECHARTSTDJIS
  2
AcAmgHoleChartStdJIS
  3
ACMSYMBB_MODULE_NAME
 90
        0
280
     1
281
     0
  0
CLASS
  1
CATALOGSTATE
  2
AcAmCatalogState
  3
DesignerAssemblies
 90
        0
280
     1
281
     0
  0
CLASS
  1
ACAMGRCOMPDEFSET
  2
AcAmGrCompDefSet
  3
DesignerAssemblies
 90
        0
280
     1
281
     0
  0
CLASS
  1
AMDTBROWSERDBTAB
  2
AmdtBrowserDbTab
  3
McadcomServices
 90
        0
280
     1
281
     0
  0
CLASS
  1
CBROWSERAPPOBJECT
  2
CBrowserAppObject
  3
McadcomServices
 90
        0
280
     1
281
     0
  0
CLASS
  1
DM_PLACEHOLDER
  2
AcDmSelsetPlaceholder
  3
AcMechDwgViewMgmt
 90
        0
280
     1
281
     0
  0
CLASS
  1
SORTENTSTABLE
  2
AcDbSortentsTable
  3
ObjectDBX Classes
 90
        0
280
     0
281
     0
  0
CLASS
  1
AMDTNOTE
  2
AmdtNote
  3
"AcmSymBB|Product Description: AutoCAD Mechanical 2004 DX|Company: Autodesk"
 90
     1023
280
     1
281
     1
  0
ENDSEC
  0
SECTION
  2
TABLES
  0
TABLE
  2
VPORT
  5
8
330
0
100
AcDbSymbolTable
 70
    19
  0
VPORT
  5
21B8
330
8
100
AcDbSymbolTableRecord
100
AcDbViewportTableRecord
  2
*Active
 70
     0
 10
0.0
 20
0.0
 11
1.0
 21
1.0
 12
14.2729044531855
 22
41.44606092178196
 13
0.0
 23
0.0
 14
2.5
 24
2.5
 15
10.0
 25
10.0
 16
0.0
 26
0.0
 36
1.0
 17
0.0
 27
0.0
 37
0.0
 40
198.8638775038166
 41
1.697058823529412
 42
50.0
 43
0.0
 44
0.0
 50
0.0
 51
0.0
 71
     0
 72
  2000
 73
     1
 74
     3
 75
     0
 76
     0
 77
     0
 78
     0
281
     0
 65
     1
110
0.0
120
0.0
130
0.0
111
1.0
121
0.0
131
0.0
112
0.0
122
1.0
132
0.0
 79
     0
146
0.0
  0
ENDTAB
  0
TABLE
  2
LTYPE
  5
5
330
0
100
AcDbSymbolTable
 70
    13
  0
LTYPE
  5
14
330
5
100
AcDbSymbolTableRecord
100
AcDbLinetypeTableRecord
  2
ByBlock
 70
     0
  3

 72
    65
 73
     0
 40
0.0
  0
LTYPE
  5
15
330
5
100
AcDbSymbolTableRecord
100
AcDbLinetypeTableRecord
  2
ByLayer
 70
     0
  3

 72
    65
 73
     0
 40
0.0
  0
LTYPE
  5
16
330
5
100
AcDbSymbolTableRecord
100
AcDbLinetypeTableRecord
  2
Continuous
 70
     0
  3
Solid line
 72
    65
 73
     0
 40
0.0
  0
LTYPE
  5
48
330
5
100
AcDbSymbolTableRecord
100
AcDbLinetypeTableRecord
  2
AM_ISO02W050
 70
     0
  3
__ __ __ __ __ __ __ __ __ __ __ __ __ __ __
 72
    65
 73
     2
 40
7.5
 49
6.0
 74
     0
 49
-1.5
 74
     0
  0
LTYPE
  5
49
330
5
100
AcDbSymbolTableRecord
100
AcDbLinetypeTableRecord
  2
AM_ISO08W050
 70
     0
  3
____ . ____ . ____ . ____ . ____ . ____ . ____
 72
    65
 73
     4
 40
18.0
 49
12.0
 74
     0
 49
-1.5
 74
     0
 49
3.0
 74
     0
 49
-1.5
 74
     0
  0
LTYPE
  5
4A
330
5
100
AcDbSymbolTableRecord
100
AcDbLinetypeTableRecord
  2
AM_ISO09W050
 70
     0
  3
_____ . . _____ . . _____ . . ____ .. ____
 72
    65
 73
     6
 40
22.5
 49
12.0
 74
     0
 49
-1.5
 74
     0
 49
3.0
 74
     0
 49
-1.5
 74
     0
 49
3.0
 74
     0
 49
-1.5
 74
     0
  0
LTYPE
  5
4B
330
5
100
AcDbSymbolTableRecord
100
AcDbLinetypeTableRecord
  2
Amconstr
 70
     0
  3
_______________________
 72
    65
 73
     2
 40
9999.0
 49
9999.0
 74
     0
 49
0.0
 74
     0
  0
LTYPE
  5
4C
330
5
100
AcDbSymbolTableRecord
100
AcDbLinetypeTableRecord
  2
AM_ISO02W050x2
 70
     0
  3
 _ _ _ _ _ _ _ _ _ _ _ _
 72
    65
 73
     2
 40
3.75
 49
3.0
 74
     0
 49
-0.75
 74
     0
  0
LTYPE
  5
4D
330
5
100
AcDbSymbolTableRecord
100
AcDbLinetypeTableRecord
  2
AM_ISO08W050x2
 70
     0
  3
__ . __ . __ . __ . __ . __
 72
    65
 73
     4
 40
9.0
 49
6.0
 74
     0
 49
-0.75
 74
     0
 49
1.5
 74
     0
 49
-0.75
 74
     0
  0
LTYPE
  5
50
330
5
100
AcDbSymbolTableRecord
100
AcDbLinetypeTableRecord
  2
Amzigzag
 70
     0
  3
/\/-/\/-/\/-/\/-/\/-/\/
 72
    65
 73
     2
 40
11.0001
 49
0.0001
 74
     4
 75
   135
340
4F
 46
0.04
 50
0.0
 44
0.0
 45
0.0
 49
-11.0
 74
     0
  0
LTYPE
  5
118
330
5
100
AcDbSymbolTableRecord
100
AcDbLinetypeTableRecord
  2
CENTER
 70
     0
  3
____ _ ____ _ ____ _ ____ _ ____ _ ____ _ ____
 72
    65
 73
     4
 40
17.5
 49
13.0
 74
     0
 49
-1.5
 74
     0
 49
1.5
 74
     0
 49
-1.5
 74
     0
  0
LTYPE
  5
7AA
330
5
100
AcDbSymbolTableRecord
100
AcDbLinetypeTableRecord
  2
ACJISTGB
 70
     0
  3
__ . . __ . .
 72
    65
 73
     6
 40
9.0
 49
4.0
 74
     0
 49
-1.0
 74
     0
 49
1.0
 74
     0
 49
-1.0
 74
     0
 49
1.0
 74
     0
 49
-1.0
 74
     0
  0
LTYPE
  5
7AB
330
5
100
AcDbSymbolTableRecord
100
AcDbLinetypeTableRecord
  2
ACJISTGL
 70
     0
  3
_ _ _ _ _
 72
    65
 73
     2
 40
3.0
 49
2.0
 74
     0
 49
-1.0
 74
     0
  0
LTYPE
  5
1F47
330
5
100
AcDbSymbolTableRecord
100
AcDbLinetypeTableRecord
  2
HIDDEN
 70
     0
  3
Hidden __ __ __ __ __ __ __ __ __ __ __ __ __ _
 72
    65
 73
     2
 40
9.524999999999999
 49
6.35
 74
     0
 49
-3.175
 74
     0
  0
LTYPE
  5
1F48
330
5
100
AcDbSymbolTableRecord
100
AcDbLinetypeTableRecord
  2
PHANTOM2
 70
     0
  3
Phantom (.5x) ___ _ _ ___ _ _ ___ _ _ ___ _ _
 72
    65
 73
     6
 40
31.75
 49
15.875
 74
     0
 49
-3.175
 74
     0
 49
3.175
 74
     0
 49
-3.175
 74
     0
 49
3.175
 74
     0
 49
-3.175
 74
     0
  0
ENDTAB
  0
TABLE
  2
LAYER
  5
2
102
{ACAD_XDICTIONARY
360
2076
102
}
330
0
100
AcDbSymbolTable
 70
     8
  0
LAYER
  5
10
330
2
100
AcDbSymbolTableRecord
100
AcDbLayerTableRecord
  2
0
 70
     0
 62
     7
  6
Continuous
370
    -3
390
F
  0
LAYER
  5
68
330
2
100
AcDbSymbolTableRecord
100
AcDbLayerTableRecord
  2
AM_5
 70
     0
 62
     3
  6
Continuous
370
    13
390
F
  0
LAYER
  5
7B
330
2
100
AcDbSymbolTableRecord
100
AcDbLayerTableRecord
  2
Defpoints
 70
     0
 62
     7
  6
Continuous
290
     0
370
    -3
390
F
  0
LAYER
  5
5A3
330
2
100
AcDbSymbolTableRecord
100
AcDbLayerTableRecord
  2
AM_7
 70
     0
 62
     4
  6
AM_ISO08W050
370
    13
390
F
  0
LAYER
  5
5A4
330
2
100
AcDbSymbolTableRecord
100
AcDbLayerTableRecord
  2
AM_6
 70
     0
 62
     2
  6
Continuous
370
    30
390
F
  0
LAYER
  5
5F1
330
2
100
AcDbSymbolTableRecord
100
AcDbLayerTableRecord
  2
AM_0
 70
     0
 62
     7
  6
Continuous
370
    30
390
F
  0
LAYER
  5
12E1
330
2
100
AcDbSymbolTableRecord
100
AcDbLayerTableRecord
  2
PV0001_1
 70
     0
 62
     7
  6
Continuous
370
    -3
390
F
  0
ENDTAB
  0
TABLE
  2
STYLE
  5
3
330
0
100
AcDbSymbolTable
 70
     5
  0
STYLE
  5
11
330
3
100
AcDbSymbolTableRecord
100
AcDbTextStyleTableRecord
  2
STANDARD
 70
     0
 40
3.8
 41
1.0
 50
0.0
 71
     0
 42
2.5
  3
ISOCP.SHX
  4
EXTFONT.SHX
  0
STYLE
  5
4F
330
3
100
AcDbSymbolTableRecord
100
AcDbTextStyleTableRecord
  2

 70
     1
 40
0.0
 41
1.0
 50
0.0
 71
     0
 42
2.5
  3
ltypeshp.shx
  4

  0
STYLE
  5
7A2
330
3
100
AcDbSymbolTableRecord
100
AcDbTextStyleTableRecord
  2
ACJISTS
 70
     0
 40
1.0
 41
1.0
 50
0.0
 71
     0
 42
2.5
  3
isocp.shx
  4
bigfont.shx
  0
STYLE
  5
7A9
330
3
100
AcDbSymbolTableRecord
100
AcDbTextStyleTableRecord
  2
ACJISGDT
 70
     0
 40
0.0
 41
1.0
 50
0.0
 71
     0
 42
2.5
  3
amgdt.shx
  4

  0
STYLE
  5
2074
330
3
100
AcDbSymbolTableRecord
100
AcDbTextStyleTableRecord
  2
ACISOTS
 70
     0
 40
1.0
 41
1.0
 50
0.0
 71
     0
 42
1.0
  3
isocp.shx
  4
extfont.shx
  0
ENDTAB
  0
TABLE
  2
VIEW
  5
6
330
0
100
AcDbSymbolTable
 70
     6
  0
VIEW
  5
4F5
330
6
100
AcDbSymbolTableRecord
100
AcDbViewTableRecord
  2
AM_VIEW1
 70
     0
 40
150.0
 10
113.2040050062578
 20
225.0
 41
226.4080100125157
 11
0.0
 21
0.0
 31
1.0
 12
0.0
 22
0.0
 32
0.0
 42
50.0
 43
0.0
 44
0.0
 50
0.0
 71
     0
281
     0
 72
     0
  0
VIEW
  5
4F6
330
6
100
AcDbSymbolTableRecord
100
AcDbViewTableRecord
  2
AM_VIEW2
 70
     0
 40
150.0
 10
309.7959949937422
 20
225.0
 41
226.4080100125157
 11
0.0
 21
0.0
 31
1.0
 12
0.0
 22
0.0
 32
0.0
 42
50.0
 43
0.0
 44
0.0
 50
0.0
 71
     0
281
     0
 72
     0
  0
VIEW
  5
4F7
330
6
100
AcDbSymbolTableRecord
100
AcDbViewTableRecord
  2
AM_VIEW3
 70
     0
 40
150.0
 10
113.2040050062578
 20
75.0
 41
226.4080100125157
 11
0.0
 21
0.0
 31
1.0
 12
0.0
 22
0.0
 32
0.0
 42
50.0
 43
0.0
 44
0.0
 50
0.0
 71
     0
281
     0
 72
     0
  0
VIEW
  5
4F8
330
6
100
AcDbSymbolTableRecord
100
AcDbViewTableRecord
  2
AM_VIEW4
 70
     0
 40
150.0
 10
309.7959949937422
 20
75.0
 41
226.4080100125157
 11
0.0
 21
0.0
 31
1.0
 12
0.0
 22
0.0
 32
0.0
 42
50.0
 43
0.0
 44
0.0
 50
0.0
 71
     0
281
     0
 72
     0
  0
VIEW
  5
4F9
330
6
100
AcDbSymbolTableRecord
100
AcDbViewTableRecord
  2
AM_VIEW5
 70
     0
 40
150.0
 10
211.5
 20
150.0
 41
226.4080100125157
 11
0.0
 21
0.0
 31
1.0
 12
0.0
 22
0.0
 32
0.0
 42
50.0
 43
0.0
 44
0.0
 50
0.0
 71
     0
281
     0
 72
     0
  0
VIEW
  5
4FA
330
6
100
AcDbSymbolTableRecord
100
AcDbViewTableRecord
  2
AM_VIEW6
 70
     0
 40
299.9970000000001
 10
211.5
 20
150.0
 41
452.8114918648312
 11
0.0
 21
0.0
 31
1.0
 12
0.0
 22
0.0
 32
0.0
 42
50.0
 43
0.0
 44
0.0
 50
0.0
 71
     0
281
     0
 72
     0
  0
ENDTAB
  0
TABLE
  2
UCS
  5
7
330
0
100
AcDbSymbolTable
 70
     0
  0
ENDTAB
  0
TABLE
  2
APPID
  5
9
330
0
100
AcDbSymbolTable
 70
    32
  0
APPID
  5
12
330
9
100
AcDbSymbolTableRecord
100
AcDbRegAppTableRecord
  2
ACAD
 70
     0
  0
APPID
  5
2C
330
9
100
AcDbSymbolTableRecord
100
AcDbRegAppTableRecord
  2
MCAD_NO_VIS
 70
     0
  0
APPID
  5
2D
330
9
100
AcDbSymbolTableRecord
100
AcDbRegAppTableRecord
  2
ACAD_TEMP_GRAPHIC
 70
     0
  0
APPID
  5
B5
330
9
100
AcDbSymbolTableRecord
100
AcDbRegAppTableRecord
  2
GENIUS_GENDTOL_13
 70
     0
  0
APPID
  5
12C
330
9
100
AcDbSymbolTableRecord
100
AcDbRegAppTableRecord
  2
GENIUS_GENCFG_13
 70
     0
  0
APPID
  5
12D
330
9
100
AcDbSymbolTableRecord
100
AcDbRegAppTableRecord
  2
GENIUS_GENCFG0_13
 70
     0
  0
APPID
  5
12E
330
9
100
AcDbSymbolTableRecord
100
AcDbRegAppTableRecord
  2
GENIUS_GENCFG1_13
 70
     0
  0
APPID
  5
12F
330
9
100
AcDbSymbolTableRecord
100
AcDbRegAppTableRecord
  2
GENIUS_GENCFG2_13
 70
     0
  0
APPID
  5
130
330
9
100
AcDbSymbolTableRecord
100
AcDbRegAppTableRecord
  2
GENIUS_GENCFG3_13
 70
     0
  0
APPID
  5
131
330
9
100
AcDbSymbolTableRecord
100
AcDbRegAppTableRecord
  2
GENIUS_GENCFG4_13
 70
     0
  0
APPID
  5
53B
330
9
100
AcDbSymbolTableRecord
100
AcDbRegAppTableRecord
  2
GENIUS_GENBLLY_14
 70
     0
  0
APPID
  5
53C
330
9
100
AcDbSymbolTableRecord
100
AcDbRegAppTableRecord
  2
GENIUS_GENODEF_13
 70
     0
  0
APPID
  5
53D
330
9
100
AcDbSymbolTableRecord
100
AcDbRegAppTableRecord
  2
GENIUS_GENOBJ-N-CEN_13
 70
     0
  0
APPID
  5
549
330
9
100
AcDbSymbolTableRecord
100
AcDbRegAppTableRecord
  2
GENIUS_GENTRA_14
 70
     0
  0
APPID
  5
553
330
9
100
AcDbSymbolTableRecord
100
AcDbRegAppTableRecord
  2
GENIUS_GENOBJ-N-TIT_13
 70
     0
  0
APPID
  5
554
330
9
100
AcDbSymbolTableRecord
100
AcDbRegAppTableRecord
  2
GENIUS_GENTITLE_13
 70
     0
  0
APPID
  5
555
330
9
100
AcDbSymbolTableRecord
100
AcDbRegAppTableRecord
  2
GENIUS_GENOENT_13
 70
     0
  0
APPID
  5
556
330
9
100
AcDbSymbolTableRecord
100
AcDbRegAppTableRecord
  2
GENIUS_GENOREF_13
 70
     0
  0
APPID
  5
557
330
9
100
AcDbSymbolTableRecord
100
AcDbRegAppTableRecord
  2
GENIUS_GENOLIS_13
 70
     0
  0
APPID
  5
558
330
9
100
AcDbSymbolTableRecord
100
AcDbRegAppTableRecord
  2
GENIUS_GENZVEED_13
 70
     0
  0
APPID
  5
559
330
9
100
AcDbSymbolTableRecord
100
AcDbRegAppTableRecord
  2
GENIUS_GENSCREG_15
 70
     0
  0
APPID
  5
55A
330
9
100
AcDbSymbolTableRecord
100
AcDbRegAppTableRecord
  2
GENIUS_GENOBJ-N-SDF_13
 70
     0
  0
APPID
  5
567
330
9
100
AcDbSymbolTableRecord
100
AcDbRegAppTableRecord
  2
GENIUS_GENREC_14
 70
     0
  0
APPID
  5
568
330
9
100
AcDbSymbolTableRecord
100
AcDbRegAppTableRecord
  2
GENIUS_GENOBJ-N-REC_13
 70
     0
  0
APPID
  5
609
330
9
100
AcDbSymbolTableRecord
100
AcDbRegAppTableRecord
  2
GENIUS_GENOBJ-N-HTC_13
 70
     0
  0
APPID
  5
60A
330
9
100
AcDbSymbolTableRecord
100
AcDbRegAppTableRecord
  2
GENIUS_GENHATCH_13
 70
     0
  0
APPID
  5
1F4A
330
9
100
AcDbSymbolTableRecord
100
AcDbRegAppTableRecord
  2
AD_DRAW
 70
     0
  0
APPID
  5
1F4D
330
9
100
AcDbSymbolTableRecord
100
AcDbRegAppTableRecord
  2
ACATTRIBSERVICES
 70
     0
  0
APPID
  5
1F6B
330
9
100
AcDbSymbolTableRecord
100
AcDbRegAppTableRecord
  2
DESIGNERASSEMBLIES
 70
     0
  0
APPID
  5
1F7E
330
9
100
AcDbSymbolTableRecord
100
AcDbRegAppTableRecord
  2
ACADM_DIM_EDIT
 70
     0
  0
APPID
  5
1F7F
330
9
100
AcDbSymbolTableRecord
100
AcDbRegAppTableRecord
  2
AMDT_DM_ADJ
 70
     0
  0
APPID
  5
2075
330
9
100
AcDbSymbolTableRecord
100
AcDbRegAppTableRecord
  2
ACAD_PSEXT
 70
     0
  0
ENDTAB
  0
TABLE
  2
DIMSTYLE
  5
A
330
0
100
AcDbSymbolTable
 70
    10
100
AcDbDimStyleTable
  0
DIMSTYLE
105
69
330
A
100
AcDbSymbolTableRecord
100
AcDbDimStyleTableRecord
  2
AM_JIS
 70
     0
  4
"
 41
2.5
 42
0.0
 43
10.0
 44
1.0
 47
0.1
 48
0.1000000001
 73
     0
 74
     0
 77
     3
 78
     1
 79
     2
140
3.8
141
0.0
143
0.0393701
146
0.71
147
1.5
172
     1
176
     3
177
     3
178
     2
271
     2
272
     2
275
     1
283
     0
284
     8
340
11
341
6A
342
6A
371
    13
372
    13
  0
DIMSTYLE
105
70
330
A
100
AcDbSymbolTableRecord
100
AcDbDimStyleTableRecord
  2
AM_JIS$3
 70
     0
  4
"
 41
2.5
 42
0.0
 43
10.0
 44
1.0
 47
0.1
 48
0.1000000001
 73
     0
 74
     0
 77
     3
 78
     1
 79
     2
140
3.8
141
0.0
143
0.0393701
146
0.71
147
1.5
172
     1
176
     3
177
     3
178
     2
271
     2
272
     2
275
     1
283
     0
284
     8
288
     1
289
     0
340
11
341
6A
342
6A
371
    13
372
    13
  0
DIMSTYLE
105
71
102
{ACAD_REACTORS
330
1FC6
102
}
330
A
100
AcDbSymbolTableRecord
100
AcDbDimStyleTableRecord
  2
AM_JIS$4
 70
     0
  4
"
 41
2.5
 42
0.0
 43
10.0
 44
1.0
 47
0.1
 48
0.1000000001
 73
     0
 74
     0
 77
     3
 78
     1
 79
     2
140
3.8
141
0.0
143
0.0393701
146
0.71
147
1.5
172
     1
176
     3
177
     3
178
     2
271
     2
272
     2
275
     1
283
     0
284
     8
288
     1
289
     0
340
11
341
6A
342
6A
371
    13
372
    13
  0
DIMSTYLE
105
72
330
A
100
AcDbSymbolTableRecord
100
AcDbDimStyleTableRecord
  2
AM_JIS$6
 70
     0
  4
"
 41
2.5
 42
0.0
 43
10.0
 44
1.0
 47
0.1
 48
0.1000000001
 73
     0
 74
     0
 78
     1
 79
     2
140
3.8
141
0.0
143
0.0393701
146
0.71
147
1.5
172
     1
176
     3
177
     3
178
     2
271
     2
272
     2
275
     1
283
     0
284
     8
340
11
341
6A
342
6A
371
    13
372
    13
  0
DIMSTYLE
105
73
330
A
100
AcDbSymbolTableRecord
100
AcDbDimStyleTableRecord
  2
AM_JIS$7
 70
     0
  4
"
 41
2.5
 42
0.0
 43
10.0
 44
1.0
 47
0.1
 48
0.1000000001
 73
     0
 74
     0
 77
     3
 78
     1
 79
     2
140
5.0
141
0.0
143
0.0393701
146
0.71
147
1.5
172
     1
176
     3
177
     3
178
     2
271
     2
272
     2
275
     1
283
     0
284
     8
340
11
341
6A
342
6A
371
    13
372
    13
  0
DIMSTYLE
105
74
330
A
100
AcDbSymbolTableRecord
100
AcDbDimStyleTableRecord
  2
AM_JIS$SF
 70
     0
  4
"
 41
2.5
 42
1.0
 43
10.0
 44
1.0
 47
0.1
 48
0.1
 73
     0
 74
     0
 75
     1
 76
     1
 77
     3
 78
     8
 79
     2
140
3.5
141
0.0
143
0.0393701
146
0.71
147
1.5
176
   256
177
   256
178
     2
271
     2
272
     3
274
     4
340
11
341
6A
342
6A
343
6A
344
6A
371
    -1
372
    -1
  0
DIMSTYLE
105
79
330
A
100
AcDbSymbolTableRecord
100
AcDbDimStyleTableRecord
  2
AM_JIS$SH
 70
     0
  4
"
 41
2.5
 42
1.0
 43
10.0
 44
1.0
 47
0.1
 48
0.1
 73
     0
 74
     0
 75
     1
 76
     1
 77
     3
 78
     8
 79
     2
140
3.5
141
0.0
143
0.0393701
144
2.0
146
0.71
147
1.5
173
     1
176
   256
177
   256
178
     2
271
     2
272
     3
274
     4
340
11
341
6A
342
6A
343
75
344
6A
371
    -1
372
    -1
  0
DIMSTYLE
105
124
330
A
100
AcDbSymbolTableRecord
100
AcDbDimStyleTableRecord
  2
STANDARD
 70
     0
340
11
  0
DIMSTYLE
105
927
102
{ACAD_REACTORS
330
12E2
330
1370
330
13B3
330
1422
330
1492
330
156E
330
15DE
330
1675
102
}
330
A
100
AcDbSymbolTableRecord
100
AcDbDimStyleTableRecord
  2
AM_JIS$0
 70
     0
  4
"
 41
2.5
 42
0.0
 43
10.0
 44
1.0
 47
0.1
 48
0.1000000001
 73
     0
 74
     0
 77
     3
 78
     1
 79
     2
140
3.8
141
0.0
143
0.0393701
146
0.71
147
1.5
172
     1
176
     3
177
     3
178
     2
271
     2
272
     2
275
     1
283
     0
284
     8
289
     0
340
11
341
6A
342
6A
371
    13
372
    13
  0
DIMSTYLE
105
9A0
102
{ACAD_REACTORS
330
14DD
330
16DE
102
}
330
A
100
AcDbSymbolTableRecord
100
AcDbDimStyleTableRecord
  2
AM_JIS$2
 70
     0
  4
"
 41
2.5
 42
0.0
 43
10.0
 44
1.0
 47
0.1
 48
0.1000000001
 73
     0
 74
     0
 77
     3
 78
     1
 79
     2
140
3.8
141
0.0
143
0.0393701
146
0.71
147
1.5
172
     1
176
     3
177
     3
178
     2
271
     2
272
     2
275
     1
283
     0
284
     8
289
     0
340
11
341
6A
342
6A
371
    13
372
    13
  0
ENDTAB
  0
TABLE
  2
BLOCK_RECORD
  5
1
330
0
100
AcDbSymbolTable
 70
    19
  0
BLOCK_RECORD
  5
1F
102
{ACAD_XDICTIONARY
360
10B
102
}
330
1
100
AcDbSymbolTableRecord
100
AcDbBlockTableRecord
  2
*Model_Space
340
22
  0
BLOCK_RECORD
  5
1B
330
1
100
AcDbSymbolTableRecord
100
AcDbBlockTableRecord
  2
*Paper_Space
340
1E
  0
BLOCK_RECORD
  5
23
330
1
100
AcDbSymbolTableRecord
100
AcDbBlockTableRecord
  2
*Paper_Space0
340
26
  0
BLOCK_RECORD
  5
6A
330
1
100
AcDbSymbolTableRecord
100
AcDbBlockTableRecord
  2
_Open30
340
0
102
{BLKREFS
331
2092
331
2093
331
2187
331
2188
331
20A6
331
20A7
331
20AE
331
20AF
331
20B6
331
20B7
331
20BF
331
20C0
331
20CA
331
20CB
331
2199
331
219A
331
21AF
331
21B0
331
20E6
331
20E7
331
20EF
102
}
  0
BLOCK_RECORD
  5
75
330
1
100
AcDbSymbolTableRecord
100
AcDbBlockTableRecord
  2
GENAXEH
340
0
  0
BLOCK_RECORD
  5
12E3
330
1
100
AcDbSymbolTableRecord
100
AcDbBlockTableRecord
  2
*D3
340
0
  0
BLOCK_RECORD
  5
1371
330
1
100
AcDbSymbolTableRecord
100
AcDbBlockTableRecord
  2
*D4
340
0
  0
BLOCK_RECORD
  5
13B4
330
1
100
AcDbSymbolTableRecord
100
AcDbBlockTableRecord
  2
*D5
340
0
  0
BLOCK_RECORD
  5
1423
330
1
100
AcDbSymbolTableRecord
100
AcDbBlockTableRecord
  2
*D6
340
0
  0
BLOCK_RECORD
  5
1493
330
1
100
AcDbSymbolTableRecord
100
AcDbBlockTableRecord
  2
*D7
340
0
  0
BLOCK_RECORD
  5
14DE
330
1
100
AcDbSymbolTableRecord
100
AcDbBlockTableRecord
  2
*D8
340
0
  0
BLOCK_RECORD
  5
156F
330
1
100
AcDbSymbolTableRecord
100
AcDbBlockTableRecord
  2
*D9
340
0
  0
BLOCK_RECORD
  5
15DF
330
1
100
AcDbSymbolTableRecord
100
AcDbBlockTableRecord
  2
*D10
340
0
  0
BLOCK_RECORD
  5
1676
330
1
100
AcDbSymbolTableRecord
100
AcDbBlockTableRecord
  2
*D11
340
0
  0
BLOCK_RECORD
  5
16DF
330
1
100
AcDbSymbolTableRecord
100
AcDbBlockTableRecord
  2
*D12
340
0
  0
BLOCK_RECORD
  5
1C95
330
1
100
AcDbSymbolTableRecord
100
AcDbBlockTableRecord
  2
*U13
340
0
102
{BLKREFS
331
1C9A
102
}
  0
BLOCK_RECORD
  5
1C9B
330
1
100
AcDbSymbolTableRecord
100
AcDbBlockTableRecord
  2
*U14
340
0
102
{BLKREFS
331
1CA0
102
}
  0
BLOCK_RECORD
  5
1CA1
330
1
100
AcDbSymbolTableRecord
100
AcDbBlockTableRecord
  2
*U15
340
0
102
{BLKREFS
331
1CA5
102
}
  0
BLOCK_RECORD
  5
1CA6
330
1
100
AcDbSymbolTableRecord
100
AcDbBlockTableRecord
  2
*U16
340
0
102
{BLKREFS
331
1CAA
102
}
  0
BLOCK_RECORD
  5
1F62
330
1
100
AcDbSymbolTableRecord
100
AcDbBlockTableRecord
  2
*U17
340
0
  0
BLOCK_RECORD
  5
1FC7
330
1
100
AcDbSymbolTableRecord
100
AcDbBlockTableRecord
  2
*D18
340
0
  0
ENDTAB
  0
ENDSEC
  0
SECTION
  2
BLOCKS
  0
BLOCK
  5
20
330
1F
100
AcDbEntity
  8
0
100
AcDbBlockBegin
  2
*Model_Space
 70
     0
 71
     0
 10
0.0
 20
0.0
 30
0.0
  3
*Model_Space
  1

  0
ENDBLK
  5
21
330
1F
100
AcDbEntity
  8
0
100
AcDbBlockEnd
  0
BLOCK
  5
1C
330
1B
100
AcDbEntity
 67
     1
  8
0
100
AcDbBlockBegin
  2
*Paper_Space
 70
     0
 71
     0
 10
0.0
 20
0.0
 30
0.0
  3
*Paper_Space
  1

  0
ENDBLK
  5
1D
330
1B
100
AcDbEntity
 67
     1
  8
0
100
AcDbBlockEnd
  0
BLOCK
  5
24
330
23
100
AcDbEntity
  8
0
100
AcDbBlockBegin
  2
*Paper_Space0
 70
     0
 71
     0
 10
0.0
 20
0.0
 30
0.0
  3
*Paper_Space0
  1

  0
ENDBLK
  5
25
330
23
100
AcDbEntity
  8
0
100
AcDbBlockEnd
  0
BLOCK
  5
6E
330
6A
100
AcDbEntity
  8
0
100
AcDbBlockBegin
  2
_Open30
 70
     0
 71
     0
 10
0.0
 20
0.0
 30
0.0
  3
_Open30
  1

  0
LINE
  5
6B
330
6A
100
AcDbEntity
  8
0
 62
     0
370
    -2
100
AcDbLine
 10
-1.0
 20
0.26794919
 30
0.0
 11
0.0
 21
0.0
 31
0.0
  0
LINE
  5
6C
330
6A
100
AcDbEntity
  8
0
 62
     0
370
    -2
100
AcDbLine
 10
0.0
 20
0.0
 30
0.0
 11
-1.0
 21
-0.26794919
 31
0.0
  0
LINE
  5
6D
330
6A
100
AcDbEntity
  8
0
 62
     0
370
    -2
100
AcDbLine
 10
0.0
 20
0.0
 30
0.0
 11
-1.0
 21
0.0
 31
0.0
  0
ENDBLK
  5
6F
330
6A
100
AcDbEntity
  8
0
100
AcDbBlockEnd
  0
BLOCK
  5
77
330
75
100
AcDbEntity
  8
0
100
AcDbBlockBegin
  2
GENAXEH
 70
     0
 71
     0
 10
0.0
 20
0.0
 30
0.0
  3
GENAXEH
  1

  0
LINE
  5
76
330
75
100
AcDbEntity
  8
0
100
AcDbLine
 10
-1.0
 20
0.0
 30
0.0
 11
1.0
 21
0.0
 31
0.0
  0
ENDBLK
  5
78
330
75
100
AcDbEntity
  8
0
100
AcDbBlockEnd
  0
BLOCK
  5
12ED
330
12E3
100
AcDbEntity
  8
0
100
AcDbBlockBegin
  2
*D3
 70
     1
 71
     0
 10
0.0
 20
0.0
 30
0.0
  3
*D3
  1

  0
LINE
  5
208F
330
12E3
100
AcDbEntity
  8
PV0001_1
 62
     3
370
    13
100
AcDbLine
 10
0.0
 20
4.000000476837199
 30
0.0
 11
-0.000000000000002
 21
-28.19717572006312
 31
0.0
  0
LINE
  5
2090
330
12E3
100
AcDbEntity
  8
PV0001_1
 62
     3
370
    13
100
AcDbLine
 10
149.999999999999
 20
5.0000014305115
 30
0.0
 11
149.999999999999
 21
-28.19717572006312
 31
0.0
  0
LINE
  5
2091
330
12E3
100
AcDbEntity
  8
PV0001_1
 62
     3
370
    13
100
AcDbLine
 10
2.499999999999998
 20
-27.19717572006312
 30
0.0
 11
147.499999999999
 21
-27.19717572006312
 31
0.0
  0
INSERT
  5
2092
330
12E3
100
AcDbEntity
  8
PV0001_1
 62
     3
370
    13
100
AcDbBlockReference
  2
_Open30
 10
-0.0000000000000019
 20
-27.19717572006312
 30
0.0
 41
2.5
 42
2.5
 43
2.5
 50
180.0
  0
INSERT
  5
2093
330
12E3
100
AcDbEntity
  8
PV0001_1
 62
     3
370
    13
100
AcDbBlockReference
  2
_Open30
 10
149.999999999999
 20
-27.19717572006312
 30
0.0
 41
2.5
 42
2.5
 43
2.5
  0
MTEXT
  5
2094
330
12E3
100
AcDbEntity
  8
PV0001_1
 62
     2
100
AcDbMText
 10
72.98311651506035
 20
-23.79717572006312
 30
0.0
 40
3.8
 41
0.0
 71
     5
 72
     1
  1
150
 73
     1
 44
1.0
  0
POINT
  5
2095
330
12E3
100
AcDbEntity
  8
Defpoints
 62
     0
100
AcDbPoint
 10
0.0
 20
4.000000476837199
 30
0.0
  0
POINT
  5
2096
330
12E3
100
AcDbEntity
  8
Defpoints
 62
     0
100
AcDbPoint
 10
149.999999999999
 20
5.0000014305115
 30
0.0
  0
POINT
  5
2097
330
12E3
100
AcDbEntity
  8
Defpoints
 62
     0
100
AcDbPoint
 10
149.999999999999
 20
-27.19717572006312
 30
0.0
  0
ENDBLK
  5
12EE
330
12E3
100
AcDbEntity
  8
0
100
AcDbBlockEnd
  0
BLOCK
  5
137B
330
1371
100
AcDbEntity
  8
0
100
AcDbBlockBegin
  2
*D4
 70
     1
 71
     0
 10
0.0
 20
0.0
 30
0.0
  3
*D4
  1

  0
LINE
  5
2184
330
1371
100
AcDbEntity
  8
AM_5
 62
     3
370
    13
100
AcDbLine
 10
4.0
 20
-0.0000000000000009
 30
0.0
 11
-33.060501098633
 21
0.0000000000000096
 31
0.0
  0
LINE
  5
2185
330
1371
100
AcDbEntity
  8
AM_5
 62
     3
370
    13
100
AcDbLine
 10
25.757358551026
 20
29.9999995231619
 30
0.0
 11
-33.060501098633
 21
29.99999952316192
 31
0.0
  0
LINE
  5
2186
330
1371
100
AcDbEntity
  8
AM_5
 62
     3
370
    13
100
AcDbLine
 10
-32.060501098633
 20
2.500000000000009
 30
0.0
 11
-32.060501098633
 21
27.49999952316192
 31
0.0
  0
INSERT
  5
2187
330
1371
100
AcDbEntity
  8
AM_5
 62
     3
370
    13
100
AcDbBlockReference
  2
_Open30
 10
-32.060501098633
 20
0.0000000000000093
 30
0.0
 41
2.5
 42
2.5
 43
2.5
 50
270.0
  0
INSERT
  5
2188
330
1371
100
AcDbEntity
  8
AM_5
 62
     3
370
    13
100
AcDbBlockReference
  2
_Open30
 10
-32.060501098633
 20
29.99999952316192
 30
0.0
 41
2.5
 42
2.5
 43
2.5
 50
90.0
  0
MTEXT
  5
2189
330
1371
100
AcDbEntity
  8
AM_5
 62
     2
370
    13
100
AcDbMText
 10
-35.460501098633
 20
14.9999995231619
 30
0.0
 40
3.8
 41
0.0
 71
     5
 72
     1
  1
30
 11
6.123031769111886E-17
 21
1.0
 31
0.0
 73
     1
 44
1.0
  0
POINT
  5
218A
330
1371
100
AcDbEntity
  8
Defpoints
 62
     0
100
AcDbPoint
 10
4.0
 20
-0.0000000000000009
 30
0.0
  0
POINT
  5
218B
330
1371
100
AcDbEntity
  8
Defpoints
 62
     0
100
AcDbPoint
 10
25.757358551026
 20
29.9999995231619
 30
0.0
  0
POINT
  5
218C
330
1371
100
AcDbEntity
  8
Defpoints
 62
     0
100
AcDbPoint
 10
-32.060501098633
 20
29.99999952316192
 30
0.0
  0
ENDBLK
  5
137C
330
1371
100
AcDbEntity
  8
0
100
AcDbBlockEnd
  0
BLOCK
  5
13C0
330
13B4
100
AcDbEntity
  8
0
100
AcDbBlockBegin
  2
*D5
 70
     1
 71
     0
 10
0.0
 20
0.0
 30
0.0
  3
*D5
  1

  0
LINE
  5
20A1
330
13B4
100
AcDbEntity
  8
PV0001_1
 62
     3
370
    13
100
AcDbLine
 10
4.0
 20
-0.0000000000000009
 30
0.0
 11
22.540100097656
 21
-0.0000000000000061
 31
0.0
  0
LINE
  5
20A2
330
13B4
100
AcDbEntity
  8
PV0001_1
 62
     3
370
    13
100
AcDbLine
 10
21.540100097656
 20
-2.500000000000006
 30
0.0
 11
21.540100097656
 21
-5.000000000000005
 31
0.0
  0
LINE
  5
20A3
330
13B4
100
AcDbEntity
  8
PV0001_1
 62
     3
370
    13
100
AcDbLine
 10
21.540100097656
 20
7.500001430511496
 30
0.0
 11
21.54010009765601
 21
10.00000143051149
 31
0.0
  0
MTEXT
  5
20A4
330
13B4
100
AcDbEntity
  8
PV0001_1
 62
     2
100
AcDbMText
 10
18.140100097656
 20
-3.108237147331201
 30
0.0
 40
3.8
 41
0.0
 71
     5
 72
     1
  1
5
 11
6.123031769111886E-17
 21
1.0
 31
0.0
 73
     1
 44
1.0
  0
LINE
  5
20A5
330
13B4
100
AcDbEntity
  8
PV0001_1
 62
     3
370
    13
100
AcDbLine
 10
21.540100097656
 20
-0.0000000000000059
 30
0.0
 11
21.540100097656
 21
5.000001430511496
 31
0.0
  0
INSERT
  5
20A6
330
13B4
100
AcDbEntity
  8
PV0001_1
 62
     3
370
    13
100
AcDbBlockReference
  2
_Open30
 10
21.540100097656
 20
-0.0000000000000059
 30
0.0
 41
2.5
 42
2.5
 43
2.5
 50
90.0
  0
INSERT
  5
20A7
330
13B4
100
AcDbEntity
  8
PV0001_1
 62
     3
370
    13
100
AcDbBlockReference
  2
_Open30
 10
21.540100097656
 20
5.000001430511496
 30
0.0
 41
2.5
 42
2.5
 43
2.5
 50
270.0
  0
POINT
  5
20A8
330
13B4
100
AcDbEntity
  8
Defpoints
 62
     0
100
AcDbPoint
 10
4.0
 20
-0.0000000000000009
 30
0.0
  0
POINT
  5
20A9
330
13B4
100
AcDbEntity
  8
Defpoints
 62
     0
100
AcDbPoint
 10
9.655471801758004
 20
5.0000014305115
 30
0.0
  0
POINT
  5
20AA
330
13B4
100
AcDbEntity
  8
Defpoints
 62
     0
100
AcDbPoint
 10
21.540100097656
 20
5.000001430511496
 30
0.0
  0
ENDBLK
  5
13C1
330
13B4
100
AcDbEntity
  8
0
100
AcDbBlockEnd
  0
BLOCK
  5
142D
330
1423
100
AcDbEntity
  8
0
100
AcDbBlockBegin
  2
*D6
 70
     1
 71
     0
 10
0.0
 20
0.0
 30
0.0
  3
*D6
  1

  0
LINE
  5
20AB
330
1423
100
AcDbEntity
  8
PV0001_1
 62
     3
370
    13
100
AcDbLine
 10
149.999999999999
 20
29.9999995231619
 30
0.0
 11
174.540100097656
 21
29.99999952316189
 31
0.0
  0
LINE
  5
20AC
330
1423
100
AcDbEntity
  8
PV0001_1
 62
     3
370
    13
100
AcDbLine
 10
149.999999999999
 20
5.0000014305115
 30
0.0
 11
174.540100097656
 21
5.000001430511492
 31
0.0
  0
LINE
  5
20AD
330
1423
100
AcDbEntity
  8
PV0001_1
 62
     3
370
    13
100
AcDbLine
 10
173.540100097656
 20
27.49999952316189
 30
0.0
 11
173.540100097656
 21
7.500001430511492
 31
0.0
  0
INSERT
  5
20AE
330
1423
100
AcDbEntity
  8
PV0001_1
 62
     3
370
    13
100
AcDbBlockReference
  2
_Open30
 10
173.540100097656
 20
29.99999952316189
 30
0.0
 41
2.5
 42
2.5
 43
2.5
 50
90.0
  0
INSERT
  5
20AF
330
1423
100
AcDbEntity
  8
PV0001_1
 62
     3
370
    13
100
AcDbBlockReference
  2
_Open30
 10
173.540100097656
 20
5.000001430511492
 30
0.0
 41
2.5
 42
2.5
 43
2.5
 50
270.0
  0
MTEXT
  5
20B0
330
1423
100
AcDbEntity
  8
PV0001_1
 62
     2
100
AcDbMText
 10
170.139726081908
 20
17.4999995231619
 30
0.0
 40
3.8
 41
0.0
 71
     5
 72
     1
  1
25
 11
6.123031769111886E-17
 21
1.0
 31
0.0
 73
     1
 44
1.0
  0
POINT
  5
20B1
330
1423
100
AcDbEntity
  8
Defpoints
 62
     0
100
AcDbPoint
 10
149.999999999999
 20
29.9999995231619
 30
0.0
  0
POINT
  5
20B2
330
1423
100
AcDbEntity
  8
Defpoints
 62
     0
100
AcDbPoint
 10
149.999999999999
 20
5.0000014305115
 30
0.0
  0
POINT
  5
20B3
330
1423
100
AcDbEntity
  8
Defpoints
 62
     0
100
AcDbPoint
 10
173.540100097656
 20
5.000001430511492
 30
0.0
  0
ENDBLK
  5
142E
330
1423
100
AcDbEntity
  8
0
100
AcDbBlockEnd
  0
BLOCK
  5
149D
330
1493
100
AcDbEntity
  8
0
100
AcDbBlockBegin
  2
*D7
 70
     1
 71
     0
 10
0.0
 20
0.0
 30
0.0
  3
*D7
  1

  0
LINE
  5
20B4
330
1493
100
AcDbEntity
  8
PV0001_1
 62
     3
370
    13
100
AcDbLine
 10
25.757358551026
 20
29.9999995231619
 30
0.0
 11
25.757358551026
 21
49.0000948905939
 31
0.0
  0
LINE
  5
20B5
330
1493
100
AcDbEntity
  8
PV0001_1
 62
     3
370
    13
100
AcDbLine
 10
2.500000000000003
 20
48.0000948905939
 30
0.0
 11
23.257358551026
 21
48.0000948905939
 31
0.0
  0
INSERT
  5
20B6
330
1493
100
AcDbEntity
  8
PV0001_1
 62
     3
370
    13
100
AcDbBlockReference
  2
_Open30
 10
0.0000000000000027
 20
48.0000948905939
 30
0.0
 41
2.5
 42
2.5
 43
2.5
 50
180.0
  0
INSERT
  5
20B7
330
1493
100
AcDbEntity
  8
PV0001_1
 62
     3
370
    13
100
AcDbBlockReference
  2
_Open30
 10
25.757358551026
 20
48.0000948905939
 30
0.0
 41
2.5
 42
2.5
 43
2.5
  0
MTEXT
  5
20B8
330
1493
100
AcDbEntity
  8
PV0001_1
 62
     2
100
AcDbMText
 10
12.878677368164
 20
51.5900948905939
 30
0.0
 40
3.8
 41
0.0
 71
     5
 72
     1
  1
(26)
 73
     1
 44
1.0
  0
POINT
  5
20B9
330
1493
100
AcDbEntity
  8
Defpoints
 62
     0
100
AcDbPoint
 10
0.0
 20
4.000000476837199
 30
0.0
  0
POINT
  5
20BA
330
1493
100
AcDbEntity
  8
Defpoints
 62
     0
100
AcDbPoint
 10
25.757358551026
 20
29.9999995231619
 30
0.0
  0
POINT
  5
20BB
330
1493
100
AcDbEntity
  8
Defpoints
 62
     0
100
AcDbPoint
 10
25.757358551026
 20
48.0000948905939
 30
0.0
  0
ENDBLK
  5
149E
330
1493
100
AcDbEntity
  8
0
100
AcDbBlockEnd
  0
BLOCK
  5
14EA
330
14DE
100
AcDbEntity
  8
0
100
AcDbBlockBegin
  2
*D8
 70
     1
 71
     0
 10
0.0
 20
0.0
 30
0.0
  3
*D8
  1

  0
LINE
  5
20BC
330
14DE
100
AcDbEntity
  8
PV0001_1
 62
     3
370
    13
100
AcDbLine
 10
25.757358551026
 20
29.9999995231619
 30
0.0
 11
40.75880536169431
 21
45.00144824117961
 31
0.0
  0
LINE
  5
20BD
330
14DE
100
AcDbEntity
  8
PV0001_1
 62
     3
370
    13
100
AcDbLine
 10
0.0000000000000042
 20
4.242637697232981
 30
0.0
 11
0.0000000000000249
 21
61.88429669027217
 31
0.0
  0
ARC
  5
20BE
330
14DE
100
AcDbEntity
  8
PV0001_1
 62
     3
370
    13
100
AcDbCircle
 10
0.0000000000000042
 20
4.242637697232981
 30
0.0
 40
56.64165899303919
100
AcDbArc
 50
47.52907995584288
 51
87.47092368657457
  0
INSERT
  5
20BF
330
14DE
100
AcDbEntity
  8
PV0001_1
 62
     3
370
    13
100
AcDbBlockReference
  2
_Open30
 10
40.05169862546008
 20
44.29434141504076
 30
0.0
 41
2.5
 42
2.5
 43
2.5
 50
316.2645417991302
  0
INSERT
  5
20C0
330
14DE
100
AcDbEntity
  8
PV0001_1
 62
     3
370
    13
100
AcDbBlockReference
  2
_Open30
 10
0.0000000000000249
 20
60.88429669027217
 30
0.0
 41
2.5
 42
2.5
 43
2.5
 50
178.7354618432873
  0
MTEXT
  5
20C1
330
14DE
100
AcDbEntity
  8
PV0001_1
 62
     2
100
AcDbMText
 10
22.9769468056794
 20
59.71389809507669
 30
0.0
 40
3.8
 41
0.0
 71
     5
 72
     1
  1
45°
 11
0.9238795417740648
 21
-0.3826834100027645
 31
0.0
 73
     1
 44
1.0
  0
POINT
  5
20C2
330
14DE
100
AcDbEntity
  8
Defpoints
 62
     0
100
AcDbPoint
 10
14.65993893422163
 20
58.95427927312275
 30
0.0
  0
POINT
  5
20C3
330
14DE
100
AcDbEntity
  8
Defpoints
 62
     0
100
AcDbPoint
 10
10.75591468811101
 20
14.9985537528979
 30
0.0
  0
POINT
  5
20C4
330
14DE
100
AcDbEntity
  8
Defpoints
 62
     0
100
AcDbPoint
 10
-0.0000000000000036
 20
-53.88429117202751
 30
0.0
  0
POINT
  5
20C5
330
14DE
100
AcDbEntity
  8
Defpoints
 62
     0
100
AcDbPoint
 10
0.0
 20
4.000000476837199
 30
0.0
  0
POINT
  5
20C6
330
14DE
100
AcDbEntity
  8
Defpoints
 62
     0
100
AcDbPoint
 10
25.757358551026
 20
29.9999995231619
 30
0.0
  0
ENDBLK
  5
14EB
330
14DE
100
AcDbEntity
  8
0
100
AcDbBlockEnd
  0
BLOCK
  5
1579
330
156F
100
AcDbEntity
  8
0
100
AcDbBlockBegin
  2
*D9
 70
     1
 71
     0
 10
0.0
 20
0.0
 30
0.0
  3
*D9
  1

  0
LINE
  5
20C7
330
156F
100
AcDbEntity
  8
PV0001_1
 62
     3
370
    13
100
AcDbLine
 10
-30.713890075683
 20
108.2441248893669
 30
0.0
 11
-27.07702304258095
 21
111.8809917634968
 31
0.0
  0
LINE
  5
20C8
330
156F
100
AcDbEntity
  8
PV0001_1
 62
     3
370
    13
100
AcDbLine
 10
-13.03622436523401
 20
90.56645917892394
 30
0.0
 11
-9.399357718491821
 21
94.20332566669396
 31
0.0
  0
LINE
  5
20C9
330
156F
100
AcDbEntity
  8
PV0001_1
 62
     3
370
    13
100
AcDbLine
 10
-26.01636292489111
 20
109.4061180061625
 30
0.0
 11
-11.87423142946332
 21
95.26398589256374
 31
0.0
  0
INSERT
  5
20CA
330
156F
100
AcDbEntity
  8
PV0001_1
 62
     3
370
    13
100
AcDbBlockReference
  2
_Open30
 10
-27.78412983922178
 20
111.1738849977645
 30
0.0
 41
2.5
 42
2.5
 43
2.5
 50
134.9999987477635
  0
INSERT
  5
20CB
330
156F
100
AcDbEntity
  8
PV0001_1
 62
     3
370
    13
100
AcDbBlockReference
  2
_Open30
 10
-10.10646451513265
 20
93.49621890096168
 30
0.0
 41
2.5
 42
2.5
 43
2.5
 50
314.9999987477636
  0
MTEXT
  5
20CC
330
156F
100
AcDbEntity
  8
PV0001_1
 62
     2
100
AcDbMText
 10
-16.54086966355471
 20
104.7394794859525
 30
0.0
 40
3.8
 41
0.0
 71
     5
 72
     1
  1
25
 11
0.7071067657322696
 21
-0.7071067966408252
 31
0.0
 73
     1
 44
1.0
  0
POINT
  5
20CD
330
156F
100
AcDbEntity
  8
Defpoints
 62
     0
100
AcDbPoint
 10
-30.713890075683
 20
108.2441248893669
 30
0.0
  0
POINT
  5
20CE
330
156F
100
AcDbEntity
  8
Defpoints
 62
     0
100
AcDbPoint
 10
-13.03622436523401
 20
90.56645917892394
 30
0.0
  0
POINT
  5
20CF
330
156F
100
AcDbEntity
  8
Defpoints
 62
     0
100
AcDbPoint
 10
-10.10646451513265
 20
93.49621890096168
 30
0.0
  0
ENDBLK
  5
157A
330
156F
100
AcDbEntity
  8
0
100
AcDbBlockEnd
  0
BLOCK
  5
15EB
330
15DF
100
AcDbEntity
  8
0
100
AcDbBlockBegin
  2
*D10
 70
     1
 71
     0
 10
0.0
 20
0.0
 30
0.0
  3
*D10
  1

  0
LINE
  5
2196
330
15DF
100
AcDbEntity
  8
AM_5
 62
     3
370
    13
100
AcDbLine
 10
-67.458778381344
 20
71.49923658370892
 30
0.0
 11
-81.04600077570937
 21
57.91201478325866
 31
0.0
  0
LINE
  5
2197
330
15DF
100
AcDbEntity
  8
AM_5
 62
     3
370
    13
100
AcDbLine
 10
-50.663269042964
 20
53.0064196586609
 30
0.0
 11
-63.40183801107214
 21
40.26785124737215
 31
0.0
  0
LINE
  5
2198
330
15DF
100
AcDbEntity
  8
AM_5
 62
     3
370
    13
100
AcDbLine
 10
-78.57112706473787
 20
56.85135455738887
 30
0.0
 11
-64.46249812876198
 21
42.74272500470648
 31
0.0
  0
INSERT
  5
2199
330
15DF
100
AcDbEntity
  8
AM_5
 62
     3
370
    13
100
AcDbBlockReference
  2
_Open30
 10
-80.33889397906854
 20
58.61912154899093
 30
0.0
 41
2.5
 42
2.5
 43
2.5
 50
134.9999987477635
  0
INSERT
  5
219A
330
15DF
100
AcDbEntity
  8
AM_5
 62
     3
370
    13
100
AcDbBlockReference
  2
_Open30
 10
-62.69473121443131
 20
40.97495801310442
 30
0.0
 41
2.5
 42
2.5
 43
2.5
 50
314.9999987477636
  0
MTEXT
  5
219B
330
15DF
100
AcDbEntity
  8
AM_5
 62
     2
370
    13
100
AcDbMText
 10
-69.11238760788775
 20
52.20146984239754
 30
0.0
 40
3.8
 41
0.0
 71
     5
 72
     1
  1
25
 11
0.7071067657322696
 21
-0.7071067966408252
 31
0.0
 73
     1
 44
1.0
  0
POINT
  5
219C
330
15DF
100
AcDbEntity
  8
Defpoints
 62
     0
100
AcDbPoint
 10
-67.458778381344
 20
71.49923658370892
 30
0.0
  0
POINT
  5
219D
330
15DF
100
AcDbEntity
  8
Defpoints
 62
     0
100
AcDbPoint
 10
-50.663269042964
 20
53.0064196586609
 30
0.0
  0
POINT
  5
219E
330
15DF
100
AcDbEntity
  8
Defpoints
 62
     0
100
AcDbPoint
 10
-62.69473121443131
 20
40.97495801310442
 30
0.0
  0
ENDBLK
  5
15EC
330
15DF
100
AcDbEntity
  8
0
100
AcDbBlockEnd
  0
BLOCK
  5
1682
330
1676
100
AcDbEntity
  8
0
100
AcDbBlockBegin
  2
*D11
 70
     1
 71
     0
 10
0.0
 20
0.0
 30
0.0
  3
*D11
  1

  0
LINE
  5
21AB
330
1676
100
AcDbEntity
  8
AM_5
 62
     3
370
    13
100
AcDbLine
 10
1.171573638916002
 20
6.828429698943899
 30
0.0
 11
-17.25644341487046
 21
-11.59958654933003
 31
0.0
  0
LINE
  5
21AC
330
1676
100
AcDbEntity
  8
AM_5
 62
     3
370
    13
100
AcDbLine
 10
6.828426361084
 20
1.1715726852417
 30
0.0
 11
-11.59958867056956
 21
-17.2564415408994
 31
0.0
  0
LINE
  5
21AD
330
1676
100
AcDbEntity
  8
AM_5
 62
     3
370
    13
100
AcDbLine
 10
-14.78156970389896
 20
-12.66024677519982
 30
0.0
 11
-12.6602487882594
 21
-14.78156778356507
 31
0.0
  0
MTEXT
  5
21AE
330
1676
100
AcDbEntity
  8
AM_5
 62
     2
370
    13
100
AcDbMText
 10
-10.06683947401048
 20
-12.56665099401767
 30
0.0
 40
3.8
 41
0.0
 71
     5
 72
     1
  1
8
 11
0.7071067657322696
 21
-0.7071067966408252
 31
0.0
 73
     1
 44
1.0
  0
INSERT
  5
21AF
330
1676
100
AcDbEntity
  8
AM_5
 62
     3
370
    13
100
AcDbBlockReference
  2
_Open30
 10
-16.54933661822964
 20
-10.89247978359776
 30
0.0
 41
2.5
 42
2.5
 43
2.5
 50
134.9999987477635
  0
INSERT
  5
21B0
330
1676
100
AcDbEntity
  8
AM_5
 62
     3
370
    13
100
AcDbBlockReference
  2
_Open30
 10
-10.89248187392873
 20
-16.54933477516713
 30
0.0
 41
2.5
 42
2.5
 43
2.5
 50
314.9999987477636
  0
POINT
  5
21B1
330
1676
100
AcDbEntity
  8
Defpoints
 62
     0
100
AcDbPoint
 10
1.171573638916002
 20
6.828429698943899
 30
0.0
  0
POINT
  5
21B2
330
1676
100
AcDbEntity
  8
Defpoints
 62
     0
100
AcDbPoint
 10
6.828426361084
 20
1.1715726852417
 30
0.0
  0
POINT
  5
21B3
330
1676
100
AcDbEntity
  8
Defpoints
 62
     0
100
AcDbPoint
 10
-10.89248187392873
 20
-16.54933477516713
 30
0.0
  0
ENDBLK
  5
1683
330
1676
100
AcDbEntity
  8
0
100
AcDbBlockEnd
  0
BLOCK
  5
16EB
330
16DF
100
AcDbEntity
  8
0
100
AcDbBlockBegin
  2
*D12
 70
     1
 71
     0
 10
0.0
 20
0.0
 30
0.0
  3
*D12
  1

  0
LINE
  5
20E4
330
16DF
100
AcDbEntity
  8
PV0001_1
 62
     3
370
    13
100
AcDbLine
 10
-0.5051841735839987
 20
-0.5051813125610011
 30
0.0
 11
-23.37730457508089
 21
-23.37730314456902
 31
0.0
  0
ARC
  5
20E5
330
16DF
100
AcDbEntity
  8
PV0001_1
 62
     3
370
    13
100
AcDbCircle
 10
-0.000002892619008
 20
-0.0000000000000105
 30
0.0
 40
32.06049812489085
100
AcDbArc
 50
184.4689188358527
 51
220.5310829558974
  0
INSERT
  5
20E6
330
16DF
100
AcDbEntity
  8
PV0001_1
 62
     3
370
    13
100
AcDbBlockReference
  2
_Open30
 10
-32.06050101750986
 20
-0.0000000000000018
 30
0.0
 41
2.5
 42
2.5
 43
2.5
 50
92.23445941792633
  0
INSERT
  5
20E7
330
16DF
100
AcDbEntity
  8
PV0001_1
 62
     3
370
    13
100
AcDbBlockReference
  2
_Open30
 10
-22.67019781600694
 20
-22.67019634126988
 30
0.0
 41
2.5
 42
2.5
 43
2.5
 50
312.7655423738238
  0
MTEXT
  5
20E8
330
16DF
100
AcDbEntity
  8
PV0001_1
 62
     2
100
AcDbMText
 10
-26.47885048500605
 20
-10.96789783623151
 30
0.0
 40
3.8
 41
0.0
 71
     5
 72
     1
  1
45°
 11
0.382683433778361
 21
-0.9238795319258907
 31
0.0
 73
     1
 44
1.0
  0
POINT
  5
20E9
330
16DF
100
AcDbEntity
  8
Defpoints
 62
     0
100
AcDbPoint
 10
-27.76520839255987
 20
-16.03024964129331
 30
0.0
  0
POINT
  5
20EA
330
16DF
100
AcDbEntity
  8
Defpoints
 62
     0
100
AcDbPoint
 10
-21.859298706055
 20
-0.0000000000000018
 30
0.0
  0
POINT
  5
20EB
330
16DF
100
AcDbEntity
  8
Defpoints
 62
     0
100
AcDbPoint
 10
22.36693572998001
 20
22.3669400215141
 30
0.0
  0
POINT
  5
20EC
330
16DF
100
AcDbEntity
  8
Defpoints
 62
     0
100
AcDbPoint
 10
-0.5051841735839987
 20
-0.5051813125610011
 30
0.0
  0
POINT
  5
20ED
330
16DF
100
AcDbEntity
  8
Defpoints
 62
     0
100
AcDbPoint
 10
-27.459899902344
 20
0.0000000000000018
 30
0.0
  0
ENDBLK
  5
16EC
330
16DF
100
AcDbEntity
  8
0
100
AcDbBlockEnd
  0
BLOCK
  5
1C96
330
1C95
100
AcDbEntity
  8
0
100
AcDbBlockBegin
  2
*U13
 70
     1
 71
     0
 10
0.0
 20
0.0
 30
0.0
  3
*U13
  1

  0
CIRCLE
  5
1C98
330
1C95
100
AcDbEntity
  8
0
  6
Continuous
 48
0.5
370
    13
100
AcDbCircle
 10
-57.86852645874
 20
5.5048112869263
 30
0.0
 40
0.3000000119209
  0
HATCH
  5
1C99
330
1C95
100
AcDbEntity
  8
0
370
    13
100
AcDbHatch
 10
0.0
 20
0.0
 30
0.0
210
0.0
220
0.0
230
1.0
  2
SOLID
 70
     1
 71
     0
 91
        1
 92
        1
 93
        1
 72
     2
 10
-57.86852645874
 20
5.5048112869263
 40
0.3000000119209
 50
0.0
 51
360.0
 73
     1
 97
        0
 75
     0
 76
     1
 98
        1
 10
0.0
 20
0.0
  0
ENDBLK
  5
1C97
330
1C95
100
AcDbEntity
  8
0
100
AcDbBlockEnd
  0
BLOCK
  5
1C9C
330
1C9B
100
AcDbEntity
  8
0
100
AcDbBlockBegin
  2
*U14
 70
     1
 71
     0
 10
0.0
 20
0.0
 30
0.0
  3
*U14
  1

  0
CIRCLE
  5
1C9E
330
1C9B
100
AcDbEntity
  8
0
  6
Continuous
 48
0.5
370
    13
100
AcDbCircle
 10
-109.70336914062
 20
57.339656829834
 30
0.0
 40
0.3000000119209
  0
HATCH
  5
1C9F
330
1C9B
100
AcDbEntity
  8
0
370
    13
100
AcDbHatch
 10
0.0
 20
0.0
 30
0.0
210
0.0
220
0.0
230
1.0
  2
SOLID
 70
     1
 71
     0
 91
        1
 92
        1
 93
        1
 72
     2
 10
-109.70336914062
 20
57.339656829834
 40
0.3000000119209
 50
0.0
 51
360.0
 73
     1
 97
        0
 75
     0
 76
     1
 98
        1
 10
0.0
 20
0.0
  0
ENDBLK
  5
1C9D
330
1C9B
100
AcDbEntity
  8
0
100
AcDbBlockEnd
  0
BLOCK
  5
1CA2
330
1CA1
100
AcDbEntity
  8
0
100
AcDbBlockBegin
  2
*U15
 70
     1
 71
     0
 10
0.0
 20
0.0
 30
0.0
  3
*U15
  1

  0
LEADER
  5
1CA4
330
1CA1
100
AcDbEntity
  8
0
  6
Continuous
 48
0.5
370
    13
100
AcDbLeader
  3
AM_JIS$7
 76
     2
 10
-96.66372680664
 20
-26.07954788208
 30
0.0
 10
-103.73479461669
 20
-33.150615692138
 30
0.0
1001
ACAD
1000
DSTYLE
1002
{
1070
   173
1070
     1
1070
   341
1005
6A
1070
   176
1070
     0
1002
}
  0
ENDBLK
  5
1CA3
330
1CA1
100
AcDbEntity
  8
0
100
AcDbBlockEnd
  0
BLOCK
  5
1CA7
330
1CA6
100
AcDbEntity
  8
0
100
AcDbBlockBegin
  2
*U16
 70
     1
 71
     0
 10
0.0
 20
0.0
 30
0.0
  3
*U16
  1

  0
LEADER
  5
1CA9
330
1CA6
100
AcDbEntity
  8
0
  6
Continuous
 48
0.5
370
    13
100
AcDbLeader
  3
AM_JIS$7
 76
     2
 10
-110.80586242675
 20
-26.07954788208
 30
0.0
 10
-103.73479461669
 20
-33.150615692138
 30
0.0
1001
ACAD
1000
DSTYLE
1002
{
1070
   173
1070
     1
1070
   341
1005
6A
1070
   176
1070
     0
1002
}
  0
ENDBLK
  5
1CA8
330
1CA6
100
AcDbEntity
  8
0
100
AcDbBlockEnd
  0
BLOCK
  5
1F63
330
1F62
100
AcDbEntity
  8
0
100
AcDbBlockBegin
  2
*U17
 70
     1
 71
     0
 10
0.0
 20
0.0
 30
0.0
  3
*U17
  1

  0
ENDBLK
  5
1F64
330
1F62
100
AcDbEntity
  8
0
100
AcDbBlockEnd
  0
BLOCK
  5
1FCD
330
1FC7
100
AcDbEntity
  8
0
100
AcDbBlockBegin
  2
*D18
 70
     1
 71
     0
 10
0.0
 20
0.0
 30
0.0
  3
*D18
  1

  0
LINE
  5
20EE
330
1FC7
100
AcDbEntity
  8
AM_0
 62
     3
370
    13
100
AcDbLine
 10
-88.69223022460402
 20
139.9999995231569
 30
0.0
 11
-137.6178675220282
 21
11.49890219305274
 31
0.0
  0
INSERT
  5
20EF
330
1FC7
100
AcDbEntity
  8
AM_0
 62
     3
370
    13
100
AcDbBlockReference
  2
_Open30
 10
-138.5074245637996
 20
9.162518605232684
 30
0.0
 41
2.5
 42
2.5
 43
2.5
 50
249.1561186621786
  0
MTEXT
  5
20F0
330
1FC7
100
AcDbEntity
  8
AM_0
 62
     2
100
AcDbMText
 10
-129.5985412126078
 20
42.11768899939075
 30
0.0
 40
3.8
 41
0.0
 71
     5
 72
     1
  1
%%c280
 11
0.3558228167085394
 21
0.9345534351280301
 31
0.0
 73
     1
 44
1.0
  0
POINT
  5
20F1
330
1FC7
100
AcDbEntity
  8
Defpoints
 62
     0
100
AcDbPoint
 10
-138.5074245637996
 20
9.162518605232684
 30
0.0
  0
POINT
  5
20F2
330
1FC7
100
AcDbEntity
  8
Defpoints
 62
     0
100
AcDbPoint
 10
-88.69223022460402
 20
139.9999995231569
 30
0.0
  0
ENDBLK
  5
1FCE
330
1FC7
100
AcDbEntity
  8
0
100
AcDbBlockEnd
  0
ENDSEC
  0
SECTION
  2
ENTITIES
  0
DIMENSION
  5
12E2
330
1F
100
AcDbEntity
  8
AM_5
370
    13
100
AcDbDimension
  2
*D3
 10
149.999999999999
 20
-27.19717572006312
 30
0.0
 11
72.98311651506035
 21
-27.19717572006312
 31
0.0
 70
   160
  1
<>
 71
     5
 42
149.999999999999
  3
AM_JIS$0
100
AcDbAlignedDimension
 13
0.0
 23
4.000000476837199
 33
0.0
 14
149.999999999999
 24
5.0000014305115
 34
0.0
100
AcDbRotatedDimension
1001
ACAD
1000
DSTYLE
1002
{
1070
   284
1070
     8
1070
   271
1070
     0
1070
    45
1040
0.1
1070
   173
1070
     1
1070
   343
1005
6A
1070
   344
1005
6A
1002
}
  0
DIMENSION
  5
1370
330
1F
100
AcDbEntity
  8
AM_5
370
    13
100
AcDbDimension
  2
*D4
 10
-32.060501098633
 20
29.99999952316192
 30
0.0
 11
-32.060501098633
 21
14.9999995231619
 31
0.0
 70
   160
  1
<>
 71
     5
 42
29.9999995231619
  3
AM_JIS$0
100
AcDbAlignedDimension
 13
4.0
 23
-0.0000000000000009
 33
0.0
 14
25.757358551026
 24
29.9999995231619
 34
0.0
 50
90.0
100
AcDbRotatedDimension
1001
ACAD
1000
DSTYLE
1002
{
1070
   284
1070
     8
1070
   271
1070
     0
1070
    45
1040
0.1
1070
   173
1070
     1
1070
   343
1005
6A
1070
   344
1005
6A
1002
}
  0
DIMENSION
  5
13B3
330
1F
100
AcDbEntity
  8
AM_5
370
    13
100
AcDbDimension
  2
*D5
 10
21.540100097656
 20
5.000001430511496
 30
0.0
 11
21.540100097656
 21
-3.108237147331201
 31
0.0
 70
   160
  1
5
 71
     5
 42
5.000001430511501
  3
AM_JIS$0
100
AcDbAlignedDimension
 13
4.0
 23
-0.0000000000000009
 33
0.0
 14
9.655471801758004
 24
5.0000014305115
 34
0.0
 50
90.0
100
AcDbRotatedDimension
1001
ACAD
1000
DSTYLE
1002
{
1070
   284
1070
     8
1070
   271
1070
     0
1070
    45
1040
0.1
1070
   173
1070
     1
1070
   343
1005
6A
1070
   344
1005
6A
1070
    76
1070
     1
1070
   279
1070
     1
1002
}
  0
DIMENSION
  5
1422
330
1F
100
AcDbEntity
  8
AM_5
370
    13
100
AcDbDimension
  2
*D6
 10
173.540100097656
 20
5.000001430511492
 30
0.0
 11
173.540100097656
 21
17.4999995231619
 31
0.0
 70
   160
  1
<>
 71
     5
 42
24.9999980926504
  3
AM_JIS$0
100
AcDbAlignedDimension
 13
149.999999999999
 23
29.9999995231619
 33
0.0
 14
149.999999999999
 24
5.0000014305115
 34
0.0
 50
90.0
100
AcDbRotatedDimension
1001
ACAD
1000
DSTYLE
1002
{
1070
    45
1040
0.1
1070
    47
1040
0.0
1070
    48
1040
0.33
1070
   146
1040
0.5
1070
   173
1070
     1
1070
   271
1070
     0
1070
   343
1005
6A
1070
   344
1005
6A
1002
}
  0
DIMENSION
  5
1492
330
1F
100
AcDbEntity
  8
AM_5
370
    13
100
AcDbDimension
  2
*D7
 10
25.757358551026
 20
48.0000948905939
 30
0.0
 11
12.878677368164
 21
48.0000948905939
 31
0.0
 70
   160
  1
(<>)
 71
     5
 42
25.757358551026
  3
AM_JIS$0
100
AcDbAlignedDimension
 13
0.0
 23
4.000000476837199
 33
0.0
 14
25.757358551026
 24
29.9999995231619
 34
0.0
100
AcDbRotatedDimension
1001
ACAD
1000
DSTYLE
1002
{
1070
    45
1040
0.01
1070
    75
1070
     1
1070
   173
1070
     1
1070
   271
1070
     0
1070
   343
1005
6A
1070
   344
1005
6A
1002
}
  0
DIMENSION
  5
14DD
330
1F
100
AcDbEntity
  8
AM_5
370
    13
100
AcDbDimension
  2
*D8
 10
25.757358551026
 20
29.9999995231619
 30
0.0
 11
21.67582321167
 21
56.57270765304487
 31
0.0
 70
   162
  1
<>
 71
     5
 42
0.7853980998252708
  3
AM_JIS$2
100
AcDb2LineAngularDimension
 13
-0.0000000000000071
 23
-53.88429117202751
 33
0.0
 14
0.0
 24
4.000000476837199
 34
0.0
 15
10.75591468811101
 25
14.9985537528979
 35
0.0
 16
14.65993893422163
 26
58.95427927312275
 36
0.0
1001
ACAD
1000
DSTYLE
1002
{
1070
   284
1070
     8
1070
   179
1070
     0
1070
   173
1070
     1
1070
   343
1005
6A
1070
   344
1005
6A
1002
}
  0
DIMENSION
  5
156E
330
1F
100
AcDbEntity
  8
AM_5
370
    13
100
AcDbDimension
  2
*D9
 10
-10.10646451513265
 20
93.49621890096168
 30
0.0
 11
-18.945297241211
 21
102.3350520133969
 31
0.0
 70
   160
  1
<>
 71
     5
 42
24.99999459881055
  3
AM_JIS$0
100
AcDbAlignedDimension
 13
-30.713890075683
 23
108.2441248893669
 33
0.0
 14
-13.036224365234
 24
90.56645917892391
 34
0.0
 50
314.9999987477635
100
AcDbRotatedDimension
1001
ACAD
1000
DSTYLE
1002
{
1070
    45
1040
0.1
1070
    47
1040
0.0
1070
    48
1040
0.33
1070
   146
1040
0.5
1070
   173
1070
     1
1070
   271
1070
     0
1070
   343
1005
6A
1070
   344
1005
6A
1002
}
  0
DIMENSION
  5
15DE
330
1F
100
AcDbEntity
  8
AM_5
370
    13
100
AcDbDimension
  2
*D10
 10
-62.69473121443131
 20
40.97495801310442
 30
0.0
 11
-71.51681518554405
 21
49.7970423698419
 31
0.0
 70
   160
  1
<>
 71
     5
 42
24.95261482382395
  3
AM_JIS$0
100
AcDbAlignedDimension
 13
-67.45877838134399
 23
71.49923658370891
 33
0.0
 14
-50.663269042964
 24
53.0064196586609
 34
0.0
 50
314.9999987477635
100
AcDbRotatedDimension
1001
ACAD
1000
DSTYLE
1002
{
1070
   284
1070
     8
1070
   271
1070
     0
1070
    45
1040
0.1
1070
   173
1070
     1
1070
   343
1005
6A
1070
   344
1005
6A
1002
}
  0
DIMENSION
  5
1675
330
1F
100
AcDbEntity
  8
AM_5
370
    13
100
AcDbDimension
  2
*D11
 10
-10.89248187392873
 20
-16.54933477516713
 30
0.0
 11
-12.47100258258928
 21
-14.97081399750739
 31
0.0
 70
   160
  1
<>
 71
     5
 42
8.000000874610144
  3
AM_JIS$0
100
AcDbAlignedDimension
 13
1.171573638916001
 23
6.828429698943898
 33
0.0
 14
6.828426361083999
 24
1.171572685241699
 34
0.0
 50
314.9999987477635
100
AcDbRotatedDimension
1001
ACAD
1000
DSTYLE
1002
{
1070
    45
1040
0.01
1070
   173
1070
     1
1070
   271
1070
     0
1070
   279
1070
     1
1070
   343
1005
6A
1070
   344
1005
6A
1002
}
  0
DIMENSION
  5
16DE
330
1F
100
AcDbEntity
  8
AM_5
370
    13
100
AcDbDimension
  2
*D12
 10
-27.459899902344
 20
-0.0000000000000009
 30
0.0
 11
-29.62004089355408
 21
-12.26902151107793
 31
0.0
 70
   162
  1
<>
 71
     5
 42
0.7853981946693871
  3
AM_JIS$2
100
AcDb2LineAngularDimension
 13
22.36693572998001
 23
22.3669400215141
 33
0.0
 14
-0.5051841735839986
 24
-0.505181312561001
 34
0.0
 15
-21.85929870605499
 25
-0.0000000000000018
 35
0.0
 16
-27.76520839255987
 26
-16.03024964129331
 36
0.0
1001
ACAD
1000
DSTYLE
1002
{
1070
   284
1070
     8
1070
   179
1070
     0
1070
   173
1070
     1
1070
   343
1005
6A
1070
   344
1005
6A
1070
    75
1070
     1
1002
}
  0
LINE
  5
1820
330
1F
100
AcDbEntity
  8
AM_0
  6
Continuous
 48
0.5
370
    30
100
AcDbLine
 10
-92.232040405264
 20
23.5563502311699
 30
0.0
 11
-91.478652954094
 21
19.2198176383969
 31
0.0
  0
LINE
  5
1821
330
1F
100
AcDbEntity
  8
AM_0
  6
Continuous
 48
0.5
370
    30
100
AcDbLine
 10
-90.624053955074
 20
18.1448931694029
 30
0.0
 11
-90.728179931634
 21
19.3502001762389
 31
0.0
  0
LINE
  5
1823
330
1F
100
AcDbEntity
  8
AM_0
  6
Continuous
 48
0.5
370
    30
100
AcDbLine
 10
10.778415679932
 20
5.0000014305115
 30
0.0
 11
5.850914001465
 21
9.927503108977898
 31
0.0
  0
LINE
  5
1824
330
1F
100
AcDbEntity
  8
AM_0
  6
Continuous
 48
0.5
370
    30
100
AcDbLine
 10
10.032218933106
 20
5.7896733283989
 30
0.0
 11
9.927436828613004
 21
5.851040363310899
 31
0.0
  0
LINE
  5
1825
330
1F
100
AcDbEntity
  8
AM_0
  6
Continuous
370
    30
100
AcDbLine
 10
-67.45877838134399
 20
71.49923658370891
 30
0.0
 11
-30.713890075683
 21
108.2441248893669
 31
0.0
  0
LINE
  5
1826
330
1F
100
AcDbEntity
  8
AM_0
  6
Continuous
 48
0.5
370
    30
100
AcDbLine
 10
7.563232421875
 20
7.512176990508898
 30
0.0
 11
7.516426086426002
 21
7.558982372283898
 31
0.0
  0
LINE
  5
1827
330
1F
100
AcDbEntity
  8
AM_0
  6
Continuous
 48
0.5
370
    30
100
AcDbLine
 10
5.411437988281001
 20
9.649831295012898
 30
0.0
 11
5.791709899903005
 21
10.0301003456109
 31
0.0
  0
LINE
  5
1828
330
1F
100
AcDbEntity
  8
AM_0
  6
Continuous
 48
0.5
370
    30
100
AcDbLine
 10
9.653942108153998
 20
5.407050609588598
 30
0.0
 11
10.01265335083
 21
5.765762805937898
 31
0.0
  0
LINE
  5
1829
330
1F
100
AcDbEntity
  8
AM_0
  6
Continuous
 48
0.5
370
    30
100
AcDbLine
 10
7.516315460205
 20
7.5591273307799
 30
0.0
 11
7.45976638794
 21
7.5939078330989
 31
0.0
  0
LINE
  5
182A
330
1F
100
AcDbEntity
  8
AM_0
  6
Continuous
 48
0.5
370
    30
100
AcDbLine
 10
7.459854125977003
 20
7.593777179717899
 30
0.0
 11
7.822235107422003
 21
7.9561562538139
 31
0.0
  0
LINE
  5
182B
330
1F
100
AcDbEntity
  8
AM_0
  6
Continuous
 48
0.5
370
    30
100
AcDbLine
 10
-28.999382019043
 20
76.7246241569519
 30
0.0
 11
-29.494354248047
 21
77.2195963859549
 31
0.0
  0
LINE
  5
182C
330
1F
100
AcDbEntity
  8
AM_0
  6
Continuous
 48
0.5
370
    30
100
AcDbLine
 10
-43.671287536614
 20
76.72129011154091
 30
0.0
 11
-43.070243835444
 21
78.10015058517391
 31
0.0
  0
LINE
  5
182D
330
1F
100
AcDbEntity
  8
AM_7
  6
CENTER
 48
0.5
370
    13
100
AcDbLine
 10
33.45369720459
 20
7.780560970305899
 30
0.0
 11
22.227550506592
 21
19.0067076683039
 31
0.0
  0
LINE
  5
182E
330
1F
100
AcDbEntity
  8
AM_0
  6
Continuous
 48
0.5
370
    30
100
AcDbLine
 10
1.173523525646657
 20
6.826478196543385
 30
0.0
 11
4.206150054932003
 21
9.654448986052898
 31
0.0
  0
LINE
  5
182F
330
1F
100
AcDbEntity
  8
AM_0
  6
Continuous
 48
0.5
370
    30
100
AcDbLine
 10
6.828430175781001
 20
1.171580791473399
 30
0.0
 11
9.658424377442003
 21
4.206381320953399
 31
0.0
  0
LINE
  5
1830
330
1F
100
AcDbEntity
  8
AM_0
  6
Continuous
 48
0.5
370
    30
100
AcDbLine
 10
25.607070922852
 20
13.5861868858329
 30
0.0
 11
27.648286819458
 21
15.6274046897879
 31
0.0
  0
LINE
  5
1832
330
1F
100
AcDbEntity
  8
AM_0
  6
Continuous
 48
0.5
370
    30
100
AcDbLine
 10
27.648321151734
 20
15.6274352073669
 30
0.0
 11
30.436672210694
 21
14.8802828788749
 31
0.0
  0
LINE
  5
1834
330
1F
100
AcDbEntity
  8
AM_0
  6
Continuous
 48
0.5
370
    30
100
AcDbLine
 10
29.142435073853
 20
10.0504755973809
 30
0.0
 11
31.183826446533
 21
12.0918669700619
 31
0.0
  0
LINE
  5
1835
330
1F
100
AcDbEntity
  8
AM_0
  6
Continuous
 48
0.5
370
    30
100
AcDbLine
 10
25.606929779053
 20
13.5861678123469
 30
0.0
 11
26.353916168213
 21
10.7976269721979
 31
0.0
  0
LINE
  5
1836
330
1F
100
AcDbEntity
  8
AM_0
  6
Continuous
 48
0.5
370
    30
100
AcDbLine
 10
30.436557769776
 20
14.8802142143249
 30
0.0
 11
31.183712005615
 21
12.0918478965759
 31
0.0
  0
LINE
  5
1837
330
1F
100
AcDbEntity
  8
AM_0
  6
Continuous
 48
0.5
370
    30
100
AcDbLine
 10
38.294803619385
 20
17.0815901756279
 30
0.0
 11
39.00191116333
 21
17.7886958122249
 31
0.0
  0
LINE
  5
1838
330
1F
100
AcDbEntity
  8
AM_0
  6
Continuous
 48
0.5
370
    30
100
AcDbLine
 10
26.353946685791
 20
10.7976832389829
 30
0.0
 11
29.142297744751
 21
10.0505318641659
 31
0.0
  0
LINE
  5
1839
330
1F
100
AcDbEntity
  8
AM_0
  6
Continuous
 48
0.5
370
    30
100
AcDbLine
 10
-25.69042968749999
 20
81.4477915763849
 30
0.0
 11
-41.600326538084
 21
97.3576884269669
 31
0.0
  0
LINE
  5
183A
330
1F
100
AcDbEntity
  8
AM_0
  6
Continuous
 48
0.5
370
    30
100
AcDbLine
 10
5.78959274292
 20
10.0322365760799
 30
0.0
 11
25.757358551026
 21
29.9999995231619
 31
0.0
  0
LINE
  5
183B
330
1F
100
AcDbEntity
  8
AM_0
  6
Continuous
 48
0.5
370
    30
100
AcDbLine
 10
4.884929656983005
 20
3.174784660339399
 30
0.0
 11
6.238414764403998
 21
4.626221179962199
 31
0.0
  0
LINE
  5
183D
330
1F
100
AcDbEntity
  8
AM_0
  6
Continuous
 48
0.5
370
    30
100
AcDbLine
 10
5.850868225098004
 20
9.927603244780899
 30
0.0
 11
5.789566040038999
 21
10.0323176383969
 31
0.0
  0
LINE
  5
183F
330
1F
100
AcDbEntity
  8
AM_0
  6
Continuous
 48
0.5
370
    30
100
AcDbLine
 10
3.174777984618999
 20
4.884936809539799
 30
0.0
 11
4.626213073731002
 21
6.2384238243099
 31
0.0
  0
LINE
  5
1840
330
1F
100
AcDbEntity
  8
AM_0
  6
Continuous
 48
0.5
370
    30
100
AcDbLine
 10
-34.046234130859
 20
73.3808970451349
 30
0.0
 11
-33.948432922363
 21
73.5061182975769
 31
0.0
  0
LINE
  5
1842
330
1F
100
AcDbEntity
  8
AM_7
  6
CENTER
 48
0.5
370
    13
100
AcDbLine
 10
7.497341156006002
 20
0.5026640892028986
 30
0.0
 11
0.6499595642089986
 21
7.350041866301899
 31
0.0
  0
LINE
  5
1843
330
1F
100
AcDbEntity
  8
AM_0
  6
Continuous
 48
0.5
370
    30
100
AcDbLine
 10
8.808319091797003
 20
4.848539829254099
 30
0.0
 11
4.848537445068999
 21
8.808320522307898
 31
0.0
  0
LINE
  5
1844
330
1F
100
AcDbEntity
  8
AM_0
  6
Continuous
 48
0.5
370
    30
100
AcDbLine
 10
8.810703277588004
 20
4.846672534942599
 30
0.0
 11
4.85092163086
 21
8.806453227995899
 31
0.0
  0
LINE
  5
1846
330
1F
100
AcDbEntity
  8
AM_0
  6
Continuous
 48
0.5
370
    30
100
AcDbLine
 10
-17.04207611083999
 20
72.4184718132019
 30
0.0
 11
-25.880912780762
 21
81.2573084831229
 31
0.0
  0
LINE
  5
1847
330
1F
100
AcDbEntity
  8
AM_0
  6
Continuous
 48
0.5
370
    30
100
AcDbLine
 10
7.598007202148999
 20
7.455885410307898
 30
0.0
 11
7.563346862793004
 21
7.512241840361899
 31
0.0
  0
LINE
  5
1848
330
1F
100
AcDbEntity
  8
AM_0
  6
Continuous
 48
0.5
370
    30
100
AcDbLine
 10
7.598014831543004
 20
7.455616474150899
 30
0.0
 11
7.960395812988004
 21
7.817995548247898
 31
0.0
  0
LINE
  5
1849
330
1F
100
AcDbEntity
  8
AM_0
  6
Continuous
 48
0.5
370
    30
100
AcDbLine
 10
5.411453247071002
 20
9.650095462798898
 30
0.0
 11
4.206146240235
 21
9.654457569121899
 31
0.0
  0
LINE
  5
184A
330
1F
100
AcDbEntity
  8
AM_0
  6
Continuous
 48
0.5
370
    30
100
AcDbLine
 10
9.658428192138999
 20
4.2063717842102
 30
0.0
 11
9.653957366943999
 21
5.406864643096899
 31
0.0
  0
LINE
  5
184B
330
1F
100
AcDbEntity
  8
AM_0
  6
Continuous
 48
0.5
370
    30
100
AcDbLine
 10
7.459754943848004
 20
7.5935997962949
 30
0.0
 11
4.850826263428004
 21
8.806277751921899
 31
0.0
  0
LINE
  5
184C
330
1F
100
AcDbEntity
  8
AM_0
  6
Continuous
 48
0.5
370
    30
100
AcDbLine
 10
4.850910186768005
 20
8.806464672087898
 30
0.0
 11
5.911430358887003
 21
9.866982936858898
 31
0.0
  0
LINE
  5
184D
330
1F
100
AcDbEntity
  8
AM_0
  6
Continuous
 48
0.5
370
    30
100
AcDbLine
 10
-40.052093505859
 20
79.1181559562679
 30
0.0
 11
-39.666320800781
 21
79.3735423088069
 31
0.0
  0
LINE
  5
184E
330
1F
100
AcDbEntity
  8
AM_0
  6
Continuous
 48
0.5
370
    30
100
AcDbLine
 10
-33.865913391113
 20
73.6116557121269
 30
0.0
 11
-33.887023925781
 21
73.5847544670099
 31
0.0
  0
LINE
  5
184F
330
1F
100
AcDbEntity
  8
AM_5
370
    13
100
AcDbLine
 10
1.171573638916001
 20
1.171575546264599
 30
0.0
 11
-50.663269042964
 21
53.0064196586609
 31
0.0
  0
LINE
  5
1850
330
1F
100
AcDbEntity
  8
AM_0
  6
Continuous
 48
0.5
370
    30
100
AcDbLine
 10
8.810703277588004
 20
4.846672534942599
 30
0.0
 11
9.87121963501
 21
5.907191753386899
 31
0.0
  0
LINE
  5
1851
330
1F
100
AcDbEntity
  8
AM_0
  6
Continuous
 48
0.5
370
    30
100
AcDbLine
 10
-40.476524353027
 20
78.7802729606619
 30
0.0
 11
-40.052108764648
 21
79.11814069747891
 31
0.0
  0
LINE
  5
1852
330
1F
100
AcDbEntity
  8
AM_0
  6
Continuous
 48
0.5
370
    30
100
AcDbLine
 10
8.810729980468999
 20
4.846646785736098
 30
0.0
 11
7.598072052002003
 21
7.455538272856899
 31
0.0
  0
LINE
  5
1853
330
1F
100
AcDbEntity
  8
AM_0
  6
Continuous
 48
0.5
370
    30
100
AcDbLine
 10
-34.280853271484
 20
73.8927302360529
 30
0.0
 11
-34.26000976562499
 21
73.91953229904091
 31
0.0
  0
LINE
  5
1854
330
1F
100
AcDbEntity
  8
AM_0
  6
Continuous
 48
0.5
370
    30
100
AcDbLine
 10
-40.92733001708999
 20
78.36973524093591
 30
0.0
 11
-40.476585388183
 21
78.7801814079279
 31
0.0
  0
LINE
  5
1855
330
1F
100
AcDbEntity
  8
AM_0
  6
Continuous
 48
0.5
370
    30
100
AcDbLine
 10
-39.666122436523
 20
79.37367200851391
 30
0.0
 11
-39.33097076415999
 21
79.5386118888849
 31
0.0
  0
LINE
  5
1856
330
1F
100
AcDbEntity
  8
AM_0
  6
Continuous
 48
0.5
370
    30
100
AcDbLine
 10
-28.709342956543
 20
77.0146632194519
 30
0.0
 11
-29.416442871094
 21
77.7217707633969
 31
0.0
  0
LINE
  5
1857
330
1F
100
AcDbEntity
  8
AM_0
  6
Continuous
 48
0.5
370
    30
100
AcDbLine
 10
-40.988609313964
 20
78.3013148307799
 30
0.0
 11
-40.965560913084
 21
78.3307337760919
 31
0.0
  0
LINE
  5
1859
330
1F
100
AcDbEntity
  8
AM_0
  6
Continuous
 48
0.5
370
    30
100
AcDbLine
 10
-22.113792419433
 20
81.4888911247249
 30
0.0
 11
-23.881561279297
 21
83.25665235519391
 31
0.0
  0
LINE
  5
185A
330
1F
100
AcDbEntity
  8
AM_0
  6
Continuous
 48
0.5
370
    30
100
AcDbLine
 10
-24.113143920898
 20
79.4895396232599
 30
0.0
 11
-13.036224365234
 21
90.56645917892391
 31
0.0
  0
LINE
  5
185B
330
1F
100
AcDbEntity
  8
AM_0
  6
Continuous
 48
0.5
370
    30
100
AcDbLine
 10
-54.967155456534
 20
60.02088117599489
 30
0.0
 11
-54.906852722164
 21
60.1900858879089
 31
0.0
  0
LINE
  5
185C
330
1F
100
AcDbEntity
  8
AM_0
  6
Continuous
 48
0.5
370
    30
100
AcDbLine
 10
-55.205856323234
 20
59.0208086967459
 30
0.0
 11
-55.204856872554
 21
59.2209239006039
 31
0.0
  0
LINE
  5
185D
330
1F
100
AcDbEntity
  8
AM_0
  6
Continuous
 48
0.5
370
    30
100
AcDbLine
 10
-55.125740051264
 20
59.5862879753109
 30
0.0
 11
-54.971313476554
 21
60.0222697257989
 31
0.0
  0
LINE
  5
185F
330
1F
100
AcDbEntity
  8
AM_0
  6
Continuous
 48
0.5
370
    30
100
AcDbLine
 10
-67.45877838134399
 20
71.49924421310391
 30
0.0
 11
-55.200393676754
 21
59.2414202690119
 31
0.0
  0
LINE
  5
1860
330
1F
100
AcDbEntity
  8
AM_0
  6
Continuous
 48
0.5
370
    30
100
AcDbLine
 10
-55.204917907714
 20
59.2209773063659
 30
0.0
 11
-55.125930786124
 21
59.58634519576989
 31
0.0
  0
LINE
  5
1861
330
1F
100
AcDbEntity
  8
AM_0
  6
Continuous
 48
0.5
370
    30
100
AcDbLine
 10
-55.216285705564
 20
58.9483103752129
 30
0.0
 11
-55.205680847164
 21
59.0208430290219
 31
0.0
  0
LINE
  5
1862
330
1F
100
AcDbEntity
  8
AM_0
  6
Continuous
 48
0.5
370
    30
100
AcDbLine
 10
-55.217735290524
 20
58.9463191032409
 30
0.0
 11
-55.205574035644
 21
59.02083158492989
 31
0.0
  0
LINE
  5
1865
330
1F
100
AcDbEntity
  8
AM_0
  6
Continuous
 48
0.5
370
    30
100
AcDbLine
 10
-55.222473144524
 20
58.9403567314139
 30
0.0
 11
-51.132713317864
 21
53.6174159049979
 31
0.0
  0
LINE
  5
1866
330
1F
100
AcDbEntity
  8
AM_0
  6
Continuous
 48
0.5
370
    30
100
AcDbLine
 10
-51.132736206054
 20
53.6174197196959
 30
0.0
 11
-50.627655029294
 21
52.9697833061209
 31
0.0
  0
LINE
  5
1867
330
1F
100
AcDbEntity
  8
AM_0
  6
Continuous
 48
0.5
370
    30
100
AcDbLine
 10
-44.300140380854
 20
60.1224055290219
 30
0.0
 11
-31.82087707519499
 21
59.05411100387489
 31
0.0
  0
LINE
  5
1868
330
1F
100
AcDbEntity
  8
AM_0
  6
Continuous
 48
0.5
370
    30
100
AcDbLine
 10
-31.820678710937
 20
59.05411100387489
 30
0.0
 11
-30.542198181152
 21
58.9186167716979
 31
0.0
  0
LINE
  5
1869
330
1F
100
AcDbEntity
  8
AM_0
  6
Continuous
 48
0.5
370
    30
100
AcDbLine
 10
-42.831878662104
 20
62.0015711784359
 30
0.0
 11
-37.541877746582
 21
68.7725291252129
 31
0.0
  0
LINE
  5
186A
330
1F
100
AcDbEntity
  8
AM_0
  6
Continuous
 48
0.5
370
    30
100
AcDbLine
 10
-44.300048828124
 20
60.1223978996269
 30
0.0
 11
-42.831893920894
 21
62.0015254020689
 31
0.0
  0
LINE
  5
186B
330
1F
100
AcDbEntity
  8
AM_0
  6
Continuous
 48
0.5
370
    30
100
AcDbLine
 10
-44.378150939934
 20
60.1566309928889
 30
0.0
 11
-44.348098754874
 21
60.12657880782989
 31
0.0
  0
LINE
  5
186C
330
1F
100
AcDbEntity
  8
AM_0
  6
Continuous
 48
0.5
370
    30
100
AcDbLine
 10
-51.390785217284
 20
64.9871745109549
 30
0.0
 11
-44.692726135254
 21
59.7540736198419
 31
0.0
  0
LINE
  5
186D
330
1F
100
AcDbEntity
  8
AM_0
  6
Continuous
 48
0.5
370
    30
100
AcDbLine
 10
-44.348220825194
 20
60.12659406661989
 30
0.0
 11
-44.300308227534
 21
60.12242841720489
 31
0.0
  0
LINE
  5
186E
330
1F
100
AcDbEntity
  8
AM_0
  6
Continuous
 48
0.5
370
    30
100
AcDbLine
 10
-44.692726135254
 20
59.7540507316589
 30
0.0
 11
-37.304855346679
 21
69.2100749015799
 31
0.0
  0
LINE
  5
186F
330
1F
100
AcDbEntity
  8
AM_0
  6
Continuous
 48
0.5
370
    30
100
AcDbLine
 10
-45.247619628904
 20
59.04378080367989
 30
0.0
 11
-44.692764282224
 21
59.7540507316589
 31
0.0
  0
LINE
  5
1870
330
1F
100
AcDbEntity
  8
AM_0
  6
Continuous
 48
0.5
370
    30
100
AcDbLine
 10
-37.646652221679
 20
68.77249097824091
 30
0.0
 11
-36.689262390137
 21
69.9978709220879
 31
0.0
  0
LINE
  5
1871
330
1F
100
AcDbEntity
  8
AM_0
  6
Continuous
 48
0.5
370
    30
100
AcDbLine
 10
-51.390785217284
 20
64.98715925216591
 30
0.0
 11
-44.002914428704
 21
74.4431834220879
 31
0.0
  0
LINE
  5
1872
330
1F
100
AcDbEntity
  8
AM_0
  6
Continuous
 48
0.5
370
    30
100
AcDbLine
 10
-46.379798889154
 20
58.4067034721369
 30
0.0
 11
-45.959785461424
 21
58.1321978569029
 31
0.0
  0
LINE
  5
1873
330
1F
100
AcDbEntity
  8
AM_0
  6
Continuous
 48
0.5
370
    30
100
AcDbLine
 10
-51.471275329584
 20
64.8842005729669
 30
0.0
 11
-45.247627258294
 21
59.0437960624689
 31
0.0
  0
LINE
  5
1874
330
1F
100
AcDbEntity
  8
AM_0
  6
Continuous
 48
0.5
370
    30
100
AcDbLine
 10
-51.471260070794
 20
64.8841929435729
 30
0.0
 11
-51.390792846674
 21
64.9871439933769
 31
0.0
  0
LINE
  5
1875
330
1F
100
AcDbEntity
  8
AM_0
  6
Continuous
 48
0.5
370
    30
100
AcDbLine
 10
-45.959671020504
 20
58.13220167159989
 30
0.0
 11
-45.247474670404
 21
59.0438113212579
 31
0.0
  0
LINE
  5
1876
330
1F
100
AcDbEntity
  8
AM_0
  6
Continuous
 48
0.5
370
    30
100
AcDbLine
 10
-53.576499938964
 20
62.18958234786989
 30
0.0
 11
-51.471290588374
 21
64.88422346115091
 31
0.0
  0
LINE
  5
1877
330
1F
100
AcDbEntity
  8
AM_0
  6
Continuous
 48
0.5
370
    30
100
AcDbLine
 10
-53.576469421384
 20
62.18958234786989
 30
0.0
 11
-48.142845153804
 21
56.1502528190609
 31
0.0
  0
LINE
  5
1878
330
1F
100
AcDbEntity
  8
AM_0
  6
Continuous
 48
0.5
370
    30
100
AcDbLine
 10
-53.648109436034
 20
62.09772443771289
 30
0.0
 11
-53.576354980464
 21
62.18956708907989
 31
0.0
  0
LINE
  5
1879
330
1F
100
AcDbEntity
  8
AM_0
  6
Continuous
 48
0.5
370
    30
100
AcDbLine
 10
-53.758796691894
 20
62.0419306755059
 30
0.0
 11
-43.822631835934
 21
74.75982618331891
 31
0.0
  0
LINE
  5
187A
330
1F
100
AcDbEntity
  8
AM_0
  6
Continuous
 48
0.5
370
    30
100
AcDbLine
 10
-48.142761230464
 20
56.15026044845489
 30
0.0
 11
-46.379737854004
 21
58.4067149162289
 31
0.0
  0
LINE
  5
187B
330
1F
100
AcDbEntity
  8
AM_0
  6
Continuous
 48
0.5
370
    30
100
AcDbLine
 10
-48.049179077144
 20
55.4579043388359
 30
0.0
 11
-47.951324462884
 21
55.58320569991989
 31
0.0
  0
LINE
  5
187C
330
1F
100
AcDbEntity
  8
AM_0
  6
Continuous
 48
0.5
370
    30
100
AcDbLine
 10
-47.951309204094
 20
55.58320569991989
 30
0.0
 11
-45.959815979004
 21
58.1321711540219
 31
0.0
  0
LINE
  5
187D
330
1F
100
AcDbEntity
  8
AM_0
  6
Continuous
 48
0.5
370
    30
100
AcDbLine
 10
-48.345314025874
 20
55.8910174369809
 30
0.0
 11
-47.951255798334
 21
55.5832285881039
 31
0.0
  0
LINE
  5
187E
330
1F
100
AcDbEntity
  8
AM_0
  6
Continuous
 48
0.5
370
    30
100
AcDbLine
 10
-48.345329284664
 20
55.8910174369809
 30
0.0
 11
-46.379783630364
 21
58.4066958427429
 31
0.0
  0
LINE
  5
187F
330
1F
100
AcDbEntity
  8
AM_0
  6
Continuous
 48
0.5
370
    30
100
AcDbLine
 10
-54.067855834954
 20
61.56058454513489
 30
0.0
 11
-53.648262023924
 21
62.09769392013489
 31
0.0
  0
LINE
  5
1880
330
1F
100
AcDbEntity
  8
AM_0
  6
Continuous
 48
0.5
370
    30
100
AcDbLine
 10
-48.443153381344
 20
55.7657847404479
 30
0.0
 11
-48.345359802244
 21
55.89099836349489
 31
0.0
  0
LINE
  5
1881
330
1F
100
AcDbEntity
  8
AM_0
  6
Continuous
 48
0.5
370
    30
100
AcDbLine
 10
-48.504562377924
 20
55.6870455741879
 30
0.0
 11
-48.443046569824
 21
55.7658190727229
 31
0.0
  0
LINE
  5
1882
330
1F
100
AcDbEntity
  8
AM_0
  6
Continuous
 48
0.5
370
    30
100
AcDbLine
 10
-48.110679626464
 20
55.37926435470489
 30
0.0
 11
-48.049156188964
 21
55.4578967094419
 31
0.0
  0
LINE
  5
1883
330
1F
100
AcDbEntity
  8
AM_0
  6
Continuous
 48
0.5
370
    30
100
AcDbLine
 10
-48.131599426264
 20
55.3524050712579
 30
0.0
 11
-48.110664367674
 21
55.37927198409989
 31
0.0
  0
LINE
  5
1884
330
1F
100
AcDbEntity
  8
AM_0
  6
Continuous
 48
0.5
370
    30
100
AcDbLine
 10
-54.220947265624
 20
61.40592145919789
 30
0.0
 11
-53.758781433104
 21
62.0418925285339
 31
0.0
  0
LINE
  5
1885
330
1F
100
AcDbEntity
  8
AM_0
  6
Continuous
 48
0.5
370
    30
100
AcDbLine
 10
-48.525642395014
 20
55.6602129936209
 30
0.0
 11
-48.131584167474
 21
55.3524050712579
 31
0.0
  0
LINE
  5
1886
330
1F
100
AcDbEntity
  8
AM_0
  6
Continuous
 48
0.5
370
    30
100
AcDbLine
 10
-54.344665527344
 20
61.2062678337089
 30
0.0
 11
-54.220924377434
 21
61.4059443473809
 31
0.0
  0
LINE
  5
1887
330
1F
100
AcDbEntity
  8
AM_0
  6
Continuous
 48
0.5
370
    30
100
AcDbLine
 10
-48.525688171384
 20
55.6602244377129
 30
0.0
 11
-48.504684448234
 21
55.6870112419119
 31
0.0
  0
LINE
  5
1888
330
1F
100
AcDbEntity
  8
AM_0
  6
Continuous
 48
0.5
370
    30
100
AcDbLine
 10
-50.62775924829638
 20
52.96991694012672
 30
0.0
 11
-48.142890930174
 21
56.1502146720879
 31
0.0
  0
LINE
  5
1889
330
1F
100
AcDbEntity
  8
AM_0
  6
Continuous
 48
0.5
370
    30
100
AcDbLine
 10
-54.428184509274
 20
61.09944105148289
 30
0.0
 11
-54.067848205564
 21
61.5606074333189
 31
0.0
  0
LINE
  5
188A
330
1F
100
AcDbEntity
  8
AM_0
  6
Continuous
 48
0.5
370
    30
100
AcDbLine
 10
-54.456687927244
 20
61.05280256271289
 30
0.0
 11
-54.428199768064
 21
61.0993952751159
 31
0.0
  0
LINE
  5
188D
330
1F
100
AcDbEntity
  8
AM_0
  6
Continuous
 48
0.5
370
    30
100
AcDbLine
 10
-54.746124267574
 20
60.5160593986509
 30
0.0
 11
-54.456710815424
 21
61.05281019210789
 31
0.0
  0
LINE
  5
188E
330
1F
100
AcDbEntity
  8
AM_0
  6
Continuous
 48
0.5
370
    30
100
AcDbLine
 10
-40.04182434081999
 20
79.1225962638849
 30
0.0
 11
-39.656837463379
 21
79.3774027824399
 31
0.0
  0
LINE
  5
188F
330
1F
100
AcDbEntity
  8
AM_0
  6
Continuous
 48
0.5
370
    30
100
AcDbLine
 10
-40.465995788574
 20
78.7849802970879
 30
0.0
 11
-40.041931152344
 21
79.1225123405449
 31
0.0
  0
LINE
  5
1890
330
1F
100
AcDbEntity
  8
AM_0
  6
Continuous
 48
0.5
370
    30
100
AcDbLine
 10
-40.916526794433
 20
78.3746256828299
 30
0.0
 11
-40.466194152832
 21
78.7847971916199
 31
0.0
  0
LINE
  5
1891
330
1F
100
AcDbEntity
  8
AM_0
  6
Continuous
 48
0.5
370
    30
100
AcDbLine
 10
-30.541954040527
 20
58.9185938835139
 30
0.0
 11
-17.04207611083999
 21
72.4184718132019
 31
0.0
  0
LINE
  5
1892
330
1F
100
AcDbEntity
  8
AM_0
  6
Continuous
 48
0.5
370
    30
100
AcDbLine
 10
-44.002861022944
 20
74.4432291984549
 30
0.0
 11
-43.922439575194
 21
74.5461344718929
 31
0.0
  0
LINE
  5
1893
330
1F
100
AcDbEntity
  8
AM_0
  6
Continuous
 48
0.5
370
    30
100
AcDbLine
 10
-54.906913757324
 20
60.19007062911989
 30
0.0
 11
-54.612533569334
 21
60.7743372917169
 31
0.0
  0
LINE
  5
1894
330
1F
100
AcDbEntity
  8
AM_0
  6
Continuous
 48
0.5
370
    30
100
AcDbLine
 10
-54.971321105954
 20
60.0223155021659
 30
0.0
 11
-54.746101379394
 21
60.5160822868339
 31
0.0
  0
LINE
  5
1895
330
1F
100
AcDbEntity
  8
AM_0
  6
Continuous
 48
0.5
370
    30
100
AcDbLine
 10
-43.922431945794
 20
74.5461268424979
 30
0.0
 11
-41.922584533684
 21
77.1058650016779
 31
0.0
  0
LINE
  5
1896
330
1F
100
AcDbEntity
  8
AM_0
  6
Continuous
 48
0.5
370
    30
100
AcDbLine
 10
-44.002929687494
 20
74.4431910514829
 30
0.0
 11
-37.304862976074
 21
69.2100901603699
 31
0.0
  0
LINE
  5
1897
330
1F
100
AcDbEntity
  8
AM_0
  6
Continuous
 48
0.5
370
    30
100
AcDbLine
 10
-43.92247009276399
 20
74.5461039543149
 30
0.0
 11
-36.749961853027
 21
69.9202799797049
 31
0.0
  0
LINE
  5
1898
330
1F
100
AcDbEntity
  8
AM_0
  6
Continuous
 48
0.5
370
    30
100
AcDbLine
 10
-37.541999816894
 20
68.7724986076349
 30
0.0
 11
-36.951515197754
 21
68.77248334884591
 31
0.0
  0
LINE
  5
1899
330
1F
100
AcDbEntity
  8
AM_0
  6
Continuous
 48
0.5
370
    30
100
AcDbLine
 10
-36.951522827148
 20
68.77248334884591
 30
0.0
 11
-28.709342956543
 21
77.0146632194519
 31
0.0
  0
LINE
  5
189A
330
1F
100
AcDbEntity
  8
AM_0
  6
Continuous
 48
0.5
370
    30
100
AcDbLine
 10
-37.646705627441
 20
68.7725901603699
 30
0.0
 11
-37.542213439941
 21
68.7724986076349
 31
0.0
  0
LINE
  5
189B
330
1F
100
AcDbEntity
  8
AM_0
  6
Continuous
 48
0.5
370
    30
100
AcDbLine
 10
-40.965728759764
 20
78.3306345939629
 30
0.0
 11
-40.927413940429
 21
78.36965894699091
 31
0.0
  0
LINE
  5
189C
330
1F
100
AcDbEntity
  8
AM_0
  6
Continuous
 48
0.5
370
    30
100
AcDbLine
 10
-40.988807678214
 20
78.3011469840999
 30
0.0
 11
-40.916534423828
 21
78.37457227706891
 31
0.0
  0
LINE
  5
189D
330
1F
100
AcDbEntity
  8
AM_0
  6
Continuous
 48
0.5
370
    30
100
AcDbLine
 10
-37.304878234863
 20
69.2101130485529
 30
0.0
 11
-36.74999999999999
 21
69.92027235031091
 31
0.0
  0
LINE
  5
189E
330
1F
100
AcDbEntity
  8
AM_0
  6
Continuous
 48
0.5
370
    30
100
AcDbLine
 10
-36.750015258789
 20
69.92022657394391
 30
0.0
 11
-36.037643432617
 21
70.8319926261899
 31
0.0
  0
LINE
  5
189F
330
1F
100
AcDbEntity
  8
AM_0
  6
Continuous
 48
0.5
370
    30
100
AcDbLine
 10
-41.922630310054
 20
77.10585737228391
 30
0.0
 11
-34.640792846679
 21
73.4320597648619
 31
0.0
  0
LINE
  5
18A0
330
1F
100
AcDbEntity
  8
AM_0
  6
Continuous
 48
0.5
370
    30
100
AcDbLine
 10
-41.319839477534
 20
77.87733411788891
 30
0.0
 11
-40.988677978514
 21
78.3012690544119
 31
0.0
  0
LINE
  5
18A1
330
1F
100
AcDbEntity
  8
AM_0
  6
Continuous
 48
0.5
370
    30
100
AcDbLine
 10
-34.640899658203
 20
73.43191480636591
 30
0.0
 11
-34.207153320312
 21
73.98699903488091
 31
0.0
  0
LINE
  5
18A2
330
1F
100
AcDbEntity
  8
AM_0
  6
Continuous
 48
0.5
370
    30
100
AcDbLine
 10
-34.44033813476499
 20
73.6886820793149
 30
0.0
 11
-34.342376708984
 21
73.8140940666199
 31
0.0
  0
LINE
  5
18A3
330
1F
100
AcDbEntity
  8
AM_0
  6
Continuous
 48
0.5
370
    30
100
AcDbLine
 10
-34.440299987793
 20
73.68865919113091
 30
0.0
 11
-34.046211242676
 21
73.38088178634591
 31
0.0
  0
LINE
  5
18A4
330
1F
100
AcDbEntity
  8
AM_0
  6
Continuous
 48
0.5
370
    30
100
AcDbLine
 10
-36.405708312988
 20
71.1730189323419
 30
0.0
 11
-36.037704467773
 21
70.8319468498229
 31
0.0
  0
LINE
  5
18A5
330
1F
100
AcDbEntity
  8
AM_0
  6
Continuous
 48
0.5
370
    30
100
AcDbLine
 10
-36.037628173828
 20
70.8319621086119
 30
0.0
 11
-34.046249389648
 21
73.3808436393729
 31
0.0
  0
LINE
  5
18A6
330
1F
100
AcDbEntity
  8
AM_0
  6
Continuous
 48
0.5
370
    30
100
AcDbLine
 10
-33.948417663574
 20
73.5061030387869
 30
0.0
 11
-33.88696289062499
 21
73.58482313156091
 31
0.0
  0
LINE
  5
18A7
330
1F
100
AcDbEntity
  8
AM_0
  6
Continuous
 48
0.5
370
    30
100
AcDbLine
 10
-34.260047912597
 20
73.9193949699399
 30
0.0
 11
-33.865936279297
 21
73.61160230636591
 31
0.0
  0
LINE
  5
18A8
330
1F
100
AcDbEntity
  8
AM_0
  6
Continuous
 48
0.5
370
    30
100
AcDbLine
 10
-39.656623840332
 20
79.3775629997249
 30
0.0
 11
-39.321701049804
 21
79.5424113273619
 31
0.0
  0
LINE
  5
18A9
330
1F
100
AcDbEntity
  8
AM_0
  6
Continuous
 48
0.5
370
    30
100
AcDbLine
 10
-41.922637939444
 20
77.1057963371269
 30
0.0
 11
-41.739082336424
 21
77.3406901359549
 31
0.0
  0
LINE
  5
18AA
330
1F
100
AcDbEntity
  8
AM_0
  6
Continuous
 48
0.5
370
    30
100
AcDbLine
 10
-36.405662536621
 20
71.1730036735529
 30
0.0
 11
-34.640853881836
 21
73.4319224357599
 31
0.0
  0
LINE
  5
18AB
330
1F
100
AcDbEntity
  8
AM_0
  6
Continuous
 48
0.5
370
    30
100
AcDbLine
 10
-34.207214355469
 20
73.9869685173029
 30
0.0
 11
-33.787895202637
 21
74.5236811637869
 31
0.0
  0
LINE
  5
18AC
330
1F
100
AcDbEntity
  8
AM_0
  6
Continuous
 48
0.5
370
    30
100
AcDbLine
 10
-39.863082885742
 20
80.0222239494319
 30
0.0
 11
-39.793464660644
 21
79.9688258171079
 31
0.0
  0
LINE
  5
18AD
330
1F
100
AcDbEntity
  8
AM_0
  6
Continuous
 48
0.5
370
    30
100
AcDbLine
 10
-37.31575012206999
 20
78.86574506759591
 30
0.0
 11
-33.986114501953
 21
77.38324689865091
 31
0.0
  0
LINE
  5
18AE
330
1F
100
AcDbEntity
  8
AM_0
  6
Continuous
 48
0.5
370
    30
100
AcDbLine
 10
-29.770301818847
 20
77.3679194450369
 30
0.0
 11
-23.881561279297
 21
83.25665235519391
 31
0.0
  0
LINE
  5
18AF
330
1F
100
AcDbEntity
  8
AM_0
  6
Continuous
 48
0.5
370
    30
100
AcDbLine
 10
-39.32161712646499
 20
79.5424952507019
 30
0.0
 11
-39.135643005371
 21
79.5898051261899
 31
0.0
  0
LINE
  5
18B0
330
1F
100
AcDbEntity
  8
AM_0
  6
Continuous
 48
0.5
370
    30
100
AcDbLine
 10
-32.195487976074
 20
76.5618586540219
 30
0.0
 11
-32.158142089844
 21
76.6097865104669
 31
0.0
  0
LINE
  5
18B1
330
1F
100
AcDbEntity
  8
AM_0
  6
Continuous
 48
0.5
370
    30
100
AcDbLine
 10
-39.135223388672
 20
79.5899195671079
 30
0.0
 11
-39.065895080566
 21
79.61965894699091
 31
0.0
  0
LINE
  5
18B2
330
1F
100
AcDbEntity
  8
AM_0
  6
Continuous
 48
0.5
370
    30
100
AcDbLine
 10
-39.061447143554
 20
79.6254038810729
 30
0.0
 11
-37.197937011719
 21
78.8132319450369
 31
0.0
  0
LINE
  5
18B3
330
1F
100
AcDbEntity
  8
AM_0
  6
Continuous
 48
0.5
370
    30
100
AcDbLine
 10
-33.96109008788999
 20
77.4024577140799
 30
0.0
 11
-32.946411132812
 21
76.96022748947091
 31
0.0
  0
LINE
  5
18B4
330
1F
100
AcDbEntity
  8
AM_0
  6
Continuous
 48
0.5
370
    30
100
AcDbLine
 10
-32.306945800781
 20
76.4191966056819
 30
0.0
 11
-32.195449829101
 21
76.56179761886591
 31
0.0
  0
LINE
  5
18B5
330
1F
100
AcDbEntity
  8
AM_0
  6
Continuous
 48
0.5
370
    30
100
AcDbLine
 10
-33.787727355957
 20
74.52381849288891
 30
0.0
 11
-33.395210266113
 21
75.02622175216591
 31
0.0
  0
LINE
  5
18B6
330
1F
100
AcDbEntity
  8
AM_0
  6
Continuous
 48
0.5
370
    30
100
AcDbLine
 10
-33.39525604247999
 20
75.02618360519391
 30
0.0
 11
-33.041206359863
 21
75.4793696403499
 31
0.0
  0
LINE
  5
18B7
330
1F
100
AcDbEntity
  8
AM_0
  6
Continuous
 48
0.5
370
    30
100
AcDbLine
 10
-33.041191101074
 20
75.47938489913891
 30
0.0
 11
-32.736045837402
 21
75.8699412345879
 31
0.0
  0
LINE
  5
18B8
330
1F
100
AcDbEntity
  8
AM_0
  6
Continuous
 48
0.5
370
    30
100
AcDbLine
 10
-32.946472167969
 20
76.9602122306819
 30
0.0
 11
-32.15803527831999
 21
76.60991621017391
 31
0.0
  0
LINE
  5
18B9
330
1F
100
AcDbEntity
  8
AM_0
  6
Continuous
 48
0.5
370
    30
100
AcDbLine
 10
-32.736061096191
 20
75.86990308761591
 30
0.0
 11
-32.488983154297
 21
76.1862864494319
 31
0.0
  0
LINE
  5
18BA
330
1F
100
AcDbEntity
  8
AM_0
  6
Continuous
 48
0.5
370
    30
100
AcDbLine
 10
-32.488883972168
 20
76.18630933761591
 30
0.0
 11
-32.306831359863
 21
76.4192728996269
 31
0.0
  0
LINE
  5
18BB
330
1F
100
AcDbEntity
  8
AM_7
  6
CENTER
370
    13
100
AcDbLine
 10
-50.409721374504
 20
91.64398145675591
 30
0.0
 11
-22.838890075683
 21
64.0731501579279
 31
0.0
  0
LINE
  5
18BC
330
1F
100
AcDbEntity
  8
AM_0
  6
Continuous
 48
0.5
370
    30
100
AcDbLine
 10
27.688196182251
 20
27.6881976127619
 30
0.0
 11
28.395303726196
 21
28.3953051567069
 31
0.0
  0
LINE
  5
18BD
330
1F
100
AcDbEntity
  8
AM_0
  6
Continuous
 48
0.5
370
    30
100
AcDbLine
 10
23.424602508545
 20
4.999999523162799
 30
0.0
 11
12.090980529785
 21
16.3336215019219
 31
0.0
  0
LINE
  5
18BE
330
1F
100
AcDbEntity
  8
AM_0
  6
Continuous
 48
0.5
370
    30
100
AcDbLine
 10
43.183766365051
 20
4.999999523162799
 30
0.0
 11
46.780080795288
 21
8.5963139533989
 31
0.0
  0
LINE
  5
18BF
330
1F
100
AcDbEntity
  8
AM_0
  6
Continuous
 48
0.5
370
    30
100
AcDbLine
 10
32.63794708252
 20
22.7384486198419
 30
0.0
 11
33.345052719116
 21
23.4455542564389
 31
0.0
  0
LINE
  5
18C0
330
1F
100
AcDbEntity
  8
AM_7
  6
CENTER
370
    13
100
AcDbLine
 10
-0.5051841735839986
 20
-0.505181312561001
 30
0.0
 11
22.477493286133
 21
22.4774928092949
 31
0.0
  0
LINE
  5
18C1
330
1F
100
AcDbEntity
  8
AM_7
  6
CENTER
 48
0.5
370
    13
100
AcDbLine
 10
19.732849121094
 20
4.176492214202899
 30
0.0
 11
40.253179550171
 21
24.6968207359309
 31
0.0
  0
LINE
  5
18C2
330
1F
100
AcDbEntity
  8
AM_0
  6
Continuous
 48
0.5
370
    30
100
AcDbLine
 10
-41.739089965814
 20
77.3407435417169
 30
0.0
 11
-41.319763183594
 21
77.8774409294119
 31
0.0
  0
LINE
  5
18C3
330
1F
100
AcDbEntity
  8
AM_0
  6
Continuous
 48
0.5
370
    30
100
AcDbLine
 10
13.906253814697
 20
18.1448950767509
 30
0.0
 11
13.901893615723
 21
19.3502020835869
 31
0.0
  0
LINE
  5
18C4
330
1F
100
AcDbEntity
  8
AM_0
  6
Continuous
 48
0.5
370
    30
100
AcDbLine
 10
16.495681762696
 20
22.1316866874689
 30
0.0
 11
13.901901245117
 21
19.3501963615409
 31
0.0
  0
LINE
  5
18C5
330
1F
100
AcDbEntity
  8
AM_0
  6
Continuous
370
    30
100
AcDbLine
 10
25.757358551026
 20
29.9999995231619
 30
0.0
 11
149.999999999999
 21
29.9999995231619
 31
0.0
  0
LINE
  5
18C6
330
1F
100
AcDbEntity
  8
AM_0
  6
Continuous
370
    30
100
AcDbLine
 10
9.655471801758004
 20
5.0000014305115
 30
0.0
 11
149.999999999999
 21
5.0000014305115
 31
0.0
  0
LINE
  5
18C7
330
1F
100
AcDbEntity
  8
AM_0
  6
Continuous
 48
0.5
370
    30
100
AcDbLine
 10
43.890872955322
 20
4.999999523162799
 30
0.0
 11
47.840741157532
 21
8.949866771697899
 31
0.0
  0
LINE
  5
18C8
330
1F
100
AcDbEntity
  8
AM_0
  6
Continuous
370
    30
100
AcDbLine
 10
46.780080795288
 20
8.5963139533989
 30
0.0
 11
25.566875457764
 21
29.8095202445979
 31
0.0
  0
LINE
  5
18C9
330
1F
100
AcDbEntity
  8
AM_0
  6
Continuous
 48
0.5
370
    30
100
AcDbLine
 10
47.840741157532
 20
14.6067214012139
 30
0.0
 11
47.487187385559
 21
14.9602751731869
 31
0.0
  0
LINE
  5
18CA
330
1F
100
AcDbEntity
  8
AM_0
  6
Continuous
 48
0.5
370
    30
100
AcDbLine
 10
41.123226165772
 20
14.2531676292419
 30
0.0
 11
41.830333709717
 21
14.9602751731869
 31
0.0
  0
LINE
  5
18CB
330
1F
100
AcDbEntity
  8
AM_0
  6
Continuous
 48
0.5
370
    30
100
AcDbLine
 10
-88.547729492184
 20
9.9275012016289
 30
0.0
 11
-88.547729492184
 21
5.0000014305115
 31
0.0
  0
LINE
  5
18CC
330
1F
100
AcDbEntity
  8
AM_0
  6
Continuous
 48
0.5
370
    30
100
AcDbLine
 10
-90.547729492184
 20
23.8992304801939
 30
0.0
 11
-89.547729492184
 21
23.8992304801939
 31
0.0
  0
LINE
  5
18CD
330
1F
100
AcDbEntity
  8
AM_0
  6
Continuous
 48
0.5
370
    30
100
AcDbLine
 10
-89.042587280264
 20
9.654456615447899
 30
0.0
 11
-89.14898681640401
 21
9.654456615447899
 31
0.0
  0
LINE
  5
18CE
330
1F
100
AcDbEntity
  8
AM_0
  6
Continuous
 48
0.5
370
    30
100
AcDbLine
 10
-90.624038696284
 20
18.1448950767509
 30
0.0
 11
-89.14898681640401
 21
9.654455661772898
 31
0.0
  0
LINE
  5
18CF
330
1F
100
AcDbEntity
  8
AM_0
  6
Continuous
 48
0.5
370
    30
100
AcDbLine
 10
-89.042587280264
 20
9.654455661772898
 30
0.0
 11
-88.985641479484
 21
9.326723575591899
 31
0.0
  0
LINE
  5
18D0
330
1F
100
AcDbEntity
  8
AM_0
  6
Continuous
 48
0.5
370
    30
100
AcDbLine
 10
-89.41448974609401
 20
8.906538486479899
 30
0.0
 11
-88.985656738274
 21
9.326725482939899
 31
0.0
  0
LINE
  5
18D1
330
1F
100
AcDbEntity
  8
AM_0
  6
Continuous
 48
0.5
370
    30
100
AcDbLine
 10
-89.196426391594
 20
9.9275012016289
 30
0.0
 11
-88.547729492184
 21
9.9275012016289
 31
0.0
  0
LINE
  5
18D2
330
1F
100
AcDbEntity
  8
AM_0
  6
Continuous
 48
0.5
370
    30
100
AcDbLine
 10
-101.547729492184
 20
1.139919757842999
 30
0.0
 11
-96.83387756347401
 21
1.139919757842999
 31
0.0
  0
LINE
  5
18D3
330
1F
100
AcDbEntity
  8
AM_0
  6
Continuous
 48
0.5
370
    30
100
AcDbLine
 10
-96.80897521972401
 20
0.9966106414794993
 30
0.0
 11
-88.692230224604
 21
-0.0000004768372008
 31
0.0
  0
LINE
  5
18D4
330
1F
100
AcDbEntity
  8
AM_0
  6
Continuous
 48
0.5
370
    30
100
AcDbLine
 10
-97.97517395019401
 20
8.892409801482899
 30
0.0
 11
-89.14898681640401
 21
9.654456615447899
 31
0.0
  0
LINE
  5
18D5
330
1F
100
AcDbEntity
  8
AM_0
  6
Continuous
 48
0.5
370
    30
100
AcDbLine
 10
-96.80899047851401
 20
0.9966125488280992
 30
0.0
 11
-99.89430236816401
 21
21.8858923912039
 31
0.0
  0
LINE
  5
18D6
330
1F
100
AcDbEntity
  8
AM_0
  6
Continuous
 48
0.5
370
    30
100
AcDbLine
 10
-90.728179931634
 20
19.3502001762389
 30
0.0
 11
-99.24552917480401
 21
17.4933257102959
 31
0.0
  0
LINE
  5
18D7
330
1F
100
AcDbEntity
  8
AM_0
  6
Continuous
 48
0.5
370
    30
100
AcDbLine
 10
-99.23138427734401
 20
17.3975729942319
 30
0.0
 11
-90.624038696284
 21
18.1448969840999
 31
0.0
  0
LINE
  5
18D8
330
1F
100
AcDbEntity
  8
AM_0
  6
Continuous
 48
0.5
370
    30
100
AcDbLine
 10
-90.73265075683401
 20
25.9839396476739
 30
0.0
 11
-90.547729492184
 21
25.9839396476739
 31
0.0
  0
LINE
  5
18D9
330
1F
100
AcDbEntity
  8
AM_0
  6
Continuous
 48
0.5
370
    30
100
AcDbLine
 10
-92.232040405264
 20
23.5563521385189
 30
0.0
 11
-99.89430236816401
 21
21.8858942985529
 31
0.0
  0
LINE
  5
18DA
330
1F
100
AcDbEntity
  8
AM_0
  6
Continuous
 48
0.5
370
    30
100
AcDbLine
 10
-93.751617431634
 20
23.8992304801939
 30
0.0
 11
-99.990768432614
 21
22.5390295982359
 31
0.0
  0
LINE
  5
18DB
330
1F
100
AcDbEntity
  8
AM_0
  6
Continuous
 48
0.5
370
    30
100
AcDbLine
 10
-90.894653320304
 20
20.6806406974789
 30
0.0
 11
-89.547729492184
 21
20.6806406974789
 31
0.0
  0
LINE
  5
18DC
330
1F
100
AcDbEntity
  8
AM_0
  6
Continuous
 48
0.5
370
    30
100
AcDbLine
 10
-88.802200317374
 20
5.0000014305115
 30
0.0
 11
-78.552062988274
 21
5.0000014305115
 31
0.0
  0
LINE
  5
18DD
330
1F
100
AcDbEntity
  8
AM_0
  6
Continuous
 48
0.5
370
    30
100
AcDbLine
 10
-88.547714233394
 20
9.927502155303898
 30
0.0
 11
-78.552062988274
 21
16.3336234092709
 31
0.0
  0
LINE
  5
18DE
330
1F
100
AcDbEntity
  8
AM_0
  6
Continuous
 48
0.5
370
    30
100
AcDbLine
 10
-113.547729492184
 20
29.9999995231619
 30
0.0
 11
-90.547729492184
 21
29.9999995231619
 31
0.0
  0
LINE
  5
18DF
330
1F
100
AcDbEntity
  8
AM_0
  6
Continuous
 48
0.5
370
    30
100
AcDbLine
 10
-89.547729492184
 20
26.2739825248709
 30
0.0
 11
-89.547729492184
 21
11.9495806694029
 31
0.0
  0
LINE
  5
18E0
330
1F
100
AcDbEntity
  8
AM_0
  6
Continuous
 48
0.5
370
    30
100
AcDbLine
 10
-90.547729492184
 20
29.8095164299009
 30
0.0
 11
-78.552062988274
 21
29.8095164299009
 31
0.0
  0
LINE
  5
18E1
330
1F
100
AcDbEntity
  8
AM_0
  6
Continuous
 48
0.5
370
    30
100
AcDbLine
 10
-90.547729492184
 20
26.2739825248709
 30
0.0
 11
-89.547729492184
 21
26.2739825248709
 31
0.0
  0
LINE
  5
18E2
330
1F
100
AcDbEntity
  8
AM_0
  6
Continuous
 48
0.5
370
    30
100
AcDbLine
 10
-78.552062988274
 20
29.8095164299009
 30
0.0
 11
-78.552062988274
 21
5.0000014305115
 31
0.0
  0
LINE
  5
18E3
330
1F
100
AcDbEntity
  8
AM_0
  6
Continuous
 48
0.5
370
    30
100
AcDbLine
 10
149.999999999999
 20
29.9999995231619
 30
0.0
 11
149.999999999999
 21
5.0000014305115
 31
0.0
  0
LINE
  5
18E4
330
1F
100
AcDbEntity
  8
AM_0
  6
Continuous
 48
0.5
370
    30
100
AcDbLine
 10
-113.547729492184
 20
29.9999995231619
 30
0.0
 11
-113.547729492184
 21
3.255843639373799
 31
0.0
  0
LINE
  5
18E6
330
1F
100
AcDbEntity
  8
AM_0
  6
Continuous
 48
0.5
370
    30
100
AcDbLine
 10
-113.547729492184
 20
3.255845546722399
 30
0.0
 11
-101.547729492184
 21
1.139921665191599
 31
0.0
  0
LINE
  5
18E7
330
1F
100
AcDbEntity
  8
AM_0
  6
Continuous
 48
0.5
370
    30
100
AcDbLine
 10
-90.547729492184
 20
29.9999995231619
 30
0.0
 11
-90.547729492184
 21
23.8992304801939
 31
0.0
  0
LINE
  5
18E8
330
1F
100
AcDbEntity
  8
AM_0
  6
Continuous
 48
0.5
370
    30
100
AcDbLine
 10
-88.893600463864
 20
5.7678885459899
 30
0.0
 11
-88.547729492184
 21
5.7678885459899
 31
0.0
  0
ARC
  5
1BAF
330
1F
100
AcDbEntity
  8
AM_0
  6
Continuous
 48
0.5
370
    30
100
AcDbCircle
 10
17.008319854737
 20
23.8584208488459
 30
0.0
 40
4.9999985694885
100
AcDbArc
 50
236.2383655979589
 51
246.6385648735447
  0
ARC
  5
1BB2
330
1F
100
AcDbEntity
  8
AM_0
  6
Continuous
 48
0.5
370
    30
100
AcDbCircle
 10
4.0
 20
4.000000476837199
 30
0.0
 40
1.2099997997284
100
AcDbArc
 50
133.000284877185
 51
224.9999550347741
  0
ARC
  5
1BB3
330
1F
100
AcDbEntity
  8
AM_0
  6
Continuous
 48
0.5
370
    30
100
AcDbCircle
 10
9.309215545653998
 20
9.3091692924499
 30
0.0
 40
5.5999999046326
100
AcDbArc
 50
213.2537545124912
 51
224.9996444885429
  0
ARC
  5
1BB4
330
1F
100
AcDbEntity
  8
AM_0
  6
Continuous
 48
0.5
370
    30
100
AcDbCircle
 10
9.309169769287003
 20
9.309215068816899
 30
0.0
 40
5.5999999046326
100
AcDbArc
 50
225.0002865263239
 51
236.7461765023698
  0
ARC
  5
1BB5
330
1F
100
AcDbEntity
  8
AM_0
  6
Continuous
 48
0.5
370
    30
100
AcDbCircle
 10
9.309169769287003
 20
9.309215068816899
 30
0.0
 40
5.0
100
AcDbArc
 50
196.0287004446369
 51
253.9712783815525
  0
ARC
  5
1BB6
330
1F
100
AcDbEntity
  8
AM_0
  6
Continuous
 48
0.5
370
    30
100
AcDbCircle
 10
4.0
 20
4.000000476837199
 30
0.0
 40
4.0
100
AcDbArc
 50
135.0000003416235
 51
319.0003515248072
  0
ARC
  5
1BB8
330
1F
100
AcDbEntity
  8
AM_0
  6
Continuous
 48
0.5
370
    30
100
AcDbCircle
 10
4.0
 20
4.000000476837199
 30
0.0
 40
1.2099997997284
100
AcDbArc
 50
224.9999723376231
 51
316.9996629857815
  0
ARC
  5
1BBA
330
1F
100
AcDbEntity
  8
AM_0
  6
Continuous
 48
0.5
370
    30
100
AcDbCircle
 10
6.547985076903998
 20
-0.3020253181458008
 30
0.0
 40
5.0
100
AcDbArc
 50
56.20558228380551
 51
73.97131754145346
  0
ARC
  5
1BBB
330
1F
100
AcDbEntity
  8
AM_0
  6
Continuous
 48
0.5
370
    30
100
AcDbCircle
 10
-0.3020706176760015
 20
6.5480294227599
 30
0.0
 40
4.9999985694885
100
AcDbArc
 50
16.02867984038171
 51
33.76163531265414
  0
ARC
  5
1BBD
330
1F
100
AcDbEntity
  8
AM_0
  6
Continuous
 48
0.5
370
    30
100
AcDbCircle
 10
-40.921203613281
 20
75.5225367546079
 30
0.0
 40
3.0
100
AcDbArc
 50
156.4477369015684
 51
195.9879478935825
  0
ARC
  5
1BBE
330
1F
100
AcDbEntity
  8
AM_0
  6
Continuous
 48
0.5
370
    30
100
AcDbCircle
 10
-40.320159912109
 20
76.9013819694519
 30
0.0
 40
3.0
100
AcDbArc
 50
65.12170098105895
 51
156.4477369015684
  0
ARC
  5
1BBF
330
1F
100
AcDbEntity
  8
AM_0
  6
Continuous
 48
0.5
370
    30
100
AcDbCircle
 10
-31.615669250488
 20
75.0982737541199
 30
0.0
 40
3.0
100
AcDbArc
 50
45.0000012522366
 51
134.0111255535869
  0
CIRCLE
  5
1BC1
330
1F
100
AcDbEntity
  8
AM_0
  6
Continuous
370
    30
100
AcDbCircle
 10
28.395303726196
 20
12.8389563560479
 30
0.0
 40
5.0
  0
CIRCLE
  5
1BC2
330
1F
100
AcDbEntity
  8
AM_0
  6
Continuous
370
    30
100
AcDbCircle
 10
28.395303726196
 20
12.8389563560479
 30
0.0
 40
5.5
  0
ARC
  5
1BC3
330
1F
100
AcDbEntity
  8
AM_0
  6
Continuous
 48
0.5
370
    30
100
AcDbCircle
 10
19.556350708008
 20
19.5563502311699
 30
0.0
 40
4.0
100
AcDbArc
 50
93.59039389453304
 51
139.9216160914797
  0
ARC
  5
1BC4
330
1F
100
AcDbEntity
  8
AM_0
  6
Continuous
 48
0.5
370
    30
100
AcDbCircle
 10
45.012309074402
 20
11.7782931327819
 30
0.0
 40
4.0
100
AcDbArc
 50
314.9999987477634
 51
45.0000012522366
  0
ARC
  5
1BC5
330
1F
100
AcDbEntity
  8
AM_0
  6
Continuous
 48
0.5
370
    30
100
AcDbCircle
 10
25.566875457764
 20
31.2237315177909
 30
0.0
 40
4.0
100
AcDbArc
 50
314.9999987477634
 51
342.1857140501871
  0
ARC
  5
1BC6
330
1F
100
AcDbEntity
  8
AM_0
  6
Continuous
 48
0.5
370
    30
100
AcDbCircle
 10
36.173482894898
 20
20.6171259880059
 30
0.0
 40
4.0
100
AcDbArc
 50
314.9999987477634
 51
135.0000003416235
  0
ARC
  5
1BC7
330
1F
100
AcDbEntity
  8
AM_0
  6
Continuous
 48
0.5
370
    30
100
AcDbCircle
 10
44.658760070801
 20
12.1318488121029
 30
0.0
 40
4.0
100
AcDbArc
 50
45.0000012522366
 51
135.0000003416235
  0
ARC
  5
1BC8
330
1F
100
AcDbEntity
  8
AM_0
  6
Continuous
 48
0.5
370
    30
100
AcDbCircle
 10
-90.894653320304
 20
22.9839396476739
 30
0.0
 40
3.0
100
AcDbArc
 50
90.00000250447893
 51
162.2360353552076
  0
ARC
  5
1BC9
330
1F
100
AcDbEntity
  8
AM_0
  6
Continuous
 48
0.5
370
    30
100
AcDbCircle
 10
-90.894653320304
 20
17.6806387901299
 30
0.0
 40
3.0
100
AcDbArc
 50
90.00000250447893
 51
105.8237886225894
  0
ARC
  5
1BCA
330
1F
100
AcDbEntity
  8
AM_0
  6
Continuous
 48
0.5
370
    30
100
AcDbCircle
 10
-98.18206787109401
 20
20.1455855369559
 30
0.0
 40
3.0
100
AcDbArc
 50
127.0781693573257
 51
188.4017797258568
  0
ARC
  5
1BCB
330
1F
100
AcDbEntity
  8
AM_0
  6
Continuous
 48
0.5
370
    30
100
AcDbCircle
 10
-98.216827392574
 20
20.3809828758239
 30
0.0
 40
3.0
100
AcDbArc
 50
188.401769707941
 51
249.7253869066619
  0
ARC
  5
1BCC
330
1F
100
AcDbEntity
  8
AM_5
  6
AM_ISO09W050
370
    13
100
AcDbCircle
 10
-88.692230224604
 20
139.9999995231569
 30
0.0
 40
140.0
100
AcDbArc
 50
246.1710998965567
 51
279.3226388068883
  0
SPLINE
  5
1BCE
330
1F
100
AcDbEntity
  8
AM_0
  6
Continuous
 48
0.5
370
    30
100
AcDbSpline
210
0.0
220
0.0
230
1.0
 70
     8
 71
     3
 72
     9
 73
     5
 74
     0
 42
0.0000000001
 43
0.0000000001
 40
2.053115206074752
 40
2.053115206074752
 40
2.053115206074752
 40
2.053115206074752
 40
2.159328889657888
 40
3.106279786236191
 40
3.106279786236191
 40
3.106279786236191
 40
3.106279786236191
 10
15.67566719670065
 20
19.91958533051591
 30
0.0
 10
15.63970472054138
 20
19.91629896356847
 30
0.0
 10
15.28402544837341
 20
19.89215260916544
 30
0.0
 10
14.95008053188638
 20
20.02472142609841
 30
0.0
 10
14.649814605713
 20
20.1439204215999
 30
0.0
  0
SPLINE
  5
1BCF
330
1F
100
AcDbEntity
  8
AM_0
  6
Continuous
 48
0.5
370
    30
100
AcDbSpline
210
0.0
220
0.0
230
1.0
 70
     8
 71
     3
 72
    11
 73
     7
 74
     5
 42
0.0000000001
 43
0.0000000001
 44
0.0000000001
 40
0.0
 40
0.0
 40
0.0
 40
0.0
 40
0.9851619610269536
 40
1.507598637425386
 40
2.159328588267681
 40
3.106278903505664
 40
3.106278903505664
 40
3.106278903505664
 40
3.106278903505664
 10
6.238418579102003
 20
4.626218318939198
 30
0.0
 10
6.435431887511445
 20
4.367239391481287
 30
0.0
 10
6.736922410961142
 20
3.970922548562958
 30
0.0
 10
7.360322505030259
 20
3.520747004994816
 30
0.0
 10
8.099348670228665
 20
3.732864934741953
 30
0.0
 10
8.606270070428142
 20
3.531630718450233
 30
0.0
 10
8.906536102295
 20
3.412433147430399
 30
0.0
 11
6.238418579102003
 21
4.626218318939198
 31
0.0
 11
6.886573791503999
 21
3.884302616119399
 31
0.0
 11
7.336875915528005
 21
3.619410037994399
 31
0.0
 11
7.988166809082003
 21
3.643328666686999
 31
0.0
 11
8.906536102295
 21
3.412433147430399
 31
0.0
  0
SPLINE
  5
1BD0
330
1F
100
AcDbEntity
  8
AM_0
  6
Continuous
 48
0.5
370
    30
100
AcDbSpline
210
0.0
220
0.0
230
1.0
 70
     8
 71
     3
 72
    11
 73
     7
 74
     5
 42
0.0000000001
 43
0.0000000001
 44
0.0000000001
 40
0.0
 40
0.0
 40
0.0
 40
0.0
 40
0.9851585515410362
 40
1.507597984120929
 40
2.159329963535655
 40
3.106278550522673
 40
3.106278550522673
 40
3.106278550522673
 40
3.106278550522673
 10
4.626216888428004
 20
6.238420009612899
 30
0.0
 10
4.367239870910379
 20
6.435433220803727
 30
0.0
 10
3.970924750940617
 20
6.736924508243575
 30
0.0
 10
3.520742282028312
 20
7.360322104360798
 30
0.0
 10
3.732868856779902
 20
8.099350179063469
 30
0.0
 10
3.531629930517918
 20
8.606270711818077
 30
0.0
 10
3.412429809571002
 20
8.906535625456899
 30
0.0
 11
4.626216888428004
 21
6.238420009612899
 31
0.0
 11
3.884304046631002
 21
6.886573314665899
 31
0.0
 11
3.619407653808999
 21
7.3368763923639
 31
0.0
 11
3.643329620362003
 21
7.988169193266899
 31
0.0
 11
3.412429809571002
 21
8.906535625456899
 31
0.0
  0
SPLINE
  5
1BD1
330
1F
100
AcDbEntity
  8
AM_0
  6
Continuous
 48
0.5
370
    30
100
AcDbSpline
210
0.0
220
0.0
230
1.0
 70
     8
 71
     3
 72
    11
 73
     7
 74
     5
 42
0.0000000001
 43
0.0000000001
 44
0.0000000001
 40
0.0
 40
0.0
 40
0.0
 40
0.0
 40
2.111659982544968
 40
4.961333270617411
 40
7.793446977648705
 40
8.973898743021849
 40
8.973898743021849
 40
8.973898743021849
 40
8.973898743021849
 10
-89.41448974609401
 20
8.906536579131899
 30
0.0
 10
-89.28089415012281
 20
8.214831422474189
 30
0.0
 10
-88.96701204761638
 20
6.589674041290333
 30
0.0
 10
-88.69821872751238
 20
4.010852360763058
 30
0.0
 10
-88.43569753712147
 20
1.715958117497003
 30
0.0
 10
-88.63391644478217
 20
0.3900644724209789
 30
0.0
 10
-88.692230224604
 20
0.0000014305114986
 30
0.0
 11
-89.41448974609401
 21
8.906536579131899
 31
0.0
 11
-89.039566040034
 21
6.828426837920899
 31
0.0
 11
-88.692230224604
 21
4.000000476837199
 31
0.0
 11
-88.547729492184
 21
1.171575546264599
 31
0.0
 11
-88.692230224604
 21
0.0000014305114986
 31
0.0
  0
MTEXT
  5
1C35
330
1F
100
AcDbEntity
  8
PV0001_1
 62
     2
370
    30
100
AcDbMText
 10
137.86076660156
 20
-59.091918945312
 30
0.0
 40
2.3
 41
0.0
 71
     4
 72
     5
  1
\W0.72;　
 73
     1
 44
1.0
  0
MTEXT
  5
1C36
330
1F
100
AcDbEntity
  8
PV0001_1
 62
     2
370
    30
100
AcDbMText
 10
139.93576660156
 20
-59.091918945312
 30
0.0
 40
2.3
 41
0.0
 71
     4
 72
     5
  1
\W0.72;　
 73
     1
 44
1.0
  0
INSERT
  5
1C9A
330
1F
100
AcDbEntity
  8
AM_0
  6
Continuous
370
    30
100
AcDbBlockReference
  2
*U13
 10
59.040100097656
 20
-4.333237171173101
 30
0.0
  0
INSERT
  5
1CA0
330
1F
100
AcDbEntity
  8
AM_0
  6
Continuous
370
    30
100
AcDbBlockReference
  2
*U14
 10
59.040100097656
 20
-4.333237171173101
 30
0.0
  0
INSERT
  5
1CA5
330
1F
100
AcDbEntity
  8
AM_5
370
    13
100
AcDbBlockReference
  2
*U15
 10
59.040100097656
 20
-4.333237171173101
 30
0.0
  0
INSERT
  5
1CAA
330
1F
100
AcDbEntity
  8
AM_5
370
    13
100
AcDbBlockReference
  2
*U16
 10
59.040100097656
 20
-4.333237171173101
 30
0.0
  0
LINE
  5
1FC2
330
1F
100
AcDbEntity
  8
AM_7
  6
CENTER
370
    13
100
AcDbLine
 10
-117.0391990801918
 20
12.83895023141794
 30
0.0
 11
-75.95398253064903
 21
12.83895023141794
 31
0.0
  0
DIMENSION
  5
1FC6
330
1F
100
AcDbEntity
  8
AM_5
370
    13
100
AcDbDimension
  2
*D18
 10
-88.69223022460402
 20
139.9999995231569
 30
0.0
 11
-126.4207099954704
 21
40.90775833924475
 31
0.0
 70
   164
 71
     5
 42
280.0000000000001
  3
AM_JIS$4
100
AcDbRadialDimension
 15
-138.5074245637996
 25
9.162518605232684
 35
0.0
 40
0.0
1001
ACAD
1000
DSTYLE
1002
{
1070
     3
1000
%%c<>
1070
   144
1040
2.0
1070
   271
1070
     0
1002
}
  0
TEXT
  5
2080
330
1F
100
AcDbEntity
  8
AM_6
  6
Continuous
 62
     0
370
    30
100
AcDbText
 10
22.89336761848722
 20
-57.08338533215837
 30
0.0
 40
3.8
  1
GDER2525-845S
  7
ACISOTS
100
AcDbText
  0
TEXT
  5
216A
330
1F
100
AcDbEntity
  8
AM_6
 62
     0
100
AcDbText
 10
-54.38008143988496
 20
-29.57629142712352
 30
0.0
 40
3.5
  1
0%%D
 50
0.0001751499993404
100
AcDbText
  0
TEXT
  5
2175
330
1F
100
AcDbEntity
  8
AM_6
 62
     0
100
AcDbText
 10
-37.00361110565115
 20
-30.76370264797247
 30
0.0
 40
3.5
  1
+7%%D
 50
0.0001751499993404
100
AcDbText
  0
ENDSEC
  0
SECTION
  2
OBJECTS
  0
DICTIONARY
  5
C
330
0
100
AcDbDictionary
281
     1
  3
ACAD_COLOR
350
1F13
  3
ACAD_GROUP
350
D
  3
ACAD_LAYOUT
350
1A
  3
ACAD_MATERIAL
350
1F12
  3
ACAD_MLINESTYLE
350
17
  3
ACAD_PLOTSETTINGS
350
19
  3
ACAD_PLOTSTYLENAME
350
E
  3
ACAD_TABLESTYLE
350
1F14
  3
AcAmCatalogState
350
1F7B
  3
ACDBHEADERROUNDTRIPXREC
350
21BB
  3
AcDbVariableDictionary
350
30
  3
ACDMSYSVARMGR
350
1F2C
  3
ACGREF_MASTER
350
1F24
  3
ACGREFACAD_MASTER
350
1F4E
  3
AcmDictionary
350
43
  3
ACME_BOM_MANAGER_NAME
350
36
  3
ACME_COMMAND_HISTORY
350
2F
  3
ACME_SCOPE_NAME
350
2E
  3
ACMESTATEMGR
350
3B
  3
AcmeSysVarManager
350
32
  3
AcmSystemVariableManager
350
79D
  3
AD_APPL
350
1F59
  3
ADSYSVARMGR
350
1F58
  3
AmdtNamedDwgMgr
350
1F49
  3
AMG
350
3F
  3
AMGSNAPSETTINGS
350
59
  3
AMI_MASTER
350
1F51
  3
AUTOCAD_ASSEMBLIES_PROJECT
350
1F61
  3
Designer_Assemblies_SysVars
350
1F5C
  3
DWGPROPS
350
21BE
  3
GREFAM_MODULE
350
1F52
  3
SAKAE_DICT
350
1F0D
  0
DICTIONARY
  5
2076
330
2
100
AcDbDictionary
280
     1
281
     1
  3
ACAD_LAYERSTATES
360
2077
  0
DICTIONARY
  5
10B
330
1F
100
AcDbDictionary
280
     1
281
     1
  3
ACAD_SORTENTS
360
1FC3
  0
DICTIONARY
  5
1F13
102
{ACAD_REACTORS
330
C
102
}
330
C
100
AcDbDictionary
281
     1
  0
DICTIONARY
  5
D
102
{ACAD_REACTORS
330
C
102
}
330
C
100
AcDbDictionary
281
     1
  0
DICTIONARY
  5
1A
102
{ACAD_REACTORS
330
C
102
}
330
C
100
AcDbDictionary
281
     1
  3
Model
350
22
  3
ﾚｲｱｳﾄ1
350
1E
  3
ﾚｲｱｳﾄ2
350
26
  0
DICTIONARY
  5
1F12
102
{ACAD_REACTORS
330
C
102
}
330
C
100
AcDbDictionary
281
     1
  0
DICTIONARY
  5
17
102
{ACAD_REACTORS
330
C
102
}
330
C
100
AcDbDictionary
281
     1
  3
Standard
350
18
  0
DICTIONARY
  5
19
102
{ACAD_REACTORS
330
C
102
}
330
C
100
AcDbDictionary
281
     1
  0
ACDBDICTIONARYWDFLT
  5
E
102
{ACAD_REACTORS
330
C
102
}
330
C
100
AcDbDictionary
281
     1
  3
Normal
350
F
100
AcDbDictionaryWithDefault
340
F
  0
DICTIONARY
  5
1F14
102
{ACAD_REACTORS
330
C
102
}
330
C
100
AcDbDictionary
281
     1
  3
Standard
350
1F15
  0
ACAD_PROXY_OBJECT
  5
1F7B
102
{ACAD_REACTORS
330
C
102
}
330
C
100
AcDbProxyObject
 90
      499
 91
      570
 95
       25
 70
     0
 93
      160
310
3FFFFFFFE00A028140283A19D2E3A32B6B8400AA
  0
DICTIONARY
  5
21BB
102
{ACAD_REACTORS
330
C
102
}
330
C
100
AcDbDictionary
281
     1
  3
COLORDICT
350
21BC
  3
MATERIALDICT
350
21BD
  0
DICTIONARY
  5
30
102
{ACAD_REACTORS
330
C
102
}
330
C
100
AcDbDictionary
281
     1
  3
CTABLESTYLE
350
1F86
  3
DIMASSOC
350
21B9
  3
HIDETEXT
350
21BA
  3
INDEXCTL
350
31
  0
ACAD_PROXY_OBJECT
  5
1F2C
102
{ACAD_REACTORS
330
C
102
}
330
C
100
AcDbProxyObject
 90
      499
 91
      507
 95
       25
 70
     0
 93
      240
310
4C51A47A0000000000000000000000000000000000000000000000000000
330
1F2D
330
1F2E
330
1F2F
330
1F30
330
1F31
330
1F32
330
1F33
330
1F34
330
1F35
330
1F36
330
1F37
330
1F38
330
1F39
330
1F3A
330
1F3B
330
1F3C
330
1F3D
330
1F3E
330
1F3F
330
1F40
330
1F41
330
1F42
330
1F43
330
1F44
330
1F45
330
1F46
 94
        0
  0
ACAD_PROXY_OBJECT
  5
1F24
102
{ACAD_REACTORS
330
C
102
}
330
C
100
AcDbProxyObject
 90
      499
 91
      534
 95
       25
 70
     0
 93
       34
310
0400004280
  0
ACAD_PROXY_OBJECT
  5
1F4E
102
{ACAD_REACTORS
330
C
102
}
330
C
100
AcDbProxyObject
 90
      499
 91
      540
 95
       25
 70
     0
 93
      114
310
04000041C080000000000000000000
  0
DICTIONARY
  5
43
102
{ACAD_REACTORS
330
C
102
}
330
C
100
AcDbDictionary
281
     1
  3
AcmBOMDATA
350
44
  3
AcmStdDictionary
350
7A0
  3
AMDTSECTSYM_ARROWCOLOR
350
1F6F
  0
ACAD_PROXY_OBJECT
  5
36
102
{ACAD_REACTORS
330
C
102
}
330
C
100
AcDbProxyObject
 90
      499
 91
      510
 95
       25
 70
     0
 93
       50
310
00010040400000
330
0
330
0
330
37
 94
        0
  0
ACAD_PROXY_OBJECT
  5
2F
102
{ACAD_REACTORS
330
C
102
}
330
C
100
AcDbProxyObject
 90
      499
 91
      505
 95
       25
 70
     0
 93
     3574
310
47805095041535445434C49508050644444544495440405184D5347202D20436F6D6D616E642043414E43454C4C45442E014151549054D16014210D3D41650D3125420142541054D51150D31254201419493D51055116014115539113E01419493D51055116014154D0D053116014115539113E01419493D51055116014151
310
549054D16014210D3D41650D3125420142541054D51150D312542014151549054D16014151549054D16014210D3D41650D3125420142541054D51150D31254201419111115112552014151549054D16014151549054D16014151549054D150101461354D1C80B4810DBDB5B585B990810D05390D1531311510B80505455241
310
534580505455241534580506455854454E4480506455854454E4440405184D5347202D20436F6D6D616E642043414E43454C4C45442E014311D4925417D4D514915510D210101461354D1C80B4810DBDB5B585B990810D05390D1531311510B805045A4F4F4D40405184D5347202D20436F6D6D616E642043414E43454C4C4
310
5442E014154155491D1601415454D05591501014B5354D1C80B481414104E88080819195CDADD1BDC0B985C9E08119A5B1955995C9CDA5BDB8E880E4B8C8B8C0B8D0
  0
ACAD_PROXY_OBJECT
  5
2E
102
{ACAD_REACTORS
330
C
102
}
330
C
100
AcDbProxyObject
 90
      499
 91
      504
 95
       25
 70
     0
 93
      586
310
09000046408000000000000000001344E200000000000000000000000000000000000000000000000000000000000000000000000000000000000000000000000000000000AAA406AA80
360
33
360
34
360
35
360
37
360
79E
360
79F
360
1F25
360
1F26
360
1F27
360
1F28
360
1F29
360
1F2A
360
1F2D
360
1F2E
360
1F2F
360
1F30
360
1F31
360
1F32
360
1F33
360
1F34
360
1F35
360
1F36
360
1F37
360
1F38
360
1F39
360
1F3A
360
1F3B
360
1F3C
360
1F3D
360
1F3E
360
1F3F
360
1F40
360
1F41
360
1F42
360
1F43
360
1F44
360
1F45
360
1F46
360
1F54
360
1F55
360
1F56
360
1F57
360
1F5D
360
1F5E
360
1F5F
360
1F60
360
1F65
360
1F66
360
1F67
360
1F68
360
1F69
360
1F6A
 94
        0
  0
ACAD_PROXY_OBJECT
  5
3B
102
{ACAD_REACTORS
330
C
102
}
330
C
100
AcDbProxyObject
 90
      499
 91
      515
 95
       25
 70
     0
 93
       50
310
09000042641280
  0
ACAD_PROXY_OBJECT
  5
32
102
{ACAD_REACTORS
330
C
102
}
330
C
100
AcDbProxyObject
 90
      499
 91
      507
 95
       25
 70
     0
 93
       48
310
903412000000
330
33
330
34
330
35
 94
        0
  0
ACAD_PROXY_OBJECT
  5
79D
102
{ACAD_REACTORS
330
C
102
}
330
C
100
AcDbProxyObject
 90
      499
 91
      507
 95
       25
 70
     0
 93
       40
310
90240E0000
330
79E
330
79F
 94
        0
  0
ACAD_PROXY_OBJECT
  5
1F59
102
{ACAD_REACTORS
330
C
102
}
330
C
100
AcDbProxyObject
 90
      499
 91
      550
 95
       25
 70
     0
 93
       42
310
000900004040
330
1F54
 94
        0
  0
ACAD_PROXY_OBJECT
  5
1F58
102
{ACAD_REACTORS
330
C
102
}
330
C
100
AcDbProxyObject
 90
      499
 91
      507
 95
       25
 70
     0
 93
        8
310
AA
  0
ACAD_PROXY_OBJECT
  5
1F49
102
{ACAD_REACTORS
330
C
102
}
330
C
100
AcDbProxyObject
 90
      499
 91
      539
 95
       25
 70
     0
 93
       42
310
000100005E80
330
1F25
 94
        0
  0
DICTIONARY
  5
3F
102
{ACAD_REACTORS
330
C
102
}
330
C
100
AcDbDictionary
281
     1
  3
AcMgSettings
350
40
  3
AMGLAYCFG
350
47
  0
DICTIONARY
  5
59
102
{ACAD_REACTORS
330
C
102
}
330
C
100
AcDbDictionary
281
     1
  3
DIMENSION
350
AE3
  3
FEA
350
AE4
  3
HATCH (1)
350
AE5
  3
HATCH (2)
350
AE6
  3
SYMBOLS
350
AE7
  0
ACAD_PROXY_OBJECT
  5
1F51
102
{ACAD_REACTORS
330
C
102
}
330
C
100
AcDbProxyObject
 90
      499
 91
      543
 95
       25
 70
     0
 93
       34
310
0500004280
  0
ACAD_PROXY_OBJECT
  5
1F61
102
{ACAD_REACTORS
330
C
102
}
330
C
100
AcDbProxyObject
 90
      499
 91
      553
 95
       25
 70
     0
 93
       98
310
0900004E400000000000000000
330
1F68
330
0
330
1F69
330
0
330
0
330
0
330
0
330
0
 94
        0
  0
ACAD_PROXY_OBJECT
  5
1F5C
102
{ACAD_REACTORS
330
C
102
}
330
C
100
AcDbProxyObject
 90
      499
 91
      507
 95
       25
 70
     0
 93
       56
310
90441600000000
330
1F5D
330
1F5E
330
1F5F
330
1F60
 94
        0
  0
XRECORD
  5
21BE
102
{ACAD_REACTORS
330
C
102
}
330
C
100
AcDbXrecord
280
     1
  1
DWGPROPS COOKIE
  2

  3

  4

  6

  7

  8

  9

300
AmdtFileType=82
301
=
302
=
303
=
304
=
305
=
306
=
307
=
308
=
309
=
 40
0.0
 41
2451856.233395394
 42
2455469.012349896
  1

 90
        1
  0
ACAD_PROXY_OBJECT
  5
1F52
102
{ACAD_REACTORS
330
C
102
}
330
C
100
AcDbProxyObject
 90
      499
 91
      544
 95
       25
 70
     0
 93
        8
310
05
  0
DICTIONARY
  5
1F0D
102
{ACAD_REACTORS
330
C
102
}
330
C
100
AcDbDictionary
281
     1
  3
XREC1
350
1F0E
  0
DICTIONARY
  5
2077
102
{ACAD_REACTORS
330
2076
102
}
330
2076
100
AcDbDictionary
281
     1
  0
SORTENTSTABLE
  5
1FC3
102
{ACAD_REACTORS
330
10B
102
}
330
10B
100
AcDbSortentsTable
330
1F
331
0
  5
1845
331
12E2
  5
12E2
331
1370
  5
1370
331
13B3
  5
13B3
331
1422
  5
1422
331
1492
  5
1492
331
14DD
  5
14DD
331
156E
  5
156E
331
15DE
  5
15DE
331
1675
  5
1675
331
16DE
  5
16DE
331
1820
  5
1820
331
1821
  5
1821
331
1823
  5
1823
331
1824
  5
1824
331
1825
  5
1825
331
1826
  5
1826
331
1827
  5
1827
331
1828
  5
1828
331
1829
  5
1829
331
182A
  5
182A
331
182B
  5
182B
331
182C
  5
182C
331
182D
  5
182D
331
182E
  5
182E
331
182F
  5
182F
331
1830
  5
1830
331
1832
  5
1832
331
1834
  5
1834
331
1835
  5
1835
331
1836
  5
1836
331
1837
  5
1837
331
1838
  5
1838
331
1839
  5
1839
331
183A
  5
183A
331
183B
  5
183B
331
183D
  5
183D
331
183F
  5
183F
331
1840
  5
1840
331
1842
  5
1842
331
1843
  5
1843
331
1844
  5
1844
331
1846
  5
1846
331
1847
  5
1847
331
1848
  5
1848
331
1849
  5
1849
331
184A
  5
184A
331
184B
  5
184B
331
184C
  5
184C
331
184D
  5
184D
331
184E
  5
184E
331
184F
  5
184F
331
1850
  5
1850
331
1851
  5
1851
331
1852
  5
1852
331
1853
  5
1853
331
1854
  5
1854
331
1855
  5
1855
331
1856
  5
1856
331
1857
  5
1857
331
1859
  5
1859
331
185A
  5
185A
331
185B
  5
185B
331
185C
  5
185C
331
185D
  5
185D
331
185F
  5
185F
331
1860
  5
1860
331
1861
  5
1861
331
1862
  5
1862
331
1865
  5
1865
331
1866
  5
1866
331
1867
  5
1867
331
1868
  5
1868
331
1869
  5
1869
331
186A
  5
186A
331
186B
  5
186B
331
186C
  5
186C
331
186D
  5
186D
331
186E
  5
186E
331
186F
  5
186F
331
1870
  5
1870
331
1871
  5
1871
331
1872
  5
1872
331
1873
  5
1873
331
1874
  5
1874
331
1875
  5
1875
331
1876
  5
1876
331
1877
  5
1877
331
1878
  5
1878
331
1879
  5
1879
331
187A
  5
187A
331
187B
  5
187B
331
187C
  5
187C
331
187D
  5
187D
331
187E
  5
187E
331
187F
  5
187F
331
1880
  5
1880
331
1881
  5
1881
331
1882
  5
1882
331
1883
  5
1883
331
1884
  5
1884
331
1885
  5
1885
331
1886
  5
1886
331
1887
  5
1887
331
1888
  5
1888
331
1889
  5
1889
331
188A
  5
188A
331
188D
  5
188D
331
188E
  5
188E
331
188F
  5
188F
331
1890
  5
1890
331
1891
  5
1891
331
1892
  5
1892
331
1893
  5
1893
331
1894
  5
1894
331
1895
  5
1895
331
1896
  5
1896
331
1897
  5
1897
331
1898
  5
1898
331
1899
  5
1899
331
189A
  5
189A
331
189B
  5
189B
331
189C
  5
189C
331
189D
  5
189D
331
189E
  5
189E
331
189F
  5
189F
331
18A0
  5
18A0
331
18A1
  5
18A1
331
18A2
  5
18A2
331
18A3
  5
18A3
331
18A4
  5
18A4
331
18A5
  5
18A5
331
18A6
  5
18A6
331
18A7
  5
18A7
331
18A8
  5
18A8
331
18A9
  5
18A9
331
18AA
  5
18AA
331
18AB
  5
18AB
331
18AC
  5
18AC
331
18AD
  5
18AD
331
18AE
  5
18AE
331
18AF
  5
18AF
331
18B0
  5
18B0
331
18B1
  5
18B1
331
18B2
  5
18B2
331
18B3
  5
18B3
331
18B4
  5
18B4
331
18B5
  5
18B5
331
18B6
  5
18B6
331
18B7
  5
18B7
331
18B8
  5
18B8
331
18B9
  5
18B9
331
18BA
  5
18BA
331
18BB
  5
18BB
331
18BC
  5
18BC
331
18BD
  5
18BD
331
18BE
  5
18BE
331
18BF
  5
18BF
331
18C0
  5
18C0
331
18C1
  5
18C1
331
18C2
  5
18C2
331
18C3
  5
18C3
331
18C4
  5
18C4
331
18C5
  5
18C5
331
18C6
  5
18C6
331
18C7
  5
18C7
331
18C8
  5
18C8
331
18C9
  5
18C9
331
18CA
  5
18CA
331
18CB
  5
18CB
331
18CC
  5
18CC
331
18CD
  5
18CD
331
18CE
  5
18CE
331
18CF
  5
18CF
331
18D0
  5
18D0
331
18D1
  5
18D1
331
18D2
  5
18D2
331
18D3
  5
18D3
331
18D4
  5
18D4
331
18D5
  5
18D5
331
18D6
  5
18D6
331
18D7
  5
18D7
331
18D8
  5
18D8
331
18D9
  5
18D9
331
18DA
  5
18DA
331
18DB
  5
18DB
331
18DC
  5
18DC
331
18DD
  5
18DD
331
18DE
  5
18DE
331
18DF
  5
18DF
331
18E0
  5
18E0
331
18E1
  5
18E1
331
18E2
  5
18E2
331
18E3
  5
18E3
331
18E4
  5
18E4
331
18E6
  5
18E6
331
18E7
  5
18E7
331
18E8
  5
18E8
331
1BAF
  5
1BAF
331
1BB2
  5
1BB2
331
1BB3
  5
1BB3
331
1BB4
  5
1BB4
331
1BB5
  5
1BB5
331
1BB6
  5
1BB6
331
1BB8
  5
1BB8
331
1BBA
  5
1BBA
331
1BBB
  5
1BBB
331
1BBD
  5
1BBD
331
1BBE
  5
1BBE
331
1BBF
  5
1BBF
331
1BC1
  5
1BC1
331
1BC2
  5
1BC2
331
1BC3
  5
1BC3
331
1BC4
  5
1BC4
331
1BC5
  5
1BC5
331
1BC6
  5
1BC6
331
1BC7
  5
1BC7
331
1BC8
  5
1BC8
331
1BC9
  5
1BC9
331
1BCA
  5
1BCA
331
1BCB
  5
1BCB
331
1BCC
  5
1BCC
331
1BCE
  5
1BCE
331
1BCF
  5
1BCF
331
1BD0
  5
1BD0
331
1BD1
  5
1BD1
331
1C35
  5
1C35
331
1C36
  5
1C36
331
1C9A
  5
1C9A
331
1CA0
  5
1CA0
331
1CA5
  5
1CA5
331
1CAA
  5
1CAA
331
1FC2
  5
1FC2
  0
LAYOUT
  5
22
102
{ACAD_REACTORS
330
1A
102
}
330
1A
100
AcDbPlotSettings
  1

  2
SII LP-2150 (D-SCAN C2)
  4
User118
  6
AM_VIEW1
 40
3.174999952316284
 41
3.174999952316284
 42
3.17498779296875
 43
3.17498779296875
 44
296.9259948730469
 45
419.9889831542969
 46
0.0
 47
0.0
 48
0.0
 49
0.0
140
423.0
141
300.0
142
1.0
143
1.03243210946902
 70
 11952
 72
     1
 73
     1
 74
     4
  7
sei_cad.ctb
 75
     0
147
0.9685866904258728
148
0.0
149
0.0
100
AcDbLayout
  1
Model
 70
     1
 71
     0
 10
0.0
 20
0.0
 11
12.0
 21
9.0
 12
0.0
 22
0.0
 32
0.0
 14
0.0
 24
0.0
 34
0.0
 15
0.0
 25
0.0
 35
0.0
146
0.0
 13
0.0
 23
0.0
 33
0.0
 16
1.0
 26
0.0
 36
0.0
 17
0.0
 27
1.0
 37
0.0
 76
     0
330
1F
  0
LAYOUT
  5
1E
102
{ACAD_REACTORS
330
1A
102
}
330
1A
100
AcDbPlotSettings
  1

  2
SII LP-2150 (D-SCAN C2)
  4

  6

 40
0.0
 41
0.0
 42
0.0
 43
0.0
 44
0.0
 45
0.0
 46
0.0
 47
0.0
 48
0.0
 49
0.0
140
0.0
141
0.0
142
1.0
143
1.0
 70
   688
 72
     0
 73
     0
 74
     5
  7
sei_cad.ctb
 75
    16
147
1.0
148
0.0
149
0.0
100
AcDbLayout
  1
ﾚｲｱｳﾄ1
 70
     1
 71
     1
 10
0.0
 20
0.0
 11
420.0
 21
297.0
 12
0.0
 22
0.0
 32
0.0
 14
1.000000000000000E+20
 24
1.000000000000000E+20
 34
1.000000000000000E+20
 15
-1.000000000000000E+20
 25
-1.000000000000000E+20
 35
-1.000000000000000E+20
146
0.0
 13
0.0
 23
0.0
 33
0.0
 16
1.0
 26
0.0
 36
0.0
 17
0.0
 27
1.0
 37
0.0
 76
     0
330
1B
  0
LAYOUT
  5
26
102
{ACAD_REACTORS
330
1A
102
}
330
1A
100
AcDbPlotSettings
  1

  2
SII LP-2150 (D-SCAN C2)
  4

  6

 40
0.0
 41
0.0
 42
0.0
 43
0.0
 44
0.0
 45
0.0
 46
0.0
 47
0.0
 48
0.0
 49
0.0
140
0.0
141
0.0
142
1.0
143
1.0
 70
   688
 72
     0
 73
     0
 74
     5
  7
sei_cad.ctb
 75
    16
147
1.0
148
0.0
149
0.0
100
AcDbLayout
  1
ﾚｲｱｳﾄ2
 70
     1
 71
     2
 10
0.0
 20
0.0
 11
12.0
 21
9.0
 12
0.0
 22
0.0
 32
0.0
 14
0.0
 24
0.0
 34
0.0
 15
0.0
 25
0.0
 35
0.0
146
0.0
 13
0.0
 23
0.0
 33
0.0
 16
1.0
 26
0.0
 36
0.0
 17
0.0
 27
1.0
 37
0.0
 76
     0
330
23
  0
MLINESTYLE
  5
18
102
{ACAD_REACTORS
330
17
102
}
330
17
100
AcDbMlineStyle
  2
STANDARD
 70
     0
  3

 62
   256
 51
90.0
 52
90.0
 71
     2
 49
0.5
 62
   256
  6
BYLAYER
 49
-0.5
 62
   256
  6
BYLAYER
  0
ACDBPLACEHOLDER
  5
F
102
{ACAD_REACTORS
330
E
102
}
330
E
  0
TABLESTYLE
  5
1F15
102
{ACAD_REACTORS
330
1F14
102
}
330
1F14
100
AcDbTableStyle
  3
Standard
 70
     0
 71
     8
 40
1.5
 41
1.5
280
     0
281
     0
  7
STANDARD
140
4.5
170
     2
 62
     0
 63
     7
283
     0
274
    -2
284
     1
 64
     0
275
    -2
285
     1
 65
     0
276
    -2
286
     1
 66
     0
277
    -2
287
     1
 67
     0
278
    -2
288
     1
 68
     0
279
    -2
289
     1
 69
     0
  7
STANDARD
140
6.0
170
     5
 62
     0
 63
     7
283
     0
274
    -2
284
     1
 64
     0
275
    -2
285
     1
 65
     0
276
    -2
286
     1
 66
     0
277
    -2
287
     1
 67
     0
278
    -2
288
     1
 68
     0
279
    -2
289
     1
 69
     0
  7
STANDARD
140
4.5
170
     5
 62
     0
 63
     7
283
     0
274
    -2
284
     1
 64
     0
275
    -2
285
     1
 65
     0
276
    -2
286
     1
 66
     0
277
    -2
287
     1
 67
     0
278
    -2
288
     1
 68
     0
279
    -2
289
     1
 69
     0
  0
XRECORD
  5
21BC
102
{ACAD_REACTORS
330
21BB
102
}
330
21BB
100
AcDbXrecord
280
     1
340
1F13
  0
XRECORD
  5
21BD
102
{ACAD_REACTORS
330
21BB
102
}
330
21BB
100
AcDbXrecord
280
     1
340
1F12
  0
DICTIONARYVAR
  5
1F86
102
{ACAD_REACTORS
330
30
102
}
330
30
100
DictionaryVariables
280
     0
  1
STANDARD
  0
DICTIONARYVAR
  5
21B9
102
{ACAD_REACTORS
330
30
102
}
330
30
100
DictionaryVariables
280
     0
  1
1
  0
DICTIONARYVAR
  5
21BA
102
{ACAD_REACTORS
330
30
102
}
330
30
100
DictionaryVariables
280
     0
  1
0
  0
DICTIONARYVAR
  5
31
102
{ACAD_REACTORS
330
30
102
}
330
30
100
DictionaryVariables
280
     0
  1
1
  0
ACAD_PROXY_OBJECT
  5
44
102
{ACAD_REACTORS
330
43
102
}
330
43
100
AcDbProxyObject
 90
      499
 91
      519
 95
       25
 70
     0
 93
      118
310
405010040CA904C415CD5B075DD098
350
45
 94
        0
  0
DICTIONARY
  5
7A0
102
{ACAD_REACTORS
330
43
102
}
330
43
100
AcDbDictionary
281
     1
  3
JIS
350
7A1
  0
XRECORD
  5
1F6F
102
{ACAD_REACTORS
330
43
102
}
330
43
100
AcDbXrecord
280
     1
 90
-1023410169
  0
ACAD_PROXY_OBJECT
  5
33
330
2E
100
AcDbProxyObject
 90
      499
 91
      508
 95
       25
 70
     0
 93
      156
310
00010143D050D351505391D5531054925390D490
330
2E
 94
        0
  0
ACAD_PROXY_OBJECT
  5
34
330
2E
100
AcDbProxyObject
 90
      499
 91
      508
 95
       25
 70
     0
 93
      148
310
000101439050D351531253915054925390D490
330
2E
 94
        0
  0
ACAD_PROXY_OBJECT
  5
35
330
2E
100
AcDbProxyObject
 90
      499
 91
      509
 95
       25
 70
     0
 93
      156
310
000101439050D35154D6535093D314D256915080
330
2E
 94
        0
  0
ACAD_PROXY_OBJECT
  5
37
330
2E
100
AcDbProxyObject
 90
      499
 91
      511
 95
       25
 70
     0
 93
       88
310
000101411093D34C402B00
330
2E
330
0
330
0
 94
        0
  0
ACAD_PROXY_OBJECT
  5
79E
330
2E
100
AcDbProxyObject
 90
      499
 91
      509
 95
       25
 70
     0
 93
      108
310
00010142505351D153D35054D4E0
330
2E
 94
        0
  0
ACAD_PROXY_OBJECT
  5
79F
330
2E
100
AcDbProxyObject
 90
      499
 91
      525
 95
       25
 70
     0
 93
      140
310
00010142105350D55494D511005034A49530
330
2E
 94
        0
  0
ACAD_PROXY_OBJECT
  5
1F25
330
2E
100
AcDbProxyObject
 90
      499
 91
      535
 95
       25
 70
     0
 93
      358
310
0001014124FEA55D00507392E322E302E32014124FEA55D00507392E322E302E3240501000041505391D311658
330
2E
330
1F26
330
1F2C
 94
        0
  0
ACAD_PROXY_OBJECT
  5
1F26
330
2E
100
AcDbProxyObject
 90
      499
 91
      536
 95
       25
 70
     0
 93
       56
310
000190240E0000
330
2E
330
1F27
330
1F29
 94
        0
  0
ACAD_PROXY_OBJECT
  5
1F27
330
2E
100
AcDbProxyObject
 90
      499
 91
      537
 95
       25
 70
     0
 93
       48
310
0001AA000000
330
2E
330
1E
330
1F28
330
0
 94
        0
  0
ACAD_PROXY_OBJECT
  5
1F28
330
2E
100
AcDbProxyObject
 90
      499
 91
      538
 95
       25
 70
     0
 93
       28
310
0001AAA0
330
2E
 94
        0
  0
ACAD_PROXY_OBJECT
  5
1F29
330
2E
100
AcDbProxyObject
 90
      499
 91
      537
 95
       25
 70
     0
 93
       48
310
0001AA000000
330
2E
330
26
330
1F2A
330
0
 94
        0
  0
ACAD_PROXY_OBJECT
  5
1F2A
330
2E
100
AcDbProxyObject
 90
      499
 91
      538
 95
       25
 70
     0
 93
       28
310
0001AAA0
330
2E
 94
        0
  0
ACAD_PROXY_OBJECT
  5
1F2D
330
2E
100
AcDbProxyObject
 90
      499
 91
      509
 95
       25
 70
     0
 93
      108
310
000101421053521310D05310D010
330
2E
 94
        0
  0
ACAD_PROXY_OBJECT
  5
1F2E
330
2E
100
AcDbProxyObject
 90
      499
 91
      509
 95
       25
 70
     0
 93
      124
310
00010142905354915554D15112535010
330
2E
 94
        0
  0
ACAD_PROXY_OBJECT
  5
1F2F
330
2E
100
AcDbProxyObject
 90
      499
 91
      509
 95
       25
 70
     0
 93
      132
310
00010143105354D150D51253D391125360
330
2E
 94
        0
  0
ACAD_PROXY_OBJECT
  5
1F30
330
2E
100
AcDbProxyObject
 90
      499
 91
      509
 95
       25
 70
     0
 93
      124
310
00010142905355941093D49111549010
330
2E
 94
        0
  0
ACAD_PROXY_OBJECT
  5
1F31
330
2E
100
AcDbProxyObject
 90
      499
 91
      509
 95
       25
 70
     0
 93
      116
310
0001014290535115D1D0D3D313D4A0
330
2E
 94
        0
  0
ACAD_PROXY_OBJECT
  5
1F32
330
2E
100
AcDbProxyObject
 90
      499
 91
      509
 95
       25
 70
     0
 93
      148
310
00010143505355925155D49151949154D21010
330
2E
 94
        0
  0
ACAD_PROXY_OBJECT
  5
1F33
330
2E
100
AcDbProxyObject
 90
      499
 91
      509
 95
       25
 70
     0
 93
      172
310
00010144105350539393D51154149154D15495915010
330
2E
 94
        0
  0
ACAD_PROXY_OBJECT
  5
1F34
330
2E
100
AcDbProxyObject
 90
      499
 91
      509
 95
       25
 70
     0
 93
      172
310
00010144105350555513D11253505494905391D15010
330
2E
 94
        0
  0
ACAD_PROXY_OBJECT
  5
1F35
330
2E
100
AcDbProxyObject
 90
      499
 91
      509
 95
       25
 70
     0
 93
      124
310
00010142D05351561514915191125360
330
2E
 94
        0
  0
ACAD_PROXY_OBJECT
  5
1F36
330
2E
100
AcDbProxyObject
 90
      499
 91
      509
 95
       25
 70
     0
 93
      132
310
00010142D05355105410539393D5115010
330
2E
 94
        0
  0
ACAD_PROXY_OBJECT
  5
1F37
330
2E
100
AcDbProxyObject
 90
      499
 91
      509
 95
       25
 70
     0
 93
      108
310
00010142105350555513D0D31010
330
2E
 94
        0
  0
ACAD_PROXY_OBJECT
  5
1F38
330
2E
100
AcDbProxyObject
 90
      499
 91
      509
 95
       25
 70
     0
 93
      108
310
00010142105350D3119150551050
330
2E
 94
        0
  0
ACAD_PROXY_OBJECT
  5
1F39
330
2E
100
AcDbProxyObject
 90
      499
 91
      509
 95
       25
 70
     0
 93
      108
310
00010142105350D315925155D3F0
330
2E
 94
        0
  0
ACAD_PROXY_OBJECT
  5
1F3A
330
2E
100
AcDbProxyObject
 90
      499
 91
      509
 95
       25
 70
     0
 93
      148
310
0001014350535212511156915493D112535010
330
2E
 94
        0
  0
ACAD_PROXY_OBJECT
  5
1F3B
330
2E
100
AcDbProxyObject
 90
      499
 91
      509
 95
       25
 70
     0
 93
      124
310
00010142905352105510D21254D3D010
330
2E
 94
        0
  0
ACAD_PROXY_OBJECT
  5
1F3C
330
2E
100
AcDbProxyObject
 90
      499
 91
      509
 95
       25
 70
     0
 93
      148
310
00010143905354D25391D31152105513105660
330
2E
 94
        0
  0
ACAD_PROXY_OBJECT
  5
1F3D
330
2E
100
AcDbProxyObject
 90
      499
 91
      509
 95
       25
 70
     0
 93
      124
310
00010142D0535115D1D193111254D420
330
2E
 94
        0
  0
ACAD_PROXY_OBJECT
  5
1F3E
330
2E
100
AcDbProxyObject
 90
      499
 91
      509
 95
       25
 70
     0
 93
      100
310
00010142105350555513D213A0
330
2E
 94
        0
  0
ACAD_PROXY_OBJECT
  5
1F3F
330
2E
100
AcDbProxyObject
 90
      499
 91
      509
 95
       25
 70
     0
 93
      116
310
000101425053521390D3D553951010
330
2E
 94
        0
  0
ACAD_PROXY_OBJECT
  5
1F40
330
2E
100
AcDbProxyObject
 90
      499
 91
      509
 95
       25
 70
     0
 93
      108
310
0001014210535213941493D29010
330
2E
 94
        0
  0
ACAD_PROXY_OBJECT
  5
1F41
330
2E
100
AcDbProxyObject
 90
      499
 91
      509
 95
       25
 70
     0
 93
      108
310
0001014210535213951654115070
330
2E
 94
        0
  0
ACAD_PROXY_OBJECT
  5
1F42
330
2E
100
AcDbProxyObject
 90
      499
 91
      509
 95
       25
 70
     0
 93
      108
310
000101421053521395925155D0F0
330
2E
 94
        0
  0
ACAD_PROXY_OBJECT
  5
1F43
330
2E
100
AcDbProxyObject
 90
      499
 91
      509
 95
       25
 70
     0
 93
      140
310
00010143505354D150D51253D390D3D41660
330
2E
 94
        0
  0
ACAD_PROXY_OBJECT
  5
1F44
330
2E
100
AcDbProxyObject
 90
      499
 91
      509
 95
       25
 70
     0
 93
      108
310
00010142105350D3141493D29030
330
2E
 94
        0
  0
ACAD_PROXY_OBJECT
  5
1F45
330
2E
100
AcDbProxyObject
 90
      499
 91
      508
 95
       25
 70
     0
 93
      212
310
00010143905350555513D2105510D21493D500000000000002E400
330
2E
 94
        0
  0
ACAD_PROXY_OBJECT
  5
1F46
330
2E
100
AcDbProxyObject
 90
      499
 91
      509
 95
       25
 70
     0
 93
      156
310
00010143905350555513D2105510D21111551010
330
2E
 94
        0
  0
ACAD_PROXY_OBJECT
  5
1F54
330
2E
100
AcDbProxyObject
 90
      499
 91
      546
 95
       25
 70
     0
 93
      698
310
0001000000009AA6A9AA4051E547565204175672032342030313A32383A323820323031302028555443290141CE4B8C8B8C0B8C80518576564205365702032392030393A31373A343720323031300141CE4B8C8B8C0B8C80
330
2E
330
1F55
330
1F56
330
1F58
330
0
 94
        0
  0
ACAD_PROXY_OBJECT
  5
1F55
330
2E
100
AcDbProxyObject
 90
      499
 91
      547
 95
       25
 70
     0
 93
       70
310
0001AAA80820000000
330
2E
330
1F55
330
1F55
 94
        0
  0
ACAD_PROXY_OBJECT
  5
1F56
330
2E
100
AcDbProxyObject
 90
      499
 91
      548
 95
       25
 70
     0
 93
       48
310
000100000000
330
2E
330
0
330
1F57
330
0
330
0
 94
        0
  0
ACAD_PROXY_OBJECT
  5
1F57
330
2E
100
AcDbProxyObject
 90
      499
 91
      549
 95
       25
 70
     0
 93
       40
310
000100AAAA
330
2E
330
0
 94
        0
  0
ACAD_PROXY_OBJECT
  5
1F5D
330
2E
100
AcDbProxyObject
 90
      499
 91
      525
 95
       25
 70
     0
 93
      180
310
00010143105050D3D35411119390535140504434F4D500
330
2E
 94
        0
  0
ACAD_PROXY_OBJECT
  5
1F5E
330
2E
100
AcDbProxyObject
 90
      499
 91
      525
 95
       25
 70
     0
 93
      212
310
0001014390505193D311115491119390535140506466F6C6465720
330
2E
 94
        0
  0
ACAD_PROXY_OBJECT
  5
1F5F
330
2E
100
AcDbProxyObject
 90
      499
 91
      525
 95
       25
 70
     0
 93
      180
310
00010143105050539393D1119390535140504284156290
330
2E
 94
        0
  0
ACAD_PROXY_OBJECT
  5
1F60
330
2E
100
AcDbProxyObject
 90
      499
 91
      525
 95
       25
 70
     0
 93
      436
310
00010143905050D3D35415925155D31254D50052295BD96CA0A90B396CA0A894591A496CA0A8DB691A496CA0A89BA96CA0A95E28F95310
330
2E
 94
        0
  0
ACAD_PROXY_OBJECT
  5
1F65
330
2E
100
AcDbProxyObject
 90
      499
 91
      554
 95
       25
 70
     0
 93
       32
310
00010000
330
2E
340
1F62
330
1F67
330
1F62
 94
        0
  0
ACAD_PROXY_OBJECT
  5
1F66
330
2E
100
AcDbProxyObject
 90
      499
 91
      555
 95
       25
 70
     0
 93
       18
310
000180
330
2E
 94
        0
  0
ACAD_PROXY_OBJECT
  5
1F67
330
2E
100
AcDbProxyObject
 90
      499
 91
      556
 95
       25
 70
     0
 93
      194
310
0001014351D111548C8D4C8D4B4E0D0D54D050055401550000
330
2E
330
1F65
330
1F66
 94
        0
  0
ACAD_PROXY_OBJECT
  5
1F68
330
2E
100
AcDbProxyObject
 90
      499
 91
      557
 95
       25
 70
     0
 93
      178
310
000100AAAAAAACAFFD152D288691A122BF97396042FF80
330
2E
330
1F67
 94
        0
  0
ACAD_PROXY_OBJECT
  5
1F69
330
2E
100
AcDbProxyObject
 90
      499
 91
      558
 95
       25
 70
     0
 93
      108
310
000190140A000000000000AAAAA0
330
2E
330
1F6A
330
1F6A
330
1F6A
330
1F6A
330
1F6A
330
0
 94
        0
  0
ACAD_PROXY_OBJECT
  5
1F6A
330
2E
100
AcDbProxyObject
 90
      499
 91
      559
 95
       25
 70
     0
 93
       51
310
00010000AAAA80
330
2E
330
1F69
330
1F67
 94
        0
  0
DICTIONARY
  5
40
102
{ACAD_REACTORS
330
3F
102
}
330
3F
100
AcDbDictionary
281
     1
  3
DWGSETTINGS
350
41
  3
FEM
350
54
  3
Shaft
350
53
  3
TRANSSETTINGS
350
42
  0
ACAD_PROXY_OBJECT
  5
47
102
{ACAD_REACTORS
330
3F
102
}
330
3F
100
AcDbProxyObject
 90
      499
 91
      521
 95
       25
 70
     0
 93
    23232
310
41502491013041105357CC201C00030C011E441013141105357CC603800030C011E441013241105357CCA01400030C011E441013341105357CCE01800030C010D9013441105357CD200C00030C010D9013541105357CD600C00030C010D9013641105357CDA00800030C011E9013741105357CDE01000030C010D901384110
310
5357CE200400030C011E9013941105357CE63F400030C0241102324141505357CC4C201C00030C011E902344141505357CC4C600C00030C010D902495041505357CC4CA01C00030C011E40902304E41505357CC13A01C00030C011E902314E41505357CC53A03800030C011E902324E41505357CC93A01400030C011E90233
310
4E41505357CCD3A01800030C010D902344E41505357CD13A00C00030C010D902354E41505357CD53A00C00030C010D902364E41505357CD93A00800030C011E902374E41505357CDD3A01000030C010D902384E41505357CE13A00400030C011E902394E41505357CE53A3F400030C024110332414E41905357CC4C13A01C0
310
0030C011E90334414E41905357CC4C53A00C00030C010D90349504E41905357CC4C93A01C00030C011E409044B4C494E41505357D0D3200400030C011E42504494E464F42105357D410549151A01000030C010D42D055241484D3541905357D093D4A01C00030C011E425045649455742105357D5925155D4E00400030C011
310
E42D06424548494E4441905357D25395A3F400030C0243505545241494C41505357D514A00C00030C010D4250348494441905357D21251201C00030C011E4250356495341905357D59254E01C00030C011E4250650415244494D42505357D41054911253600C00030C010D4250652454644494D42505357D49151911253601
310
000030C010D425774110531514901348070000C300479034110915312501348000000C0003FFFFFFFD034110921395901398000000C0003FFFFFFFE415092139594D06424548494E448000000C0003FFFFFFFE411093125110234418000000C0003FFFFFFFD03411093D05410234418000000C0003FFFFFFFD03411093D48C
310
9055241484D358010000C30047A411093D48CD055241484D358020000C30047A411093D48D5055241484D358000000C0003FFFFFFFE411093D48DD055241484D3581E0000C30047903411094105410234418000000C0003FFFFFFFD03411094115610234418000000C0003FFFFFFFD034110951112501358000000C0003FFF
310
FFFFD034110D0530C901348000000C0003FFFFFFFE4110D0530CD01348020000C30047A4110D0530D501348070000C30047A4110D0530DD013481E0000C30047A4110D15393901378000000C0003FFFFFFFE4110D15395D01378000000C0003FFFFFFFE4110D312539044B4C494E8000000C0003FFFFFFFE4110D3D38C5013
310
08000000C0003FFFFFFFD034110D3D38C901318000000C0003FFFFFFFD034110D3D38CD01328000000C0003FFFFFFFD034110D3D38D101328000000C0003FFFFFFFD034111115494101348000000C0003FFFFFFFD034111115510501348000000C0003FFFFFFFE4111125051D01358000000C0003FFFFFFFE4111125312501
310
358000000C0003FFFFFFFE411112535410650415244494D8000000C0003FFFFFFFE411112535490652454644494D8000000C0003FFFFFFFE411156135410234418000000C0003FFFFFFFD034111915353901388000000C0003FFFFFFFE415191535413901388030000C3004364151915354D410234418000000C0003FFFFFF
310
FE4151915354D510234418030000C300436415191535593901328000000C0003FFFFFFFE415191535595101328030000C3004364111931055101308000000C0003FFFFFFFD03411194905490234418000000C0003FFFFFFFD034111D49312501358000000C0003FFFFFFFD034111D5931250234418000000C0003FFFFFFFD0
310
34112105510D01388000000C0003FFFFFFFD014112125113901338000000C0003FFFFFFFD034112125115D01338000000C0003FFFFFFFD034112131253901348000000C0003FFFFFFFD01411213D0D3901378000000C0003FFFFFFFE411213D0D5D01378000000C0003FFFFFFFE4112539193D04494E464F8000000C0003FF
310
FFFFFE4113105112501348000000C0003FFFFFFFD034113115051101358000000C0003FFFFFFFE419397D0921395902394E8000000C0003FFFFFFFE419397D0D3D38C502304E8000000C0003FFFFFFFD03419397D0D3D38C902314E8000000C0003FFFFFFFD03419397D0D3D38CD02324E8000000C0003FFFFFFFD03419397
310
D0D3D38D102324E8000000C0003FFFFFFFD03419397D0D15393902374E8000000C0003FFFFFFFE419397D0D15395D02374E8000000C0003FFFFFFFE419397D1125312502354E8000000C0003FFFFFFFE419397D2105510D02384E8000000C0003FFFFFFFD01419397D2125113902334E8000000C0003FFFFFFFD03419397D2
310
125115D02334E8000000C0003FFFFFFFD03419397D3115051102354E8000000C0003FFFFFFFE419397D391D25410349504E8000000C0003FFFFFFFE419397D412105390334414E8000000C0003FFFFFFFE419397D510D3D3902304E8000000C0003FFFFFFFD03419397D5121312502344E8000000C0003FFFFFFFD01419397
310
D5131153902304E8000000C0003FFFFFFFD03419397D516150CD02364E8000000C0003FFFFFFFD03419397D594131250332414E8000000C0003FFFFFFFE411391D25410249508000000C0003FFFFFFFE411410530C9055241484D358010000C30047A411410530CD055241484D358020000C30047A411410530D5055241484
310
D358000000C0003FFFFFFFE411410530DD055241484D3581E0000C30047903411412105390234418000000C0003FFFFFFFE411413D4D3901368070000C30047A419413D4D49151901368050000C30047903411413D4D6101368000000C0003FFFFFFFD03411414D150D0234418000000C0003FFFFFFFD03411490D1D390137
310
8000000C0003FFFFFFFE411490D1D5D01378000000C0003FFFFFFFE4114919112501348000000C0003FFFFFFFD034114945514901348070000C30047903411494D093D01348000000C0003FFFFFFFD034114D09492D01348000000C0003FFFFFFFD014114D0D153901378000000C0003FFFFFFFD034114D150D51013480000
310
00C0003FFFFFFFD014114D15313901378000000C0003FFFFFFFD034114D15315D01378000000C0003FFFFFFFD034114D4D654D01308000000C0003FFFFFFFD034114D51312501348070000C300479034114D6508C501358000000C0003FFFFFFFD034114D6508C901358000000C0003FFFFFFFD034114D6508CD0135802000
310
0C30047A4114D6508D501358070000C300479034114D65353901378000000C0003FFFFFFFD034114D65355D01378000000C0003FFFFFFFD03411510D3D3901308000000C0003FFFFFFFD034115121312501348000000C0003FFFFFFFD01411512550C9055241484D358010000C30047A411512550CD055241484D358020000
310
C30047A411512550D5055241484D358000000C0003FFFFFFFE411512550DD055241484D3581E0000C300479034115131153901308000000C0003FFFFFFFD03415514905253105545241494C8000000C0003FFFFFFFE41151492D3901378000000C0003FFFFFFFD0341151492D5D01378000000C0003FFFFFFFD03411514931
310
2501348000000C0003FFFFFFFD01411516150C501368030000C300436411516150C901368030000C300436411516150CD01368000000C0003FFFFFFFE411516150D501368070000C30047A411516150DD013681E0000C30047A4115925155D04564945578000000C0003FFFFFFFE41159151121034849448000000C0003FFF
310
FFFFD0241159151159035649538000000C0003FFFFFFFD02411594131250232418000000C0003FFFFFFFE4116925690501348000000C0003FFFFFFFD01411354D653501358020000C30047AAAA3F400030C01013F90A4391E41D1E4190D4151E4110D40D0D4091E4051E4791E7F6
340
16
340
16
340
16
340
48
340
16
340
16
340
16
340
49
340
16
340
16
340
49
340
4A
340
16
340
16
340
16
340
16
340
48
340
16
340
16
340
16
340
49
340
16
340
16
340
49
340
4A
340
16
340
4B
340
16
340
16
340
16
340
16
340
16
340
48
340
16
340
16
340
16
340
4C
340
15
340
15
340
15
340
15
340
15
340
15
340
15
340
15
340
15
340
15
340
15
340
15
340
15
340
15
340
15
340
15
340
4D
340
15
340
15
340
15
340
15
340
15
340
15
340
15
340
15
340
15
340
15
340
15
340
15
340
15
340
15
340
15
340
16
340
15
340
15
340
15
340
15
340
15
340
15
340
15
340
15
340
4C
340
15
340
15
340
4D
340
15
340
15
340
15
340
15
340
15
340
15
340
15
340
15
340
15
340
4D
340
15
340
15
340
15
340
4C
340
15
340
15
340
15
340
15
340
15
340
15
340
15
340
15
340
15
340
15
340
15
340
15
340
15
340
15
340
15
340
15
340
15
340
15
340
15
340
4D
340
15
340
15
340
4D
340
15
340
15
340
16
340
15
340
4D
340
15
340
15
340
4C
340
15
340
15
340
16
340
15
340
4D
340
15
340
15
340
15
340
15
340
15
340
15
340
15
340
15
340
15
340
4D
340
15
340
15
340
15
340
15
340
15
340
15
340
15
340
15
340
15
340
15
340
15
340
50
340
16
 94
        0
  0
ACAD_PROXY_OBJECT
  5
AE3
102
{ACAD_REACTORS
330
59
102
}
330
59
100
AcDbProxyObject
 90
      499
 91
      522
 95
       25
 70
     0
 93
      253
310
43D1444494D454E53494F4E2C414D44545F2A5F44494D404A9012A404A9012A0
  0
ACAD_PROXY_OBJECT
  5
AE4
102
{ACAD_REACTORS
330
59
102
}
330
59
100
AcDbProxyObject
 90
      499
 91
      522
 95
       25
 70
     0
 93
      181
310
43D012A42D05357D191504B505357CA9012A404A9012A8
  0
ACAD_PROXY_OBJECT
  5
AE5
102
{ACAD_REACTORS
330
59
102
}
330
59
100
AcDbProxyObject
 90
      499
 91
      522
 95
       25
 70
     0
 93
      133
310
43D054841544348404A9012A404A9012A8
  0
ACAD_PROXY_OBJECT
  5
AE6
102
{ACAD_REACTORS
330
59
102
}
330
59
100
AcDbProxyObject
 90
      499
 91
      522
 95
       25
 70
     0
 93
      549
310
43D044C494E4549CE0B0E138B0A8B4E0B0A8B4E138B105357CE0B105357CE138B0A8B505357CE0B0A8B505357CE139012A404A910494E534552542C5354445041525432448
  0
ACAD_PROXY_OBJECT
  5
AE7
102
{ACAD_REACTORS
330
59
102
}
330
59
100
AcDbProxyObject
 90
      499
 91
      522
 95
       25
 70
     0
 93
      909
310
43D6641434D46434652414D452C41434D444154554D5441524745542C41434D444154554D49442C41434D57454C4453594D2C41434D5355524653594D2C41434D4645415449442C41434D504152545245462C41434D42414C4C4F4F4E2C414D44544544474553594D404A9012A404A9012A8
  0
XRECORD
  5
1F0E
102
{ACAD_REACTORS
330
1F0D
102
}
330
1F0D
100
AcDbXrecord
280
     1
  1
PV
 40
1.0
 50
-12920.19828020006
 51
-8661.212294481793
 52
11086.73333578143
 53
8298.33844139
  0
ACAD_PROXY_OBJECT
  5
45
102
{ACAD_REACTORS
330
44
102
}
330
44
100
AcDbProxyObject
 90
      499
 91
      520
 95
       25
 70
     0
 93
      157
310
057356C1D77406406AA8FFFFFFFF05DD01009010
330
1F
330
0
330
1F67
 94
        0
  0
ACAD_PROXY_OBJECT
  5
7A1
102
{ACAD_REACTORS
330
7A0
102
}
330
7A0
100
AcDbProxyObject
 90
      499
 91
      526
 95
       25
 70
     0
 93
     2379
310
5DC33333333333309408000000C00040D29254D01640600800030C0200800030C003333333333330940C8121E8720B1B6A9BAB9332A32BC3A29BA3220480A1282C6DA8C868CA6E8C88120286A0B1B6ABB2B63234B733A9BA3220480A1082C6DA92C8A6E8C88120285A0B1B6A230BA3AB6A9BA3220480A1282C6DA849E9AA6E
310
8C88120286A0B1A0B6B3AA34BA3632A9BA3220480A2082DAC8E888CAE8C2D2D8A6F2DAA6E8C88120288A0B6B23A29B2B1BA34B7B729BCB6A9BA3220480A2282DAC8E886CADCE8CAE498D2DCCAA6E8C88120288A0B6B23A2A343932B0B22634B732A9BA3220480A1682DAC8E89CDEE8CAA6E8C88120285A0B1A0B6B3A630BCA
310
9BA3220480A1682C682DACE88D2DAA6E8C88120288A0B1A0B6B3A437B632A1B430B93A29BA3220480C812020
340
7A2
360
7A3
360
7A4
360
7A5
360
7A6
360
7A7
360
7A8
360
1F6C
360
1F6D
360
1F6E
360
1F70
360
1F71
360
1F72
360
1F78
360
1F79
360
1F7A
340
0
340
0
 94
        0
  0
ACAD_PROXY_OBJECT
  5
41
102
{ACAD_REACTORS
330
40
102
}
330
40
100
AcDbProxyObject
 90
      499
 91
      518
 95
       25
 70
     0
 93
     2624
310
4050B44574753455454494E4753A0E8482A68AA6A88882A069492A684A1A0A723A0A92920ACA0A8419983E1A1ABE1B1820C868A9C829C8E82A12686AF87260F862666A8321A2A72224A0A50000000000000122020E868A9C889282A682A106260F86460F8666083A1A2A72224A9AA250000000000000042020C868A9C988A9
310
C94000000000000048808321A2A727A32325000000000000012202128698929C82A4A482B282A106260F86460F866608421A624A722AA2CA820A82AC2624A722A1288AE8EAAA68682988A94283A620A9AA27A12520A80982109A82968AAC928AAE9FA04832829A1A0A622830020000419491559254D2505404C1055343414C
310
4541503313A314214D510539110549110540D29254D0954494D455354414D504A048317611742B734141D5915494D253D3905414C4D4B8C0C1107B44574753455454494E4753454E447D
  0
ACAD_PROXY_OBJECT
  5
54
102
{ACAD_REACTORS
330
40
102
}
330
40
100
AcDbProxyObject
 90
      499
 91
      518
 95
       25
 70
     0
 93
      411
310
4050346454D21092DCC6E486DECACC942842630BCA3B937BAB820A8320A6AFA322A0A20F688AE8EA68AA8A8929C8EA68A9C88FA0
  0
ACAD_PROXY_OBJECT
  5
53
102
{ACAD_REACTORS
330
40
102
}
330
40
100
AcDbProxyObject
 90
      499
 91
      518
 95
       25
 70
     0
 93
      591
310
40505536861667421292DCE8CAE4E4EAE0E89FC84A634B3B43A2634B732A7E80A1A98D2CED0E898D2DCCAACD2CAEE9FA028229B4B232A7E80A20F688AE8EA68AA8A8929C8EA68A9C88FA
  0
ACAD_PROXY_OBJECT
  5
42
102
{ACAD_REACTORS
330
40
102
}
330
40
100
AcDbProxyObject
 90
      499
 91
      518
 95
       25
 70
     0
 93
      852
310
4050D5452414E5353455454494E4753A2488A482AE929C8EA8A4829CA69882A8929E9C0C00800050D4F524947494E414C4C595F4F4E0600400028529A7AAA921A2A620A723A0A81A52827212AAA0A48AA68AA4AC8A0C0080001107B44574753455454494E4753454E447D0
  0
ACAD_PROXY_OBJECT
  5
7A3
330
7A1
100
AcDbProxyObject
 90
      499
 91
      527
 95
       25
 70
     0
 93
       86
310
5DEA0C80A0280A0280A034
  0
ACAD_PROXY_OBJECT
  5
7A4
330
7A1
100
AcDbProxyObject
 90
      499
 91
      528
 95
       25
 70
     0
 93
      282
310
5DD0E4050140501405014050140501405014050141101405014041000000000000001000
340
7A9
 94
        0
  0
ACAD_PROXY_OBJECT
  5
7A5
330
7A1
100
AcDbProxyObject
 90
      499
 91
      529
 95
       25
 70
     0
 93
      323
310
5DCC199999999999E99F91740501405014050140501405014050140501405014050140501405014040
340
0
 94
        0
  0
ACAD_PROXY_OBJECT
  5
7A6
330
7A1
100
AcDbProxyObject
 90
      499
 91
      530
 95
       25
 70
     0
 93
       10
310
5DC0
  0
ACAD_PROXY_OBJECT
  5
7A7
330
7A1
100
AcDbProxyObject
 90
      499
 91
      531
 95
       25
 70
     0
 93
      257
310
5DE0C16A22A7D90F49F80000000000001081400000000000004204010000618000
340
7AA
340
7AB
 94
        0
  0
ACAD_PROXY_OBJECT
  5
7A8
330
7A1
100
AcDbProxyObject
 90
      499
 91
      532
 95
       25
 70
     0
 93
     5277
310
5DD06411255115350141236025B6901405014069010000000000000910240690120281A8AA2CA0282484A4BE52028120280A032020000000000001220480D202405044E414D454050496BC914F4051C40640A80000000000004E4090193C3D3C4946284953424C414E4B28504152543A4E414D45292C424C4F434B3A4E414D
310
452C504152543A4E414D45293E3C41435F44455343524950544E3E40480A109A82A88AA492829880A091BBD2F7E80A3A80C81D0E27A15AF46E08A81203480901411393D5115014124A363B7D0147501904A0000000000000F902406428F4F1050D7D393D5114F901202832B22A72227A92028366EF6EE06F582028EA0320B4
310
0000000000001F20480C879E9E20A1AFAB27222FA620A122A61F20240506445020000000000000490201C00030C00010180000000000003E400000000000000F901073D3C4954454D3E4050180000000000003E400000000000000F901073D3C4954454D3E40501800000000000034400000000000000D101073D3C4954454
310
D3E40501800000000000034400000000000000D101073D3C4954454D3E405029010000000000000F9000000000000003E4041CF4F125511534F901418F4F1455164F9014060000000000000F9000000000000003E4041CF4F125511534F901800000000000034400000000000000D101073D3C4954454D3E40640400000000
310
0000003E400000000000000F90288800000000000020810000001800120881A068120480A032208521122080D21480D211480A1485214852050000000000003C2FC000000000000F0BF40600800030C0200400030C00CDCCCCCCCCCCEC3F3373333333333B0FC3333333333330940C80D069014090341504901A1999999999
310
9984A040100006180400800061804010000618008098A02808
340
0
340
0
 94
        0
  0
ACAD_PROXY_OBJECT
  5
1F6C
330
7A1
100
AcDbProxyObject
 90
      499
 91
      560
 95
       25
 70
     0
 93
     3042
310
5DD9740D29254D064A49535F413342929254D7D512551311505134A49535F42525F5265766973696F6E6C6973744190F4134522028323937783231306D6D2941D29254D7D04D1490E41312028353934783834316D6D2941929254D7D04C50E41332028323937783432306D6D2941929254D7D04CD0F41344C2028323130783
310
239376D6D2941D29254D7D04D1310E41322028343230783539346D6D2941929254D7D04C90F4130202838343178313138396D6D2941929254D7D04C10243129254C82557247A25E4C81050A4A49535F5449544C454143129254C82557247A25E4C81090A4A49535F5449544C45424110E979A97F0838A835883675F42525F4
310
4D29254D7D09497D4995D9A5CDA5BDB9B1A5CDD10E979A97F0838A835883675F54525F44D29254D7D51497D4995D9A5CDA5BDB9B1A5CDD10E979A97F0838A835883675F424C5F44D29254D7D09317D4995D9A5CDA5BDB9B1A5CDD10E979A97F0838A835883675F544C5F44D29254D7D51317D4995D9A5CDA5BDB9B1A5CDD00
  0
ACAD_PROXY_OBJECT
  5
1F6D
330
7A1
100
AcDbProxyObject
 90
      499
 91
      561
 95
       25
 70
     0
 93
      898
310
5DC4000000000000124048CF4F11115510525317D3105091530F880A0F11115510525317D05094D4D0D053114F8A50241C9A9999999999B93F26A666666666724FC000000000000E03F400000000000000400000000000000510000000000000024408070000C300000000000000049000
340
16
340
7A2
 94
        0
  0
ACAD_PROXY_OBJECT
  5
1F6E
330
7A1
100
AcDbProxyObject
 90
      499
 91
      562
 95
       25
 70
     0
 93
      823
310
5DC0B00000000000002480959E9E29A2A1AA24A7A72FA620A122A62FA324A929AA1F169E29A2A1AA24A7A72FA620A122A62FA620A9AA1F000000000000048803FFFE01C00030C008140380006180000000000000048800000000000000A2000000000000002480
340
118
340
7A2
 94
        0
  0
ACAD_PROXY_OBJECT
  5
1F70
330
7A1
100
AcDbProxyObject
 90
      499
 91
      563
 95
       25
 70
     0
 93
      152
310
5DE8273108AC1C5A0640A3D0A5723F0BD1F200
  0
ACAD_PROXY_OBJECT
  5
1F71
330
7A1
100
AcDbProxyObject
 90
      499
 91
      564
 95
       25
 70
     0
 93
       14
310
5DE0
340
0
 94
        0
  0
ACAD_PROXY_OBJECT
  5
1F72
330
7A1
100
AcDbProxyObject
 90
      499
 91
      565
 95
       25
 70
     0
 93
     6059
310
5DD084050BA4050AA405024050E836583938376838C815B83672031405983D3C486F6C653A6469613E3C696628657175616C28486F6C653A7465726D696E6174696F6E2C223022292C2220905B82B320222C22208368838A838B22293E3C696628657175616C28486F6C653A7465726D696E6174696F6E2C223022292C486F
310
6C653A64657074682C2222293E2C203C486F6C653A63746469613E2082B482AE82E882CC905B82B3203C486F6C653A637464657074683E406901405034050E836583938376838C815B83672031405EF3D3C486F6C653A6374616E676C653E252564202525633C486F6C653A63746469613E208E4D8C8A2C203C69662865717
310
5616C28486F6C653A7461707065642C223022292C22252563222C486F6C653A6E6F6D696E616C202220782022293E3C696628657175616C28486F6C653A7461707065642C223022292C486F6C653A6469612C486F6C653A706974636864657363293E203C696628657175616C28486F6C653A7465726D696E6174696F6E2C2
310
23022292C22905B82B320222C222022293E3C696628657175616C28486F6C653A7465726D696E6174696F6E2C223022292C486F6C653A64657074682C2222293E406901405014050E836583938376838C815B83672031405C73D3C696628657175616C28486F6C653A7461707065642C223022292C22252563222C486F6C65
310
3A6E6F6D696E616C202220782022293E3C696628657175616C28486F6C653A7461707065642C223022292C486F6C653A6469612C486F6C653A706974636864657363293E203C696628657175616C28486F6C653A7465726D696E6174696F6E2C223022292C22905B82B320222C222022293E3C696628657175616C28486F6C
310
653A7465726D696E6174696F6E2C223022292C486F6C653A64657074682C2222293E4069014051E4090E836583938376838C815B83672032405173D3C535444503A444553433E203C535444503A5354443E40690E836583938376838C815B836720314050C3D3C535444503A444553433E40690240515AAABBA120
360
1F76
330
1F76
360
1F77
330
1F77
360
1F75
330
1F75
360
1F74
360
1F73
330
1F74
330
1F73
 94
        0
  0
ACAD_PROXY_OBJECT
  5
1F78
330
7A1
100
AcDbProxyObject
 90
      499
 91
      567
 95
       25
 70
     0
 93
       26
310
5DD02A80
340
47
 94
        0
  0
ACAD_PROXY_OBJECT
  5
1F79
330
7A1
100
AcDbProxyObject
 90
      499
 91
      568
 95
       25
 70
     0
 93
      250
310
5DD020000000000000A1000000000000002440408F0F9023C3E409A0DCFFFF80
340
69
340
0
340
0
340
70
340
71
340
72
340
73
340
74
340
79
340
0
 94
        0
  0
ACAD_PROXY_OBJECT
  5
1F7A
330
7A1
100
AcDbProxyObject
 90
      499
 91
      569
 95
       25
 70
     0
 93
    13889
310
5DD1D003FFFFFFFD030300030CCCCCCCCCCCC250200800030C01030300030CCCCCCCCCCCC250200800030C00050C8DC0955782CC838A83588367014ED1D15395149050D3CB1294138B0C0B23702555E0B320E2A0D620D9CB11D15395149055160B095CCB0A11D1539354D1C819D95B991A5B5E880CCC0A78000C0000000000
310
00000000000000000000010CCCCCCCCCCCC250200800030C010CCCCCCCCCCCC250200800030C020143CF4F111959985D5B1D151A5D1B194F8050A8C8A8365815B8375838B014E51D15395149050D3CB1294138B0C0B2322A0D96056E0DD60E2CB11D15395149055160B095CCB0A11D1539354D1C819D95B991A5B5E880CCC4
310
A78000C000000000000000000000000000000010CCCCCCCCCCCC250200800030C010CCCCCCCCCCCC250200800030C020143CF4F111959985D5B1D151A5D1B194F90D44111409034110541D0C4350F4050E44D03449074510F000141232D24D7C053247454E545241434F2C4A504E2C302C8CB4935F2C47454E54524154582C
310
25732C2847454E4D53472067656E64696D7A20312900010104002214000281464500A608E8A9CA8A482869E5894A09C5860591914588E8A9CA8A482A8B0584AE658508E8A9C9AA68E40CECADCC8D2DAF4406452029E9E9E27B934B3B4B71F1E24A31427A91424A9A12620A7259427B934B3B4B7149624A9A12620A7259424B
310
A32B6949496111116111711149F1E24BA32B69F00808200111A000140560052F47454E545241434F2C4A504E2C302C582C47454E54524154582C25732C2847454E4D53472067656E64696D7A20332900010100002054000280AC80A5E8E8A9CA8A482869E5894A09C586058B2588E8A9CA8A482A8B0584AE658508E8A9C9AA
310
68E40CECADCC8D2DAF4406852000202000040E800050152014BD1D15395149050D3CB1294138B0C0B148B11D15395149055160B095CCB0A11D1539354D1C819D95B991A5B5E880D8A400040400008250000A0507A6029823A2A72A2920A1A79625282716181641E99623A2A72A2920AA2C1612B9961423A2A726A9A39033B2
310
B73234B6BD101B948000808180105A000140A0F4C053047454E545241434F2C4A504E2C302C83D32C47454E54524154582C25732C2847454E4D53472067656E64696D7A203829000101010020F400028248704B5F00A668E8A9CA8A482869E5894A09C58605921C12D7C588E8A9CA8A482A8B0584AE658508E8A9C9AA68E40
310
CECADCC8D2DAF440646052000200080043280005048B4B8A69014CD1D15395149050D3CB1294138B0C0B22D2E29A4B11D15395149055160B095CCB0A11D1539354D1C819D95B991A5B5E880C8C4A4000400100086D0000A09196926BE029923A2A72A2920A1A796252827161816465A49AF9623A2A72A2920AA2C1612B9961
310
423A2A726A9A39033B2B73234B6BD10189480A02620202080043E80005048D8096DA014CD1D15395149050D3CB1294138B0C0B236025B68B11D15395149055160B095CCB0A11D1539354D1C819D95B991A5B5E880C4D0A4000404140280D0000A190687072706CD06C5069D06B0029DA3A2A72A2920A1A7962528271618164
310
1A1C1C9C1B341B141A741AC1623A2A72A2920AA2C1612B9961423A2A726A9A39033B2B73234B6BD10189A94800080820050EA000143A322A0D0E0E4E0D9A0D8A0D3A0D60053D47454E545241434F2C4A504E2C302C8C8A8343839383668362834E83582C47454E54524154582C25732C2847454E4D53472067656E64696D7A
310
2031372900010105002274000281464500A628E8A9CA8A482869E5894A09C5860591914588E8A9CA8A482A8B0584AE658508E8A9C9AA68E40CECADCC8D2DAF440626C52000202080044A8000504909497CA014CD1D15395149050D3CB1294138B0C0B242525F28B11D15395149055160B095CCB0A11D1539354D1C819D95B9
310
91A5B5E880C4E4A400040418008A521E000000000000001CA040C00000000000034408080000000000006881010000000000000D102040000000000001A204080000000000003440818000000000000728103000000000000125020600000000004028A040000000000000034408000000000000004881000000000000000D
310
102000000000000001A204000000000000003440818000000000000508143C0000000000000039408180000000000006881030000000000000D102060000000000001A2040C00000000000034408180000000000006881030000000000000E5020600000000000024A040C0000000000805140800000000000000688100000
310
00000000009102000000000000001A2040000000000000034408180000000000006881030000000000000A10284220000000878000002020000008380000020400000081800000208000000828000002028900000000
340
0
340
0
340
0
340
0
340
7A2
340
7A2
 94
        0
  0
ACAD_PROXY_OBJECT
  5
1F76
330
1F72
100
AcDbProxyObject
 90
      499
 91
      566
 95
       25
 70
     0
 93
     1376
310
5DE0143A0D960E4E0DDA0E32056E0D9C80C405983D3C486F6C653A6469613E3C696628657175616C28486F6C653A7465726D696E6174696F6E2C223022292C2220905B82B320222C22208368838A838B22293E3C696628657175616C28486F6C653A7465726D696E6174696F6E2C223022292C486F6C653A64657074682C22
310
22293E2C203C486F6C653A63746469613E2082B482AE82E882CC905B82B3203C486F6C653A637464657074683E
  0
ACAD_PROXY_OBJECT
  5
1F77
330
1F72
100
AcDbProxyObject
 90
      499
 91
      566
 95
       25
 70
     0
 93
     2072
310
5DE0143A0D960E4E0DDA0E32056E0D9C80C405EF3D3C486F6C653A6374616E676C653E252564202525633C486F6C653A63746469613E208E4D8C8A2C203C696628657175616C28486F6C653A7461707065642C223022292C22252563222C486F6C653A6E6F6D696E616C202220782022293E3C696628657175616C28486F6C
310
653A7461707065642C223022292C486F6C653A6469612C486F6C653A706974636864657363293E203C696628657175616C28486F6C653A7465726D696E6174696F6E2C223022292C22905B82B320222C222022293E3C696628657175616C28486F6C653A7465726D696E6174696F6E2C223022292C486F6C653A6465707468
310
2C2222293E
  0
ACAD_PROXY_OBJECT
  5
1F75
330
1F72
100
AcDbProxyObject
 90
      499
 91
      566
 95
       25
 70
     0
 93
     1752
310
5DE0143A0D960E4E0DDA0E32056E0D9C80C405C73D3C696628657175616C28486F6C653A7461707065642C223022292C22252563222C486F6C653A6E6F6D696E616C202220782022293E3C696628657175616C28486F6C653A7461707065642C223022292C486F6C653A6469612C486F6C653A706974636864657363293E20
310
3C696628657175616C28486F6C653A7465726D696E6174696F6E2C223022292C22905B82B320222C222022293E3C696628657175616C28486F6C653A7465726D696E6174696F6E2C223022292C486F6C653A64657074682C2222293E
  0
ACAD_PROXY_OBJECT
  5
1F74
330
1F72
100
AcDbProxyObject
 90
      499
 91
      566
 95
       25
 70
     0
 93
      344
310
5DE0143A0D960E4E0DDA0E32056E0D9C80C805173D3C535444503A444553433E203C535444503A5354443E
  0
ACAD_PROXY_OBJECT
  5
1F73
330
1F72
100
AcDbProxyObject
 90
      499
 91
      566
 95
       25
 70
     0
 93
      256
310
5DE0143A0D960E4E0DDA0E32056E0D9C80C4050C3D3C535444503A444553433E
  0
ENDSEC
  0
EOF
