  0
SECTION
  2
HEADER
  9
$ACADVER
  1
AC1015
  9
$ACADMAINTVER
 70
    20
  9
$DWGCODEPAGE
  3
ANSI_932
  9
$INSBASE
 10
0.0
 20
0.0
 30
0.0
  9
$EXTMIN
 10
-124.7993257311157
 20
-42.00868934168335
 30
-0.0000000000022887
  9
$EXTMAX
 10
165.51211478088
 20
140.0129038470246
 30
0.0000000000000001
  9
$LIMMIN
 10
-195.9118052042574
 20
-140.7635814874153
  9
$LIMMAX
 10
149.2283411826315
 20
52.3555237750396
  9
$ORTHOMODE
 70
     0
  9
$REGENMODE
 70
     1
  9
$FILLMODE
 70
     1
  9
$QTEXTMODE
 70
     0
  9
$MIRRTEXT
 70
     0
  9
$LTSCALE
 40
1.0
  9
$ATTMODE
 70
     1
  9
$TEXTSIZE
 40
2.5
  9
$TRACEWID
 40
1.0
  9
$TEXTSTYLE
  7
STANDARD
  9
$CLAYER
  8
AM_0
  9
$CELTYPE
  6
BYLAYER
  9
$CECOLOR
 62
   256
  9
$CELTSCALE
 40
1.0
  9
$DISPSILH
 70
     0
  9
$DIMSCALE
 40
0.5
  9
$DIMASZ
 40
2.5
  9
$DIMEXO
 40
1.0
  9
$DIMDLI
 40
12.0
  9
$DIMRND
 40
0.0
  9
$DIMDLE
 40
0.0
  9
$DIMEXE
 40
1.0
  9
$DIMTP
 40
0.1
  9
$DIMTM
 40
0.1
  9
$DIMTXT
 40
3.2
  9
$DIMCEN
 40
0.0
  9
$DIMTSZ
 40
0.0
  9
$DIMTOL
 70
     0
  9
$DIMLIM
 70
     0
  9
$DIMTIH
 70
     0
  9
$DIMTOH
 70
     0
  9
$DIMSE1
 70
     0
  9
$DIMSE2
 70
     0
  9
$DIMTAD
 70
     3
  9
$DIMZIN
 70
     8
  9
$DIMBLK
  1
OPEN30
  9
$DIMASO
 70
     1
  9
$DIMSHO
 70
     1
  9
$DIMPOST
  1

  9
$DIMAPOST
  1
"
  9
$DIMALT
 70
     0
  9
$DIMALTD
 70
     2
  9
$DIMALTF
 40
0.0393701
  9
$DIMLFAC
 40
1.0
  9
$DIMTOFL
 70
     1
  9
$DIMTVP
 40
0.0
  9
$DIMTIX
 70
     0
  9
$DIMSOXD
 70
     0
  9
$DIMSAH
 70
     0
  9
$DIMBLK1
  1

  9
$DIMBLK2
  1

  9
$DIMSTYLE
  2
AM_JIS
  9
$DIMCLRD
 70
   256
  9
$DIMCLRE
 70
   256
  9
$DIMCLRT
 70
     2
  9
$DIMTFAC
 40
0.71
  9
$DIMGAP
 40
1.5
  9
$DIMJUST
 70
     0
  9
$DIMSD1
 70
     0
  9
$DIMSD2
 70
     0
  9
$DIMTOLJ
 70
     0
  9
$DIMTZIN
 70
     0
  9
$DIMALTZ
 70
     0
  9
$DIMALTTZ
 70
     0
  9
$DIMUPT
 70
     0
  9
$DIMDEC
 70
     3
  9
$DIMTDEC
 70
     3
  9
$DIMALTU
 70
     2
  9
$DIMALTTD
 70
     2
  9
$DIMTXSTY
  7
ASAMI
  9
$DIMAUNIT
 70
     0
  9
$DIMADEC
 70
     0
  9
$DIMALTRND
 40
0.0
  9
$DIMAZIN
 70
     2
  9
$DIMDSEP
 70
    46
  9
$DIMATFIT
 70
     3
  9
$DIMFRAC
 70
     0
  9
$DIMLDRBLK
  1
OPEN30
  9
$DIMLUNIT
 70
     2
  9
$DIMLWD
 70
    -1
  9
$DIMLWE
 70
    -1
  9
$DIMTMOVE
 70
     0
  9
$LUNITS
 70
     2
  9
$LUPREC
 70
     2
  9
$SKETCHINC
 40
1.0
  9
$FILLETRAD
 40
0.4
  9
$AUNITS
 70
     0
  9
$AUPREC
 70
     0
  9
$MENU
  1
.
  9
$ELEVATION
 40
0.0
  9
$PELEVATION
 40
0.0
  9
$THICKNESS
 40
0.0
  9
$LIMCHECK
 70
     1
  9
$CHAMFERA
 40
1.0
  9
$CHAMFERB
 40
1.0
  9
$CHAMFERC
 40
20.0
  9
$CHAMFERD
 40
0.0
  9
$SKPOLY
 70
     0
  9
$TDCREATE
 40
2452802.716478762
  9
$TDUCREATE
 40
2452802.341478762
  9
$TDUPDATE
 40
2455610.660024595
  9
$TDUUPDATE
 40
2455610.285024595
  9
$TDINDWG
 40
0.9009604282
  9
$TDUSRTIMER
 40
0.9009600694
  9
$USRTIMER
 70
     1
  9
$ANGBASE
 50
0.0
  9
$ANGDIR
 70
     0
  9
$PDMODE
 70
     0
  9
$PDSIZE
 40
0.0
  9
$PLINEWID
 40
0.0
  9
$SPLFRAME
 70
     0
  9
$SPLINETYPE
 70
     6
  9
$SPLINESEGS
 70
     8
  9
$HANDSEED
  5
8BA8
  9
$SURFTAB1
 70
     6
  9
$SURFTAB2
 70
     6
  9
$SURFTYPE
 70
     6
  9
$SURFU
 70
     6
  9
$SURFV
 70
     6
  9
$UCSBASE
  2

  9
$UCSNAME
  2

  9
$UCSORG
 10
-0.0000000000002682
 20
0.000000000000161
 30
0.0
  9
$UCSXDIR
 10
1.0
 20
0.000000000000002
 30
0.0
  9
$UCSYDIR
 10
-0.000000000000002
 20
1.0
 30
0.0
  9
$UCSORTHOREF
  2

  9
$UCSORTHOVIEW
 70
     0
  9
$UCSORGTOP
 10
0.0
 20
0.0
 30
0.0
  9
$UCSORGBOTTOM
 10
0.0
 20
0.0
 30
0.0
  9
$UCSORGLEFT
 10
0.0
 20
0.0
 30
0.0
  9
$UCSORGRIGHT
 10
0.0
 20
0.0
 30
0.0
  9
$UCSORGFRONT
 10
0.0
 20
0.0
 30
0.0
  9
$UCSORGBACK
 10
0.0
 20
0.0
 30
0.0
  9
$PUCSBASE
  2

  9
$PUCSNAME
  2

  9
$PUCSORG
 10
0.0
 20
0.0
 30
0.0
  9
$PUCSXDIR
 10
1.0
 20
0.0
 30
0.0
  9
$PUCSYDIR
 10
0.0
 20
1.0
 30
0.0
  9
$PUCSORTHOREF
  2

  9
$PUCSORTHOVIEW
 70
     0
  9
$PUCSORGTOP
 10
0.0
 20
0.0
 30
0.0
  9
$PUCSORGBOTTOM
 10
0.0
 20
0.0
 30
0.0
  9
$PUCSORGLEFT
 10
0.0
 20
0.0
 30
0.0
  9
$PUCSORGRIGHT
 10
0.0
 20
0.0
 30
0.0
  9
$PUCSORGFRONT
 10
0.0
 20
0.0
 30
0.0
  9
$PUCSORGBACK
 10
0.0
 20
0.0
 30
0.0
  9
$USERI1
 70
     0
  9
$USERI2
 70
     0
  9
$USERI3
 70
     0
  9
$USERI4
 70
     0
  9
$USERI5
 70
     0
  9
$USERR1
 40
0.0
  9
$USERR2
 40
0.0
  9
$USERR3
 40
0.0
  9
$USERR4
 40
0.0
  9
$USERR5
 40
0.0
  9
$WORLDVIEW
 70
     1
  9
$SHADEDGE
 70
     3
  9
$SHADEDIF
 70
    70
  9
$TILEMODE
 70
     1
  9
$MAXACTVP
 70
    64
  9
$PINSBASE
 10
0.0
 20
0.0
 30
0.0
  9
$PLIMCHECK
 70
     0
  9
$PEXTMIN
 10
1.000000000000000E+20
 20
1.000000000000000E+20
 30
1.000000000000000E+20
  9
$PEXTMAX
 10
-1.000000000000000E+20
 20
-1.000000000000000E+20
 30
-1.000000000000000E+20
  9
$PLIMMIN
 10
0.0
 20
0.0
  9
$PLIMMAX
 10
841.0
 20
594.0
  9
$UNITMODE
 70
     0
  9
$VISRETAIN
 70
     1
  9
$PLINEGEN
 70
     0
  9
$PSLTSCALE
 70
     0
  9
$TREEDEPTH
 70
  3020
  9
$CMLSTYLE
  2
STANDARD
  9
$CMLJUST
 70
     0
  9
$CMLSCALE
 40
20.0
  9
$PROXYGRAPHICS
 70
     1
  9
$MEASUREMENT
 70
     1
  9
$CELWEIGHT
370
    -1
  9
$ENDCAPS
280
     0
  9
$JOINSTYLE
280
     0
  9
$LWDISPLAY
290
     0
  9
$INSUNITS
 70
     4
  9
$HYPERLINKBASE
  1

  9
$STYLESHEET
  1
ASAMI.ctb
  9
$XEDIT
290
     1
  9
$CEPSNTYPE
380
     0
  9
$PSTYLEMODE
290
     1
  9
$FINGERPRINTGUID
  2
{AFB28963-8C59-40AE-9337-C84526B81ACE}
  9
$VERSIONGUID
  2
{7DCA24C0-FCC2-4FA4-A23D-C4DCDC507616}
  9
$EXTNAMES
290
     1
  9
$PSVPSCALE
 40
0.0
  9
$OLESTARTUP
290
     0
  0
ENDSEC
  0
SECTION
  2
CLASSES
  0
CLASS
  1
ACDBDICTIONARYWDFLT
  2
AcDbDictionaryWithDefault
  3
ObjectDBX Classes
 90
        0
280
     0
281
     0
  0
CLASS
  1
ACDBPLACEHOLDER
  2
AcDbPlaceHolder
  3
ObjectDBX Classes
 90
        0
280
     0
281
     0
  0
CLASS
  1
LAYOUT
  2
AcDbLayout
  3
ObjectDBX Classes
 90
        0
280
     0
281
     0
  0
CLASS
  1
AMGSETTINGSOBJ
  2
AmgSettingsObj
  3
"AcadM|Product Description: AutoCAD Mechanical 2000|Company: Autodesk"
 90
        0
280
     0
281
     0
  0
CLASS
  1
ACME_DOCUMENT
  2
AcMeDbDoc
  3
AcMeServices
 90
        0
280
     0
281
     0
  0
CLASS
  1
ACMESCOPE
  2
AcMeScope
  3
AcMeServices
 90
        0
280
     0
281
     0
  0
CLASS
  1
ACMECOMMANDHISTORY
  2
AcMeCommandHistory
  3
AcMeServices
 90
        0
280
     0
281
     0
  0
CLASS
  1
DICTIONARYVAR
  2
AcDbDictionaryVar
  3
ObjectDBX Classes
 90
        0
280
     0
281
     0
  0
CLASS
  1
ACIMSYSVARMAN
  2
AcImSysVarManager
  3
AcMeServices
 90
        0
280
     0
281
     0
  0
CLASS
  1
ACIMREALSYSVAR
  2
AcImRealSysVar
  3
AcMeServices
 90
        0
280
     0
281
     0
  0
CLASS
  1
ACIMINTSYSVAR
  2
AcImIntSysVar
  3
AcMeServices
 90
        0
280
     0
281
     0
  0
CLASS
  1
ACMEDRAWINGMAN
  2
AcMeDrawingMan
  3
AcMeServices
 90
        0
280
     0
281
     0
  0
CLASS
  1
ACMEVIEW
  2
AcMeView
  3
AcMeServices
 90
        0
280
     0
281
     0
  0
CLASS
  1
ACDBENTITYCACHE
  2
AcMeEntityCache
  3
AcMeServices
 90
        0
280
     0
281
     0
  0
CLASS
  1
GSMANAGER
  2
AcMeGSManager
  3
AcMeServices
 90
        0
280
     0
281
     0
  0
CLASS
  1
AMDTINTERNALREACTOR
  2
AmdtInternalReactor
  3
AcMeServices
 90
        0
280
     0
281
     0
  0
CLASS
  1
ACMESTATEMGR
  2
AcMeStateMgr
  3
AcMeServices
 90
        0
280
     0
281
     0
  0
CLASS
  1
ACME_DATABASE
  2
AcMeDbDatabase
  3
AcMeServices
 90
        0
280
     0
281
     0
  0
CLASS
  1
ACRFINSADJUSTERMGR
  2
AcRfInsAdjusterMgr
  3
AcMeServices
 90
        0
280
     0
281
     0
  0
CLASS
  1
ACMDATADICTIONARY
  2
AcmDataDictionary
  3
"AcmSymBB|Product Description: AutoCAD Mechanical 2004 DX|Company: Autodesk"
 90
        0
280
     0
281
     0
  0
CLASS
  1
ACMDATAENTRYBLOCK
  2
AcmDataEntryBlock
  3
"AcmSymBB|Product Description: AutoCAD Mechanical 2004 DX|Company: Autodesk"
 90
    32768
280
     0
281
     0
  0
CLASS
  1
AMGOBJPROPCFG
  2
AmgObjPropCfg
  3
"AmgLay|Product Description: AutoCAD Mechanical 2000|Company: Autodesk"
 90
        1
280
     0
281
     0
  0
CLASS
  1
ACAMGFILTERDAT
  2
AcAmgFilterDat
  3
"AcadM|Product Description: AutoCAD Mechanical 2000|Company: Autodesk"
 90
    32768
280
     0
281
     0
  0
CLASS
  1
LAYER_INDEX
  2
AcDbLayerIndex
  3
ObjectDBX Classes
 90
        0
280
     0
281
     0
  0
CLASS
  1
IDBUFFER
  2
AcDbIdBuffer
  3
ObjectDBX Classes
 90
        0
280
     0
281
     0
  0
CLASS
  1
ACIMSTRSYSVAR
  2
AcImStrSysVar
  3
AcMeServices
 90
        0
280
     0
281
     0
  0
CLASS
  1
ACMSTANDARDJIS
  2
AcmStandardJIS
  3
"Amdt_StdImp|Product Description: AutoCAD Mechanical 2004 DX|Company: Autodesk"
 90
    32768
280
     0
281
     0
  0
CLASS
  1
ACMSURFSTANDARDJIS
  2
AcmSurfTextStdJIS
  3
"Amdt_StdImp|Product Description: AutoCAD Mechanical 2004 DX|Company: Autodesk"
 90
    32768
280
     0
281
     0
  0
CLASS
  1
ACMFCFSTANDARDJIS
  2
AcmFCFStdJIS
  3
"Amdt_StdImp|Product Description: AutoCAD Mechanical 2004 DX|Company: Autodesk"
 90
    32768
280
     0
281
     0
  0
CLASS
  1
ACMWELDSTANDARDJIS
  2
AcmWeldingStdJIS
  3
"Amdt_StdImp|Product Description: AutoCAD Mechanical 2004 DX|Company: Autodesk"
 90
    32768
280
     0
281
     0
  0
CLASS
  1
ACMIDSTANDARDJIS
  2
AcmIdStdJIS
  3
"Amdt_StdImp|Product Description: AutoCAD Mechanical 2004 DX|Company: Autodesk"
 90
    32768
280
     0
281
     0
  0
CLASS
  1
ACMDATUMSTANDARDJIS
  2
AcmDatumStdJIS
  3
"Amdt_StdImp|Product Description: AutoCAD Mechanical 2004 DX|Company: Autodesk"
 90
    32768
280
     0
281
     0
  0
CLASS
  1
ACMBOMSTANDARDJIS
  2
AcmBOMStdJIS
  3
"Amdt_StdImp|Product Description: AutoCAD Mechanical 2004 DX|Company: Autodesk"
 90
    32768
280
     0
281
     0
  0
CLASS
  1
ACMSTANDARDANSI
  2
AcmStandardANSI
  3
"Amdt_StdImp|Product Description: AutoCAD Mechanical 2004 DX|Company: Autodesk"
 90
    32768
280
     0
281
     0
  0
CLASS
  1
ACMSURFSTANDARDANSI
  2
AcmSurfTextStdANSI
  3
"Amdt_StdImp|Product Description: AutoCAD Mechanical 2004 DX|Company: Autodesk"
 90
    32768
280
     0
281
     0
  0
CLASS
  1
ACMFCFSTANDARDANSI
  2
AcmFCFStdANSI
  3
"Amdt_StdImp|Product Description: AutoCAD Mechanical 2004 DX|Company: Autodesk"
 90
    32768
280
     0
281
     0
  0
CLASS
  1
ACMWELDSTANDARDANSI
  2
AcmWeldingStdANSI
  3
"Amdt_StdImp|Product Description: AutoCAD Mechanical 2004 DX|Company: Autodesk"
 90
    32768
280
     0
281
     0
  0
CLASS
  1
ACMIDSTANDARDANSI
  2
AcmIdStdANSI
  3
"Amdt_StdImp|Product Description: AutoCAD Mechanical 2004 DX|Company: Autodesk"
 90
    32768
280
     0
281
     0
  0
CLASS
  1
ACMDATUMSTANDARDANSI
  2
AcmDatumStdANSI
  3
"Amdt_StdImp|Product Description: AutoCAD Mechanical 2004 DX|Company: Autodesk"
 90
    32768
280
     0
281
     0
  0
CLASS
  1
ACMBOMSTANDARDANSI
  2
AcmBOMStdANSI
  3
"Amdt_StdImp|Product Description: AutoCAD Mechanical 2004 DX|Company: Autodesk"
 90
    32768
280
     0
281
     0
  0
CLASS
  1
ACMSTANDARDBSI
  2
AcmStandardBSI
  3
"Amdt_StdImp|Product Description: AutoCAD Mechanical 2004 DX|Company: Autodesk"
 90
    32768
280
     0
281
     0
  0
CLASS
  1
ACMSURFSTANDARDBSI
  2
AcmSurfTextStdBSI
  3
"Amdt_StdImp|Product Description: AutoCAD Mechanical 2004 DX|Company: Autodesk"
 90
    32768
280
     0
281
     0
  0
CLASS
  1
ACMFCFSTANDARDBSI
  2
AcmFCFStdBSI
  3
"Amdt_StdImp|Product Description: AutoCAD Mechanical 2004 DX|Company: Autodesk"
 90
    32768
280
     0
281
     0
  0
CLASS
  1
ACMWELDSTANDARDBSI
  2
AcmWeldingStdBSI
  3
"Amdt_StdImp|Product Description: AutoCAD Mechanical 2004 DX|Company: Autodesk"
 90
    32768
280
     0
281
     0
  0
CLASS
  1
ACMIDSTANDARDBSI
  2
AcmIdStdBSI
  3
"Amdt_StdImp|Product Description: AutoCAD Mechanical 2004 DX|Company: Autodesk"
 90
    32768
280
     0
281
     0
  0
CLASS
  1
ACMDATUMSTANDARDBSI
  2
AcmDatumStdBSI
  3
"Amdt_StdImp|Product Description: AutoCAD Mechanical 2004 DX|Company: Autodesk"
 90
    32768
280
     0
281
     0
  0
CLASS
  1
ACMBOMSTANDARDBSI
  2
AcmBOMStdBSI
  3
"Amdt_StdImp|Product Description: AutoCAD Mechanical 2004 DX|Company: Autodesk"
 90
    32768
280
     0
281
     0
  0
CLASS
  1
STDPART2D
  2
AmgStdPart
  3
"AmgStdPart|Product Description: AutoCAD Mechanical 2000|Company: Autodesk"
 90
    33791
280
     0
281
     1
  0
CLASS
  1
PLOTSETTINGS
  2
AcDbPlotSettings
  3
ObjectDBX Classes
 90
        0
280
     0
281
     0
  0
CLASS
  1
TABLESTYLE
  2
AcDbTableStyle
  3
ObjectDBX Classes
 90
     2047
280
     0
281
     0
  0
CLASS
  1
ACGREFMASTER
  2
AcGrefMaster
  3
AcAttribServices
 90
        0
280
     0
281
     0
  0
CLASS
  1
AM_DRAWING_MGR
  2
AcDmDwgMgr
  3
AcMechDwgViewMgmt
 90
        0
280
     0
281
     0
  0
CLASS
  1
AM_DWG_DOCUMENT
  2
AcDmDwgDocument
  3
AcMechDwgViewMgmt
 90
        0
280
     0
281
     0
  0
CLASS
  1
AM_DWG_SHEET
  2
AcDmSheet
  3
AcMechDwgViewMgmt
 90
        0
280
     0
281
     0
  0
CLASS
  1
AM_VIEWDIMPARMAP
  2
AcDmViewDimParMap
  3
AcMechDwgViewMgmt
 90
        0
280
     0
281
     0
  0
CLASS
  1
AM_DWGMGR_NAME
  2
AcDmDwgMgrName
  3
AcMechDwgViewMgmt
 90
        0
280
     0
281
     0
  0
CLASS
  1
ACGREFACADMASTER
  2
AcGrefacadMaster
  3
AcGrefServices
 90
        0
280
     0
281
     0
  0
CLASS
  1
AMDTMENUSTATEMGR
  2
AmdtMenuStateMgr
  3
McadcomServices
 90
        0
280
     0
281
     0
  0
CLASS
  1
AMDTMCOMMENUSTATE
  2
AmdtMcomMenuState
  3
McadcomServices
 90
        0
280
     0
281
     0
  0
CLASS
  1
AMIMASTER
  2
AmiMaster
  3
AmiServices
 90
        0
280
     0
281
     0
  0
CLASS
  1
MAPIAMMOUDLE
  2
MApiAmModule
  3
MApiAmServices
 90
        0
280
     0
281
     0
  0
CLASS
  1
AMDTADMENUSTATE
  2
AmdtAdMenuState
  3
DesignerServices
 90
        0
280
     0
281
     0
  0
CLASS
  1
ADAPPL
  2
AcAdAppl
  3
DesignerServices
 90
        0
280
     0
281
     0
  0
CLASS
  1
DEPMGR
  2
AcAdDepMgr
  3
DesignerServices
 90
        0
280
     0
281
     0
  0
CLASS
  1
PARAMMGR
  2
AcAdParamMgr
  3
DesignerServices
 90
        0
280
     0
281
     0
  0
CLASS
  1
PARAMSCOPE
  2
AcAdParamScope
  3
DesignerServices
 90
        0
280
     0
281
     0
  0
CLASS
  1
NAMEDAPPL
  2
AcAdNamedAppl
  3
DesignerServices
 90
        0
280
     0
281
     0
  0
CLASS
  1
AMDTDMMENUSTATE
  2
AmdtDmMenuState
  3
AcMechDwgViewMgmt
 90
        0
280
     0
281
     0
  0
CLASS
  1
AMDTAMMENUSTATE
  2
AmdtAmMenuState
  3
DesignerAssemblies
 90
        0
280
     0
281
     0
  0
CLASS
  1
ACAMPROJECT
  2
AcAmProject
  3
DesignerAssemblies
 90
        0
280
     0
281
     0
  0
CLASS
  1
ACAMGRCOMPDEF
  2
AcAmGrCompDef
  3
DesignerAssemblies
 90
        0
280
     0
281
     0
  0
CLASS
  1
ACCMCONTEXT
  2
AcCmContext
  3
DesignerAssemblies
 90
        0
280
     0
281
     0
  0
CLASS
  1
ACAMCOMPDEF
  2
AcAmCompDef
  3
DesignerAssemblies
 90
        0
280
     0
281
     0
  0
CLASS
  1
ACAMCOMPDEFMGR
  2
AcAmCompDefMgr
  3
DesignerAssemblies
 90
        0
280
     0
281
     0
  0
CLASS
  1
AMCONTEXTMGR
  2
AcAmContextMgr
  3
DesignerAssemblies
 90
        0
280
     0
281
     0
  0
CLASS
  1
ACAMCONTEXTMODELER
  2
AcAmContextModeler
  3
DesignerAssemblies
 90
        0
280
     0
281
     0
  0
CLASS
  1
CATALOGSTATE
  2
AcAmCatalogState
  3
DesignerAssemblies
 90
        0
280
     0
281
     0
  0
CLASS
  1
ACAMGRCOMPDEFSET
  2
AcAmGrCompDefSet
  3
DesignerAssemblies
 90
        0
280
     0
281
     0
  0
CLASS
  1
AMDTBROWSERDBTAB
  2
AmdtBrowserDbTab
  3
McadcomServices
 90
        0
280
     0
281
     0
  0
CLASS
  1
CBROWSERAPPOBJECT
  2
CBrowserAppObject
  3
McadcomServices
 90
        0
280
     0
281
     0
  0
CLASS
  1
DM_PLACEHOLDER
  2
AcDmSelsetPlaceholder
  3
AcMechDwgViewMgmt
 90
        0
280
     0
281
     0
  0
ENDSEC
  0
SECTION
  2
TABLES
  0
TABLE
  2
VPORT
  5
8
330
0
100
AcDbSymbolTable
 70
     3
  0
VPORT
  5
8B9D
330
8
100
AcDbSymbolTableRecord
100
AcDbViewportTableRecord
  2
*Active
 70
     0
 10
0.0
 20
0.0
 11
1.0
 21
1.0
 12
26.15525447179721
 22
37.35927097518436
 13
0.0
 23
0.0
 14
2.5
 24
2.5
 15
10.0
 25
10.0
 16
0.0
 26
0.0
 36
1.0
 17
0.0
 27
0.0
 37
0.0
 40
181.9145223276914
 41
2.166666666666666
 42
50.0
 43
0.0
 44
0.0
 50
0.0
 51
0.0
 71
     0
 72
   100
 73
     1
 74
     3
 75
     0
 76
     0
 77
     0
 78
     0
281
     0
 65
     0
110
-0.0000000000002682
120
0.000000000000161
130
0.0
111
1.0
121
0.000000000000002
131
0.0
112
-0.000000000000002
122
1.0
132
0.0
 79
     0
146
0.0
  0
ENDTAB
  0
TABLE
  2
LTYPE
  5
5
330
0
100
AcDbSymbolTable
 70
    13
  0
LTYPE
  5
14
330
5
100
AcDbSymbolTableRecord
100
AcDbLinetypeTableRecord
  2
BYBLOCK
 70
     0
  3

 72
    65
 73
     0
 40
0.0
  0
LTYPE
  5
15
330
5
100
AcDbSymbolTableRecord
100
AcDbLinetypeTableRecord
  2
BYLAYER
 70
     0
  3

 72
    65
 73
     0
 40
0.0
  0
LTYPE
  5
16
330
5
100
AcDbSymbolTableRecord
100
AcDbLinetypeTableRecord
  2
CONTINUOUS
 70
     0
  3
Solid line
 72
    65
 73
     0
 40
0.0
  0
LTYPE
  5
4B
330
5
100
AcDbSymbolTableRecord
100
AcDbLinetypeTableRecord
  2
AM_ISO02W050
 70
     0
  3
__ __ __ __ __ __ __ __ __ __ __ __ __ __ __
 72
    65
 73
     2
 40
7.5
 49
6.0
 74
     0
 49
-1.5
 74
     0
  0
LTYPE
  5
4C
330
5
100
AcDbSymbolTableRecord
100
AcDbLinetypeTableRecord
  2
AM_ISO08W050
 70
     0
  3
____ . ____ . ____ . ____ . ____ . ____ . ____
 72
    65
 73
     4
 40
18.0
 49
12.0
 74
     0
 49
-1.5
 74
     0
 49
3.0
 74
     0
 49
-1.5
 74
     0
  0
LTYPE
  5
4D
330
5
100
AcDbSymbolTableRecord
100
AcDbLinetypeTableRecord
  2
AM_ISO09W050
 70
     0
  3
_____ . . _____ . . _____ . . ____ .. ____
 72
    65
 73
     6
 40
22.5
 49
12.0
 74
     0
 49
-1.5
 74
     0
 49
3.0
 74
     0
 49
-1.5
 74
     0
 49
3.0
 74
     0
 49
-1.5
 74
     0
  0
LTYPE
  5
4E
330
5
100
AcDbSymbolTableRecord
100
AcDbLinetypeTableRecord
  2
AMCONSTR
 70
     0
  3
_______________________
 72
    65
 73
     2
 40
9999.0
 49
9999.0
 74
     0
 49
0.0
 74
     0
  0
LTYPE
  5
4F
330
5
100
AcDbSymbolTableRecord
100
AcDbLinetypeTableRecord
  2
AM_ISO02W050X2
 70
     0
  3
 _ _ _ _ _ _ _ _ _ _ _ _
 72
    65
 73
     2
 40
3.75
 49
3.0
 74
     0
 49
-0.75
 74
     0
  0
LTYPE
  5
50
330
5
100
AcDbSymbolTableRecord
100
AcDbLinetypeTableRecord
  2
AM_ISO08W050X2
 70
     0
  3
__ . __ . __ . __ . __ . __
 72
    65
 73
     4
 40
9.0
 49
6.0
 74
     0
 49
-0.75
 74
     0
 49
1.5
 74
     0
 49
-0.75
 74
     0
  0
LTYPE
  5
53
330
5
100
AcDbSymbolTableRecord
100
AcDbLinetypeTableRecord
  2
AMZIGZAG
 70
     0
  3
/\/-/\/-/\/-/\/-/\/-/\/
 72
    65
 73
     2
 40
11.00009999999999
 49
0.0001
 74
     4
 75
   135
340
52
 46
0.04
 50
0.0
 44
0.0
 45
0.0
 49
-11.0
 74
     0
  0
LTYPE
  5
8B01
330
5
100
AcDbSymbolTableRecord
100
AcDbLinetypeTableRecord
  2
HIDDEN
 70
     0
  3
Hidden __ __ __ __ __ __ __ __ __ __ __ __ __ _
 72
    65
 73
     2
 40
9.524999999999998
 49
6.349999999999999
 74
     0
 49
-3.174999999999999
 74
     0
  0
LTYPE
  5
8B02
330
5
100
AcDbSymbolTableRecord
100
AcDbLinetypeTableRecord
  2
PHANTOM2
 70
     0
  3
Phantom (.5x) ___ _ _ ___ _ _ ___ _ _ ___ _ _
 72
    65
 73
     6
 40
31.75
 49
15.875
 74
     0
 49
-3.174999999999999
 74
     0
 49
3.174999999999999
 74
     0
 49
-3.174999999999999
 74
     0
 49
3.174999999999999
 74
     0
 49
-3.174999999999999
 74
     0
  0
LTYPE
  5
8B03
330
5
100
AcDbSymbolTableRecord
100
AcDbLinetypeTableRecord
  2
CENTER
 70
     0
  3
Center ____ _ ____ _ ____ _ ____ _ ____ _ ____
 72
    65
 73
     4
 40
50.8
 49
31.75
 74
     0
 49
-6.349999999999999
 74
     0
 49
6.349999999999999
 74
     0
 49
-6.349999999999999
 74
     0
  0
ENDTAB
  0
TABLE
  2
LAYER
  5
2
330
0
100
AcDbSymbolTable
 70
     7
  0
LAYER
  5
10
330
2
100
AcDbSymbolTableRecord
100
AcDbLayerTableRecord
  2
0
 70
     0
 62
     7
  6
CONTINUOUS
370
    -3
390
F
  0
LAYER
  5
3F9
330
2
100
AcDbSymbolTableRecord
100
AcDbLayerTableRecord
  2
AM_0
 70
     0
 62
     7
  6
CONTINUOUS
370
    -3
390
F
  0
LAYER
  5
BA4
330
2
100
AcDbSymbolTableRecord
100
AcDbLayerTableRecord
  2
AM_5
 70
     0
 62
     3
  6
CONTINUOUS
370
    -3
390
F
  0
LAYER
  5
BA6
330
2
100
AcDbSymbolTableRecord
100
AcDbLayerTableRecord
  2
AM_7
 70
     0
 62
     4
  6
AM_ISO08W050
370
    -3
390
F
  0
LAYER
  5
E64
330
2
100
AcDbSymbolTableRecord
100
AcDbLayerTableRecord
  2
AM_6
 70
     0
 62
     2
  6
CONTINUOUS
370
    -3
390
F
  0
LAYER
  5
F4D
330
2
100
AcDbSymbolTableRecord
100
AcDbLayerTableRecord
  2
DEFPOINTS
 70
     0
 62
     7
  6
CONTINUOUS
290
     0
370
    -3
390
F
  0
LAYER
  5
4E80
330
2
100
AcDbSymbolTableRecord
100
AcDbLayerTableRecord
  2
AM_11
 70
     0
 62
     3
  6
AM_ISO09W050
370
    -3
390
F
  0
ENDTAB
  0
TABLE
  2
STYLE
  5
3
330
0
100
AcDbSymbolTable
 70
     5
  0
STYLE
  5
11
330
3
100
AcDbSymbolTableRecord
100
AcDbTextStyleTableRecord
  2
STANDARD
 70
     0
 40
0.0
 41
1.0
 50
0.0
 71
     0
 42
2.5
  3
simplex.shx
  4
EXTFONT.SHX
  0
STYLE
  5
52
330
3
100
AcDbSymbolTableRecord
100
AcDbTextStyleTableRecord
  2

 70
     1
 40
0.0
 41
1.0
 50
0.0
 71
     0
 42
2.5
  3
ltypeshp.shx
  4

  0
STYLE
  5
6B
330
3
100
AcDbSymbolTableRecord
100
AcDbTextStyleTableRecord
  2
ASAMI
 70
     0
 40
0.0
 41
1.0
 50
0.0
 71
     0
 42
2.5
  3
simplex.shx
  4
EXTFONT.SHX
  0
ENDTAB
  0
TABLE
  2
VIEW
  5
6
330
0
100
AcDbSymbolTable
 70
     0
  0
ENDTAB
  0
TABLE
  2
UCS
  5
7
330
0
100
AcDbSymbolTable
 70
     0
  0
ENDTAB
  0
TABLE
  2
APPID
  5
9
330
0
100
AcDbSymbolTable
 70
    31
  0
APPID
  5
12
330
9
100
AcDbSymbolTableRecord
100
AcDbRegAppTableRecord
  2
ACAD
 70
     0
  0
APPID
  5
30
330
9
100
AcDbSymbolTableRecord
100
AcDbRegAppTableRecord
  2
MCAD_NO_VIS
 70
     0
  0
APPID
  5
31
330
9
100
AcDbSymbolTableRecord
100
AcDbRegAppTableRecord
  2
ACAD_TEMP_GRAPHIC
 70
     0
  0
APPID
  5
2C2
330
9
100
AcDbSymbolTableRecord
100
AcDbRegAppTableRecord
  2
GENIUS_GENDTOL_13
 70
     0
  0
APPID
  5
339
330
9
100
AcDbSymbolTableRecord
100
AcDbRegAppTableRecord
  2
GENIUS_GENODEF_13
 70
     0
  0
APPID
  5
33A
330
9
100
AcDbSymbolTableRecord
100
AcDbRegAppTableRecord
  2
GENIUS_GENOBJ-N-RSBK_13
 70
     0
  0
APPID
  5
33B
330
9
100
AcDbSymbolTableRecord
100
AcDbRegAppTableRecord
  2
GENIUS_GENOBJ-N-LIB_13
 70
     0
  0
APPID
  5
33C
330
9
100
AcDbSymbolTableRecord
100
AcDbRegAppTableRecord
  2
GENIUS_GENSCALE_13
 70
     0
  0
APPID
  5
378
330
9
100
AcDbSymbolTableRecord
100
AcDbRegAppTableRecord
  2
GENIUS_GENDIMSH_14
 70
     0
  0
APPID
  5
BB0
330
9
100
AcDbSymbolTableRecord
100
AcDbRegAppTableRecord
  2
GENIUS_GENOBJ-N-CEN_13
 70
     0
  0
APPID
  5
BB1
330
9
100
AcDbSymbolTableRecord
100
AcDbRegAppTableRecord
  2
GENIUS_GENFIL_13
 70
     0
  0
APPID
  5
BB2
330
9
100
AcDbSymbolTableRecord
100
AcDbRegAppTableRecord
  2
GENIUS_GENOBJ-N-CHA_13
 70
     0
  0
APPID
  5
1FAF
330
9
100
AcDbSymbolTableRecord
100
AcDbRegAppTableRecord
  2
GENIUS_GENOBJ-N-CRS_13
 70
     0
  0
APPID
  5
1FB0
330
9
100
AcDbSymbolTableRecord
100
AcDbRegAppTableRecord
  2
GENIUS_GENOENT_13
 70
     0
  0
APPID
  5
1FB1
330
9
100
AcDbSymbolTableRecord
100
AcDbRegAppTableRecord
  2
GENIUS_GENOREF_13
 70
     0
  0
APPID
  5
1FB2
330
9
100
AcDbSymbolTableRecord
100
AcDbRegAppTableRecord
  2
GENIUS_GENOLIS_13
 70
     0
  0
APPID
  5
1FB7
330
9
100
AcDbSymbolTableRecord
100
AcDbRegAppTableRecord
  2
GENIUS_GENOBJ-N-FIL_13
 70
     0
  0
APPID
  5
22A8
330
9
100
AcDbSymbolTableRecord
100
AcDbRegAppTableRecord
  2
GEVID1056506048
 70
     0
  0
APPID
  5
22A9
330
9
100
AcDbSymbolTableRecord
100
AcDbRegAppTableRecord
  2
GEVDC
 70
     0
  0
APPID
  5
22AC
330
9
100
AcDbSymbolTableRecord
100
AcDbRegAppTableRecord
  2
GENIUS_GENBH_13
 70
     0
  0
APPID
  5
22B8
330
9
100
AcDbSymbolTableRecord
100
AcDbRegAppTableRecord
  2
GENIUS_GENOBJ-NBEHI-BHF_13
 70
     0
  0
APPID
  5
22BA
330
9
100
AcDbSymbolTableRecord
100
AcDbRegAppTableRecord
  2
GENIUS_GENOBJ-NBEHI-BHB_13
 70
     0
  0
APPID
  5
35C9
330
9
100
AcDbSymbolTableRecord
100
AcDbRegAppTableRecord
  2
GENIUS_GENREC_14
 70
     0
  0
APPID
  5
35CA
330
9
100
AcDbSymbolTableRecord
100
AcDbRegAppTableRecord
  2
GENIUS_GENOBJ-N-REC_13
 70
     0
  0
APPID
  5
8B05
330
9
100
AcDbSymbolTableRecord
100
AcDbRegAppTableRecord
  2
AD_DRAW
 70
     0
  0
APPID
  5
8B08
330
9
100
AcDbSymbolTableRecord
100
AcDbRegAppTableRecord
  2
ACATTRIBSERVICES
 70
     0
  0
APPID
  5
8B26
330
9
100
AcDbSymbolTableRecord
100
AcDbRegAppTableRecord
  2
DESIGNERASSEMBLIES
 70
     0
  0
APPID
  5
8B2B
330
9
100
AcDbSymbolTableRecord
100
AcDbRegAppTableRecord
  2
ACADM_DIM_EDIT
 70
     0
  0
APPID
  5
8B2C
330
9
100
AcDbSymbolTableRecord
100
AcDbRegAppTableRecord
  2
AMDT_DM_ADJ
 70
     0
  0
APPID
  5
8B31
330
9
100
AcDbSymbolTableRecord
100
AcDbRegAppTableRecord
  2
GENIUS_GENSCREG_15
 70
     0
  0
APPID
  5
8B32
330
9
100
AcDbSymbolTableRecord
100
AcDbRegAppTableRecord
  2
GENIUS_GENOBJ-N-SDF_13
 70
     0
  0
ENDTAB
  0
TABLE
  2
DIMSTYLE
  5
A
330
0
100
AcDbSymbolTable
 70
     9
100
AcDbDimStyleTable
 71
     0
  0
DIMSTYLE
105
58
330
A
100
AcDbSymbolTableRecord
100
AcDbDimStyleTableRecord
  2
AM_JIS
 70
     0
  4
"
 41
2.5
 42
1.0
 43
12.0
 44
1.0
 47
0.1
 48
0.1
 73
     0
 74
     0
 77
     3
 78
     8
140
3.2
141
0.0
143
0.0393701
146
0.71
147
1.5
172
     1
176
   256
177
   256
178
     2
271
     3
272
     3
283
     0
340
6B
341
59
342
59
  0
DIMSTYLE
105
60
102
{ACAD_REACTORS
330
8709
102
}
330
A
100
AcDbSymbolTableRecord
100
AcDbDimStyleTableRecord
  2
AM_JIS$4
 70
     0
  4
"
 41
2.5
 42
1.0
 43
10.0
 44
1.0
 47
0.1
 48
0.1
 73
     0
 77
     3
 78
     8
140
3.2
141
0.0
143
0.0393701
146
0.71
147
1.5
176
   256
177
   256
178
     2
271
     2
272
     3
283
     0
288
     1
340
6B
341
59
342
59
  0
DIMSTYLE
105
62
102
{ACAD_REACTORS
330
8826
330
8827
102
}
330
A
100
AcDbSymbolTableRecord
100
AcDbDimStyleTableRecord
  2
AM_JIS$7
 70
     0
  4
"
 41
2.5
 42
1.0
 43
10.0
 44
1.0
 47
0.1
 48
0.1
 73
     0
 74
     0
 77
     3
 78
     8
140
3.2
141
0.0
143
0.0393701
146
0.71
147
1.5
172
     1
176
   256
177
   256
178
     2
271
     2
272
     3
283
     0
340
6B
341
59
342
59
  0
DIMSTYLE
105
B34
102
{ACAD_REACTORS
330
8165
330
832C
102
}
330
A
100
AcDbSymbolTableRecord
100
AcDbDimStyleTableRecord
  2
AM_JIS$2
 70
     0
  4
"
 41
2.5
 42
1.0
 43
12.0
 44
1.0
 47
0.1
 48
0.1
 73
     0
 74
     0
 77
     3
 78
     8
140
3.2
141
0.0
143
0.0393701
146
0.71
147
1.5
172
     1
176
   256
177
   256
178
     2
271
     3
272
     3
283
     0
340
6B
341
59
342
59
  0
DIMSTYLE
105
3B48
102
{ACAD_REACTORS
330
7F6B
330
8008
330
80A1
330
8247
330
840F
330
84CA
330
856E
330
8738
102
}
330
A
100
AcDbSymbolTableRecord
100
AcDbDimStyleTableRecord
  2
AM_JIS$0
 70
     0
  4
"
 41
2.5
 42
0.0
 43
10.0
 44
1.0
 47
0.1
 48
0.1000000001
 73
     0
 74
     0
 77
     3
 78
     1
140
3.799999999999998
141
0.0
143
0.0393701
146
0.71
147
1.5
172
     1
176
     3
177
     3
178
     2
271
     2
272
     2
275
     1
283
     0
284
     8
340
11
341
59
342
59
  0
ENDTAB
  0
TABLE
  2
BLOCK_RECORD
  5
1
330
0
100
AcDbSymbolTable
 70
    14
  0
BLOCK_RECORD
  5
1F
102
{ACAD_XDICTIONARY
360
74
102
}
330
1
100
AcDbSymbolTableRecord
100
AcDbBlockTableRecord
  2
*MODEL_SPACE
340
8ACC
  0
BLOCK_RECORD
  5
101
102
{ACAD_XDICTIONARY
360
8A5A
102
}
330
1
100
AcDbSymbolTableRecord
100
AcDbBlockTableRecord
  2
*PAPER_SPACE
340
8ACD
  0
BLOCK_RECORD
  5
59
330
1
100
AcDbSymbolTableRecord
100
AcDbBlockTableRecord
  2
_OPEN30
340
0
102
{BLKREFS
331
8B37
331
8B38
331
8B40
331
8B41
331
8B49
331
8B4A
331
8B52
331
8B53
331
8B5D
331
8B5E
331
8B66
331
8B67
331
8B73
331
8B74
331
8B7C
331
8B7D
331
8B85
331
8B86
331
8B8D
331
8B94
331
8B95
102
}
  0
BLOCK_RECORD
  5
7F6C
330
1
100
AcDbSymbolTableRecord
100
AcDbBlockTableRecord
  2
*D2
340
0
  0
BLOCK_RECORD
  5
8009
330
1
100
AcDbSymbolTableRecord
100
AcDbBlockTableRecord
  2
*D3
340
0
  0
BLOCK_RECORD
  5
80A2
330
1
100
AcDbSymbolTableRecord
100
AcDbBlockTableRecord
  2
*D4
340
0
  0
BLOCK_RECORD
  5
8166
330
1
100
AcDbSymbolTableRecord
100
AcDbBlockTableRecord
  2
*D5
340
0
  0
BLOCK_RECORD
  5
8248
330
1
100
AcDbSymbolTableRecord
100
AcDbBlockTableRecord
  2
*D6
340
0
  0
BLOCK_RECORD
  5
832D
330
1
100
AcDbSymbolTableRecord
100
AcDbBlockTableRecord
  2
*D7
340
0
  0
BLOCK_RECORD
  5
8410
330
1
100
AcDbSymbolTableRecord
100
AcDbBlockTableRecord
  2
*D8
340
0
  0
BLOCK_RECORD
  5
84CB
330
1
100
AcDbSymbolTableRecord
100
AcDbBlockTableRecord
  2
*D9
340
0
  0
BLOCK_RECORD
  5
856F
330
1
100
AcDbSymbolTableRecord
100
AcDbBlockTableRecord
  2
*D10
340
0
  0
BLOCK_RECORD
  5
870A
330
1
100
AcDbSymbolTableRecord
100
AcDbBlockTableRecord
  2
*D11
340
0
  0
BLOCK_RECORD
  5
8739
330
1
100
AcDbSymbolTableRecord
100
AcDbBlockTableRecord
  2
*D12
340
0
  0
ENDTAB
  0
ENDSEC
  0
SECTION
  2
BLOCKS
  0
BLOCK
  5
20
330
1F
100
AcDbEntity
  8
0
100
AcDbBlockBegin
  2
*MODEL_SPACE
 70
     0
 10
0.0
 20
0.0
 30
0.0
  3
*MODEL_SPACE
  1

  0
ENDBLK
  5
21
330
1F
100
AcDbEntity
  8
0
100
AcDbBlockEnd
  0
BLOCK
  5
103
330
101
100
AcDbEntity
 67
     1
  8
0
100
AcDbBlockBegin
  2
*PAPER_SPACE
 70
     0
 10
0.0
 20
0.0
 30
0.0
  3
*PAPER_SPACE
  1

  0
ENDBLK
  5
104
330
101
100
AcDbEntity
 67
     1
  8
0
100
AcDbBlockEnd
  0
BLOCK
  5
5D
330
59
100
AcDbEntity
  8
0
100
AcDbBlockBegin
  2
_OPEN30
 70
     0
 10
0.0
 20
0.0
 30
0.0
  3
_OPEN30
  1

  0
LINE
  5
5A
330
59
100
AcDbEntity
  8
0
 62
     0
100
AcDbLine
 10
-1.0
 20
0.26794919
 30
0.0
 11
0.0
 21
0.0
 31
0.0
  0
LINE
  5
5B
330
59
100
AcDbEntity
  8
0
 62
     0
100
AcDbLine
 10
0.0
 20
0.0
 30
0.0
 11
-1.0
 21
-0.26794919
 31
0.0
  0
LINE
  5
5C
330
59
100
AcDbEntity
  8
0
 62
     0
100
AcDbLine
 10
0.0
 20
0.0
 30
0.0
 11
-1.0
 21
0.0
 31
0.0
  0
ENDBLK
  5
5E
330
59
100
AcDbEntity
  8
0
100
AcDbBlockEnd
  0
BLOCK
  5
7F76
330
7F6C
100
AcDbEntity
  8
0
100
AcDbBlockBegin
  2
*D2
 70
     1
 10
0.0
 20
0.0
 30
0.0
  3
*D2
  1

  0
LINE
  5
8B34
330
7F6C
100
AcDbEntity
  8
AM_5
100
AcDbLine
 10
150.9999999999982
 20
4.999998642858936
 30
0.0
 11
165.4948813714076
 21
4.999998642858977
 31
0.0
  0
LINE
  5
8B35
330
7F6C
100
AcDbEntity
  8
AM_5
100
AcDbLine
 10
150.9999999999982
 20
29.99999673550933
 30
0.0
 11
165.4948813714075
 21
29.99999673550938
 31
0.0
  0
LINE
  5
8B36
330
7F6C
100
AcDbEntity
  8
AM_5
100
AcDbLine
 10
164.4948813714076
 20
7.499998642858974
 30
0.0
 11
164.4948813714075
 21
27.49999673550937
 31
0.0
  0
INSERT
  5
8B37
330
7F6C
100
AcDbEntity
  8
AM_5
100
AcDbBlockReference
  2
_OPEN30
 10
164.4948813714076
 20
4.999998642858974
 30
0.0
 41
2.5
 42
2.5
 43
2.5
 50
270.0000000000002
  0
INSERT
  5
8B38
330
7F6C
100
AcDbEntity
  8
AM_5
100
AcDbBlockReference
  2
_OPEN30
 10
164.4948813714075
 20
29.99999673550938
 30
0.0
 41
2.5
 42
2.5
 43
2.5
 50
90.00000000000015
  0
MTEXT
  5
8B39
330
7F6C
100
AcDbEntity
  8
AM_5
 62
     2
100
AcDbMText
 10
161.3948813714076
 20
17.49999768918415
 30
0.0
 40
3.2
 41
0.0
 71
     5
 72
     1
  1
25
  7
ASAMI
 11
-0.0000000000000028
 21
1.0
 31
0.0
 73
     1
 44
1.0
1001
ACAD
1000
MTEXTBEGIN
1070
    73
1070
     1
1070
    44
1040
1.0
1070
    74
1070
     0
1000
MTEXTEND
  0
POINT
  5
8B3A
330
7F6C
100
AcDbEntity
  8
DEFPOINTS
 62
     0
100
AcDbPoint
 10
149.9999999999982
 20
4.999998642858467
 30
0.0
  0
POINT
  5
8B3B
330
7F6C
100
AcDbEntity
  8
DEFPOINTS
 62
     0
100
AcDbPoint
 10
149.9999999999982
 20
29.99999673550887
 30
0.0
  0
POINT
  5
8B3C
330
7F6C
100
AcDbEntity
  8
DEFPOINTS
 62
     0
100
AcDbPoint
 10
164.4948813714076
 20
29.99999673550886
 30
0.0
  0
ENDBLK
  5
7F77
330
7F6C
100
AcDbEntity
  8
0
100
AcDbBlockEnd
  0
BLOCK
  5
8013
330
8009
100
AcDbEntity
  8
0
100
AcDbBlockBegin
  2
*D3
 70
     1
 10
0.0
 20
0.0
 30
0.0
  3
*D3
  1

  0
LINE
  5
8B3D
330
8009
100
AcDbEntity
  8
AM_5
100
AcDbLine
 10
-0.0000000000002867
 20
4.999997689183829
 30
0.0
 11
-0.0000000000001912
 21
64.9999967355092
 31
0.0
  0
LINE
  5
8B3E
330
8009
100
AcDbEntity
  8
AM_5
100
AcDbLine
 10
149.9999999999982
 20
30.9999967355093
 30
0.0
 11
149.9999999999982
 21
64.99999673550895
 31
0.0
  0
LINE
  5
8B3F
330
8009
100
AcDbEntity
  8
AM_5
100
AcDbLine
 10
2.499999999999807
 20
63.99999673550919
 30
0.0
 11
147.4999999999982
 21
63.99999673550897
 31
0.0
  0
INSERT
  5
8B40
330
8009
100
AcDbEntity
  8
AM_5
100
AcDbBlockReference
  2
_OPEN30
 10
-0.0000000000001927
 20
63.99999673550919
 30
0.0
 41
2.5
 42
2.5
 43
2.5
 50
179.9999999999998
  0
INSERT
  5
8B41
330
8009
100
AcDbEntity
  8
AM_5
100
AcDbBlockReference
  2
_OPEN30
 10
149.9999999999982
 20
63.99999673550897
 30
0.0
 41
2.5
 42
2.5
 43
2.5
 50
359.9999999999999
  0
MTEXT
  5
8B42
330
8009
100
AcDbEntity
  8
AM_5
 62
     2
100
AcDbMText
 10
74.99999999999902
 20
67.09999673550908
 30
0.0
 40
3.2
 41
0.0
 71
     5
 72
     1
  1
150
  7
ASAMI
 73
     1
 44
1.0
1001
ACAD
1000
MTEXTBEGIN
1070
    73
1070
     1
1070
    44
1040
1.0
1070
    74
1070
     0
1000
MTEXTEND
  0
POINT
  5
8B43
330
8009
100
AcDbEntity
  8
DEFPOINTS
 62
     0
100
AcDbPoint
 10
-0.0000000000002767
 20
3.999997689183829
 30
0.0
  0
POINT
  5
8B44
330
8009
100
AcDbEntity
  8
DEFPOINTS
 62
     0
100
AcDbPoint
 10
149.9999999999982
 20
29.99999673550887
 30
0.0
  0
POINT
  5
8B45
330
8009
100
AcDbEntity
  8
DEFPOINTS
 62
     0
100
AcDbPoint
 10
149.9999999999984
 20
63.99999673550852
 30
0.0
  0
ENDBLK
  5
8014
330
8009
100
AcDbEntity
  8
0
100
AcDbBlockEnd
  0
BLOCK
  5
80AC
330
80A2
100
AcDbEntity
  8
0
100
AcDbBlockBegin
  2
*D4
 70
     1
 10
0.0
 20
0.0
 30
0.0
  3
*D4
  1

  0
LINE
  5
8B46
330
80A2
100
AcDbEntity
  8
AM_5
100
AcDbLine
 10
-0.0000000000002867
 20
4.999999419064693
 30
0.0
 11
-0.000000000000223
 21
44.99999673550865
 31
0.0
  0
LINE
  5
8B47
330
80A2
100
AcDbEntity
  8
AM_5
100
AcDbLine
 10
25.75735855102519
 20
30.99999673550862
 30
0.0
 11
25.75735855102522
 21
44.99999673550861
 31
0.0
  0
LINE
  5
8B48
330
80A2
100
AcDbEntity
  8
AM_5
100
AcDbLine
 10
2.499999999999775
 20
43.99999673550865
 30
0.0
 11
23.25735855102522
 21
43.99999673550861
 31
0.0
  0
INSERT
  5
8B49
330
80A2
100
AcDbEntity
  8
AM_5
100
AcDbBlockReference
  2
_OPEN30
 10
-0.0000000000002246
 20
43.99999673550865
 30
0.0
 41
2.5
 42
2.5
 43
2.5
 50
179.9999999999998
  0
INSERT
  5
8B4A
330
80A2
100
AcDbEntity
  8
AM_5
100
AcDbBlockReference
  2
_OPEN30
 10
25.75735855102522
 20
43.99999673550861
 30
0.0
 41
2.5
 42
2.5
 43
2.5
 50
359.9999999999999
  0
MTEXT
  5
8B4B
330
80A2
100
AcDbEntity
  8
AM_5
 62
     2
100
AcDbMText
 10
12.8786792755125
 20
47.93809197360387
 30
0.0
 40
3.2
 41
0.0
 71
     5
 72
     1
  1
(26)
  7
ASAMI
 73
     1
 44
1.0
1001
ACAD
1000
MTEXTBEGIN
1070
    73
1070
     1
1070
    44
1040
1.0
1070
    74
1070
     0
1000
MTEXTEND
  0
POINT
  5
8B4C
330
80A2
100
AcDbEntity
  8
DEFPOINTS
 62
     0
100
AcDbPoint
 10
-0.0000000000002767
 20
3.999999419064693
 30
0.0
  0
POINT
  5
8B4D
330
80A2
100
AcDbEntity
  8
DEFPOINTS
 62
     0
100
AcDbPoint
 10
25.75735855102528
 20
29.99999673550854
 30
0.0
  0
POINT
  5
8B4E
330
80A2
100
AcDbEntity
  8
DEFPOINTS
 62
     0
100
AcDbPoint
 10
25.75735855102534
 20
43.99999673550854
 30
0.0
  0
ENDBLK
  5
80AD
330
80A2
100
AcDbEntity
  8
0
100
AcDbBlockEnd
  0
BLOCK
  5
8175
330
8166
100
AcDbEntity
  8
0
100
AcDbBlockBegin
  2
*D5
 70
     1
 10
0.0
 20
0.0
 30
0.0
  3
*D5
  1

  0
LINE
  5
8B4F
330
8166
100
AcDbEntity
  8
AM_5
370
    -2
100
AcDbLine
 10
26.46446538286961
 20
30.70710346603728
 30
0.0
 11
38.31213897693563
 21
42.55477536254349
 31
0.0
  0
LINE
  5
8B50
330
8166
100
AcDbEntity
  8
AM_5
370
    -2
100
AcDbLine
 10
-0.0000000000002942
 20
5.242641875051976
 30
0.0
 11
-0.0000000000005613
 21
58.42418453813441
 31
0.0
  0
ARC
  5
8B51
330
8166
100
AcDbEntity
  8
AM_5
370
    -2
100
AcDbCircle
 10
-0.0000000000002891
 20
4.242641875051975
 30
0.0
 40
53.18154266308243
100
AcDbArc
 50
47.69364925353894
 51
87.30634664173077
  0
INSERT
  5
8B52
330
8166
100
AcDbEntity
  8
AM_5
370
    -2
100
AcDbBlockReference
  2
_OPEN30
 10
37.6050321450912
 20
41.84766863201483
 30
0.0
 41
2.5
 42
2.5
 43
2.5
 50
316.3468225744042
  0
INSERT
  5
8B53
330
8166
100
AcDbEntity
  8
AM_5
370
    -2
100
AcDbBlockReference
  2
_OPEN30
 10
-0.0000000000005578
 20
57.42418453813441
 30
0.0
 41
2.5
 42
2.5
 43
2.5
 50
178.6531733208655
  0
MTEXT
  5
8B54
330
8166
100
AcDbEntity
  8
AM_5
 62
     2
100
AcDbMText
 10
21.53801578768347
 20
56.24000642813152
 30
0.0
 40
3.2
 41
0.0
 71
     5
 72
     1
  1
45°
  7
ASAMI
 11
0.923879518803363
 21
-0.3826834654589431
 31
0.0
 73
     1
 44
1.0
1001
ACAD
1000
MTEXTBEGIN
1070
    73
1070
     1
1070
    44
1040
1.0
1070
    74
1070
     0
1000
MTEXTEND
  0
POINT
  5
8B55
330
8166
100
AcDbEntity
  8
DEFPOINTS
 62
     0
100
AcDbPoint
 10
26.59077353123528
 20
50.2992075637331
 30
0.0
  0
POINT
  5
8B56
330
8166
100
AcDbEntity
  8
DEFPOINTS
 62
     0
100
AcDbPoint
 10
5.789592742919355
 20
10.03223378842647
 30
0.0
  0
POINT
  5
8B57
330
8166
100
AcDbEntity
  8
DEFPOINTS
 62
     0
100
AcDbPoint
 10
-0.0000000000002767
 20
3.999999419064637
 30
0.0
  0
POINT
  5
8B58
330
8166
100
AcDbEntity
  8
DEFPOINTS
 62
     0
100
AcDbPoint
 10
-0.0000000000002683
 20
-0.0000023108162839
 30
0.0
  0
POINT
  5
8B59
330
8166
100
AcDbEntity
  8
DEFPOINTS
 62
     0
100
AcDbPoint
 10
25.75735855102528
 20
29.99999673550854
 30
0.0
  0
ENDBLK
  5
8176
330
8166
100
AcDbEntity
  8
0
100
AcDbBlockEnd
  0
BLOCK
  5
8252
330
8248
100
AcDbEntity
  8
0
100
AcDbBlockBegin
  2
*D6
 70
     1
 10
0.0
 20
0.0
 30
0.0
  3
*D6
  1

  0
LINE
  5
8B5A
330
8248
100
AcDbEntity
  8
AM_5
100
AcDbLine
 10
-1.00000000000027
 20
0.000000000000112
 30
0.0
 11
-35.00000000000034
 21
0.0000000000000159
 31
0.0
  0
LINE
  5
8B5B
330
8248
100
AcDbEntity
  8
AM_5
100
AcDbLine
 10
24.7573585510252
 20
29.99999673550865
 30
0.0
 11
-35.00000000000043
 21
29.99999673550848
 31
0.0
  0
LINE
  5
8B5C
330
8248
100
AcDbEntity
  8
AM_5
100
AcDbLine
 10
-34.00000000000034
 20
2.500000000000018
 30
0.0
 11
-34.00000000000041
 21
27.49999673550848
 31
0.0
  0
INSERT
  5
8B5D
330
8248
100
AcDbEntity
  8
AM_5
100
AcDbBlockReference
  2
_OPEN30
 10
-34.00000000000034
 20
0.0000000000000188
 30
0.0
 41
2.5
 42
2.5
 43
2.5
 50
270.0000000000002
  0
INSERT
  5
8B5E
330
8248
100
AcDbEntity
  8
AM_5
100
AcDbBlockReference
  2
_OPEN30
 10
-34.00000000000042
 20
29.99999673550848
 30
0.0
 41
2.5
 42
2.5
 43
2.5
 50
90.00000000000015
  0
MTEXT
  5
8B5F
330
8248
100
AcDbEntity
  8
AM_5
 62
     2
100
AcDbMText
 10
-37.10000000000038
 20
14.99999836775424
 30
0.0
 40
3.2
 41
0.0
 71
     5
 72
     1
  1
30
  7
ASAMI
 11
-0.0000000000000028
 21
1.0
 31
0.0
 73
     1
 44
1.0
1001
ACAD
1000
MTEXTBEGIN
1070
    73
1070
     1
1070
    44
1040
1.0
1070
    74
1070
     0
1000
MTEXTEND
  0
POINT
  5
8B60
330
8248
100
AcDbEntity
  8
DEFPOINTS
 62
     0
100
AcDbPoint
 10
-0.00000000000027
 20
0.0000000000001148
 30
0.0
  0
POINT
  5
8B61
330
8248
100
AcDbEntity
  8
DEFPOINTS
 62
     0
100
AcDbPoint
 10
25.75735855102529
 20
29.99999673550857
 30
0.0
  0
POINT
  5
8B62
330
8248
100
AcDbEntity
  8
DEFPOINTS
 62
     0
100
AcDbPoint
 10
-34.00000000000033
 20
29.99999673550859
 30
0.0
  0
ENDBLK
  5
8253
330
8248
100
AcDbEntity
  8
0
100
AcDbBlockEnd
  0
BLOCK
  5
833C
330
832D
100
AcDbEntity
  8
0
100
AcDbBlockBegin
  2
*D7
 70
     1
 10
0.0
 20
0.0
 30
0.0
  3
*D7
  1

  0
LINE
  5
8B63
330
832D
100
AcDbEntity
  8
AM_5
370
    -2
100
AcDbLine
 10
-1.00000231081703
 20
-0.000002310816301
 30
0.0
 11
-35.01737072184614
 21
-0.0000023108168818
 31
0.0
  0
LINE
  5
8B64
330
832D
100
AcDbEntity
  8
AM_5
370
    -2
100
AcDbLine
 10
-1.212291006119076
 20
-1.212290830053071
 30
0.0
 11
-24.76102277163143
 21
-24.7610191754943
 31
0.0
  0
ARC
  5
8B65
330
832D
100
AcDbEntity
  8
AM_5
370
    -2
100
AcDbCircle
 10
-0.0000023108170306
 20
-0.0000023108162839
 30
0.0
 40
34.0173684110291
100
AcDbArc
 50
184.2117221363478
 51
220.7882737030117
  0
INSERT
  5
8B66
330
832D
100
AcDbEntity
  8
AM_5
370
    -2
100
AcDbBlockReference
  2
_OPEN30
 10
-34.01737072184614
 20
-0.0000023108168641
 30
0.0
 41
2.5
 42
2.5
 43
2.5
 50
92.10586106817443
  0
INSERT
  5
8B67
330
832D
100
AcDbEntity
  8
AM_5
370
    -2
100
AcDbBlockReference
  2
_OPEN30
 10
-24.053915939097
 20
-24.05391244565566
 30
0.0
 41
2.5
 42
2.5
 43
2.5
 50
312.8941347711852
  0
MTEXT
  5
8B68
330
832D
100
AcDbEntity
  8
AM_5
 62
     2
100
AcDbMText
 10
-28.56392661446342
 20
-11.83156593693347
 30
0.0
 40
3.2
 41
0.0
 71
     5
 72
     1
  1
45°
  7
ASAMI
 11
0.3826833988204683
 21
-0.9238795464059231
 31
0.0
 73
     1
 44
1.0
1001
ACAD
1000
MTEXTBEGIN
1070
    73
1070
     1
1070
    44
1040
1.0
1070
    74
1070
     0
1000
MTEXTEND
  0
POINT
  5
8B69
330
832D
100
AcDbEntity
  8
DEFPOINTS
 62
     0
100
AcDbPoint
 10
-32.85825721453456
 20
-8.804344324504995
 30
0.0
  0
POINT
  5
8B6A
330
832D
100
AcDbEntity
  8
DEFPOINTS
 62
     0
100
AcDbPoint
 10
-0.5051841735846365
 20
-0.5051841002144205
 30
0.0
  0
POINT
  5
8B6B
330
832D
100
AcDbEntity
  8
DEFPOINTS
 62
     0
100
AcDbPoint
 10
3.999999999999353
 20
-0.0000023108162275
 30
0.0
  0
POINT
  5
8B6C
330
832D
100
AcDbEntity
  8
DEFPOINTS
 62
     0
100
AcDbPoint
 10
-0.0000000000002683
 20
-0.0000023108162839
 30
0.0
  0
POINT
  5
8B6D
330
832D
100
AcDbEntity
  8
DEFPOINTS
 62
     0
100
AcDbPoint
 10
22.47749328613233
 20
22.47749002164152
 30
0.0
  0
ENDBLK
  5
833D
330
832D
100
AcDbEntity
  8
0
100
AcDbBlockEnd
  0
BLOCK
  5
841A
330
8410
100
AcDbEntity
  8
0
100
AcDbBlockBegin
  2
*D8
 70
     1
 10
0.0
 20
0.0
 30
0.0
  3
*D8
  1

  0
LINE
  5
8B6E
330
8410
100
AcDbEntity
  8
AM_5
100
AcDbLine
 10
6.121320343558977
 20
0.4644637832510355
 30
0.0
 11
-7.778173437644337
 21
-13.43502999795221
 31
0.0
  0
LINE
  5
8B6F
330
8410
100
AcDbEntity
  8
AM_5
100
AcDbLine
 10
0.4664161000389658
 20
6.119368026771508
 30
0.0
 11
-13.43307768116456
 21
-7.780125754431955
 31
0.0
  0
LINE
  5
8B70
330
8410
100
AcDbEntity
  8
AM_5
100
AcDbLine
 10
-14.49373785294438
 20
-5.305252020279034
 30
0.0
 11
-16.26150480591074
 21
-3.537485067312661
 31
0.0
  0
LINE
  5
8B71
330
8410
100
AcDbEntity
  8
AM_5
100
AcDbLine
 10
-5.303299703491423
 20
-14.49569016973204
 30
0.0
 11
0.094282059565888
 21
-19.89327193278937
 31
0.0
  0
LINE
  5
8B72
330
8410
100
AcDbEntity
  8
AM_5
100
AcDbLine
 10
-12.72597089997801
 20
-7.073018973245408
 30
0.0
 11
-7.071066656457787
 21
-12.72792321676566
 31
0.0
  0
INSERT
  5
8B73
330
8410
100
AcDbEntity
  8
AM_5
100
AcDbBlockReference
  2
_OPEN30
 10
-12.72597089997801
 20
-7.073018973245408
 30
0.0
 41
2.5
 42
2.5
 43
2.5
 50
314.9999999999999
  0
INSERT
  5
8B74
330
8410
100
AcDbEntity
  8
AM_5
100
AcDbBlockReference
  2
_OPEN30
 10
-7.071066656457787
 20
-12.72792321676566
 30
0.0
 41
2.5
 42
2.5
 43
2.5
 50
134.9999999999998
  0
MTEXT
  5
8B75
330
8410
100
AcDbEntity
  8
AM_5
 62
     2
100
AcDbMText
 10
0.4714056761987157
 20
-15.8863335060656
 30
0.0
 40
3.2
 41
0.0
 71
     5
 72
     1
  1
8
  7
ASAMI
 11
0.7071067811865458
 21
-0.7071067811865493
 31
0.0
 73
     1
 44
1.0
1001
ACAD
1000
MTEXTBEGIN
1070
    73
1070
     1
1070
    44
1040
1.0
1070
    74
1070
     0
1000
MTEXTEND
  0
POINT
  5
8B76
330
8410
100
AcDbEntity
  8
DEFPOINTS
 62
     0
100
AcDbPoint
 10
6.82842712474553
 20
1.171570564437558
 30
0.0
  0
POINT
  5
8B77
330
8410
100
AcDbEntity
  8
DEFPOINTS
 62
     0
100
AcDbPoint
 10
1.173522881225537
 20
6.826474807958049
 30
0.0
  0
POINT
  5
8B78
330
8410
100
AcDbEntity
  8
DEFPOINTS
 62
     0
100
AcDbPoint
 10
-12.72597089997804
 20
-7.073018973245365
 30
0.0
  0
ENDBLK
  5
841B
330
8410
100
AcDbEntity
  8
0
100
AcDbBlockEnd
  0
BLOCK
  5
84D5
330
84CB
100
AcDbEntity
  8
0
100
AcDbBlockBegin
  2
*D9
 70
     1
 10
0.0
 20
0.0
 30
0.0
  3
*D9
  1

  0
LINE
  5
8B79
330
84CB
100
AcDbEntity
  8
AM_5
100
AcDbLine
 10
-51.33878495252435
 20
52.25813686573768
 30
0.0
 11
-62.22371265623423
 21
41.37910715262005
 31
0.0
  0
LINE
  5
8B7A
330
84CB
100
AcDbEntity
  8
AM_5
100
AcDbLine
 10
-68.16607294635227
 20
70.7923224801886
 30
0.0
 11
-79.89988793688347
 21
59.06486544924239
 31
0.0
  0
LINE
  5
8B7B
330
84CB
100
AcDbEntity
  8
AM_5
100
AcDbLine
 10
-63.28370210307027
 20
43.85426823275126
 30
0.0
 11
-77.42530173046344
 21
58.00353463041361
 31
0.0
  0
INSERT
  5
8B7C
330
84CB
100
AcDbEntity
  8
AM_5
100
AcDbBlockReference
  2
_OPEN30
 10
-61.51641427644224
 20
42.08602228327126
 30
0.0
 41
2.5
 42
2.5
 43
2.5
 50
314.9844729543529
  0
INSERT
  5
8B7D
330
84CB
100
AcDbEntity
  8
AM_5
100
AcDbBlockReference
  2
_OPEN30
 10
-79.19258955709148
 20
59.7717805798936
 30
0.0
 41
2.5
 42
2.5
 43
2.5
 50
134.9844729543528
  0
MTEXT
  5
8B7E
330
84CB
100
AcDbEntity
  8
AM_5
 62
     2
100
AcDbMText
 10
-68.16187693941166
 20
53.12033833660122
 30
0.0
 40
3.2
 41
0.0
 71
     5
 72
     1
  1
25
  7
ASAMI
 11
0.7069151306512111
 21
-0.7072983797919951
 31
0.0
 73
     1
 44
1.0
1001
ACAD
1000
MTEXTBEGIN
1070
    73
1070
     1
1070
    44
1040
1.0
1070
    74
1070
     0
1000
MTEXTEND
  0
POINT
  5
8B7F
330
84CB
100
AcDbEntity
  8
DEFPOINTS
 62
     0
100
AcDbPoint
 10
-50.63148657273218
 20
52.96505199638906
 30
0.0
  0
POINT
  5
8B80
330
84CB
100
AcDbEntity
  8
DEFPOINTS
 62
     0
100
AcDbPoint
 10
-67.45877456656005
 20
71.49923761084005
 30
0.0
  0
POINT
  5
8B81
330
84CB
100
AcDbEntity
  8
DEFPOINTS
 62
     0
100
AcDbPoint
 10
-79.19258955709128
 20
59.77178057989387
 30
0.0
  0
ENDBLK
  5
84D6
330
84CB
100
AcDbEntity
  8
0
100
AcDbBlockEnd
  0
BLOCK
  5
8579
330
856F
100
AcDbEntity
  8
0
100
AcDbBlockBegin
  2
*D10
 70
     1
 10
0.0
 20
0.0
 30
0.0
  3
*D10
  1

  0
LINE
  5
8B82
330
856F
100
AcDbEntity
  8
AM_5
100
AcDbLine
 10
-12.32911758404852
 20
91.27356317245697
 30
0.0
 11
-1.424415149475315
 21
102.17826560703
 31
0.0
  0
LINE
  5
8B83
330
856F
100
AcDbEntity
  8
AM_5
100
AcDbLine
 10
-30.00678329449768
 20
108.9512288828998
 30
0.0
 11
-19.10208085992124
 21
119.8559313174761
 31
0.0
  0
LINE
  5
8B84
330
856F
100
AcDbEntity
  8
AM_5
100
AcDbLine
 10
-3.89928888362823
 20
103.2389257788099
 30
0.0
 11
-18.04142068814142
 21
117.3810575833232
 31
0.0
  0
INSERT
  5
8B85
330
856F
100
AcDbEntity
  8
AM_5
100
AcDbBlockReference
  2
_OPEN30
 10
-2.131521930661868
 20
101.4711588258435
 30
0.0
 41
2.5
 42
2.5
 43
2.5
 50
314.9999999999997
  0
INSERT
  5
8B86
330
856F
100
AcDbEntity
  8
AM_5
100
AcDbBlockReference
  2
_OPEN30
 10
-19.80918764110779
 20
119.1488245362896
 30
0.0
 41
2.5
 42
2.5
 43
2.5
 50
134.9999999999996
  0
MTEXT
  5
8B87
330
856F
100
AcDbEntity
  8
AM_5
 62
     2
100
AcDbMText
 10
-8.778323764206533
 20
112.5020227027448
 30
0.0
 40
3.2
 41
0.0
 71
     5
 72
     1
  1
25
  7
ASAMI
 11
0.7071067811865439
 21
-0.7071067811865511
 31
0.0
 73
     1
 44
1.0
1001
ACAD
1000
MTEXTBEGIN
1070
    73
1070
     1
1070
    44
1040
1.0
1070
    74
1070
     0
1000
MTEXTEND
  0
POINT
  5
8B88
330
856F
100
AcDbEntity
  8
DEFPOINTS
 62
     0
100
AcDbPoint
 10
-13.03622436523482
 20
90.56645639127044
 30
0.0
  0
POINT
  5
8B89
330
856F
100
AcDbEntity
  8
DEFPOINTS
 62
     0
100
AcDbPoint
 10
-30.71389007568392
 20
108.2441221017133
 30
0.0
  0
POINT
  5
8B8A
330
856F
100
AcDbEntity
  8
DEFPOINTS
 62
     0
100
AcDbPoint
 10
-19.80918764110745
 20
119.1488245362896
 30
0.0
  0
ENDBLK
  5
857A
330
856F
100
AcDbEntity
  8
0
100
AcDbBlockEnd
  0
BLOCK
  5
8710
330
870A
100
AcDbEntity
  8
0
100
AcDbBlockBegin
  2
*D11
 70
     1
 10
0.0
 20
0.0
 30
0.0
  3
*D11
  1

  0
LINE
  5
8B8B
330
870A
100
AcDbEntity
  8
AM_5
370
    -2
100
AcDbLine
 10
-113.4911069404874
 20
24.62553465338581
 30
0.0
 11
-118.449327837493
 21
8.75836450176779
 31
0.0
  0
MTEXT
  5
8B8C
330
870A
100
AcDbEntity
  8
AM_5
 62
     2
100
AcDbMText
 10
-118.5562943821839
 20
18.80966197194809
 30
0.0
 40
3.2
 41
0.0
 71
     5
 72
     1
  1
%%c280
  7
ASAMI
 11
0.2982602086425575
 21
0.9544845980635299
 31
0.0
 73
     1
 44
1.0
1001
ACAD
1000
MTEXTBEGIN
1070
    73
1070
     1
1070
    44
1040
1.0
1070
    74
1070
     0
1000
MTEXTEND
  0
INSERT
  5
8B8D
330
870A
100
AcDbEntity
  8
AM_5
370
    -2
100
AcDbBlockReference
  2
_OPEN30
 10
-119.1949783590994
 20
6.372153006608964
 30
0.0
 41
2.5
 42
2.5
 43
2.5
 50
252.6468628491159
  0
POINT
  5
8B8E
330
870A
100
AcDbEntity
  8
DEFPOINTS
 62
     0
100
AcDbPoint
 10
-119.1949783590993
 20
6.372153006609256
 30
0.0
  0
POINT
  5
8B8F
330
870A
100
AcDbEntity
  8
DEFPOINTS
 62
     0
100
AcDbPoint
 10
-77.43854914914095
 20
139.9999967355032
 30
0.0
  0
ENDBLK
  5
8711
330
870A
100
AcDbEntity
  8
0
100
AcDbBlockEnd
  0
BLOCK
  5
8743
330
8739
100
AcDbEntity
  8
0
100
AcDbBlockBegin
  2
*D12
 70
     1
 10
0.0
 20
0.0
 30
0.0
  3
*D12
  1

  0
LINE
  5
8B90
330
8739
100
AcDbEntity
  8
AM_5
100
AcDbLine
 10
4.999999999999354
 20
-0.0000023108162123
 30
0.0
 11
38.42460060119569
 21
-0.0000023108161179
 31
0.0
  0
LINE
  5
8B91
330
8739
100
AcDbEntity
  8
AM_5
100
AcDbLine
 10
37.42460060119569
 20
-2.50000231081612
 30
0.0
 11
37.4246006011957
 21
-5.00000231081612
 31
0.0
  0
LINE
  5
8B92
330
8739
100
AcDbEntity
  8
AM_5
100
AcDbLine
 10
37.42460060119567
 20
7.499998642858197
 30
0.0
 11
37.42460060119566
 21
9.999998642858196
 31
0.0
  0
LINE
  5
8B93
330
8739
100
AcDbEntity
  8
AM_5
100
AcDbLine
 10
37.42460060119569
 20
-0.0000023108161207
 30
0.0
 11
37.42460060119567
 21
4.999998642858197
 31
0.0
  0
INSERT
  5
8B94
330
8739
100
AcDbEntity
  8
AM_5
100
AcDbBlockReference
  2
_OPEN30
 10
37.42460060119569
 20
-0.0000023108161207
 30
0.0
 41
2.5
 42
2.5
 43
2.5
 50
90.00000000000017
  0
INSERT
  5
8B95
330
8739
100
AcDbEntity
  8
AM_5
100
AcDbBlockReference
  2
_OPEN30
 10
37.42460060119567
 20
4.999998642858197
 30
0.0
 41
2.5
 42
2.5
 43
2.5
 50
270.0000000000002
  0
MTEXT
  5
8B96
330
8739
100
AcDbEntity
  8
AM_5
 62
     2
100
AcDbMText
 10
34.32460060119568
 20
2.499998166021027
 30
0.0
 40
3.2
 41
0.0
 71
     5
 72
     1
  1
5
  7
ASAMI
 11
-0.0000000000000028
 21
1.0
 31
0.0
 73
     1
 44
1.0
1001
ACAD
1000
MTEXTBEGIN
1070
    73
1070
     1
1070
    44
1040
1.0
1070
    74
1070
     0
1000
MTEXTEND
  0
POINT
  5
8B97
330
8739
100
AcDbEntity
  8
DEFPOINTS
 62
     0
100
AcDbPoint
 10
3.999999999999354
 20
-0.0000023108162276
 30
0.0
  0
POINT
  5
8B98
330
8739
100
AcDbEntity
  8
DEFPOINTS
 62
     0
100
AcDbPoint
 10
10.77841567993135
 20
4.999998642858088
 30
0.0
  0
POINT
  5
8B99
330
8739
100
AcDbEntity
  8
DEFPOINTS
 62
     0
100
AcDbPoint
 10
37.42460060119569
 20
4.999998642858081
 30
0.0
  0
ENDBLK
  5
8744
330
8739
100
AcDbEntity
  8
0
100
AcDbBlockEnd
  0
ENDSEC
  0
SECTION
  2
ENTITIES
  0
TEXT
  5
388D
330
1F
100
AcDbEntity
  8
AM_6
100
AcDbText
 10
31.18794255966965
 20
-36.88788088315276
 30
0.0
 40
5.0
  1
GDER2525-845W
 51
359.9999999999998
 72
     4
 11
63.09270446443154
 21
-34.38788088315276
 31
0.0
100
AcDbText
  0
ARC
  5
7CE6
330
1F
100
AcDbEntity
  8
AM_0
100
AcDbCircle
 10
44.65876007080033
 20
12.13184602444956
 30
0.0
 40
4.0
100
AcDbArc
 50
45.00000125223688
 51
135.0000003416233
  0
LINE
  5
7CE7
330
1F
100
AcDbEntity
  8
AM_0
100
AcDbLine
 10
46.78008079528736
 20
8.596311165745586
 30
0.0
 11
25.56687545776328
 21
29.80951745694451
 31
0.0
  0
LINE
  5
7CE8
330
1F
100
AcDbEntity
  8
AM_0
100
AcDbLine
 10
9.655471801757359
 20
4.999998642858088
 30
0.0
 11
149.9999999999982
 21
4.999998642858524
 31
0.0
  0
LINE
  5
7CE9
330
1F
100
AcDbEntity
  8
AM_0
100
AcDbLine
 10
25.75735855102528
 20
29.99999673550854
 30
0.0
 11
149.9999999999982
 21
29.99999673550887
 31
0.0
  0
SPLINE
  5
7CEF
330
1F
100
AcDbEntity
  8
AM_0
100
AcDbSpline
210
0.0
220
0.0
230
1.0
 70
     8
 71
     3
 72
    11
 73
     7
 74
     5
 42
0.0000000001
 43
0.0000000001
 44
0.0000000001
 40
0.0
 40
0.0
 40
0.0
 40
0.0
 40
2.111659982544914
 40
4.961333270617407
 40
7.793446977648725
 40
8.97389874302183
 40
8.97389874302183
 40
8.97389874302183
 40
8.97389874302183
 10
-78.16080867063066
 20
8.906533791478294
 30
0.0
 10
-78.02721307465944
 20
8.214828634820605
 30
0.0
 10
-77.71333097215296
 20
6.589671253636758
 30
0.0
 10
-77.44453765204908
 20
4.01084957310946
 30
0.0
 10
-77.18201646165809
 20
1.715955329843399
 30
0.0
 10
-77.38023536931881
 20
0.3900616847673811
 30
0.0
 10
-77.43854914914063
 20
-0.0000013571420859
 30
0.0
 11
-78.16080867063066
 21
8.906533791478294
 31
0.0
 11
-77.78588496457063
 21
6.828424050267353
 31
0.0
 11
-77.43854914914066
 21
3.999997689183596
 31
0.0
 11
-77.29404841672063
 21
1.171572758610973
 31
0.0
 11
-77.43854914914063
 21
-0.0000013571420859
 31
0.0
  0
SPLINE
  5
7CF0
330
1F
100
AcDbEntity
  8
AM_0
100
AcDbSpline
210
0.0
220
0.0
230
1.0
 70
     8
 71
     3
 72
    11
 73
     7
 74
     5
 42
0.0000000001
 43
0.0000000001
 44
0.0000000001
 40
0.0
 40
0.0
 40
0.0
 40
0.0
 40
0.9851585515409706
 40
1.507597984120849
 40
2.159329963535668
 40
3.106278550522654
 40
3.106278550522654
 40
3.106278550522654
 40
3.106278550522654
 10
4.626216888427367
 20
6.238417221959536
 30
0.0
 10
4.367239870909743
 20
6.435430433150334
 30
0.0
 10
3.970924750939977
 20
6.736921720590142
 30
0.0
 10
3.520742282027674
 20
7.360319316707361
 30
0.0
 10
3.732868856779211
 20
8.099347391410057
 30
0.0
 10
3.531629930517242
 20
8.606267924164685
 30
0.0
 10
3.412429809570343
 20
8.906532837803498
 30
0.0
 11
4.626216888427367
 21
6.238417221959536
 31
0.0
 11
3.884304046630377
 21
6.886570527012452
 31
0.0
 11
3.619407653808368
 21
7.336873604710433
 31
0.0
 11
3.64332962036133
 21
7.988166405613526
 31
0.0
 11
3.412429809570343
 21
8.906532837803498
 31
0.0
  0
SPLINE
  5
7CF1
330
1F
100
AcDbEntity
  8
AM_0
100
AcDbSpline
210
0.0
220
0.0
230
1.0
 70
     8
 71
     3
 72
    11
 73
     7
 74
     5
 42
0.0000000001
 43
0.0000000001
 44
0.0000000001
 40
0.0
 40
0.0
 40
0.0
 40
0.0
 40
0.9851619610268917
 40
1.507598637425323
 40
2.159328588267623
 40
3.10627890350561
 40
3.10627890350561
 40
3.10627890350561
 40
3.10627890350561
 10
6.238418579101336
 20
4.626215531285708
 30
0.0
 10
6.435431887510788
 20
4.367236603827828
 30
0.0
 10
6.736922410960503
 20
3.970919760909536
 30
0.0
 10
7.3603225050296
 20
3.520744217341436
 30
0.0
 10
8.099348670228016
 20
3.732862147088419
 30
0.0
 10
8.606270070427498
 20
3.531627930796733
 30
0.0
 10
8.906536102294355
 20
3.412430359776918
 30
0.0
 11
6.238418579101336
 21
4.626215531285708
 31
0.0
 11
6.88657379150334
 21
3.884299828465998
 31
0.0
 11
7.336875915527344
 21
3.619407250340998
 31
0.0
 11
7.988166809081352
 21
3.643325879033511
 31
0.0
 11
8.906536102294355
 21
3.412430359776918
 31
0.0
  0
SPLINE
  5
7CF2
330
1F
100
AcDbEntity
  8
AM_0
100
AcDbSpline
210
0.0
220
0.0
230
1.0
 70
     8
 71
     3
 72
     9
 73
     5
 74
     0
 42
0.0000000001
 43
0.0000000001
 40
2.053115206074751
 40
2.053115206074751
 40
2.053115206074751
 40
2.053115206074751
 40
2.159328889657888
 40
3.10627978623619
 40
3.10627978623619
 40
3.10627978623619
 40
3.10627978623619
 10
15.67566719669994
 20
19.9195825428625
 30
0.0
 10
15.6397047205407
 20
19.91629617591507
 30
0.0
 10
15.28402544837272
 20
19.89214982151204
 30
0.0
 10
14.95008053188567
 20
20.02471863844502
 30
0.0
 10
14.64981460571232
 20
20.14391763394652
 30
0.0
  0
ARC
  5
7CF4
330
1F
100
AcDbEntity
  8
AM_11
100
AcDbCircle
 10
-77.43854914914102
 20
139.9999967355033
 30
0.0
 40
140.0
100
AcDbArc
 50
250.3979311991524
 51
280.4072718554124
  0
LINE
  5
7CF5
330
1F
100
AcDbEntity
  8
AM_0
100
AcDbLine
 10
-78.1034203649607
 20
11.19039590543029
 30
0.0
 11
-70.8077508093007
 21
15.8661180276233
 31
0.0
  0
LINE
  5
7CF6
330
1F
100
AcDbEntity
  8
AM_0
100
AcDbLine
 10
-77.29404841672063
 20
5.767881943638253
 30
0.0
 11
-68.86503230344067
 21
11.16995771115531
 31
0.0
  0
LINE
  5
7CF7
330
1F
100
AcDbEntity
  8
AM_0
100
AcDbLine
 10
-79.29404841672073
 20
29.80951364224728
 30
0.0
 11
-67.29838191281072
 21
29.80951364224727
 31
0.0
  0
LINE
  5
7CF8
330
1F
100
AcDbEntity
  8
AM_0
100
AcDbLine
 10
-77.2940331579307
 20
9.92749936765028
 30
0.0
 11
-67.29838191281068
 21
16.33362062161727
 31
0.0
  0
LINE
  5
7CF9
330
1F
100
AcDbEntity
  8
AM_0
100
AcDbLine
 10
-77.54851924191067
 20
4.999998642857914
 30
0.0
 11
-67.29838191281067
 21
4.999998642857912
 31
0.0
  0
LINE
  5
7CFA
330
1F
100
AcDbEntity
  8
AM_7
100
AcDbLine
 10
-77.43854914914074
 20
33.6142631983053
 30
0.0
 11
-77.43854914914066
 21
-2.408048794810046
 31
0.0
  0
LINE
  5
7CFC
330
1F
100
AcDbEntity
  8
AM_0
100
AcDbLine
 10
-102.2940484167206
 20
29.99999673550823
 30
0.0
 11
-102.2940484167206
 21
3.255840851720107
 31
0.0
  0
LINE
  5
7CFD
330
1F
100
AcDbEntity
  8
AM_0
100
AcDbLine
 10
-78.29404841672072
 20
26.2739797372173
 30
0.0
 11
-78.29404841672065
 21
11.94957788174928
 31
0.0
  0
LINE
  5
7CFE
330
1F
100
AcDbEntity
  8
AM_0
100
AcDbLine
 10
-85.55530940305065
 20
0.9966097611744515
 30
0.0
 11
-88.6406212927007
 21
21.88588960355025
 31
0.0
  0
LINE
  5
7CFF
330
1F
100
AcDbEntity
  8
AM_0
100
AcDbLine
 10
-79.3703576208207
 20
18.14489228909729
 30
0.0
 11
-77.89530574094065
 21
9.654452874119268
 31
0.0
  0
LINE
  5
7D00
330
1F
100
AcDbEntity
  8
AM_0
100
AcDbLine
 10
-102.2940484167206
 20
3.25584275906874
 30
0.0
 11
-90.29404841672063
 21
1.139918877537977
 31
0.0
  0
LINE
  5
7D01
330
1F
100
AcDbEntity
  8
AM_0
100
AcDbLine
 10
-85.55529414426063
 20
0.9966078538259324
 30
0.0
 11
-77.43854914914063
 21
-0.0000032644908324
 31
0.0
  0
LINE
  5
7D02
330
1F
100
AcDbEntity
  8
AM_0
100
AcDbLine
 10
-90.29404841672063
 20
1.139916970189344
 30
0.0
 11
-85.58019648801062
 21
1.139916970189343
 31
0.0
  0
LINE
  5
7D03
330
1F
100
AcDbEntity
  8
AM_0
100
AcDbLine
 10
-86.72149287473066
 20
8.892407013829254
 30
0.0
 11
-77.89530574094065
 21
9.654453827794295
 31
0.0
  0
LINE
  5
7D04
330
1F
100
AcDbEntity
  8
AM_0
100
AcDbLine
 10
-77.29404841672065
 20
9.927498413975284
 30
0.0
 11
-77.29404841672065
 21
4.999998642857914
 31
0.0
  0
LINE
  5
7D05
330
1F
100
AcDbEntity
  8
AM_0
100
AcDbLine
 10
-77.63991938840064
 20
5.767885758336317
 30
0.0
 11
-77.29404841672063
 21
5.767885758336317
 31
0.0
  0
LINE
  5
7D06
330
1F
100
AcDbEntity
  8
AM_0
100
AcDbLine
 10
-78.16080867063066
 20
8.906535698826299
 30
0.0
 11
-77.73197566281067
 21
9.326722695286289
 31
0.0
  0
LINE
  5
7D07
330
1F
100
AcDbEntity
  8
AM_0
100
AcDbLine
 10
-77.78890620480069
 20
9.654452874119268
 30
0.0
 11
-77.73196040402069
 21
9.326720787938281
 31
0.0
  0
LINE
  5
7D08
330
1F
100
AcDbEntity
  8
AM_0
100
AcDbLine
 10
-77.78890620480069
 20
9.654453827794295
 30
0.0
 11
-77.89530574094065
 21
9.654453827794295
 31
0.0
  0
LINE
  5
7D09
330
1F
100
AcDbEntity
  8
AM_0
100
AcDbLine
 10
-77.94274531613069
 20
9.927498413975284
 30
0.0
 11
-77.29404841672065
 21
9.927498413975284
 31
0.0
  0
LINE
  5
7D0A
330
1F
100
AcDbEntity
  8
AM_0
100
AcDbLine
 10
-102.2940484167206
 20
29.99999673550823
 30
0.0
 11
-79.29404841672073
 21
29.99999673550828
 31
0.0
  0
LINE
  5
7D0B
330
1F
100
AcDbEntity
  8
AM_0
100
AcDbLine
 10
-79.29404841672073
 20
29.99999673550828
 30
0.0
 11
-79.29404841672073
 21
23.89922769254029
 31
0.0
  0
LINE
  5
7D0C
330
1F
100
AcDbEntity
  8
AM_0
100
AcDbLine
 10
-82.49793635617072
 20
23.89922769254028
 30
0.0
 11
-88.73708735715069
 21
22.53902681058224
 31
0.0
  0
LINE
  5
7D0D
330
1F
100
AcDbEntity
  8
AM_0
100
AcDbLine
 10
-80.97835932980069
 20
23.5563493508653
 30
0.0
 11
-88.6406212927007
 21
21.88589151089926
 31
0.0
  0
LINE
  5
7D0E
330
1F
100
AcDbEntity
  8
AM_0
100
AcDbLine
 10
-87.97770320188069
 20
17.39757020657827
 30
0.0
 11
-79.3703576208207
 21
18.14489419644626
 31
0.0
  0
LINE
  5
7D0F
330
1F
100
AcDbEntity
  8
AM_0
100
AcDbLine
 10
-79.4744988561707
 20
19.35019738858527
 30
0.0
 11
-87.99184809934072
 21
17.49332292264227
 31
0.0
  0
ARC
  5
7D10
330
1F
100
AcDbEntity
  8
AM_0
100
AcDbCircle
 10
-86.92838679563068
 20
20.14558274930226
 30
0.0
 40
3.0
100
AcDbArc
 50
127.0781693573259
 51
188.4017797258578
  0
ARC
  5
7D11
330
1F
100
AcDbEntity
  8
AM_0
100
AcDbCircle
 10
-86.9631463171107
 20
20.38098008817026
 30
0.0
 40
3.0
100
AcDbArc
 50
188.4017697079412
 51
249.7253869066613
  0
LINE
  5
7D12
330
1F
100
AcDbEntity
  8
AM_0
100
AcDbLine
 10
-80.97835932980069
 20
23.5563474435163
 30
0.0
 11
-80.2249718786307
 21
19.21981485074325
 31
0.0
  0
ARC
  5
7D13
330
1F
100
AcDbEntity
  8
AM_0
100
AcDbCircle
 10
-79.6409722448407
 20
17.68063600247628
 30
0.0
 40
3.0
100
AcDbArc
 50
90.00000250447854
 51
105.8237886225886
  0
LINE
  5
7D14
330
1F
100
AcDbEntity
  8
AM_0
100
AcDbLine
 10
-79.6409722448407
 20
20.68063790982528
 30
0.0
 11
-78.2940484167207
 21
20.68063790982528
 31
0.0
  0
LINE
  5
7D15
330
1F
100
AcDbEntity
  8
AM_0
100
AcDbLine
 10
-79.3703728796107
 20
18.14489038174928
 30
0.0
 11
-79.4744988561707
 21
19.35019738858527
 31
0.0
  0
ARC
  5
7D16
330
1F
100
AcDbEntity
  8
AM_0
100
AcDbCircle
 10
-79.6409722448407
 20
22.98393686002028
 30
0.0
 40
3.0
100
AcDbArc
 50
90.00000250447854
 51
162.2360353552079
  0
LINE
  5
7D17
330
1F
100
AcDbEntity
  8
AM_0
100
AcDbLine
 10
-79.29404841672073
 20
26.2739797372173
 30
0.0
 11
-78.29404841672072
 21
26.2739797372173
 31
0.0
  0
LINE
  5
7D18
330
1F
100
AcDbEntity
  8
AM_0
100
AcDbLine
 10
-79.4789696813707
 20
25.98393686002028
 30
0.0
 11
-79.29404841672073
 21
25.98393686002028
 31
0.0
  0
LINE
  5
7D19
330
1F
100
AcDbEntity
  8
AM_0
100
AcDbLine
 10
-79.29404841672073
 20
23.89922769254029
 30
0.0
 11
-78.29404841672072
 21
23.89922769254029
 31
0.0
  0
LINE
  5
7D1A
330
1F
100
AcDbEntity
  8
AM_7
100
AcDbLine
 10
-50.40972137450484
 20
91.64397866910238
 30
0.0
 11
-22.83889007568375
 21
64.07314737027438
 31
0.0
  0
LINE
  5
7D1B
330
1F
100
AcDbEntity
  8
AM_0
100
AcDbLine
 10
-30.54195404052778
 20
58.91859109586037
 30
0.0
 11
-17.0420761108408
 21
72.41846902554837
 31
0.0
  0
LINE
  5
7D1C
330
1F
100
AcDbEntity
  8
AM_11
100
AcDbLine
 10
1.171573638915363
 20
1.171572758611149
 30
0.0
 11
-50.62728335695583
 21
52.97043118400527
 31
0.0
  0
ARC
  5
7D23
330
1F
100
AcDbEntity
  8
AM_0
100
AcDbCircle
 10
-69.99837886105069
 20
14.60322435086532
 30
0.0
 40
1.5
100
AcDbArc
 50
32.65542811996311
 51
122.6554306244428
  0
LINE
  5
7D24
330
1F
100
AcDbEntity
  8
AM_0
100
AcDbLine
 10
-67.29838191281072
 20
29.80951364224727
 30
0.0
 11
-67.29838191281067
 21
4.999998642857912
 31
0.0
  0
LINE
  5
7D25
330
1F
100
AcDbEntity
  8
AM_0
100
AcDbLine
 10
-68.73548518430069
 20
15.41260202115332
 30
0.0
 11
-68.86503230344067
 21
11.16996152585331
 31
0.0
  0
LINE
  5
7D26
330
1F
100
AcDbEntity
  8
AM_0
100
AcDbLine
 10
-55.22247314452478
 20
58.94035394376033
 30
0.0
 11
-50.63148657273217
 21
52.96505199638904
 31
0.0
  0
LINE
  5
7D27
330
1F
100
AcDbEntity
  8
AM_0
100
AcDbLine
 10
-55.2049179077148
 20
59.2209745187123
 30
0.0
 11
-55.12593078612478
 21
59.58634240811631
 31
0.0
  0
LINE
  5
7D28
330
1F
100
AcDbEntity
  8
AM_0
100
AcDbLine
 10
-67.4587783813448
 20
71.49924142545032
 30
0.0
 11
-55.20039367675478
 21
59.24141748135833
 31
0.0
  0
LINE
  5
7D29
330
1F
100
AcDbEntity
  8
AM_0
100
AcDbLine
 10
-55.21773529052481
 20
58.9463163155873
 30
0.0
 11
-55.20557403564477
 21
59.0208287972763
 31
0.0
  0
LINE
  5
7D2A
330
1F
100
AcDbEntity
  8
AM_0
100
AcDbLine
 10
-55.21628570556476
 20
58.94830758755934
 30
0.0
 11
-55.2056808471648
 21
59.02084024136832
 31
0.0
  0
LINE
  5
7D2B
330
1F
100
AcDbEntity
  8
AM_0
100
AcDbLine
 10
-55.20585632323479
 20
59.02080590909232
 30
0.0
 11
-55.20485687255479
 21
59.22092111295029
 31
0.0
  0
LINE
  5
7D2D
330
1F
100
AcDbEntity
  8
AM_0
100
AcDbLine
 10
-42.92839050292478
 20
62.01228769009833
 30
0.0
 11
-34.35457611084077
 21
61.27831704800838
 31
0.0
  0
LINE
  5
7D2E
330
1F
100
AcDbEntity
  8
AM_0
100
AcDbLine
 10
-54.22094726562478
 20
61.40591867154433
 30
0.0
 11
-53.7587814331048
 21
62.04188974088033
 31
0.0
  0
LINE
  5
7D2F
330
1F
100
AcDbEntity
  8
AM_0
100
AcDbLine
 10
-54.06785583495478
 20
61.56058175748132
 30
0.0
 11
-53.64826202392477
 21
62.09769113248132
 31
0.0
  0
LINE
  5
7D30
330
1F
100
AcDbEntity
  8
AM_0
100
AcDbLine
 10
-53.5764694213848
 20
62.18957956021633
 30
0.0
 11
-48.14284515380478
 21
56.15025003140736
 31
0.0
  0
LINE
  5
7D31
330
1F
100
AcDbEntity
  8
AM_0
100
AcDbLine
 10
-51.4712753295848
 20
64.88419778531332
 30
0.0
 11
-45.24762725829476
 21
59.04379327481542
 31
0.0
  0
LINE
  5
7D32
330
1F
100
AcDbEntity
  8
AM_0
100
AcDbLine
 10
-44.69272613525477
 20
59.75404794400539
 30
0.0
 11
-37.30485534667982
 21
69.21007211392638
 31
0.0
  0
LINE
  5
7D33
330
1F
100
AcDbEntity
  8
AM_0
100
AcDbLine
 10
-51.39078521728481
 20
64.98717172330131
 30
0.0
 11
-44.69272613525477
 21
59.75407083218835
 31
0.0
  0
LINE
  5
7D34
330
1F
100
AcDbEntity
  8
AM_0
100
AcDbLine
 10
-44.30004882812478
 20
60.1223951119734
 30
0.0
 11
-42.83189392089478
 21
62.00152261441531
 31
0.0
  0
LINE
  5
7D35
330
1F
100
AcDbEntity
  8
AM_0
100
AcDbLine
 10
-44.30014038085477
 20
60.12240274136838
 30
0.0
 11
-31.82087707519578
 21
59.05410821622144
 31
0.0
  0
LINE
  5
7D36
330
1F
100
AcDbEntity
  8
AM_0
100
AcDbLine
 10
-48.34532928466476
 20
55.89101464932734
 30
0.0
 11
-46.37978363036476
 21
58.40669305508938
 31
0.0
  0
LINE
  5
7D37
330
1F
100
AcDbEntity
  8
AM_0
100
AcDbLine
 10
-47.95130920409475
 20
55.58320291226632
 30
0.0
 11
-45.95981597900474
 21
58.13216836636838
 31
0.0
  0
LINE
  5
7D38
330
1F
100
AcDbEntity
  8
AM_0
100
AcDbLine
 10
-48.14276123046477
 20
56.15025766080132
 30
0.0
 11
-46.37973785400474
 21
58.4067121285754
 31
0.0
  0
LINE
  5
7D39
330
1F
100
AcDbEntity
  8
AM_0
100
AcDbLine
 10
-48.57691192626477
 20
55.59472329800835
 30
0.0
 11
-48.14289093017477
 21
56.15021188443436
 31
0.0
  0
LINE
  5
7D3C
330
1F
100
AcDbEntity
  8
AM_0
100
AcDbLine
 10
-48.99649047851479
 20
55.05759484952232
 30
0.0
 11
-48.57689666747477
 21
55.59470803921936
 31
0.0
  0
LINE
  5
7D3D
330
1F
100
AcDbEntity
  8
AM_0
100
AcDbLine
 10
-49.38928985595477
 20
54.55479867642632
 30
0.0
 11
-48.99649047851479
 21
55.05762536710032
 31
0.0
  0
LINE
  5
7D3E
330
1F
100
AcDbEntity
  8
AM_0
100
AcDbLine
 10
-48.52568817138477
 20
55.66022165005936
 30
0.0
 11
-48.50468444823475
 21
55.68700845425835
 31
0.0
  0
LINE
  5
7D3F
330
1F
100
AcDbEntity
  8
AM_0
100
AcDbLine
 10
-48.52564239501477
 20
55.66021020596732
 30
0.0
 11
-48.13158416747477
 21
55.35240228360434
 31
0.0
  0
LINE
  5
7D40
330
1F
100
AcDbEntity
  8
AM_0
100
AcDbLine
 10
-48.13159942626477
 20
55.35240228360434
 30
0.0
 11
-48.11066436767477
 21
55.37926919644636
 31
0.0
  0
LINE
  5
7D41
330
1F
100
AcDbEntity
  8
AM_0
100
AcDbLine
 10
-48.11067962646478
 20
55.37926156705139
 30
0.0
 11
-48.04915618896478
 21
55.45789392178839
 31
0.0
  0
LINE
  5
7D42
330
1F
100
AcDbEntity
  8
AM_0
100
AcDbLine
 10
-48.50456237792474
 20
55.68704278653437
 30
0.0
 11
-48.44304656982477
 21
55.76581628506936
 31
0.0
  0
LINE
  5
7D43
330
1F
100
AcDbEntity
  8
AM_0
100
AcDbLine
 10
-48.44315338134478
 20
55.76578195279436
 30
0.0
 11
-48.34535980224477
 21
55.89099557584136
 31
0.0
  0
LINE
  5
7D44
330
1F
100
AcDbEntity
  8
AM_0
100
AcDbLine
 10
-48.34531402587477
 20
55.89101464932734
 30
0.0
 11
-47.95125579833476
 21
55.58322580045039
 31
0.0
  0
LINE
  5
7D45
330
1F
100
AcDbEntity
  8
AM_0
100
AcDbLine
 10
-48.04917907714475
 20
55.45790155118235
 30
0.0
 11
-47.95132446288477
 21
55.58320291226632
 31
0.0
  0
LINE
  5
7D48
330
1F
100
AcDbEntity
  8
AM_0
100
AcDbLine
 10
-50.63148657273217
 20
52.96505199638904
 30
0.0
 11
-49.38929748534476
 21
54.55477960294032
 31
0.0
  0
LINE
  5
7D49
330
1F
100
AcDbEntity
  8
AM_0
100
AcDbLine
 10
-54.97132110595477
 20
60.02231271451229
 30
0.0
 11
-54.74610137939478
 21
60.51607949918031
 31
0.0
  0
LINE
  5
7D4A
330
1F
100
AcDbEntity
  8
AM_0
100
AcDbLine
 10
-54.90691375732481
 20
60.19006784146633
 30
0.0
 11
-54.61253356933479
 21
60.77433450406329
 31
0.0
  0
LINE
  5
7D4B
330
1F
100
AcDbEntity
  8
AM_0
100
AcDbLine
 10
-54.74612426757477
 20
60.51605661099734
 30
0.0
 11
-54.45671081542478
 21
61.05280740445432
 31
0.0
  0
LINE
  5
7D4C
330
1F
100
AcDbEntity
  8
AM_0
100
AcDbLine
 10
-54.4566879272448
 20
61.05279977505926
 30
0.0
 11
-54.42819976806478
 21
61.09939248746229
 31
0.0
  0
LINE
  5
7D4D
330
1F
100
AcDbEntity
  8
AM_0
100
AcDbLine
 10
-54.4281845092748
 20
61.09943826382931
 30
0.0
 11
-54.06784820556477
 21
61.56060464566531
 31
0.0
  0
LINE
  5
7D4E
330
1F
100
AcDbEntity
  8
AM_0
100
AcDbLine
 10
-54.34466552734478
 20
61.20626504605532
 30
0.0
 11
-54.22092437743477
 21
61.4059415597273
 31
0.0
  0
LINE
  5
7D4F
330
1F
100
AcDbEntity
  8
AM_0
100
AcDbLine
 10
-55.12574005126476
 20
59.58628518765733
 30
0.0
 11
-54.97131347655478
 21
60.02226693814532
 31
0.0
  0
LINE
  5
7D50
330
1F
100
AcDbEntity
  8
AM_0
100
AcDbLine
 10
-54.96715545653479
 20
60.02087838834133
 30
0.0
 11
-54.90685272216481
 21
60.19008310025533
 31
0.0
  0
LINE
  5
7D51
330
1F
100
AcDbEntity
  8
AM_0
100
AcDbLine
 10
-45.95967102050475
 20
58.13219888394639
 30
0.0
 11
-45.24747467040477
 21
59.04380853360436
 31
0.0
  0
LINE
  5
7D52
330
1F
100
AcDbEntity
  8
AM_0
100
AcDbLine
 10
-46.37979888915474
 20
58.40670068448339
 30
0.0
 11
-45.95978546142474
 21
58.13219506924935
 31
0.0
  0
LINE
  5
7D53
330
1F
100
AcDbEntity
  8
AM_0
100
AcDbLine
 10
-45.24761962890477
 20
59.04377801602635
 30
0.0
 11
-44.69276428222477
 21
59.75404794400539
 31
0.0
  0
LINE
  5
7D54
330
1F
100
AcDbEntity
  8
AM_0
100
AcDbLine
 10
-44.34822082519477
 20
60.12659127896639
 30
0.0
 11
-44.30030822753477
 21
60.1224256295514
 31
0.0
  0
LINE
  5
7D55
330
1F
100
AcDbEntity
  8
AM_0
100
AcDbLine
 10
-44.37815093993477
 20
60.1566282052354
 30
0.0
 11
-44.34809875487478
 21
60.1265760201764
 31
0.0
  0
LINE
  5
7D56
330
1F
100
AcDbEntity
  8
AM_0
100
AcDbLine
 10
-31.8206787109378
 20
59.05410821622144
 30
0.0
 11
-30.54219818115279
 21
58.91861398404437
 31
0.0
  0
ARC
  5
7D57
330
1F
100
AcDbEntity
  8
AM_0
100
AcDbCircle
 10
-34.52516937255878
 20
59.28561074918043
 30
0.0
 40
2.0
100
AcDbArc
 50
355.107084705036
 51
85.10708720951537
  0
LINE
  5
7D58
330
1F
100
AcDbEntity
  8
AM_0
100
AcDbLine
 10
-43.92247009276481
 20
74.54610116666135
 30
0.0
 11
-36.74996185302783
 21
69.92027719205139
 31
0.0
  0
LINE
  5
7D59
330
1F
100
AcDbEntity
  8
AM_0
100
AcDbLine
 10
-44.0029296874948
 20
74.44318826382936
 30
0.0
 11
-37.30486297607479
 21
69.21008737271634
 31
0.0
  0
LINE
  5
7D5A
330
1F
100
AcDbEntity
  8
AM_0
100
AcDbLine
 10
-42.83187866210478
 20
62.00156839078233
 30
0.0
 11
-37.54187774658278
 21
68.77252633755936
 31
0.0
  0
LINE
  5
7D5B
330
1F
100
AcDbEntity
  8
AM_0
100
AcDbLine
 10
-53.75879669189478
 20
62.0419278878523
 30
0.0
 11
-43.82263183593481
 21
74.75982339566536
 31
0.0
  0
LINE
  5
7D5C
330
1F
100
AcDbEntity
  8
AM_0
100
AcDbLine
 10
-51.39078521728481
 20
64.98715646451231
 30
0.0
 11
-44.0029144287048
 21
74.44318063443434
 31
0.0
  0
LINE
  5
7D5D
330
1F
100
AcDbEntity
  8
AM_0
100
AcDbLine
 10
-53.64810943603477
 20
62.09772165005926
 30
0.0
 11
-53.57635498046478
 21
62.1895643014263
 31
0.0
  0
LINE
  5
7D5E
330
1F
100
AcDbEntity
  8
AM_0
100
AcDbLine
 10
-53.5764999389648
 20
62.18957956021633
 30
0.0
 11
-51.4712905883748
 21
64.88422067349737
 31
0.0
  0
LINE
  5
7D5F
330
1F
100
AcDbEntity
  8
AM_0
100
AcDbLine
 10
-51.47126007079481
 20
64.88419015591936
 30
0.0
 11
-51.39079284667481
 21
64.98714120572336
 31
0.0
  0
LINE
  5
7D60
330
1F
100
AcDbEntity
  8
AM_0
100
AcDbLine
 10
-36.95152282714878
 20
68.77248056119232
 30
0.0
 11
-28.70934295654383
 21
77.01466043179838
 31
0.0
  0
LINE
  5
7D61
330
1F
100
AcDbEntity
  8
AM_0
100
AcDbLine
 10
-36.40566253662179
 20
71.17300088589939
 30
0.0
 11
-34.64085388183681
 21
73.43191964810639
 31
0.0
  0
LINE
  5
7D62
330
1F
100
AcDbEntity
  8
AM_0
100
AcDbLine
 10
-36.03762817382881
 20
70.83195932095839
 30
0.0
 11
-34.04624938964881
 21
73.38084085171935
 31
0.0
  0
LINE
  5
7D63
330
1F
100
AcDbEntity
  8
AM_0
100
AcDbLine
 10
-36.40570831298881
 20
71.17301614468842
 30
0.0
 11
-36.0377044677738
 21
70.83194406216938
 31
0.0
  0
LINE
  5
7D64
330
1F
100
AcDbEntity
  8
AM_0
100
AcDbLine
 10
-36.75001525878984
 20
69.92022378629034
 30
0.0
 11
-36.0376434326178
 21
70.83198983853641
 31
0.0
  0
LINE
  5
7D65
330
1F
100
AcDbEntity
  8
AM_0
100
AcDbLine
 10
-37.30487823486381
 20
69.21011026089935
 30
0.0
 11
-36.75000000000084
 21
69.92026956265736
 31
0.0
  0
LINE
  5
7D66
330
1F
100
AcDbEntity
  8
AM_0
100
AcDbLine
 10
-37.64670562744181
 20
68.77258737271635
 30
0.0
 11
-37.54221343994181
 21
68.77249581998134
 31
0.0
  0
LINE
  5
7D67
330
1F
100
AcDbEntity
  8
AM_0
100
AcDbLine
 10
-37.5419998168948
 20
68.77249581998134
 30
0.0
 11
-36.9515151977548
 21
68.77248056119232
 31
0.0
  0
LINE
  5
7D68
330
1F
100
AcDbEntity
  8
AM_0
100
AcDbLine
 10
-37.64665222167982
 20
68.77248819058738
 30
0.0
 11
-36.68926239013784
 21
69.99786813443435
 31
0.0
  0
LINE
  5
7D6B
330
1F
100
AcDbEntity
  8
AM_0
100
AcDbLine
 10
10.03223419189435
 20
5.789592339451417
 30
0.0
 11
15.41260147094632
 21
11.16996057217852
 31
0.0
  0
LINE
  5
7D6C
330
1F
100
AcDbEntity
  8
AM_7
100
AcDbLine
 10
-0.5051841735846365
 20
-0.5051841002144205
 30
0.0
 11
22.47749328613234
 21
22.47749002164152
 31
0.0
  0
LINE
  5
7D6D
330
1F
100
AcDbEntity
  8
AM_0
100
AcDbLine
 10
5.789592742919356
 20
10.03223378842647
 30
0.0
 11
25.75735855102528
 21
29.99999673550854
 31
0.0
  0
LINE
  5
7D6E
330
1F
100
AcDbEntity
  8
AM_0
100
AcDbLine
 10
10.77841567993135
 20
4.999998642858088
 30
0.0
 11
5.850914001464334
 21
9.927500321324489
 31
0.0
  0
ARC
  5
7D70
330
1F
100
AcDbEntity
  8
AM_0
100
AcDbCircle
 10
3.999999999999347
 20
3.999997689183771
 30
0.0
 40
3.1599998474121
100
AcDbArc
 50
133.0000663111303
 51
224.9999550347744
  0
ARC
  5
7D71
330
1F
100
AcDbEntity
  8
AM_0
100
AcDbCircle
 10
6.54798507690336
 20
-0.3020281057992516
 30
0.0
 40
5.0
100
AcDbArc
 50
56.20558228380503
 51
73.9713175414534
  0
ARC
  5
7D72
330
1F
100
AcDbEntity
  8
AM_0
100
AcDbCircle
 10
3.999999999999347
 20
3.999997689183771
 30
0.0
 40
4.0
100
AcDbArc
 50
135.0000003416233
 51
319.0003515248075
  0
ARC
  5
7D73
330
1F
100
AcDbEntity
  8
AM_0
100
AcDbCircle
 10
9.309169769286345
 20
9.309212281163498
 30
0.0
 40
5.0
100
AcDbArc
 50
196.0287004446368
 51
253.9712783815521
  0
ARC
  5
7D74
330
1F
100
AcDbEntity
  8
AM_0
100
AcDbCircle
 10
3.999999999999347
 20
3.999997689183771
 30
0.0
 40
1.209999799728399
100
AcDbArc
 50
133.0002848771851
 51
224.9999550347744
  0
ARC
  5
7D75
330
1F
100
AcDbEntity
  8
AM_0
100
AcDbCircle
 10
3.999999999999347
 20
3.999997689183771
 30
0.0
 40
2.189999818801899
100
AcDbArc
 50
132.9999023865921
 51
224.9999550347744
  0
ARC
  5
7D76
330
1F
100
AcDbEntity
  8
AM_0
100
AcDbCircle
 10
3.999999999999347
 20
3.999997689183771
 30
0.0
 40
2.699999809265098
100
AcDbArc
 50
133.0000389903711
 51
224.9999413744003
  0
LINE
  5
7D78
330
1F
100
AcDbEntity
  8
AM_0
100
AcDbLine
 10
4.884929656982337
 20
3.174781872685968
 30
0.0
 11
6.238414764403332
 21
4.626218392308771
 31
0.0
  0
LINE
  5
7D79
330
1F
100
AcDbEntity
  8
AM_0
100
AcDbLine
 10
6.828430175780369
 20
1.171578003820002
 30
0.0
 11
9.658424377441349
 21
4.206378533299982
 31
0.0
  0
ARC
  5
7D7A
330
1F
100
AcDbEntity
  8
AM_0
100
AcDbCircle
 10
3.999999999999347
 20
3.999997689183771
 30
0.0
 40
3.1599998474121
100
AcDbArc
 50
224.999972337624
 51
316.9998815518359
  0
ARC
  5
7D7B
330
1F
100
AcDbEntity
  8
AM_0
100
AcDbCircle
 10
3.999999999999347
 20
3.999997689183771
 30
0.0
 40
2.699999809265098
100
AcDbArc
 50
224.999972337624
 51
316.9998815518359
  0
LINE
  5
7D7D
330
1F
100
AcDbEntity
  8
AM_0
100
AcDbLine
 10
5.601673126220334
 20
2.506427361424982
 30
0.0
 11
6.886562347411343
 21
3.884299828465998
 31
0.0
  0
LINE
  5
7D7E
330
1F
100
AcDbEntity
  8
AM_0
100
AcDbLine
 10
5.974651336669355
 20
2.158600880559504
 30
0.0
 11
7.336875915527344
 21
3.61941106503815
 31
0.0
  0
ARC
  5
7D7F
330
1F
100
AcDbEntity
  8
AM_0
100
AcDbCircle
 10
3.999999999999347
 20
3.999997689183771
 30
0.0
 40
1.209999799728399
100
AcDbArc
 50
224.999972337624
 51
316.9996629857812
  0
ARC
  5
7D80
330
1F
100
AcDbEntity
  8
AM_0
100
AcDbCircle
 10
3.999999999999347
 20
3.999997689183771
 30
0.0
 40
2.189999818801899
100
AcDbArc
 50
224.999972337624
 51
317.0000181556208
  0
LINE
  5
7D81
330
1F
100
AcDbEntity
  8
AM_0
100
AcDbLine
 10
6.311077117919382
 20
1.844876839574396
 30
0.0
 11
7.988162994384341
 21
3.643331124242251
 31
0.0
  0
LINE
  5
7D82
330
1F
100
AcDbEntity
  8
AM_0
100
AcDbLine
 10
1.844871520995385
 20
6.311083390172542
 30
0.0
 11
3.643325805663325
 21
7.988169266636475
 31
0.0
  0
LINE
  5
7D83
330
1F
100
AcDbEntity
  8
AM_0
100
AcDbLine
 10
1.173522881225326
 20
6.826474807957766
 30
0.0
 11
4.206150054931358
 21
9.654446198399512
 31
0.0
  0
LINE
  5
7D84
330
1F
100
AcDbEntity
  8
AM_0
100
AcDbLine
 10
4.850910186767351
 20
8.806461884434442
 30
0.0
 11
5.911430358886352
 21
9.866980149205462
 31
0.0
  0
LINE
  5
7D85
330
1F
100
AcDbEntity
  8
AM_0
100
AcDbLine
 10
5.411437988280342
 20
9.649828507359472
 30
0.0
 11
5.791709899902345
 21
10.03009755795747
 31
0.0
  0
ARC
  5
7D86
330
1F
100
AcDbEntity
  8
AM_0
100
AcDbCircle
 10
9.309169769286345
 20
9.309212281163498
 30
0.0
 40
5.599999904632599
100
AcDbArc
 50
225.0002865263238
 51
236.7461765023707
  0
LINE
  5
7D87
330
1F
100
AcDbEntity
  8
AM_0
100
AcDbLine
 10
7.459754943847374
 20
7.593597008641437
 30
0.0
 11
4.850826263427338
 21
8.80627496426854
 31
0.0
  0
LINE
  5
7D88
330
1F
100
AcDbEntity
  8
AM_0
100
AcDbLine
 10
8.81070327758735
 20
4.846669747289126
 30
0.0
 11
4.850921630859348
 21
8.806450440342532
 31
0.0
  0
LINE
  5
7D89
330
1F
100
AcDbEntity
  8
AM_0
100
AcDbLine
 10
8.808319091796336
 20
4.84853704160065
 30
0.0
 11
4.848537445068333
 21
8.80831773465451
 31
0.0
  0
ARC
  5
7D8A
330
1F
100
AcDbEntity
  8
AM_0
100
AcDbCircle
 10
-0.3020706176766314
 20
6.548026635106396
 30
0.0
 40
4.999998569488498
100
AcDbArc
 50
16.02867984038267
 51
33.76163531265336
  0
ARC
  5
7D8B
330
1F
100
AcDbEntity
  8
AM_0
100
AcDbCircle
 10
9.309215545653332
 20
9.309166504796509
 30
0.0
 40
5.599999904632599
100
AcDbArc
 50
213.2537545124917
 51
224.9996444885425
  0
LINE
  5
7D8C
330
1F
100
AcDbEntity
  8
AM_0
100
AcDbLine
 10
5.411453247070343
 20
9.65009267514546
 30
0.0
 11
4.206146240234348
 21
9.654454781468503
 31
0.0
  0
LINE
  5
7D8D
330
1F
100
AcDbEntity
  8
AM_0
100
AcDbLine
 10
3.174777984618347
 20
4.884934021886409
 30
0.0
 11
4.626213073730385
 21
6.238421036656462
 31
0.0
  0
LINE
  5
7D8E
330
1F
100
AcDbEntity
  8
AM_0
100
AcDbLine
 10
2.506435394286372
 20
5.601689888890803
 30
0.0
 11
3.884307861327359
 21
6.886576249058464
 31
0.0
  0
LINE
  5
7D8F
330
1F
100
AcDbEntity
  8
AM_0
100
AcDbLine
 10
2.158607482909362
 20
5.974644257481429
 30
0.0
 11
3.619419097900363
 21
7.336871697362482
 31
0.0
  0
LINE
  5
7D90
330
1F
100
AcDbEntity
  8
AM_0
100
AcDbLine
 10
8.810729980468353
 20
4.846643998082697
 30
0.0
 11
7.598072052001358
 21
7.455535485203483
 31
0.0
  0
LINE
  5
7D91
330
1F
100
AcDbEntity
  8
AM_0
100
AcDbLine
 10
8.81070327758735
 20
4.846669747289126
 30
0.0
 11
9.871219635009367
 21
5.907188965733497
 31
0.0
  0
LINE
  5
7D92
330
1F
100
AcDbEntity
  8
AM_0
100
AcDbLine
 10
9.65842819213833
 20
4.206368996556817
 30
0.0
 11
9.65395736694333
 21
5.406861855443422
 31
0.0
  0
LINE
  5
7D93
330
1F
100
AcDbEntity
  8
AM_0
100
AcDbLine
 10
7.598014831542374
 20
7.455613686497427
 30
0.0
 11
7.960395812987345
 21
7.817992760594449
 31
0.0
  0
LINE
  5
7D94
330
1F
100
AcDbEntity
  8
AM_0
100
AcDbLine
 10
7.598007202148354
 20
7.455882622654427
 30
0.0
 11
7.563346862792374
 21
7.512239052708481
 31
0.0
  0
LINE
  5
7D95
330
1F
100
AcDbEntity
  8
AM_0
100
AcDbLine
 10
7.459854125976365
 20
7.593774392064403
 30
0.0
 11
7.822235107421336
 21
7.956153466160515
 31
0.0
  0
LINE
  5
7D96
330
1F
100
AcDbEntity
  8
AM_0
100
AcDbLine
 10
7.516315460204369
 20
7.559124543126415
 30
0.0
 11
7.45976638793937
 21
7.59390504544541
 31
0.0
  0
LINE
  5
7D97
330
1F
100
AcDbEntity
  8
AM_0
100
AcDbLine
 10
9.65394210815333
 20
5.407047821935122
 30
0.0
 11
10.01265335082936
 21
5.765760018284423
 31
0.0
  0
LINE
  5
7D98
330
1F
100
AcDbEntity
  8
AM_0
100
AcDbLine
 10
7.563232421874376
 20
7.512174202855419
 30
0.0
 11
7.516426086425356
 21
7.558979584630434
 31
0.0
  0
LINE
  5
7D99
330
1F
100
AcDbEntity
  8
AM_0
100
AcDbLine
 10
10.03221893310538
 20
5.789670540745476
 30
0.0
 11
9.927436828612371
 21
5.851037575657471
 31
0.0
  0
LINE
  5
7D9A
330
1F
100
AcDbEntity
  8
AM_0
100
AcDbLine
 10
5.850868225097344
 20
9.927600457127482
 30
0.0
 11
5.789566040038325
 21
10.03231485074348
 31
0.0
  0
CIRCLE
  5
7D9B
330
1F
100
AcDbEntity
  8
AM_0
100
AcDbCircle
 10
28.39530372619532
 20
12.83895356839454
 30
0.0
 40
5.5
  0
CIRCLE
  5
7D9C
330
1F
100
AcDbEntity
  8
AM_0
100
AcDbCircle
 10
28.39530372619532
 20
12.83895356839454
 30
0.0
 40
5.0
  0
LINE
  5
7D9E
330
1F
100
AcDbEntity
  8
AM_0
100
AcDbLine
 10
23.42460250854435
 20
4.999996735509453
 30
0.0
 11
12.0909805297843
 21
16.33361871426847
 31
0.0
  0
LINE
  5
7D9F
330
1F
100
AcDbEntity
  8
AM_0
100
AcDbLine
 10
27.64832115173329
 20
15.62743241971352
 30
0.0
 11
30.43667221069331
 21
14.88028009122154
 31
0.0
  0
LINE
  5
7DA0
330
1F
100
AcDbEntity
  8
AM_0
100
AcDbLine
 10
25.60707092285134
 20
13.58618409817949
 30
0.0
 11
27.64828681945733
 21
15.62740190213454
 31
0.0
  0
LINE
  5
7DA2
330
1F
100
AcDbEntity
  8
AM_0
100
AcDbLine
 10
26.35394668579034
 20
10.79768045132953
 30
0.0
 11
29.14229774475041
 21
10.05052907651255
 31
0.0
  0
LINE
  5
7DA3
330
1F
100
AcDbEntity
  8
AM_0
100
AcDbLine
 10
15.41260147094632
 20
11.16996057217852
 30
0.0
 11
11.16996002197231
 21
15.4126020211535
 31
0.0
  0
LINE
  5
7DA4
330
1F
100
AcDbEntity
  8
AM_0
100
AcDbLine
 10
25.60692977905228
 20
13.58616502469351
 30
0.0
 11
26.35391616821233
 21
10.79762418454455
 31
0.0
  0
LINE
  5
7DA5
330
1F
100
AcDbEntity
  8
AM_0
100
AcDbLine
 10
30.43655776977529
 20
14.88021142667153
 30
0.0
 11
31.18371200561432
 21
12.09184510892253
 31
0.0
  0
LINE
  5
7DA6
330
1F
100
AcDbEntity
  8
AM_0
100
AcDbLine
 10
29.14243507385238
 20
10.05047280972754
 30
0.0
 11
31.18382644653229
 21
12.09186418240852
 31
0.0
  0
LINE
  5
7DA7
330
1F
100
AcDbEntity
  8
AM_0
100
AcDbLine
 10
41.12322616577132
 20
14.25316484158858
 30
0.0
 11
41.83033370971634
 21
14.96027238553355
 31
0.0
  0
ARC
  5
7DA8
330
1F
100
AcDbEntity
  8
AM_0
100
AcDbCircle
 10
19.55635070800732
 20
19.55634744351649
 30
0.0
 40
4.0
100
AcDbArc
 50
93.59039389453293
 51
139.9216160914792
  0
LINE
  5
7DA9
330
1F
100
AcDbEntity
  8
AM_0
100
AcDbLine
 10
16.49568176269531
 20
22.13168389981549
 30
0.0
 11
13.9019012451163
 21
19.3501935738875
 31
0.0
  0
ARC
  5
7DAA
330
1F
100
AcDbEntity
  8
AM_0
100
AcDbCircle
 10
17.0083198547363
 20
23.8584180611925
 30
0.0
 40
4.999998569488498
100
AcDbArc
 50
236.2383655979597
 51
246.6385648735453
  0
LINE
  5
7DAB
330
1F
100
AcDbEntity
  8
AM_0
100
AcDbLine
 10
13.90625381469632
 20
18.14489228909749
 30
0.0
 11
13.90189361572231
 21
19.35019929593349
 31
0.0
  0
ARC
  5
7DAC
330
1F
100
AcDbEntity
  8
AM_0
100
AcDbCircle
 10
36.17348289489735
 20
20.61712320035254
 30
0.0
 40
4.0
100
AcDbArc
 50
314.9999987477636
 51
135.0000003416233
  0
LINE
  5
7DAD
330
1F
100
AcDbEntity
  8
AM_0
100
AcDbLine
 10
32.63794708251931
 20
22.73844583218854
 30
0.0
 11
33.34505271911531
 21
23.44555146878557
 31
0.0
  0
LINE
  5
7DAE
330
1F
100
AcDbEntity
  8
AM_0
100
AcDbLine
 10
38.29480361938432
 20
17.08158738797456
 30
0.0
 11
39.00191116332929
 21
17.78869302457158
 31
0.0
  0
ARC
  5
7DAF
330
1F
100
AcDbEntity
  8
AM_0
100
AcDbCircle
 10
25.56687545776328
 20
31.2237287301375
 30
0.0
 40
4.0
100
AcDbArc
 50
314.9999987477636
 51
342.1857140501864
  0
LINE
  5
7DB0
330
1F
100
AcDbEntity
  8
AM_0
100
AcDbLine
 10
27.68819618225029
 20
27.68819482510854
 30
0.0
 11
28.39530372619527
 21
28.39530236905355
 31
0.0
  0
ARC
  5
7DB3
330
1F
100
AcDbEntity
  8
AM_0
100
AcDbCircle
 10
45.01230907440129
 20
11.77829034512856
 30
0.0
 40
4.0
100
AcDbArc
 50
314.9999987477636
 51
45.00000125223688
  0
LINE
  5
7DB4
330
1F
100
AcDbEntity
  8
AM_0
100
AcDbLine
 10
43.89087295532136
 20
4.999996735509451
 30
0.0
 11
47.8407411575314
 21
8.949863984044579
 31
0.0
  0
LINE
  5
7DB5
330
1F
100
AcDbEntity
  8
AM_0
100
AcDbLine
 10
43.18376636505036
 20
4.999996735509451
 30
0.0
 11
46.78008079528736
 21
8.596311165745586
 31
0.0
  0
LINE
  5
7DB6
330
1F
100
AcDbEntity
  8
AM_0
100
AcDbLine
 10
47.84074115753129
 20
14.60671861356058
 30
0.0
 11
47.48718738555829
 21
14.96027238553358
 31
0.0
  0
LINE
  5
7DB7
330
1F
100
AcDbEntity
  8
AM_0
100
AcDbLine
 10
149.9999999999982
 20
29.99999673550887
 30
0.0
 11
149.9999999999982
 21
4.999998642858524
 31
0.0
  0
MTEXT
  5
7DBA
330
1F
100
AcDbEntity
  8
AM_6
100
AcDbMText
 10
-47.84205998526609
 20
-31.79954326020824
 30
0.0
 40
5.0
 41
0.0
 71
     5
 72
     5
  1
\T1.40;\W0.59;０°
 73
     1
 44
1.0
1001
ACAD
1000
MTEXTBEGIN
1070
    73
1070
     1
1070
    44
1040
1.0
1070
    74
1070
     0
1000
MTEXTEND
  0
MTEXT
  5
7DBB
330
1F
100
AcDbEntity
  8
AM_6
100
AcDbMText
 10
-31.0078459145182
 20
-32.11447689827938
 30
0.0
 40
5.0
 41
0.0
 71
     5
 72
     5
  1
\T1.40;\W0.59;＋７°
 73
     1
 44
1.0
1001
ACAD
1000
MTEXTBEGIN
1070
    73
1070
     1
1070
    44
1040
1.0
1070
    74
1070
     0
1000
MTEXTEND
  0
LINE
  5
7DBC
330
1F
100
AcDbEntity
  8
AM_0
100
AcDbLine
 10
-24.11314392089884
 20
79.48953683560642
 30
0.0
 11
-13.03622436523484
 21
90.56645639127046
 31
0.0
  0
LINE
  5
7DBD
330
1F
100
AcDbEntity
  8
AM_0
100
AcDbLine
 10
-34.48333740234482
 20
77.60462625211039
 30
0.0
 11
-24.82025146484487
 21
87.26771218961038
 31
0.0
  0
LINE
  5
7DBE
330
1F
100
AcDbEntity
  8
AM_0
100
AcDbLine
 10
-20.57761383056685
 20
83.02507455533344
 30
0.0
 11
-24.82025146484487
 21
87.26771218961038
 31
0.0
  0
LINE
  5
7DBF
330
1F
100
AcDbEntity
  8
AM_0
100
AcDbLine
 10
-25.69042968750084
 20
81.44778878873138
 30
0.0
 11
-41.60032653808487
 21
97.35768563931337
 31
0.0
  0
LINE
  5
7DC0
330
1F
100
AcDbEntity
  8
AM_0
100
AcDbLine
 10
-67.45877456656001
 20
71.49923761084004
 30
0.0
 11
-30.71389007568391
 21
108.2441221017133
 31
0.0
  0
LINE
  5
7DC1
330
1F
100
AcDbEntity
  8
AM_0
100
AcDbLine
 10
-22.11379241943385
 20
81.48888833707138
 30
0.0
 11
-23.88156127929784
 21
83.25664956754042
 31
0.0
  0
LINE
  5
7DC2
330
1F
100
AcDbEntity
  8
AM_0
100
AcDbLine
 10
-17.0420761108408
 20
72.41846902554837
 30
0.0
 11
-25.88091278076284
 21
81.25730569546936
 31
0.0
  0
LINE
  5
7DC3
330
1F
100
AcDbEntity
  8
AM_0
100
AcDbLine
 10
-39.06144714355482
 20
79.62540109341936
 30
0.0
 11
-37.19793701171982
 21
78.81322915738341
 31
0.0
  0
LINE
  5
7DC4
330
1F
100
AcDbEntity
  8
AM_0
100
AcDbLine
 10
-41.9226303100548
 20
77.10585458463035
 30
0.0
 11
-34.64079284667981
 21
73.43205697720839
 31
0.0
  0
ARC
  5
7DC5
330
1F
100
AcDbEntity
  8
AM_0
100
AcDbCircle
 10
-40.32015991210981
 20
76.90137918179837
 30
0.0
 40
3.0
100
AcDbArc
 50
65.12170098105833
 51
156.4477369015689
  0
LINE
  5
7DC6
330
1F
100
AcDbEntity
  8
AM_0
100
AcDbLine
 10
-40.0418243408208
 20
79.12259347623134
 30
0.0
 11
-39.65683746337982
 21
79.37739999478631
 31
0.0
  0
LINE
  5
7DC7
330
1F
100
AcDbEntity
  8
AM_0
100
AcDbLine
 10
-40.05209350585981
 20
79.11815316861432
 30
0.0
 11
-39.66632080078184
 21
79.37353952115337
 31
0.0
  0
LINE
  5
7DC8
330
1F
100
AcDbEntity
  8
AM_0
100
AcDbLine
 10
-43.92243194579481
 20
74.54612405484436
 30
0.0
 11
-41.92258453368482
 21
77.10586221402436
 31
0.0
  0
ARC
  5
7DC9
330
1F
100
AcDbEntity
  8
AM_0
100
AcDbCircle
 10
-40.92120361328182
 20
75.52253396695433
 30
0.0
 40
3.0
100
AcDbArc
 50
156.4477369015689
 51
195.9879478935819
  0
LINE
  5
7DCA
330
1F
100
AcDbEntity
  8
AM_0
100
AcDbLine
 10
-44.00286102294479
 20
74.44322641080141
 30
0.0
 11
-43.92243957519481
 21
74.54613168423934
 31
0.0
  0
LINE
  5
7DCB
330
1F
100
AcDbEntity
  8
AM_0
100
AcDbLine
 10
-43.67128753661481
 20
76.72128732388732
 30
0.0
 11
-43.07024383544479
 21
78.10014779752034
 31
0.0
  0
LINE
  5
7DCC
330
1F
100
AcDbEntity
  8
AM_0
100
AcDbLine
 10
-41.7390899658148
 20
77.34074075406332
 30
0.0
 11
-41.31976318359481
 21
77.87743814175835
 31
0.0
  0
LINE
  5
7DCD
330
1F
100
AcDbEntity
  8
AM_0
100
AcDbLine
 10
-41.9226379394448
 20
77.10579354947336
 30
0.0
 11
-41.73908233642482
 21
77.34068734830138
 31
0.0
  0
LINE
  5
7DCE
330
1F
100
AcDbEntity
  8
AM_0
100
AcDbLine
 10
-41.3198394775348
 20
77.87733133023529
 30
0.0
 11
-40.98867797851481
 21
78.30126626675834
 31
0.0
  0
LINE
  5
7DCF
330
1F
100
AcDbEntity
  8
AM_0
100
AcDbLine
 10
-40.98880767821481
 20
78.30114419644634
 30
0.0
 11
-40.91653442382881
 21
78.37456948941533
 31
0.0
  0
LINE
  5
7DD0
330
1F
100
AcDbEntity
  8
AM_0
100
AcDbLine
 10
-40.96572875976481
 20
78.33063180630929
 30
0.0
 11
-40.92741394042981
 21
78.36965615933732
 31
0.0
  0
LINE
  5
7DD1
330
1F
100
AcDbEntity
  8
AM_0
100
AcDbLine
 10
-40.91652679443382
 20
78.37462289517638
 30
0.0
 11
-40.4661941528328
 21
78.78479440396635
 31
0.0
  0
LINE
  5
7DD2
330
1F
100
AcDbEntity
  8
AM_0
100
AcDbLine
 10
-40.46599578857479
 20
78.7849775094343
 30
0.0
 11
-40.04193115234481
 21
79.12250955289133
 31
0.0
  0
LINE
  5
7DD3
330
1F
100
AcDbEntity
  8
AM_0
100
AcDbLine
 10
-40.98860931396479
 20
78.30131204312639
 30
0.0
 11
-40.96556091308481
 21
78.33073098843832
 31
0.0
  0
LINE
  5
7DD4
330
1F
100
AcDbEntity
  8
AM_0
100
AcDbLine
 10
-40.92733001709082
 20
78.36973245328234
 30
0.0
 11
-40.47658538818383
 21
78.78017862027438
 31
0.0
  0
LINE
  5
7DD5
330
1F
100
AcDbEntity
  8
AM_0
100
AcDbLine
 10
-40.47652435302782
 20
78.78027017300834
 30
0.0
 11
-40.05210876464881
 21
79.11813790982538
 31
0.0
  0
LINE
  5
7DD6
330
1F
100
AcDbEntity
  8
AM_0
100
AcDbLine
 10
-39.13522338867282
 20
79.58991677945433
 30
0.0
 11
-39.06589508056681
 21
79.61965615933732
 31
0.0
  0
LINE
  5
7DD7
330
1F
100
AcDbEntity
  8
AM_0
100
AcDbLine
 10
-39.32161712646582
 20
79.54249246304837
 30
0.0
 11
-39.13564300537185
 21
79.58980233853631
 31
0.0
  0
LINE
  5
7DD8
330
1F
100
AcDbEntity
  8
AM_0
100
AcDbLine
 10
-39.86308288574282
 20
80.02222116177838
 30
0.0
 11
-39.79346466064482
 21
79.96882302945433
 31
0.0
  0
LINE
  5
7DD9
330
1F
100
AcDbEntity
  8
AM_0
100
AcDbLine
 10
-39.65662384033284
 20
79.37756021207134
 30
0.0
 11
-39.32170104980481
 21
79.5424085397083
 31
0.0
  0
LINE
  5
7DDA
330
1F
100
AcDbEntity
  8
AM_0
100
AcDbLine
 10
-39.66612243652384
 20
79.37366922086032
 30
0.0
 11
-39.33097076416082
 21
79.53860910123134
 31
0.0
  0
LINE
  5
7DDB
330
1F
100
AcDbEntity
  8
AM_0
100
AcDbLine
 10
-34.44029998779384
 20
73.68865640347741
 30
0.0
 11
-34.04621124267681
 21
73.38087899869235
 31
0.0
  0
LINE
  5
7DDC
330
1F
100
AcDbEntity
  8
AM_0
100
AcDbLine
 10
-34.64089965820381
 20
73.43191201871241
 30
0.0
 11
-34.2071533203128
 21
73.98699624722741
 31
0.0
  0
LINE
  5
7DDD
330
1F
100
AcDbEntity
  8
AM_0
100
AcDbLine
 10
-34.04623413085981
 20
73.38089425748136
 30
0.0
 11
-33.94843292236381
 21
73.5061155099234
 31
0.0
  0
ARC
  5
7DDE
330
1F
100
AcDbEntity
  8
AM_0
100
AcDbCircle
 10
-31.61566925048881
 20
75.09827096646637
 30
0.0
 40
3.0
100
AcDbArc
 50
45.00000125223688
 51
134.0111255535872
  0
LINE
  5
7DDF
330
1F
100
AcDbEntity
  8
AM_0
100
AcDbLine
 10
-37.3157501220708
 20
78.86574227994239
 30
0.0
 11
-33.98611450195382
 21
77.38324411099739
 31
0.0
  0
LINE
  5
7DE0
330
1F
100
AcDbEntity
  8
AM_0
100
AcDbLine
 10
-32.48888397216886
 20
76.18630654996241
 30
0.0
 11
-32.30683135986384
 21
76.41927011197338
 31
0.0
  0
LINE
  5
7DE1
330
1F
100
AcDbEntity
  8
AM_0
100
AcDbLine
 10
-32.73606109619185
 20
75.86990029996241
 30
0.0
 11
-32.48898315429783
 21
76.18628366177841
 31
0.0
  0
LINE
  5
7DE2
330
1F
100
AcDbEntity
  8
AM_0
100
AcDbLine
 10
-32.94647216796982
 20
76.96020944302841
 30
0.0
 11
-32.15803527832083
 21
76.60991342252038
 31
0.0
  0
LINE
  5
7DE3
330
1F
100
AcDbEntity
  8
AM_0
100
AcDbLine
 10
-33.0411911010748
 20
75.47938211148539
 30
0.0
 11
-32.73604583740283
 21
75.86993844693437
 31
0.0
  0
LINE
  5
7DE4
330
1F
100
AcDbEntity
  8
AM_0
100
AcDbLine
 10
-33.39525604248081
 20
75.02618081754042
 30
0.0
 11
-33.04120635986381
 21
75.47936685269637
 31
0.0
  0
LINE
  5
7DE5
330
1F
100
AcDbEntity
  8
AM_0
100
AcDbLine
 10
-33.78772735595781
 20
74.52381570523539
 30
0.0
 11
-33.39521026611381
 21
75.02621896451239
 31
0.0
  0
LINE
  5
7DE6
330
1F
100
AcDbEntity
  8
AM_0
100
AcDbLine
 10
-32.30694580078186
 20
76.4191938180284
 30
0.0
 11
-32.19544982910183
 21
76.56179483121241
 31
0.0
  0
LINE
  5
7DE7
330
1F
100
AcDbEntity
  8
AM_0
100
AcDbLine
 10
-33.96109008789081
 20
77.40245492642639
 30
0.0
 11
-32.9464111328128
 21
76.96022470181742
 31
0.0
  0
LINE
  5
7DE8
330
1F
100
AcDbEntity
  8
AM_0
100
AcDbLine
 10
-32.19548797607482
 20
76.56185586636837
 30
0.0
 11
-32.15814208984484
 21
76.60978372281341
 31
0.0
  0
LINE
  5
7DE9
330
1F
100
AcDbEntity
  8
AM_0
100
AcDbLine
 10
-34.20721435546982
 20
73.98696572964941
 30
0.0
 11
-33.78789520263781
 21
74.52367837613344
 31
0.0
  0
LINE
  5
7DEA
330
1F
100
AcDbEntity
  8
AM_0
100
AcDbLine
 10
-34.26004791259781
 20
73.91939218228639
 30
0.0
 11
-33.8659362792978
 21
73.61159951871241
 31
0.0
  0
LINE
  5
7DEB
330
1F
100
AcDbEntity
  8
AM_0
100
AcDbLine
 10
-33.9484176635748
 20
73.50610025113337
 30
0.0
 11
-33.88696289062581
 21
73.58482034390736
 31
0.0
  0
LINE
  5
7DEC
330
1F
100
AcDbEntity
  8
AM_0
100
AcDbLine
 10
-34.44033813476581
 20
73.68867929166139
 30
0.0
 11
-34.34237670898482
 21
73.81409127896637
 31
0.0
  0
LINE
  5
7DED
330
1F
100
AcDbEntity
  8
AM_0
100
AcDbLine
 10
-34.28085327148482
 20
73.89272744839939
 30
0.0
 11
-34.26000976562581
 21
73.9195295113874
 31
0.0
  0
LINE
  5
7DEE
330
1F
100
AcDbEntity
  8
AM_0
100
AcDbLine
 10
-33.86591339111381
 20
73.61165292447338
 30
0.0
 11
-33.88702392578183
 21
73.58475167935636
 31
0.0
  0
LINE
  5
7DEF
330
1F
100
AcDbEntity
  8
AM_0
100
AcDbLine
 10
-29.77030181884781
 20
77.36791665738341
 30
0.0
 11
-23.88156127929784
 21
83.25664956754042
 31
0.0
  0
LINE
  5
7DF0
330
1F
100
AcDbEntity
  8
AM_0
100
AcDbLine
 10
-28.70934295654383
 20
77.01466043179838
 30
0.0
 11
-29.41644287109482
 21
77.72176797574335
 31
0.0
  0
LINE
  5
7DF1
330
1F
100
AcDbEntity
  8
AM_0
100
AcDbLine
 10
-28.99938201904385
 20
76.72462136929837
 30
0.0
 11
-29.4943542480478
 21
77.21959359830136
 31
0.0
  0
DIMENSION
  5
7F6B
330
1F
100
AcDbEntity
  8
AM_5
100
AcDbDimension
  2
*D2
 10
164.4948813714076
 20
29.99999673550886
 30
0.0
 11
161.3948813714076
 21
17.49999768918369
 31
0.0
 70
    32
  1
<>
 71
     5
 42
24.9999980926504
 51
359.9999999999998
  3
AM_JIS$0
100
AcDbAlignedDimension
 13
149.9999999999982
 23
4.999998642858467
 33
0.0
 14
149.9999999999982
 24
29.99999673550887
 34
0.0
 50
90.00000000000012
100
AcDbRotatedDimension
1001
GENIUS_GENDTOL_13
1000

1000
h7
1000

1040
0.0
1001
ACAD
1000
DSTYLE
1002
{
1070
   287
1070
     3
1070
    40
1040
1.0
1070
    42
1040
1.0
1070
    43
1040
12.0
1070
    48
1040
0.1
1070
    78
1070
     8
1070
   140
1040
3.2
1070
   176
1070
   256
1070
   177
1070
   256
1070
   271
1070
     0
1070
   272
1070
     3
1070
   275
1070
     0
1070
   284
1070
     0
1070
   289
1070
     3
1070
   340
1005
6B
1070
   371
1070
    -1
1070
   372
1070
    -1
1002
}
  0
LINE
  5
7FFD
330
1F
100
AcDbEntity
  8
AM_11
100
AcDbLine
 10
3.999999999999354
 20
-0.0000023108162276
 30
0.0
 11
-0.0000000000002683
 21
-0.0000023108162839
 31
0.0
  0
LINE
  5
7FFE
330
1F
100
AcDbEntity
  8
AM_11
100
AcDbLine
 10
-0.0000000000002767
 20
3.999999419064637
 30
0.0
 11
-0.0000000000002683
 21
-0.0000023108162839
 31
0.0
  0
DIMENSION
  5
8008
330
1F
100
AcDbEntity
  8
AM_5
100
AcDbDimension
  2
*D3
 10
149.9999999999984
 20
63.99999673550852
 30
0.0
 11
74.99999999999921
 21
67.09999673550886
 31
0.0
 70
    32
  1
<>
 71
     5
 42
149.9999999999984
 51
359.9999999999998
  3
AM_JIS$0
100
AcDbAlignedDimension
 13
-0.0000000000002767
 23
3.999997689183829
 33
0.0
 14
149.9999999999982
 24
29.99999673550887
 34
0.0
 50
180.0
100
AcDbRotatedDimension
1001
GENIUS_GENDTOL_13
1000

1000
h7
1000

1040
0.0
1001
ACAD
1000
DSTYLE
1002
{
1070
   287
1070
     3
1070
    40
1040
1.0
1070
    42
1040
1.0
1070
    43
1040
12.0
1070
    48
1040
0.1
1070
    78
1070
     8
1070
   140
1040
3.2
1070
   176
1070
   256
1070
   177
1070
   256
1070
   271
1070
     0
1070
   272
1070
     3
1070
   275
1070
     0
1070
   284
1070
     0
1070
   289
1070
     3
1070
   340
1005
6B
1070
   371
1070
    -1
1070
   372
1070
    -1
1002
}
  0
DIMENSION
  5
80A1
330
1F
100
AcDbEntity
  8
AM_5
100
AcDbDimension
  2
*D4
 10
25.75735855102534
 20
43.99999673550854
 30
0.0
 11
12.87867927551264
 21
47.93809197360383
 31
0.0
 70
    32
  1
(<>)
 71
     5
 42
25.75735855102544
 51
359.9999999999998
  3
AM_JIS$0
100
AcDbAlignedDimension
 13
-0.0000000000002767
 23
3.999999419064693
 33
0.0
 14
25.75735855102528
 24
29.99999673550854
 34
0.0
 50
180.0
100
AcDbRotatedDimension
1001
GENIUS_GENDTOL_13
1000

1000
h7
1000

1040
0.0
1001
ACAD
1000
DSTYLE
1002
{
1070
   287
1070
     3
1070
    40
1040
1.0
1070
    42
1040
1.0
1070
    43
1040
12.0
1070
    48
1040
0.1
1070
    78
1070
     8
1070
   140
1040
3.2
1070
   176
1070
   256
1070
   177
1070
   256
1070
   271
1070
     0
1070
   272
1070
     3
1070
   275
1070
     0
1070
   284
1070
     0
1070
   289
1070
     3
1070
   340
1005
6B
1070
   371
1070
    -1
1070
   372
1070
    -1
1002
}
  0
DIMENSION
  5
8165
330
1F
100
AcDbEntity
  8
AM_5
100
AcDbDimension
  2
*D5
 10
25.75735855102528
 20
29.99999673550854
 30
0.0
 11
21.53801578768364
 21
56.24000642813146
 31
0.0
 70
    34
  1
<>
 71
     5
 42
0.7853982350385174
 51
359.9999999999998
  3
AM_JIS$2
100
AcDb2LineAngularDimension
 13
-0.0000000000002767
 23
3.999999419064637
 33
0.0
 14
-0.0000000000002683
 24
-0.0000023108162839
 34
0.0
 15
5.789592742919356
 25
10.03223378842647
 35
0.0
 16
26.59077353123528
 26
50.2992075637331
 36
0.0
1001
GENIUS_GENDTOL_13
1000

1000
h7
1000

1040
0.0
1001
ACAD
1000
DSTYLE
1002
{
1070
   271
1070
     0
1002
}
  0
DIMENSION
  5
8247
330
1F
100
AcDbEntity
  8
AM_5
100
AcDbDimension
  2
*D6
 10
-34.00000000000033
 20
29.99999673550859
 30
0.0
 11
-37.10000000000034
 21
14.99999836775435
 31
0.0
 70
    32
  1
<>
 71
     5
 42
29.99999673550846
 51
359.9999999999998
  3
AM_JIS$0
100
AcDbAlignedDimension
 13
-0.00000000000027
 23
0.0000000000001148
 33
0.0
 14
25.75735855102529
 24
29.99999673550857
 34
0.0
 50
270.0000000000001
100
AcDbRotatedDimension
1001
GENIUS_GENDTOL_13
1000

1000
h7
1000

1040
0.0
1001
ACAD
1000
DSTYLE
1002
{
1070
   287
1070
     3
1070
    40
1040
1.0
1070
    42
1040
1.0
1070
    43
1040
12.0
1070
    48
1040
0.1
1070
    78
1070
     8
1070
   140
1040
3.2
1070
   176
1070
   256
1070
   177
1070
   256
1070
   271
1070
     0
1070
   272
1070
     3
1070
   275
1070
     0
1070
   284
1070
     0
1070
   289
1070
     3
1070
   340
1005
6B
1070
   371
1070
    -1
1070
   372
1070
    -1
1002
}
  0
DIMENSION
  5
832C
330
1F
100
AcDbEntity
  8
AM_5
100
AcDbDimension
  2
*D7
 10
22.47749328613234
 20
22.47749002164152
 30
0.0
 11
-28.56392661446345
 21
-11.83156593693339
 31
0.0
 70
    34
  1
<>
 71
     5
 42
0.7853980907805403
 51
359.9999999999998
  3
AM_JIS$2
100
AcDb2LineAngularDimension
 13
3.999999999999354
 23
-0.0000023108162276
 33
0.0
 14
-0.0000000000002683
 24
-0.0000023108162839
 34
0.0
 15
-0.5051841735846365
 25
-0.5051841002144205
 35
0.0
 16
-32.85825721453456
 26
-8.804344324504995
 36
0.0
1001
GENIUS_GENDTOL_13
1000

1000
h7
1000

1040
0.0
1001
ACAD
1000
DSTYLE
1002
{
1070
   271
1070
     0
1002
}
  0
DIMENSION
  5
840F
330
1F
100
AcDbEntity
  8
AM_5
100
AcDbDimension
  2
*D8
 10
-12.72597089997804
 20
-7.073018973245365
 30
0.0
 11
-1.720625345479639
 21
-18.07836452774389
 31
0.0
 70
   160
  1
<>
 71
     5
 42
7.997242275107494
 51
359.9999999999998
  3
AM_JIS$0
100
AcDbAlignedDimension
 13
6.82842712474553
 23
1.171570564437558
 33
0.0
 14
1.173522881225537
 24
6.826474807958049
 34
0.0
 50
314.9999999999998
100
AcDbRotatedDimension
1001
GENIUS_GENDTOL_13
1000

1000
h7
1000

1040
0.0
1001
ACAD
1000
DSTYLE
1002
{
1070
   287
1070
     3
1070
    40
1040
1.0
1070
    42
1040
1.0
1070
    43
1040
12.0
1070
    48
1040
0.1
1070
    78
1070
     8
1070
   140
1040
3.2
1070
   176
1070
   256
1070
   177
1070
   256
1070
   271
1070
     0
1070
   272
1070
     3
1070
   275
1070
     0
1070
   284
1070
     0
1070
   289
1070
     3
1070
   340
1005
6B
1070
   371
1070
    -1
1070
   372
1070
    -1
1002
}
  0
DIMENSION
  5
84CA
330
1F
100
AcDbEntity
  8
AM_5
100
AcDbDimension
  2
*D9
 10
-79.19258955709128
 20
59.77178057989387
 30
0.0
 11
-68.1618769394115
 21
53.12033833660142
 31
0.0
 70
    32
  1
<>
 71
     5
 42
25.00466394652767
 51
359.9999999999998
  3
AM_JIS$0
100
AcDbAlignedDimension
 13
-50.63148657273217
 23
52.96505199638904
 33
0.0
 14
-67.45877456656002
 24
71.49923761084004
 34
0.0
 50
314.9844729543528
100
AcDbRotatedDimension
1001
GENIUS_GENDTOL_13
1000

1000
h7
1000

1040
0.0
1001
ACAD
1000
DSTYLE
1002
{
1070
   287
1070
     3
1070
    40
1040
1.0
1070
    42
1040
1.0
1070
    43
1040
12.0
1070
    48
1040
0.1
1070
    78
1070
     8
1070
   140
1040
3.2
1070
   176
1070
   256
1070
   177
1070
   256
1070
   271
1070
     0
1070
   272
1070
     3
1070
   275
1070
     0
1070
   284
1070
     0
1070
   289
1070
     3
1070
   340
1005
6B
1070
   371
1070
    -1
1070
   372
1070
    -1
1002
}
  0
DIMENSION
  5
856E
330
1F
100
AcDbEntity
  8
AM_5
100
AcDbDimension
  2
*D10
 10
-19.80918764110745
 20
119.1488245362896
 30
0.0
 11
-8.778323764206206
 21
112.5020227027448
 31
0.0
 70
    32
  1
<>
 71
     5
 42
24.99999459881056
 51
359.9999999999998
  3
AM_JIS$0
100
AcDbAlignedDimension
 13
-13.03622436523482
 23
90.56645639127046
 33
0.0
 14
-30.7138900756839
 24
108.2441221017133
 34
0.0
 50
134.9999999999997
100
AcDbRotatedDimension
1001
GENIUS_GENDTOL_13
1000

1000
h7
1000

1040
0.0
1001
ACAD
1000
DSTYLE
1002
{
1070
   287
1070
     3
1070
    40
1040
1.0
1070
    42
1040
1.0
1070
    43
1040
12.0
1070
    48
1040
0.1
1070
    78
1070
     8
1070
   140
1040
3.2
1070
   176
1070
   256
1070
   177
1070
   256
1070
   271
1070
     0
1070
   272
1070
     3
1070
   275
1070
     0
1070
   284
1070
     0
1070
   289
1070
     3
1070
   340
1005
6B
1070
   371
1070
    -1
1070
   372
1070
    -1
1002
}
  0
DIMENSION
  5
8709
330
1F
100
AcDbEntity
  8
AM_5
100
AcDbDimension
  2
*D11
 10
-77.43854914914095
 20
139.9999967355032
 30
0.0
 11
-115.5973921281869
 21
17.8850553251565
 31
0.0
 70
   164
  1
%%c280
 71
     5
 42
139.9999999999999
 51
359.9999999999998
  3
AM_JIS$4
100
AcDbRadialDimension
 15
-119.1949783590993
 25
6.372153006609256
 35
0.0
 40
0.0
1001
ACAD
1000
DSTYLE
1002
{
1070
   287
1070
     3
1070
    43
1040
12.0
1070
    74
1070
     0
1070
   172
1070
     1
1070
   271
1070
     0
1070
   288
1070
     0
1070
   289
1070
     3
1002
}
  0
DIMENSION
  5
8738
330
1F
100
AcDbEntity
  8
AM_5
100
AcDbDimension
  2
*D12
 10
37.42460060119569
 20
4.999998642858081
 30
0.0
 11
37.42460060119569
 21
2.499998166020927
 31
0.0
 70
   160
  1
<>
 71
     5
 42
5.000000953674317
 51
359.9999999999998
  3
AM_JIS$0
100
AcDbAlignedDimension
 13
3.999999999999354
 23
-0.0000023108162276
 33
0.0
 14
10.77841567993135
 24
4.999998642858088
 34
0.0
 50
90.0000000000009
100
AcDbRotatedDimension
1001
GENIUS_GENDTOL_13
1000

1000
h7
1000

1040
0.0
1001
ACAD
1000
DSTYLE
1002
{
1070
   287
1070
     3
1070
   282
1070
     0
1070
    76
1070
     1
1070
    40
1040
1.0
1070
    42
1040
1.0
1070
    43
1040
12.0
1070
    48
1040
0.1
1070
    78
1070
     8
1070
   140
1040
3.2
1070
   176
1070
   256
1070
   177
1070
   256
1070
   271
1070
     0
1070
   272
1070
     3
1070
   275
1070
     0
1070
   284
1070
     0
1070
   289
1070
     3
1070
   340
1005
6B
1070
   371
1070
    -1
1070
   372
1070
    -1
1002
}
  0
LEADER
  5
8826
330
1F
100
AcDbEntity
  8
AM_5
  6
Continuous
 48
0.5
100
AcDbLeader
  3
AM_JIS$7
 76
     2
 10
-34.93055747847344
 20
-34.93055343396826
 30
0.0
 10
-42.00162528852342
 20
-42.00162124402628
 30
0.0
211
1.0
221
0.0000000000000011
231
0.0
1001
ACAD
1000
DSTYLE
1002
{
1070
     6
1000
OPEN30
1070
   173
1070
     1
1070
   176
1070
     0
1002
}
  0
LEADER
  5
8827
330
1F
100
AcDbEntity
  8
AM_5
  6
Continuous
 48
0.5
100
AcDbLeader
  3
AM_JIS$7
 76
     2
 10
-49.07269309858343
 20
-34.93055343396829
 30
0.0
 10
-42.00162528852342
 20
-42.00162124402628
 30
0.0
211
1.0
221
0.0000000000000011
231
0.0
1001
ACAD
1000
DSTYLE
1002
{
1070
     6
1000
OPEN30
1070
   173
1070
     1
1070
   176
1070
     0
1002
}
  0
VIEWPORT
  5
110
102
{ACAD_XDICTIONARY
360
8BA0
102
}
330
101
100
AcDbEntity
 67
     1
  8
0
100
AcDbViewport
 10
420.5
 20
297.0
 30
0.0
 40
948.9782706766916
 41
628.452
 68
     1
 69
     1
 12
420.5
 22
297.0
 13
0.0
 23
0.0
 14
10.0
 24
10.0
 15
10.0
 25
10.0
 16
0.0
 26
0.0
 36
1.0
 17
0.0
 27
0.0
 37
0.0
 42
50.0
 43
0.0
 44
0.0
 45
628.452
 50
0.0
 51
0.0
 72
   100
 90
    32800
  1

281
     0
 71
     1
 74
     0
110
-0.0000000000002682
120
0.000000000000161
130
0.0
111
1.0
121
0.000000000000002
131
0.0
112
-0.000000000000002
122
1.0
132
0.0
 79
     0
146
0.0
1001
GENIUS_GENSCREG_15
1000
PF
1040
1.0
1000
DF
1040
1.0
1000
MIN
1011
-53.98913533834582
1021
-17.226
1031
0.0
1000
MAX
1011
894.9891353383458
1021
611.226
1031
0.0
1000
FLAGS
1070
     4
1001
GENIUS_GENODEF_13
1002
{
1000
HIER
1070
     0
1002
}
1002
{
1000
MANEDIT
1070
     0
1002
}
1002
{
1000
NOSEL
1070
     0
1002
}
1002
{
1000
BEHIND
1070
     0
1002
}
1002
{
1000
OTHER
1070
     0
1002
}
1002
{
1000
REACTOR
1002
}
1001
GENIUS_GENOBJ-N-SDF_13
1002
{
1000
OWNER
1000
GEN
1002
}
  0
ENDSEC
  0
SECTION
  2
OBJECTS
  0
DICTIONARY
  5
C
330
0
100
AcDbDictionary
281
     1
  3
ACAD_COLOR
350
8AC9
  3
ACAD_GROUP
350
D
  3
ACAD_LAYOUT
350
1A
  3
ACAD_MATERIAL
350
8AC8
  3
ACAD_MLINESTYLE
350
17
  3
ACAD_PLOTSETTINGS
350
19
  3
ACAD_PLOTSTYLENAME
350
E
  3
ACAD_TABLESTYLE
350
8ACA
  3
ACDBHEADERROUNDTRIPXREC
350
8B9F
  3
ACDBVARIABLEDICTIONARY
350
34
  3
ACMDICTIONARY
350
43
  3
AMG
350
2B
  3
AMGSNAPSETTINGS
350
6E
  3
DWGPROPS
350
8B9E
  0
DICTIONARY
  5
74
330
1F
100
AcDbDictionary
280
     1
281
     1
  3
ACAD_INDEX
360
8A28
  3
ACAD_LAYOUTSELFREF
360
8A55
  0
DICTIONARY
  5
8A5A
330
101
100
AcDbDictionary
280
     1
281
     1
  3
ACAD_LAYOUTSELFREF
360
8A5B
  0
DICTIONARY
  5
8BA0
330
110
100
AcDbDictionary
280
     1
281
     1
  3
ACAD_XREC_ROUNDTRIP
360
8BA1
  0
DICTIONARY
  5
8AC9
102
{ACAD_REACTORS
330
C
102
}
330
C
100
AcDbDictionary
281
     1
  0
DICTIONARY
  5
D
102
{ACAD_REACTORS
330
C
102
}
330
C
100
AcDbDictionary
281
     1
  0
DICTIONARY
  5
1A
102
{ACAD_REACTORS
330
C
102
}
330
C
100
AcDbDictionary
281
     1
  3
Model
350
8ACC
  3
レイアウト1
350
8ACD
  0
DICTIONARY
  5
8AC8
102
{ACAD_REACTORS
330
C
102
}
330
C
100
AcDbDictionary
281
     1
  0
DICTIONARY
  5
17
102
{ACAD_REACTORS
330
C
102
}
330
C
100
AcDbDictionary
281
     1
  3
STANDARD
350
18
  0
DICTIONARY
  5
19
102
{ACAD_REACTORS
330
C
102
}
330
C
100
AcDbDictionary
281
     1
  3
ASAMI
350
399D
  0
ACDBDICTIONARYWDFLT
  5
E
102
{ACAD_REACTORS
330
C
102
}
330
C
100
AcDbDictionary
281
     1
  3
Normal
350
F
100
AcDbDictionaryWithDefault
340
F
  0
DICTIONARY
  5
8ACA
102
{ACAD_REACTORS
330
C
102
}
330
C
100
AcDbDictionary
281
     1
  3
Standard
350
8ACB
  0
DICTIONARY
  5
8B9F
102
{ACAD_REACTORS
330
C
102
}
330
C
100
AcDbDictionary
281
     1
  0
DICTIONARY
  5
34
102
{ACAD_REACTORS
330
C
102
}
330
C
100
AcDbDictionary
281
     1
  3
CTABLESTYLE
350
8B9A
  3
DIMASSOC
350
8B9B
  3
INDEXCTL
350
35
  3
PROJECTNAME
350
8B9C
  3
SORTENTS
350
B5E
  0
DICTIONARY
  5
43
102
{ACAD_REACTORS
330
C
102
}
330
C
100
AcDbDictionary
281
     1
  3
ACMSTDDICTIONARY
350
260
  0
DICTIONARY
  5
2B
102
{ACAD_REACTORS
330
C
102
}
330
C
100
AcDbDictionary
281
     1
  0
DICTIONARY
  5
6E
102
{ACAD_REACTORS
330
C
102
}
330
C
100
AcDbDictionary
281
     1
  0
XRECORD
  5
8B9E
102
{ACAD_REACTORS
330
C
102
}
330
C
100
AcDbXrecord
280
     1
  1
DWGPROPS COOKIE
  2

  3

  4

  6

  7

  8

  9

300
AmdtFileType=82
301
=
302
=
303
=
304
=
305
=
306
=
307
=
308
=
309
=
 40
0.9009598842592591
 41
2452802.716478762
 42
2455610.660024595
  1

 90
        1
  0
DICTIONARY
  5
8A28
102
{ACAD_REACTORS
330
74
102
}
330
74
100
AcDbDictionary
281
     1
  3
*A1
350
8A29
  0
XRECORD
  5
8A55
102
{ACAD_REACTORS
330
74
102
}
330
74
100
AcDbXrecord
280
     1
340
1F
  0
XRECORD
  5
8A5B
102
{ACAD_REACTORS
330
8A5A
102
}
330
8A5A
100
AcDbXrecord
280
     1
340
101
  0
XRECORD
  5
8BA1
102
{ACAD_REACTORS
330
8BA0
102
}
330
8BA0
100
AcDbXrecord
280
     1
102
SHADEPLOT
 70
     0
  0
LAYOUT
  5
8ACC
102
{ACAD_XDICTIONARY
360
8BA4
102
}
102
{ACAD_REACTORS
330
1A
102
}
330
1A
100
AcDbPlotSettings
  1

  2
SII LP-1010 (C2 VR)2R
  4

  6

 40
0.0
 41
0.0
 42
0.0
 43
0.0
 44
0.0
 45
0.0
 46
0.0
 47
0.0
 48
0.0
 49
0.0
140
0.0
141
0.0
142
1.0
143
1.0
 70
  1712
 72
     0
 73
     0
 74
     0
  7
sei_cad.ctb
 75
     0
147
1.0
148
0.0
149
0.0
100
AcDbLayout
  1
Model
 70
     1
 71
     0
 10
0.0
 20
0.0
 11
12.0
 21
9.0
 12
0.0
 22
0.0
 32
0.0
 14
0.0
 24
0.0
 34
0.0
 15
0.0
 25
0.0
 35
0.0
146
0.0
 13
0.0
 23
0.0
 33
0.0
 16
1.0
 26
0.0
 36
0.0
 17
0.0
 27
1.0
 37
0.0
 76
     0
330
1F
  0
LAYOUT
  5
8ACD
102
{ACAD_XDICTIONARY
360
8BA6
102
}
102
{ACAD_REACTORS
330
1A
102
}
330
1A
100
AcDbPlotSettings
  1

  2
SII LP-1010 (C2 VR)2R
  4

  6

 40
0.0
 41
0.0
 42
0.0
 43
0.0
 44
0.0
 45
0.0
 46
0.0
 47
0.0
 48
0.0
 49
0.0
140
0.0
141
0.0
142
1.0
143
1.0
 70
   688
 72
     0
 73
     0
 74
     5
  7
sei_cad.ctb
 75
    16
147
1.0
148
0.0
149
0.0
100
AcDbLayout
  1
レイアウト1
 70
     0
 71
     1
 10
0.0
 20
0.0
 11
841.0
 21
594.0
 12
0.0
 22
0.0
 32
0.0
 14
1.000000000000000E+20
 24
1.000000000000000E+20
 34
1.000000000000000E+20
 15
-1.000000000000000E+20
 25
-1.000000000000000E+20
 35
-1.000000000000000E+20
146
0.0
 13
0.0
 23
0.0
 33
0.0
 16
1.0
 26
0.0
 36
0.0
 17
0.0
 27
1.0
 37
0.0
 76
     0
330
101
331
110
  0
MLINESTYLE
  5
18
102
{ACAD_REACTORS
330
17
102
}
330
17
100
AcDbMlineStyle
  2
STANDARD
 70
     0
  3

 62
   256
 51
90.0
 52
90.0
 71
     2
 49
0.5
 62
   256
  6
BYLAYER
 49
-0.5
 62
   256
  6
BYLAYER
  0
PLOTSETTINGS
  5
399D
102
{ACAD_XDICTIONARY
360
8BA2
102
}
102
{ACAD_REACTORS
330
19
102
}
330
19
100
AcDbPlotSettings
  1
asami
  2
RICOH imagio MF1540
  4
A4
  6

 40
5.831416606903076
 41
7.651742935180664
 42
4.90008544921875
 43
5.789077758789062
 44
296.9683227539062
 45
209.9733276367186
 46
0.0
 47
0.0
 48
-156.6707931774246
 49
-74.57609991074048
140
58.59973180214831
141
60.61068161925597
142
1.0
143
1.095343097833084
 70
  1712
 72
     1
 73
     1
 74
     4
  7
asami.ctb
 75
     0
147
0.9129559514076438
148
156.6707931774246
149
74.57609991074048
  0
ACDBPLACEHOLDER
  5
F
102
{ACAD_REACTORS
330
E
102
}
330
E
  0
TABLESTYLE
  5
8ACB
102
{ACAD_REACTORS
330
8ACA
102
}
330
8ACA
100
AcDbTableStyle
  3
Standard
 70
     0
 71
     0
 40
1.5
 41
1.5
280
     0
281
     0
  7
STANDARD
140
4.5
170
     2
 62
     0
 63
     7
283
     0
274
    -2
284
     1
 64
     0
275
    -2
285
     1
 65
     0
276
    -2
286
     1
 66
     0
277
    -2
287
     1
 67
     0
278
    -2
288
     1
 68
     0
279
    -2
289
     1
 69
     0
  7
STANDARD
140
6.0
170
     5
 62
     0
 63
     7
283
     0
274
    -2
284
     1
 64
     0
275
    -2
285
     1
 65
     0
276
    -2
286
     1
 66
     0
277
    -2
287
     1
 67
     0
278
    -2
288
     1
 68
     0
279
    -2
289
     1
 69
     0
  7
STANDARD
140
4.5
170
     5
 62
     0
 63
     7
283
     0
274
    -2
284
     1
 64
     0
275
    -2
285
     1
 65
     0
276
    -2
286
     1
 66
     0
277
    -2
287
     1
 67
     0
278
    -2
288
     1
 68
     0
279
    -2
289
     1
 69
     0
  0
DICTIONARYVAR
  5
8B9A
102
{ACAD_REACTORS
330
34
102
}
330
34
100
DictionaryVariables
280
     0
  1
STANDARD
  0
DICTIONARYVAR
  5
8B9B
102
{ACAD_REACTORS
330
34
102
}
330
34
100
DictionaryVariables
280
     0
  1
1
  0
DICTIONARYVAR
  5
35
102
{ACAD_REACTORS
330
34
102
}
330
34
100
DictionaryVariables
280
     0
  1
1
  0
DICTIONARYVAR
  5
8B9C
102
{ACAD_REACTORS
330
34
102
}
330
34
100
DictionaryVariables
280
     0
  1

  0
DICTIONARYVAR
  5
B5E
102
{ACAD_REACTORS
330
34
102
}
330
34
100
DictionaryVariables
280
     0
  1
96
  0
DICTIONARY
  5
260
102
{ACAD_REACTORS
330
43
102
}
330
43
100
AcDbDictionary
281
     1
  0
LAYER_INDEX
  5
8A29
102
{ACAD_REACTORS
330
8A28
102
}
330
8A28
100
AcDbIndex
 40
2455610.660024595
100
AcDbLayerIndex
  8
0
360
8A2A
 90
        0
  8
AM_0
360
8A2B
 90
      232
  8
AM_5
360
8A2C
 90
       13
  8
AM_7
360
8A2D
 90
        3
  8
AM_6
360
8A2E
 90
        3
  8
DEFPOINTS
360
8A2F
 90
        0
  8
AM_11
360
8A30
 90
        4
  0
DICTIONARY
  5
8BA4
330
8ACC
100
AcDbDictionary
280
     1
281
     1
  3
ACAD_XREC_ROUNDTRIP
360
8BA5
  0
DICTIONARY
  5
8BA6
330
8ACD
100
AcDbDictionary
280
     1
281
     1
  3
ACAD_XREC_ROUNDTRIP
360
8BA7
  0
DICTIONARY
  5
8BA2
330
399D
100
AcDbDictionary
280
     1
281
     1
  3
ACAD_XREC_ROUNDTRIP
360
8BA3
  0
IDBUFFER
  5
8A2A
330
0
100
AcDbIdBuffer
  0
IDBUFFER
  5
8A2B
330
0
100
AcDbIdBuffer
330
7CE6
330
7CE7
330
7CE8
330
7CE9
330
7CEF
330
7CF0
330
7CF1
330
7CF2
330
7CF5
330
7CF6
330
7CF7
330
7CF8
330
7CF9
330
7CFC
330
7CFD
330
7CFE
330
7CFF
330
7D00
330
7D01
330
7D02
330
7D03
330
7D04
330
7D05
330
7D06
330
7D07
330
7D08
330
7D09
330
7D0A
330
7D0B
330
7D0C
330
7D0D
330
7D0E
330
7D0F
330
7D10
330
7D11
330
7D12
330
7D13
330
7D14
330
7D15
330
7D16
330
7D17
330
7D18
330
7D19
330
7D1B
330
7D23
330
7D24
330
7D25
330
7D26
330
7D27
330
7D28
330
7D29
330
7D2A
330
7D2B
330
7D2D
330
7D2E
330
7D2F
330
7D30
330
7D31
330
7D32
330
7D33
330
7D34
330
7D35
330
7D36
330
7D37
330
7D38
330
7D39
330
7D3C
330
7D3D
330
7D3E
330
7D3F
330
7D40
330
7D41
330
7D42
330
7D43
330
7D44
330
7D45
330
7D48
330
7D49
330
7D4A
330
7D4B
330
7D4C
330
7D4D
330
7D4E
330
7D4F
330
7D50
330
7D51
330
7D52
330
7D53
330
7D54
330
7D55
330
7D56
330
7D57
330
7D58
330
7D59
330
7D5A
330
7D5B
330
7D5C
330
7D5D
330
7D5E
330
7D5F
330
7D60
330
7D61
330
7D62
330
7D63
330
7D64
330
7D65
330
7D66
330
7D67
330
7D68
330
7D6B
330
7D6D
330
7D6E
330
7D70
330
7D71
330
7D72
330
7D73
330
7D74
330
7D75
330
7D76
330
7D78
330
7D79
330
7D7A
330
7D7B
330
7D7D
330
7D7E
330
7D7F
330
7D80
330
7D81
330
7D82
330
7D83
330
7D84
330
7D85
330
7D86
330
7D87
330
7D88
330
7D89
330
7D8A
330
7D8B
330
7D8C
330
7D8D
330
7D8E
330
7D8F
330
7D90
330
7D91
330
7D92
330
7D93
330
7D94
330
7D95
330
7D96
330
7D97
330
7D98
330
7D99
330
7D9A
330
7D9B
330
7D9C
330
7D9E
330
7D9F
330
7DA0
330
7DA2
330
7DA3
330
7DA4
330
7DA5
330
7DA6
330
7DA7
330
7DA8
330
7DA9
330
7DAA
330
7DAB
330
7DAC
330
7DAD
330
7DAE
330
7DAF
330
7DB0
330
7DB3
330
7DB4
330
7DB5
330
7DB6
330
7DB7
330
7DBC
330
7DBD
330
7DBE
330
7DBF
330
7DC0
330
7DC1
330
7DC2
330
7DC3
330
7DC4
330
7DC5
330
7DC6
330
7DC7
330
7DC8
330
7DC9
330
7DCA
330
7DCB
330
7DCC
330
7DCD
330
7DCE
330
7DCF
330
7DD0
330
7DD1
330
7DD2
330
7DD3
330
7DD4
330
7DD5
330
7DD6
330
7DD7
330
7DD8
330
7DD9
330
7DDA
330
7DDB
330
7DDC
330
7DDD
330
7DDE
330
7DDF
330
7DE0
330
7DE1
330
7DE2
330
7DE3
330
7DE4
330
7DE5
330
7DE6
330
7DE7
330
7DE8
330
7DE9
330
7DEA
330
7DEB
330
7DEC
330
7DED
330
7DEE
330
7DEF
330
7DF0
330
7DF1
  0
IDBUFFER
  5
8A2C
330
0
100
AcDbIdBuffer
330
7F6B
330
8008
330
80A1
330
8165
330
8247
330
832C
330
840F
330
84CA
330
856E
330
8709
330
8738
330
8826
330
8827
  0
IDBUFFER
  5
8A2D
330
0
100
AcDbIdBuffer
330
7CFA
330
7D1A
330
7D6C
  0
IDBUFFER
  5
8A2E
330
0
100
AcDbIdBuffer
330
388D
330
7DBA
330
7DBB
  0
IDBUFFER
  5
8A2F
330
0
100
AcDbIdBuffer
  0
IDBUFFER
  5
8A30
330
0
100
AcDbIdBuffer
330
7CF4
330
7D1C
330
7FFD
330
7FFE
  0
XRECORD
  5
8BA5
102
{ACAD_REACTORS
330
8BA4
102
}
330
8BA4
100
AcDbXrecord
280
     1
102
SHADEPLOT
 70
     0
102
SHADEPLOTRESLEVEL
 70
     2
102
SHADEPLOTCUSTOMDPI
 70
   300
  0
XRECORD
  5
8BA7
102
{ACAD_REACTORS
330
8BA6
102
}
330
8BA6
100
AcDbXrecord
280
     1
102
SHADEPLOT
 70
     0
102
SHADEPLOTRESLEVEL
 70
     2
102
SHADEPLOTCUSTOMDPI
 70
   300
  0
XRECORD
  5
8BA3
102
{ACAD_REACTORS
330
8BA2
102
}
330
8BA2
100
AcDbXrecord
280
     1
102
SHADEPLOT
 70
     0
102
SHADEPLOTRESLEVEL
 70
     2
102
SHADEPLOTCUSTOMDPI
 70
   300
  0
ENDSEC
  0
EOF
