  0
SECTION
  2
HEADER
  9
$ACADVER
  1
AC1014
  9
$ACADMAINTVER
 70
     9
  9
$DWGCODEPAGE
  3
ANSI_932
  9
$INSBASE
 10
0.0
 20
0.0
 30
0.0
  9
$EXTMIN
 10
-168.700001
 20
-79.6434757254875
 30
0.0
  9
$EXTMAX
 10
30.3699980828422
 20
96.23317437309356
 30
0.0
  9
$LIMMIN
 10
-197.603134242878
 20
-103.2501116367634
  9
$LIMMAX
 10
72.34109185106672
 20
106.4850748017206
  9
$ORTHOMODE
 70
     0
  9
$REGENMODE
 70
     1
  9
$FILLMODE
 70
     1
  9
$QTEXTMODE
 70
     0
  9
$MIRRTEXT
 70
     0
  9
$DRAGMODE
 70
     2
  9
$LTSCALE
 40
1.0
  9
$OSMODE
 70
  2103
  9
$ATTMODE
 70
     1
  9
$TEXTSIZE
 40
2.5
  9
$TRACEWID
 40
1.0
  9
$TEXTSTYLE
  7
STANDARD
  9
$CLAYER
  8
AM_0
  9
$CELTYPE
  6
BYLAYER
  9
$CECOLOR
 62
   256
  9
$CELTSCALE
 40
1.0
  9
$DELOBJ
 70
     1
  9
$DISPSILH
 70
     0
  9
$DIMSCALE
 40
1.0
  9
$DIMASZ
 40
2.5
  9
$DIMEXO
 40
1.0
  9
$DIMDLI
 40
12.0
  9
$DIMRND
 40
0.0
  9
$DIMDLE
 40
0.0
  9
$DIMEXE
 40
1.0
  9
$DIMTP
 40
0.1
  9
$DIMTM
 40
0.1
  9
$DIMTXT
 40
3.2
  9
$DIMCEN
 40
0.0
  9
$DIMTSZ
 40
0.0
  9
$DIMTOL
 70
     0
  9
$DIMLIM
 70
     0
  9
$DIMTIH
 70
     0
  9
$DIMTOH
 70
     0
  9
$DIMSE1
 70
     0
  9
$DIMSE2
 70
     0
  9
$DIMTAD
 70
     3
  9
$DIMZIN
 70
     8
  9
$DIMBLK
  1
OPEN30
  9
$DIMASO
 70
     1
  9
$DIMSHO
 70
     1
  9
$DIMPOST
  1

  9
$DIMAPOST
  1
"
  9
$DIMALT
 70
     0
  9
$DIMALTD
 70
     2
  9
$DIMALTF
 40
0.0393701
  9
$DIMLFAC
 40
1.0
  9
$DIMTOFL
 70
     1
  9
$DIMTVP
 40
0.0
  9
$DIMTIX
 70
     0
  9
$DIMSOXD
 70
     0
  9
$DIMSAH
 70
     0
  9
$DIMBLK1
  1

  9
$DIMBLK2
  1

  9
$DIMSTYLE
  2
AM_JIS
  9
$DIMCLRD
 70
     3
  9
$DIMCLRE
 70
     3
  9
$DIMCLRT
 70
     2
  9
$DIMTFAC
 40
0.71
  9
$DIMGAP
 40
1.5
  9
$DIMJUST
 70
     0
  9
$DIMSD1
 70
     0
  9
$DIMSD2
 70
     0
  9
$DIMTOLJ
 70
     0
  9
$DIMTZIN
 70
     0
  9
$DIMALTZ
 70
     0
  9
$DIMALTTZ
 70
     0
  9
$DIMFIT
 70
     3
  9
$DIMUPT
 70
     0
  9
$DIMUNIT
 70
     2
  9
$DIMDEC
 70
     3
  9
$DIMTDEC
 70
     3
  9
$DIMALTU
 70
     2
  9
$DIMALTTD
 70
     2
  9
$DIMTXSTY
  7
ASAMI
  9
$DIMAUNIT
 70
     0
  9
$LUNITS
 70
     2
  9
$LUPREC
 70
     2
  9
$SKETCHINC
 40
1.0
  9
$FILLETRAD
 40
0.8
  9
$AUNITS
 70
     0
  9
$AUPREC
 70
     0
  9
$MENU
  1
.
  9
$ELEVATION
 40
0.0
  9
$PELEVATION
 40
0.0
  9
$THICKNESS
 40
0.0
  9
$LIMCHECK
 70
     0
  9
$BLIPMODE
 70
     0
  9
$CHAMFERA
 40
1.5
  9
$CHAMFERB
 40
1.5
  9
$CHAMFERC
 40
20.0
  9
$CHAMFERD
 40
0.0
  9
$SKPOLY
 70
     0
  9
$TDCREATE
 40
2452838.620506898
  9
$TDUPDATE
 40
2452941.598311261
  9
$TDINDWG
 40
1.5010716435
  9
$TDUSRTIMER
 40
1.5010716435
  9
$USRTIMER
 70
     1
  9
$ANGBASE
 50
0.0
  9
$ANGDIR
 70
     0
  9
$PDMODE
 70
     0
  9
$PDSIZE
 40
0.0
  9
$PLINEWID
 40
0.0
  9
$COORDS
 70
     0
  9
$SPLFRAME
 70
     0
  9
$SPLINETYPE
 70
     6
  9
$SPLINESEGS
 70
     8
  9
$ATTDIA
 70
     1
  9
$ATTREQ
 70
     1
  9
$HANDLING
 70
 12289
  9
$HANDSEED
  5
8D7A
  9
$SURFTAB1
 70
     6
  9
$SURFTAB2
 70
     6
  9
$SURFTYPE
 70
     6
  9
$SURFU
 70
     6
  9
$SURFV
 70
     6
  9
$UCSNAME
  2

  9
$UCSORG
 10
0.0
 20
0.0
 30
0.0
  9
$UCSXDIR
 10
1.0
 20
0.0
 30
0.0
  9
$UCSYDIR
 10
0.0
 20
1.0
 30
0.0
  9
$PUCSNAME
  2

  9
$PUCSORG
 10
0.0
 20
0.0
 30
0.0
  9
$PUCSXDIR
 10
1.0
 20
0.0
 30
0.0
  9
$PUCSYDIR
 10
0.0
 20
1.0
 30
0.0
  9
$USERI1
 70
     0
  9
$USERI2
 70
     0
  9
$USERI3
 70
     0
  9
$USERI4
 70
     0
  9
$USERI5
 70
     0
  9
$USERR1
 40
0.0
  9
$USERR2
 40
0.0
  9
$USERR3
 40
0.0
  9
$USERR4
 40
0.0
  9
$USERR5
 40
0.0
  9
$WORLDVIEW
 70
     1
  9
$SHADEDGE
 70
     3
  9
$SHADEDIF
 70
    70
  9
$TILEMODE
 70
     1
  9
$MAXACTVP
 70
    64
  9
$PINSBASE
 10
0.0
 20
0.0
 30
0.0
  9
$PLIMCHECK
 70
     0
  9
$PEXTMIN
 10
1.000000000000000E+20
 20
1.000000000000000E+20
 30
1.000000000000000E+20
  9
$PEXTMAX
 10
-1.000000000000000E+20
 20
-1.000000000000000E+20
 30
-1.000000000000000E+20
  9
$PLIMMIN
 10
0.0
 20
0.0
  9
$PLIMMAX
 10
841.0
 20
594.0
  9
$UNITMODE
 70
     0
  9
$VISRETAIN
 70
     1
  9
$PLINEGEN
 70
     0
  9
$PSLTSCALE
 70
     0
  9
$TREEDEPTH
 70
  3020
  9
$PICKSTYLE
 70
     0
  9
$CMLSTYLE
  2
STANDARD
  9
$CMLJUST
 70
     0
  9
$CMLSCALE
 40
20.0
  9
$PROXYGRAPHICS
 70
     1
  9
$MEASUREMENT
 70
     1
  0
ENDSEC
  0
SECTION
  2
CLASSES
  0
CLASS
  1
ACDBDICTIONARYWDFLT
  2
AcDbDictionaryWithDefault
  3
AutoCAD 2000
 90
        0
280
     0
281
     0
  0
CLASS
  1
ACDBPLACEHOLDER
  2
AcDbPlaceHolder
  3
AutoCAD 2000
 90
        0
280
     0
281
     0
  0
CLASS
  1
LAYOUT
  2
AcDbLayout
  3
AutoCAD 2000
 90
        0
280
     0
281
     0
  0
CLASS
  1
AMGSETTINGSOBJ
  2
AmgSettingsObj
  3
"AcadM|Product Description: AutoCAD Mechanical 2000|Company: Autodesk"
 90
        0
280
     0
281
     0
  0
CLASS
  1
ACME_DOCUMENT
  2
AcMeDbDoc
  3
AcMeServices
 90
        0
280
     0
281
     0
  0
CLASS
  1
ACMESCOPE
  2
AcMeScope
  3
AcMeServices
 90
        0
280
     0
281
     0
  0
CLASS
  1
ACMECOMMANDHISTORY
  2
AcMeCommandHistory
  3
AcMeServices
 90
        0
280
     0
281
     0
  0
CLASS
  1
DICTIONARYVAR
  2
AcDbDictionaryVar
  3
AutoCAD 2000
 90
        0
280
     0
281
     0
  0
CLASS
  1
ACIMSYSVARMAN
  2
AcImSysVarManager
  3
AcMeServices
 90
        0
280
     0
281
     0
  0
CLASS
  1
ACIMREALSYSVAR
  2
AcImRealSysVar
  3
AcMeServices
 90
        0
280
     0
281
     0
  0
CLASS
  1
ACIMINTSYSVAR
  2
AcImIntSysVar
  3
AcMeServices
 90
        0
280
     0
281
     0
  0
CLASS
  1
ACMEDRAWINGMAN
  2
AcMeDrawingMan
  3
AcMeServices
 90
        0
280
     0
281
     0
  0
CLASS
  1
ACMEVIEW
  2
AcMeView
  3
AcMeServices
 90
        0
280
     0
281
     0
  0
CLASS
  1
ACDBENTITYCACHE
  2
AcMeEntityCache
  3
AcMeServices
 90
        0
280
     0
281
     0
  0
CLASS
  1
GSMANAGER
  2
AcMeGSManager
  3
AcMeServices
 90
        0
280
     0
281
     0
  0
CLASS
  1
AmdtInternalReactor
  2
AmdtInternalReactor
  3
AcMeServices
 90
        0
280
     0
281
     0
  0
CLASS
  1
ACMESTATEMGR
  2
AcMeStateMgr
  3
AcMeServices
 90
        0
280
     0
281
     0
  0
CLASS
  1
ACME_DATABASE
  2
AcMeDbDatabase
  3
AcMeServices
 90
        0
280
     0
281
     0
  0
CLASS
  1
ACRFINSADJUSTERMGR
  2
AcRfInsAdjusterMgr
  3
AcMeServices
 90
        0
280
     0
281
     0
  0
CLASS
  1
ACMDATADICTIONARY
  2
AcmDataDictionary
  3
"AcmSymBB|Product Description: AutoCAD Mechanical 2000|Company: Autodesk"
 90
        0
280
     0
281
     0
  0
CLASS
  1
ACMDATAENTRYBLOCK
  2
AcmDataEntryBlock
  3
"AcmSymBB|Product Description: AutoCAD Mechanical 2000|Company: Autodesk"
 90
        0
280
     0
281
     0
  0
CLASS
  1
AMGOBJPROPCFG
  2
AmgObjPropCfg
  3
"AmgLay|Product Description: AutoCAD Mechanical 2000|Company: Autodesk"
 90
        1
280
     0
281
     0
  0
CLASS
  1
ACAMGFILTERDAT
  2
AcAmgFilterDat
  3
"AcadM|Product Description: AutoCAD Mechanical 2000|Company: Autodesk"
 90
        0
280
     0
281
     0
  0
CLASS
  1
LAYER_INDEX
  2
AcDbLayerIndex
  3
AutoCAD 2000
 90
        0
280
     0
281
     0
  0
CLASS
  1
IDBUFFER
  2
AcDbIdBuffer
  3
AutoCAD 2000
 90
        0
280
     0
281
     0
  0
CLASS
  1
ACIMSTRSYSVAR
  2
AcImStrSysVar
  3
AcMeServices
 90
        0
280
     0
281
     0
  0
CLASS
  1
ACMSTANDARDJIS
  2
AcmStandardJIS
  3
"AcmSymBB|Product Description: AutoCAD Mechanical 2000|Company: Autodesk"
 90
        0
280
     0
281
     0
  0
CLASS
  1
ACMSURFSTANDARDJIS
  2
AcmSurfTextStdJIS
  3
"AcmSymBB|Product Description: AutoCAD Mechanical 2000|Company: Autodesk"
 90
        0
280
     0
281
     0
  0
CLASS
  1
ACMFCFSTANDARDJIS
  2
AcmFCFStdJIS
  3
"AcmSymBB|Product Description: AutoCAD Mechanical 2000|Company: Autodesk"
 90
        0
280
     0
281
     0
  0
CLASS
  1
ACMWELDSTANDARDJIS
  2
AcmWeldingStdJIS
  3
"AcmSymBB|Product Description: AutoCAD Mechanical 2000|Company: Autodesk"
 90
        0
280
     0
281
     0
  0
CLASS
  1
ACMIDSTANDARDJIS
  2
AcmIdStdJIS
  3
"AcmSymBB|Product Description: AutoCAD Mechanical 2000|Company: Autodesk"
 90
        0
280
     0
281
     0
  0
CLASS
  1
ACMDATUMSTANDARDJIS
  2
AcmDatumStdJIS
  3
"AcmSymBB|Product Description: AutoCAD Mechanical 2000|Company: Autodesk"
 90
        0
280
     0
281
     0
  0
CLASS
  1
ACMBOMSTANDARDJIS
  2
AcmBOMStdJIS
  3
"AcmSymBB|Product Description: AutoCAD Mechanical 2000|Company: Autodesk"
 90
        0
280
     0
281
     0
  0
CLASS
  1
ACMSTANDARDANSI
  2
AcmStandardANSI
  3
"AcmSymBB|Product Description: AutoCAD Mechanical 2000|Company: Autodesk"
 90
        0
280
     0
281
     0
  0
CLASS
  1
ACMSURFSTANDARDANSI
  2
AcmSurfTextStdANSI
  3
"AcmSymBB|Product Description: AutoCAD Mechanical 2000|Company: Autodesk"
 90
        0
280
     0
281
     0
  0
CLASS
  1
ACMFCFSTANDARDANSI
  2
AcmFCFStdANSI
  3
"AcmSymBB|Product Description: AutoCAD Mechanical 2000|Company: Autodesk"
 90
        0
280
     0
281
     0
  0
CLASS
  1
ACMWELDSTANDARDANSI
  2
AcmWeldingStdANSI
  3
"AcmSymBB|Product Description: AutoCAD Mechanical 2000|Company: Autodesk"
 90
        0
280
     0
281
     0
  0
CLASS
  1
ACMIDSTANDARDANSI
  2
AcmIdStdANSI
  3
"AcmSymBB|Product Description: AutoCAD Mechanical 2000|Company: Autodesk"
 90
        0
280
     0
281
     0
  0
CLASS
  1
ACMDATUMSTANDARDANSI
  2
AcmDatumStdANSI
  3
"AcmSymBB|Product Description: AutoCAD Mechanical 2000|Company: Autodesk"
 90
        0
280
     0
281
     0
  0
CLASS
  1
ACMBOMSTANDARDANSI
  2
AcmBOMStdANSI
  3
"AcmSymBB|Product Description: AutoCAD Mechanical 2000|Company: Autodesk"
 90
        0
280
     0
281
     0
  0
CLASS
  1
ACMSTANDARDBSI
  2
AcmStandardBSI
  3
"AcmSymBB|Product Description: AutoCAD Mechanical 2000|Company: Autodesk"
 90
        0
280
     0
281
     0
  0
CLASS
  1
ACMSURFSTANDARDBSI
  2
AcmSurfTextStdBSI
  3
"AcmSymBB|Product Description: AutoCAD Mechanical 2000|Company: Autodesk"
 90
        0
280
     0
281
     0
  0
CLASS
  1
ACMFCFSTANDARDBSI
  2
AcmFCFStdBSI
  3
"AcmSymBB|Product Description: AutoCAD Mechanical 2000|Company: Autodesk"
 90
        0
280
     0
281
     0
  0
CLASS
  1
ACMWELDSTANDARDBSI
  2
AcmWeldingStdBSI
  3
"AcmSymBB|Product Description: AutoCAD Mechanical 2000|Company: Autodesk"
 90
        0
280
     0
281
     0
  0
CLASS
  1
ACMIDSTANDARDBSI
  2
AcmIdStdBSI
  3
"AcmSymBB|Product Description: AutoCAD Mechanical 2000|Company: Autodesk"
 90
        0
280
     0
281
     0
  0
CLASS
  1
ACMDATUMSTANDARDBSI
  2
AcmDatumStdBSI
  3
"AcmSymBB|Product Description: AutoCAD Mechanical 2000|Company: Autodesk"
 90
        0
280
     0
281
     0
  0
CLASS
  1
ACMBOMSTANDARDBSI
  2
AcmBOMStdBSI
  3
"AcmSymBB|Product Description: AutoCAD Mechanical 2000|Company: Autodesk"
 90
        0
280
     0
281
     0
  0
CLASS
  1
STDPART2D
  2
AmgStdPart
  3
"AmgStdPart|Product Description: AutoCAD Mechanical 2000|Company: Autodesk"
 90
     1023
280
     0
281
     1
  0
CLASS
  1
ACMDATAENTRYPART
  2
AcmDataEntryPart
  3
"AcmSymBB|Product Description: AutoCAD Mechanical 2000|Company: Autodesk"
 90
        0
280
     0
281
     0
  0
CLASS
  1
ACMPARTREF
  2
AcmPartRef
  3
"AcmSymBB|Product Description: AutoCAD Mechanical 2000|Company: Autodesk"
 90
     1023
280
     0
281
     1
  0
CLASS
  1
LONG_TRANSACTION
  2
AcDbLongTransaction
  3
AutoCAD 2000
 90
        0
280
     0
281
     0
  0
CLASS
  1
LWPOLYLINE
  2
AcDbPolyline
  3
AutoCAD 2000
 90
        0
280
     0
281
     1
  0
CLASS
  1
HATCH
  2
AcDbHatch
  3
AutoCAD 2000
 90
        0
280
     0
281
     1
  0
CLASS
  1
XRECORD
  2
AcDbXrecord
  3
AutoCAD 2000
 90
        0
280
     0
281
     0
  0
ENDSEC
  0
SECTION
  2
TABLES
  0
TABLE
  2
VPORT
  5
8
330
0
100
AcDbSymbolTable
 70
     3
  0
VPORT
  5
8D4F
330
8
100
AcDbSymbolTableRecord
100
AcDbViewportTableRecord
  2
*ACTIVE
 70
     0
 10
0.0
 20
0.0
 11
1.0
 21
1.0
 12
-60.46196089247636
 22
16.09841733659605
 13
0.0
 23
0.0
 14
2.5
 24
2.5
 15
10.0
 25
10.0
 16
0.0
 26
0.0
 36
1.0
 17
0.0
 27
0.0
 37
0.0
 40
192.5774515464332
 41
1.609042553191489
 42
50.0
 43
0.0
 44
0.0
 50
0.0
 51
0.0
 71
     0
 72
   100
 73
     1
 74
     3
 75
     0
 76
     0
 77
     0
 78
     0
  0
ENDTAB
  0
TABLE
  2
LTYPE
  5
5
330
0
100
AcDbSymbolTable
 70
    10
  0
LTYPE
  5
14
330
5
100
AcDbSymbolTableRecord
100
AcDbLinetypeTableRecord
  2
BYBLOCK
 70
     0
  3

 72
    65
 73
     0
 40
0.0
  0
LTYPE
  5
15
330
5
100
AcDbSymbolTableRecord
100
AcDbLinetypeTableRecord
  2
BYLAYER
 70
     0
  3

 72
    65
 73
     0
 40
0.0
  0
LTYPE
  5
16
330
5
100
AcDbSymbolTableRecord
100
AcDbLinetypeTableRecord
  2
CONTINUOUS
 70
     0
  3
Solid line
 72
    65
 73
     0
 40
0.0
  0
LTYPE
  5
4B
330
5
100
AcDbSymbolTableRecord
100
AcDbLinetypeTableRecord
  2
AM_ISO02W050
 70
     0
  3
__ __ __ __ __ __ __ __ __ __ __ __ __ __ __
 72
    65
 73
     2
 40
7.5
 49
6.0
 74
     0
 49
-1.5
 74
     0
  0
LTYPE
  5
4C
330
5
100
AcDbSymbolTableRecord
100
AcDbLinetypeTableRecord
  2
AM_ISO08W050
 70
     0
  3
____ . ____ . ____ . ____ . ____ . ____ . ____
 72
    65
 73
     4
 40
18.0
 49
12.0
 74
     0
 49
-1.5
 74
     0
 49
3.0
 74
     0
 49
-1.5
 74
     0
  0
LTYPE
  5
4D
330
5
100
AcDbSymbolTableRecord
100
AcDbLinetypeTableRecord
  2
AM_ISO09W050
 70
     0
  3
_____ . . _____ . . _____ . . ____ .. ____
 72
    65
 73
     6
 40
22.5
 49
12.0
 74
     0
 49
-1.5
 74
     0
 49
3.0
 74
     0
 49
-1.5
 74
     0
 49
3.0
 74
     0
 49
-1.5
 74
     0
  0
LTYPE
  5
4E
330
5
100
AcDbSymbolTableRecord
100
AcDbLinetypeTableRecord
  2
AMCONSTR
 70
     0
  3
_______________________
 72
    65
 73
     2
 40
9999.0
 49
9999.0
 74
     0
 49
0.0
 74
     0
  0
LTYPE
  5
4F
330
5
100
AcDbSymbolTableRecord
100
AcDbLinetypeTableRecord
  2
AM_ISO02W050X2
 70
     0
  3
 _ _ _ _ _ _ _ _ _ _ _ _
 72
    65
 73
     2
 40
3.75
 49
3.0
 74
     0
 49
-0.75
 74
     0
  0
LTYPE
  5
50
330
5
100
AcDbSymbolTableRecord
100
AcDbLinetypeTableRecord
  2
AM_ISO08W050X2
 70
     0
  3
__ . __ . __ . __ . __ . __
 72
    65
 73
     4
 40
9.0
 49
6.0
 74
     0
 49
-0.75
 74
     0
 49
1.5
 74
     0
 49
-0.75
 74
     0
  0
LTYPE
  5
53
330
5
100
AcDbSymbolTableRecord
100
AcDbLinetypeTableRecord
  2
AMZIGZAG
 70
     0
  3
/\/-/\/-/\/-/\/-/\/-/\/
 72
    65
 73
     2
 40
11.00009999999999
 49
0.0001
 74
     4
 75
   135
340
52
 46
0.04
 50
0.0
 44
0.0
 45
0.0
 49
-11.0
 74
     0
  0
LTYPE
  5
166
330
5
100
AcDbSymbolTableRecord
100
AcDbLinetypeTableRecord
  2
ACJISTGL
 70
     0
  3
_ _ _ _ _
 72
    65
 73
     2
 40
3.0
 49
2.0
 74
     0
 49
-1.0
 74
     0
  0
LTYPE
  5
26A
330
5
100
AcDbSymbolTableRecord
100
AcDbLinetypeTableRecord
  2
ACJISTGB
 70
     0
  3
__ . . __ . .
 72
    65
 73
     6
 40
9.0
 49
4.0
 74
     0
 49
-1.0
 74
     0
 49
1.0
 74
     0
 49
-1.0
 74
     0
 49
1.0
 74
     0
 49
-1.0
 74
     0
  0
ENDTAB
  0
TABLE
  2
LAYER
  5
2
330
0
100
AcDbSymbolTable
 70
     7
  0
LAYER
  5
10
330
2
100
AcDbSymbolTableRecord
100
AcDbLayerTableRecord
  2
0
 70
     0
 62
     7
  6
CONTINUOUS
  0
LAYER
  5
3F9
330
2
100
AcDbSymbolTableRecord
100
AcDbLayerTableRecord
  2
AM_0
 70
     0
 62
     7
  6
CONTINUOUS
  0
LAYER
  5
BD6
330
2
100
AcDbSymbolTableRecord
100
AcDbLayerTableRecord
  2
AM_11
 70
     0
 62
     3
  6
AM_ISO09W050
  0
LAYER
  5
BD7
330
2
100
AcDbSymbolTableRecord
100
AcDbLayerTableRecord
  2
AM_7
 70
     0
 62
     4
  6
AM_ISO08W050
  0
LAYER
  5
BD8
330
2
100
AcDbSymbolTableRecord
100
AcDbLayerTableRecord
  2
AM_5
 70
     0
 62
     3
  6
CONTINUOUS
  0
LAYER
  5
BD9
330
2
100
AcDbSymbolTableRecord
100
AcDbLayerTableRecord
  2
DEFPOINTS
 70
     0
 62
     7
  6
CONTINUOUS
  0
LAYER
  5
BDA
330
2
100
AcDbSymbolTableRecord
100
AcDbLayerTableRecord
  2
AM_6
 70
     0
 62
     2
  6
CONTINUOUS
  0
ENDTAB
  0
TABLE
  2
STYLE
  5
3
330
0
100
AcDbSymbolTable
 70
     5
  0
STYLE
  5
11
330
3
100
AcDbSymbolTableRecord
100
AcDbTextStyleTableRecord
  2
STANDARD
 70
     0
 40
0.0
 41
1.0
 50
0.0
 71
     0
 42
2.5
  3
simplex.shx
  4
EXTFONT.SHX
  0
STYLE
  5
52
330
3
100
AcDbSymbolTableRecord
100
AcDbTextStyleTableRecord
  2

 70
     1
 40
0.0
 41
1.0
 50
0.0
 71
     0
 42
2.5
  3
ltypeshp.shx
  4

  0
STYLE
  5
6B
330
3
100
AcDbSymbolTableRecord
100
AcDbTextStyleTableRecord
  2
ASAMI
 70
     0
 40
0.0
 41
1.0
 50
0.0
 71
     0
 42
2.5
  3
simplex.shx
  4
EXTFONT.SHX
  0
STYLE
  5
262
330
3
100
AcDbSymbolTableRecord
100
AcDbTextStyleTableRecord
  2
ACJISTS
 70
     0
 40
1.0
 41
1.0
 50
0.0
 71
     0
 42
2.5
  3
simplex.shx
  4
bigfont.shx
  0
STYLE
  5
269
330
3
100
AcDbSymbolTableRecord
100
AcDbTextStyleTableRecord
  2
ACJISGDT
 70
     0
 40
0.0
 41
1.0
 50
0.0
 71
     0
 42
2.5
  3
amgdtans.shx
  4

  0
ENDTAB
  0
TABLE
  2
VIEW
  5
6
330
0
100
AcDbSymbolTable
 70
     0
  0
ENDTAB
  0
TABLE
  2
UCS
  5
7
330
0
100
AcDbSymbolTable
 70
     0
  0
ENDTAB
  0
TABLE
  2
APPID
  5
9
330
0
100
AcDbSymbolTable
 70
    21
  0
APPID
  5
12
330
9
100
AcDbSymbolTableRecord
100
AcDbRegAppTableRecord
  2
ACAD
 70
     0
  0
APPID
  5
30
330
9
100
AcDbSymbolTableRecord
100
AcDbRegAppTableRecord
  2
MCAD_NO_VIS
 70
     0
  0
APPID
  5
31
330
9
100
AcDbSymbolTableRecord
100
AcDbRegAppTableRecord
  2
ACAD_TEMP_GRAPHIC
 70
     0
  0
APPID
  5
2C2
330
9
100
AcDbSymbolTableRecord
100
AcDbRegAppTableRecord
  2
GENIUS_GENDTOL_13
 70
     0
  0
APPID
  5
339
330
9
100
AcDbSymbolTableRecord
100
AcDbRegAppTableRecord
  2
GENIUS_GENODEF_13
 70
     0
  0
APPID
  5
33A
330
9
100
AcDbSymbolTableRecord
100
AcDbRegAppTableRecord
  2
GENIUS_GENOBJ-N-RSBK_13
 70
     0
  0
APPID
  5
33B
330
9
100
AcDbSymbolTableRecord
100
AcDbRegAppTableRecord
  2
GENIUS_GENOBJ-N-LIB_13
 70
     0
  0
APPID
  5
33C
330
9
100
AcDbSymbolTableRecord
100
AcDbRegAppTableRecord
  2
GENIUS_GENSCALE_13
 70
     0
  0
APPID
  5
378
330
9
100
AcDbSymbolTableRecord
100
AcDbRegAppTableRecord
  2
GENIUS_GENDIMSH_14
 70
     0
  0
APPID
  5
BDB
330
9
100
AcDbSymbolTableRecord
100
AcDbRegAppTableRecord
  2
GENIUS_GENOBJ-N-CEN_13
 70
     0
  0
APPID
  5
BDC
330
9
100
AcDbSymbolTableRecord
100
AcDbRegAppTableRecord
  2
GENIUS_GENFIL_13
 70
     0
  0
APPID
  5
BDD
330
9
100
AcDbSymbolTableRecord
100
AcDbRegAppTableRecord
  2
GENIUS_GENOBJ-N-FIL_13
 70
     0
  0
APPID
  5
12AD
330
9
100
AcDbSymbolTableRecord
100
AcDbRegAppTableRecord
  2
GENIUS_GENOREF_13
 70
     0
  0
APPID
  5
68E9
330
9
100
AcDbSymbolTableRecord
100
AcDbRegAppTableRecord
  2
GEVID1060695448
 70
     0
  0
APPID
  5
68EA
330
9
100
AcDbSymbolTableRecord
100
AcDbRegAppTableRecord
  2
GEVDC
 70
     0
  0
APPID
  5
68ED
330
9
100
AcDbSymbolTableRecord
100
AcDbRegAppTableRecord
  2
GENIUS_GENBH_13
 70
     0
  0
APPID
  5
68EF
330
9
100
AcDbSymbolTableRecord
100
AcDbRegAppTableRecord
  2
GENIUS_GENOBJ-NBEHI-BHF_13
 70
     0
  0
APPID
  5
68F0
330
9
100
AcDbSymbolTableRecord
100
AcDbRegAppTableRecord
  2
GENIUS_GENOENT_13
 70
     0
  0
APPID
  5
68F1
330
9
100
AcDbSymbolTableRecord
100
AcDbRegAppTableRecord
  2
GENIUS_GENOLIS_13
 70
     0
  0
APPID
  5
68F3
330
9
100
AcDbSymbolTableRecord
100
AcDbRegAppTableRecord
  2
GENIUS_GENOBJ-NBEHI-BHB_13
 70
     0
  0
APPID
  5
6B27
330
9
100
AcDbSymbolTableRecord
100
AcDbRegAppTableRecord
  2
GENIUS_GENOBJ-N-CHA_13
 70
     0
  0
ENDTAB
  0
TABLE
  2
DIMSTYLE
  5
A
330
0
100
AcDbSymbolTable
 70
     8
  0
DIMSTYLE
105
58
102
{ACAD_REACTORS
330
71C5
330
7439
330
7251
330
8778
330
8B82
330
8C37
102
}
330
A
100
AcDbSymbolTableRecord
100
AcDbDimStyleTableRecord
  2
AM_JIS
 70
     0
  3

  4
"
  5
OPEN30
  6

  7

 40
1.0
 41
2.5
 42
1.0
 43
12.0
 44
1.0
 45
0.0
 46
0.0
 47
0.1
 48
0.1
140
3.2
141
0.0
142
0.0
143
0.0393701
144
1.0
145
0.0
146
0.71
147
1.5
 71
     0
 72
     0
 73
     0
 74
     0
 75
     0
 76
     0
 77
     3
 78
     8
170
     0
171
     2
172
     1
173
     0
174
     0
175
     0
176
     3
177
     3
178
     2
270
     2
271
     3
272
     3
273
     2
274
     2
340
6B
275
     0
280
     0
281
     0
282
     0
283
     0
284
     0
285
     0
286
     0
287
     3
288
     0
  0
DIMSTYLE
105
5F
330
A
100
AcDbSymbolTableRecord
100
AcDbDimStyleTableRecord
  2
AM_JIS$3
 70
     0
  3

  4
"
  5
OPEN30
  6

  7

 40
1.0
 41
2.5
 42
1.0
 43
10.0
 44
1.0
 45
0.0
 46
0.0
 47
0.1
 48
0.1
140
3.2
141
0.0
142
0.0
143
0.0393701
144
1.0
145
0.0
146
0.71
147
1.5
 71
     0
 72
     0
 73
     0
 74
     1
 75
     0
 76
     0
 77
     3
 78
     8
170
     0
171
     2
172
     0
173
     0
174
     0
175
     0
176
     3
177
     3
178
     2
270
     2
271
     2
272
     3
273
     2
274
     2
340
6B
275
     0
280
     0
281
     0
282
     0
283
     0
284
     0
285
     0
286
     0
287
     0
288
     1
  0
DIMSTYLE
105
60
330
A
100
AcDbSymbolTableRecord
100
AcDbDimStyleTableRecord
  2
AM_JIS$4
 70
     0
  3

  4
"
  5
OPEN30
  6

  7

 40
1.0
 41
2.5
 42
1.0
 43
10.0
 44
1.0
 45
0.0
 46
0.0
 47
0.1
 48
0.1
140
3.2
141
0.0
142
0.0
143
0.0393701
144
1.0
145
0.0
146
0.71
147
1.5
 71
     0
 72
     0
 73
     0
 74
     1
 75
     0
 76
     0
 77
     3
 78
     8
170
     0
171
     2
172
     0
173
     0
174
     0
175
     0
176
     3
177
     3
178
     2
270
     2
271
     2
272
     3
273
     2
274
     2
340
6B
275
     0
280
     0
281
     0
282
     0
283
     0
284
     0
285
     0
286
     0
287
     0
288
     1
  0
DIMSTYLE
105
61
330
A
100
AcDbSymbolTableRecord
100
AcDbDimStyleTableRecord
  2
AM_JIS$6
 70
     0
  3

  4
"
  5
OPEN30
  6

  7

 40
1.0
 41
2.5
 42
1.0
 43
10.0
 44
1.0
 45
0.0
 46
0.0
 47
0.1
 48
0.1
140
3.2
141
0.0
142
0.0
143
0.0393701
144
1.0
145
0.0
146
0.71
147
1.5
 71
     0
 72
     0
 73
     0
 74
     0
 75
     0
 76
     0
 77
     0
 78
     8
170
     0
171
     2
172
     1
173
     0
174
     0
175
     0
176
     3
177
     3
178
     2
270
     2
271
     2
272
     2
273
     2
274
     2
340
6B
275
     0
280
     0
281
     0
282
     0
283
     0
284
     0
285
     0
286
     0
287
     3
288
     0
  0
DIMSTYLE
105
62
330
A
100
AcDbSymbolTableRecord
100
AcDbDimStyleTableRecord
  2
AM_JIS$7
 70
     0
  3

  4
"
  5
OPEN30
  6

  7

 40
1.0
 41
2.5
 42
1.0
 43
10.0
 44
1.0
 45
0.0
 46
0.0
 47
0.1
 48
0.1
140
3.2
141
0.0
142
0.0
143
0.0393701
144
1.0
145
0.0
146
0.71
147
1.5
 71
     0
 72
     0
 73
     0
 74
     0
 75
     0
 76
     0
 77
     3
 78
     8
170
     0
171
     2
172
     1
173
     0
174
     0
175
     0
176
     3
177
     3
178
     2
270
     2
271
     2
272
     3
273
     2
274
     2
340
6B
275
     0
280
     0
281
     0
282
     0
283
     0
284
     0
285
     0
286
     0
287
     3
288
     0
  0
DIMSTYLE
105
63
330
A
100
AcDbSymbolTableRecord
100
AcDbDimStyleTableRecord
  2
AM_JIS$SF
 70
     0
  3

  4
"
  5
OPEN30
  6

  7

 40
1.0
 41
2.5
 42
1.0
 43
10.0
 44
1.0
 45
0.0
 46
0.0
 47
0.1
 48
0.1
140
3.2
141
0.0
142
0.0
143
0.0393701
144
1.0
145
0.0
146
0.71
147
1.5
 71
     0
 72
     0
 73
     0
 74
     0
 75
     1
 76
     1
 77
     3
 78
     8
170
     0
171
     2
172
     1
173
     0
174
     0
175
     0
176
   256
177
   256
178
     2
270
     2
271
     2
272
     2
273
     2
274
     2
340
6B
275
     0
280
     0
281
     0
282
     0
283
     0
284
     0
285
     0
286
     0
287
     3
288
     0
  0
DIMSTYLE
105
68
330
A
100
AcDbSymbolTableRecord
100
AcDbDimStyleTableRecord
  2
AM_JIS$SH
 70
     0
  3

  4
"
  5

  6
GENAXEH
  7
OPEN30
 40
1.0
 41
2.5
 42
1.0
 43
10.0
 44
1.0
 45
0.0
 46
0.0
 47
0.1
 48
0.1
140
3.2
141
0.0
142
0.0
143
0.0393701
144
2.0
145
0.0
146
0.71
147
1.5
 71
     0
 72
     0
 73
     0
 74
     0
 75
     1
 76
     1
 77
     3
 78
     8
170
     0
171
     2
172
     1
173
     1
174
     0
175
     0
176
   256
177
   256
178
     2
270
     2
271
     2
272
     2
273
     2
274
     2
340
6B
275
     0
280
     0
281
     0
282
     0
283
     0
284
     0
285
     0
286
     0
287
     3
288
     0
  0
DIMSTYLE
105
B34
102
{ACAD_REACTORS
330
8282
330
8655
102
}
330
A
100
AcDbSymbolTableRecord
100
AcDbDimStyleTableRecord
  2
AM_JIS$2
 70
     0
  3

  4
"
  5
OPEN30
  6

  7

 40
1.0
 41
2.5
 42
1.0
 43
12.0
 44
1.0
 45
0.0
 46
0.0
 47
0.1
 48
0.1
140
3.2
141
0.0
142
0.0
143
0.0393701
144
1.0
145
0.0
146
0.71
147
1.5
 71
     0
 72
     0
 73
     0
 74
     0
 75
     0
 76
     0
 77
     3
 78
     8
170
     0
171
     2
172
     1
173
     0
174
     0
175
     0
176
     3
177
     3
178
     2
270
     2
271
     3
272
     3
273
     2
274
     2
340
6B
275
     0
280
     0
281
     0
282
     0
283
     0
284
     0
285
     0
286
     0
287
     3
288
     0
  0
ENDTAB
  0
TABLE
  2
BLOCK_RECORD
  5
1
330
0
100
AcDbSymbolTable
 70
    13
  0
BLOCK_RECORD
  5
1F
102
{ACAD_XDICTIONARY
360
74
102
}
330
1
100
AcDbSymbolTableRecord
100
AcDbBlockTableRecord
  2
*MODEL_SPACE
  0
BLOCK_RECORD
  5
101
102
{ACAD_XDICTIONARY
360
8D78
102
}
330
1
100
AcDbSymbolTableRecord
100
AcDbBlockTableRecord
  2
*PAPER_SPACE
  0
BLOCK_RECORD
  5
59
330
1
100
AcDbSymbolTableRecord
100
AcDbBlockTableRecord
  2
_OPEN30
  0
BLOCK_RECORD
  5
64
330
1
100
AcDbSymbolTableRecord
100
AcDbBlockTableRecord
  2
GENAXEH
  0
BLOCK_RECORD
  5
71C6
330
1
100
AcDbSymbolTableRecord
100
AcDbBlockTableRecord
  2
*D5
  0
BLOCK_RECORD
  5
7252
330
1
100
AcDbSymbolTableRecord
100
AcDbBlockTableRecord
  2
*D6
  0
BLOCK_RECORD
  5
743A
330
1
100
AcDbSymbolTableRecord
100
AcDbBlockTableRecord
  2
*D7
  0
BLOCK_RECORD
  5
8283
330
1
100
AcDbSymbolTableRecord
100
AcDbBlockTableRecord
  2
*D8
  0
BLOCK_RECORD
  5
8656
330
1
100
AcDbSymbolTableRecord
100
AcDbBlockTableRecord
  2
*D9
  0
BLOCK_RECORD
  5
8779
330
1
100
AcDbSymbolTableRecord
100
AcDbBlockTableRecord
  2
*D10
  0
BLOCK_RECORD
  5
8B83
330
1
100
AcDbSymbolTableRecord
100
AcDbBlockTableRecord
  2
*D11
  0
BLOCK_RECORD
  5
8C38
330
1
100
AcDbSymbolTableRecord
100
AcDbBlockTableRecord
  2
*D12
  0
ENDTAB
  0
ENDSEC
  0
SECTION
  2
BLOCKS
  0
BLOCK
  5
20
330
1F
100
AcDbEntity
  8
0
100
AcDbBlockBegin
  2
*MODEL_SPACE
 70
     0
 10
0.0
 20
0.0
 30
0.0
  3
*MODEL_SPACE
  1

  0
ENDBLK
  5
21
330
1F
100
AcDbEntity
  8
0
100
AcDbBlockEnd
  0
BLOCK
  5
103
330
101
100
AcDbEntity
 67
     1
  8
0
100
AcDbBlockBegin
  2
*PAPER_SPACE
 70
     0
 10
0.0
 20
0.0
 30
0.0
  3
*PAPER_SPACE
  1

  0
ENDBLK
  5
104
330
101
100
AcDbEntity
 67
     1
  8
0
100
AcDbBlockEnd
  0
BLOCK
  5
5D
330
59
100
AcDbEntity
  8
0
100
AcDbBlockBegin
  2
_OPEN30
 70
     0
 10
0.0
 20
0.0
 30
0.0
  3
_OPEN30
  1

  0
LINE
  5
5A
330
59
100
AcDbEntity
  8
0
 62
     0
100
AcDbLine
 10
-1.0
 20
0.26794919
 30
0.0
 11
0.0
 21
0.0
 31
0.0
  0
LINE
  5
5B
330
59
100
AcDbEntity
  8
0
 62
     0
100
AcDbLine
 10
0.0
 20
0.0
 30
0.0
 11
-1.0
 21
-0.26794919
 31
0.0
  0
LINE
  5
5C
330
59
100
AcDbEntity
  8
0
 62
     0
100
AcDbLine
 10
0.0
 20
0.0
 30
0.0
 11
-1.0
 21
0.0
 31
0.0
  0
ENDBLK
  5
5E
330
59
100
AcDbEntity
  8
0
100
AcDbBlockEnd
  0
BLOCK
  5
66
330
64
100
AcDbEntity
  8
0
100
AcDbBlockBegin
  2
GENAXEH
 70
     0
 10
0.0
 20
0.0
 30
0.0
  3
GENAXEH
  1

  0
LINE
  5
65
330
64
100
AcDbEntity
  8
0
100
AcDbLine
 10
-1.0
 20
0.0
 30
0.0
 11
1.0
 21
0.0
 31
0.0
  0
ENDBLK
  5
67
330
64
100
AcDbEntity
  8
0
100
AcDbBlockEnd
  0
BLOCK
  5
71D0
330
71C6
100
AcDbEntity
  8
0
100
AcDbBlockBegin
  2
*D5
 70
     1
 10
0.0
 20
0.0
 30
0.0
  3
*D5
  1

  0
LINE
  5
8BE2
330
71C6
100
AcDbEntity
  8
AM_5
 62
     3
100
AcDbLine
 10
-151.0
 20
-7.000000000000003
 30
0.0
 11
-165.000001
 21
-7.0
 31
0.0
  0
LINE
  5
8BE3
330
71C6
100
AcDbEntity
  8
AM_5
 62
     3
100
AcDbLine
 10
-151.0
 20
-32.00000000000001
 30
0.0
 11
-165.000001
 21
-32.00000000000001
 31
0.0
  0
LINE
  5
8BE4
330
71C6
100
AcDbEntity
  8
AM_5
 62
     3
100
AcDbLine
 10
-164.000001
 20
-9.499999999999998
 30
0.0
 11
-164.000001
 21
-29.50000000000001
 31
0.0
  0
INSERT
  5
8BE5
330
71C6
100
AcDbEntity
  8
AM_5
 62
     3
100
AcDbBlockReference
  2
_OPEN30
 10
-164.000001
 20
-7.0
 30
0.0
 41
2.5
 42
2.5
 43
2.5
 50
90.0
  0
INSERT
  5
8BE6
330
71C6
100
AcDbEntity
  8
AM_5
 62
     3
100
AcDbBlockReference
  2
_OPEN30
 10
-164.000001
 20
-32.00000000000001
 30
0.0
 41
2.5
 42
2.5
 43
2.5
 50
270.0
  0
MTEXT
  5
8BE7
330
71C6
100
AcDbEntity
  8
AM_5
 62
     2
100
AcDbMText
 10
-167.100001
 20
-19.50000000000002
 30
0.0
 40
3.2
 41
0.0
 71
     5
 72
     1
  1
25
  7
ASAMI
 11
0.0000000000000001
 21
1.0
 31
0.0
1001
ACAD
1000
MTEXTBEGIN
1070
    73
1070
     1
1070
    44
1040
1.0
1070
    74
1070
     0
1000
MTEXTEND
  0
POINT
  5
8BE8
330
71C6
100
AcDbEntity
  8
DEFPOINTS
 62
     0
100
AcDbPoint
 10
-150.0
 20
-7.000000000000003
 30
0.0
  0
POINT
  5
8BE9
330
71C6
100
AcDbEntity
  8
DEFPOINTS
 62
     0
100
AcDbPoint
 10
-150.0
 20
-32.00000000000001
 30
0.0
  0
POINT
  5
8BEA
330
71C6
100
AcDbEntity
  8
DEFPOINTS
 62
     0
100
AcDbPoint
 10
-164.000001
 20
-32.00000000000001
 30
0.0
  0
ENDBLK
  5
71D1
330
71C6
100
AcDbEntity
  8
0
100
AcDbBlockEnd
  0
BLOCK
  5
725C
330
7252
100
AcDbEntity
  8
0
100
AcDbBlockBegin
  2
*D6
 70
     1
 10
0.0
 20
0.0
 30
0.0
  3
*D6
  1

  0
LINE
  5
8C08
330
7252
100
AcDbEntity
  8
AM_5
 62
     3
100
AcDbLine
 10
-53.57123328202729
 20
46.25700937797948
 30
0.0
 11
-35.36047715289395
 21
67.95974341873098
 31
0.0
  0
LINE
  5
8C09
330
7252
100
AcDbEntity
  8
AM_5
 62
     3
100
AcDbLine
 10
-74.28676829167265
 20
60.46229177923381
 30
0.0
 11
-54.51158823086831
 21
84.02943366089454
 31
0.0
  0
LINE
  5
8C0A
330
7252
100
AcDbEntity
  8
AM_5
 62
     3
100
AcDbLine
 10
-37.91837587037793
 20
68.80066799982836
 30
0.0
 11
-53.23926473275744
 21
81.65642019355921
 31
0.0
  0
INSERT
  5
8C0B
330
7252
100
AcDbEntity
  8
AM_5
 62
     3
100
AcDbBlockReference
  2
_OPEN30
 10
-36.00326476258049
 20
67.19369897561199
 30
0.0
 41
2.5
 42
2.5
 43
2.5
 50
319.9999999999997
  0
INSERT
  5
8C0C
330
7252
100
AcDbEntity
  8
AM_5
 62
     3
100
AcDbBlockReference
  2
_OPEN30
 10
-55.15437584055487
 20
83.26338921777557
 30
0.0
 41
2.5
 42
2.5
 43
2.5
 50
139.9999999999997
  0
MTEXT
  5
8C0D
330
7252
100
AcDbEntity
  8
AM_5
 62
     2
100
AcDbMText
 10
-43.5861787115394
 20
77.60328187036261
 30
0.0
 40
3.2
 41
0.0
 71
     5
 72
     1
  1
25
  7
ASAMI
 11
0.7660444431189752
 21
-0.6427876096865428
 31
0.0
1001
ACAD
1000
MTEXTBEGIN
1070
    73
1070
     1
1070
    44
1040
1.0
1070
    74
1070
     0
1000
MTEXTEND
  0
POINT
  5
8C0E
330
7252
100
AcDbEntity
  8
DEFPOINTS
 62
     0
100
AcDbPoint
 10
-54.21402089171383
 20
45.49096493486051
 30
0.0
  0
POINT
  5
8C0F
330
7252
100
AcDbEntity
  8
DEFPOINTS
 62
     0
100
AcDbPoint
 10
-74.92955590135919
 20
59.69624733611484
 30
0.0
  0
POINT
  5
8C10
330
7252
100
AcDbEntity
  8
DEFPOINTS
 62
     0
100
AcDbPoint
 10
-55.15437584055487
 20
83.26338921777557
 30
0.0
  0
ENDBLK
  5
725D
330
7252
100
AcDbEntity
  8
0
100
AcDbBlockEnd
  0
BLOCK
  5
7444
330
743A
100
AcDbEntity
  8
0
100
AcDbBlockBegin
  2
*D7
 70
     1
 10
0.0
 20
0.0
 30
0.0
  3
*D7
  1

  0
LINE
  5
8BF6
330
743A
100
AcDbEntity
  8
AM_5
 62
     3
100
AcDbLine
 10
-9.459855387111625
 20
-31.99999999999999
 30
0.0
 11
15.00000100999999
 21
-32.0
 31
0.0
  0
LINE
  5
8BF7
330
743A
100
AcDbEntity
  8
AM_5
 62
     3
100
AcDbLine
 10
0.9999999999999969
 20
-0.0000000000000048
 30
0.0
 11
15.00000100999999
 21
-0.0000000000000088
 31
0.0
  0
LINE
  5
8BF8
330
743A
100
AcDbEntity
  8
AM_5
 62
     3
100
AcDbLine
 10
14.00000100999998
 20
-29.5
 30
0.0
 11
14.00000100999999
 21
-2.500000000000008
 31
0.0
  0
INSERT
  5
8BF9
330
743A
100
AcDbEntity
  8
AM_5
 62
     3
100
AcDbBlockReference
  2
_OPEN30
 10
14.00000100999998
 20
-32.0
 30
0.0
 41
2.5
 42
2.5
 43
2.5
 50
270.0
  0
INSERT
  5
8BFA
330
743A
100
AcDbEntity
  8
AM_5
 62
     3
100
AcDbBlockReference
  2
_OPEN30
 10
14.00000100999999
 20
-0.0000000000000085
 30
0.0
 41
2.5
 42
2.5
 43
2.5
 50
90.0
  0
MTEXT
  5
8BFB
330
743A
100
AcDbEntity
  8
AM_5
 62
     2
100
AcDbMText
 10
10.90000100999999
 20
-16.0
 30
0.0
 40
3.2
 41
0.0
 71
     5
 72
     1
  1
32
  7
ASAMI
 11
0.0000000000000001
 21
1.0
 31
0.0
1001
ACAD
1000
MTEXTBEGIN
1070
    73
1070
     1
1070
    44
1040
1.0
1070
    74
1070
     0
1000
MTEXTEND
  0
POINT
  5
8BFC
330
743A
100
AcDbEntity
  8
DEFPOINTS
 62
     0
100
AcDbPoint
 10
-10.45985538711162
 20
-31.99999999999999
 30
0.0
  0
POINT
  5
8BFD
330
743A
100
AcDbEntity
  8
DEFPOINTS
 62
     0
100
AcDbPoint
 10
-0.000000000000003
 20
-0.0000000000000045
 30
0.0
  0
POINT
  5
8BFE
330
743A
100
AcDbEntity
  8
DEFPOINTS
 62
     0
100
AcDbPoint
 10
14.00000100999999
 20
-0.0000000000000085
 30
0.0
  0
ENDBLK
  5
7445
330
743A
100
AcDbEntity
  8
0
100
AcDbBlockEnd
  0
BLOCK
  5
8292
330
8283
100
AcDbEntity
  8
0
100
AcDbBlockBegin
  2
*D8
 70
     1
 10
0.0
 20
0.0
 30
0.0
  3
*D8
  1

  0
LINE
  5
8CF1
330
8283
100
AcDbEntity
  8
AM_5
 62
     3
100
AcDbLine
 10
-45.62040520515321
 20
54.8819257975213
 30
0.0
 11
-44.3575885695929
 21
56.386892059738
 31
0.0
  0
LINE
  5
8CF2
330
8283
100
AcDbEntity
  8
AM_5
 62
     3
100
AcDbLine
 10
-56.11259852666756
 20
42.56741175371327
 30
0.0
 11
-46.23564751058949
 21
57.77658257268473
 31
0.0
  0
ARC
  5
8CF3
330
8283
100
AcDbEntity
  8
AM_5
 62
     3
100
AcDbCircle
 10
-56.65723756168259
 20
41.72874118576785
 30
0.0
 40
18.13485699901321
100
AcDbArc
 50
34.19032303341309
 51
42.09516151670606
  0
ARC
  5
8CF4
330
8283
100
AcDbEntity
  8
AM_5
 62
     3
100
AcDbCircle
 10
-56.65723756168259
 20
41.72874118576785
 30
0.0
 40
18.13485699901321
100
AcDbArc
 50
64.90483848329297
 51
72.80967696658592
  0
ARC
  5
8CF5
330
8283
100
AcDbEntity
  8
AM_5
 62
     3
100
AcDbCircle
 10
-56.65723756168259
 20
41.72874118576785
 30
0.0
 40
18.13485699901321
100
AcDbArc
 50
49.99999999999904
 51
57.00000000000001
  0
INSERT
  5
8CF6
330
8283
100
AcDbEntity
  8
AM_5
 62
     3
100
AcDbBlockReference
  2
_OPEN30
 10
-45.00037617927944
 20
55.62084761661903
 30
0.0
 41
2.5
 42
2.5
 43
2.5
 50
136.0475807583525
  0
INSERT
  5
8CF7
330
8283
100
AcDbEntity
  8
AM_5
 62
     3
100
AcDbBlockReference
  2
_OPEN30
 10
-46.78028654560452
 20
56.93791200473931
 30
0.0
 41
2.5
 42
2.5
 43
2.5
 50
330.9524192416464
  0
MTEXT
  5
8CF8
330
8283
100
AcDbEntity
  8
AM_5
 62
     2
100
AcDbMText
 10
-48.99797997315594
 20
61.53416784012542
 30
0.0
 40
3.2
 41
0.0
 71
     5
 72
     1
  1
-7°
  7
ASAMI
 11
0.9326847199996651
 21
-0.3606926850923739
 31
0.0
1001
ACAD
1000
MTEXTBEGIN
1070
    73
1070
     1
1070
    44
1040
1.0
1070
    74
1070
     0
1000
MTEXTEND
  0
POINT
  5
8CF9
330
8283
100
AcDbEntity
  8
DEFPOINTS
 62
     0
100
AcDbPoint
 10
-45.57563176337301
 20
56.08391625629661
 30
0.0
  0
POINT
  5
8CFA
330
8283
100
AcDbEntity
  8
DEFPOINTS
 62
     0
100
AcDbPoint
 10
-64.6844769816352
 20
29.36787644683153
 30
0.0
  0
POINT
  5
8CFB
330
8283
100
AcDbEntity
  8
DEFPOINTS
 62
     0
100
AcDbPoint
 10
-46.26319281483976
 20
54.11588135440233
 30
0.0
  0
POINT
  5
8CFC
330
8283
100
AcDbEntity
  8
DEFPOINTS
 62
     0
100
AcDbPoint
 10
-80.66604110267805
 20
13.1161633118989
 30
0.0
  0
POINT
  5
8CFD
330
8283
100
AcDbEntity
  8
DEFPOINTS
 62
     0
100
AcDbPoint
 10
-56.65723756168373
 20
41.72874118576608
 30
0.0
  0
ENDBLK
  5
8293
330
8283
100
AcDbEntity
  8
0
100
AcDbBlockEnd
  0
BLOCK
  5
8666
330
8656
100
AcDbEntity
  8
0
100
AcDbBlockBegin
  2
*D9
 70
     1
 10
0.0
 20
0.0
 30
0.0
  3
*D9
  1

  0
LINE
  5
8BEB
330
8656
100
AcDbEntity
  8
AM_5
 62
     3
100
AcDbLine
 10
-2.569384146167066
 20
-15.44169252659195
 30
0.0
 11
-7.867687642580662
 21
-45.48986482061933
 31
0.0
  0
LINE
  5
8BEC
330
8656
100
AcDbEntity
  8
AM_5
 62
     3
100
AcDbLine
 10
-0.0000000000000004
 20
-1.869990930820708
 30
0.0
 11
-0.0000000000000093
 21
-46.17819829750815
 31
0.0
  0
ARC
  5
8BED
330
8656
100
AcDbEntity
  8
AM_5
 62
     3
100
AcDbCircle
 10
-0.0000000000000002
 20
-0.8699909308207088
 30
0.0
 40
44.30820736668744
100
AcDbArc
 50
263.2332261790474
 51
266.7667738209524
  0
INSERT
  5
8BEE
330
8656
100
AcDbEntity
  8
AM_5
 62
     3
100
AcDbBlockReference
  2
_OPEN30
 10
-7.694039464913732
 20
-44.50505706760713
 30
0.0
 41
2.5
 42
2.5
 43
2.5
 50
171.6166130895237
  0
INSERT
  5
8BEF
330
8656
100
AcDbEntity
  8
AM_5
 62
     3
100
AcDbBlockReference
  2
_OPEN30
 10
-0.0000000000000084
 20
-45.17819829750814
 30
0.0
 41
2.5
 42
2.5
 43
2.5
 50
358.3833869104762
  0
MTEXT
  5
8BF0
330
8656
100
AcDbEntity
  8
AM_5
 62
     2
100
AcDbMText
 10
-2.341980375944878
 20
-42.01159374712579
 30
0.0
 40
3.2
 41
0.0
 71
     5
 72
     1
  1
10°
  7
ASAMI
 11
0.9983837066779033
 21
-0.0568328623253364
 31
0.0
1001
ACAD
1000
MTEXTBEGIN
1070
    73
1070
     1
1070
    44
1040
1.0
1070
    74
1070
     0
1000
MTEXTEND
  0
POINT
  5
8BF1
330
8656
100
AcDbEntity
  8
DEFPOINTS
 62
     0
100
AcDbPoint
 10
-5.143868912863728
 20
-44.8786020501988
 30
0.0
  0
POINT
  5
8BF2
330
8656
100
AcDbEntity
  8
DEFPOINTS
 62
     0
100
AcDbPoint
 10
-2.395735968500136
 20
-14.45688477357975
 30
0.0
  0
POINT
  5
8BF3
330
8656
100
AcDbEntity
  8
DEFPOINTS
 62
     0
100
AcDbPoint
 10
-0.0000000000000024
 20
11.68810440816765
 30
0.0
  0
POINT
  5
8BF4
330
8656
100
AcDbEntity
  8
DEFPOINTS
 62
     0
100
AcDbPoint
 10
-0.0000000000000044
 20
24.31344168866902
 30
0.0
  0
POINT
  5
8BF5
330
8656
100
AcDbEntity
  8
DEFPOINTS
 62
     0
100
AcDbPoint
 10
-0.012153797590241
 20
-0.9389185421335541
 30
0.0
  0
ENDBLK
  5
8667
330
8656
100
AcDbEntity
  8
0
100
AcDbBlockEnd
  0
BLOCK
  5
8783
330
8779
100
AcDbEntity
  8
0
100
AcDbBlockBegin
  2
*D10
 70
     1
 10
0.0
 20
0.0
 30
0.0
  3
*D10
  1

  0
LINE
  5
8C27
330
8779
100
AcDbEntity
  8
AM_5
 62
     3
100
AcDbLine
 10
-0.0000000000000029
 20
0.9999999999999953
 30
0.0
 11
0.0000000000000027
 21
92.53317437309354
 31
0.0
  0
LINE
  5
8C28
330
8779
100
AcDbEntity
  8
AM_5
 62
     3
100
AcDbLine
 10
-150.0
 20
-6.000000000000004
 30
0.0
 11
-150.0
 21
92.53317437309354
 31
0.0
  0
LINE
  5
8C29
330
8779
100
AcDbEntity
  8
AM_5
 62
     3
100
AcDbLine
 10
-2.499999999999997
 20
91.53317437309354
 30
0.0
 11
-147.5
 21
91.53317437309354
 31
0.0
  0
INSERT
  5
8C2A
330
8779
100
AcDbEntity
  8
AM_5
 62
     3
100
AcDbBlockReference
  2
_OPEN30
 10
0.0000000000000026
 20
91.53317437309354
 30
0.0
 41
2.5
 42
2.5
 43
2.5
  0
INSERT
  5
8C2B
330
8779
100
AcDbEntity
  8
AM_5
 62
     3
100
AcDbBlockReference
  2
_OPEN30
 10
-150.0
 20
91.53317437309354
 30
0.0
 41
2.5
 42
2.5
 43
2.5
 50
180.0
  0
MTEXT
  5
8C2C
330
8779
100
AcDbEntity
  8
AM_5
 62
     2
100
AcDbMText
 10
-75.0
 20
94.63317437309354
 30
0.0
 40
3.2
 41
0.0
 71
     5
 72
     1
  1
150
  7
ASAMI
1001
ACAD
1000
MTEXTBEGIN
1070
    73
1070
     1
1070
    44
1040
1.0
1070
    74
1070
     0
1000
MTEXTEND
  0
POINT
  5
8C2D
330
8779
100
AcDbEntity
  8
DEFPOINTS
 62
     0
100
AcDbPoint
 10
-0.000000000000003
 20
-0.0000000000000045
 30
0.0
  0
POINT
  5
8C2E
330
8779
100
AcDbEntity
  8
DEFPOINTS
 62
     0
100
AcDbPoint
 10
-150.0
 20
-7.000000000000004
 30
0.0
  0
POINT
  5
8C2F
330
8779
100
AcDbEntity
  8
DEFPOINTS
 62
     0
100
AcDbPoint
 10
-150.0
 20
91.53317437309354
 30
0.0
  0
ENDBLK
  5
8784
330
8779
100
AcDbEntity
  8
0
100
AcDbBlockEnd
  0
BLOCK
  5
8B8D
330
8B83
100
AcDbEntity
  8
0
100
AcDbBlockBegin
  2
*D11
 70
     1
 10
0.0
 20
0.0
 30
0.0
  3
*D11
  1

  0
LINE
  5
8C1E
330
8B83
100
AcDbEntity
  8
AM_5
 62
     3
100
AcDbLine
 10
-87.14171001101425
 20
6.249273131109021
 30
0.0
 11
-92.98221666067192
 21
-0.7111716511908952
 31
0.0
  0
LINE
  5
8C1F
330
8B83
100
AcDbEntity
  8
AM_5
 62
     3
100
AcDbLine
 10
-104.2389520132837
 20
24.76666922296206
 30
0.0
 11
-112.1333277386463
 21
15.35851859097258
 31
0.0
  0
LINE
  5
8C20
330
8B83
100
AcDbEntity
  8
AM_5
 62
     3
100
AcDbLine
 10
-94.25454015878283
 20
1.661841816144431
 30
0.0
 11
-109.5754290211623
 21
14.51759400987521
 31
0.0
  0
INSERT
  5
8C21
330
8B83
100
AcDbEntity
  8
AM_5
 62
     3
100
AcDbBlockReference
  2
_OPEN30
 10
-92.33942905098539
 20
0.0548727919280836
 30
0.0
 41
2.5
 42
2.5
 43
2.5
 50
320.0
  0
INSERT
  5
8C22
330
8B83
100
AcDbEntity
  8
AM_5
 62
     3
100
AcDbBlockReference
  2
_OPEN30
 10
-111.4905401289598
 20
16.12456303409155
 30
0.0
 41
2.5
 42
2.5
 43
2.5
 50
140.0
  0
MTEXT
  5
8C23
330
8B83
100
AcDbEntity
  8
AM_5
 62
     2
100
AcDbMText
 10
-99.92234299994436
 20
10.46445568667866
 30
0.0
 40
3.2
 41
0.0
 71
     5
 72
     1
  1
25
  7
ASAMI
 11
0.766044443118978
 21
-0.6427876096865394
 31
0.0
1001
ACAD
1000
MTEXTBEGIN
1070
    73
1070
     1
1070
    44
1040
1.0
1070
    74
1070
     0
1000
MTEXTEND
  0
POINT
  5
8C24
330
8B83
100
AcDbEntity
  8
DEFPOINTS
 62
     0
100
AcDbPoint
 10
-86.4989224013277
 20
7.015317574228006
 30
0.0
  0
POINT
  5
8C25
330
8B83
100
AcDbEntity
  8
DEFPOINTS
 62
     0
100
AcDbPoint
 10
-103.5961644035971
 20
25.53271366608104
 30
0.0
  0
POINT
  5
8C26
330
8B83
100
AcDbEntity
  8
DEFPOINTS
 62
     0
100
AcDbPoint
 10
-111.4905401289598
 20
16.12456303409155
 30
0.0
  0
ENDBLK
  5
8B8E
330
8B83
100
AcDbEntity
  8
0
100
AcDbBlockEnd
  0
BLOCK
  5
8C42
330
8C38
100
AcDbEntity
  8
0
100
AcDbBlockBegin
  2
*D12
 70
     1
 10
0.0
 20
0.0
 30
0.0
  3
*D12
  1

  0
LINE
  5
8CB0
330
8C38
100
AcDbEntity
  8
AM_5
 62
     3
100
AcDbLine
 10
-38.00000000000001
 20
-33.0
 30
0.0
 11
-38.00000000000001
 21
-58.1434757254874
 31
0.0
  0
LINE
  5
8CB1
330
8C38
100
AcDbEntity
  8
AM_5
 62
     3
100
AcDbLine
 10
-0.0000000000000005
 20
-1.800000000000001
 30
0.0
 11
-0.000000000000004
 21
-58.1434757254874
 31
0.0
  0
LINE
  5
8CB2
330
8C38
100
AcDbEntity
  8
AM_5
 62
     3
100
AcDbLine
 10
-35.50000000000001
 20
-57.1434757254874
 30
0.0
 11
-2.500000000000003
 21
-57.1434757254874
 31
0.0
  0
INSERT
  5
8CB3
330
8C38
100
AcDbEntity
  8
AM_5
 62
     3
100
AcDbBlockReference
  2
_OPEN30
 10
-38.00000000000001
 20
-57.1434757254874
 30
0.0
 41
2.5
 42
2.5
 43
2.5
 50
180.0
  0
INSERT
  5
8CB4
330
8C38
100
AcDbEntity
  8
AM_5
 62
     3
100
AcDbBlockReference
  2
_OPEN30
 10
-0.0000000000000039
 20
-57.1434757254874
 30
0.0
 41
2.5
 42
2.5
 43
2.5
  0
MTEXT
  5
8CB5
330
8C38
100
AcDbEntity
  8
AM_5
 62
     2
100
AcDbMText
 10
-19.00000000000001
 20
-54.0434757254874
 30
0.0
 40
3.2
 41
0.0
 71
     5
 72
     1
  1
38
  7
ASAMI
1001
ACAD
1000
MTEXTBEGIN
1070
    73
1070
     1
1070
    44
1040
1.0
1070
    74
1070
     0
1000
MTEXTEND
  0
POINT
  5
8CB6
330
8C38
100
AcDbEntity
  8
DEFPOINTS
 62
     0
100
AcDbPoint
 10
-38.00000000000001
 20
-32.00000000000001
 30
0.0
  0
POINT
  5
8CB7
330
8C38
100
AcDbEntity
  8
DEFPOINTS
 62
     0
100
AcDbPoint
 10
-0.0000000000000004
 20
-0.8000000000000014
 30
0.0
  0
POINT
  5
8CB8
330
8C38
100
AcDbEntity
  8
DEFPOINTS
 62
     0
100
AcDbPoint
 10
-0.0000000000000039
 20
-57.1434757254874
 30
0.0
  0
ENDBLK
  5
8C43
330
8C38
100
AcDbEntity
  8
0
100
AcDbBlockEnd
  0
ENDSEC
  0
SECTION
  2
ENTITIES
  0
TEXT
  5
C58
330
1F
100
AcDbEntity
  8
AM_6
100
AcDbText
 10
-104.1666666666666
 20
-79.6434757254875
 30
0.0
 40
5.0
  1
MTXNR2525-43
 50
0.0000000000002036
 72
     4
 11
-75.0
 21
-77.1434757254874
 31
0.0
100
AcDbText
  0
LINE
  5
5F9C
330
1F
100
AcDbEntity
  8
AM_0
100
AcDbLine
 10
-10.45985538711162
 20
-32.00000000000001
 30
0.0
 11
-11.31112029604823
 21
-32.00000000000001
 31
0.0
  0
LINE
  5
5FA5
330
1F
100
AcDbEntity
  8
AM_0
100
AcDbLine
 10
-150.0
 20
-7.000000000000004
 30
0.0
 11
-150.0
 21
-32.00000000000001
 31
0.0
  0
LINE
  5
5FAD
330
1F
100
AcDbEntity
  8
AM_0
100
AcDbLine
 10
-20.17340352074898
 20
-7.000000000000004
 30
0.0
 11
-150.0
 21
-7.000000000000004
 31
0.0
  0
LINE
  5
5FBF
330
1F
100
AcDbEntity
  8
AM_0
100
AcDbLine
 10
-38.00000000000001
 20
-10.59787754301749
 30
0.0
 11
-38.00000000000001
 21
-32.00000000000001
 31
0.0
  0
LINE
  5
6103
330
1F
100
AcDbEntity
  8
AM_0
100
AcDbLine
 10
-75.53982761230546
 20
20.07585816062572
 30
0.0
 11
-86.4989224013277
 21
7.015317574228035
 31
0.0
  0
LINE
  5
6111
330
1F
100
AcDbEntity
  8
AM_0
100
AcDbLine
 10
-35.85640646055102
 20
-13.22248589165036
 30
0.0
 11
-35.85640646055102
 21
-32.00000000000001
 31
0.0
  0
LINE
  5
61B2
330
1F
100
AcDbEntity
  8
AM_0
100
AcDbLine
 10
-70.70130316170052
 20
37.58078765098195
 30
0.0
 11
-85.28722725396475
 21
46.58320817407846
 31
0.0
  0
LINE
  5
628D
330
1F
100
AcDbEntity
  8
AM_7
100
AcDbLine
 10
-85.06740247926964
 20
50.83879443446104
 30
0.0
 11
-57.29071644026508
 21
32.80040360686813
 31
0.0
  0
POINT
  5
68EE
330
1F
100
AcDbEntity
  8
0
 60
     1
100
AcDbPoint
 10
0.0
 20
0.0
 30
0.0
1001
GENIUS_GENOBJ-NBEHI-BHF_13
1002
{
1000
OWNER
1000
GENBEHI
1002
}
1001
GENIUS_GENOENT_13
1002
{
1000
MYREF
1005
68EE
1002
}
1002
{
1000
GRP
1005
0
1002
}
1001
GENIUS_GENOLIS_13
1002
{
1000
ENT
1005
68EB
1002
}
1001
GENIUS_GENBH_13
1002
{
1000
OIUMAP
1000
OIU
1002
}
1002
{
1000
FLAGS
1070
    32
1002
}
1002
{
1000
BGO
1005
68F2
1002
}
1001
GENIUS_GENODEF_13
1002
{
1000
HIER
1070
     1
1002
}
1002
{
1000
MANEDIT
1070
     1
1002
}
1002
{
1000
NOSEL
1070
     1
1002
}
1002
{
1000
BEHIND
1070
     0
1002
}
1002
{
1000
REACTOR
1002
}
  0
POINT
  5
68F2
330
1F
100
AcDbEntity
  8
0
 60
     1
100
AcDbPoint
 10
0.0
 20
0.0
 30
0.0
1001
GENIUS_GENOBJ-NBEHI-BHB_13
1002
{
1000
OWNER
1000
GENBEHI
1002
}
1001
GENIUS_GENOENT_13
1002
{
1000
MYREF
1005
68F2
1002
}
1002
{
1000
GRP
1005
0
1002
}
1001
GENIUS_GENOLIS_13
1002
{
1000
ENT
1002
}
1001
GENIUS_GENODEF_13
1002
{
1000
HIER
1070
     1
1002
}
1002
{
1000
MANEDIT
1070
     0
1002
}
1002
{
1000
NOSEL
1070
     1
1002
}
1002
{
1000
BEHIND
1070
     0
1002
}
1002
{
1000
REACTOR
1002
}
1002
{
1000
OTHER
1070
     1
1002
}
1001
GENIUS_GENBH_13
1002
{
1000
FGO
1005
68EE
1002
}
  0
LINE
  5
6987
330
1F
100
AcDbEntity
  8
AM_0
100
AcDbLine
 10
-4.166608153282032
 20
-24.50000000000001
 30
0.0
 11
-0.012153797590241
 21
-0.9389185421335543
 31
0.0
  0
LINE
  5
6989
330
1F
100
AcDbEntity
  8
AM_0
100
AcDbLine
 10
-1.073616114660546
 20
-0.0482459033712718
 30
0.0
 11
-20.173403520749
 21
-7.000000000000004
 31
0.0
  0
LINE
  5
6993
330
1F
100
AcDbEntity
  8
AM_0
100
AcDbLine
 10
-64.6844769816352
 20
29.36787644683155
 30
0.0
 11
-72.66862078847563
 21
34.5528400601746
 31
0.0
  0
LINE
  5
69A2
330
1F
100
AcDbEntity
  8
AM_0
100
AcDbLine
 10
-62.37763515993536
 20
50.39956827268319
 30
0.0
 11
-54.39349135309496
 21
45.2146046593401
 31
0.0
  0
LINE
  5
69B2
330
1F
100
AcDbEntity
  8
AM_0
100
AcDbLine
 10
-64.68447698163519
 20
29.36787644683153
 30
0.0
 11
-54.39349135309493
 21
45.21460465934008
 31
0.0
  0
LINE
  5
69B4
330
1F
100
AcDbEntity
  8
AM_0
100
AcDbLine
 10
-62.41893574696312
 20
50.32519857590356
 30
0.0
 11
-74.96458684515658
 21
59.60849204945514
 31
0.0
  0
LINE
  5
69F7
330
1F
100
AcDbEntity
  8
AM_0
100
AcDbLine
 10
-70.32669856515766
 20
15.70152349988439
 30
0.0
 11
-77.89015255919871
 21
24.67630777021677
 31
0.0
  0
ARC
  5
6A2B
330
1F
100
AcDbEntity
  8
AM_0
100
AcDbCircle
 10
-64.8635198114524
 20
29.47187614806602
 30
0.0
 40
0.5
100
AcDbArc
 50
145.6933670829905
 51
32.56878598737412
  0
LINE
  5
6A2D
330
1F
100
AcDbEntity
  8
AM_0
100
AcDbLine
 10
-66.1879469362886
 20
30.34424125152782
 30
0.0
 11
-71.62255289497142
 21
32.45476487242418
 31
0.0
  0
LINE
  5
6A41
330
1F
100
AcDbEntity
  8
AM_0
100
AcDbLine
 10
-68.4382639531714
 20
25.05993667072164
 30
0.0
 11
-65.08358168138966
 21
22.8813805306615
 31
0.0
  0
LINE
  5
6A46
330
1F
100
AcDbEntity
  8
AM_0
100
AcDbLine
 10
-69.0252436662038
 20
24.25202840602043
 30
0.0
 11
-66.04606420556727
 21
22.31732664278497
 31
0.0
  0
LINE
  5
6A5E
330
1F
100
AcDbEntity
  8
AM_0
100
AcDbLine
 10
-74.40531444052417
 20
8.89086404862202
 30
0.0
 11
-65.80538351731412
 21
22.13359636849876
 31
0.0
  0
LINE
  5
6A5F
330
1F
100
AcDbEntity
  8
AM_0
100
AcDbLine
 10
-67.41568430710543
 20
18.73591137170783
 30
0.0
 11
-61.387151326321
 21
28.01903809201849
 31
0.0
  0
ARC
  5
6A69
330
1F
100
AcDbEntity
  8
AM_0
100
AcDbCircle
 10
-68.71058347067876
 20
24.64060138674907
 30
0.0
 40
0.5
100
AcDbArc
 50
57.00000000000013
 51
230.9999999999983
  0
LINE
  5
6A81
330
1F
100
AcDbEntity
  8
AM_7
100
AcDbLine
 10
-86.73004082915255
 20
36.37377555720056
 30
0.0
 11
-60.13288734061326
 21
19.10138212430339
 31
0.0
  0
LINE
  5
6A8B
330
1F
100
AcDbEntity
  8
AM_0
100
AcDbLine
 10
-73.14288307836005
 20
30.11366168959419
 30
0.0
 11
-63.91750683096041
 21
24.1226323044289
 31
0.0
  0
LINE
  5
6AA9
330
1F
100
AcDbEntity
  8
AM_0
100
AcDbLine
 10
-60.68957608961416
 20
24.5030136117064
 30
0.0
 11
-62.78625250947772
 21
25.86461119924396
 31
0.0
  0
LINE
  5
6AAD
330
1F
100
AcDbEntity
  8
AM_0
100
AcDbLine
 10
-65.3190078872419
 20
17.37431378417028
 30
0.0
 11
-67.41568430710548
 21
18.73591137170785
 31
0.0
  0
LINE
  5
6AB5
330
1F
100
AcDbEntity
  8
AM_0
100
AcDbLine
 10
-63.24404348280123
 20
17.81536108356589
 30
0.0
 11
-60.24852879021857
 21
22.42804920726571
 31
0.0
  0
LINE
  5
6B26
330
1F
100
AcDbEntity
  8
AM_0
100
AcDbLine
 10
-60.24852879021858
 20
22.42804920726571
 30
0.0
 11
-60.68957608961416
 21
24.5030136117064
 31
0.0
1001
GENIUS_GENFIL_13
1070
     0
1040
1.5
1040
1.5
1040
20.0
1040
0.0
1002
{
1002
}
1001
GENIUS_GENODEF_13
1002
{
1000
HIER
1070
     0
1002
}
1002
{
1000
MANEDIT
1070
     0
1002
}
1002
{
1000
NOSEL
1070
     0
1002
}
1002
{
1000
BEHIND
1070
     0
1002
}
1002
{
1000
REACTOR
1002
}
1001
GENIUS_GENOBJ-N-CHA_13
1002
{
1000
OWNER
1000
GEN
1002
}
  0
LINE
  5
6B29
330
1F
100
AcDbEntity
  8
AM_0
100
AcDbLine
 10
-63.24404348280123
 20
17.81536108356589
 30
0.0
 11
-65.3190078872419
 21
17.37431378417028
 31
0.0
1001
GENIUS_GENFIL_13
1070
     0
1040
1.5
1040
1.5
1040
20.0
1040
0.0
1002
{
1002
}
1001
GENIUS_GENODEF_13
1002
{
1000
HIER
1070
     0
1002
}
1002
{
1000
MANEDIT
1070
     0
1002
}
1002
{
1000
NOSEL
1070
     0
1002
}
1002
{
1000
BEHIND
1070
     0
1002
}
1002
{
1000
REACTOR
1002
}
1001
GENIUS_GENOBJ-N-CHA_13
1002
{
1000
OWNER
1000
GEN
1002
}
  0
LINE
  5
6B2B
330
1F
100
AcDbEntity
  8
AM_0
100
AcDbLine
 10
-60.68957608961416
 20
24.5030136117064
 30
0.0
 11
-65.31900788724191
 21
17.37431378417028
 31
0.0
  0
LINE
  5
6D42
330
1F
100
AcDbEntity
  8
AM_0
100
AcDbLine
 10
-68.67654888505542
 20
31.96035825350306
 30
0.0
 11
-58.38556325651516
 21
47.80708646601163
 31
0.0
  0
DIMENSION
  5
71C5
330
1F
100
AcDbEntity
  8
AM_5
100
AcDbDimension
  2
*D5
 10
-164.000001
 20
-32.00000000000001
 30
0.0
 11
-167.100001
 21
-19.50000000000002
 31
0.0
 70
    32
  1
<>
  3
AM_JIS
100
AcDbAlignedDimension
 13
-150.0
 23
-7.000000000000004
 33
0.0
 14
-150.0
 24
-32.00000000000001
 34
0.0
 50
270.0
100
AcDbRotatedDimension
1001
GENIUS_GENDTOL_13
1000

1000
h7
1000

1040
0.0
  0
DIMENSION
  5
7251
330
1F
100
AcDbEntity
  8
AM_5
100
AcDbDimension
  2
*D6
 10
-55.15437584055487
 20
83.26338921777557
 30
0.0
 11
-43.5861787115394
 21
77.60328187036261
 31
0.0
 70
    32
  1
<>
  3
AM_JIS
100
AcDbAlignedDimension
 13
-54.21402089171383
 23
45.4909649348605
 33
0.0
 14
-74.92955590135919
 24
59.69624733611483
 34
0.0
 50
139.9999999999997
100
AcDbRotatedDimension
1001
GENIUS_GENDTOL_13
1000

1000
h7
1000

1040
0.0
  0
DIMENSION
  5
7439
330
1F
100
AcDbEntity
  8
AM_5
100
AcDbDimension
  2
*D7
 10
14.00000100999999
 20
-0.0000000000000085
 30
0.0
 11
10.90000100999999
 21
-16.0
 31
0.0
 70
    32
  1
<>
  3
AM_JIS
100
AcDbAlignedDimension
 13
-10.45985538711162
 23
-31.99999999999999
 33
0.0
 14
-0.000000000000003
 24
-0.0000000000000045
 34
0.0
 50
90.00000000000003
100
AcDbRotatedDimension
1001
GENIUS_GENDTOL_13
1000

1000
h7
1000

1040
0.0
  0
LINE
  5
7A8B
330
1F
100
AcDbEntity
  8
AM_11
100
AcDbLine
 10
-0.000000000000003
 20
-0.0000000000000045
 30
0.0
 11
-0.8000000000000031
 21
-0.0000000000000045
 31
0.0
  0
LINE
  5
7A95
330
1F
100
AcDbEntity
  8
AM_11
100
AcDbLine
 10
-0.000000000000003
 20
-0.8000000000000017
 30
0.0
 11
-0.000000000000003
 21
-0.0000000000000045
 31
0.0
  0
LINE
  5
7ADC
330
1F
100
AcDbEntity
  8
AM_0
100
AcDbLine
 10
-4.166608153282038
 20
-24.5
 30
0.0
 11
-10.45985538711162
 21
-31.99999999999999
 31
0.0
  0
LINE
  5
8174
330
1F
100
AcDbEntity
  8
AM_0
100
AcDbLine
 10
-61.34925623090302
 20
33.58562679808299
 30
0.0
 11
-61.76859151487573
 21
33.85794631559049
 31
0.0
  0
LINE
  5
817C
330
1F
100
AcDbEntity
  8
AM_0
100
AcDbLine
 10
-61.37462186409812
 20
28.03833177191089
 30
0.0
 11
-61.34925623090302
 21
33.58562679808299
 31
0.0
  0
LINE
  5
81B0
330
1F
100
AcDbEntity
  8
AM_0
100
AcDbLine
 10
-78.61576390520551
 20
3.879361061172488
 30
0.0
 11
-85.67162956423572
 21
8.001246784960017
 31
0.0
  0
LINE
  5
81B1
330
1F
100
AcDbEntity
  8
AM_0
100
AcDbLine
 10
-77.8901525591987
 20
24.67630777021677
 30
0.0
 11
-75.53982761230546
 21
20.07585816062567
 31
0.0
  0
LINE
  5
81B2
330
1F
100
AcDbEntity
  8
AM_0
100
AcDbLine
 10
-70.336872852626
 20
15.71006074074656
 30
0.0
 11
-75.53982761230544
 21
20.07585816062568
 31
0.0
  0
DIMENSION
  5
8282
330
1F
100
AcDbEntity
  8
AM_5
100
AcDbDimension
  2
*D8
 10
-56.65723756168373
 20
41.72874118576607
 30
0.0
 11
-50.11612729694229
 21
58.64284520812645
 31
0.0
 70
   162
  1
-<>
 51
40.00000000000007
  3
AM_JIS$2
100
AcDb2LineAngularDimension
 13
-46.26319281483975
 23
54.11588135440233
 33
0.0
 14
-80.66604110267803
 24
13.1161633118989
 34
0.0
 15
-64.68447698163519
 25
29.36787644683153
 35
0.0
 16
-45.57563176337301
 26
56.08391625629661
 36
0.0
1001
ACAD
1000
DSTYLE
1002
{
1070
   179
1070
     3
1070
    76
1070
     0
1070
    75
1070
     0
1002
}
1001
GENIUS_GENDTOL_13
1000

1000
h7
1000

1040
0.0
  0
DIMENSION
  5
8655
330
1F
100
AcDbEntity
  8
AM_5
100
AcDbDimension
  2
*D9
 10
-0.012153797590241
 20
-0.9389185421335543
 30
0.0
 11
-2.518162249153422
 21
-45.10658323782729
 31
0.0
 70
   162
  1
<>
  3
AM_JIS$2
100
AcDb2LineAngularDimension
 13
-0.0000000000000023
 23
11.68810440816765
 33
0.0
 14
-0.0000000000000045
 24
24.31344168866902
 34
0.0
 15
-2.395735968500136
 25
-14.45688477357975
 35
0.0
 16
-5.143868912863728
 26
-44.8786020501988
 36
0.0
1001
ACAD
1000
DSTYLE
1002
{
1070
   179
1070
     3
1002
}
1001
GENIUS_GENDTOL_13
1000

1000
h7
1000

1040
0.0
  0
DIMENSION
  5
8778
330
1F
100
AcDbEntity
  8
AM_5
100
AcDbDimension
  2
*D10
 10
-150.0
 20
91.53317437309354
 30
0.0
 11
-75.0
 21
94.63317437309354
 31
0.0
 70
    32
  1
<>
  3
AM_JIS
100
AcDbAlignedDimension
 13
-0.000000000000003
 23
-0.0000000000000045
 33
0.0
 14
-150.0
 24
-7.000000000000004
 34
0.0
 50
180.0
100
AcDbRotatedDimension
1001
GENIUS_GENDTOL_13
1000

1000
h7
1000

1040
0.0
  0
LINE
  5
88BA
330
1F
100
AcDbEntity
  8
AM_0
100
AcDbLine
 10
-103.5961644035971
 20
25.53271366608104
 30
0.0
 11
-74.92955590135919
 21
59.69624733611483
 31
0.0
  0
CIRCLE
  5
8A97
102
{ACAD_REACTORS
330
8AC5
102
}
330
1F
100
AcDbEntity
  8
AM_0
100
AcDbCircle
 10
-7.93265342830531
 20
-9.305014050581936
 30
0.0
 40
2.5
  0
LINE
  5
8A98
102
{ACAD_REACTORS
330
8AC5
102
}
330
1F
100
AcDbEntity
  8
AM_7
100
AcDbLine
 10
-4.734518801475171
 20
-11.98856763641045
 30
0.0
 11
-11.135366133566
 21
-6.617619000830861
 31
0.0
  0
LINE
  5
8A9E
102
{ACAD_REACTORS
330
8AC5
102
}
330
1F
100
AcDbEntity
  8
AM_7
100
AcDbLine
 10
-5.131887971577962
 20
-5.967191755513359
 30
0.0
 11
-23.85926666969613
 21
-28.28561259886793
 31
0.0
  0
LINE
  5
8A9F
102
{ACAD_REACTORS
330
8AC5
102
}
330
1F
100
AcDbEntity
  8
AM_0
100
AcDbLine
 10
-5.237720665532505
 20
-19.09592846624962
 30
0.0
 11
-18.04279201712421
 21
-8.351197817930204
 31
0.0
  0
LINE
  5
8AA0
102
{ACAD_REACTORS
330
8AC5
102
}
330
1F
100
AcDbEntity
  8
AM_0
100
AcDbLine
 10
-4.371910144067991
 20
-14.18567299663422
 30
0.0
 11
-13.35748078063359
 21
-6.645883989574647
 31
0.0
  0
LINE
  5
8AA1
102
{ACAD_REACTORS
330
8AC5
102
}
330
1F
100
AcDbEntity
  8
AM_0
100
AcDbLine
 10
-4.371910144067991
 20
-14.18567299663422
 30
0.0
 11
-6.502602907068875
 21
-26.2694321266321
 31
0.0
  0
LINE
  5
8AA2
102
{ACAD_REACTORS
330
8AC5
102
}
330
1F
100
AcDbEntity
  8
AM_0
100
AcDbLine
 10
-3.601827836526072
 20
-21.22834449459695
 30
0.0
 11
-5.35441720084684
 21
-19.75774740539018
 31
0.0
  0
LINE
  5
8AA4
102
{ACAD_REACTORS
330
8AC5
102
}
330
1F
100
AcDbEntity
  8
AM_7
100
AcDbLine
 10
-6.187560664407995
 20
-27.15218222625838
 30
0.0
 11
-26.79733065286263
 21
-9.858531830297549
 31
0.0
  0
CIRCLE
  5
8AA5
102
{ACAD_REACTORS
330
8AC5
102
}
330
1F
100
AcDbEntity
  8
AM_0
100
AcDbCircle
 10
-15.99963792987137
 20
-18.91887181172509
 30
0.0
 40
5.0
1001
GENIUS_GENOREF_13
1005
0
  0
LINE
  5
8AA6
102
{ACAD_REACTORS
330
8AC5
102
}
330
1F
100
AcDbEntity
  8
AM_0
100
AcDbLine
 10
-6.485710807600375
 20
-26.24930090640405
 30
0.0
 11
-11.8672211391845
 21
-21.7336775719951
 31
0.0
  0
LINE
  5
8AA7
102
{ACAD_REACTORS
330
8AC5
102
}
330
1F
100
AcDbEntity
  8
AM_0
100
AcDbLine
 10
-7.128498417286919
 20
-27.01534534952304
 30
0.0
 11
-12.51000874887106
 21
-22.49972201511407
 31
0.0
  0
LINE
  5
8AA8
102
{ACAD_REACTORS
330
8AC5
102
}
330
1F
100
AcDbEntity
  8
AM_0
100
AcDbLine
 10
-6.502602907068858
 20
-26.26943212663212
 30
0.0
 11
-12.20652053381056
 21
-33.06709645016297
 31
0.0
  0
LINE
  5
8AA9
102
{ACAD_REACTORS
330
8AC5
102
}
330
1F
100
AcDbEntity
  8
AM_0
100
AcDbLine
 10
-12.20652053381056
 20
-33.06709645016297
 30
0.0
 11
-35.85640646055101
 21
-13.22248589165037
 31
0.0
  0
CIRCLE
  5
8AAA
102
{ACAD_REACTORS
330
8AC5
102
}
330
1F
100
AcDbEntity
  8
AM_0
100
AcDbCircle
 10
-15.99963792987137
 20
-18.91887181172509
 30
0.0
 40
3.75
1001
GENIUS_GENOREF_13
1005
0
  0
LINE
  5
8AAB
102
{ACAD_REACTORS
330
8AC5
102
}
330
1F
100
AcDbEntity
  8
AM_0
100
AcDbLine
 10
-16.64901568877068
 20
-21.73163590769549
 30
0.0
 11
-13.88840164735828
 21
-20.88763149557013
 31
0.0
1001
GENIUS_GENOREF_13
1005
0
  0
LINE
  5
8AAC
102
{ACAD_REACTORS
330
8AC5
102
}
330
1F
100
AcDbEntity
  8
AM_0
100
AcDbLine
 10
-15.35026017097175
 20
-16.10610771575475
 30
0.0
 11
-18.11087421238466
 21
-16.95011212788027
 31
0.0
1001
GENIUS_GENOREF_13
1005
0
  0
LINE
  5
8AAD
102
{ACAD_REACTORS
330
8AC5
102
}
330
1F
100
AcDbEntity
  8
AM_0
100
AcDbLine
 10
-13.88840164735828
 20
-20.88763149557013
 30
0.0
 11
-13.23902388845849
 21
-18.07486739959958
 31
0.0
1001
GENIUS_GENOREF_13
1005
0
  0
LINE
  5
8AAE
102
{ACAD_REACTORS
330
8AC5
102
}
330
1F
100
AcDbEntity
  8
AM_0
100
AcDbLine
 10
-13.23902388845849
 20
-18.07486739959958
 30
0.0
 11
-15.35026017097175
 21
-16.10610771575475
 31
0.0
1001
GENIUS_GENOREF_13
1005
0
  0
LINE
  5
8AAF
102
{ACAD_REACTORS
330
8AC5
102
}
330
1F
100
AcDbEntity
  8
AM_0
100
AcDbLine
 10
-18.76025197128428
 20
-19.76287622385059
 30
0.0
 11
-16.64901568877068
 21
-21.73163590769549
 31
0.0
1001
GENIUS_GENOREF_13
1005
0
  0
LINE
  5
8AB0
102
{ACAD_REACTORS
330
8AC5
102
}
330
1F
100
AcDbEntity
  8
AM_0
100
AcDbLine
 10
-18.11087421238466
 20
-16.95011212788027
 30
0.0
 11
-18.76025197128428
 21
-19.76287622385059
 31
0.0
1001
GENIUS_GENOREF_13
1005
0
  0
LINE
  5
8AB1
102
{ACAD_REACTORS
330
8AC5
102
}
330
1F
100
AcDbEntity
  8
AM_0
100
AcDbLine
 10
-19.4892671108717
 20
-15.33802160833611
 30
0.0
 11
-24.87077744245585
 21
-10.82239827392713
 31
0.0
  0
LINE
  5
8AB2
102
{ACAD_REACTORS
330
8AC5
102
}
330
1F
100
AcDbEntity
  8
AM_0
100
AcDbLine
 10
-20.13205472055825
 20
-16.10406605145509
 30
0.0
 11
-25.51356505214239
 21
-11.5884427170461
 31
0.0
  0
LINE
  5
8AB3
102
{ACAD_REACTORS
330
8AC5
102
}
330
1F
100
AcDbEntity
  8
AM_0
100
AcDbLine
 10
-13.35748078063359
 20
-6.645883989574647
 30
0.0
 11
-24.88766954192431
 21
-10.84252949415515
 31
0.0
  0
LINE
  5
8AB4
102
{ACAD_REACTORS
330
8AC5
102
}
330
1F
100
AcDbEntity
  8
AM_0
100
AcDbLine
 10
-24.88766954192434
 20
-10.84252949415515
 30
0.0
 11
-30.59158716866606
 21
-17.64019381768603
 31
0.0
  0
LINE
  5
8AB6
102
{ACAD_REACTORS
330
8AC5
102
}
330
1F
100
AcDbEntity
  8
AM_0
100
AcDbLine
 10
-29.62740575413625
 20
-16.49112715300759
 30
0.0
 11
-40.93849063650135
 21
-7.000000000000004
 31
0.0
  0
POLYLINE
  5
8ACB
330
1F
100
AcDbEntity
  8
AM_0
100
AcDb2dPolyline
 66
     1
 10
0.0
 20
0.0
 30
0.0
  0
VERTEX
  5
8ACC
330
8ACB
100
AcDbEntity
  8
AM_0
100
AcDbVertex
100
AcDb2dVertex
 10
-3.350672674195901
 20
-19.87259995147777
 30
0.0
  0
VERTEX
  5
8ACD
330
8ACB
100
AcDbEntity
  8
AM_0
100
AcDbVertex
100
AcDb2dVertex
 10
-0.0121537975902329
 20
-0.9389185421335401
 30
0.0
 42
0.5773502691896255
  0
VERTEX
  5
8ACE
330
8ACB
100
AcDbEntity
  8
AM_0
100
AcDbVertex
100
AcDb2dVertex
 10
-1.073616114660548
 20
-0.0482459033712718
 30
0.0
  0
VERTEX
  5
8ACF
330
8ACB
100
AcDbEntity
  8
AM_0
100
AcDbVertex
100
AcDb2dVertex
 10
-19.13992464061662
 20
-6.623844449888996
 30
0.0
 42
0.5773502691896255
  0
VERTEX
  5
8AD0
330
8ACB
100
AcDbEntity
  8
AM_0
100
AcDbVertex
100
AcDb2dVertex
 10
-19.38053861370529
 20
-7.988434101012903
 30
0.0
  0
VERTEX
  5
8AD1
330
8ACB
100
AcDbEntity
  8
AM_0
100
AcDbVertex
100
AcDb2dVertex
 10
-18.67429229878283
 20
-8.581045123384663
 30
0.0
 42
0.5773502691896262
  0
SEQEND
  5
8AD2
330
8ACB
100
AcDbEntity
  8
AM_0
  0
POLYLINE
  5
8AD3
330
1F
100
AcDbEntity
  8
AM_0
100
AcDb2dPolyline
 66
     1
 10
0.0
 20
0.0
 30
0.0
  0
VERTEX
  5
8AD4
330
8AD3
100
AcDbEntity
  8
AM_0
100
AcDbVertex
100
AcDb2dVertex
 10
-5.354417200846842
 20
-19.75774740539019
 30
0.0
  0
VERTEX
  5
8AD5
330
8AD3
100
AcDbEntity
  8
AM_0
100
AcDbVertex
100
AcDb2dVertex
 10
-4.652748964354873
 20
-20.3465169638394
 30
0.0
 42
0.5773502691896262
  0
VERTEX
  5
8AD6
330
8AD3
100
AcDbEntity
  8
AM_0
100
AcDbVertex
100
AcDb2dVertex
 10
-3.350672674195901
 20
-19.87259995147777
 30
0.0
  0
SEQEND
  5
8AD7
330
8AD3
100
AcDbEntity
  8
AM_0
  0
LINE
  5
8ADB
330
1F
100
AcDbEntity
  8
AM_0
100
AcDbLine
 10
-35.85640646055101
 20
-13.22248589165037
 30
0.0
 11
-38.0
 21
-10.5978775430175
 31
0.0
  0
LINE
  5
8ADC
330
1F
100
AcDbEntity
  8
AM_0
100
AcDbLine
 10
-13.47823656193681
 20
-32.00000000000001
 30
0.0
 11
-150.0
 21
-32.00000000000001
 31
0.0
  0
LINE
  5
8AEA
330
1F
100
AcDbEntity
  8
AM_0
100
AcDbLine
 10
-42.2877834876053
 20
-7.000000000000004
 30
0.0
 11
-38.00000000000001
 21
-10.59787754301749
 31
0.0
  0
LINE
  5
8AFF
330
1F
100
AcDbEntity
  8
AM_0
100
AcDbLine
 10
-77.21066302084361
 20
23.84982987565611
 30
0.0
 11
-71.62255289497142
 21
32.45476487242418
 31
0.0
  0
LINE
  5
8B01
330
1F
100
AcDbEntity
  8
AM_0
100
AcDbLine
 10
-72.66862078847565
 20
34.55284006017459
 30
0.0
 11
-62.37763515993538
 21
50.39956827268316
 31
0.0
  0
LINE
  5
8B03
330
1F
100
AcDbEntity
  8
AM_0
100
AcDbLine
 10
-71.82995022053022
 20
34.00820102515957
 30
0.0
 11
-77.89015255919871
 21
24.67630777021674
 31
0.0
  0
LINE
  5
8B0B
330
1F
100
AcDbEntity
  8
AM_0
100
AcDbLine
 10
-25.67425572620589
 20
-32.00000000000003
 30
0.0
 11
-35.85640646055102
 21
-23.45616107421981
 31
0.0
  0
LINE
  5
8B0C
330
1F
100
AcDbEntity
  8
AM_0
100
AcDbLine
 10
-74.40874449790837
 20
8.893091553932421
 30
0.0
 11
-78.61576390520554
 21
3.879361061172481
 31
0.0
  0
DIMENSION
  5
8B82
330
1F
100
AcDbEntity
  8
AM_5
100
AcDbDimension
  2
*D11
 10
-111.4905401289598
 20
16.12456303409155
 30
0.0
 11
-99.92234299994436
 21
10.46445568667866
 31
0.0
 70
    32
 51
50.0
  3
AM_JIS
100
AcDbAlignedDimension
 13
-86.4989224013277
 23
7.015317574227999
 33
0.0
 14
-103.5961644035971
 24
25.53271366608104
 34
0.0
 50
320.0
100
AcDbRotatedDimension
  0
LINE
  5
8BA7
330
1F
100
AcDbEntity
  8
AM_5
100
AcDbLine
 10
-0.2343145750508278
 20
-0.2343145750506957
 30
0.0
 11
-54.39516181723766
 21
45.21203237013334
 31
0.0
  0
DIMENSION
  5
8C37
330
1F
100
AcDbEntity
  8
AM_5
100
AcDbDimension
  2
*D12
 10
-0.0000000000000039
 20
-57.1434757254874
 30
0.0
 11
-19.00000000000001
 21
-54.0434757254874
 31
0.0
 70
    32
  1
<>
  3
AM_JIS
100
AcDbAlignedDimension
 13
-38.00000000000001
 23
-32.00000000000001
 33
0.0
 14
-0.0000000000000004
 24
-0.8000000000000014
 34
0.0
 50
0.0000000000001132
100
AcDbRotatedDimension
1001
GENIUS_GENDTOL_13
1000

1000
h7
1000

1040
0.0
  0
MTEXT
  5
8D28
330
1F
100
AcDbEntity
  8
AM_6
100
AcDbMText
 10
28.97197903522314
 20
13.65858924363283
 30
0.0
 40
4.0
 41
0.0
 71
     5
 72
     5
  1
\T1.40;\W0.59;０°
  7
ASAMI
1001
ACAD
1000
MTEXTBEGIN
1070
    73
1070
     1
1070
    44
1040
1.0
1070
    74
1070
     0
1000
MTEXTEND
  0
LEADER
  5
8D29
330
1F
100
AcDbEntity
  8
AM_5
  6
CONTINUOUS
 48
0.5
100
AcDbLeader
  3
AM_JIS$7
 76
     2
 10
11.22884002537356
 20
15.62770286532645
 30
0.0
 10
17.65671612223889
 20
23.28814729651628
 30
0.0
211
-0.6427876096865334
221
-0.7660444431189831
231
0.0
1001
ACAD
1000
DSTYLE
1002
{
1070
     6
1000
OPEN30
1070
   173
1070
     1
1070
   176
1070
     0
1070
   341
1005
59
1002
}
  0
MTEXT
  5
8D2A
330
1F
100
AcDbEntity
  8
AM_6
100
AcDbMText
 10
9.78629487818398
 20
11.79059685115655
 30
0.0
 40
4.0
 41
0.0
 71
     5
 72
     5
  1
\T1.4;\W0.59;-7°
  7
ASAMI
1001
ACAD
1000
MTEXTBEGIN
1070
    73
1070
     1
1070
    44
1040
1.0
1070
    74
1070
     0
1000
MTEXTEND
  0
LEADER
  5
8D2B
330
1F
100
AcDbEntity
  8
AM_5
  6
CONTINUOUS
 48
0.5
100
AcDbLeader
  3
AM_JIS$7
 76
     2
 10
25.31716055342872
 20
16.86027119965094
 30
0.0
 10
17.65671612223889
 20
23.28814729651628
 30
0.0
211
-0.6427876096865334
221
-0.7660444431189831
231
0.0
1001
ACAD
1000
DSTYLE
1002
{
1070
     6
1000
OPEN30
1070
   173
1070
     1
1070
   176
1070
     0
1070
   341
1005
59
1002
}
  0
VIEWPORT
  5
110
330
101
100
AcDbEntity
 67
     1
  8
0
100
AcDbViewport
 10
420.5
 20
297.0
 30
0.0
 40
948.9782706766916
 41
628.452
 68
     1
 69
     1
1001
ACAD
1000
MVIEW
1002
{
1070
    16
1010
0.0
1020
0.0
1030
0.0
1010
0.0
1020
0.0
1030
1.0
1040
0.0
1040
628.452
1040
420.5
1040
297.0
1040
50.0
1040
0.0
1040
0.0
1070
     0
1070
   100
1070
     1
1070
     1
1070
     0
1070
     0
1070
     0
1070
     0
1040
0.0
1040
0.0
1040
0.0
1040
10.0
1040
10.0
1040
10.0
1040
10.0
1070
     0
1002
{
1002
}
1002
}
  0
ENDSEC
  0
SECTION
  2
OBJECTS
  0
DICTIONARY
  5
C
330
0
100
AcDbDictionary
  3
ACAD_GROUP
350
D
  3
ACAD_LAYOUT
350
1A
  3
ACAD_MLINESTYLE
350
17
  3
ACAD_PLOTSETTINGS
350
19
  3
ACAD_PLOTSTYLENAME
350
E
  3
ACDBVARIABLEDICTIONARY
350
34
  3
ACMDICTIONARY
350
43
  3
AMG
350
2B
  3
AMGSNAPSETTINGS
350
6E
  3
DWGPROPS
350
8D44
  3
ACDBHEADERROUNDTRIPXREC
350
8D50
  0
DICTIONARY
  5
74
330
1F
100
AcDbDictionary
280
     1
  3
ACAD_INDEX
360
8D46
  3
ACAD_LAYOUTSELFREF
360
8D73
  0
DICTIONARY
  5
8D78
330
101
100
AcDbDictionary
280
     1
  3
ACAD_LAYOUTSELFREF
360
8D79
  0
DICTIONARY
  5
D
102
{ACAD_REACTORS
330
C
102
}
330
C
100
AcDbDictionary
  3
*A1
350
8AC5
  0
DICTIONARY
  5
1A
102
{ACAD_REACTORS
330
C
102
}
330
C
100
AcDbDictionary
  0
DICTIONARY
  5
17
102
{ACAD_REACTORS
330
C
102
}
330
C
100
AcDbDictionary
  3
STANDARD
350
18
  0
DICTIONARY
  5
19
102
{ACAD_REACTORS
330
C
102
}
330
C
100
AcDbDictionary
  0
ACDBDICTIONARYWDFLT
  5
E
102
{ACAD_REACTORS
330
C
102
}
330
C
100
AcDbDictionary
281
     1
  3
Normal
350
F
100
AcDbDictionaryWithDefault
340
F
  0
DICTIONARY
  5
34
102
{ACAD_REACTORS
330
C
102
}
330
C
100
AcDbDictionary
  3
INDEXCTL
350
35
  3
SORTENTS
350
B5E
  0
DICTIONARY
  5
43
102
{ACAD_REACTORS
330
C
102
}
330
C
100
AcDbDictionary
  3
ACMSTDDICTIONARY
350
260
  0
DICTIONARY
  5
2B
102
{ACAD_REACTORS
330
C
102
}
330
C
100
AcDbDictionary
  3
ACMGSETTINGS
350
2C
  0
DICTIONARY
  5
6E
102
{ACAD_REACTORS
330
C
102
}
330
C
100
AcDbDictionary
  0
XRECORD
  5
8D44
102
{ACAD_REACTORS
330
C
102
}
330
C
100
AcDbXrecord
  1
DWGPROPS COOKIE
  2

  3

  4

  6

  7

  8

  9

300
AmdtFileType=82
301
=
302
=
303
=
304
=
305
=
306
=
307
=
308
=
309
=
 40
1.501023356481481
 41
2452838.620506898
 42
2452938.614577801
  1

 90
        1
  0
DICTIONARY
  5
8D50
102
{ACAD_REACTORS
330
C
102
}
330
C
100
AcDbDictionary
  3
TSTACKALIGN
350
8D51
  3
TSTACKSIZE
350
8D52
  3
HYPERLINKBASE
350
8D53
  3
STYLESHEET
350
8D54
  3
LAYOUTDICT
350
8D55
  3
PLOTSETDICT
350
8D56
  3
PLOTSTYLNAMDICT
350
8D57
  3
LWETCUNION
350
8D58
  3
INSUNITS
350
8D59
  3
CEPSNTYPE
350
8D5A
  3
FINGERPRINTGUID
350
8D5B
  3
VERSIONGUID
350
8D5C
  3
PSVPSCALE
350
8D5D
  3
DIMSTYLEDATA
350
8D5E
  3
PUCSORTHOREF
350
8D5F
  3
PUCSORTHOVIEW
350
8D60
  3
PUCSBASE
350
8D61
  3
PUCSORGTOP
350
8D62
  3
PUCSORGBOTTOM
350
8D63
  3
PUCSORGLEFT
350
8D64
  3
PUCSORGRIGHT
350
8D65
  3
PUCSORGFRONT
350
8D66
  3
PUCSORGBACK
350
8D67
  3
UCSORTHOREF
350
8D68
  3
UCSORTHOVIEW
350
8D69
  3
UCSBASE
350
8D6A
  3
UCSORGTOP
350
8D6B
  3
UCSORGBOTTOM
350
8D6C
  3
UCSORGLEFT
350
8D6D
  3
UCSORGRIGHT
350
8D6E
  3
UCSORGFRONT
350
8D6F
  3
UCSORGBACK
350
8D70
  0
DICTIONARY
  5
8D46
102
{ACAD_REACTORS
330
74
102
}
330
74
100
AcDbDictionary
  3
*A1
350
8D47
  0
XRECORD
  5
8D73
102
{ACAD_REACTORS
330
74
102
}
330
74
100
AcDbXrecord
340
1F
  0
XRECORD
  5
8D79
102
{ACAD_REACTORS
330
8D78
102
}
330
8D78
100
AcDbXrecord
340
101
  0
GROUP
  5
8AC5
102
{ACAD_REACTORS
330
D
102
}
330
D
100
AcDbGroup
300

 70
     1
 71
     1
340
8AB3
340
8A9E
340
8AA0
340
8A9F
340
8A98
340
8A97
340
8AA2
340
8AA8
340
8AA9
340
8AAF
340
8AB0
340
8AAA
340
8AA5
340
8AA4
340
8AAD
340
8AA1
340
8AAE
340
8AAC
340
8AA6
340
8AA7
340
8AAB
340
8AB4
340
8AB2
340
8AB1
340
8AB6
  0
MLINESTYLE
  5
18
102
{ACAD_REACTORS
330
17
102
}
330
17
100
AcDbMlineStyle
  2
STANDARD
 70
     0
  3

 62
   256
 51
90.0
 52
90.0
 71
     2
 49
0.5
 62
   256
  6
BYLAYER
 49
-0.5
 62
   256
  6
BYLAYER
  0
ACDBPLACEHOLDER
  5
F
102
{ACAD_REACTORS
330
E
102
}
330
E
100
AcDbPlaceHolder
280
     0
  0
DICTIONARYVAR
  5
35
102
{ACAD_REACTORS
330
34
102
}
330
34
100
DictionaryVariables
280
     0
  1
1
  0
DICTIONARYVAR
  5
B5E
102
{ACAD_REACTORS
330
34
102
}
330
34
100
DictionaryVariables
280
     0
  1
96
  0
DICTIONARY
  5
260
102
{ACAD_REACTORS
330
43
102
}
330
43
100
AcDbDictionary
  0
DICTIONARY
  5
2C
102
{ACAD_REACTORS
330
2B
102
}
330
2B
100
AcDbDictionary
  3
DWGSETTINGS
350
2D
  0
XRECORD
  5
8D51
102
{ACAD_REACTORS
330
8D50
102
}
330
8D50
100
AcDbXrecord
 90
        1
  0
XRECORD
  5
8D52
102
{ACAD_REACTORS
330
8D50
102
}
330
8D50
100
AcDbXrecord
 90
       70
  0
XRECORD
  5
8D53
102
{ACAD_REACTORS
330
8D50
102
}
330
8D50
100
AcDbXrecord
  1

  0
XRECORD
  5
8D54
102
{ACAD_REACTORS
330
8D50
102
}
330
8D50
100
AcDbXrecord
  1
ASAMI.ctb
  0
XRECORD
  5
8D55
102
{ACAD_REACTORS
330
8D50
102
}
330
8D50
100
AcDbXrecord
340
1A
  0
XRECORD
  5
8D56
102
{ACAD_REACTORS
330
8D50
102
}
330
8D50
100
AcDbXrecord
340
19
  0
XRECORD
  5
8D57
102
{ACAD_REACTORS
330
8D50
102
}
330
8D50
100
AcDbXrecord
340
E
  0
XRECORD
  5
8D58
102
{ACAD_REACTORS
330
8D50
102
}
330
8D50
100
AcDbXrecord
 90
    10781
  0
XRECORD
  5
8D59
102
{ACAD_REACTORS
330
8D50
102
}
330
8D50
100
AcDbXrecord
 90
        4
  0
XRECORD
  5
8D5A
102
{ACAD_REACTORS
330
8D50
102
}
330
8D50
100
AcDbXrecord
 90
        0
  0
XRECORD
  5
8D5B
102
{ACAD_REACTORS
330
8D50
102
}
330
8D50
100
AcDbXrecord
  1
{AFB28963-8C59-40AE-9337-C84526B81ACE}
  0
XRECORD
  5
8D5C
102
{ACAD_REACTORS
330
8D50
102
}
330
8D50
100
AcDbXrecord
  1
{65885E51-916D-4119-AE3E-403AD8FBC4E9}
  0
XRECORD
  5
8D5D
102
{ACAD_REACTORS
330
8D50
102
}
330
8D50
100
AcDbXrecord
 40
0.0
  0
XRECORD
  5
8D5E
102
{ACAD_REACTORS
330
8D50
102
}
330
8D50
100
AcDbXrecord
1000
DSTYLE
1002
{
1070
    79
 70
     2
1070
   341
340
59
1070
   342
340
59
1070
   371
 70
    -1
1070
   372
 70
    -1
1002
}
  0
XRECORD
  5
8D5F
102
{ACAD_REACTORS
330
8D50
102
}
330
8D50
100
AcDbXrecord
340
0
  0
XRECORD
  5
8D60
102
{ACAD_REACTORS
330
8D50
102
}
330
8D50
100
AcDbXrecord
 70
     0
  0
XRECORD
  5
8D61
102
{ACAD_REACTORS
330
8D50
102
}
330
8D50
100
AcDbXrecord
340
0
  0
XRECORD
  5
8D62
102
{ACAD_REACTORS
330
8D50
102
}
330
8D50
100
AcDbXrecord
 10
0.0
 20
0.0
 30
0.0
  0
XRECORD
  5
8D63
102
{ACAD_REACTORS
330
8D50
102
}
330
8D50
100
AcDbXrecord
 10
0.0
 20
0.0
 30
0.0
  0
XRECORD
  5
8D64
102
{ACAD_REACTORS
330
8D50
102
}
330
8D50
100
AcDbXrecord
 10
0.0
 20
0.0
 30
0.0
  0
XRECORD
  5
8D65
102
{ACAD_REACTORS
330
8D50
102
}
330
8D50
100
AcDbXrecord
 10
0.0
 20
0.0
 30
0.0
  0
XRECORD
  5
8D66
102
{ACAD_REACTORS
330
8D50
102
}
330
8D50
100
AcDbXrecord
 10
0.0
 20
0.0
 30
0.0
  0
XRECORD
  5
8D67
102
{ACAD_REACTORS
330
8D50
102
}
330
8D50
100
AcDbXrecord
 10
0.0
 20
0.0
 30
0.0
  0
XRECORD
  5
8D68
102
{ACAD_REACTORS
330
8D50
102
}
330
8D50
100
AcDbXrecord
340
0
  0
XRECORD
  5
8D69
102
{ACAD_REACTORS
330
8D50
102
}
330
8D50
100
AcDbXrecord
 70
     0
  0
XRECORD
  5
8D6A
102
{ACAD_REACTORS
330
8D50
102
}
330
8D50
100
AcDbXrecord
340
0
  0
XRECORD
  5
8D6B
102
{ACAD_REACTORS
330
8D50
102
}
330
8D50
100
AcDbXrecord
 10
0.0
 20
0.0
 30
0.0
  0
XRECORD
  5
8D6C
102
{ACAD_REACTORS
330
8D50
102
}
330
8D50
100
AcDbXrecord
 10
0.0
 20
0.0
 30
0.0
  0
XRECORD
  5
8D6D
102
{ACAD_REACTORS
330
8D50
102
}
330
8D50
100
AcDbXrecord
 10
0.0
 20
0.0
 30
0.0
  0
XRECORD
  5
8D6E
102
{ACAD_REACTORS
330
8D50
102
}
330
8D50
100
AcDbXrecord
 10
0.0
 20
0.0
 30
0.0
  0
XRECORD
  5
8D6F
102
{ACAD_REACTORS
330
8D50
102
}
330
8D50
100
AcDbXrecord
 10
0.0
 20
0.0
 30
0.0
  0
XRECORD
  5
8D70
102
{ACAD_REACTORS
330
8D50
102
}
330
8D50
100
AcDbXrecord
 10
0.0
 20
0.0
 30
0.0
  0
LAYER_INDEX
  5
8D47
102
{ACAD_REACTORS
330
8D46
102
}
330
8D46
100
AcDbIndex
 40
2452941.598311261
100
AcDbLayerIndex
  8
0
360
8D48
 90
        2
  8
AM_0
360
8D49
 90
       68
  8
AM_11
360
8D4A
 90
        2
  8
AM_7
360
8D4B
 90
        5
  8
AM_5
360
8D4C
 90
       11
  8
Defpoints
360
8D4D
 90
        0
  8
AM_6
360
8D4E
 90
        3
  0
XRECORD
  5
2D
102
{ACAD_REACTORS
330
2C
102
}
330
2C
100
AcDbXrecord
  1
VERSION
140
15.0
  1
PRODUCT
  2
AutoCAD Mechanical 2000
  0
IDBUFFER
  5
8D48
330
0
100
AcDbIdBuffer
330
68EE
330
68F2
  0
IDBUFFER
  5
8D49
330
0
100
AcDbIdBuffer
330
8AAC
330
8AAD
330
8AAE
330
8AAF
330
8AB0
330
8AB1
330
8AB2
330
8AB3
330
8AB4
330
8AB6
330
8ACB
330
8AD3
330
8ADB
330
8ADC
330
8AEA
330
8AFF
330
8B01
330
8B03
330
8B0B
330
8B0C
330
5F9C
330
5FA5
330
5FAD
330
5FBF
330
6103
330
6111
330
61B2
330
6987
330
6989
330
6993
330
69A2
330
69B2
330
69B4
330
69F7
330
6A2B
330
6A2D
330
6A41
330
6A46
330
6A5E
330
6A5F
330
6A69
330
6A8B
330
6AA9
330
6AAD
330
6AB5
330
6B26
330
6B29
330
6B2B
330
6D42
330
7ADC
330
8174
330
817C
330
81B0
330
81B1
330
81B2
330
88BA
330
8A97
330
8A9F
330
8AA0
330
8AA1
330
8AA2
330
8AA5
330
8AA6
330
8AA7
330
8AA8
330
8AA9
330
8AAA
330
8AAB
  0
IDBUFFER
  5
8D4A
330
0
100
AcDbIdBuffer
330
7A8B
330
7A95
  0
IDBUFFER
  5
8D4B
330
0
100
AcDbIdBuffer
330
628D
330
6A81
330
8A98
330
8A9E
330
8AA4
  0
IDBUFFER
  5
8D4C
330
0
100
AcDbIdBuffer
330
71C5
330
7251
330
7439
330
8282
330
8655
330
8778
330
8B82
330
8BA7
330
8C37
330
8D29
330
8D2B
  0
IDBUFFER
  5
8D4D
330
0
100
AcDbIdBuffer
  0
IDBUFFER
  5
8D4E
330
0
100
AcDbIdBuffer
330
C58
330
8D28
330
8D2A
  0
ENDSEC
  0
EOF
