  0
SECTION
  2
HEADER
  9
$ACADVER
  1
AC1014
  9
$ACADMAINTVER
 70
     0
  9
$DWGCODEPAGE
  3
ANSI_932
  9
$INSBASE
 10
-275.250952
 20
552.890188
 30
0.0
  9
$EXTMIN
 10
-267.19832
 20
564.441117
 30
0.0
  9
$EXTMAX
 10
-25.517478
 20
692.865597
 30
0.0
  9
$LIMMIN
 10
-587.250952
 20
327.890188
  9
$LIMMAX
 10
600.749048
 20
957.890188
  9
$ORTHOMODE
 70
     0
  9
$REGENMODE
 70
     1
  9
$FILLMODE
 70
     1
  9
$QTEXTMODE
 70
     0
  9
$MIRRTEXT
 70
     1
  9
$DRAGMODE
 70
     2
  9
$LTSCALE
 40
5.0
  9
$OSMODE
 70
    36
  9
$ATTMODE
 70
     1
  9
$TEXTSIZE
 40
2.0
  9
$TRACEWID
 40
0.05
  9
$TEXTSTYLE
  7
STANDARD
  9
$CLAYER
  8
外形
  9
$CELTYPE
  6
CONTINUOUS
  9
$CECOLOR
 62
   256
  9
$CELTSCALE
 40
1.0
  9
$DELOBJ
 70
     1
  9
$DISPSILH
 70
     0
  9
$DIMSCALE
 40
1.0
  9
$DIMASZ
 40
2.0
  9
$DIMEXO
 40
1.0
  9
$DIMDLI
 40
8.0
  9
$DIMRND
 40
0.0
  9
$DIMDLE
 40
0.0
  9
$DIMEXE
 40
2.0
  9
$DIMTP
 40
0.0
  9
$DIMTM
 40
0.0
  9
$DIMTXT
 40
3.0
  9
$DIMCEN
 40
-1.0
  9
$DIMTSZ
 40
0.0
  9
$DIMTOL
 70
     0
  9
$DIMLIM
 70
     0
  9
$DIMTIH
 70
     0
  9
$DIMTOH
 70
     0
  9
$DIMSE1
 70
     0
  9
$DIMSE2
 70
     0
  9
$DIMTAD
 70
     1
  9
$DIMZIN
 70
     8
  9
$DIMBLK
  1

  9
$DIMASO
 70
     1
  9
$DIMSHO
 70
     1
  9
$DIMPOST
  1

  9
$DIMAPOST
  1

  9
$DIMALT
 70
     0
  9
$DIMALTD
 70
     2
  9
$DIMALTF
 40
25.4
  9
$DIMLFAC
 40
1.0
  9
$DIMTOFL
 70
     1
  9
$DIMTVP
 40
0.0
  9
$DIMTIX
 70
     0
  9
$DIMSOXD
 70
     0
  9
$DIMSAH
 70
     1
  9
$DIMBLK1
  1
_OPEN30
  9
$DIMBLK2
  1
_OPEN30
  9
$DIMSTYLE
  2
STANDARD
  9
$DIMCLRD
 70
     1
  9
$DIMCLRE
 70
     1
  9
$DIMCLRT
 70
     3
  9
$DIMTFAC
 40
1.0
  9
$DIMGAP
 40
1.0
  9
$DIMJUST
 70
     0
  9
$DIMSD1
 70
     0
  9
$DIMSD2
 70
     0
  9
$DIMTOLJ
 70
     1
  9
$DIMTZIN
 70
     8
  9
$DIMALTZ
 70
     0
  9
$DIMALTTZ
 70
     0
  9
$DIMFIT
 70
     3
  9
$DIMUPT
 70
     0
  9
$DIMUNIT
 70
     2
  9
$DIMDEC
 70
     1
  9
$DIMTDEC
 70
     0
  9
$DIMALTU
 70
     2
  9
$DIMALTTD
 70
     2
  9
$DIMTXSTY
  7
STANDARD
  9
$DIMAUNIT
 70
     0
  9
$LUNITS
 70
     2
  9
$LUPREC
 70
     0
  9
$SKETCHINC
 40
0.1
  9
$FILLETRAD
 40
1.2
  9
$AUNITS
 70
     0
  9
$AUPREC
 70
     0
  9
$MENU
  1
acad
  9
$ELEVATION
 40
0.0
  9
$PELEVATION
 40
0.0
  9
$THICKNESS
 40
0.0
  9
$LIMCHECK
 70
     0
  9
$BLIPMODE
 70
     0
  9
$CHAMFERA
 40
0.0
  9
$CHAMFERB
 40
0.0
  9
$CHAMFERC
 40
0.0
  9
$CHAMFERD
 40
0.0
  9
$SKPOLY
 70
     0
  9
$TDCREATE
 40
2450751.535399305
  9
$TDUPDATE
 40
2451929.422881944
  9
$TDINDWG
 40
1.1549465625
  9
$TDUSRTIMER
 40
1.1549465625
  9
$USRTIMER
 70
     1
  9
$ANGBASE
 50
0.0
  9
$ANGDIR
 70
     0
  9
$PDMODE
 70
     0
  9
$PDSIZE
 40
0.0
  9
$PLINEWID
 40
0.0
  9
$COORDS
 70
     1
  9
$SPLFRAME
 70
     0
  9
$SPLINETYPE
 70
     5
  9
$SPLINESEGS
 70
     8
  9
$ATTDIA
 70
     1
  9
$ATTREQ
 70
     1
  9
$HANDLING
 70
     1
  9
$HANDSEED
  5
19C
  9
$SURFTAB1
 70
     6
  9
$SURFTAB2
 70
     6
  9
$SURFTYPE
 70
     6
  9
$SURFU
 70
     6
  9
$SURFV
 70
     6
  9
$UCSNAME
  2

  9
$UCSORG
 10
0.0
 20
0.0
 30
0.0
  9
$UCSXDIR
 10
1.0
 20
0.0
 30
0.0
  9
$UCSYDIR
 10
0.0
 20
1.0
 30
0.0
  9
$PUCSNAME
  2

  9
$PUCSORG
 10
0.0
 20
0.0
 30
0.0
  9
$PUCSXDIR
 10
1.0
 20
0.0
 30
0.0
  9
$PUCSYDIR
 10
0.0
 20
1.0
 30
0.0
  9
$USERI1
 70
     0
  9
$USERI2
 70
     0
  9
$USERI3
 70
     0
  9
$USERI4
 70
     0
  9
$USERI5
 70
     0
  9
$USERR1
 40
0.0
  9
$USERR2
 40
0.0
  9
$USERR3
 40
0.0
  9
$USERR4
 40
0.0
  9
$USERR5
 40
0.0
  9
$WORLDVIEW
 70
     1
  9
$SHADEDGE
 70
     3
  9
$SHADEDIF
 70
    70
  9
$TILEMODE
 70
     1
  9
$MAXACTVP
 70
    16
  9
$PINSBASE
 10
0.0
 20
0.0
 30
0.0
  9
$PLIMCHECK
 70
     0
  9
$PEXTMIN
 10
1.000000E+20
 20
1.000000E+20
 30
1.000000E+20
  9
$PEXTMAX
 10
-1.000000E+20
 20
-1.000000E+20
 30
-1.000000E+20
  9
$PLIMMIN
 10
0.0
 20
0.0
  9
$PLIMMAX
 10
12.0
 20
9.0
  9
$UNITMODE
 70
     0
  9
$VISRETAIN
 70
     0
  9
$PLINEGEN
 70
     0
  9
$PSLTSCALE
 70
     1
  9
$TREEDEPTH
 70
  3020
  9
$PICKSTYLE
 70
     1
  9
$CMLSTYLE
  2
STANDARD
  9
$CMLJUST
 70
     0
  9
$CMLSCALE
 40
1.0
  9
$PROXYGRAPHICS
 70
     1
  9
$MEASUREMENT
 70
     0
  0
ENDSEC
  0
SECTION
  2
CLASSES
  0
CLASS
  1
LWPOLYLINE
  2
AcDbPolyline
  3
"AutoCAD"
 90
        0
280
     0
281
     1
  0
CLASS
  1
ACDBDICTIONARYWDFLT
  2
AcDbDictionaryWithDefault
  3
AutoCAD 2000
 90
        0
280
     1
281
     0
  0
CLASS
  1
ACDBPLACEHOLDER
  2
AcDbPlaceHolder
  3
AutoCAD 2000
 90
        0
280
     1
281
     0
  0
CLASS
  1
LAYOUT
  2
AcDbLayout
  3
AutoCAD 2000
 90
        0
280
     1
281
     0
  0
CLASS
  1
LONG_TRANSACTION
  2
AcDbLongTransaction
  3
AutoCAD 2000
 90
        0
280
     1
281
     0
  0
CLASS
  1
LWPOLYLINE
  2
AcDbPolyline
  3
"AutoCAD"
 90
        0
280
     0
281
     1
  0
CLASS
  1
HATCH
  2
AcDbHatch
  3
"ACAD_SEDONA"
 90
        0
280
     0
281
     1
  0
CLASS
  1
XRECORD
  2
AcDbXrecord
  3
"<Built In>"
 90
        0
280
     0
281
     0
  0
CLASS
  1
ACME_DOCUMENT
  2
AcMeDbDoc
  3
AcMeServices
 90
        0
280
     1
281
     0
  0
CLASS
  1
AMGSETTINGSOBJ
  2
AmgSettingsObj
  3
"AcadM|Product Description: AutoCAD Mechanical 2000|Company: Autodesk"
 90
        0
280
     1
281
     0
  0
CLASS
  1
ACMESCOPE
  2
AcMeScope
  3
AcMeServices
 90
        0
280
     1
281
     0
  0
CLASS
  1
ACMECOMMANDHISTORY
  2
AcMeCommandHistory
  3
AcMeServices
 90
        0
280
     1
281
     0
  0
CLASS
  1
DICTIONARYVAR
  2
AcDbDictionaryVar
  3
"AutoCAD"
 90
        0
280
     0
281
     0
  0
CLASS
  1
ACIMSYSVARMAN
  2
AcImSysVarManager
  3
AcMeServices
 90
        0
280
     1
281
     0
  0
CLASS
  1
ACIMREALSYSVAR
  2
AcImRealSysVar
  3
AcMeServices
 90
        0
280
     1
281
     0
  0
CLASS
  1
ACIMINTSYSVAR
  2
AcImIntSysVar
  3
AcMeServices
 90
        0
280
     1
281
     0
  0
CLASS
  1
ACMEDRAWINGMAN
  2
AcMeDrawingMan
  3
AcMeServices
 90
        0
280
     1
281
     0
  0
CLASS
  1
ACMEVIEW
  2
AcMeView
  3
AcMeServices
 90
        0
280
     1
281
     0
  0
CLASS
  1
ACDBENTITYCACHE
  2
AcMeEntityCache
  3
AcMeServices
 90
        0
280
     1
281
     0
  0
CLASS
  1
GSMANAGER
  2
AcMeGSManager
  3
AcMeServices
 90
        0
280
     1
281
     0
  0
CLASS
  1
AmdtInternalReactor
  2
AmdtInternalReactor
  3
AcMeServices
 90
        0
280
     1
281
     0
  0
CLASS
  1
ACMESTATEMGR
  2
AcMeStateMgr
  3
AcMeServices
 90
        0
280
     1
281
     0
  0
CLASS
  1
ACME_DATABASE
  2
AcMeDbDatabase
  3
AcMeServices
 90
        0
280
     1
281
     0
  0
CLASS
  1
ACRFINSADJUSTERMGR
  2
AcRfInsAdjusterMgr
  3
AcMeServices
 90
        0
280
     1
281
     0
  0
CLASS
  1
ACMDATADICTIONARY
  2
AcmDataDictionary
  3
"AcmSymBB|Product Description: AutoCAD Mechanical 2000|Company: Autodesk"
 90
        0
280
     1
281
     0
  0
CLASS
  1
ACMDATAENTRYBLOCK
  2
AcmDataEntryBlock
  3
"AcmSymBB|Product Description: AutoCAD Mechanical 2000|Company: Autodesk"
 90
        0
280
     1
281
     0
  0
CLASS
  1
AMGOBJPROPCFG
  2
AmgObjPropCfg
  3
"AmgLay|Product Description: AutoCAD Mechanical 2000|Company: Autodesk"
 90
        1
280
     1
281
     0
  0
CLASS
  1
LAYER_INDEX
  2
AcDbLayerIndex
  3
"Acad"
 90
        0
280
     0
281
     0
  0
CLASS
  1
IDBUFFER
  2
AcDbIdBuffer
  3
"Acad"
 90
        0
280
     0
281
     0
  0
CLASS
  1
LONG_TRANSACTION
  2
AcDbLongTransaction
  3
AutoCAD 2000
 90
        0
280
     1
281
     0
  0
CLASS
  1
LWPOLYLINE
  2
AcDbPolyline
  3
"AutoCAD"
 90
        0
280
     0
281
     1
  0
CLASS
  1
HATCH
  2
AcDbHatch
  3
"ACAD_SEDONA"
 90
        0
280
     0
281
     1
  0
CLASS
  1
XRECORD
  2
AcDbXrecord
  3
"<Built In>"
 90
        0
280
     0
281
     0
  0
ENDSEC
  0
SECTION
  2
TABLES
  0
TABLE
  2
VPORT
  5
16
100
AcDbSymbolTable
 70
     1
  0
VPORT
  5
197
100
AcDbSymbolTableRecord
100
AcDbViewportTableRecord
  2
*ACTIVE
 70
     0
 10
0.0
 20
0.0
 11
1.0
 21
1.0
 12
-145.409855
 22
633.906514
 13
0.0
 23
0.0
 14
0.05
 24
0.05
 15
10.0
 25
10.0
 16
0.0
 26
0.0
 36
1.0
 17
0.0
 27
0.0
 37
0.0
 40
153.549393
 41
1.710425
 42
50.0
 43
0.0
 44
0.0
 50
0.0
 51
0.0
 71
     0
 72
   100
 73
     1
 74
     1
 75
     0
 76
     0
 77
     0
 78
     0
  0
ENDTAB
  0
TABLE
  2
LTYPE
  5
11
100
AcDbSymbolTable
 70
     1
  0
LTYPE
  5
12
100
AcDbSymbolTableRecord
100
AcDbLinetypeTableRecord
  2
BYBLOCK
 70
     0
  3

 72
    65
 73
     0
 40
0.0
  0
LTYPE
  5
13
100
AcDbSymbolTableRecord
100
AcDbLinetypeTableRecord
  2
BYLAYER
 70
     0
  3

 72
    65
 73
     0
 40
0.0
  0
LTYPE
  5
7
100
AcDbSymbolTableRecord
100
AcDbLinetypeTableRecord
  2
CONTINUOUS
 70
     0
  3
Solid line
 72
    65
 73
     0
 40
0.0
  0
ENDTAB
  0
TABLE
  2
LAYER
  5
E
100
AcDbSymbolTable
 70
     4
  0
LAYER
  5
6
100
AcDbSymbolTableRecord
100
AcDbLayerTableRecord
  2
0
 70
     0
 62
     7
  6
CONTINUOUS
  0
LAYER
  5
5A
100
AcDbSymbolTableRecord
100
AcDbLayerTableRecord
  2
外形
 70
     0
 62
     3
  6
CONTINUOUS
  0
LAYER
  5
36
102
{ACAD_XDICTIONARY
360
37
102
}
100
AcDbSymbolTableRecord
100
AcDbLayerTableRecord
  2
DEFPOINTS
 70
     0
 62
     7
  6
CONTINUOUS
  0
LAYER
  5
4C
100
AcDbSymbolTableRecord
100
AcDbLayerTableRecord
  2
寸法
 70
     0
 62
     1
  6
CONTINUOUS
  0
ENDTAB
  0
TABLE
  2
STYLE
  5
F
100
AcDbSymbolTable
 70
     1
  0
STYLE
  5
10
100
AcDbSymbolTableRecord
100
AcDbTextStyleTableRecord
  2
STANDARD
 70
     0
 40
0.0
 41
1.0
 50
0.0
 71
     0
 42
2.0
  3
MONOTXT
  4
BIGFONT
  0
ENDTAB
  0
TABLE
  2
VIEW
  5
14
100
AcDbSymbolTable
 70
     0
  0
ENDTAB
  0
TABLE
  2
UCS
  5
15
100
AcDbSymbolTable
 70
     0
  0
ENDTAB
  0
TABLE
  2
APPID
  5
18
100
AcDbSymbolTable
 70
     1
  0
APPID
  5
19
100
AcDbSymbolTableRecord
100
AcDbRegAppTableRecord
  2
ACAD
 70
     0
  0
ENDTAB
  0
TABLE
  2
DIMSTYLE
  5
1A
100
AcDbSymbolTable
 70
     1
  0
DIMSTYLE
105
23
102
{ACAD_XDICTIONARY
360
24
102
}
102
{ACAD_REACTORS
330
7D
330
D8
330
4B
330
AC
330
F5
330
103
102
}
100
AcDbSymbolTableRecord
100
AcDbDimStyleTableRecord
  2
STANDARD
 70
     0
  3

  4

  5

  6
_OPEN30
  7
_OPEN30
 40
1.0
 41
2.0
 42
1.0
 43
8.0
 44
2.0
 45
0.0
 46
0.0
 47
0.0
 48
0.0
140
3.0
141
-1.0
142
0.0
143
25.4
144
1.0
145
0.0
146
1.0
147
1.0
 71
     0
 72
     0
 73
     0
 74
     0
 75
     0
 76
     0
 77
     1
 78
     8
170
     0
171
     2
172
     1
173
     1
174
     0
175
     0
176
     1
177
     1
178
     3
270
     2
271
     1
272
     0
273
     2
274
     2
340
10
275
     0
280
     0
281
     0
282
     0
283
     1
284
     8
285
     0
286
     0
287
     3
288
     0
  0
ENDTAB
  0
TABLE
  2
BLOCK_RECORD
  5
1
100
AcDbSymbolTable
 70
    22
  0
BLOCK_RECORD
  5
2
102
{ACAD_XDICTIONARY
360
3
102
}
100
AcDbSymbolTableRecord
100
AcDbBlockTableRecord
  2
*MODEL_SPACE
  0
BLOCK_RECORD
  5
9
102
{ACAD_XDICTIONARY
360
A
102
}
100
AcDbSymbolTableRecord
100
AcDbBlockTableRecord
  2
*PAPER_SPACE
  0
BLOCK_RECORD
  5
26
100
AcDbSymbolTableRecord
100
AcDbBlockTableRecord
  2
_DOTSMALL
  0
BLOCK_RECORD
  5
123
100
AcDbSymbolTableRecord
100
AcDbBlockTableRecord
  2
*D14
  0
BLOCK_RECORD
  5
12F
100
AcDbSymbolTableRecord
100
AcDbBlockTableRecord
  2
*D15
  0
BLOCK_RECORD
  5
148
100
AcDbSymbolTableRecord
100
AcDbBlockTableRecord
  2
_OPEN30
  0
BLOCK_RECORD
  5
164
100
AcDbSymbolTableRecord
100
AcDbBlockTableRecord
  2
*D18
  0
BLOCK_RECORD
  5
170
100
AcDbSymbolTableRecord
100
AcDbBlockTableRecord
  2
*D19
  0
BLOCK_RECORD
  5
17F
100
AcDbSymbolTableRecord
100
AcDbBlockTableRecord
  2
*D20
  0
BLOCK_RECORD
  5
18B
100
AcDbSymbolTableRecord
100
AcDbBlockTableRecord
  2
*D21
  0
ENDTAB
  0
ENDSEC
  0
SECTION
  2
BLOCKS
  0
BLOCK
  5
5
100
AcDbEntity
  8
0
100
AcDbBlockBegin
  2
*MODEL_SPACE
 70
     0
 10
0.0
 20
0.0
 30
0.0
  3
*MODEL_SPACE
  1

  0
ENDBLK
  5
8
100
AcDbEntity
  8
0
100
AcDbBlockEnd
  0
BLOCK
  5
C
100
AcDbEntity
 67
     1
  8
0
100
AcDbBlockBegin
  2
*PAPER_SPACE
 70
     0
 10
0.0
 20
0.0
 30
0.0
  3
*PAPER_SPACE
  1

  0
ENDBLK
  5
D
100
AcDbEntity
 67
     1
  8
0
100
AcDbBlockEnd
  0
BLOCK
  5
2B
100
AcDbEntity
  8
0
100
AcDbBlockBegin
  2
_DOTSMALL
 70
     0
 10
0.0
 20
0.0
 30
0.0
  3
_DOTSMALL
  1

  0
POLYLINE
  5
27
100
AcDbEntity
  8
0
  6
BYBLOCK
 62
     0
100
AcDb2dPolyline
 66
     1
 10
0.0
 20
0.0
 30
0.0
 70
     1
 40
0.5
 41
0.5
  0
VERTEX
  5
28
100
AcDbEntity
  8
0
  6
BYBLOCK
 62
     0
100
AcDbVertex
100
AcDb2dVertex
 10
-0.0625
 20
0.0
 30
0.0
 42
1.0
  0
VERTEX
  5
29
100
AcDbEntity
  8
0
  6
BYBLOCK
 62
     0
100
AcDbVertex
100
AcDb2dVertex
 10
0.0625
 20
0.0
 30
0.0
 42
1.0
  0
SEQEND
  5
2A
100
AcDbEntity
  8
0
  6
BYBLOCK
 62
     0
  0
ENDBLK
  5
2C
100
AcDbEntity
  8
0
100
AcDbBlockEnd
  0
BLOCK
  5
14E
100
AcDbEntity
  8
0
100
AcDbBlockBegin
  2
*D14
 70
     1
 10
0.0
 20
0.0
 30
0.0
  3
*D14
  1

  0
LINE
  5
14F
100
AcDbEntity
  8
0
  6
BYBLOCK
 62
     1
100
AcDbLine
 10
-212.047204
 20
665.865597
 30
0.0
 11
-212.047204
 21
643.127972
 31
0.0
  0
LINE
  5
150
100
AcDbEntity
  8
0
  6
BYBLOCK
 62
     1
100
AcDbLine
 10
-42.047204
 20
666.865597
 30
0.0
 11
-42.047204
 21
643.127972
 31
0.0
  0
LINE
  5
151
100
AcDbEntity
  8
0
  6
BYBLOCK
 62
     1
100
AcDbLine
 10
-210.047204
 20
645.127972
 30
0.0
 11
-44.047204
 21
645.127972
 31
0.0
  0
INSERT
  5
152
100
AcDbEntity
  8
0
  6
BYBLOCK
 62
     1
100
AcDbBlockReference
  2
_OPEN30
 10
-212.047204
 20
645.127972
 30
0.0
 41
2.0
 42
2.0
 43
2.0
 50
180.0
  0
INSERT
  5
153
100
AcDbEntity
  8
0
  6
BYBLOCK
 62
     1
100
AcDbBlockReference
  2
_OPEN30
 10
-42.047204
 20
645.127972
 30
0.0
 41
2.0
 42
2.0
 43
2.0
  0
MTEXT
  5
154
100
AcDbEntity
  8
0
  6
BYBLOCK
 62
     3
100
AcDbMText
 10
-127.047204
 20
647.627972
 30
0.0
 40
3.0
 41
0.0
 71
     5
 72
     1
  1
\A1;170
  0
POINT
  5
155
100
AcDbEntity
  8
DEFPOINTS
  6
BYBLOCK
 62
     0
100
AcDbPoint
 10
-212.047204
 20
666.865597
 30
0.0
  0
POINT
  5
156
100
AcDbEntity
  8
DEFPOINTS
  6
BYBLOCK
 62
     0
100
AcDbPoint
 10
-42.047204
 20
667.865597
 30
0.0
  0
POINT
  5
157
100
AcDbEntity
  8
DEFPOINTS
  6
BYBLOCK
 62
     0
100
AcDbPoint
 10
-42.047204
 20
645.127972
 30
0.0
  0
ENDBLK
  5
158
100
AcDbEntity
  8
0
100
AcDbBlockEnd
  0
BLOCK
  5
159
100
AcDbEntity
  8
0
100
AcDbBlockBegin
  2
*D15
 70
     1
 10
0.0
 20
0.0
 30
0.0
  3
*D15
  1

  0
LINE
  5
15A
100
AcDbEntity
  8
0
  6
BYBLOCK
 62
     1
100
AcDbLine
 10
-207.047204
 20
660.865597
 30
0.0
 11
-223.648502
 21
660.865597
 31
0.0
  0
LINE
  5
15B
100
AcDbEntity
  8
0
  6
BYBLOCK
 62
     1
100
AcDbLine
 10
-197.458746
 20
692.865597
 30
0.0
 11
-223.648502
 21
692.865597
 31
0.0
  0
LINE
  5
15C
100
AcDbEntity
  8
0
  6
BYBLOCK
 62
     1
100
AcDbLine
 10
-221.648502
 20
662.865597
 30
0.0
 11
-221.648502
 21
690.865597
 31
0.0
  0
INSERT
  5
15D
100
AcDbEntity
  8
0
  6
BYBLOCK
 62
     1
100
AcDbBlockReference
  2
_OPEN30
 10
-221.648502
 20
660.865597
 30
0.0
 41
2.0
 42
2.0
 43
2.0
 50
270.0
  0
INSERT
  5
15E
100
AcDbEntity
  8
0
  6
BYBLOCK
 62
     1
100
AcDbBlockReference
  2
_OPEN30
 10
-221.648502
 20
692.865597
 30
0.0
 41
2.0
 42
2.0
 43
2.0
 50
90.0
  0
MTEXT
  5
15F
100
AcDbEntity
  8
0
  6
BYBLOCK
 62
     3
100
AcDbMText
 10
-224.148502
 20
676.865597
 30
0.0
 40
3.0
 41
0.0
 71
     5
 72
     1
  1
\A1;32
 11
0.0
 21
1.0
 31
0.0
  0
POINT
  5
160
100
AcDbEntity
  8
DEFPOINTS
  6
BYBLOCK
 62
     0
100
AcDbPoint
 10
-206.047204
 20
660.865597
 30
0.0
  0
POINT
  5
161
100
AcDbEntity
  8
DEFPOINTS
  6
BYBLOCK
 62
     0
100
AcDbPoint
 10
-196.458746
 20
692.865597
 30
0.0
  0
POINT
  5
162
100
AcDbEntity
  8
DEFPOINTS
  6
BYBLOCK
 62
     0
100
AcDbPoint
 10
-221.648502
 20
692.865597
 30
0.0
  0
ENDBLK
  5
163
100
AcDbEntity
  8
0
100
AcDbBlockEnd
  0
BLOCK
  5
149
100
AcDbEntity
  8
0
100
AcDbBlockBegin
  2
_OPEN30
 70
     0
 10
0.0
 20
0.0
 30
0.0
  3
_OPEN30
  1

  0
LINE
  5
14A
100
AcDbEntity
  8
0
  6
BYBLOCK
 62
     0
100
AcDbLine
 10
-1.0
 20
0.267949
 30
0.0
 11
0.0
 21
0.0
 31
0.0
  0
LINE
  5
14B
100
AcDbEntity
  8
0
  6
BYBLOCK
 62
     0
100
AcDbLine
 10
0.0
 20
0.0
 30
0.0
 11
-1.0
 21
-0.267949
 31
0.0
  0
LINE
  5
14C
100
AcDbEntity
  8
0
  6
BYBLOCK
 62
     0
100
AcDbLine
 10
0.0
 20
0.0
 30
0.0
 11
-1.0
 21
0.0
 31
0.0
  0
ENDBLK
  5
14D
100
AcDbEntity
  8
0
100
AcDbBlockEnd
  0
BLOCK
  5
165
100
AcDbEntity
  8
0
100
AcDbBlockBegin
  2
*D18
 70
     1
 10
0.0
 20
0.0
 30
0.0
  3
*D18
  1

  0
LINE
  5
166
100
AcDbEntity
  8
0
  6
BYBLOCK
 62
     1
100
AcDbLine
 10
-212.147204
 20
592.540632
 30
0.0
 11
-223.648502
 21
592.540632
 31
0.0
  0
LINE
  5
167
100
AcDbEntity
  8
0
  6
BYBLOCK
 62
     1
100
AcDbLine
 10
-213.047204
 20
624.540632
 30
0.0
 11
-223.648502
 21
624.540632
 31
0.0
  0
LINE
  5
168
100
AcDbEntity
  8
0
  6
BYBLOCK
 62
     1
100
AcDbLine
 10
-221.648502
 20
594.540632
 30
0.0
 11
-221.648502
 21
622.540632
 31
0.0
  0
INSERT
  5
169
100
AcDbEntity
  8
0
  6
BYBLOCK
 62
     1
100
AcDbBlockReference
  2
_OPEN30
 10
-221.648502
 20
592.540632
 30
0.0
 41
2.0
 42
2.0
 43
2.0
 50
270.0
  0
INSERT
  5
16A
100
AcDbEntity
  8
0
  6
BYBLOCK
 62
     1
100
AcDbBlockReference
  2
_OPEN30
 10
-221.648502
 20
624.540632
 30
0.0
 41
2.0
 42
2.0
 43
2.0
 50
90.0
  0
MTEXT
  5
16B
100
AcDbEntity
  8
0
  6
BYBLOCK
 62
     3
100
AcDbMText
 10
-224.148502
 20
608.540632
 30
0.0
 40
3.0
 41
0.0
 71
     5
 72
     1
  1
\A1;32
 11
0.0
 21
1.0
 31
0.0
  0
POINT
  5
16C
100
AcDbEntity
  8
DEFPOINTS
  6
BYBLOCK
 62
     0
100
AcDbPoint
 10
-211.147204
 20
592.540632
 30
0.0
  0
POINT
  5
16D
100
AcDbEntity
  8
DEFPOINTS
  6
BYBLOCK
 62
     0
100
AcDbPoint
 10
-212.047204
 20
624.540632
 30
0.0
  0
POINT
  5
16E
100
AcDbEntity
  8
DEFPOINTS
  6
BYBLOCK
 62
     0
100
AcDbPoint
 10
-221.648502
 20
624.540632
 30
0.0
  0
ENDBLK
  5
16F
100
AcDbEntity
  8
0
100
AcDbBlockEnd
  0
BLOCK
  5
171
100
AcDbEntity
  8
0
100
AcDbBlockBegin
  2
*D19
 70
     1
 10
0.0
 20
0.0
 30
0.0
  3
*D19
  1

  0
LINE
  5
172
100
AcDbEntity
  8
0
  6
BYBLOCK
 62
     1
100
AcDbLine
 10
-205.047204
 20
660.865597
 30
0.0
 11
-181.670408
 21
660.865597
 31
0.0
  0
LINE
  5
173
100
AcDbEntity
  8
0
  6
BYBLOCK
 62
     1
100
AcDbLine
 10
-200.173806
 20
663.365597
 30
0.0
 11
-181.670408
 21
663.365597
 31
0.0
  0
LINE
  5
174
100
AcDbEntity
  8
0
  6
BYBLOCK
 62
     1
100
AcDbLine
 10
-183.670408
 20
658.865597
 30
0.0
 11
-183.670408
 21
656.865597
 31
0.0
  0
LINE
  5
175
100
AcDbEntity
  8
0
  6
BYBLOCK
 62
     1
100
AcDbLine
 10
-183.670408
 20
665.365597
 30
0.0
 11
-183.670408
 21
667.365597
 31
0.0
  0
MTEXT
  5
176
100
AcDbEntity
  8
0
  6
BYBLOCK
 62
     3
100
AcDbMText
 10
-177.13339
 20
661.677708
 30
0.0
 40
3.0
 41
0.0
 71
     5
 72
     1
  1
\A1;2.5
 11
0.0
 21
1.0
 31
0.0
  0
LINE
  5
177
100
AcDbEntity
  8
0
  6
BYBLOCK
 62
     1
100
AcDbLine
 10
-183.670408
 20
660.865597
 30
0.0
 11
-183.670408
 21
663.365597
 31
0.0
  0
LINE
  5
178
100
AcDbEntity
  8
0
  6
BYBLOCK
 62
     1
100
AcDbLine
 10
-183.670408
 20
660.865597
 30
0.0
 11
-183.670408
 21
663.365597
 31
0.0
  0
INSERT
  5
179
100
AcDbEntity
  8
0
  6
BYBLOCK
 62
     1
100
AcDbBlockReference
  2
_OPEN30
 10
-183.670408
 20
660.865597
 30
0.0
 41
2.0
 42
2.0
 43
2.0
 50
90.0
  0
INSERT
  5
17A
100
AcDbEntity
  8
0
  6
BYBLOCK
 62
     1
100
AcDbBlockReference
  2
_OPEN30
 10
-183.670408
 20
663.365597
 30
0.0
 41
2.0
 42
2.0
 43
2.0
 50
270.0
  0
POINT
  5
17B
100
AcDbEntity
  8
DEFPOINTS
  6
BYBLOCK
 62
     0
100
AcDbPoint
 10
-206.047204
 20
660.865597
 30
0.0
  0
POINT
  5
17C
100
AcDbEntity
  8
DEFPOINTS
  6
BYBLOCK
 62
     0
100
AcDbPoint
 10
-201.173806
 20
663.365597
 30
0.0
  0
POINT
  5
17D
100
AcDbEntity
  8
DEFPOINTS
  6
BYBLOCK
 62
     0
100
AcDbPoint
 10
-183.670408
 20
663.365597
 30
0.0
  0
ENDBLK
  5
17E
100
AcDbEntity
  8
0
100
AcDbBlockEnd
  0
BLOCK
  5
180
100
AcDbEntity
  8
0
100
AcDbBlockBegin
  2
*D20
 70
     1
 10
0.0
 20
0.0
 30
0.0
  3
*D20
  1

  0
LINE
  5
181
100
AcDbEntity
  8
0
  6
BYBLOCK
 62
     1
100
AcDbLine
 10
-41.047204
 20
624.540632
 30
0.0
 11
-25.517478
 21
624.540632
 31
0.0
  0
LINE
  5
182
100
AcDbEntity
  8
0
  6
BYBLOCK
 62
     1
100
AcDbLine
 10
-41.047204
 20
592.540632
 30
0.0
 11
-25.517478
 21
592.540632
 31
0.0
  0
LINE
  5
183
100
AcDbEntity
  8
0
  6
BYBLOCK
 62
     1
100
AcDbLine
 10
-27.517478
 20
622.540632
 30
0.0
 11
-27.517478
 21
594.540632
 31
0.0
  0
INSERT
  5
184
100
AcDbEntity
  8
0
  6
BYBLOCK
 62
     1
100
AcDbBlockReference
  2
_OPEN30
 10
-27.517478
 20
624.540632
 30
0.0
 41
2.0
 42
2.0
 43
2.0
 50
90.0
  0
INSERT
  5
185
100
AcDbEntity
  8
0
  6
BYBLOCK
 62
     1
100
AcDbBlockReference
  2
_OPEN30
 10
-27.517478
 20
592.540632
 30
0.0
 41
2.0
 42
2.0
 43
2.0
 50
270.0
  0
MTEXT
  5
186
100
AcDbEntity
  8
0
  6
BYBLOCK
 62
     3
100
AcDbMText
 10
-30.017478
 20
608.540632
 30
0.0
 40
3.0
 41
0.0
 71
     5
 72
     1
  1
\A1;32
 11
0.0
 21
1.0
 31
0.0
  0
POINT
  5
187
100
AcDbEntity
  8
DEFPOINTS
  6
BYBLOCK
 62
     0
100
AcDbPoint
 10
-42.047204
 20
624.540632
 30
0.0
  0
POINT
  5
188
100
AcDbEntity
  8
DEFPOINTS
  6
BYBLOCK
 62
     0
100
AcDbPoint
 10
-42.047204
 20
592.540632
 30
0.0
  0
POINT
  5
189
100
AcDbEntity
  8
DEFPOINTS
  6
BYBLOCK
 62
     0
100
AcDbPoint
 10
-27.517478
 20
592.540632
 30
0.0
  0
ENDBLK
  5
18A
100
AcDbEntity
  8
0
100
AcDbBlockEnd
  0
BLOCK
  5
18C
100
AcDbEntity
  8
0
100
AcDbBlockBegin
  2
*D21
 70
     1
 10
0.0
 20
0.0
 30
0.0
  3
*D21
  1

  0
LINE
  5
18D
100
AcDbEntity
  8
0
  6
BYBLOCK
 62
     1
100
AcDbLine
 10
-41.047204
 20
692.865597
 30
0.0
 11
-25.517478
 21
692.865597
 31
0.0
  0
LINE
  5
18E
100
AcDbEntity
  8
0
  6
BYBLOCK
 62
     1
100
AcDbLine
 10
-41.047204
 20
667.865597
 30
0.0
 11
-25.517478
 21
667.865597
 31
0.0
  0
LINE
  5
18F
100
AcDbEntity
  8
0
  6
BYBLOCK
 62
     1
100
AcDbLine
 10
-27.517478
 20
690.865597
 30
0.0
 11
-27.517478
 21
669.865597
 31
0.0
  0
INSERT
  5
190
100
AcDbEntity
  8
0
  6
BYBLOCK
 62
     1
100
AcDbBlockReference
  2
_OPEN30
 10
-27.517478
 20
692.865597
 30
0.0
 41
2.0
 42
2.0
 43
2.0
 50
90.0
  0
INSERT
  5
191
100
AcDbEntity
  8
0
  6
BYBLOCK
 62
     1
100
AcDbBlockReference
  2
_OPEN30
 10
-27.517478
 20
667.865597
 30
0.0
 41
2.0
 42
2.0
 43
2.0
 50
270.0
  0
MTEXT
  5
192
100
AcDbEntity
  8
0
  6
BYBLOCK
 62
     3
100
AcDbMText
 10
-30.017478
 20
680.365597
 30
0.0
 40
3.0
 41
0.0
 71
     5
 72
     1
  1
\A1;25
 11
0.0
 21
1.0
 31
0.0
  0
POINT
  5
193
100
AcDbEntity
  8
DEFPOINTS
  6
BYBLOCK
 62
     0
100
AcDbPoint
 10
-42.047204
 20
692.865597
 30
0.0
  0
POINT
  5
194
100
AcDbEntity
  8
DEFPOINTS
  6
BYBLOCK
 62
     0
100
AcDbPoint
 10
-42.047204
 20
667.865597
 30
0.0
  0
POINT
  5
195
100
AcDbEntity
  8
DEFPOINTS
  6
BYBLOCK
 62
     0
100
AcDbPoint
 10
-27.517478
 20
667.865597
 30
0.0
  0
ENDBLK
  5
196
100
AcDbEntity
  8
0
100
AcDbBlockEnd
  0
ENDSEC
  0
SECTION
  2
ENTITIES
  0
DIMENSION
  5
4B
100
AcDbEntity
  8
寸法
  6
CONTINUOUS
100
AcDbDimension
  2
*D14
 10
-42.047204
 20
645.127972
 30
0.0
 11
-127.047204
 21
647.627972
 31
0.0
 70
    32
  3
STANDARD
100
AcDbAlignedDimension
 13
-212.047204
 23
666.865597
 33
0.0
 14
-42.047204
 24
667.865597
 34
0.0
100
AcDbRotatedDimension
1001
ACAD
1000
DSTYLE
1002
{
1070
    40
1040
1.0
1002
}
  0
LINE
  5
59
100
AcDbEntity
  8
外形
100
AcDbLine
 10
-211.147204
 20
592.540632
 30
0.0
 11
-42.047204
 21
592.540632
 31
0.0
  0
LINE
  5
5B
100
AcDbEntity
  8
外形
100
AcDbLine
 10
-194.547204
 20
667.865597
 30
0.0
 11
-42.047204
 21
667.865597
 31
0.0
  0
LINE
  5
5C
100
AcDbEntity
  8
外形
100
AcDbLine
 10
-196.648017
 20
692.865597
 30
0.0
 11
-42.047204
 21
692.865597
 31
0.0
  0
LINE
  5
5D
100
AcDbEntity
  8
外形
100
AcDbLine
 10
-212.047204
 20
624.540632
 30
0.0
 11
-42.047204
 21
624.540632
 31
0.0
  0
DIMENSION
  5
7D
100
AcDbEntity
  8
寸法
  6
CONTINUOUS
100
AcDbDimension
  2
*D15
 10
-221.648502
 20
692.865597
 30
0.0
 11
-224.148502
 21
676.865597
 31
0.0
 70
    32
  3
STANDARD
100
AcDbAlignedDimension
 13
-206.047204
 23
660.865597
 33
0.0
 14
-196.458746
 24
692.865597
 34
0.0
 50
90.0
100
AcDbRotatedDimension
1001
ACAD
1000
DSTYLE
1002
{
1070
    40
1040
1.0
1002
}
  0
LINE
  5
8A
100
AcDbEntity
  8
外形
100
AcDbLine
 10
-211.462749
 20
619.780632
 30
0.0
 11
-200.631658
 21
619.780632
 31
0.0
  0
CIRCLE
  5
8B
100
AcDbEntity
  8
外形
  6
CONTINUOUS
100
AcDbCircle
 10
-206.047204
 20
666.865597
 30
0.0
 40
2.95
  0
LINE
  5
8C
100
AcDbEntity
  8
外形
  6
CONTINUOUS
100
AcDbLine
 10
-202.243356
 20
616.100632
 30
0.0
 11
-209.485026
 21
605.758456
 31
0.0
  0
LINE
  5
8D
100
AcDbEntity
  8
外形
100
AcDbLine
 10
-196.648017
 20
692.865597
 30
0.0
 11
-208.496899
 21
672.34273
 31
0.0
  0
LINE
  5
8E
100
AcDbEntity
  8
外形
100
AcDbLine
 10
-211.317204
 20
616.600632
 30
0.0
 11
-200.947204
 21
616.600632
 31
0.0
  0
CIRCLE
  5
8F
100
AcDbEntity
  8
外形
  6
CONTINUOUS
100
AcDbCircle
 10
-206.047204
 20
666.865597
 30
0.0
 40
6.0
  0
DIMENSION
  5
AC
100
AcDbEntity
  8
寸法
  6
CONTINUOUS
100
AcDbDimension
  2
*D18
 10
-221.648502
 20
624.540632
 30
0.0
 11
-224.148502
 21
608.540632
 31
0.0
 70
    32
  3
STANDARD
100
AcDbAlignedDimension
 13
-211.147204
 23
592.540632
 33
0.0
 14
-212.047204
 24
624.540632
 34
0.0
 50
90.0
100
AcDbRotatedDimension
1001
ACAD
1000
DSTYLE
1002
{
1070
    40
1040
1.0
1002
}
  0
LINE
  5
B9
100
AcDbEntity
  8
外形
  6
CONTINUOUS
100
AcDbLine
 10
-211.147204
 20
616.600632
 30
0.0
 11
-211.147204
 21
592.540632
 31
0.0
  0
LINE
  5
BA
100
AcDbEntity
  8
外形
  6
CONTINUOUS
100
AcDbLine
 10
-209.485026
 20
605.758456
 30
0.0
 11
-209.485026
 21
592.540632
 31
0.0
  0
LINE
  5
BB
100
AcDbEntity
  8
外形
  6
CONTINUOUS
100
AcDbLine
 10
-211.317204
 20
619.780632
 30
0.0
 11
-211.317204
 21
616.600632
 31
0.0
  0
LINE
  5
BC
100
AcDbEntity
  8
外形
  6
CONTINUOUS
100
AcDbLine
 10
-212.047204
 20
624.540632
 30
0.0
 11
-211.462749
 21
619.780632
 31
0.0
  0
LINE
  5
BD
100
AcDbEntity
  8
外形
  6
CONTINUOUS
100
AcDbLine
 10
-267.19832
 20
692.865597
 30
0.0
 11
-235.19832
 21
692.865597
 31
0.0
  0
LINE
  5
BE
100
AcDbEntity
  8
外形
  6
CONTINUOUS
100
AcDbLine
 10
-243.13832
 20
661.765597
 30
0.0
 11
-267.19832
 21
661.765597
 31
0.0
  0
LINE
  5
BF
100
AcDbEntity
  8
外形
  6
CONTINUOUS
100
AcDbLine
 10
-267.19832
 20
661.765597
 30
0.0
 11
-267.19832
 21
692.865597
 31
0.0
  0
LINE
  5
C0
100
AcDbEntity
  8
外形
100
AcDbLine
 10
-235.69832
 20
672.804204
 30
0.0
 11
-235.69832
 21
677.476023
 31
0.0
  0
LINE
  5
C1
100
AcDbEntity
  8
外形
  6
CONTINUOUS
100
AcDbLine
 10
-235.19832
 20
660.865597
 30
0.0
 11
-235.19832
 21
692.865597
 31
0.0
  0
LINE
  5
C2
100
AcDbEntity
  8
外形
  6
CONTINUOUS
100
AcDbLine
 10
-235.69832
 20
672.804204
 30
0.0
 11
-241.13832
 21
672.136256
 31
0.0
  0
LINE
  5
C3
100
AcDbEntity
  8
外形
  6
CONTINUOUS
100
AcDbLine
 10
-235.19832
 20
660.865597
 30
0.0
 11
-239.95832
 21
661.450051
 31
0.0
  0
LINE
  5
C4
100
AcDbEntity
  8
外形
  6
CONTINUOUS
100
AcDbLine
 10
-239.95832
 20
661.595597
 30
0.0
 11
-243.13832
 21
661.595597
 31
0.0
  0
LINE
  5
C5
100
AcDbEntity
  8
外形
  6
CONTINUOUS
100
AcDbLine
 10
-241.13832
 20
671.965597
 30
0.0
 11
-243.13832
 21
671.965597
 31
0.0
  0
LINE
  5
C6
100
AcDbEntity
  8
外形
  6
CONTINUOUS
100
AcDbLine
 10
-241.13832
 20
671.965597
 30
0.0
 11
-241.13832
 21
672.136256
 31
0.0
  0
LINE
  5
C7
100
AcDbEntity
  8
外形
100
AcDbLine
 10
-243.13832
 20
661.595597
 30
0.0
 11
-243.13832
 21
671.965597
 31
0.0
  0
LINE
  5
C8
100
AcDbEntity
  8
外形
100
AcDbLine
 10
-239.95832
 20
661.450051
 30
0.0
 11
-239.95832
 21
672.281142
 31
0.0
  0
LINE
  5
CC
100
AcDbEntity
  8
外形
  6
CONTINUOUS
100
AcDbLine
 10
-235.19832
 20
677.476023
 30
0.0
 11
-235.69832
 21
677.476023
 31
0.0
  0
TEXT
  5
CD
100
AcDbEntity
  8
外形
  6
CONTINUOUS
 62
     2
100
AcDbText
 10
-193.524427
 20
564.041117
 30
0.0
 40
6.0
  1
ＰＲＧＣ　Ｒ３２２５Ｐ１２
100
AcDbText
  0
LINE
  5
CE
100
AcDbEntity
  8
外形
  6
CONTINUOUS
100
AcDbLine
 10
-202.243356
 20
616.100632
 30
0.0
 11
-202.243356
 21
592.540632
 31
0.0
  0
LINE
  5
CF
100
AcDbEntity
  8
外形
  6
CONTINUOUS
100
AcDbLine
 10
-193.922848
 20
624.540632
 30
0.0
 11
-193.922848
 21
592.540632
 31
0.0
  0
LINE
  5
D0
100
AcDbEntity
  8
外形
  6
CONTINUOUS
100
AcDbLine
 10
-200.108596
 20
624.040632
 30
0.0
 11
-200.776544
 21
618.600632
 31
0.0
  0
LINE
  5
D1
100
AcDbEntity
  8
外形
  6
CONTINUOUS
100
AcDbLine
 10
-200.947204
 20
618.600632
 30
0.0
 11
-200.947204
 21
616.600632
 31
0.0
  0
LINE
  5
D2
100
AcDbEntity
  8
外形
  6
CONTINUOUS
100
AcDbLine
 10
-200.947204
 20
618.600632
 30
0.0
 11
-200.776544
 21
618.600632
 31
0.0
  0
LINE
  5
D3
100
AcDbEntity
  8
外形
  6
CONTINUOUS
100
AcDbLine
 10
-195.070752
 20
624.540632
 30
0.0
 11
-195.070752
 21
624.040632
 31
0.0
  0
LINE
  5
D4
100
AcDbEntity
  8
外形
100
AcDbLine
 10
-200.108596
 20
624.040632
 30
0.0
 11
-195.070752
 21
624.040632
 31
0.0
  0
CIRCLE
  5
D5
100
AcDbEntity
  8
外形
  6
CONTINUOUS
100
AcDbCircle
 10
-197.147204
 20
675.775142
 30
0.0
 40
2.5
  0
CIRCLE
  5
D6
100
AcDbEntity
  8
外形
  6
CONTINUOUS
100
AcDbCircle
 10
-197.147204
 20
675.775142
 30
0.0
 40
3.0
  0
LINE
  5
D7
100
AcDbEntity
  8
外形
  6
CONTINUOUS
100
AcDbLine
 10
-195.299282
 20
667.431384
 30
0.0
 11
-205.343921
 21
677.476023
 31
0.0
  0
DIMENSION
  5
D8
100
AcDbEntity
  8
寸法
  6
CONTINUOUS
100
AcDbDimension
  2
*D19
 10
-183.670408
 20
663.365597
 30
0.0
 11
-177.13339
 21
661.677708
 31
0.0
 70
   160
  3
STANDARD
100
AcDbAlignedDimension
 13
-206.047204
 23
660.865597
 33
0.0
 14
-201.173806
 24
663.365597
 34
0.0
 50
90.0
100
AcDbRotatedDimension
1001
ACAD
1000
DSTYLE
1002
{
1070
   287
1070
     5
1070
   287
1070
     5
1070
    40
1040
1.0
1070
   271
1070
     1
1070
   279
1070
     2
1002
}
  0
LINE
  5
E5
100
AcDbEntity
  8
外形
  6
CONTINUOUS
100
AcDbLine
 10
-200.586923
 20
664.378563
 30
0.0
 11
-194.547204
 21
667.865597
 31
0.0
  0
CIRCLE
  5
E6
100
AcDbEntity
  8
外形
  6
CONTINUOUS
100
AcDbCircle
 10
-206.047204
 20
666.865597
 30
0.0
 40
1.75
  0
LWPOLYLINE
  5
F4
100
AcDbEntity
  8
外形
  6
CONTINUOUS
100
AcDbPolyline
 90
        6
 70
     1
 43
0.0
 10
-195.939796
 20
675.451618
 10
-196.26332
 20
676.659025
 10
-197.470727
 20
676.982549
 10
-198.354611
 20
676.098666
 10
-198.031087
 20
674.891259
 10
-196.82368
 20
674.567735
  0
DIMENSION
  5
F5
100
AcDbEntity
  8
寸法
  6
CONTINUOUS
100
AcDbDimension
  2
*D20
 10
-27.517478
 20
592.540632
 30
0.0
 11
-30.017478
 21
608.540632
 31
0.0
 70
    32
  3
STANDARD
100
AcDbAlignedDimension
 13
-42.047204
 23
624.540632
 33
0.0
 14
-42.047204
 24
592.540632
 34
0.0
 50
90.0
100
AcDbRotatedDimension
1001
ACAD
1000
DSTYLE
1002
{
1070
    40
1040
1.0
1002
}
  0
LINE
  5
102
100
AcDbEntity
  8
外形
  6
CONTINUOUS
100
AcDbLine
 10
-42.047204
 20
592.540632
 30
0.0
 11
-42.047204
 21
624.540632
 31
0.0
  0
DIMENSION
  5
103
100
AcDbEntity
  8
寸法
  6
CONTINUOUS
100
AcDbDimension
  2
*D21
 10
-27.517478
 20
667.865597
 30
0.0
 11
-30.017478
 21
680.365597
 31
0.0
 70
    32
  3
STANDARD
100
AcDbAlignedDimension
 13
-42.047204
 23
692.865597
 33
0.0
 14
-42.047204
 24
667.865597
 34
0.0
 50
90.0
100
AcDbRotatedDimension
1001
ACAD
1000
DSTYLE
1002
{
1070
    40
1040
1.0
1002
}
  0
LINE
  5
110
100
AcDbEntity
  8
外形
  6
CONTINUOUS
100
AcDbLine
 10
-42.047204
 20
667.865597
 30
0.0
 11
-42.047204
 21
692.865597
 31
0.0
  0
ENDSEC
  0
SECTION
  2
OBJECTS
  0
DICTIONARY
  5
1E
102
{ACAD_XDICTIONARY
360
1F
102
}
100
AcDbDictionary
  3
ACAD_GROUP
350
1C
  3
ACAD_MLINESTYLE
350
1D
  0
DICTIONARY
  5
37
100
AcDbDictionary
280
     1
  3
ACAD_XREC_ROUNDTRIP
360
38
  0
DICTIONARY
  5
24
100
AcDbDictionary
280
     1
  3
ACAD_XREC_ROUNDTRIP
360
25
  0
DICTIONARY
  5
3
100
AcDbDictionary
280
     1
  3
ACAD_LAYOUTSELFREF
360
4
  0
DICTIONARY
  5
A
100
AcDbDictionary
280
     1
  3
ACAD_LAYOUTSELFREF
360
B
  0
DICTIONARY
  5
1F
100
AcDbDictionary
280
     1
  3
ACAD_XREC_ROUNDTRIP
360
20
  0
DICTIONARY
  5
1C
102
{ACAD_REACTORS
330
1E
102
}
100
AcDbDictionary
  0
DICTIONARY
  5
1D
102
{ACAD_REACTORS
330
1E
102
}
100
AcDbDictionary
  3
STANDARD
350
22
  0
XRECORD
  5
38
102
{ACAD_REACTORS
330
37
102
}
100
AcDbXrecord
102
EXTNAMES
  1
DEFPOINTS
  2
Defpoints
102
PLOTBIT
280
     0
  0
XRECORD
  5
25
102
{ACAD_REACTORS
330
24
102
}
100
AcDbXrecord
102
ACADR14ROUNDTRIP
1000
DSTYLE
1002
{
1070
   341
340
0
1070
   343
340
0
1070
   344
340
0
1002
}
  0
XRECORD
  5
4
102
{ACAD_REACTORS
330
3
102
}
100
AcDbXrecord
340
2
  0
XRECORD
  5
B
102
{ACAD_REACTORS
330
A
102
}
100
AcDbXrecord
340
9
  0
XRECORD
  5
20
102
{ACAD_REACTORS
330
1F
102
}
100
AcDbXrecord
102
EXTNAMES
  1
ACDBVARIABLEDICTIONARY
  2
AcDbVariableDictionary
  1
ACMDICTIONARY
  2
AcmDictionary
  1
ACMESYSVARMANAGER
  2
AcmeSysVarManager
  0
MLINESTYLE
  5
22
102
{ACAD_REACTORS
330
1D
102
}
100
AcDbMlineStyle
  2
STANDARD
 70
     0
  3

 62
     0
 51
90.0
 52
90.0
 71
     2
 49
0.5
 62
   256
  6
BYLAYER
 49
-0.5
 62
   256
  6
BYLAYER
  0
ENDSEC
  0
EOF
