  0
SECTION
  2
HEADER
  9
$ACADVER
  1
AC1014
  9
$ACADMAINTVER
 70
     0
  9
$DWGCODEPAGE
  3
ANSI_932
  9
$INSBASE
 10
-275.250952
 20
762.890188
 30
0.0
  9
$EXTMIN
 10
-261.760938
 20
775.62047
 30
0.0
  9
$EXTMAX
 10
-28.983509
 20
929.676958
 30
0.0
  9
$LIMMIN
 10
-587.250952
 20
327.890188
  9
$LIMMAX
 10
600.749048
 20
957.890188
  9
$ORTHOMODE
 70
     1
  9
$REGENMODE
 70
     1
  9
$FILLMODE
 70
     1
  9
$QTEXTMODE
 70
     0
  9
$MIRRTEXT
 70
     1
  9
$DRAGMODE
 70
     2
  9
$LTSCALE
 40
5.0
  9
$OSMODE
 70
    45
  9
$ATTMODE
 70
     1
  9
$TEXTSIZE
 40
4.0
  9
$TRACEWID
 40
0.05
  9
$TEXTSTYLE
  7
STANDARD
  9
$CLAYER
  8
外形
  9
$CELTYPE
  6
CONTINUOUS
  9
$CECOLOR
 62
   256
  9
$CELTSCALE
 40
1.0
  9
$DELOBJ
 70
     1
  9
$DISPSILH
 70
     0
  9
$DIMSCALE
 40
1.0
  9
$DIMASZ
 40
2.0
  9
$DIMEXO
 40
1.0
  9
$DIMDLI
 40
8.0
  9
$DIMRND
 40
0.0
  9
$DIMDLE
 40
0.0
  9
$DIMEXE
 40
2.0
  9
$DIMTP
 40
0.0
  9
$DIMTM
 40
0.0
  9
$DIMTXT
 40
3.0
  9
$DIMCEN
 40
-1.0
  9
$DIMTSZ
 40
0.0
  9
$DIMTOL
 70
     0
  9
$DIMLIM
 70
     0
  9
$DIMTIH
 70
     0
  9
$DIMTOH
 70
     0
  9
$DIMSE1
 70
     0
  9
$DIMSE2
 70
     0
  9
$DIMTAD
 70
     1
  9
$DIMZIN
 70
     8
  9
$DIMBLK
  1

  9
$DIMASO
 70
     1
  9
$DIMSHO
 70
     1
  9
$DIMPOST
  1

  9
$DIMAPOST
  1

  9
$DIMALT
 70
     0
  9
$DIMALTD
 70
     2
  9
$DIMALTF
 40
25.4
  9
$DIMLFAC
 40
1.0
  9
$DIMTOFL
 70
     1
  9
$DIMTVP
 40
0.0
  9
$DIMTIX
 70
     0
  9
$DIMSOXD
 70
     0
  9
$DIMSAH
 70
     1
  9
$DIMBLK1
  1
_OPEN30
  9
$DIMBLK2
  1
_OPEN30
  9
$DIMSTYLE
  2
STANDARD
  9
$DIMCLRD
 70
     1
  9
$DIMCLRE
 70
     1
  9
$DIMCLRT
 70
     3
  9
$DIMTFAC
 40
1.0
  9
$DIMGAP
 40
1.0
  9
$DIMJUST
 70
     0
  9
$DIMSD1
 70
     0
  9
$DIMSD2
 70
     0
  9
$DIMTOLJ
 70
     1
  9
$DIMTZIN
 70
     8
  9
$DIMALTZ
 70
     0
  9
$DIMALTTZ
 70
     0
  9
$DIMFIT
 70
     3
  9
$DIMUPT
 70
     0
  9
$DIMUNIT
 70
     2
  9
$DIMDEC
 70
     3
  9
$DIMTDEC
 70
     3
  9
$DIMALTU
 70
     2
  9
$DIMALTTD
 70
     2
  9
$DIMTXSTY
  7
STANDARD
  9
$DIMAUNIT
 70
     0
  9
$LUNITS
 70
     2
  9
$LUPREC
 70
     0
  9
$SKETCHINC
 40
0.1
  9
$FILLETRAD
 40
2.4
  9
$AUNITS
 70
     0
  9
$AUPREC
 70
     0
  9
$MENU
  1
acad
  9
$ELEVATION
 40
0.0
  9
$PELEVATION
 40
0.0
  9
$THICKNESS
 40
0.0
  9
$LIMCHECK
 70
     0
  9
$BLIPMODE
 70
     0
  9
$CHAMFERA
 40
0.0
  9
$CHAMFERB
 40
0.0
  9
$CHAMFERC
 40
0.0
  9
$CHAMFERD
 40
0.0
  9
$SKPOLY
 70
     0
  9
$TDCREATE
 40
2450751.535399305
  9
$TDUPDATE
 40
2451929.447662037
  9
$TDINDWG
 40
1.2013908565
  9
$TDUSRTIMER
 40
1.2013908565
  9
$USRTIMER
 70
     1
  9
$ANGBASE
 50
0.0
  9
$ANGDIR
 70
     0
  9
$PDMODE
 70
     0
  9
$PDSIZE
 40
0.0
  9
$PLINEWID
 40
0.0
  9
$COORDS
 70
     1
  9
$SPLFRAME
 70
     0
  9
$SPLINETYPE
 70
     5
  9
$SPLINESEGS
 70
     8
  9
$ATTDIA
 70
     0
  9
$ATTREQ
 70
     1
  9
$HANDLING
 70
     1
  9
$HANDSEED
  5
928
  9
$SURFTAB1
 70
     6
  9
$SURFTAB2
 70
     6
  9
$SURFTYPE
 70
     6
  9
$SURFU
 70
     6
  9
$SURFV
 70
     6
  9
$UCSNAME
  2

  9
$UCSORG
 10
0.0
 20
0.0
 30
0.0
  9
$UCSXDIR
 10
1.0
 20
0.0
 30
0.0
  9
$UCSYDIR
 10
0.0
 20
1.0
 30
0.0
  9
$PUCSNAME
  2

  9
$PUCSORG
 10
0.0
 20
0.0
 30
0.0
  9
$PUCSXDIR
 10
1.0
 20
0.0
 30
0.0
  9
$PUCSYDIR
 10
0.0
 20
1.0
 30
0.0
  9
$USERI1
 70
     0
  9
$USERI2
 70
     0
  9
$USERI3
 70
     0
  9
$USERI4
 70
     0
  9
$USERI5
 70
     0
  9
$USERR1
 40
0.0
  9
$USERR2
 40
0.0
  9
$USERR3
 40
0.0
  9
$USERR4
 40
0.0
  9
$USERR5
 40
0.0
  9
$WORLDVIEW
 70
     1
  9
$SHADEDGE
 70
     3
  9
$SHADEDIF
 70
    70
  9
$TILEMODE
 70
     1
  9
$MAXACTVP
 70
    16
  9
$PINSBASE
 10
0.0
 20
0.0
 30
0.0
  9
$PLIMCHECK
 70
     0
  9
$PEXTMIN
 10
1.000000E+20
 20
1.000000E+20
 30
1.000000E+20
  9
$PEXTMAX
 10
-1.000000E+20
 20
-1.000000E+20
 30
-1.000000E+20
  9
$PLIMMIN
 10
0.0
 20
0.0
  9
$PLIMMAX
 10
12.0
 20
9.0
  9
$UNITMODE
 70
     0
  9
$VISRETAIN
 70
     0
  9
$PLINEGEN
 70
     0
  9
$PSLTSCALE
 70
     1
  9
$TREEDEPTH
 70
  3020
  9
$PICKSTYLE
 70
     1
  9
$CMLSTYLE
  2
STANDARD
  9
$CMLJUST
 70
     0
  9
$CMLSCALE
 40
1.0
  9
$PROXYGRAPHICS
 70
     1
  9
$MEASUREMENT
 70
     0
  0
ENDSEC
  0
SECTION
  2
CLASSES
  0
CLASS
  1
LWPOLYLINE
  2
AcDbPolyline
  3
"AutoCAD"
 90
        0
280
     0
281
     1
  0
CLASS
  1
ACDBDICTIONARYWDFLT
  2
AcDbDictionaryWithDefault
  3
AutoCAD 2000
 90
        0
280
     1
281
     0
  0
CLASS
  1
ACDBPLACEHOLDER
  2
AcDbPlaceHolder
  3
AutoCAD 2000
 90
        0
280
     1
281
     0
  0
CLASS
  1
LAYOUT
  2
AcDbLayout
  3
AutoCAD 2000
 90
        0
280
     1
281
     0
  0
CLASS
  1
LONG_TRANSACTION
  2
AcDbLongTransaction
  3
AutoCAD 2000
 90
        0
280
     1
281
     0
  0
CLASS
  1
LWPOLYLINE
  2
AcDbPolyline
  3
"AutoCAD"
 90
        0
280
     0
281
     1
  0
CLASS
  1
HATCH
  2
AcDbHatch
  3
"ACAD_SEDONA"
 90
        0
280
     0
281
     1
  0
CLASS
  1
XRECORD
  2
AcDbXrecord
  3
"<Built In>"
 90
        0
280
     0
281
     0
  0
ENDSEC
  0
SECTION
  2
TABLES
  0
TABLE
  2
VPORT
  5
16
100
AcDbSymbolTable
 70
     1
  0
VPORT
  5
923
100
AcDbSymbolTableRecord
100
AcDbViewportTableRecord
  2
*ACTIVE
 70
     0
 10
0.0
 20
0.0
 11
1.0
 21
1.0
 12
-144.223401
 22
857.470615
 13
0.0
 23
0.0
 14
0.05
 24
0.05
 15
10.0
 25
10.0
 16
0.0
 26
0.0
 36
1.0
 17
0.0
 27
0.0
 37
0.0
 40
174.531279
 41
1.710425
 42
50.0
 43
0.0
 44
0.0
 50
0.0
 51
0.0
 71
     0
 72
   100
 73
     1
 74
     1
 75
     0
 76
     0
 77
     0
 78
     0
  0
ENDTAB
  0
TABLE
  2
LTYPE
  5
11
100
AcDbSymbolTable
 70
     1
  0
LTYPE
  5
12
100
AcDbSymbolTableRecord
100
AcDbLinetypeTableRecord
  2
BYBLOCK
 70
     0
  3

 72
    65
 73
     0
 40
0.0
  0
LTYPE
  5
13
100
AcDbSymbolTableRecord
100
AcDbLinetypeTableRecord
  2
BYLAYER
 70
     0
  3

 72
    65
 73
     0
 40
0.0
  0
LTYPE
  5
7
100
AcDbSymbolTableRecord
100
AcDbLinetypeTableRecord
  2
CONTINUOUS
 70
     0
  3
Solid line
 72
    65
 73
     0
 40
0.0
  0
ENDTAB
  0
TABLE
  2
LAYER
  5
E
100
AcDbSymbolTable
 70
     4
  0
LAYER
  5
6
100
AcDbSymbolTableRecord
100
AcDbLayerTableRecord
  2
0
 70
     0
 62
     7
  6
CONTINUOUS
  0
LAYER
  5
1F
100
AcDbSymbolTableRecord
100
AcDbLayerTableRecord
  2
外形
 70
     0
 62
     3
  6
CONTINUOUS
  0
LAYER
  5
33
102
{ACAD_XDICTIONARY
360
34
102
}
100
AcDbSymbolTableRecord
100
AcDbLayerTableRecord
  2
DEFPOINTS
 70
     0
 62
     7
  6
CONTINUOUS
  0
LAYER
  5
64
100
AcDbSymbolTableRecord
100
AcDbLayerTableRecord
  2
寸法
 70
     0
 62
     1
  6
CONTINUOUS
  0
ENDTAB
  0
TABLE
  2
STYLE
  5
F
100
AcDbSymbolTable
 70
     1
  0
STYLE
  5
10
100
AcDbSymbolTableRecord
100
AcDbTextStyleTableRecord
  2
STANDARD
 70
     0
 40
0.0
 41
1.0
 50
0.0
 71
     0
 42
4.0
  3
MONOTXT
  4
BIGFONT
  0
ENDTAB
  0
TABLE
  2
VIEW
  5
14
100
AcDbSymbolTable
 70
     0
  0
ENDTAB
  0
TABLE
  2
UCS
  5
15
100
AcDbSymbolTable
 70
     0
  0
ENDTAB
  0
TABLE
  2
APPID
  5
18
100
AcDbSymbolTable
 70
     1
  0
APPID
  5
19
100
AcDbSymbolTableRecord
100
AcDbRegAppTableRecord
  2
ACAD
 70
     0
  0
ENDTAB
  0
TABLE
  2
DIMSTYLE
  5
1A
100
AcDbSymbolTable
 70
     1
  0
DIMSTYLE
105
21
102
{ACAD_XDICTIONARY
360
22
102
}
102
{ACAD_REACTORS
330
B9
330
3A
330
4F
330
9B
330
7A
330
516
330
629
330
630
330
63
102
}
100
AcDbSymbolTableRecord
100
AcDbDimStyleTableRecord
  2
STANDARD
 70
     0
  3

  4

  5

  6
_OPEN30
  7
_OPEN30
 40
1.0
 41
2.0
 42
1.0
 43
8.0
 44
2.0
 45
0.0
 46
0.0
 47
0.0
 48
0.0
140
3.0
141
-1.0
142
0.0
143
25.4
144
1.0
145
0.0
146
1.0
147
1.0
 71
     0
 72
     0
 73
     0
 74
     0
 75
     0
 76
     0
 77
     1
 78
     8
170
     0
171
     2
172
     1
173
     1
174
     0
175
     0
176
     1
177
     1
178
     3
270
     2
271
     3
272
     3
273
     2
274
     2
340
10
275
     0
280
     0
281
     0
282
     0
283
     1
284
     8
285
     0
286
     0
287
     3
288
     0
  0
ENDTAB
  0
TABLE
  2
BLOCK_RECORD
  5
1
100
AcDbSymbolTable
 70
    20
  0
BLOCK_RECORD
  5
2
102
{ACAD_XDICTIONARY
360
3
102
}
100
AcDbSymbolTableRecord
100
AcDbBlockTableRecord
  2
*MODEL_SPACE
  0
BLOCK_RECORD
  5
9
102
{ACAD_XDICTIONARY
360
A
102
}
100
AcDbSymbolTableRecord
100
AcDbBlockTableRecord
  2
*PAPER_SPACE
  0
BLOCK_RECORD
  5
2A
100
AcDbSymbolTableRecord
100
AcDbBlockTableRecord
  2
_OPEN30
  0
BLOCK_RECORD
  5
1D7
100
AcDbSymbolTableRecord
100
AcDbBlockTableRecord
  2
_OPEN
  0
BLOCK_RECORD
  5
3BC
100
AcDbSymbolTableRecord
100
AcDbBlockTableRecord
  2
*D2
  0
BLOCK_RECORD
  5
3C8
100
AcDbSymbolTableRecord
100
AcDbBlockTableRecord
  2
*D3
  0
BLOCK_RECORD
  5
3D4
100
AcDbSymbolTableRecord
100
AcDbBlockTableRecord
  2
*D4
  0
BLOCK_RECORD
  5
3E6
100
AcDbSymbolTableRecord
100
AcDbBlockTableRecord
  2
*D5
  0
BLOCK_RECORD
  5
3FF
100
AcDbSymbolTableRecord
100
AcDbBlockTableRecord
  2
*D6
  0
BLOCK_RECORD
  5
40B
100
AcDbSymbolTableRecord
100
AcDbBlockTableRecord
  2
*D7
  0
BLOCK_RECORD
  5
51E
100
AcDbSymbolTableRecord
100
AcDbBlockTableRecord
  2
*D11
  0
BLOCK_RECORD
  5
566
100
AcDbSymbolTableRecord
100
AcDbBlockTableRecord
  2
*D13
  0
BLOCK_RECORD
  5
59C
100
AcDbSymbolTableRecord
100
AcDbBlockTableRecord
  2
*D14
  0
BLOCK_RECORD
  5
755
100
AcDbSymbolTableRecord
100
AcDbBlockTableRecord
  2
_DOTSMALL
  0
ENDTAB
  0
ENDSEC
  0
SECTION
  2
BLOCKS
  0
BLOCK
  5
5
100
AcDbEntity
  8
0
100
AcDbBlockBegin
  2
*MODEL_SPACE
 70
     0
 10
0.0
 20
0.0
 30
0.0
  3
*MODEL_SPACE
  1

  0
ENDBLK
  5
8
100
AcDbEntity
  8
0
100
AcDbBlockEnd
  0
BLOCK
  5
C
100
AcDbEntity
 67
     1
  8
0
100
AcDbBlockBegin
  2
*PAPER_SPACE
 70
     0
 10
0.0
 20
0.0
 30
0.0
  3
*PAPER_SPACE
  1

  0
ENDBLK
  5
D
100
AcDbEntity
 67
     1
  8
0
100
AcDbBlockEnd
  0
BLOCK
  5
2E
100
AcDbEntity
  8
0
100
AcDbBlockBegin
  2
_OPEN30
 70
     0
 10
0.0
 20
0.0
 30
0.0
  3
_OPEN30
  1

  0
LINE
  5
2B
100
AcDbEntity
  8
0
  6
BYBLOCK
 62
     0
100
AcDbLine
 10
-1.0
 20
0.267949
 30
0.0
 11
0.0
 21
0.0
 31
0.0
  0
LINE
  5
2C
100
AcDbEntity
  8
0
  6
BYBLOCK
 62
     0
100
AcDbLine
 10
0.0
 20
0.0
 30
0.0
 11
-1.0
 21
-0.267949
 31
0.0
  0
LINE
  5
2D
100
AcDbEntity
  8
0
  6
BYBLOCK
 62
     0
100
AcDbLine
 10
0.0
 20
0.0
 30
0.0
 11
-1.0
 21
0.0
 31
0.0
  0
ENDBLK
  5
2F
100
AcDbEntity
  8
0
100
AcDbBlockEnd
  0
BLOCK
  5
1DB
100
AcDbEntity
  8
0
100
AcDbBlockBegin
  2
_OPEN
 70
     0
 10
0.0
 20
0.0
 30
0.0
  3
_OPEN
  1

  0
LINE
  5
1D8
100
AcDbEntity
  8
0
  6
BYBLOCK
 62
     0
100
AcDbLine
 10
-1.0
 20
0.166667
 30
0.0
 11
0.0
 21
0.0
 31
0.0
  0
LINE
  5
1D9
100
AcDbEntity
  8
0
  6
BYBLOCK
 62
     0
100
AcDbLine
 10
0.0
 20
0.0
 30
0.0
 11
-1.0
 21
-0.166667
 31
0.0
  0
LINE
  5
1DA
100
AcDbEntity
  8
0
  6
BYBLOCK
 62
     0
100
AcDbLine
 10
0.0
 20
0.0
 30
0.0
 11
-1.0
 21
0.0
 31
0.0
  0
ENDBLK
  5
1DC
100
AcDbEntity
  8
0
100
AcDbBlockEnd
  0
BLOCK
  5
84D
100
AcDbEntity
  8
0
100
AcDbBlockBegin
  2
*D2
 70
     1
 10
0.0
 20
0.0
 30
0.0
  3
*D2
  1

  0
LINE
  5
84E
100
AcDbEntity
  8
0
  6
BYBLOCK
 62
     1
100
AcDbLine
 10
-44.748143
 20
803.650129
 30
0.0
 11
-28.983509
 21
803.650129
 31
0.0
  0
LINE
  5
84F
100
AcDbEntity
  8
0
  6
BYBLOCK
 62
     1
100
AcDbLine
 10
-44.748143
 20
828.650129
 30
0.0
 11
-28.983509
 21
828.650129
 31
0.0
  0
LINE
  5
850
100
AcDbEntity
  8
0
  6
BYBLOCK
 62
     1
100
AcDbLine
 10
-30.983509
 20
805.650129
 30
0.0
 11
-30.983509
 21
826.650129
 31
0.0
  0
INSERT
  5
851
100
AcDbEntity
  8
0
  6
BYBLOCK
 62
     1
100
AcDbBlockReference
  2
_OPEN30
 10
-30.983509
 20
803.650129
 30
0.0
 41
2.0
 42
2.0
 43
2.0
 50
270.0
  0
INSERT
  5
852
100
AcDbEntity
  8
0
  6
BYBLOCK
 62
     1
100
AcDbBlockReference
  2
_OPEN30
 10
-30.983509
 20
828.650129
 30
0.0
 41
2.0
 42
2.0
 43
2.0
 50
90.0
  0
MTEXT
  5
853
100
AcDbEntity
  8
0
  6
BYBLOCK
 62
     3
100
AcDbMText
 10
-33.483509
 20
816.150129
 30
0.0
 40
3.0
 41
0.0
 71
     5
 72
     1
  1
\A1;25
 11
0.0
 21
1.0
 31
0.0
  0
POINT
  5
854
100
AcDbEntity
  8
DEFPOINTS
  6
BYBLOCK
 62
     0
100
AcDbPoint
 10
-45.748143
 20
803.650129
 30
0.0
  0
POINT
  5
855
100
AcDbEntity
  8
DEFPOINTS
  6
BYBLOCK
 62
     0
100
AcDbPoint
 10
-45.748143
 20
828.650129
 30
0.0
  0
POINT
  5
856
100
AcDbEntity
  8
DEFPOINTS
  6
BYBLOCK
 62
     0
100
AcDbPoint
 10
-30.983509
 20
828.650129
 30
0.0
  0
ENDBLK
  5
857
100
AcDbEntity
  8
0
100
AcDbBlockEnd
  0
BLOCK
  5
858
100
AcDbEntity
  8
0
100
AcDbBlockBegin
  2
*D3
 70
     1
 10
0.0
 20
0.0
 30
0.0
  3
*D3
  1

  0
LINE
  5
859
100
AcDbEntity
  8
0
  6
BYBLOCK
 62
     1
100
AcDbLine
 10
-196.897268
 20
888.993297
 30
0.0
 11
-196.897268
 21
864.026469
 31
0.0
  0
LINE
  5
85A
100
AcDbEntity
  8
0
  6
BYBLOCK
 62
     1
100
AcDbLine
 10
-46.897268
 20
885.993297
 30
0.0
 11
-46.897268
 21
864.026469
 31
0.0
  0
LINE
  5
85B
100
AcDbEntity
  8
0
  6
BYBLOCK
 62
     1
100
AcDbLine
 10
-194.897268
 20
866.026469
 30
0.0
 11
-48.897268
 21
866.026469
 31
0.0
  0
INSERT
  5
85C
100
AcDbEntity
  8
0
  6
BYBLOCK
 62
     1
100
AcDbBlockReference
  2
_OPEN30
 10
-196.897268
 20
866.026469
 30
0.0
 41
2.0
 42
2.0
 43
2.0
 50
180.0
  0
INSERT
  5
85D
100
AcDbEntity
  8
0
  6
BYBLOCK
 62
     1
100
AcDbBlockReference
  2
_OPEN30
 10
-46.897268
 20
866.026469
 30
0.0
 41
2.0
 42
2.0
 43
2.0
  0
MTEXT
  5
85E
100
AcDbEntity
  8
0
  6
BYBLOCK
 62
     3
100
AcDbMText
 10
-121.897268
 20
868.526469
 30
0.0
 40
3.0
 41
0.0
 71
     5
 72
     1
  1
\A1;150
  0
POINT
  5
85F
100
AcDbEntity
  8
DEFPOINTS
  6
BYBLOCK
 62
     0
100
AcDbPoint
 10
-196.897268
 20
889.993297
 30
0.0
  0
POINT
  5
860
100
AcDbEntity
  8
DEFPOINTS
  6
BYBLOCK
 62
     0
100
AcDbPoint
 10
-46.897268
 20
886.993297
 30
0.0
  0
POINT
  5
861
100
AcDbEntity
  8
DEFPOINTS
  6
BYBLOCK
 62
     0
100
AcDbPoint
 10
-46.897268
 20
866.026469
 30
0.0
  0
ENDBLK
  5
862
100
AcDbEntity
  8
0
100
AcDbBlockEnd
  0
BLOCK
  5
863
100
AcDbEntity
  8
0
100
AcDbBlockBegin
  2
*D4
 70
     1
 10
0.0
 20
0.0
 30
0.0
  3
*D4
  1

  0
LINE
  5
864
100
AcDbEntity
  8
0
  6
BYBLOCK
 62
     1
100
AcDbLine
 10
-238.082237
 20
899.241829
 30
0.0
 11
-243.771824
 21
884.419949
 31
0.0
  0
LINE
  5
865
100
AcDbEntity
  8
0
  6
BYBLOCK
 62
     1
100
AcDbLine
 10
-237.903088
 20
899.209484
 30
0.0
 11
-242.018574
 21
883.850284
 31
0.0
  0
ARC
  5
866
100
AcDbEntity
  8
0
  6
BYBLOCK
 62
     1
100
AcDbCircle
 10
-237.460266
 20
900.86212
 30
0.0
 40
15.611949
100
AcDbArc
 50
234.279566
 51
249.0
  0
LINE
  5
867
100
AcDbEntity
  8
0
  6
BYBLOCK
 62
     1
100
AcDbLine
 10
-246.575002
 20
888.187164
 30
0.0
 11
-253.55713
 21
893.208108
 31
0.0
  0
ARC
  5
868
100
AcDbEntity
  8
0
  6
BYBLOCK
 62
     1
100
AcDbCircle
 10
-237.460266
 20
900.86212
 30
0.0
 40
15.611949
100
AcDbArc
 50
234.309961
 51
241.654981
  0
ARC
  5
869
100
AcDbEntity
  8
0
  6
BYBLOCK
 62
     1
100
AcDbCircle
 10
-237.460266
 20
900.86212
 30
0.0
 40
15.611949
100
AcDbArc
 50
262.345019
 51
269.690039
  0
ARC
  5
86A
100
AcDbEntity
  8
0
  6
BYBLOCK
 62
     1
100
AcDbCircle
 10
-237.460266
 20
900.86212
 30
0.0
 40
15.611949
100
AcDbArc
 50
249.0
 51
255.0
  0
INSERT
  5
86B
100
AcDbEntity
  8
0
  6
BYBLOCK
 62
     1
100
AcDbBlockReference
  2
_OPEN30
 10
-243.055088
 20
886.28711
 30
0.0
 41
2.0
 42
2.0
 43
2.0
 50
335.32749
  0
INSERT
  5
86C
100
AcDbEntity
  8
0
  6
BYBLOCK
 62
     1
100
AcDbBlockReference
  2
_OPEN30
 10
-241.500936
 20
885.782136
 30
0.0
 41
2.0
 42
2.0
 43
2.0
 50
168.67251
  0
MTEXT
  5
86D
100
AcDbEntity
  8
0
  6
BYBLOCK
 62
     3
100
AcDbMText
 10
-248.606489
 20
892.727324
 30
0.0
 40
3.0
 41
0.0
 71
     5
 72
     1
  1
\A1;6°
 11
0.811875
 21
-0.583831
 31
0.0
  0
POINT
  5
86E
100
AcDbEntity
  8
DEFPOINTS
  6
BYBLOCK
 62
     0
100
AcDbPoint
 10
-242.024758
 20
885.932339
 30
0.0
  0
POINT
  5
86F
100
AcDbEntity
  8
DEFPOINTS
  6
BYBLOCK
 62
     0
100
AcDbPoint
 10
-230.964821
 20
917.783333
 30
0.0
  0
POINT
  5
870
100
AcDbEntity
  8
DEFPOINTS
  6
BYBLOCK
 62
     0
100
AcDbPoint
 10
-236.02382
 20
906.223008
 30
0.0
  0
POINT
  5
871
100
AcDbEntity
  8
DEFPOINTS
  6
BYBLOCK
 62
     0
100
AcDbPoint
 10
-237.644269
 20
900.175409
 30
0.0
  0
POINT
  5
872
100
AcDbEntity
  8
DEFPOINTS
  6
BYBLOCK
 62
     0
100
AcDbPoint
 10
-237.723869
 20
900.175409
 30
0.0
  0
ENDBLK
  5
873
100
AcDbEntity
  8
0
100
AcDbBlockEnd
  0
BLOCK
  5
874
100
AcDbEntity
  8
0
100
AcDbBlockBegin
  2
*D5
 70
     1
 10
0.0
 20
0.0
 30
0.0
  3
*D5
  1

  0
LINE
  5
875
100
AcDbEntity
  8
0
  6
BYBLOCK
 62
     1
100
AcDbLine
 10
-184.604576
 20
886.699481
 30
0.0
 11
-175.950804
 21
884.380709
 31
0.0
  0
ARC
  5
876
100
AcDbEntity
  8
0
  6
BYBLOCK
 62
     1
100
AcDbCircle
 10
-197.06502
 20
890.038246
 30
0.0
 40
19.859044
100
AcDbArc
 50
275.772687
 51
339.227313
  0
INSERT
  5
877
100
AcDbEntity
  8
0
  6
BYBLOCK
 62
     1
100
AcDbBlockReference
  2
_OPEN30
 10
-197.06502
 20
870.179202
 30
0.0
 41
2.0
 42
2.0
 43
2.0
 50
182.886343
  0
INSERT
  5
878
100
AcDbEntity
  8
0
  6
BYBLOCK
 62
     1
100
AcDbBlockReference
  2
_OPEN30
 10
-177.882656
 20
884.898347
 30
0.0
 41
2.0
 42
2.0
 43
2.0
 50
72.113657
  0
MTEXT
  5
879
100
AcDbEntity
  8
0
  6
BYBLOCK
 62
     3
100
AcDbMText
 10
-186.497503
 20
876.26639
 30
0.0
 40
3.0
 41
0.0
 71
     5
 72
     1
  1
\A1;75°
 11
0.793353
 21
0.608761
 31
0.0
  0
POINT
  5
87A
100
AcDbEntity
  8
DEFPOINTS
  6
BYBLOCK
 62
     0
100
AcDbPoint
 10
-188.672225
 20
872.03984
 30
0.0
  0
POINT
  5
87B
100
AcDbEntity
  8
DEFPOINTS
  6
BYBLOCK
 62
     0
100
AcDbPoint
 10
-197.06502
 20
890.038246
 30
0.0
  0
POINT
  5
87C
100
AcDbEntity
  8
DEFPOINTS
  6
BYBLOCK
 62
     0
100
AcDbPoint
 10
-196.292279
 20
889.831191
 30
0.0
  0
POINT
  5
87D
100
AcDbEntity
  8
DEFPOINTS
  6
BYBLOCK
 62
     0
100
AcDbPoint
 10
-185.570502
 20
886.9583
 30
0.0
  0
POINT
  5
87E
100
AcDbEntity
  8
DEFPOINTS
  6
BYBLOCK
 62
     0
100
AcDbPoint
 10
-197.06502
 20
870.179202
 30
0.0
  0
ENDBLK
  5
87F
100
AcDbEntity
  8
0
100
AcDbBlockEnd
  0
BLOCK
  5
880
100
AcDbEntity
  8
0
100
AcDbBlockBegin
  2
*D6
 70
     1
 10
0.0
 20
0.0
 30
0.0
  3
*D6
  1

  0
LINE
  5
881
100
AcDbEntity
  8
0
  6
BYBLOCK
 62
     1
100
AcDbLine
 10
-197.897268
 20
889.993297
 30
0.0
 11
-207.084447
 21
889.993297
 31
0.0
  0
LINE
  5
882
100
AcDbEntity
  8
0
  6
BYBLOCK
 62
     1
100
AcDbLine
 10
-190.70829
 20
911.993297
 30
0.0
 11
-207.084447
 21
911.993297
 31
0.0
  0
LINE
  5
883
100
AcDbEntity
  8
0
  6
BYBLOCK
 62
     1
100
AcDbLine
 10
-205.084447
 20
891.993297
 30
0.0
 11
-205.084447
 21
909.993297
 31
0.0
  0
INSERT
  5
884
100
AcDbEntity
  8
0
  6
BYBLOCK
 62
     1
100
AcDbBlockReference
  2
_OPEN30
 10
-205.084447
 20
889.993297
 30
0.0
 41
2.0
 42
2.0
 43
2.0
 50
270.0
  0
INSERT
  5
885
100
AcDbEntity
  8
0
  6
BYBLOCK
 62
     1
100
AcDbBlockReference
  2
_OPEN30
 10
-205.084447
 20
911.993297
 30
0.0
 41
2.0
 42
2.0
 43
2.0
 50
90.0
  0
MTEXT
  5
886
100
AcDbEntity
  8
0
  6
BYBLOCK
 62
     3
100
AcDbMText
 10
-207.584447
 20
900.993297
 30
0.0
 40
3.0
 41
0.0
 71
     5
 72
     1
  1
\A1;22
 11
0.0
 21
1.0
 31
0.0
  0
POINT
  5
887
100
AcDbEntity
  8
DEFPOINTS
  6
BYBLOCK
 62
     0
100
AcDbPoint
 10
-196.897268
 20
889.993297
 30
0.0
  0
POINT
  5
888
100
AcDbEntity
  8
DEFPOINTS
  6
BYBLOCK
 62
     0
100
AcDbPoint
 10
-189.70829
 20
911.993297
 30
0.0
  0
POINT
  5
889
100
AcDbEntity
  8
DEFPOINTS
  6
BYBLOCK
 62
     0
100
AcDbPoint
 10
-205.084447
 20
911.993297
 30
0.0
  0
ENDBLK
  5
88A
100
AcDbEntity
  8
0
100
AcDbBlockEnd
  0
BLOCK
  5
88B
100
AcDbEntity
  8
0
100
AcDbBlockBegin
  2
*D7
 70
     1
 10
0.0
 20
0.0
 30
0.0
  3
*D7
  1

  0
LINE
  5
88C
100
AcDbEntity
  8
0
  6
BYBLOCK
 62
     1
100
AcDbLine
 10
-45.897268
 20
911.993297
 30
0.0
 11
-28.983509
 21
911.993297
 31
0.0
  0
LINE
  5
88D
100
AcDbEntity
  8
0
  6
BYBLOCK
 62
     1
100
AcDbLine
 10
-45.897268
 20
886.993297
 30
0.0
 11
-28.983509
 21
886.993297
 31
0.0
  0
LINE
  5
88E
100
AcDbEntity
  8
0
  6
BYBLOCK
 62
     1
100
AcDbLine
 10
-30.983509
 20
909.993297
 30
0.0
 11
-30.983509
 21
888.993297
 31
0.0
  0
INSERT
  5
88F
100
AcDbEntity
  8
0
  6
BYBLOCK
 62
     1
100
AcDbBlockReference
  2
_OPEN30
 10
-30.983509
 20
911.993297
 30
0.0
 41
2.0
 42
2.0
 43
2.0
 50
90.0
  0
INSERT
  5
890
100
AcDbEntity
  8
0
  6
BYBLOCK
 62
     1
100
AcDbBlockReference
  2
_OPEN30
 10
-30.983509
 20
886.993297
 30
0.0
 41
2.0
 42
2.0
 43
2.0
 50
270.0
  0
MTEXT
  5
891
100
AcDbEntity
  8
0
  6
BYBLOCK
 62
     3
100
AcDbMText
 10
-33.483509
 20
899.493297
 30
0.0
 40
3.0
 41
0.0
 71
     5
 72
     1
  1
\A1;25
 11
0.0
 21
1.0
 31
0.0
  0
POINT
  5
892
100
AcDbEntity
  8
DEFPOINTS
  6
BYBLOCK
 62
     0
100
AcDbPoint
 10
-46.897268
 20
911.993297
 30
0.0
  0
POINT
  5
893
100
AcDbEntity
  8
DEFPOINTS
  6
BYBLOCK
 62
     0
100
AcDbPoint
 10
-46.897268
 20
886.993297
 30
0.0
  0
POINT
  5
894
100
AcDbEntity
  8
DEFPOINTS
  6
BYBLOCK
 62
     0
100
AcDbPoint
 10
-30.983509
 20
886.993297
 30
0.0
  0
ENDBLK
  5
895
100
AcDbEntity
  8
0
100
AcDbBlockEnd
  0
BLOCK
  5
8BB
100
AcDbEntity
  8
0
100
AcDbBlockBegin
  2
*D11
 70
     1
 10
0.0
 20
0.0
 30
0.0
  3
*D11
  1

  0
LINE
  5
8BC
100
AcDbEntity
  8
0
  6
BYBLOCK
 62
     1
100
AcDbLine
 10
-247.396855
 20
829.947505
 30
0.0
 11
-261.348382
 21
833.685806
 31
0.0
  0
LINE
  5
8BD
100
AcDbEntity
  8
0
  6
BYBLOCK
 62
     1
100
AcDbLine
 10
-247.415737
 20
829.862334
 30
0.0
 11
-261.639988
 21
832.370454
 31
0.0
  0
ARC
  5
8BE
100
AcDbEntity
  8
0
  6
BYBLOCK
 62
     1
100
AcDbCircle
 10
-246.430929
 20
829.688686
 30
0.0
 40
13.443684
100
AcDbArc
 50
147.888839
 51
165.0
  0
LINE
  5
8BF
100
AcDbEntity
  8
0
  6
BYBLOCK
 62
     1
100
AcDbLine
 10
-257.817976
 20
836.834859
 30
0.0
 11
-253.246529
 21
844.119217
 31
0.0
  0
ARC
  5
8C0
100
AcDbEntity
  8
0
  6
BYBLOCK
 62
     1
100
AcDbCircle
 10
-246.430929
 20
829.688686
 30
0.0
 40
13.443684
100
AcDbArc
 50
147.936597
 51
156.468298
  0
ARC
  5
8C1
100
AcDbEntity
  8
0
  6
BYBLOCK
 62
     1
100
AcDbCircle
 10
-246.430929
 20
829.688686
 30
0.0
 40
13.443684
100
AcDbArc
 50
178.531702
 51
187.063403
  0
ARC
  5
8C2
100
AcDbEntity
  8
0
  6
BYBLOCK
 62
     1
100
AcDbCircle
 10
-246.430929
 20
829.688686
 30
0.0
 40
13.443684
100
AcDbArc
 50
165.0
 51
170.0
  0
INSERT
  5
8C3
100
AcDbEntity
  8
0
  6
BYBLOCK
 62
     1
100
AcDbBlockReference
  2
_OPEN30
 10
-259.41653
 20
833.168168
 30
0.0
 41
2.0
 42
2.0
 43
2.0
 50
250.734149
  0
INSERT
  5
8C4
100
AcDbEntity
  8
0
  6
BYBLOCK
 62
     1
100
AcDbBlockReference
  2
_OPEN30
 10
-259.670373
 20
832.023157
 30
0.0
 41
2.0
 42
2.0
 43
2.0
 50
84.265851
  0
MTEXT
  5
8C5
100
AcDbEntity
  8
0
  6
BYBLOCK
 62
     3
100
AcDbMText
 10
-257.649799
 20
841.805947
 30
0.0
 40
3.0
 41
0.0
 71
     5
 72
     1
  1
\A1;5°
 11
0.531564
 21
0.847018
 31
0.0
  0
POINT
  5
8C6
100
AcDbEntity
  8
DEFPOINTS
  6
BYBLOCK
 62
     0
100
AcDbPoint
 10
-259.596874
 20
832.407235
 30
0.0
  0
POINT
  5
8C7
100
AcDbEntity
  8
DEFPOINTS
  6
BYBLOCK
 62
     0
100
AcDbPoint
 10
-246.430929
 20
829.688686
 30
0.0
  0
POINT
  5
8C8
100
AcDbEntity
  8
DEFPOINTS
  6
BYBLOCK
 62
     0
100
AcDbPoint
 10
-246.430929
 20
829.688686
 30
0.0
  0
POINT
  5
8C9
100
AcDbEntity
  8
DEFPOINTS
  6
BYBLOCK
 62
     0
100
AcDbPoint
 10
-219.544573
 20
822.484509
 30
0.0
  0
POINT
  5
8CA
100
AcDbEntity
  8
DEFPOINTS
  6
BYBLOCK
 62
     0
100
AcDbPoint
 10
-219.018999
 20
824.855223
 30
0.0
  0
ENDBLK
  5
8CB
100
AcDbEntity
  8
0
100
AcDbBlockEnd
  0
BLOCK
  5
8DA
100
AcDbEntity
  8
0
100
AcDbBlockBegin
  2
*D13
 70
     1
 10
0.0
 20
0.0
 30
0.0
  3
*D13
  1

  0
LINE
  5
8DB
100
AcDbEntity
  8
0
  6
BYBLOCK
 62
     1
100
AcDbLine
 10
-196.647268
 20
803.650129
 30
0.0
 11
-207.084447
 21
803.650129
 31
0.0
  0
LINE
  5
8DC
100
AcDbEntity
  8
0
  6
BYBLOCK
 62
     1
100
AcDbLine
 10
-197.897268
 20
828.650129
 30
0.0
 11
-207.084447
 21
828.650129
 31
0.0
  0
LINE
  5
8DD
100
AcDbEntity
  8
0
  6
BYBLOCK
 62
     1
100
AcDbLine
 10
-205.084447
 20
805.650129
 30
0.0
 11
-205.084447
 21
826.650129
 31
0.0
  0
INSERT
  5
8DE
100
AcDbEntity
  8
0
  6
BYBLOCK
 62
     1
100
AcDbBlockReference
  2
_OPEN30
 10
-205.084447
 20
803.650129
 30
0.0
 41
2.0
 42
2.0
 43
2.0
 50
270.0
  0
INSERT
  5
8DF
100
AcDbEntity
  8
0
  6
BYBLOCK
 62
     1
100
AcDbBlockReference
  2
_OPEN30
 10
-205.084447
 20
828.650129
 30
0.0
 41
2.0
 42
2.0
 43
2.0
 50
90.0
  0
MTEXT
  5
8E0
100
AcDbEntity
  8
0
  6
BYBLOCK
 62
     3
100
AcDbMText
 10
-207.584447
 20
816.150129
 30
0.0
 40
3.0
 41
0.0
 71
     5
 72
     1
  1
\A1;25
 11
0.0
 21
1.0
 31
0.0
  0
POINT
  5
8E1
100
AcDbEntity
  8
DEFPOINTS
  6
BYBLOCK
 62
     0
100
AcDbPoint
 10
-195.647268
 20
803.650129
 30
0.0
  0
POINT
  5
8E2
100
AcDbEntity
  8
DEFPOINTS
  6
BYBLOCK
 62
     0
100
AcDbPoint
 10
-196.897268
 20
828.650129
 30
0.0
  0
POINT
  5
8E3
100
AcDbEntity
  8
DEFPOINTS
  6
BYBLOCK
 62
     0
100
AcDbPoint
 10
-205.084447
 20
828.650129
 30
0.0
  0
ENDBLK
  5
8E4
100
AcDbEntity
  8
0
100
AcDbBlockEnd
  0
BLOCK
  5
8E5
100
AcDbEntity
  8
0
100
AcDbBlockBegin
  2
*D14
 70
     1
 10
0.0
 20
0.0
 30
0.0
  3
*D14
  1

  0
LINE
  5
8E6
100
AcDbEntity
  8
0
  6
BYBLOCK
 62
     1
100
AcDbLine
 10
-196.897268
 20
829.650129
 30
0.0
 11
-196.897268
 21
842.846145
 31
0.0
  0
LINE
  5
8E7
100
AcDbEntity
  8
0
  6
BYBLOCK
 62
     1
100
AcDbLine
 10
-168.897268
 20
829.650129
 30
0.0
 11
-168.897268
 21
842.846145
 31
0.0
  0
LINE
  5
8E8
100
AcDbEntity
  8
0
  6
BYBLOCK
 62
     1
100
AcDbLine
 10
-194.897268
 20
840.846145
 30
0.0
 11
-170.897268
 21
840.846145
 31
0.0
  0
INSERT
  5
8E9
100
AcDbEntity
  8
0
  6
BYBLOCK
 62
     1
100
AcDbBlockReference
  2
_OPEN30
 10
-196.897268
 20
840.846145
 30
0.0
 41
2.0
 42
2.0
 43
2.0
 50
180.0
  0
INSERT
  5
8EA
100
AcDbEntity
  8
0
  6
BYBLOCK
 62
     1
100
AcDbBlockReference
  2
_OPEN30
 10
-168.897268
 20
840.846145
 30
0.0
 41
2.0
 42
2.0
 43
2.0
  0
MTEXT
  5
8EB
100
AcDbEntity
  8
0
  6
BYBLOCK
 62
     3
100
AcDbMText
 10
-182.897268
 20
843.346145
 30
0.0
 40
3.0
 41
0.0
 71
     5
 72
     1
  1
\A1;28
  0
POINT
  5
8EC
100
AcDbEntity
  8
DEFPOINTS
  6
BYBLOCK
 62
     0
100
AcDbPoint
 10
-196.897268
 20
828.650129
 30
0.0
  0
POINT
  5
8ED
100
AcDbEntity
  8
DEFPOINTS
  6
BYBLOCK
 62
     0
100
AcDbPoint
 10
-168.897268
 20
828.650129
 30
0.0
  0
POINT
  5
8EE
100
AcDbEntity
  8
DEFPOINTS
  6
BYBLOCK
 62
     0
100
AcDbPoint
 10
-168.897268
 20
840.846145
 30
0.0
  0
ENDBLK
  5
8EF
100
AcDbEntity
  8
0
100
AcDbBlockEnd
  0
BLOCK
  5
756
100
AcDbEntity
  8
0
100
AcDbBlockBegin
  2
_DOTSMALL
 70
     0
 10
0.0
 20
0.0
 30
0.0
  3
_DOTSMALL
  1

  0
POLYLINE
  5
757
100
AcDbEntity
  8
0
  6
BYBLOCK
 62
     0
100
AcDb2dPolyline
 66
     1
 10
0.0
 20
0.0
 30
0.0
 70
     1
 40
0.5
 41
0.5
  0
VERTEX
  5
758
100
AcDbEntity
  8
0
  6
BYBLOCK
 62
     0
100
AcDbVertex
100
AcDb2dVertex
 10
-0.0625
 20
0.0
 30
0.0
 42
1.0
  0
VERTEX
  5
759
100
AcDbEntity
  8
0
  6
BYBLOCK
 62
     0
100
AcDbVertex
100
AcDb2dVertex
 10
0.0625
 20
0.0
 30
0.0
 42
1.0
  0
SEQEND
  5
75A
100
AcDbEntity
  8
0
  6
BYBLOCK
 62
     0
  0
ENDBLK
  5
75B
100
AcDbEntity
  8
0
100
AcDbBlockEnd
  0
ENDSEC
  0
SECTION
  2
ENTITIES
  0
DIMENSION
  5
3A
100
AcDbEntity
  8
外形
  6
CONTINUOUS
100
AcDbDimension
  2
*D2
 10
-30.983509
 20
828.650129
 30
0.0
 11
-33.483509
 21
816.150129
 31
0.0
 70
    32
  3
STANDARD
100
AcDbAlignedDimension
 13
-45.748143
 23
803.650129
 33
0.0
 14
-45.748143
 24
828.650129
 34
0.0
 50
90.0
100
AcDbRotatedDimension
1001
ACAD
1000
DSTYLE
1002
{
1070
    40
1040
1.0
1002
}
  0
LINE
  5
47
100
AcDbEntity
  8
外形
  6
CONTINUOUS
100
AcDbLine
 10
-45.748143
 20
828.650129
 30
0.0
 11
-45.748143
 21
803.650129
 31
0.0
  0
LINE
  5
4B
100
AcDbEntity
  8
外形
  6
CONTINUOUS
100
AcDbLine
 10
-196.897268
 20
803.650129
 30
0.0
 11
-45.748143
 21
803.650129
 31
0.0
  0
TEXT
  5
4C
100
AcDbEntity
  8
外形
  6
CONTINUOUS
 62
     2
100
AcDbText
 10
-192.23859
 20
775.22047
 30
0.0
 40
6.0
  1
ＰＳＢＮ　Ｒ２５２５－４３
100
AcDbText
  0
DIMENSION
  5
4F
100
AcDbEntity
  8
外形
  6
CONTINUOUS
100
AcDbDimension
  2
*D3
 10
-46.897268
 20
866.026469
 30
0.0
 11
-121.897268
 21
868.526469
 31
0.0
 70
    32
  3
STANDARD
100
AcDbAlignedDimension
 13
-196.897268
 23
889.993297
 33
0.0
 14
-46.897268
 24
886.993297
 34
0.0
100
AcDbRotatedDimension
1001
ACAD
1000
DSTYLE
1002
{
1070
    40
1040
1.0
1002
}
  0
LINE
  5
5D
100
AcDbEntity
  8
外形
  6
CONTINUOUS
100
AcDbLine
 10
-181.316193
 20
886.993297
 30
0.0
 11
-46.897268
 21
886.993297
 31
0.0
  0
LINE
  5
5E
100
AcDbEntity
  8
外形
  6
CONTINUOUS
100
AcDbLine
 10
-168.897268
 20
828.650129
 30
0.0
 11
-45.748143
 21
828.650129
 31
0.0
  0
DIMENSION
  5
63
100
AcDbEntity
  8
寸法
  6
CONTINUOUS
100
AcDbDimension
  2
*D4
 10
-237.723869
 20
900.175409
 30
0.0
 11
-248.606489
 21
892.727324
 31
0.0
 70
    34
  3
STANDARD
100
AcDb2LineAngularDimension
 13
-236.02382
 23
906.223008
 33
0.0
 14
-237.644269
 24
900.175409
 34
0.0
 15
-230.964821
 25
917.783333
 35
0.0
 16
-242.024758
 26
885.932339
 36
0.0
1001
ACAD
1000
DSTYLE
1002
{
1070
    40
1040
1.0
1002
}
  0
DIMENSION
  5
7A
100
AcDbEntity
  8
外形
  6
CONTINUOUS
100
AcDbDimension
  2
*D5
 10
-197.06502
 20
870.179202
 30
0.0
 11
-186.497503
 21
876.26639
 31
0.0
 70
    34
  3
STANDARD
100
AcDb2LineAngularDimension
 13
-196.292279
 23
889.831191
 33
0.0
 14
-185.570502
 24
886.9583
 34
0.0
 15
-197.06502
 25
890.038246
 35
0.0
 16
-188.672225
 26
872.03984
 36
0.0
1001
ACAD
1000
DSTYLE
1002
{
1070
    40
1040
1.0
1002
}
  0
LINE
  5
98
100
AcDbEntity
  8
外形
  6
CONTINUOUS
100
AcDbLine
 10
-193.778018
 20
902.305504
 30
0.0
 11
-181.51076
 21
899.018502
 31
0.0
  0
LINE
  5
99
100
AcDbEntity
  8
外形
  6
CONTINUOUS
100
AcDbLine
 10
-196.292279
 20
889.831191
 30
0.0
 11
-185.570502
 21
886.9583
 31
0.0
  0
CIRCLE
  5
9A
100
AcDbEntity
  8
外形
  6
CONTINUOUS
100
AcDbCircle
 10
-189.28789
 20
894.528374
 30
0.0
 40
2.35
  0
DIMENSION
  5
9B
100
AcDbEntity
  8
外形
  6
CONTINUOUS
100
AcDbDimension
  2
*D6
 10
-205.084447
 20
911.993297
 30
0.0
 11
-207.584447
 21
900.993297
 31
0.0
 70
    32
  3
STANDARD
100
AcDbAlignedDimension
 13
-196.897268
 23
889.993297
 33
0.0
 14
-189.70829
 24
911.993297
 34
0.0
 50
90.0
100
AcDbRotatedDimension
1001
ACAD
1000
DSTYLE
1002
{
1070
    40
1040
1.0
1002
}
  0
LINE
  5
AA
100
AcDbEntity
  8
外形
  6
CONTINUOUS
100
AcDbLine
 10
-193.778018
 20
902.305504
 30
0.0
 11
-196.857964
 21
890.810987
 31
0.0
  0
ARC
  5
AB
100
AcDbEntity
  8
外形
  6
CONTINUOUS
100
AcDbCircle
 10
-196.085224
 20
890.603932
 30
0.0
 40
0.8
100
AcDbArc
 50
165.0
 51
255.0
  0
ARC
  5
AE
100
AcDbEntity
  8
外形
  6
CONTINUOUS
100
AcDbCircle
 10
-193.212332
 20
901.325708
 30
0.0
 40
0.8
100
AcDbArc
 50
75.0
 51
165.0
  0
LINE
  5
AF
100
AcDbEntity
  8
外形
  6
CONTINUOUS
100
AcDbLine
 10
-168.897268
 20
886.993297
 30
0.0
 11
-169.691771
 21
911.993254
 31
0.0
  0
CIRCLE
  5
B0
100
AcDbEntity
  8
外形
  6
CONTINUOUS
100
AcDbCircle
 10
-180.263245
 20
905.231448
 30
0.0
 40
3.3235
  0
CIRCLE
  5
B1
100
AcDbEntity
  8
外形
  6
CONTINUOUS
100
AcDbCircle
 10
-180.263245
 20
905.231448
 30
0.0
 40
4.0
  0
LINE
  5
B3
100
AcDbEntity
  8
外形
  6
CONTINUOUS
100
AcDbLine
 10
-181.717815
 20
898.245762
 30
0.0
 11
-184.590706
 21
887.523985
 31
0.0
  0
ARC
  5
B4
100
AcDbEntity
  8
外形
  6
CONTINUOUS
100
AcDbCircle
 10
-185.363447
 20
887.73104
 30
0.0
 40
0.8
100
AcDbArc
 50
255.0
 51
345.0
  0
ARC
  5
B6
100
AcDbEntity
  8
外形
  6
CONTINUOUS
100
AcDbCircle
 10
-182.157807
 20
896.603688
 30
0.0
 40
2.5
100
AcDbArc
 50
255.0
 51
75.0
  0
LWPOLYLINE
  5
B7
100
AcDbEntity
  8
外形
  6
CONTINUOUS
100
AcDbPolyline
 90
        6
 70
     1
 43
0.0
 10
-181.73983
 20
905.495452
 10
-181.230171
 20
904.08469
 10
-179.753587
 20
903.820687
 10
-178.786661
 20
904.967445
 10
-179.296319
 20
906.378206
 10
-180.772904
 20
906.64221
  0
ARC
  5
B8
100
AcDbEntity
  8
外形
  6
CONTINUOUS
100
AcDbCircle
 10
-182.490556
 20
898.452817
 30
0.0
 40
0.8
100
AcDbArc
 50
345.0
 51
75.0
  0
DIMENSION
  5
B9
100
AcDbEntity
  8
外形
  6
CONTINUOUS
100
AcDbDimension
  2
*D7
 10
-30.983509
 20
886.993297
 30
0.0
 11
-33.483509
 21
899.493297
 31
0.0
 70
    32
  3
STANDARD
100
AcDbAlignedDimension
 13
-46.897268
 23
911.993297
 33
0.0
 14
-46.897268
 24
886.993297
 34
0.0
 50
90.0
100
AcDbRotatedDimension
1001
ACAD
1000
DSTYLE
1002
{
1070
    40
1040
1.0
1002
}
  0
LINE
  5
C6
100
AcDbEntity
  8
外形
  6
CONTINUOUS
100
AcDbLine
 10
-46.897268
 20
911.993297
 30
0.0
 11
-46.897268
 21
886.993297
 31
0.0
  0
LINE
  5
4ED
100
AcDbEntity
  8
寸法
  6
CONTINUOUS
100
AcDbLine
 10
-197.06502
 20
890.038246
 30
0.0
 11
-237.38809
 21
900.84278
 31
0.0
  0
LINE
  5
4EE
100
AcDbEntity
  8
寸法
  6
CONTINUOUS
100
AcDbLine
 10
-196.897268
 20
889.993297
 30
0.0
 11
-203.899417
 21
863.860922
 31
0.0
  0
LINE
  5
50D
100
AcDbEntity
  8
外形
  6
CONTINUOUS
100
AcDbLine
 10
-190.103048
 20
911.993246
 30
0.0
 11
-192.795003
 21
902.042106
 31
0.0
  0
LINE
  5
50E
100
AcDbEntity
  8
外形
  6
CONTINUOUS
100
AcDbLine
 10
-184.504027
 20
887.847475
 30
0.0
 11
-181.316193
 21
886.993297
 31
0.0
  0
LINE
  5
50F
100
AcDbEntity
  8
外形
  6
CONTINUOUS
100
AcDbLine
 10
-234.898965
 20
822.821859
 30
0.0
 11
-235.451167
 21
819.690171
 31
0.0
  0
LINE
  5
510
100
AcDbEntity
  8
外形
  6
CONTINUOUS
100
AcDbLine
 10
-247.232874
 20
824.99666
 30
0.0
 11
-247.785075
 21
821.864971
 31
0.0
  0
LINE
  5
511
100
AcDbEntity
  8
外形
  6
CONTINUOUS
100
AcDbLine
 10
-218.914289
 20
824.83676
 30
0.0
 11
-226.015049
 21
798.336363
 31
0.0
  0
LINE
  5
512
100
AcDbEntity
  8
外形
  6
CONTINUOUS
100
AcDbLine
 10
-252.112891
 20
805.329259
 30
0.0
 11
-226.015049
 21
798.336363
 31
0.0
  0
LINE
  5
513
100
AcDbEntity
  8
外形
  6
CONTINUOUS
100
AcDbLine
 10
-247.785075
 20
821.864971
 30
0.0
 11
-235.451167
 21
819.690171
 31
0.0
  0
LINE
  5
514
100
AcDbEntity
  8
外形
  6
CONTINUOUS
100
AcDbLine
 10
-247.686803
 20
821.847643
 30
0.0
 11
-252.112891
 21
805.329259
 31
0.0
  0
DIMENSION
  5
516
100
AcDbEntity
  8
寸法
  6
CONTINUOUS
100
AcDbDimension
  2
*D11
 10
-219.018999
 20
824.855223
 30
0.0
 11
-257.649799
 21
841.805947
 31
0.0
 70
    34
  3
STANDARD
100
AcDb2LineAngularDimension
 13
-246.430929
 23
829.688686
 33
0.0
 14
-219.544573
 24
822.484509
 34
0.0
 15
-246.430929
 25
829.688686
 35
0.0
 16
-259.596874
 26
832.407235
 36
0.0
1001
ACAD
1000
DSTYLE
1002
{
1070
    40
1040
1.0
1002
}
  0
LINE
  5
517
100
AcDbEntity
  8
外形
  6
CONTINUOUS
100
AcDbLine
 10
-247.257494
 20
825.001001
 30
0.0
 11
-234.874345
 21
822.817518
 31
0.0
  0
LINE
  5
518
100
AcDbEntity
  8
外形
  6
CONTINUOUS
100
AcDbLine
 10
-246.430929
 20
829.688686
 30
0.0
 11
-219.018999
 21
824.855223
 31
0.0
  0
LINE
  5
519
100
AcDbEntity
  8
寸法
  6
CONTINUOUS
100
AcDbLine
 10
-237.262462
 20
863.905871
 30
0.0
 11
-246.430929
 21
829.688686
 31
0.0
  0
LINE
  5
51A
100
AcDbEntity
  8
外形
  6
CONTINUOUS
100
AcDbLine
 10
-246.430929
 20
829.688686
 30
0.0
 11
-247.257494
 21
825.001001
 31
0.0
  0
LINE
  5
51B
100
AcDbEntity
  8
外形
  6
CONTINUOUS
100
AcDbLine
 10
-234.04778
 20
827.505203
 30
0.0
 11
-234.874345
 21
822.817518
 31
0.0
  0
LINE
  5
51C
100
AcDbEntity
  8
寸法
  6
CONTINUOUS
100
AcDbLine
 10
-237.274506
 20
863.860922
 30
0.0
 11
-203.899417
 21
863.860922
 31
0.0
  0
LINE
  5
531
100
AcDbEntity
  8
外形
  6
CONTINUOUS
100
AcDbLine
 10
-230.773561
 20
826.92787
 30
0.0
 11
-237.602677
 21
801.441259
 31
0.0
  0
LINE
  5
544
100
AcDbEntity
  8
外形
  6
CONTINUOUS
100
AcDbLine
 10
-190.103048
 20
911.993246
 30
0.0
 11
-46.897268
 21
911.993297
 31
0.0
  0
DIMENSION
  5
629
100
AcDbEntity
  8
寸法
  6
CONTINUOUS
100
AcDbDimension
  2
*D13
 10
-205.084447
 20
828.650129
 30
0.0
 11
-207.584447
 21
816.150129
 31
0.0
 70
    32
  3
STANDARD
100
AcDbAlignedDimension
 13
-195.647268
 23
803.650129
 33
0.0
 14
-196.897268
 24
828.650129
 34
0.0
 50
90.0
100
AcDbRotatedDimension
1001
ACAD
1000
DSTYLE
1002
{
1070
    40
1040
1.0
1002
}
  0
DIMENSION
  5
630
100
AcDbEntity
  8
寸法
  6
CONTINUOUS
100
AcDbDimension
  2
*D14
 10
-168.897268
 20
840.846145
 30
0.0
 11
-182.897268
 21
843.346145
 31
0.0
 70
    32
  3
STANDARD
100
AcDbAlignedDimension
 13
-196.897268
 23
828.650129
 33
0.0
 14
-168.897268
 24
828.650129
 34
0.0
100
AcDbRotatedDimension
1001
ACAD
1000
DSTYLE
1002
{
1070
    40
1040
1.0
1002
}
  0
LINE
  5
631
100
AcDbEntity
  8
外形
  6
CONTINUOUS
100
AcDbLine
 10
-196.897268
 20
828.650129
 30
0.0
 11
-169.691771
 21
831.615255
 31
0.0
  0
LINE
  5
632
100
AcDbEntity
  8
外形
  6
CONTINUOUS
100
AcDbLine
 10
-169.691771
 20
831.615255
 30
0.0
 11
-168.897268
 21
828.650129
 31
0.0
  0
LINE
  5
634
100
AcDbEntity
  8
外形
  6
CONTINUOUS
100
AcDbLine
 10
-229.097057
 20
922.44166
 30
0.0
 11
-237.38809
 21
900.84278
 31
0.0
  0
LINE
  5
635
100
AcDbEntity
  8
外形
  6
CONTINUOUS
100
AcDbLine
 10
-232.811747
 20
912.764561
 30
0.0
 11
-237.164481
 21
914.707739
 31
0.0
  0
LINE
  5
64B
100
AcDbEntity
  8
外形
  6
CONTINUOUS
100
AcDbLine
 10
-195.827064
 20
820.779751
 30
0.0
 11
-195.827064
 21
803.650129
 31
0.0
  0
LINE
  5
64E
100
AcDbEntity
  8
外形
  6
CONTINUOUS
100
AcDbLine
 10
-168.897268
 20
828.650129
 30
0.0
 11
-168.897268
 21
803.650129
 31
0.0
  0
LINE
  5
64F
100
AcDbEntity
  8
外形
  6
CONTINUOUS
100
AcDbLine
 10
-169.691771
 20
831.615255
 30
0.0
 11
-169.691771
 21
803.650129
 31
0.0
  0
LINE
  5
655
100
AcDbEntity
  8
外形
  6
CONTINUOUS
100
AcDbLine
 10
-196.38153
 20
823.918151
 30
0.0
 11
-184.294067
 21
825.235563
 31
0.0
  0
LINE
  5
657
100
AcDbEntity
  8
外形
  6
CONTINUOUS
100
AcDbLine
 10
-196.012129
 20
820.759581
 30
0.0
 11
-183.974373
 21
822.071575
 31
0.0
  0
LINE
  5
658
100
AcDbEntity
  8
外形
  6
CONTINUOUS
100
AcDbLine
 10
-196.897268
 20
828.650129
 30
0.0
 11
-196.38153
 21
823.918151
 31
0.0
  0
LINE
  5
659
100
AcDbEntity
  8
外形
  6
CONTINUOUS
100
AcDbLine
 10
-184.809806
 20
829.967541
 30
0.0
 11
-184.294067
 21
825.235563
 31
0.0
  0
LINE
  5
65A
100
AcDbEntity
  8
外形
  6
CONTINUOUS
100
AcDbLine
 10
-196.356677
 20
823.92086
 30
0.0
 11
-196.012129
 21
820.759581
 31
0.0
  0
LINE
  5
65B
100
AcDbEntity
  8
外形
  6
CONTINUOUS
100
AcDbLine
 10
-184.31892
 20
825.232855
 30
0.0
 11
-183.974373
 21
822.071575
 31
0.0
  0
LINE
  5
65F
100
AcDbEntity
  8
外形
  6
CONTINUOUS
100
AcDbLine
 10
-244.690834
 20
903.974481
 30
0.0
 11
-261.760938
 21
908.548402
 31
0.0
  0
LINE
  5
661
100
AcDbEntity
  8
外形
  6
CONTINUOUS
100
AcDbLine
 10
-237.164481
 20
914.707739
 30
0.0
 11
-241.831933
 21
902.548612
 31
0.0
  0
LINE
  5
662
100
AcDbEntity
  8
外形
  6
CONTINUOUS
100
AcDbLine
 10
-240.0724
 20
916.005913
 30
0.0
 11
-244.800718
 21
903.688222
 31
0.0
  0
LINE
  5
663
100
AcDbEntity
  8
外形
  6
CONTINUOUS
100
AcDbLine
 10
-237.38809
 20
900.84278
 30
0.0
 11
-241.831933
 21
902.548612
 31
0.0
  0
LINE
  5
664
100
AcDbEntity
  8
外形
  6
CONTINUOUS
100
AcDbLine
 10
-237.173453
 20
914.684366
 30
0.0
 11
-240.082591
 21
915.983085
 31
0.0
  0
LINE
  5
665
100
AcDbEntity
  8
外形
  6
CONTINUOUS
100
AcDbLine
 10
-241.822973
 20
902.571951
 30
0.0
 11
-244.791759
 21
903.711561
 31
0.0
  0
LINE
  5
676
100
AcDbEntity
  8
外形
  6
CONTINUOUS
100
AcDbLine
 10
-261.760938
 20
908.548402
 30
0.0
 11
-256.099558
 21
929.676958
 31
0.0
  0
LINE
  5
677
100
AcDbEntity
  8
外形
  6
CONTINUOUS
100
AcDbLine
 10
-181.31685
 20
830.348238
 30
0.0
 11
-181.31685
 21
803.650129
 31
0.0
  0
LINE
  5
740
100
AcDbEntity
  8
外形
  6
CONTINUOUS
100
AcDbLine
 10
-229.097057
 20
922.44166
 30
0.0
 11
-256.099558
 21
929.676958
 31
0.0
  0
LINE
  5
743
100
AcDbEntity
  8
外形
  6
CONTINUOUS
100
AcDbLine
 10
-168.897268
 20
886.993297
 30
0.0
 11
-168.897268
 21
911.993254
 31
0.0
  0
ENDSEC
  0
SECTION
  2
OBJECTS
  0
DICTIONARY
  5
1E
100
AcDbDictionary
  3
ACAD_GROUP
350
1C
  3
ACAD_MLINESTYLE
350
1D
  0
DICTIONARY
  5
34
100
AcDbDictionary
280
     1
  3
ACAD_XREC_ROUNDTRIP
360
35
  0
DICTIONARY
  5
22
100
AcDbDictionary
280
     1
  3
ACAD_XREC_ROUNDTRIP
360
23
  0
DICTIONARY
  5
3
100
AcDbDictionary
280
     1
  3
ACAD_LAYOUTSELFREF
360
4
  0
DICTIONARY
  5
A
100
AcDbDictionary
280
     1
  3
ACAD_LAYOUTSELFREF
360
B
  0
DICTIONARY
  5
1C
102
{ACAD_REACTORS
330
1E
102
}
100
AcDbDictionary
  0
DICTIONARY
  5
1D
102
{ACAD_REACTORS
330
1E
102
}
100
AcDbDictionary
  3
STANDARD
350
20
  0
XRECORD
  5
35
102
{ACAD_REACTORS
330
34
102
}
100
AcDbXrecord
102
PLOTBIT
280
     0
  0
XRECORD
  5
23
102
{ACAD_REACTORS
330
22
102
}
100
AcDbXrecord
102
ACADR14ROUNDTRIP
1000
DSTYLE
1002
{
1070
   341
340
2A
1070
   343
340
2A
1070
   344
340
2A
1002
}
  0
XRECORD
  5
4
102
{ACAD_REACTORS
330
3
102
}
100
AcDbXrecord
340
2
  0
XRECORD
  5
B
102
{ACAD_REACTORS
330
A
102
}
100
AcDbXrecord
340
9
  0
MLINESTYLE
  5
20
102
{ACAD_REACTORS
330
1D
102
}
100
AcDbMlineStyle
  2
STANDARD
 70
     0
  3

 62
     0
 51
90.0
 52
90.0
 71
     2
 49
0.5
 62
   256
  6
BYLAYER
 49
-0.5
 62
   256
  6
BYLAYER
  0
ENDSEC
  0
EOF
