  0
SECTION
  2
HEADER
  9
$ACADVER
  1
AC1014
  9
$ACADMAINTVER
 70
     0
  9
$DWGCODEPAGE
  3
ANSI_932
  9
$INSBASE
 10
21.749048
 20
552.890188
 30
0.0
  9
$EXTMIN
 10
2.378166
 20
563.254253
 30
0.0
  9
$EXTMAX
 10
278.452432
 20
723.998425
 30
0.0
  9
$LIMMIN
 10
-587.250952
 20
327.890188
  9
$LIMMAX
 10
600.749048
 20
957.890188
  9
$ORTHOMODE
 70
     1
  9
$REGENMODE
 70
     1
  9
$FILLMODE
 70
     1
  9
$QTEXTMODE
 70
     0
  9
$MIRRTEXT
 70
     1
  9
$DRAGMODE
 70
     2
  9
$LTSCALE
 40
5.0
  9
$OSMODE
 70
    45
  9
$ATTMODE
 70
     1
  9
$TEXTSIZE
 40
4.0
  9
$TRACEWID
 40
0.05
  9
$TEXTSTYLE
  7
STANDARD
  9
$CLAYER
  8
外形
  9
$CELTYPE
  6
CONTINUOUS
  9
$CECOLOR
 62
   256
  9
$CELTSCALE
 40
1.0
  9
$DELOBJ
 70
     1
  9
$DISPSILH
 70
     0
  9
$DIMSCALE
 40
1.0
  9
$DIMASZ
 40
2.0
  9
$DIMEXO
 40
1.0
  9
$DIMDLI
 40
8.0
  9
$DIMRND
 40
0.0
  9
$DIMDLE
 40
0.0
  9
$DIMEXE
 40
2.0
  9
$DIMTP
 40
0.0
  9
$DIMTM
 40
0.0
  9
$DIMTXT
 40
3.0
  9
$DIMCEN
 40
-1.0
  9
$DIMTSZ
 40
0.0
  9
$DIMTOL
 70
     0
  9
$DIMLIM
 70
     0
  9
$DIMTIH
 70
     0
  9
$DIMTOH
 70
     0
  9
$DIMSE1
 70
     0
  9
$DIMSE2
 70
     0
  9
$DIMTAD
 70
     1
  9
$DIMZIN
 70
     8
  9
$DIMBLK
  1

  9
$DIMASO
 70
     1
  9
$DIMSHO
 70
     1
  9
$DIMPOST
  1

  9
$DIMAPOST
  1

  9
$DIMALT
 70
     0
  9
$DIMALTD
 70
     2
  9
$DIMALTF
 40
25.4
  9
$DIMLFAC
 40
1.0
  9
$DIMTOFL
 70
     1
  9
$DIMTVP
 40
0.0
  9
$DIMTIX
 70
     0
  9
$DIMSOXD
 70
     0
  9
$DIMSAH
 70
     1
  9
$DIMBLK1
  1
_OPEN
  9
$DIMBLK2
  1
_OPEN
  9
$DIMSTYLE
  2
STANDARD
  9
$DIMCLRD
 70
     1
  9
$DIMCLRE
 70
     1
  9
$DIMCLRT
 70
     3
  9
$DIMTFAC
 40
1.0
  9
$DIMGAP
 40
1.0
  9
$DIMJUST
 70
     0
  9
$DIMSD1
 70
     0
  9
$DIMSD2
 70
     0
  9
$DIMTOLJ
 70
     1
  9
$DIMTZIN
 70
     8
  9
$DIMALTZ
 70
     0
  9
$DIMALTTZ
 70
     0
  9
$DIMFIT
 70
     3
  9
$DIMUPT
 70
     0
  9
$DIMUNIT
 70
     2
  9
$DIMDEC
 70
     3
  9
$DIMTDEC
 70
     3
  9
$DIMALTU
 70
     2
  9
$DIMALTTD
 70
     2
  9
$DIMTXSTY
  7
STANDARD
  9
$DIMAUNIT
 70
     0
  9
$LUNITS
 70
     2
  9
$LUPREC
 70
     0
  9
$SKETCHINC
 40
0.1
  9
$FILLETRAD
 40
2.4
  9
$AUNITS
 70
     0
  9
$AUPREC
 70
     0
  9
$MENU
  1
acad
  9
$ELEVATION
 40
0.0
  9
$PELEVATION
 40
0.0
  9
$THICKNESS
 40
0.0
  9
$LIMCHECK
 70
     0
  9
$BLIPMODE
 70
     0
  9
$CHAMFERA
 40
0.0
  9
$CHAMFERB
 40
0.0
  9
$CHAMFERC
 40
0.0
  9
$CHAMFERD
 40
0.0
  9
$SKPOLY
 70
     0
  9
$TDCREATE
 40
2450751.535399305
  9
$TDUPDATE
 40
2451929.450682870
  9
$TDINDWG
 40
1.2333785880
  9
$TDUSRTIMER
 40
1.2333785880
  9
$USRTIMER
 70
     1
  9
$ANGBASE
 50
0.0
  9
$ANGDIR
 70
     0
  9
$PDMODE
 70
     0
  9
$PDSIZE
 40
0.0
  9
$PLINEWID
 40
0.0
  9
$COORDS
 70
     1
  9
$SPLFRAME
 70
     0
  9
$SPLINETYPE
 70
     5
  9
$SPLINESEGS
 70
     8
  9
$ATTDIA
 70
     0
  9
$ATTREQ
 70
     1
  9
$HANDLING
 70
     1
  9
$HANDSEED
  5
444
  9
$SURFTAB1
 70
     6
  9
$SURFTAB2
 70
     6
  9
$SURFTYPE
 70
     6
  9
$SURFU
 70
     6
  9
$SURFV
 70
     6
  9
$UCSNAME
  2

  9
$UCSORG
 10
0.0
 20
0.0
 30
0.0
  9
$UCSXDIR
 10
1.0
 20
0.0
 30
0.0
  9
$UCSYDIR
 10
0.0
 20
1.0
 30
0.0
  9
$PUCSNAME
  2

  9
$PUCSORG
 10
0.0
 20
0.0
 30
0.0
  9
$PUCSXDIR
 10
1.0
 20
0.0
 30
0.0
  9
$PUCSYDIR
 10
0.0
 20
1.0
 30
0.0
  9
$USERI1
 70
     0
  9
$USERI2
 70
     0
  9
$USERI3
 70
     0
  9
$USERI4
 70
     0
  9
$USERI5
 70
     0
  9
$USERR1
 40
0.0
  9
$USERR2
 40
0.0
  9
$USERR3
 40
0.0
  9
$USERR4
 40
0.0
  9
$USERR5
 40
0.0
  9
$WORLDVIEW
 70
     1
  9
$SHADEDGE
 70
     3
  9
$SHADEDIF
 70
    70
  9
$TILEMODE
 70
     1
  9
$MAXACTVP
 70
    16
  9
$PINSBASE
 10
0.0
 20
0.0
 30
0.0
  9
$PLIMCHECK
 70
     0
  9
$PEXTMIN
 10
1.000000E+20
 20
1.000000E+20
 30
1.000000E+20
  9
$PEXTMAX
 10
-1.000000E+20
 20
-1.000000E+20
 30
-1.000000E+20
  9
$PLIMMIN
 10
0.0
 20
0.0
  9
$PLIMMAX
 10
12.0
 20
9.0
  9
$UNITMODE
 70
     0
  9
$VISRETAIN
 70
     0
  9
$PLINEGEN
 70
     0
  9
$PSLTSCALE
 70
     1
  9
$TREEDEPTH
 70
  3020
  9
$PICKSTYLE
 70
     1
  9
$CMLSTYLE
  2
STANDARD
  9
$CMLJUST
 70
     0
  9
$CMLSCALE
 40
1.0
  9
$PROXYGRAPHICS
 70
     1
  9
$MEASUREMENT
 70
     0
  0
ENDSEC
  0
SECTION
  2
CLASSES
  0
CLASS
  1
LWPOLYLINE
  2
AcDbPolyline
  3
"AutoCAD"
 90
        0
280
     0
281
     1
  0
CLASS
  1
ACDBDICTIONARYWDFLT
  2
AcDbDictionaryWithDefault
  3
AutoCAD 2000
 90
        0
280
     1
281
     0
  0
CLASS
  1
ACDBPLACEHOLDER
  2
AcDbPlaceHolder
  3
AutoCAD 2000
 90
        0
280
     1
281
     0
  0
CLASS
  1
LAYOUT
  2
AcDbLayout
  3
AutoCAD 2000
 90
        0
280
     1
281
     0
  0
CLASS
  1
LONG_TRANSACTION
  2
AcDbLongTransaction
  3
AutoCAD 2000
 90
        0
280
     1
281
     0
  0
CLASS
  1
LWPOLYLINE
  2
AcDbPolyline
  3
"AutoCAD"
 90
        0
280
     0
281
     1
  0
CLASS
  1
HATCH
  2
AcDbHatch
  3
"ACAD_SEDONA"
 90
        0
280
     0
281
     1
  0
CLASS
  1
XRECORD
  2
AcDbXrecord
  3
"<Built In>"
 90
        0
280
     0
281
     0
  0
ENDSEC
  0
SECTION
  2
TABLES
  0
TABLE
  2
VPORT
  5
16
100
AcDbSymbolTable
 70
     1
  0
VPORT
  5
43F
100
AcDbSymbolTableRecord
100
AcDbViewportTableRecord
  2
*ACTIVE
 70
     0
 10
0.0
 20
0.0
 11
1.0
 21
1.0
 12
135.519592
 22
647.428009
 13
0.0
 23
0.0
 14
0.05
 24
0.05
 15
10.0
 25
10.0
 16
0.0
 26
0.0
 36
1.0
 17
0.0
 27
0.0
 37
0.0
 40
183.788386
 41
1.710425
 42
50.0
 43
0.0
 44
0.0
 50
0.0
 51
0.0
 71
     0
 72
   100
 73
     1
 74
     1
 75
     0
 76
     0
 77
     0
 78
     0
  0
ENDTAB
  0
TABLE
  2
LTYPE
  5
11
100
AcDbSymbolTable
 70
     1
  0
LTYPE
  5
12
100
AcDbSymbolTableRecord
100
AcDbLinetypeTableRecord
  2
BYBLOCK
 70
     0
  3

 72
    65
 73
     0
 40
0.0
  0
LTYPE
  5
13
100
AcDbSymbolTableRecord
100
AcDbLinetypeTableRecord
  2
BYLAYER
 70
     0
  3

 72
    65
 73
     0
 40
0.0
  0
LTYPE
  5
7
100
AcDbSymbolTableRecord
100
AcDbLinetypeTableRecord
  2
CONTINUOUS
 70
     0
  3
Solid line
 72
    65
 73
     0
 40
0.0
  0
ENDTAB
  0
TABLE
  2
LAYER
  5
E
100
AcDbSymbolTable
 70
     4
  0
LAYER
  5
6
100
AcDbSymbolTableRecord
100
AcDbLayerTableRecord
  2
0
 70
     0
 62
     7
  6
CONTINUOUS
  0
LAYER
  5
1F
100
AcDbSymbolTableRecord
100
AcDbLayerTableRecord
  2
外形
 70
     0
 62
     3
  6
CONTINUOUS
  0
LAYER
  5
3B
102
{ACAD_XDICTIONARY
360
3C
102
}
100
AcDbSymbolTableRecord
100
AcDbLayerTableRecord
  2
DEFPOINTS
 70
     0
 62
     7
  6
CONTINUOUS
  0
LAYER
  5
28
100
AcDbSymbolTableRecord
100
AcDbLayerTableRecord
  2
寸法
 70
     0
 62
     1
  6
CONTINUOUS
  0
ENDTAB
  0
TABLE
  2
STYLE
  5
F
100
AcDbSymbolTable
 70
     1
  0
STYLE
  5
10
100
AcDbSymbolTableRecord
100
AcDbTextStyleTableRecord
  2
STANDARD
 70
     0
 40
0.0
 41
1.0
 50
0.0
 71
     0
 42
4.0
  3
MONOTXT
  4
BIGFONT
  0
ENDTAB
  0
TABLE
  2
VIEW
  5
14
100
AcDbSymbolTable
 70
     0
  0
ENDTAB
  0
TABLE
  2
UCS
  5
15
100
AcDbSymbolTable
 70
     0
  0
ENDTAB
  0
TABLE
  2
APPID
  5
18
100
AcDbSymbolTable
 70
     1
  0
APPID
  5
19
100
AcDbSymbolTableRecord
100
AcDbRegAppTableRecord
  2
ACAD
 70
     0
  0
ENDTAB
  0
TABLE
  2
DIMSTYLE
  5
1A
100
AcDbSymbolTable
 70
     1
  0
DIMSTYLE
105
21
102
{ACAD_XDICTIONARY
360
22
102
}
102
{ACAD_REACTORS
330
27
330
AA
330
58
330
49
330
86
330
98
330
77
330
213
330
31A
102
}
100
AcDbSymbolTableRecord
100
AcDbDimStyleTableRecord
  2
STANDARD
 70
     0
  3

  4

  5

  6
_OPEN
  7
_OPEN
 40
1.0
 41
2.0
 42
1.0
 43
8.0
 44
2.0
 45
0.0
 46
0.0
 47
0.0
 48
0.0
140
3.0
141
-1.0
142
0.0
143
25.4
144
1.0
145
0.0
146
1.0
147
1.0
 71
     0
 72
     0
 73
     0
 74
     0
 75
     0
 76
     0
 77
     1
 78
     8
170
     0
171
     2
172
     1
173
     1
174
     0
175
     0
176
     1
177
     1
178
     3
270
     2
271
     3
272
     3
273
     2
274
     2
340
10
275
     0
280
     0
281
     0
282
     0
283
     1
284
     8
285
     0
286
     0
287
     3
288
     0
  0
ENDTAB
  0
TABLE
  2
BLOCK_RECORD
  5
1
100
AcDbSymbolTable
 70
    19
  0
BLOCK_RECORD
  5
2
102
{ACAD_XDICTIONARY
360
3
102
}
100
AcDbSymbolTableRecord
100
AcDbBlockTableRecord
  2
*MODEL_SPACE
  0
BLOCK_RECORD
  5
9
102
{ACAD_XDICTIONARY
360
A
102
}
100
AcDbSymbolTableRecord
100
AcDbBlockTableRecord
  2
*PAPER_SPACE
  0
BLOCK_RECORD
  5
32
100
AcDbSymbolTableRecord
100
AcDbBlockTableRecord
  2
_OPEN30
  0
BLOCK_RECORD
  5
D0
100
AcDbSymbolTableRecord
100
AcDbBlockTableRecord
  2
*D1
  0
BLOCK_RECORD
  5
DC
100
AcDbSymbolTableRecord
100
AcDbBlockTableRecord
  2
_OPEN
  0
BLOCK_RECORD
  5
E2
100
AcDbSymbolTableRecord
100
AcDbBlockTableRecord
  2
*D3
  0
BLOCK_RECORD
  5
F4
100
AcDbSymbolTableRecord
100
AcDbBlockTableRecord
  2
*D4
  0
BLOCK_RECORD
  5
100
100
AcDbSymbolTableRecord
100
AcDbBlockTableRecord
  2
*D5
  0
BLOCK_RECORD
  5
118
100
AcDbSymbolTableRecord
100
AcDbBlockTableRecord
  2
*D6
  0
BLOCK_RECORD
  5
124
100
AcDbSymbolTableRecord
100
AcDbBlockTableRecord
  2
*D7
  0
BLOCK_RECORD
  5
13B
100
AcDbSymbolTableRecord
100
AcDbBlockTableRecord
  2
*D8
  0
BLOCK_RECORD
  5
201
100
AcDbSymbolTableRecord
100
AcDbBlockTableRecord
  2
*D12
  0
BLOCK_RECORD
  5
30E
100
AcDbSymbolTableRecord
100
AcDbBlockTableRecord
  2
*D15
  0
ENDTAB
  0
ENDSEC
  0
SECTION
  2
BLOCKS
  0
BLOCK
  5
5
100
AcDbEntity
  8
0
100
AcDbBlockBegin
  2
*MODEL_SPACE
 70
     0
 10
0.0
 20
0.0
 30
0.0
  3
*MODEL_SPACE
  1

  0
ENDBLK
  5
8
100
AcDbEntity
  8
0
100
AcDbBlockEnd
  0
BLOCK
  5
C
100
AcDbEntity
 67
     1
  8
0
100
AcDbBlockBegin
  2
*PAPER_SPACE
 70
     0
 10
0.0
 20
0.0
 30
0.0
  3
*PAPER_SPACE
  1

  0
ENDBLK
  5
D
100
AcDbEntity
 67
     1
  8
0
100
AcDbBlockEnd
  0
BLOCK
  5
36
100
AcDbEntity
  8
0
100
AcDbBlockBegin
  2
_OPEN30
 70
     0
 10
0.0
 20
0.0
 30
0.0
  3
_OPEN30
  1

  0
LINE
  5
33
100
AcDbEntity
  8
0
  6
BYBLOCK
 62
     0
100
AcDbLine
 10
-1.0
 20
0.267949
 30
0.0
 11
0.0
 21
0.0
 31
0.0
  0
LINE
  5
34
100
AcDbEntity
  8
0
  6
BYBLOCK
 62
     0
100
AcDbLine
 10
0.0
 20
0.0
 30
0.0
 11
-1.0
 21
-0.267949
 31
0.0
  0
LINE
  5
35
100
AcDbEntity
  8
0
  6
BYBLOCK
 62
     0
100
AcDbLine
 10
0.0
 20
0.0
 30
0.0
 11
-1.0
 21
0.0
 31
0.0
  0
ENDBLK
  5
37
100
AcDbEntity
  8
0
100
AcDbBlockEnd
  0
BLOCK
  5
3A9
100
AcDbEntity
  8
0
100
AcDbBlockBegin
  2
*D1
 70
     1
 10
0.0
 20
0.0
 30
0.0
  3
*D1
  1

  0
LINE
  5
3AA
100
AcDbEntity
  8
0
  6
BYBLOCK
 62
     1
100
AcDbLine
 10
91.85096
 20
679.020977
 30
0.0
 11
80.15073
 21
679.020977
 31
0.0
  0
LINE
  5
3AB
100
AcDbEntity
  8
0
  6
BYBLOCK
 62
     1
100
AcDbLine
 10
100.737921
 20
706.021095
 30
0.0
 11
80.15073
 21
706.021095
 31
0.0
  0
LINE
  5
3AC
100
AcDbEntity
  8
0
  6
BYBLOCK
 62
     1
100
AcDbLine
 10
82.15073
 20
681.020977
 30
0.0
 11
82.15073
 21
704.021095
 31
0.0
  0
INSERT
  5
3AD
100
AcDbEntity
  8
0
  6
BYBLOCK
 62
     1
100
AcDbBlockReference
  2
_OPEN
 10
82.15073
 20
679.020977
 30
0.0
 41
2.0
 42
2.0
 43
2.0
 50
270.0
  0
INSERT
  5
3AE
100
AcDbEntity
  8
0
  6
BYBLOCK
 62
     1
100
AcDbBlockReference
  2
_OPEN
 10
82.15073
 20
706.021095
 30
0.0
 41
2.0
 42
2.0
 43
2.0
 50
90.0
  0
MTEXT
  5
3AF
100
AcDbEntity
  8
0
  6
BYBLOCK
 62
     3
100
AcDbMText
 10
79.65073
 20
692.521036
 30
0.0
 40
3.0
 41
0.0
 71
     5
 72
     1
  1
\A1;27
 11
0.0
 21
1.0
 31
0.0
  0
POINT
  5
3B0
100
AcDbEntity
  8
DEFPOINTS
  6
BYBLOCK
 62
     0
100
AcDbPoint
 10
92.85096
 20
679.020977
 30
0.0
  0
POINT
  5
3B1
100
AcDbEntity
  8
DEFPOINTS
  6
BYBLOCK
 62
     0
100
AcDbPoint
 10
101.737921
 20
706.021095
 30
0.0
  0
POINT
  5
3B2
100
AcDbEntity
  8
DEFPOINTS
  6
BYBLOCK
 62
     0
100
AcDbPoint
 10
82.15073
 20
706.021095
 30
0.0
  0
ENDBLK
  5
3B3
100
AcDbEntity
  8
0
100
AcDbBlockEnd
  0
BLOCK
  5
DD
100
AcDbEntity
  8
0
100
AcDbBlockBegin
  2
_OPEN
 70
     0
 10
0.0
 20
0.0
 30
0.0
  3
_OPEN
  1

  0
LINE
  5
DE
100
AcDbEntity
  8
0
  6
BYBLOCK
 62
     0
100
AcDbLine
 10
-1.0
 20
0.166667
 30
0.0
 11
0.0
 21
0.0
 31
0.0
  0
LINE
  5
DF
100
AcDbEntity
  8
0
  6
BYBLOCK
 62
     0
100
AcDbLine
 10
0.0
 20
0.0
 30
0.0
 11
-1.0
 21
-0.166667
 31
0.0
  0
LINE
  5
E0
100
AcDbEntity
  8
0
  6
BYBLOCK
 62
     0
100
AcDbLine
 10
0.0
 20
0.0
 30
0.0
 11
-1.0
 21
0.0
 31
0.0
  0
ENDBLK
  5
E1
100
AcDbEntity
  8
0
100
AcDbBlockEnd
  0
BLOCK
  5
36C
100
AcDbEntity
  8
0
100
AcDbBlockBegin
  2
*D3
 70
     1
 10
0.0
 20
0.0
 30
0.0
  3
*D3
  1

  0
LINE
  5
36D
100
AcDbEntity
  8
0
  6
BYBLOCK
 62
     1
100
AcDbLine
 10
59.052432
 20
687.026332
 30
0.0
 11
53.362845
 21
672.204453
 31
0.0
  0
LINE
  5
36E
100
AcDbEntity
  8
0
  6
BYBLOCK
 62
     1
100
AcDbLine
 10
59.231581
 20
686.993987
 30
0.0
 11
55.116095
 21
671.634787
 31
0.0
  0
ARC
  5
36F
100
AcDbEntity
  8
0
  6
BYBLOCK
 62
     1
100
AcDbCircle
 10
59.674403
 20
688.646623
 30
0.0
 40
15.611949
100
AcDbArc
 50
234.279566
 51
249.0
  0
LINE
  5
370
100
AcDbEntity
  8
0
  6
BYBLOCK
 62
     1
100
AcDbLine
 10
50.559667
 20
675.971667
 30
0.0
 11
43.577539
 21
680.992612
 31
0.0
  0
ARC
  5
371
100
AcDbEntity
  8
0
  6
BYBLOCK
 62
     1
100
AcDbCircle
 10
59.674403
 20
688.646623
 30
0.0
 40
15.611949
100
AcDbArc
 50
234.309961
 51
241.654981
  0
ARC
  5
372
100
AcDbEntity
  8
0
  6
BYBLOCK
 62
     1
100
AcDbCircle
 10
59.674403
 20
688.646623
 30
0.0
 40
15.611949
100
AcDbArc
 50
262.345019
 51
269.690039
  0
ARC
  5
373
100
AcDbEntity
  8
0
  6
BYBLOCK
 62
     1
100
AcDbCircle
 10
59.674403
 20
688.646623
 30
0.0
 40
15.611949
100
AcDbArc
 50
249.0
 51
255.0
  0
INSERT
  5
374
100
AcDbEntity
  8
0
  6
BYBLOCK
 62
     1
100
AcDbBlockReference
  2
_OPEN
 10
54.079581
 20
674.071614
 30
0.0
 41
2.0
 42
2.0
 43
2.0
 50
335.32749
  0
INSERT
  5
375
100
AcDbEntity
  8
0
  6
BYBLOCK
 62
     1
100
AcDbBlockReference
  2
_OPEN
 10
55.633734
 20
673.566639
 30
0.0
 41
2.0
 42
2.0
 43
2.0
 50
168.67251
  0
MTEXT
  5
376
100
AcDbEntity
  8
0
  6
BYBLOCK
 62
     3
100
AcDbMText
 10
48.52818
 20
680.511828
 30
0.0
 40
3.0
 41
0.0
 71
     5
 72
     1
  1
\A1;6°
 11
0.811875
 21
-0.583831
 31
0.0
  0
POINT
  5
377
100
AcDbEntity
  8
DEFPOINTS
  6
BYBLOCK
 62
     0
100
AcDbPoint
 10
55.109911
 20
673.716843
 30
0.0
  0
POINT
  5
378
100
AcDbEntity
  8
DEFPOINTS
  6
BYBLOCK
 62
     0
100
AcDbPoint
 10
66.169848
 20
705.567836
 30
0.0
  0
POINT
  5
379
100
AcDbEntity
  8
DEFPOINTS
  6
BYBLOCK
 62
     0
100
AcDbPoint
 10
61.110849
 20
694.007512
 30
0.0
  0
POINT
  5
37A
100
AcDbEntity
  8
DEFPOINTS
  6
BYBLOCK
 62
     0
100
AcDbPoint
 10
59.4904
 20
687.959913
 30
0.0
  0
POINT
  5
37B
100
AcDbEntity
  8
DEFPOINTS
  6
BYBLOCK
 62
     0
100
AcDbPoint
 10
59.4108
 20
687.959913
 30
0.0
  0
ENDBLK
  5
37C
100
AcDbEntity
  8
0
100
AcDbBlockEnd
  0
BLOCK
  5
37D
100
AcDbEntity
  8
0
100
AcDbBlockBegin
  2
*D4
 70
     1
 10
0.0
 20
0.0
 30
0.0
  3
*D4
  1

  0
LINE
  5
37E
100
AcDbEntity
  8
0
  6
BYBLOCK
 62
     1
100
AcDbLine
 10
264.120654
 20
585.648003
 30
0.0
 11
278.452432
 21
585.648003
 31
0.0
  0
LINE
  5
37F
100
AcDbEntity
  8
0
  6
BYBLOCK
 62
     1
100
AcDbLine
 10
264.120654
 20
617.648003
 30
0.0
 11
278.452432
 21
617.648003
 31
0.0
  0
LINE
  5
380
100
AcDbEntity
  8
0
  6
BYBLOCK
 62
     1
100
AcDbLine
 10
276.452432
 20
587.648003
 30
0.0
 11
276.452432
 21
615.648003
 31
0.0
  0
INSERT
  5
381
100
AcDbEntity
  8
0
  6
BYBLOCK
 62
     1
100
AcDbBlockReference
  2
_OPEN
 10
276.452432
 20
585.648003
 30
0.0
 41
2.0
 42
2.0
 43
2.0
 50
270.0
  0
INSERT
  5
382
100
AcDbEntity
  8
0
  6
BYBLOCK
 62
     1
100
AcDbBlockReference
  2
_OPEN
 10
276.452432
 20
617.648003
 30
0.0
 41
2.0
 42
2.0
 43
2.0
 50
90.0
  0
MTEXT
  5
383
100
AcDbEntity
  8
0
  6
BYBLOCK
 62
     3
100
AcDbMText
 10
273.952432
 20
601.648003
 30
0.0
 40
3.0
 41
0.0
 71
     5
 72
     1
  1
\A1;32
 11
0.0
 21
1.0
 31
0.0
  0
POINT
  5
384
100
AcDbEntity
  8
DEFPOINTS
  6
BYBLOCK
 62
     0
100
AcDbPoint
 10
263.120654
 20
585.648003
 30
0.0
  0
POINT
  5
385
100
AcDbEntity
  8
DEFPOINTS
  6
BYBLOCK
 62
     0
100
AcDbPoint
 10
263.120654
 20
617.648003
 30
0.0
  0
POINT
  5
386
100
AcDbEntity
  8
DEFPOINTS
  6
BYBLOCK
 62
     0
100
AcDbPoint
 10
276.452432
 20
617.648003
 30
0.0
  0
ENDBLK
  5
387
100
AcDbEntity
  8
0
100
AcDbBlockEnd
  0
BLOCK
  5
388
100
AcDbEntity
  8
0
100
AcDbBlockBegin
  2
*D5
 70
     1
 10
0.0
 20
0.0
 30
0.0
  3
*D5
  1

  0
LINE
  5
389
100
AcDbEntity
  8
0
  6
BYBLOCK
 62
     1
100
AcDbLine
 10
93.86971
 20
585.648003
 30
0.0
 11
80.420423
 21
585.648003
 31
0.0
  0
LINE
  5
38A
100
AcDbEntity
  8
0
  6
BYBLOCK
 62
     1
100
AcDbLine
 10
92.120654
 20
617.648003
 30
0.0
 11
80.420423
 21
617.648003
 31
0.0
  0
LINE
  5
38B
100
AcDbEntity
  8
0
  6
BYBLOCK
 62
     1
100
AcDbLine
 10
82.420423
 20
587.648003
 30
0.0
 11
82.420423
 21
615.648003
 31
0.0
  0
INSERT
  5
38C
100
AcDbEntity
  8
0
  6
BYBLOCK
 62
     1
100
AcDbBlockReference
  2
_OPEN
 10
82.420423
 20
585.648003
 30
0.0
 41
2.0
 42
2.0
 43
2.0
 50
270.0
  0
INSERT
  5
38D
100
AcDbEntity
  8
0
  6
BYBLOCK
 62
     1
100
AcDbBlockReference
  2
_OPEN
 10
82.420423
 20
617.648003
 30
0.0
 41
2.0
 42
2.0
 43
2.0
 50
90.0
  0
MTEXT
  5
38E
100
AcDbEntity
  8
0
  6
BYBLOCK
 62
     3
100
AcDbMText
 10
79.920423
 20
601.648003
 30
0.0
 40
3.0
 41
0.0
 71
     5
 72
     1
  1
\A1;32
 11
0.0
 21
1.0
 31
0.0
  0
POINT
  5
38F
100
AcDbEntity
  8
DEFPOINTS
  6
BYBLOCK
 62
     0
100
AcDbPoint
 10
94.86971
 20
585.648003
 30
0.0
  0
POINT
  5
390
100
AcDbEntity
  8
DEFPOINTS
  6
BYBLOCK
 62
     0
100
AcDbPoint
 10
93.120654
 20
617.648003
 30
0.0
  0
POINT
  5
391
100
AcDbEntity
  8
DEFPOINTS
  6
BYBLOCK
 62
     0
100
AcDbPoint
 10
82.420423
 20
617.648003
 30
0.0
  0
ENDBLK
  5
392
100
AcDbEntity
  8
0
100
AcDbBlockEnd
  0
BLOCK
  5
393
100
AcDbEntity
  8
0
100
AcDbBlockBegin
  2
*D6
 70
     1
 10
0.0
 20
0.0
 30
0.0
  3
*D6
  1

  0
LINE
  5
394
100
AcDbEntity
  8
0
  6
BYBLOCK
 62
     1
100
AcDbLine
 10
93.120654
 20
677.948713
 30
0.0
 11
93.120654
 21
653.279778
 31
0.0
  0
LINE
  5
395
100
AcDbEntity
  8
0
  6
BYBLOCK
 62
     1
100
AcDbLine
 10
263.120654
 20
672.948713
 30
0.0
 11
263.120654
 21
653.279778
 31
0.0
  0
LINE
  5
396
100
AcDbEntity
  8
0
  6
BYBLOCK
 62
     1
100
AcDbLine
 10
95.120654
 20
655.279778
 30
0.0
 11
261.120654
 21
655.279778
 31
0.0
  0
INSERT
  5
397
100
AcDbEntity
  8
0
  6
BYBLOCK
 62
     1
100
AcDbBlockReference
  2
_OPEN
 10
93.120654
 20
655.279778
 30
0.0
 41
2.0
 42
2.0
 43
2.0
 50
180.0
  0
INSERT
  5
398
100
AcDbEntity
  8
0
  6
BYBLOCK
 62
     1
100
AcDbBlockReference
  2
_OPEN
 10
263.120654
 20
655.279778
 30
0.0
 41
2.0
 42
2.0
 43
2.0
  0
MTEXT
  5
399
100
AcDbEntity
  8
0
  6
BYBLOCK
 62
     3
100
AcDbMText
 10
178.120654
 20
657.779778
 30
0.0
 40
3.0
 41
0.0
 71
     5
 72
     1
  1
\A1;170
  0
POINT
  5
39A
100
AcDbEntity
  8
DEFPOINTS
  6
BYBLOCK
 62
     0
100
AcDbPoint
 10
93.120654
 20
678.948713
 30
0.0
  0
POINT
  5
39B
100
AcDbEntity
  8
DEFPOINTS
  6
BYBLOCK
 62
     0
100
AcDbPoint
 10
263.120654
 20
673.948713
 30
0.0
  0
POINT
  5
39C
100
AcDbEntity
  8
DEFPOINTS
  6
BYBLOCK
 62
     0
100
AcDbPoint
 10
263.120654
 20
655.279778
 30
0.0
  0
ENDBLK
  5
39D
100
AcDbEntity
  8
0
100
AcDbBlockEnd
  0
BLOCK
  5
39E
100
AcDbEntity
  8
0
100
AcDbBlockBegin
  2
*D7
 70
     1
 10
0.0
 20
0.0
 30
0.0
  3
*D7
  1

  0
LINE
  5
39F
100
AcDbEntity
  8
0
  6
BYBLOCK
 62
     1
100
AcDbLine
 10
93.120654
 20
618.648003
 30
0.0
 11
93.120654
 21
631.997621
 31
0.0
  0
LINE
  5
3A0
100
AcDbEntity
  8
0
  6
BYBLOCK
 62
     1
100
AcDbLine
 10
128.120654
 20
618.648003
 30
0.0
 11
128.120654
 21
631.997621
 31
0.0
  0
LINE
  5
3A1
100
AcDbEntity
  8
0
  6
BYBLOCK
 62
     1
100
AcDbLine
 10
95.120654
 20
629.997621
 30
0.0
 11
126.120654
 21
629.997621
 31
0.0
  0
INSERT
  5
3A2
100
AcDbEntity
  8
0
  6
BYBLOCK
 62
     1
100
AcDbBlockReference
  2
_OPEN
 10
93.120654
 20
629.997621
 30
0.0
 41
2.0
 42
2.0
 43
2.0
 50
180.0
  0
INSERT
  5
3A3
100
AcDbEntity
  8
0
  6
BYBLOCK
 62
     1
100
AcDbBlockReference
  2
_OPEN
 10
128.120654
 20
629.997621
 30
0.0
 41
2.0
 42
2.0
 43
2.0
  0
MTEXT
  5
3A4
100
AcDbEntity
  8
0
  6
BYBLOCK
 62
     3
100
AcDbMText
 10
110.620654
 20
632.497621
 30
0.0
 40
3.0
 41
0.0
 71
     5
 72
     1
  1
\A1;35
  0
POINT
  5
3A5
100
AcDbEntity
  8
DEFPOINTS
  6
BYBLOCK
 62
     0
100
AcDbPoint
 10
93.120654
 20
617.648003
 30
0.0
  0
POINT
  5
3A6
100
AcDbEntity
  8
DEFPOINTS
  6
BYBLOCK
 62
     0
100
AcDbPoint
 10
128.120654
 20
617.648003
 30
0.0
  0
POINT
  5
3A7
100
AcDbEntity
  8
DEFPOINTS
  6
BYBLOCK
 62
     0
100
AcDbPoint
 10
128.120654
 20
629.997621
 30
0.0
  0
ENDBLK
  5
3A8
100
AcDbEntity
  8
0
100
AcDbBlockEnd
  0
BLOCK
  5
3B4
100
AcDbEntity
  8
0
100
AcDbBlockBegin
  2
*D8
 70
     1
 10
0.0
 20
0.0
 30
0.0
  3
*D8
  1

  0
LINE
  5
3B5
100
AcDbEntity
  8
0
  6
BYBLOCK
 62
     1
100
AcDbLine
 10
105.311404
 20
675.682212
 30
0.0
 11
113.965176
 21
673.36344
 31
0.0
  0
ARC
  5
3B6
100
AcDbEntity
  8
0
  6
BYBLOCK
 62
     1
100
AcDbCircle
 10
92.85096
 20
679.020977
 30
0.0
 40
19.859044
100
AcDbArc
 50
275.772687
 51
339.227313
  0
INSERT
  5
3B7
100
AcDbEntity
  8
0
  6
BYBLOCK
 62
     1
100
AcDbBlockReference
  2
_OPEN
 10
92.85096
 20
659.161933
 30
0.0
 41
2.0
 42
2.0
 43
2.0
 50
182.886343
  0
INSERT
  5
3B8
100
AcDbEntity
  8
0
  6
BYBLOCK
 62
     1
100
AcDbBlockReference
  2
_OPEN
 10
112.033324
 20
673.881078
 30
0.0
 41
2.0
 42
2.0
 43
2.0
 50
72.113657
  0
MTEXT
  5
3B9
100
AcDbEntity
  8
0
  6
BYBLOCK
 62
     3
100
AcDbMText
 10
103.418477
 20
665.249122
 30
0.0
 40
3.0
 41
0.0
 71
     5
 72
     1
  1
\A1;75°
 11
0.793353
 21
0.608761
 31
0.0
  0
POINT
  5
3BA
100
AcDbEntity
  8
DEFPOINTS
  6
BYBLOCK
 62
     0
100
AcDbPoint
 10
101.243755
 20
661.022571
 30
0.0
  0
POINT
  5
3BB
100
AcDbEntity
  8
DEFPOINTS
  6
BYBLOCK
 62
     0
100
AcDbPoint
 10
92.85096
 20
679.020977
 30
0.0
  0
POINT
  5
3BC
100
AcDbEntity
  8
DEFPOINTS
  6
BYBLOCK
 62
     0
100
AcDbPoint
 10
93.623701
 20
678.813922
 30
0.0
  0
POINT
  5
3BD
100
AcDbEntity
  8
DEFPOINTS
  6
BYBLOCK
 62
     0
100
AcDbPoint
 10
104.345478
 20
675.941031
 30
0.0
  0
POINT
  5
3BE
100
AcDbEntity
  8
DEFPOINTS
  6
BYBLOCK
 62
     0
100
AcDbPoint
 10
92.85096
 20
659.161933
 30
0.0
  0
ENDBLK
  5
3BF
100
AcDbEntity
  8
0
100
AcDbBlockEnd
  0
BLOCK
  5
3E5
100
AcDbEntity
  8
0
100
AcDbBlockBegin
  2
*D12
 70
     1
 10
0.0
 20
0.0
 30
0.0
  3
*D12
  1

  0
LINE
  5
3E6
100
AcDbEntity
  8
0
  6
BYBLOCK
 62
     1
100
AcDbLine
 10
19.920383
 20
631.203142
 30
0.0
 11
2.733027
 21
635.80848
 31
0.0
  0
LINE
  5
3E7
100
AcDbEntity
  8
0
  6
BYBLOCK
 62
     1
100
AcDbLine
 10
19.901501
 20
631.117971
 30
0.0
 11
2.378166
 21
634.207808
 31
0.0
  0
ARC
  5
3E8
100
AcDbEntity
  8
0
  6
BYBLOCK
 62
     1
100
AcDbCircle
 10
20.886309
 20
630.944323
 30
0.0
 40
16.79366
100
AcDbArc
 50
151.320531
 51
165.0
  0
LINE
  5
3E9
100
AcDbEntity
  8
0
  6
BYBLOCK
 62
     1
100
AcDbLine
 10
6.152925
 20
639.003754
 30
0.0
 11
10.280144
 21
646.548691
 31
0.0
  0
ARC
  5
3EA
100
AcDbEntity
  8
0
  6
BYBLOCK
 62
     1
100
AcDbCircle
 10
20.886309
 20
630.944323
 30
0.0
 40
16.79366
100
AcDbArc
 50
151.34492
 51
158.17246
  0
ARC
  5
3EB
100
AcDbEntity
  8
0
  6
BYBLOCK
 62
     1
100
AcDbCircle
 10
20.886309
 20
630.944323
 30
0.0
 40
16.79366
100
AcDbArc
 50
176.82754
 51
183.65508
  0
ARC
  5
3EC
100
AcDbEntity
  8
0
  6
BYBLOCK
 62
     1
100
AcDbCircle
 10
20.886309
 20
630.944323
 30
0.0
 40
16.79366
100
AcDbArc
 50
165.0
 51
170.0
  0
INSERT
  5
3ED
100
AcDbEntity
  8
0
  6
BYBLOCK
 62
     1
100
AcDbBlockReference
  2
_OPEN
 10
4.664878
 20
635.290842
 30
0.0
 41
2.0
 42
2.0
 43
2.0
 50
251.58623
  0
INSERT
  5
3EE
100
AcDbEntity
  8
0
  6
BYBLOCK
 62
     1
100
AcDbBlockReference
  2
_OPEN
 10
4.347782
 20
633.860511
 30
0.0
 41
2.0
 42
2.0
 43
2.0
 50
83.41377
  0
MTEXT
  5
3EF
100
AcDbEntity
  8
0
  6
BYBLOCK
 62
     3
100
AcDbMText
 10
6.023239
 20
643.975995
 30
0.0
 40
3.0
 41
0.0
 71
     5
 72
     1
  1
\A1;5°
 11
0.479909
 21
0.877318
 31
0.0
  0
POINT
  5
3F0
100
AcDbEntity
  8
DEFPOINTS
  6
BYBLOCK
 62
     0
100
AcDbPoint
 10
4.439595
 20
634.340296
 30
0.0
  0
POINT
  5
3F1
100
AcDbEntity
  8
DEFPOINTS
  6
BYBLOCK
 62
     0
100
AcDbPoint
 10
20.886309
 20
630.944323
 30
0.0
  0
POINT
  5
3F2
100
AcDbEntity
  8
DEFPOINTS
  6
BYBLOCK
 62
     0
100
AcDbPoint
 10
20.886309
 20
630.944323
 30
0.0
  0
POINT
  5
3F3
100
AcDbEntity
  8
DEFPOINTS
  6
BYBLOCK
 62
     0
100
AcDbPoint
 10
54.791753
 20
621.859386
 30
0.0
  0
POINT
  5
3F4
100
AcDbEntity
  8
DEFPOINTS
  6
BYBLOCK
 62
     0
100
AcDbPoint
 10
55.586582
 20
624.825729
 30
0.0
  0
ENDBLK
  5
3F5
100
AcDbEntity
  8
0
100
AcDbBlockEnd
  0
BLOCK
  5
40F
100
AcDbEntity
  8
0
100
AcDbBlockBegin
  2
*D15
 70
     1
 10
0.0
 20
0.0
 30
0.0
  3
*D15
  1

  0
LINE
  5
410
100
AcDbEntity
  8
0
  6
BYBLOCK
 62
     1
100
AcDbLine
 10
264.120654
 20
674.020977
 30
0.0
 11
277.537775
 21
674.020977
 31
0.0
  0
LINE
  5
411
100
AcDbEntity
  8
0
  6
BYBLOCK
 62
     1
100
AcDbLine
 10
264.120654
 20
706.020977
 30
0.0
 11
277.537775
 21
706.020977
 31
0.0
  0
LINE
  5
412
100
AcDbEntity
  8
0
  6
BYBLOCK
 62
     1
100
AcDbLine
 10
275.537775
 20
676.020977
 30
0.0
 11
275.537775
 21
704.020977
 31
0.0
  0
INSERT
  5
413
100
AcDbEntity
  8
0
  6
BYBLOCK
 62
     1
100
AcDbBlockReference
  2
_OPEN
 10
275.537775
 20
674.020977
 30
0.0
 41
2.0
 42
2.0
 43
2.0
 50
270.0
  0
INSERT
  5
414
100
AcDbEntity
  8
0
  6
BYBLOCK
 62
     1
100
AcDbBlockReference
  2
_OPEN
 10
275.537775
 20
706.020977
 30
0.0
 41
2.0
 42
2.0
 43
2.0
 50
90.0
  0
MTEXT
  5
415
100
AcDbEntity
  8
0
  6
BYBLOCK
 62
     3
100
AcDbMText
 10
273.037775
 20
690.020977
 30
0.0
 40
3.0
 41
0.0
 71
     5
 72
     1
  1
\A1;32
 11
0.0
 21
1.0
 31
0.0
  0
POINT
  5
416
100
AcDbEntity
  8
DEFPOINTS
  6
BYBLOCK
 62
     0
100
AcDbPoint
 10
263.120654
 20
674.020977
 30
0.0
  0
POINT
  5
417
100
AcDbEntity
  8
DEFPOINTS
  6
BYBLOCK
 62
     0
100
AcDbPoint
 10
263.120654
 20
706.020977
 30
0.0
  0
POINT
  5
418
100
AcDbEntity
  8
DEFPOINTS
  6
BYBLOCK
 62
     0
100
AcDbPoint
 10
275.537775
 20
706.020977
 30
0.0
  0
ENDBLK
  5
419
100
AcDbEntity
  8
0
100
AcDbBlockEnd
  0
ENDSEC
  0
SECTION
  2
ENTITIES
  0
LINE
  5
25
100
AcDbEntity
  8
外形
  6
CONTINUOUS
100
AcDbLine
 10
69.716985
 20
714.601079
 30
0.0
 11
59.4904
 21
687.959913
 31
0.0
  0
LINE
  5
26
100
AcDbEntity
  8
外形
  6
CONTINUOUS
100
AcDbLine
 10
27.739373
 20
698.223999
 30
0.0
 11
34.64561
 21
723.998425
 31
0.0
  0
DIMENSION
  5
27
100
AcDbEntity
  8
寸法
  6
CONTINUOUS
100
AcDbDimension
  2
*D3
 10
59.4108
 20
687.959913
 30
0.0
 11
48.52818
 21
680.511828
 31
0.0
 70
    34
  3
STANDARD
100
AcDb2LineAngularDimension
 13
61.110849
 23
694.007512
 33
0.0
 14
59.4904
 24
687.959913
 34
0.0
 15
66.169848
 25
705.567836
 35
0.0
 16
55.109911
 26
673.716843
 36
0.0
1001
ACAD
1000
DSTYLE
1002
{
1070
    40
1040
1.0
1002
}
  0
LINE
  5
45
100
AcDbEntity
  8
外形
  6
CONTINUOUS
100
AcDbLine
 10
59.676981
 20
706.165193
 30
0.0
 11
53.683706
 21
690.552178
 31
0.0
  0
LINE
  5
46
100
AcDbEntity
  8
外形
  6
CONTINUOUS
100
AcDbLine
 10
55.256958
 20
707.933076
 30
0.0
 11
49.311199
 21
692.443845
 31
0.0
  0
LINE
  5
47
100
AcDbEntity
  8
外形
  6
CONTINUOUS
100
AcDbLine
 10
59.4904
 20
687.959913
 30
0.0
 11
53.683706
 21
690.552178
 31
0.0
  0
LINE
  5
48
100
AcDbEntity
  8
外形
  6
CONTINUOUS
100
AcDbLine
 10
65.483674
 20
703.572928
 30
0.0
 11
59.676981
 21
706.165193
 31
0.0
  0
DIMENSION
  5
49
100
AcDbEntity
  8
外形
  6
CONTINUOUS
100
AcDbDimension
  2
*D4
 10
276.452432
 20
617.648003
 30
0.0
 11
273.952432
 21
601.648003
 31
0.0
 70
    32
  3
STANDARD
100
AcDbAlignedDimension
 13
263.120654
 23
585.648003
 33
0.0
 14
263.120654
 24
617.648003
 34
0.0
 50
90.0
100
AcDbRotatedDimension
1001
ACAD
1000
DSTYLE
1002
{
1070
    40
1040
1.0
1002
}
  0
LINE
  5
56
100
AcDbEntity
  8
外形
  6
CONTINUOUS
100
AcDbLine
 10
263.120654
 20
617.648003
 30
0.0
 11
263.120654
 21
585.648003
 31
0.0
  0
LINE
  5
57
100
AcDbEntity
  8
外形
  6
CONTINUOUS
100
AcDbLine
 10
116.610537
 20
620.208164
 30
0.0
 11
116.610537
 21
585.648003
 31
0.0
  0
DIMENSION
  5
58
100
AcDbEntity
  8
外形
  6
CONTINUOUS
100
AcDbDimension
  2
*D5
 10
82.420423
 20
617.648003
 30
0.0
 11
79.920423
 21
601.648003
 31
0.0
 70
    32
  3
STANDARD
100
AcDbAlignedDimension
 13
94.86971
 23
585.648003
 33
0.0
 14
93.120654
 24
617.648003
 34
0.0
 50
90.0
100
AcDbRotatedDimension
1001
ACAD
1000
DSTYLE
1002
{
1070
    40
1040
1.0
1002
}
  0
LINE
  5
65
100
AcDbEntity
  8
外形
  6
CONTINUOUS
100
AcDbLine
 10
94.86971
 20
606.67591
 30
0.0
 11
94.86971
 21
585.648003
 31
0.0
  0
LINE
  5
66
100
AcDbEntity
  8
外形
  6
CONTINUOUS
100
AcDbLine
 10
94.86971
 20
585.648003
 30
0.0
 11
263.120654
 21
585.648003
 31
0.0
  0
TEXT
  5
67
100
AcDbEntity
  8
外形
  6
CONTINUOUS
 62
     2
100
AcDbText
 10
109.517407
 20
562.854253
 30
0.0
 40
6.0
  1
ＰＳＢＮ Ｒ３２３２－５４
100
AcDbText
  0
LINE
  5
75
100
AcDbEntity
  8
外形
  6
CONTINUOUS
100
AcDbLine
 10
118.066278
 20
674.020977
 30
0.0
 11
263.120654
 21
674.020977
 31
0.0
  0
DIMENSION
  5
77
100
AcDbEntity
  8
外形
  6
CONTINUOUS
100
AcDbDimension
  2
*D6
 10
263.120654
 20
655.279778
 30
0.0
 11
178.120654
 21
657.779778
 31
0.0
 70
    32
  3
STANDARD
100
AcDbAlignedDimension
 13
93.120654
 23
678.948713
 33
0.0
 14
263.120654
 24
673.948713
 34
0.0
100
AcDbRotatedDimension
1001
ACAD
1000
DSTYLE
1002
{
1070
    40
1040
1.0
1002
}
  0
LINE
  5
84
100
AcDbEntity
  8
外形
  6
CONTINUOUS
100
AcDbLine
 10
128.120654
 20
617.648003
 30
0.0
 11
263.120654
 21
617.648003
 31
0.0
  0
LINE
  5
85
100
AcDbEntity
  8
外形
  6
CONTINUOUS
100
AcDbLine
 10
93.120654
 20
617.648003
 30
0.0
 11
127.127525
 21
621.354411
 31
0.0
  0
DIMENSION
  5
86
100
AcDbEntity
  8
外形
  6
CONTINUOUS
100
AcDbDimension
  2
*D7
 10
128.120654
 20
629.997621
 30
0.0
 11
110.620654
 21
632.497621
 31
0.0
 70
    32
  3
STANDARD
100
AcDbAlignedDimension
 13
93.120654
 23
617.648003
 33
0.0
 14
128.120654
 24
617.648003
 34
0.0
100
AcDbRotatedDimension
1001
ACAD
1000
DSTYLE
1002
{
1070
    40
1040
1.0
1002
}
  0
LINE
  5
93
100
AcDbEntity
  8
外形
  6
CONTINUOUS
100
AcDbLine
 10
93.120654
 20
617.648003
 30
0.0
 11
93.875674
 21
611.342689
 31
0.0
  0
LINE
  5
94
100
AcDbEntity
  8
外形
  6
CONTINUOUS
100
AcDbLine
 10
93.875674
 20
611.342689
 30
0.0
 11
109.598877
 21
613.05636
 31
0.0
  0
LINE
  5
95
100
AcDbEntity
  8
外形
  6
CONTINUOUS
100
AcDbLine
 10
108.843857
 20
619.361674
 30
0.0
 11
109.598877
 21
613.05636
 31
0.0
  0
LINE
  5
96
100
AcDbEntity
  8
外形
  6
CONTINUOUS
100
AcDbLine
 10
94.441642
 20
606.616185
 30
0.0
 11
109.978439
 21
608.30954
 31
0.0
  0
LINE
  5
97
100
AcDbEntity
  8
外形
  6
CONTINUOUS
100
AcDbLine
 10
127.127525
 20
621.354411
 30
0.0
 11
128.120654
 21
617.648003
 31
0.0
  0
DIMENSION
  5
98
100
AcDbEntity
  8
外形
  6
CONTINUOUS
100
AcDbDimension
  2
*D1
 10
82.15073
 20
706.021095
 30
0.0
 11
79.65073
 21
692.521036
 31
0.0
 70
    32
  3
STANDARD
100
AcDbAlignedDimension
 13
92.85096
 23
679.020977
 33
0.0
 14
101.737921
 24
706.021095
 34
0.0
 50
90.0
100
AcDbRotatedDimension
1001
ACAD
1000
DSTYLE
1002
{
1070
    40
1040
1.0
1002
}
  0
LINE
  5
A5
100
AcDbEntity
  8
外形
  6
CONTINUOUS
100
AcDbLine
 10
96.64913
 20
693.195939
 30
0.0
 11
93.161543
 21
680.180088
 31
0.0
  0
CIRCLE
  5
A6
100
AcDbEntity
  8
外形
  6
CONTINUOUS
100
AcDbCircle
 10
102.572373
 20
684.633637
 30
0.0
 40
3.0
  0
LINE
  5
A7
100
AcDbEntity
  8
外形
  6
CONTINUOUS
100
AcDbLine
 10
111.983202
 20
689.087186
 30
0.0
 11
108.185033
 21
674.912225
 31
0.0
  0
ARC
  5
A9
100
AcDbEntity
  8
外形
  6
CONTINUOUS
100
AcDbCircle
 10
94.320654
 20
679.869505
 30
0.0
 40
1.2
100
AcDbArc
 50
165.0
 51
255.0
  0
DIMENSION
  5
AA
100
AcDbEntity
  8
外形
  6
CONTINUOUS
100
AcDbDimension
  2
*D8
 10
92.85096
 20
659.161933
 30
0.0
 11
103.418477
 21
665.249122
 31
0.0
 70
    34
  3
STANDARD
100
AcDb2LineAngularDimension
 13
93.623701
 23
678.813922
 33
0.0
 14
104.345478
 24
675.941031
 34
0.0
 15
92.85096
 25
679.020977
 35
0.0
 16
101.243755
 26
661.022571
 36
0.0
1001
ACAD
1000
DSTYLE
1002
{
1070
    40
1040
1.0
1002
}
  0
LINE
  5
B9
100
AcDbEntity
  8
外形
  6
CONTINUOUS
100
AcDbLine
 10
94.010071
 20
678.710394
 30
0.0
 11
108.185033
 21
674.912225
 31
0.0
  0
LINE
  5
BA
100
AcDbEntity
  8
外形
  6
CONTINUOUS
100
AcDbLine
 10
108.624139
 20
676.550991
 30
0.0
 11
118.066278
 21
674.020977
 31
0.0
  0
ARC
  5
BB
100
AcDbEntity
  8
外形
  6
CONTINUOUS
100
AcDbCircle
 10
107.336505
 20
676.381919
 30
0.0
 40
1.2
100
AcDbArc
 50
255.0
 51
345.0
  0
LWPOLYLINE
  5
BC
100
AcDbEntity
  8
外形
  6
CONTINUOUS
100
AcDbPolyline
 90
        6
 70
     1
 43
0.0
 10
111.452653
 20
697.149819
 10
111.965683
 20
695.74028
 10
113.442894
 20
695.479808
 10
114.407076
 20
696.628874
 10
113.894046
 20
698.038413
 10
112.416834
 20
698.298885
  0
CIRCLE
  5
BD
100
AcDbEntity
  8
外形
  6
CONTINUOUS
100
AcDbCircle
 10
112.929864
 20
696.889346
 30
0.0
 40
3.3235
  0
CIRCLE
  5
BE
100
AcDbEntity
  8
外形
  6
CONTINUOUS
100
AcDbCircle
 10
112.929864
 20
696.889346
 30
0.0
 40
4.0
  0
LINE
  5
BF
100
AcDbEntity
  8
外形
  6
CONTINUOUS
100
AcDbLine
 10
101.737921
 20
706.021095
 30
0.0
 11
98.458813
 21
693.953367
 31
0.0
  0
LINE
  5
C0
100
AcDbEntity
  8
外形
  6
CONTINUOUS
100
AcDbLine
 10
98.118824
 20
694.044467
 30
0.0
 11
112.293785
 21
690.246297
 31
0.0
  0
ARC
  5
C1
100
AcDbEntity
  8
外形
  6
CONTINUOUS
100
AcDbCircle
 10
97.808241
 20
692.885356
 30
0.0
 40
1.2
100
AcDbArc
 50
75.0
 51
165.0
  0
ARC
  5
C2
100
AcDbEntity
  8
外形
  6
CONTINUOUS
100
AcDbCircle
 10
111.517328
 20
687.34852
 30
0.0
 40
3.0
100
AcDbArc
 50
255.0
 51
75.0
  0
ARC
  5
C3
100
AcDbEntity
  8
外形
  6
CONTINUOUS
100
AcDbCircle
 10
110.824091
 20
689.397769
 30
0.0
 40
1.2
100
AcDbArc
 50
345.0
 51
75.0
  0
LINE
  5
C6
100
AcDbEntity
  8
外形
  6
CONTINUOUS
100
AcDbLine
 10
263.120654
 20
706.020977
 30
0.0
 11
263.120654
 21
674.020977
 31
0.0
  0
LINE
  5
1CE
100
AcDbEntity
  8
寸法
  6
CONTINUOUS
100
AcDbLine
 10
93.120654
 20
678.948713
 30
0.0
 11
85.305072
 21
649.780562
 31
0.0
  0
LINE
  5
1D3
100
AcDbEntity
  8
外形
  6
CONTINUOUS
100
AcDbLine
 10
55.586582
 20
624.825729
 30
0.0
 11
46.509544
 21
590.94976
 31
0.0
  0
LINE
  5
1D4
100
AcDbEntity
  8
外形
  6
CONTINUOUS
100
AcDbLine
 10
46.243337
 20
626.473195
 30
0.0
 11
37.380311
 21
593.395931
 31
0.0
  0
LINE
  5
1D6
100
AcDbEntity
  8
外形
  6
CONTINUOUS
100
AcDbLine
 10
19.071657
 20
618.368377
 30
0.0
 11
14.054993
 21
599.645931
 31
0.0
  0
LINE
  5
1D7
100
AcDbEntity
  8
寸法
  6
CONTINUOUS
100
AcDbLine
 10
25.933464
 20
649.780562
 30
0.0
 11
20.886309
 21
630.944323
 31
0.0
  0
LINE
  5
1D9
100
AcDbEntity
  8
外形
  6
CONTINUOUS
100
AcDbLine
 10
20.886309
 20
630.944323
 30
0.0
 11
55.586582
 21
624.825729
 31
0.0
  0
LINE
  5
1DA
100
AcDbEntity
  8
外形
  6
CONTINUOUS
100
AcDbLine
 10
14.054993
 20
599.645931
 30
0.0
 11
46.509544
 21
590.94976
 31
0.0
  0
LINE
  5
1FB
100
AcDbEntity
  8
外形
  6
CONTINUOUS
100
AcDbLine
 10
19.783643
 20
624.690794
 30
0.0
 11
35.477184
 21
621.923599
 31
0.0
  0
LINE
  5
1FC
100
AcDbEntity
  8
外形
  6
CONTINUOUS
100
AcDbLine
 10
18.865628
 20
618.404705
 30
0.0
 11
34.189867
 21
615.702629
 31
0.0
  0
LINE
  5
1FD
100
AcDbEntity
  8
外形
  6
CONTINUOUS
100
AcDbLine
 10
20.886309
 20
630.944323
 30
0.0
 11
19.783643
 21
624.690794
 31
0.0
  0
LINE
  5
1FE
100
AcDbEntity
  8
外形
  6
CONTINUOUS
100
AcDbLine
 10
36.57985
 20
628.177128
 30
0.0
 11
35.477184
 21
621.923599
 31
0.0
  0
LINE
  5
1FF
100
AcDbEntity
  8
外形
  6
CONTINUOUS
100
AcDbLine
 10
19.968294
 20
624.658235
 30
0.0
 11
18.865628
 21
618.404705
 31
0.0
  0
LINE
  5
200
100
AcDbEntity
  8
外形
  6
CONTINUOUS
100
AcDbLine
 10
35.292533
 20
621.956158
 30
0.0
 11
34.189867
 21
615.702629
 31
0.0
  0
DIMENSION
  5
213
100
AcDbEntity
  8
寸法
  6
CONTINUOUS
100
AcDbDimension
  2
*D12
 10
55.586582
 20
624.825729
 30
0.0
 11
6.023239
 21
643.975995
 31
0.0
 70
    34
  3
STANDARD
100
AcDb2LineAngularDimension
 13
20.886309
 23
630.944323
 33
0.0
 14
54.791753
 24
621.859386
 34
0.0
 15
20.886309
 25
630.944323
 35
0.0
 16
4.439595
 26
634.340296
 36
0.0
1001
ACAD
1000
DSTYLE
1002
{
1070
    40
1040
1.0
1002
}
  0
LINE
  5
214
100
AcDbEntity
  8
寸法
  6
CONTINUOUS
100
AcDbLine
 10
25.933464
 20
649.780562
 30
0.0
 11
85.305072
 21
649.780562
 31
0.0
  0
LINE
  5
215
100
AcDbEntity
  8
寸法
  6
CONTINUOUS
100
AcDbLine
 10
92.85096
 20
679.020977
 30
0.0
 11
59.4904
 21
687.959913
 31
0.0
  0
LINE
  5
216
100
AcDbEntity
  8
外形
  6
CONTINUOUS
100
AcDbLine
 10
69.716985
 20
714.601079
 30
0.0
 11
34.64561
 21
723.998425
 31
0.0
  0
LINE
  5
217
100
AcDbEntity
  8
外形
  6
CONTINUOUS
100
AcDbLine
 10
49.311199
 20
692.443845
 30
0.0
 11
27.739373
 21
698.223999
 31
0.0
  0
LINE
  5
219
100
AcDbEntity
  8
外形
  6
CONTINUOUS
100
AcDbLine
 10
53.750996
 20
690.727474
 30
0.0
 11
49.407407
 21
692.66657
 31
0.0
  0
LINE
  5
21A
100
AcDbEntity
  8
外形
  6
CONTINUOUS
100
AcDbLine
 10
59.609692
 20
705.989897
 30
0.0
 11
55.256958
 21
707.933076
 31
0.0
  0
LINE
  5
239
100
AcDbEntity
  8
外形
  6
CONTINUOUS
100
AcDbLine
 10
94.062081
 20
611.363005
 30
0.0
 11
94.627812
 21
606.638478
 31
0.0
  0
LINE
  5
23A
100
AcDbEntity
  8
外形
  6
CONTINUOUS
100
AcDbLine
 10
109.412471
 20
613.036044
 30
0.0
 11
109.978439
 21
608.30954
 31
0.0
  0
LINE
  5
23B
100
AcDbEntity
  8
外形
  6
CONTINUOUS
100
AcDbLine
 10
101.737889
 20
706.020977
 30
0.0
 11
263.120654
 21
706.020977
 31
0.0
  0
DIMENSION
  5
31A
100
AcDbEntity
  8
外形
  6
CONTINUOUS
100
AcDbDimension
  2
*D15
 10
275.537775
 20
706.020977
 30
0.0
 11
273.037775
 21
690.020977
 31
0.0
 70
    32
  3
STANDARD
100
AcDbAlignedDimension
 13
263.120654
 23
674.020977
 33
0.0
 14
263.120654
 24
706.020977
 34
0.0
 50
90.0
100
AcDbRotatedDimension
1001
ACAD
1000
DSTYLE
1002
{
1070
    40
1040
1.0
1002
}
  0
LINE
  5
33E
100
AcDbEntity
  8
外形
  6
CONTINUOUS
100
AcDbLine
 10
128.120654
 20
617.648003
 30
0.0
 11
128.120654
 21
585.648003
 31
0.0
  0
LINE
  5
33F
100
AcDbEntity
  8
外形
  6
CONTINUOUS
100
AcDbLine
 10
126.949907
 20
621.335052
 30
0.0
 11
126.949907
 21
585.648003
 31
0.0
  0
LINE
  5
341
100
AcDbEntity
  8
外形
  6
CONTINUOUS
100
AcDbLine
 10
128.120654
 20
674.020977
 30
0.0
 11
128.120654
 21
706.020977
 31
0.0
  0
LINE
  5
342
100
AcDbEntity
  8
外形
  6
CONTINUOUS
100
AcDbLine
 10
126.949907
 20
706.020977
 30
0.0
 11
128.120654
 21
674.020977
 31
0.0
  0
ENDSEC
  0
SECTION
  2
OBJECTS
  0
DICTIONARY
  5
1E
100
AcDbDictionary
  3
ACAD_GROUP
350
1C
  3
ACAD_MLINESTYLE
350
1D
  0
DICTIONARY
  5
3C
100
AcDbDictionary
280
     1
  3
ACAD_XREC_ROUNDTRIP
360
3D
  0
DICTIONARY
  5
22
100
AcDbDictionary
280
     1
  3
ACAD_XREC_ROUNDTRIP
360
23
  0
DICTIONARY
  5
3
100
AcDbDictionary
280
     1
  3
ACAD_LAYOUTSELFREF
360
4
  0
DICTIONARY
  5
A
100
AcDbDictionary
280
     1
  3
ACAD_LAYOUTSELFREF
360
B
  0
DICTIONARY
  5
1C
102
{ACAD_REACTORS
330
1E
102
}
100
AcDbDictionary
  0
DICTIONARY
  5
1D
102
{ACAD_REACTORS
330
1E
102
}
100
AcDbDictionary
  3
STANDARD
350
20
  0
XRECORD
  5
3D
102
{ACAD_REACTORS
330
3C
102
}
100
AcDbXrecord
102
PLOTBIT
280
     0
  0
XRECORD
  5
23
102
{ACAD_REACTORS
330
22
102
}
100
AcDbXrecord
102
ACADR14ROUNDTRIP
1000
DSTYLE
1002
{
1070
   341
340
32
1070
   343
340
32
1070
   344
340
32
1002
}
  0
XRECORD
  5
4
102
{ACAD_REACTORS
330
3
102
}
100
AcDbXrecord
340
2
  0
XRECORD
  5
B
102
{ACAD_REACTORS
330
A
102
}
100
AcDbXrecord
340
9
  0
MLINESTYLE
  5
20
102
{ACAD_REACTORS
330
1D
102
}
100
AcDbMlineStyle
  2
STANDARD
 70
     0
  3

 62
     0
 51
90.0
 52
90.0
 71
     2
 49
0.5
 62
   256
  6
BYLAYER
 49
-0.5
 62
   256
  6
BYLAYER
  0
ENDSEC
  0
EOF
