  0
SECTION
  2
HEADER
  9
$ACADVER
  1
AC1014
  9
$ACADMAINTVER
 70
     0
  9
$DWGCODEPAGE
  3
ANSI_932
  9
$INSBASE
 10
-98.891785
 20
-336.489309
 30
0.0
  9
$EXTMIN
 10
-78.603616
 20
-295.600044
 30
0.0
  9
$EXTMAX
 10
139.807029
 20
-175.311211
 30
0.0
  9
$LIMMIN
 10
-587.250952
 20
327.890188
  9
$LIMMAX
 10
600.749048
 20
957.890188
  9
$ORTHOMODE
 70
     1
  9
$REGENMODE
 70
     1
  9
$FILLMODE
 70
     1
  9
$QTEXTMODE
 70
     0
  9
$MIRRTEXT
 70
     1
  9
$DRAGMODE
 70
     2
  9
$LTSCALE
 40
5.0
  9
$OSMODE
 70
    45
  9
$ATTMODE
 70
     1
  9
$TEXTSIZE
 40
4.0
  9
$TRACEWID
 40
0.05
  9
$TEXTSTYLE
  7
STANDARD
  9
$CLAYER
  8
外形
  9
$CELTYPE
  6
CONTINUOUS
  9
$CECOLOR
 62
   256
  9
$CELTSCALE
 40
1.0
  9
$DELOBJ
 70
     1
  9
$DISPSILH
 70
     0
  9
$DIMSCALE
 40
1.0
  9
$DIMASZ
 40
2.0
  9
$DIMEXO
 40
1.0
  9
$DIMDLI
 40
8.0
  9
$DIMRND
 40
0.0
  9
$DIMDLE
 40
0.0
  9
$DIMEXE
 40
1.5
  9
$DIMTP
 40
0.0
  9
$DIMTM
 40
0.0
  9
$DIMTXT
 40
3.0
  9
$DIMCEN
 40
-1.0
  9
$DIMTSZ
 40
0.0
  9
$DIMTOL
 70
     0
  9
$DIMLIM
 70
     0
  9
$DIMTIH
 70
     0
  9
$DIMTOH
 70
     0
  9
$DIMSE1
 70
     0
  9
$DIMSE2
 70
     0
  9
$DIMTAD
 70
     1
  9
$DIMZIN
 70
     8
  9
$DIMBLK
  1

  9
$DIMASO
 70
     1
  9
$DIMSHO
 70
     1
  9
$DIMPOST
  1

  9
$DIMAPOST
  1

  9
$DIMALT
 70
     0
  9
$DIMALTD
 70
     2
  9
$DIMALTF
 40
25.4
  9
$DIMLFAC
 40
1.0
  9
$DIMTOFL
 70
     1
  9
$DIMTVP
 40
0.0
  9
$DIMTIX
 70
     0
  9
$DIMSOXD
 70
     0
  9
$DIMSAH
 70
     1
  9
$DIMBLK1
  1
_OPEN30
  9
$DIMBLK2
  1
_OPEN30
  9
$DIMSTYLE
  2
STANDARD
  9
$DIMCLRD
 70
     1
  9
$DIMCLRE
 70
     1
  9
$DIMCLRT
 70
     3
  9
$DIMTFAC
 40
1.0
  9
$DIMGAP
 40
1.0
  9
$DIMJUST
 70
     0
  9
$DIMSD1
 70
     0
  9
$DIMSD2
 70
     0
  9
$DIMTOLJ
 70
     1
  9
$DIMTZIN
 70
     8
  9
$DIMALTZ
 70
     0
  9
$DIMALTTZ
 70
     0
  9
$DIMFIT
 70
     3
  9
$DIMUPT
 70
     0
  9
$DIMUNIT
 70
     2
  9
$DIMDEC
 70
     3
  9
$DIMTDEC
 70
     4
  9
$DIMALTU
 70
     2
  9
$DIMALTTD
 70
     2
  9
$DIMTXSTY
  7
STANDARD
  9
$DIMAUNIT
 70
     0
  9
$LUNITS
 70
     2
  9
$LUPREC
 70
     4
  9
$SKETCHINC
 40
0.1
  9
$FILLETRAD
 40
1.0
  9
$AUNITS
 70
     0
  9
$AUPREC
 70
     3
  9
$MENU
  1
acad
  9
$ELEVATION
 40
0.0
  9
$PELEVATION
 40
0.0
  9
$THICKNESS
 40
0.0
  9
$LIMCHECK
 70
     0
  9
$BLIPMODE
 70
     0
  9
$CHAMFERA
 40
0.0
  9
$CHAMFERB
 40
0.0
  9
$CHAMFERC
 40
0.0
  9
$CHAMFERD
 40
0.0
  9
$SKPOLY
 70
     0
  9
$TDCREATE
 40
2450751.535399305
  9
$TDUPDATE
 40
2451930.489780092
  9
$TDINDWG
 40
1.6220849537
  9
$TDUSRTIMER
 40
1.6220849537
  9
$USRTIMER
 70
     1
  9
$ANGBASE
 50
0.0
  9
$ANGDIR
 70
     0
  9
$PDMODE
 70
     0
  9
$PDSIZE
 40
0.0
  9
$PLINEWID
 40
0.0
  9
$COORDS
 70
     1
  9
$SPLFRAME
 70
     0
  9
$SPLINETYPE
 70
     5
  9
$SPLINESEGS
 70
     8
  9
$ATTDIA
 70
     0
  9
$ATTREQ
 70
     1
  9
$HANDLING
 70
     1
  9
$HANDSEED
  5
240
  9
$SURFTAB1
 70
     6
  9
$SURFTAB2
 70
     6
  9
$SURFTYPE
 70
     6
  9
$SURFU
 70
     6
  9
$SURFV
 70
     6
  9
$UCSNAME
  2

  9
$UCSORG
 10
0.0
 20
0.0
 30
0.0
  9
$UCSXDIR
 10
1.0
 20
0.0
 30
0.0
  9
$UCSYDIR
 10
0.0
 20
1.0
 30
0.0
  9
$PUCSNAME
  2

  9
$PUCSORG
 10
0.0
 20
0.0
 30
0.0
  9
$PUCSXDIR
 10
1.0
 20
0.0
 30
0.0
  9
$PUCSYDIR
 10
0.0
 20
1.0
 30
0.0
  9
$USERI1
 70
     0
  9
$USERI2
 70
     0
  9
$USERI3
 70
     0
  9
$USERI4
 70
     0
  9
$USERI5
 70
     0
  9
$USERR1
 40
0.0
  9
$USERR2
 40
0.0
  9
$USERR3
 40
0.0
  9
$USERR4
 40
0.0
  9
$USERR5
 40
0.0
  9
$WORLDVIEW
 70
     1
  9
$SHADEDGE
 70
     3
  9
$SHADEDIF
 70
    70
  9
$TILEMODE
 70
     1
  9
$MAXACTVP
 70
    16
  9
$PINSBASE
 10
0.0
 20
0.0
 30
0.0
  9
$PLIMCHECK
 70
     0
  9
$PEXTMIN
 10
1.000000E+20
 20
1.000000E+20
 30
1.000000E+20
  9
$PEXTMAX
 10
-1.000000E+20
 20
-1.000000E+20
 30
-1.000000E+20
  9
$PLIMMIN
 10
0.0
 20
0.0
  9
$PLIMMAX
 10
12.0
 20
9.0
  9
$UNITMODE
 70
     0
  9
$VISRETAIN
 70
     0
  9
$PLINEGEN
 70
     0
  9
$PSLTSCALE
 70
     1
  9
$TREEDEPTH
 70
  3020
  9
$PICKSTYLE
 70
     1
  9
$CMLSTYLE
  2
STANDARD
  9
$CMLJUST
 70
     0
  9
$CMLSCALE
 40
1.0
  9
$PROXYGRAPHICS
 70
     1
  9
$MEASUREMENT
 70
     0
  0
ENDSEC
  0
SECTION
  2
CLASSES
  0
CLASS
  1
LWPOLYLINE
  2
AcDbPolyline
  3
"AutoCAD"
 90
        0
280
     0
281
     1
  0
ENDSEC
  0
SECTION
  2
TABLES
  0
TABLE
  2
VPORT
  5
12
100
AcDbSymbolTable
 70
     1
  0
VPORT
  5
23B
100
AcDbSymbolTableRecord
100
AcDbViewportTableRecord
  2
*ACTIVE
 70
     0
 10
0.0
 20
0.0
 11
1.0
 21
1.0
 12
38.810442
 22
-237.175655
 13
0.0
 23
0.0
 14
0.05
 24
0.05
 15
10.0
 25
10.0
 16
0.0
 26
0.0
 36
1.0
 17
0.0
 27
0.0
 37
0.0
 40
177.019629
 41
1.710425
 42
50.0
 43
0.0
 44
0.0
 50
0.0
 51
0.0
 71
     0
 72
   100
 73
     1
 74
     1
 75
     0
 76
     0
 77
     0
 78
     0
  0
ENDTAB
  0
TABLE
  2
LTYPE
  5
D
100
AcDbSymbolTable
 70
     1
  0
LTYPE
  5
E
100
AcDbSymbolTableRecord
100
AcDbLinetypeTableRecord
  2
BYBLOCK
 70
     0
  3

 72
    65
 73
     0
 40
0.0
  0
LTYPE
  5
F
100
AcDbSymbolTableRecord
100
AcDbLinetypeTableRecord
  2
BYLAYER
 70
     0
  3

 72
    65
 73
     0
 40
0.0
  0
LTYPE
  5
5
100
AcDbSymbolTableRecord
100
AcDbLinetypeTableRecord
  2
CONTINUOUS
 70
     0
  3
Solid line
 72
    65
 73
     0
 40
0.0
  0
ENDTAB
  0
TABLE
  2
LAYER
  5
A
100
AcDbSymbolTable
 70
     4
  0
LAYER
  5
4
100
AcDbSymbolTableRecord
100
AcDbLayerTableRecord
  2
0
 70
     0
 62
     7
  6
CONTINUOUS
  0
LAYER
  5
80
100
AcDbSymbolTableRecord
100
AcDbLayerTableRecord
  2
外形
 70
     0
 62
     3
  6
CONTINUOUS
  0
LAYER
  5
2E
100
AcDbSymbolTableRecord
100
AcDbLayerTableRecord
  2
DEFPOINTS
 70
     0
 62
     7
  6
CONTINUOUS
  0
LAYER
  5
52
100
AcDbSymbolTableRecord
100
AcDbLayerTableRecord
  2
寸法
 70
     0
 62
     1
  6
CONTINUOUS
  0
ENDTAB
  0
TABLE
  2
STYLE
  5
B
100
AcDbSymbolTable
 70
     1
  0
STYLE
  5
C
100
AcDbSymbolTableRecord
100
AcDbTextStyleTableRecord
  2
STANDARD
 70
     0
 40
0.0
 41
1.0
 50
0.0
 71
     0
 42
4.0
  3
MONOTXT
  4
BIGFONT
  0
ENDTAB
  0
TABLE
  2
VIEW
  5
10
100
AcDbSymbolTable
 70
     0
  0
ENDTAB
  0
TABLE
  2
UCS
  5
11
100
AcDbSymbolTable
 70
     0
  0
ENDTAB
  0
TABLE
  2
APPID
  5
14
100
AcDbSymbolTable
 70
     1
  0
APPID
  5
15
100
AcDbSymbolTableRecord
100
AcDbRegAppTableRecord
  2
ACAD
 70
     0
  0
ENDTAB
  0
TABLE
  2
DIMSTYLE
  5
16
100
AcDbSymbolTable
 70
     1
  0
DIMSTYLE
105
1D
102
{ACAD_REACTORS
330
101
330
A8
330
5F
330
51
330
135
330
6C
330
D9
330
EF
330
22B
102
}
100
AcDbSymbolTableRecord
100
AcDbDimStyleTableRecord
  2
STANDARD
 70
     0
  3

  4

  5

  6
_OPEN30
  7
_OPEN30
 40
1.0
 41
2.0
 42
1.0
 43
8.0
 44
1.5
 45
0.0
 46
0.0
 47
0.0
 48
0.0
140
3.0
141
-1.0
142
0.0
143
25.4
144
1.0
145
0.0
146
1.0
147
1.0
 71
     0
 72
     0
 73
     0
 74
     0
 75
     0
 76
     0
 77
     1
 78
     8
170
     0
171
     2
172
     1
173
     1
174
     0
175
     0
176
     1
177
     1
178
     3
270
     2
271
     3
272
     4
273
     2
274
     2
340
C
275
     0
280
     0
281
     0
282
     0
283
     1
284
     8
285
     0
286
     0
287
     3
288
     0
  0
ENDTAB
  0
TABLE
  2
BLOCK_RECORD
  5
1
100
AcDbSymbolTable
 70
    19
  0
BLOCK_RECORD
  5
2
100
AcDbSymbolTableRecord
100
AcDbBlockTableRecord
  2
*MODEL_SPACE
  0
BLOCK_RECORD
  5
7
100
AcDbSymbolTableRecord
100
AcDbBlockTableRecord
  2
*PAPER_SPACE
  0
BLOCK_RECORD
  5
1E
100
AcDbSymbolTableRecord
100
AcDbBlockTableRecord
  2
_DOTSMALL
  0
BLOCK_RECORD
  5
151
100
AcDbSymbolTableRecord
100
AcDbBlockTableRecord
  2
_OPEN30
  0
BLOCK_RECORD
  5
157
100
AcDbSymbolTableRecord
100
AcDbBlockTableRecord
  2
*D10
  0
BLOCK_RECORD
  5
163
100
AcDbSymbolTableRecord
100
AcDbBlockTableRecord
  2
*D11
  0
BLOCK_RECORD
  5
16F
100
AcDbSymbolTableRecord
100
AcDbBlockTableRecord
  2
*D12
  0
BLOCK_RECORD
  5
17E
100
AcDbSymbolTableRecord
100
AcDbBlockTableRecord
  2
*D13
  0
BLOCK_RECORD
  5
18A
100
AcDbSymbolTableRecord
100
AcDbBlockTableRecord
  2
*D14
  0
BLOCK_RECORD
  5
196
100
AcDbSymbolTableRecord
100
AcDbBlockTableRecord
  2
*D15
  0
BLOCK_RECORD
  5
1A3
100
AcDbSymbolTableRecord
100
AcDbBlockTableRecord
  2
*D16
  0
BLOCK_RECORD
  5
1AF
100
AcDbSymbolTableRecord
100
AcDbBlockTableRecord
  2
*D17
  0
BLOCK_RECORD
  5
219
100
AcDbSymbolTableRecord
100
AcDbBlockTableRecord
  2
*D18
  0
ENDTAB
  0
ENDSEC
  0
SECTION
  2
BLOCKS
  0
BLOCK
  5
3
100
AcDbEntity
  8
0
100
AcDbBlockBegin
  2
*MODEL_SPACE
 70
     0
 10
0.0
 20
0.0
 30
0.0
  3
*MODEL_SPACE
  1

  0
ENDBLK
  5
6
100
AcDbEntity
  8
0
100
AcDbBlockEnd
  0
BLOCK
  5
8
100
AcDbEntity
 67
     1
  8
0
100
AcDbBlockBegin
  2
*PAPER_SPACE
 70
     0
 10
0.0
 20
0.0
 30
0.0
  3
*PAPER_SPACE
  1

  0
ENDBLK
  5
9
100
AcDbEntity
 67
     1
  8
0
100
AcDbBlockEnd
  0
BLOCK
  5
23
100
AcDbEntity
  8
0
100
AcDbBlockBegin
  2
_DOTSMALL
 70
     0
 10
0.0
 20
0.0
 30
0.0
  3
_DOTSMALL
  1

  0
POLYLINE
  5
1F
100
AcDbEntity
  8
0
  6
BYBLOCK
 62
     0
100
AcDb2dPolyline
 66
     1
 10
0.0
 20
0.0
 30
0.0
 70
     1
 40
0.5
 41
0.5
  0
VERTEX
  5
20
100
AcDbEntity
  8
0
  6
BYBLOCK
 62
     0
100
AcDbVertex
100
AcDb2dVertex
 10
-0.0625
 20
0.0
 30
0.0
 42
1.0
  0
VERTEX
  5
21
100
AcDbEntity
  8
0
  6
BYBLOCK
 62
     0
100
AcDbVertex
100
AcDb2dVertex
 10
0.0625
 20
0.0
 30
0.0
 42
1.0
  0
SEQEND
  5
22
100
AcDbEntity
  8
0
  6
BYBLOCK
 62
     0
  0
ENDBLK
  5
24
100
AcDbEntity
  8
0
100
AcDbBlockEnd
  0
BLOCK
  5
152
100
AcDbEntity
  8
0
100
AcDbBlockBegin
  2
_OPEN30
 70
     0
 10
0.0
 20
0.0
 30
0.0
  3
_OPEN30
  1

  0
LINE
  5
153
100
AcDbEntity
  8
0
  6
BYBLOCK
 62
     0
100
AcDbLine
 10
-1.0
 20
0.267949
 30
0.0
 11
0.0
 21
0.0
 31
0.0
  0
LINE
  5
154
100
AcDbEntity
  8
0
  6
BYBLOCK
 62
     0
100
AcDbLine
 10
0.0
 20
0.0
 30
0.0
 11
-1.0
 21
-0.267949
 31
0.0
  0
LINE
  5
155
100
AcDbEntity
  8
0
  6
BYBLOCK
 62
     0
100
AcDbLine
 10
0.0
 20
0.0
 30
0.0
 11
-1.0
 21
0.0
 31
0.0
  0
ENDBLK
  5
156
100
AcDbEntity
  8
0
100
AcDbBlockEnd
  0
BLOCK
  5
1BB
100
AcDbEntity
  8
0
100
AcDbBlockBegin
  2
*D10
 70
     1
 10
0.0
 20
0.0
 30
0.0
  3
*D10
  1

  0
LINE
  5
1BC
100
AcDbEntity
  8
0
  6
BYBLOCK
 62
     1
100
AcDbLine
 10
127.834562
 20
-201.311211
 30
0.0
 11
127.834562
 21
-228.291395
 31
0.0
  0
LINE
  5
1BD
100
AcDbEntity
  8
0
  6
BYBLOCK
 62
     1
100
AcDbLine
 10
-22.165438
 20
-208.325052
 30
0.0
 11
-22.165438
 21
-228.291395
 31
0.0
  0
LINE
  5
1BE
100
AcDbEntity
  8
0
  6
BYBLOCK
 62
     1
100
AcDbLine
 10
125.834562
 20
-226.791395
 30
0.0
 11
-20.165438
 21
-226.791395
 31
0.0
  0
INSERT
  5
1BF
100
AcDbEntity
  8
0
  6
BYBLOCK
 62
     1
100
AcDbBlockReference
  2
_OPEN30
 10
127.834562
 20
-226.791395
 30
0.0
 41
2.0
 42
2.0
 43
2.0
  0
INSERT
  5
1C0
100
AcDbEntity
  8
0
  6
BYBLOCK
 62
     1
100
AcDbBlockReference
  2
_OPEN30
 10
-22.165438
 20
-226.791395
 30
0.0
 41
2.0
 42
2.0
 43
2.0
 50
180.0
  0
MTEXT
  5
1C1
100
AcDbEntity
  8
0
  6
BYBLOCK
 62
     3
100
AcDbMText
 10
52.834562
 20
-224.291395
 30
0.0
 40
3.0
 41
0.0
 71
     5
 72
     1
  1
\A1;150
  0
POINT
  5
1C2
100
AcDbEntity
  8
DEFPOINTS
  6
BYBLOCK
 62
     0
100
AcDbPoint
 10
127.834562
 20
-200.311211
 30
0.0
  0
POINT
  5
1C3
100
AcDbEntity
  8
DEFPOINTS
  6
BYBLOCK
 62
     0
100
AcDbPoint
 10
-22.165438
 20
-207.325052
 30
0.0
  0
POINT
  5
1C4
100
AcDbEntity
  8
DEFPOINTS
  6
BYBLOCK
 62
     0
100
AcDbPoint
 10
-22.165438
 20
-226.791395
 30
0.0
  0
ENDBLK
  5
1C5
100
AcDbEntity
  8
0
100
AcDbBlockEnd
  0
BLOCK
  5
1F8
100
AcDbEntity
  8
0
100
AcDbBlockBegin
  2
*D11
 70
     1
 10
0.0
 20
0.0
 30
0.0
  3
*D11
  1

  0
LINE
  5
1F9
100
AcDbEntity
  8
0
  6
BYBLOCK
 62
     1
100
AcDbLine
 10
-7.148298
 20
-175.311211
 30
0.0
 11
-34.449349
 21
-175.311211
 31
0.0
  0
LINE
  5
1FA
100
AcDbEntity
  8
0
  6
BYBLOCK
 62
     1
100
AcDbLine
 10
-23.165438
 20
-207.311211
 30
0.0
 11
-34.449349
 21
-207.311211
 31
0.0
  0
LINE
  5
1FB
100
AcDbEntity
  8
0
  6
BYBLOCK
 62
     1
100
AcDbLine
 10
-32.949349
 20
-177.311211
 30
0.0
 11
-32.949349
 21
-205.311211
 31
0.0
  0
INSERT
  5
1FC
100
AcDbEntity
  8
0
  6
BYBLOCK
 62
     1
100
AcDbBlockReference
  2
_OPEN30
 10
-32.949349
 20
-175.311211
 30
0.0
 41
2.0
 42
2.0
 43
2.0
 50
90.0
  0
INSERT
  5
1FD
100
AcDbEntity
  8
0
  6
BYBLOCK
 62
     1
100
AcDbBlockReference
  2
_OPEN30
 10
-32.949349
 20
-207.311211
 30
0.0
 41
2.0
 42
2.0
 43
2.0
 50
270.0
  0
MTEXT
  5
1FE
100
AcDbEntity
  8
0
  6
BYBLOCK
 62
     3
100
AcDbMText
 10
-35.449349
 20
-191.311211
 30
0.0
 40
3.0
 41
0.0
 71
     5
 72
     1
  1
\A1;32
 11
0.0
 21
1.0
 31
0.0
  0
POINT
  5
1FF
100
AcDbEntity
  8
DEFPOINTS
  6
BYBLOCK
 62
     0
100
AcDbPoint
 10
-6.148298
 20
-175.311211
 30
0.0
  0
POINT
  5
200
100
AcDbEntity
  8
DEFPOINTS
  6
BYBLOCK
 62
     0
100
AcDbPoint
 10
-22.165438
 20
-207.311211
 30
0.0
  0
POINT
  5
201
100
AcDbEntity
  8
DEFPOINTS
  6
BYBLOCK
 62
     0
100
AcDbPoint
 10
-32.949349
 20
-207.311211
 30
0.0
  0
ENDBLK
  5
202
100
AcDbEntity
  8
0
100
AcDbBlockEnd
  0
BLOCK
  5
1D1
100
AcDbEntity
  8
0
100
AcDbBlockBegin
  2
*D12
 70
     1
 10
0.0
 20
0.0
 30
0.0
  3
*D12
  1

  0
LINE
  5
1D2
100
AcDbEntity
  8
0
  6
BYBLOCK
 62
     1
100
AcDbLine
 10
-53.690772
 20
-208.307406
 30
0.0
 11
-54.98777
 21
-223.132162
 31
0.0
  0
ARC
  5
1D3
100
AcDbEntity
  8
0
  6
BYBLOCK
 62
     1
100
AcDbCircle
 10
-53.603616
 20
-207.311211
 30
0.0
 40
14.381384
100
AcDbArc
 50
249.012084
 51
265.0
  0
LINE
  5
1D4
100
AcDbEntity
  8
0
  6
BYBLOCK
 62
     1
100
AcDbLine
 10
-58.754611
 20
-220.738477
 30
0.0
 11
-66.784053
 21
-217.658206
 31
0.0
  0
ARC
  5
1D5
100
AcDbEntity
  8
0
  6
BYBLOCK
 62
     1
100
AcDbCircle
 10
-53.603616
 20
-207.311211
 30
0.0
 40
14.381384
100
AcDbArc
 50
249.051034
 51
257.025517
  0
ARC
  5
1D6
100
AcDbEntity
  8
0
  6
BYBLOCK
 62
     1
100
AcDbCircle
 10
-53.603616
 20
-207.311211
 30
0.0
 40
14.381384
100
AcDbArc
 50
277.974483
 51
285.948966
  0
ARC
  5
1D7
100
AcDbEntity
  8
0
  6
BYBLOCK
 62
     1
100
AcDbCircle
 10
-53.603616
 20
-207.311211
 30
0.0
 40
14.381384
100
AcDbArc
 50
265.0
 51
270.0
  0
INSERT
  5
1D8
100
AcDbEntity
  8
0
  6
BYBLOCK
 62
     1
100
AcDbBlockReference
  2
_OPEN30
 10
-54.857036
 20
-221.63787
 30
0.0
 41
2.0
 42
2.0
 43
2.0
 50
351.012759
  0
INSERT
  5
1D9
100
AcDbEntity
  8
0
  6
BYBLOCK
 62
     1
100
AcDbBlockReference
  2
_OPEN30
 10
-53.603616
 20
-221.692596
 30
0.0
 41
2.0
 42
2.0
 43
2.0
 50
183.987241
  0
MTEXT
  5
1DA
100
AcDbEntity
  8
0
  6
BYBLOCK
 62
     3
100
AcDbMText
 10
-61.873905
 20
-216.864202
 30
0.0
 40
3.0
 41
0.0
 71
     5
 72
     1
  1
\A1;5°
 11
0.933656
 21
-0.358171
 31
0.0
  0
POINT
  5
1DB
100
AcDbEntity
  8
DEFPOINTS
  6
BYBLOCK
 62
     0
100
AcDbPoint
 10
-54.021894
 20
-221.686512
 30
0.0
  0
POINT
  5
1DC
100
AcDbEntity
  8
DEFPOINTS
  6
BYBLOCK
 62
     0
100
AcDbPoint
 10
-53.603616
 20
-207.311211
 30
0.0
  0
POINT
  5
1DD
100
AcDbEntity
  8
DEFPOINTS
  6
BYBLOCK
 62
     0
100
AcDbPoint
 10
-51.416399
 20
-182.311211
 30
0.0
  0
POINT
  5
1DE
100
AcDbEntity
  8
DEFPOINTS
  6
BYBLOCK
 62
     0
100
AcDbPoint
 10
-53.603616
 20
-207.311211
 30
0.0
  0
POINT
  5
1DF
100
AcDbEntity
  8
DEFPOINTS
  6
BYBLOCK
 62
     0
100
AcDbPoint
 10
-53.603616
 20
-223.084419
 30
0.0
  0
ENDBLK
  5
1E0
100
AcDbEntity
  8
0
100
AcDbBlockEnd
  0
BLOCK
  5
1C6
100
AcDbEntity
  8
0
100
AcDbBlockBegin
  2
*D13
 70
     1
 10
0.0
 20
0.0
 30
0.0
  3
*D13
  1

  0
LINE
  5
1C7
100
AcDbEntity
  8
0
  6
BYBLOCK
 62
     1
100
AcDbLine
 10
-23.165438
 20
-243.564163
 30
0.0
 11
-36.037848
 21
-243.564163
 31
0.0
  0
LINE
  5
1C8
100
AcDbEntity
  8
0
  6
BYBLOCK
 62
     1
100
AcDbLine
 10
-22.271216
 20
-268.564163
 30
0.0
 11
-36.037848
 21
-268.564163
 31
0.0
  0
LINE
  5
1C9
100
AcDbEntity
  8
0
  6
BYBLOCK
 62
     1
100
AcDbLine
 10
-34.537848
 20
-245.564163
 30
0.0
 11
-34.537848
 21
-266.564163
 31
0.0
  0
INSERT
  5
1CA
100
AcDbEntity
  8
0
  6
BYBLOCK
 62
     1
100
AcDbBlockReference
  2
_OPEN30
 10
-34.537848
 20
-243.564163
 30
0.0
 41
2.0
 42
2.0
 43
2.0
 50
90.0
  0
INSERT
  5
1CB
100
AcDbEntity
  8
0
  6
BYBLOCK
 62
     1
100
AcDbBlockReference
  2
_OPEN30
 10
-34.537848
 20
-268.564163
 30
0.0
 41
2.0
 42
2.0
 43
2.0
 50
270.0
  0
MTEXT
  5
1CC
100
AcDbEntity
  8
0
  6
BYBLOCK
 62
     3
100
AcDbMText
 10
-37.037848
 20
-256.064163
 30
0.0
 40
3.0
 41
0.0
 71
     5
 72
     1
  1
\A1;25
 11
0.0
 21
1.0
 31
0.0
  0
POINT
  5
1CD
100
AcDbEntity
  8
DEFPOINTS
  6
BYBLOCK
 62
     0
100
AcDbPoint
 10
-22.165438
 20
-243.564163
 30
0.0
  0
POINT
  5
1CE
100
AcDbEntity
  8
DEFPOINTS
  6
BYBLOCK
 62
     0
100
AcDbPoint
 10
-21.271216
 20
-268.564163
 30
0.0
  0
POINT
  5
1CF
100
AcDbEntity
  8
DEFPOINTS
  6
BYBLOCK
 62
     0
100
AcDbPoint
 10
-34.537848
 20
-268.564163
 30
0.0
  0
ENDBLK
  5
1D0
100
AcDbEntity
  8
0
100
AcDbBlockEnd
  0
BLOCK
  5
1ED
100
AcDbEntity
  8
0
100
AcDbBlockBegin
  2
*D14
 70
     1
 10
0.0
 20
0.0
 30
0.0
  3
*D14
  1

  0
LINE
  5
1EE
100
AcDbEntity
  8
0
  6
BYBLOCK
 62
     1
100
AcDbLine
 10
-22.165438
 20
-242.564163
 30
0.0
 11
-22.165438
 21
-233.872628
 31
0.0
  0
LINE
  5
1EF
100
AcDbEntity
  8
0
  6
BYBLOCK
 62
     1
100
AcDbLine
 10
-2.165438
 20
-242.205419
 30
0.0
 11
-2.165438
 21
-233.872628
 31
0.0
  0
LINE
  5
1F0
100
AcDbEntity
  8
0
  6
BYBLOCK
 62
     1
100
AcDbLine
 10
-20.165438
 20
-235.372628
 30
0.0
 11
-4.165438
 21
-235.372628
 31
0.0
  0
INSERT
  5
1F1
100
AcDbEntity
  8
0
  6
BYBLOCK
 62
     1
100
AcDbBlockReference
  2
_OPEN30
 10
-22.165438
 20
-235.372628
 30
0.0
 41
2.0
 42
2.0
 43
2.0
 50
180.0
  0
INSERT
  5
1F2
100
AcDbEntity
  8
0
  6
BYBLOCK
 62
     1
100
AcDbBlockReference
  2
_OPEN30
 10
-2.165438
 20
-235.372628
 30
0.0
 41
2.0
 42
2.0
 43
2.0
  0
MTEXT
  5
1F3
100
AcDbEntity
  8
0
  6
BYBLOCK
 62
     3
100
AcDbMText
 10
-12.165438
 20
-232.872628
 30
0.0
 40
3.0
 41
0.0
 71
     5
 72
     1
  1
\A1;20
  0
POINT
  5
1F4
100
AcDbEntity
  8
DEFPOINTS
  6
BYBLOCK
 62
     0
100
AcDbPoint
 10
-22.165438
 20
-243.564163
 30
0.0
  0
POINT
  5
1F5
100
AcDbEntity
  8
DEFPOINTS
  6
BYBLOCK
 62
     0
100
AcDbPoint
 10
-2.165438
 20
-243.205419
 30
0.0
  0
POINT
  5
1F6
100
AcDbEntity
  8
DEFPOINTS
  6
BYBLOCK
 62
     0
100
AcDbPoint
 10
-2.165438
 20
-235.372628
 30
0.0
  0
ENDBLK
  5
1F7
100
AcDbEntity
  8
0
100
AcDbBlockEnd
  0
BLOCK
  5
1E1
100
AcDbEntity
  8
0
100
AcDbBlockBegin
  2
*D15
 70
     1
 10
0.0
 20
0.0
 30
0.0
  3
*D15
  1

  0
LINE
  5
1E2
100
AcDbEntity
  8
0
  6
BYBLOCK
 62
     1
100
AcDbLine
 10
-22.165438
 20
-219.645994
 30
0.0
 11
-22.165438
 21
-221.236892
 31
0.0
  0
ARC
  5
1E3
100
AcDbEntity
  8
0
  6
BYBLOCK
 62
     1
100
AcDbCircle
 10
-22.165438
 20
-207.325052
 30
0.0
 40
12.411841
100
AcDbArc
 50
279.242456
 51
351.757544
  0
INSERT
  5
1E4
100
AcDbEntity
  8
0
  6
BYBLOCK
 62
     1
100
AcDbBlockReference
  2
_OPEN30
 10
-22.165438
 20
-219.736892
 30
0.0
 41
2.0
 42
2.0
 43
2.0
 50
184.621228
  0
INSERT
  5
1E5
100
AcDbEntity
  8
0
  6
BYBLOCK
 62
     1
100
AcDbBlockReference
  2
_OPEN30
 10
-9.755487
 20
-207.108435
 30
0.0
 41
2.0
 42
2.0
 43
2.0
 50
86.378772
  0
MTEXT
  5
1E6
100
AcDbEntity
  8
0
  6
BYBLOCK
 62
     3
100
AcDbMText
 10
-15.095813
 20
-214.272353
 30
0.0
 40
3.0
 41
0.0
 71
     5
 72
     1
  1
\A1;91°
 11
0.700909
 21
0.71325
 31
0.0
  0
POINT
  5
1E7
100
AcDbEntity
  8
DEFPOINTS
  6
BYBLOCK
 62
     0
100
AcDbPoint
 10
-15.897088
 20
-218.037735
 30
0.0
  0
POINT
  5
1E8
100
AcDbEntity
  8
DEFPOINTS
  6
BYBLOCK
 62
     0
100
AcDbPoint
 10
-22.750987
 20
-207.335272
 30
0.0
  0
POINT
  5
1E9
100
AcDbEntity
  8
DEFPOINTS
  6
BYBLOCK
 62
     0
100
AcDbPoint
 10
-22.165438
 20
-207.311211
 30
0.0
  0
POINT
  5
1EA
100
AcDbEntity
  8
DEFPOINTS
  6
BYBLOCK
 62
     0
100
AcDbPoint
 10
-22.165438
 20
-218.645994
 30
0.0
  0
POINT
  5
1EB
100
AcDbEntity
  8
DEFPOINTS
  6
BYBLOCK
 62
     0
100
AcDbPoint
 10
-7.641146
 20
-207.071529
 30
0.0
  0
ENDBLK
  5
1EC
100
AcDbEntity
  8
0
100
AcDbBlockEnd
  0
BLOCK
  5
203
100
AcDbEntity
  8
0
100
AcDbBlockBegin
  2
*D16
 70
     1
 10
0.0
 20
0.0
 30
0.0
  3
*D16
  1

  0
LINE
  5
204
100
AcDbEntity
  8
0
  6
BYBLOCK
 62
     1
100
AcDbLine
 10
128.834562
 20
-243.564163
 30
0.0
 11
139.137408
 21
-243.564163
 31
0.0
  0
LINE
  5
205
100
AcDbEntity
  8
0
  6
BYBLOCK
 62
     1
100
AcDbLine
 10
128.834562
 20
-268.564163
 30
0.0
 11
139.137408
 21
-268.564163
 31
0.0
  0
LINE
  5
206
100
AcDbEntity
  8
0
  6
BYBLOCK
 62
     1
100
AcDbLine
 10
137.637408
 20
-245.564163
 30
0.0
 11
137.637408
 21
-266.564163
 31
0.0
  0
INSERT
  5
207
100
AcDbEntity
  8
0
  6
BYBLOCK
 62
     1
100
AcDbBlockReference
  2
_OPEN30
 10
137.637408
 20
-243.564163
 30
0.0
 41
2.0
 42
2.0
 43
2.0
 50
90.0
  0
INSERT
  5
208
100
AcDbEntity
  8
0
  6
BYBLOCK
 62
     1
100
AcDbBlockReference
  2
_OPEN30
 10
137.637408
 20
-268.564163
 30
0.0
 41
2.0
 42
2.0
 43
2.0
 50
270.0
  0
MTEXT
  5
209
100
AcDbEntity
  8
0
  6
BYBLOCK
 62
     3
100
AcDbMText
 10
135.137408
 20
-256.064163
 30
0.0
 40
3.0
 41
0.0
 71
     5
 72
     1
  1
\A1;25
 11
0.0
 21
1.0
 31
0.0
  0
POINT
  5
20A
100
AcDbEntity
  8
DEFPOINTS
  6
BYBLOCK
 62
     0
100
AcDbPoint
 10
127.834562
 20
-243.564163
 30
0.0
  0
POINT
  5
20B
100
AcDbEntity
  8
DEFPOINTS
  6
BYBLOCK
 62
     0
100
AcDbPoint
 10
127.834562
 20
-268.564163
 30
0.0
  0
POINT
  5
20C
100
AcDbEntity
  8
DEFPOINTS
  6
BYBLOCK
 62
     0
100
AcDbPoint
 10
137.637408
 20
-268.564163
 30
0.0
  0
ENDBLK
  5
20D
100
AcDbEntity
  8
0
100
AcDbBlockEnd
  0
BLOCK
  5
20E
100
AcDbEntity
  8
0
100
AcDbBlockBegin
  2
*D17
 70
     1
 10
0.0
 20
0.0
 30
0.0
  3
*D17
  1

  0
LINE
  5
20F
100
AcDbEntity
  8
0
  6
BYBLOCK
 62
     1
100
AcDbLine
 10
128.834562
 20
-175.311211
 30
0.0
 11
139.807029
 21
-175.311211
 31
0.0
  0
LINE
  5
210
100
AcDbEntity
  8
0
  6
BYBLOCK
 62
     1
100
AcDbLine
 10
128.834562
 20
-200.311211
 30
0.0
 11
139.807029
 21
-200.311211
 31
0.0
  0
LINE
  5
211
100
AcDbEntity
  8
0
  6
BYBLOCK
 62
     1
100
AcDbLine
 10
138.307029
 20
-177.311211
 30
0.0
 11
138.307029
 21
-198.311211
 31
0.0
  0
INSERT
  5
212
100
AcDbEntity
  8
0
  6
BYBLOCK
 62
     1
100
AcDbBlockReference
  2
_OPEN30
 10
138.307029
 20
-175.311211
 30
0.0
 41
2.0
 42
2.0
 43
2.0
 50
90.0
  0
INSERT
  5
213
100
AcDbEntity
  8
0
  6
BYBLOCK
 62
     1
100
AcDbBlockReference
  2
_OPEN30
 10
138.307029
 20
-200.311211
 30
0.0
 41
2.0
 42
2.0
 43
2.0
 50
270.0
  0
MTEXT
  5
214
100
AcDbEntity
  8
0
  6
BYBLOCK
 62
     3
100
AcDbMText
 10
135.807029
 20
-187.811211
 30
0.0
 40
3.0
 41
0.0
 71
     5
 72
     1
  1
\A1;25
 11
0.0
 21
1.0
 31
0.0
  0
POINT
  5
215
100
AcDbEntity
  8
DEFPOINTS
  6
BYBLOCK
 62
     0
100
AcDbPoint
 10
127.834562
 20
-175.311211
 30
0.0
  0
POINT
  5
216
100
AcDbEntity
  8
DEFPOINTS
  6
BYBLOCK
 62
     0
100
AcDbPoint
 10
127.834562
 20
-200.311211
 30
0.0
  0
POINT
  5
217
100
AcDbEntity
  8
DEFPOINTS
  6
BYBLOCK
 62
     0
100
AcDbPoint
 10
138.307029
 20
-200.311211
 30
0.0
  0
ENDBLK
  5
218
100
AcDbEntity
  8
0
100
AcDbBlockEnd
  0
BLOCK
  5
22C
100
AcDbEntity
  8
0
100
AcDbBlockBegin
  2
*D18
 70
     1
 10
0.0
 20
0.0
 30
0.0
  3
*D18
  1

  0
LINE
  5
22D
100
AcDbEntity
  8
0
  6
BYBLOCK
 62
     1
100
AcDbLine
 10
-23.165438
 20
-243.564163
 30
0.0
 11
-32.611619
 21
-243.564163
 31
0.0
  0
LINE
  5
22E
100
AcDbEntity
  8
0
  6
BYBLOCK
 62
     1
100
AcDbLine
 10
-23.161632
 20
-243.651319
 30
0.0
 11
-32.571868
 21
-244.474608
 31
0.0
  0
ARC
  5
22F
100
AcDbEntity
  8
0
  6
BYBLOCK
 62
     1
100
AcDbCircle
 10
-22.165438
 20
-243.564163
 30
0.0
 40
8.946181
100
AcDbArc
 50
154.328367
 51
167.164183
  0
ARC
  5
230
100
AcDbEntity
  8
0
  6
BYBLOCK
 62
     1
100
AcDbCircle
 10
-22.165438
 20
-243.564163
 30
0.0
 40
8.946181
100
AcDbArc
 50
197.835817
 51
210.671633
  0
ARC
  5
231
100
AcDbEntity
  8
0
  6
BYBLOCK
 62
     1
100
AcDbCircle
 10
-22.165438
 20
-243.564163
 30
0.0
 40
8.946181
100
AcDbArc
 50
180.0
 51
185.0
  0
INSERT
  5
232
100
AcDbEntity
  8
0
  6
BYBLOCK
 62
     1
100
AcDbBlockReference
  2
_OPEN30
 10
-31.111619
 20
-243.564163
 30
0.0
 41
2.0
 42
2.0
 43
2.0
 50
263.582092
  0
INSERT
  5
233
100
AcDbEntity
  8
0
  6
BYBLOCK
 62
     1
100
AcDbBlockReference
  2
_OPEN30
 10
-31.077576
 20
-244.343874
 30
0.0
 41
2.0
 42
2.0
 43
2.0
 50
101.417908
  0
MTEXT
  5
234
100
AcDbEntity
  8
0
  6
BYBLOCK
 62
     3
100
AcDbMText
 10
-27.302828
 20
-233.33566
 30
0.0
 40
3.0
 41
0.0
 71
     5
 72
     1
  1
\A1;5°
 11
0.893617
 21
0.44883
 31
0.0
  0
POINT
  5
235
100
AcDbEntity
  8
DEFPOINTS
  6
BYBLOCK
 62
     0
100
AcDbPoint
 10
-31.096483
 20
-244.084337
 30
0.0
  0
POINT
  5
236
100
AcDbEntity
  8
DEFPOINTS
  6
BYBLOCK
 62
     0
100
AcDbPoint
 10
127.834562
 20
-243.564163
 30
0.0
  0
POINT
  5
237
100
AcDbEntity
  8
DEFPOINTS
  6
BYBLOCK
 62
     0
100
AcDbPoint
 10
-2.623549
 20
-241.85447
 30
0.0
  0
POINT
  5
238
100
AcDbEntity
  8
DEFPOINTS
  6
BYBLOCK
 62
     0
100
AcDbPoint
 10
-22.165438
 20
-243.564163
 30
0.0
  0
POINT
  5
239
100
AcDbEntity
  8
DEFPOINTS
  6
BYBLOCK
 62
     0
100
AcDbPoint
 10
-1.398111
 20
-243.564163
 30
0.0
  0
ENDBLK
  5
23A
100
AcDbEntity
  8
0
100
AcDbBlockEnd
  0
ENDSEC
  0
SECTION
  2
ENTITIES
  0
DIMENSION
  5
51
100
AcDbEntity
  8
寸法
  6
CONTINUOUS
100
AcDbDimension
  2
*D10
 10
-22.165438
 20
-226.791395
 30
0.0
 11
52.834562
 21
-224.291395
 31
0.0
 70
    32
  3
STANDARD
100
AcDbAlignedDimension
 13
127.834562
 23
-200.311211
 33
0.0
 14
-22.165438
 24
-207.325052
 34
0.0
100
AcDbRotatedDimension
1001
ACAD
1000
DSTYLE
1002
{
1002
}
  0
DIMENSION
  5
5F
100
AcDbEntity
  8
寸法
  6
CONTINUOUS
100
AcDbDimension
  2
*D11
 10
-32.949349
 20
-207.311211
 30
0.0
 11
-35.449349
 21
-191.311211
 31
0.0
 70
    32
  3
STANDARD
100
AcDbAlignedDimension
 13
-6.148298
 23
-175.311211
 33
0.0
 14
-22.165438
 24
-207.311211
 34
0.0
 50
90.0
100
AcDbRotatedDimension
1001
ACAD
1000
DSTYLE
1002
{
1002
}
  0
DIMENSION
  5
6C
100
AcDbEntity
  8
寸法
  6
CONTINUOUS
100
AcDbDimension
  2
*D12
 10
-53.603616
 20
-223.084419
 30
0.0
 11
-61.873905
 21
-216.864202
 31
0.0
 70
    34
  3
STANDARD
100
AcDb2LineAngularDimension
 13
-51.416399
 23
-182.311211
 33
0.0
 14
-53.603616
 24
-207.311211
 34
0.0
 15
-53.603616
 25
-207.311211
 35
0.0
 16
-54.021894
 26
-221.686512
 36
0.0
1001
ACAD
1000
DSTYLE
1002
{
1002
}
  0
LINE
  5
7F
100
AcDbEntity
  8
外形
  6
CONTINUOUS
100
AcDbLine
 10
-78.603616
 20
-206.411209
 30
0.0
 11
-78.603616
 21
-175.311211
 31
0.0
  0
ARC
  5
81
100
AcDbEntity
  8
外形
  6
CONTINUOUS
100
AcDbCircle
 10
-7.655108
 20
-206.271651
 30
0.0
 40
0.8
100
AcDbArc
 50
271.0
 51
31.0
  0
ARC
  5
82
100
AcDbEntity
  8
外形
  6
CONTINUOUS
100
AcDbCircle
 10
-21.37952
 20
-206.511211
 30
0.0
 40
0.8
100
AcDbArc
 50
151.0
 51
271.0
  0
LINE
  5
83
100
AcDbEntity
  8
外形
  6
CONTINUOUS
100
AcDbLine
 10
-60.518122
 20
-200.750478
 30
0.0
 11
-61.021842
 21
-206.508017
 31
0.0
  0
LINE
  5
84
100
AcDbEntity
  8
外形
  6
CONTINUOUS
100
AcDbLine
 10
-57.867609
 20
-201.433997
 30
0.0
 11
-58.345503
 21
-206.89635
 31
0.0
  0
LINE
  5
85
100
AcDbEntity
  8
外形
  6
CONTINUOUS
100
AcDbLine
 10
-50.803979
 20
-175.311211
 30
0.0
 11
-53.603616
 21
-207.311211
 31
0.0
  0
LINE
  5
96
100
AcDbEntity
  8
外形
  6
CONTINUOUS
100
AcDbLine
 10
-21.271216
 20
-268.564163
 30
0.0
 11
127.834562
 21
-268.564163
 31
0.0
  0
LINE
  5
97
100
AcDbEntity
  8
外形
  6
CONTINUOUS
100
AcDbLine
 10
127.834562
 20
-243.564163
 30
0.0
 11
-1.398111
 21
-243.564163
 31
0.0
  0
LINE
  5
98
100
AcDbEntity
  8
外形
  6
CONTINUOUS
100
AcDbLine
 10
-61.013372
 20
-206.411209
 30
0.0
 11
-78.603616
 21
-206.411209
 31
0.0
  0
TEXT
  5
99
100
AcDbEntity
  8
外形
  6
CONTINUOUS
 62
     2
100
AcDbText
 10
-14.764854
 20
-295.600044
 30
0.0
 40
6.0
  1
PTGN R2525-33
100
AcDbText
  0
DIMENSION
  5
A8
100
AcDbEntity
  8
寸法
  6
CONTINUOUS
100
AcDbDimension
  2
*D13
 10
-34.537848
 20
-268.564163
 30
0.0
 11
-37.037848
 21
-256.064163
 31
0.0
 70
    32
  3
STANDARD
100
AcDbAlignedDimension
 13
-22.165438
 23
-243.564163
 33
0.0
 14
-21.271216
 24
-268.564163
 34
0.0
 50
90.0
100
AcDbRotatedDimension
1001
ACAD
1000
DSTYLE
1002
{
1002
}
  0
LINE
  5
B5
100
AcDbEntity
  8
外形
  6
CONTINUOUS
100
AcDbLine
 10
-21.271216
 20
-250.974425
 30
0.0
 11
-21.271216
 21
-268.564163
 31
0.0
  0
LINE
  5
B6
100
AcDbEntity
  8
外形
  6
CONTINUOUS
100
AcDbLine
 10
-2.623549
 20
-241.85447
 30
0.0
 11
-2.623549
 21
-268.564163
 31
0.0
  0
LINE
  5
B7
100
AcDbEntity
  8
外形
  6
CONTINUOUS
100
AcDbLine
 10
-2.165438
 20
-243.205419
 30
0.0
 11
-2.165438
 21
-268.564163
 31
0.0
  0
LINE
  5
D5
100
AcDbEntity
  8
寸法
  6
CONTINUOUS
100
AcDbLine
 10
-22.165438
 20
-207.311211
 30
0.0
 11
-53.603616
 21
-207.311211
 31
0.0
  0
LINE
  5
D6
100
AcDbEntity
  8
寸法
  6
CONTINUOUS
100
AcDbLine
 10
-53.603616
 20
-207.311211
 30
0.0
 11
-53.603616
 21
-223.084419
 31
0.0
  0
LINE
  5
D7
100
AcDbEntity
  8
外形
  6
CONTINUOUS
100
AcDbLine
 10
-58.332116
 20
-206.743338
 30
0.0
 11
-61.021842
 21
-206.508017
 31
0.0
  0
LINE
  5
D8
100
AcDbEntity
  8
外形
  6
CONTINUOUS
100
AcDbLine
 10
-53.603616
 20
-207.311211
 30
0.0
 11
-58.345503
 21
-206.89635
 31
0.0
  0
DIMENSION
  5
D9
100
AcDbEntity
  8
寸法
  6
CONTINUOUS
100
AcDbDimension
  2
*D14
 10
-2.165438
 20
-235.372628
 30
0.0
 11
-12.165438
 21
-232.872628
 31
0.0
 70
    32
  3
STANDARD
100
AcDbAlignedDimension
 13
-22.165438
 23
-243.564163
 33
0.0
 14
-2.165438
 24
-243.205419
 34
0.0
100
AcDbRotatedDimension
1001
ACAD
1000
DSTYLE
1002
{
1002
}
  0
LINE
  5
E6
100
AcDbEntity
  8
外形
  6
CONTINUOUS
100
AcDbLine
 10
-6.449328
 20
-246.967364
 30
0.0
 11
-21.750576
 21
-248.30605
 31
0.0
  0
LINE
  5
E7
100
AcDbEntity
  8
外形
  6
CONTINUOUS
100
AcDbLine
 10
-6.22646
 20
-249.658179
 30
0.0
 11
-21.502803
 21
-250.994686
 31
0.0
  0
LINE
  5
E8
100
AcDbEntity
  8
外形
  6
CONTINUOUS
100
AcDbLine
 10
-2.623549
 20
-241.85447
 30
0.0
 11
-22.165438
 21
-243.564163
 31
0.0
  0
LINE
  5
E9
100
AcDbEntity
  8
外形
  6
CONTINUOUS
100
AcDbLine
 10
-22.165438
 20
-243.564163
 30
0.0
 11
-21.750576
 21
-248.30605
 31
0.0
  0
LINE
  5
EA
100
AcDbEntity
  8
外形
  6
CONTINUOUS
100
AcDbLine
 10
-21.738124
 20
-248.304961
 30
0.0
 11
-21.502803
 21
-250.994686
 31
0.0
  0
LINE
  5
EB
100
AcDbEntity
  8
外形
  6
CONTINUOUS
100
AcDbLine
 10
-6.461781
 20
-246.968454
 30
0.0
 11
-6.22646
 21
-249.658179
 31
0.0
  0
LINE
  5
EC
100
AcDbEntity
  8
外形
  6
CONTINUOUS
100
AcDbLine
 10
-6.86419
 20
-242.225478
 30
0.0
 11
-6.449328
 21
-246.967364
 31
0.0
  0
LINE
  5
ED
100
AcDbEntity
  8
外形
  6
CONTINUOUS
100
AcDbLine
 10
-2.364037
 20
-242.822982
 30
0.0
 11
-2.623549
 21
-241.85447
 31
0.0
  0
ARC
  5
EE
100
AcDbEntity
  8
外形
  6
CONTINUOUS
100
AcDbCircle
 10
-1.398111
 20
-242.564163
 30
0.0
 40
1.0
100
AcDbArc
 50
195.0
 51
270.0
  0
DIMENSION
  5
EF
100
AcDbEntity
  8
寸法
  6
CONTINUOUS
100
AcDbDimension
  2
*D15
 10
-7.641146
 20
-207.071529
 30
0.0
 11
-15.095813
 21
-214.272353
 31
0.0
 70
    34
  3
STANDARD
100
AcDb2LineAngularDimension
 13
-22.165438
 23
-207.311211
 33
0.0
 14
-22.165438
 24
-218.645994
 34
0.0
 15
-22.750987
 25
-207.335272
 35
0.0
 16
-15.897088
 26
-218.037735
 36
0.0
1001
ACAD
1000
DSTYLE
1002
{
1002
}
  0
LINE
  5
FD
100
AcDbEntity
  8
外形
  6
CONTINUOUS
100
AcDbLine
 10
-21.365558
 20
-207.31109
 30
0.0
 11
-7.641146
 21
-207.071529
 31
0.0
  0
LINE
  5
100
100
AcDbEntity
  8
寸法
  6
CONTINUOUS
100
AcDbLine
 10
-22.165438
 20
-207.311211
 30
0.0
 11
-22.165438
 21
-218.645994
 31
0.0
  0
DIMENSION
  5
101
100
AcDbEntity
  8
寸法
  6
CONTINUOUS
100
AcDbDimension
  2
*D16
 10
137.637408
 20
-268.564163
 30
0.0
 11
135.137408
 21
-256.064163
 31
0.0
 70
    32
  3
STANDARD
100
AcDbAlignedDimension
 13
127.834562
 23
-243.564163
 33
0.0
 14
127.834562
 24
-268.564163
 34
0.0
 50
90.0
100
AcDbRotatedDimension
1001
ACAD
1000
DSTYLE
1002
{
1002
}
  0
LINE
  5
10E
100
AcDbEntity
  8
外形
  6
CONTINUOUS
100
AcDbLine
 10
127.834562
 20
-243.564163
 30
0.0
 11
127.834562
 21
-268.564163
 31
0.0
  0
LINE
  5
10F
100
AcDbEntity
  8
外形
  6
CONTINUOUS
100
AcDbLine
 10
127.834562
 20
-200.311211
 30
0.0
 11
-1.398111
 21
-200.311211
 31
0.0
  0
LINE
  5
110
100
AcDbEntity
  8
外形
  6
CONTINUOUS
100
AcDbLine
 10
127.834562
 20
-175.311211
 30
0.0
 11
-6.189968
 21
-175.311211
 31
0.0
  0
LINE
  5
111
100
AcDbEntity
  8
外形
  6
CONTINUOUS
100
AcDbLine
 10
-52.728729
 20
-197.311211
 30
0.0
 11
-78.603616
 21
-197.311211
 31
0.0
  0
LINE
  5
112
100
AcDbEntity
  8
外形
  6
CONTINUOUS
100
AcDbLine
 10
-51.503888
 20
-183.311211
 30
0.0
 11
-78.603616
 21
-183.311211
 31
0.0
  0
LINE
  5
113
100
AcDbEntity
  8
外形
  6
CONTINUOUS
100
AcDbLine
 10
-50.803979
 20
-175.311211
 30
0.0
 11
-78.603616
 21
-175.311211
 31
0.0
  0
LINE
  5
11F
100
AcDbEntity
  8
外形
  6
CONTINUOUS
100
AcDbLine
 10
-53.08651
 20
-201.400659
 30
0.0
 11
-60.518122
 21
-200.750478
 31
0.0
  0
LINE
  5
120
100
AcDbEntity
  8
外形
  6
CONTINUOUS
100
AcDbLine
 10
-53.125722
 20
-201.848858
 30
0.0
 11
-60.557334
 21
-201.198676
 31
0.0
  0
LINE
  5
121
100
AcDbEntity
  8
外形
  6
CONTINUOUS
100
AcDbLine
 10
-2.623549
 20
-175.311211
 30
0.0
 11
-2.165438
 21
-200.669955
 31
0.0
  0
LINE
  5
122
100
AcDbEntity
  8
外形
  6
CONTINUOUS
100
AcDbLine
 10
-6.189968
 20
-175.311211
 30
0.0
 11
-20.046374
 21
-183.311211
 31
0.0
  0
LINE
  5
123
100
AcDbEntity
  8
外形
  6
CONTINUOUS
100
AcDbLine
 10
-2.165438
 20
-200.669955
 30
0.0
 11
-2.165438
 21
-175.311211
 31
0.0
  0
LINE
  5
124
100
AcDbEntity
  8
外形
  6
CONTINUOUS
100
AcDbLine
 10
-6.969374
 20
-205.859621
 30
0.0
 11
-14.752703
 21
-192.905985
 31
0.0
  0
LINE
  5
125
100
AcDbEntity
  8
外形
  6
CONTINUOUS
100
AcDbLine
 10
-6.969374
 20
-205.859621
 30
0.0
 11
-14.039045
 21
-194.093711
 31
0.0
  0
LWPOLYLINE
  5
126
100
AcDbEntity
  8
外形
  6
CONTINUOUS
100
AcDbPolyline
 90
        6
 70
     1
 43
0.0
 10
-9.714712
 20
-194.407436
 10
-9.221049
 20
-195.763765
 10
-7.799601
 20
-196.014405
 10
-6.871817
 20
-194.908715
 10
-7.365481
 20
-193.552385
 10
-8.786928
 20
-193.301746
  0
CIRCLE
  5
127
100
AcDbEntity
  8
外形
  6
CONTINUOUS
100
AcDbCircle
 10
-8.293265
 20
-194.658075
 30
0.0
 40
2.4585
  0
CIRCLE
  5
128
100
AcDbEntity
  8
外形
  6
CONTINUOUS
100
AcDbCircle
 10
-8.293265
 20
-194.658075
 30
0.0
 40
3.0
  0
ARC
  5
129
100
AcDbEntity
  8
外形
  6
CONTINUOUS
100
AcDbCircle
 10
-16.467038
 20
-193.936062
 30
0.0
 40
2.0
100
AcDbArc
 50
31.0
 51
211.0
  0
LINE
  5
12A
100
AcDbEntity
  8
外形
  6
CONTINUOUS
100
AcDbLine
 10
-20.046374
 20
-183.311211
 30
0.0
 11
-21.271216
 21
-197.311211
 31
0.0
  0
LINE
  5
12B
100
AcDbEntity
  8
外形
  6
CONTINUOUS
100
AcDbLine
 10
-15.424475
 20
-194.117894
 30
0.0
 11
-22.079215
 21
-206.123364
 31
0.0
  0
LINE
  5
12C
100
AcDbEntity
  8
外形
  6
CONTINUOUS
100
AcDbLine
 10
-19.827286
 20
-202.060775
 30
0.0
 11
-21.271216
 21
-201.400659
 31
0.0
  0
LINE
  5
12D
100
AcDbEntity
  8
外形
  6
CONTINUOUS
100
AcDbLine
 10
-21.271216
 20
-197.311211
 30
0.0
 11
-21.271216
 21
-204.665694
 31
0.0
  0
LINE
  5
12F
100
AcDbEntity
  8
外形
  6
CONTINUOUS
100
AcDbLine
 10
-16.991943
 20
-196.945681
 30
0.0
 11
-18.181372
 21
-194.966138
 31
0.0
  0
CIRCLE
  5
130
100
AcDbEntity
  8
外形
  6
CONTINUOUS
100
AcDbCircle
 10
-14.586469
 20
-202.429535
 30
0.0
 40
1.905
  0
ARC
  5
131
100
AcDbEntity
  8
外形
  6
CONTINUOUS
100
AcDbCircle
 10
-14.724779
 20
-194.505742
 30
0.0
 40
0.8
100
AcDbArc
 50
31.0
 51
151.0
  0
ARC
  5
132
100
AcDbEntity
  8
外形
  6
CONTINUOUS
100
AcDbCircle
 10
-1.398111
 20
-201.311211
 30
0.0
 40
1.0
100
AcDbArc
 50
90.0
 51
165.0
  0
LINE
  5
133
100
AcDbEntity
  8
外形
  6
CONTINUOUS
100
AcDbLine
 10
-2.364037
 20
-201.052392
 30
0.0
 11
-3.682967
 21
-205.974708
 31
0.0
  0
LINE
  5
134
100
AcDbEntity
  8
外形
  6
CONTINUOUS
100
AcDbLine
 10
-3.682967
 20
-205.974708
 30
0.0
 11
-6.850386
 21
-206.05765
 31
0.0
  0
DIMENSION
  5
135
100
AcDbEntity
  8
寸法
  6
CONTINUOUS
100
AcDbDimension
  2
*D17
 10
138.307029
 20
-200.311211
 30
0.0
 11
135.807029
 21
-187.811211
 31
0.0
 70
    32
  3
STANDARD
100
AcDbAlignedDimension
 13
127.834562
 23
-175.311211
 33
0.0
 14
127.834562
 24
-200.311211
 34
0.0
 50
90.0
100
AcDbRotatedDimension
1001
ACAD
1000
DSTYLE
1002
{
1002
}
  0
LINE
  5
142
100
AcDbEntity
  8
外形
  6
CONTINUOUS
100
AcDbLine
 10
127.834562
 20
-175.311211
 30
0.0
 11
127.834562
 21
-200.311211
 31
0.0
  0
DIMENSION
  5
22B
100
AcDbEntity
  8
外形
  6
CONTINUOUS
100
AcDbDimension
  2
*D18
 10
-1.398111
 20
-243.564163
 30
0.0
 11
-26.180753
 21
-235.569702
 31
0.0
 70
   162
  3
STANDARD
100
AcDb2LineAngularDimension
 13
-2.623549
 23
-241.85447
 33
0.0
 14
-22.165438
 24
-243.564163
 34
0.0
 15
127.834562
 25
-243.564163
 35
0.0
 16
-31.096483
 26
-244.084337
 36
0.0
  0
ENDSEC
  0
SECTION
  2
OBJECTS
  0
DICTIONARY
  5
1A
100
AcDbDictionary
  3
ACAD_GROUP
350
18
  3
ACAD_MLINESTYLE
350
19
  0
DICTIONARY
  5
18
102
{ACAD_REACTORS
330
1A
102
}
100
AcDbDictionary
  0
DICTIONARY
  5
19
102
{ACAD_REACTORS
330
1A
102
}
100
AcDbDictionary
  3
STANDARD
350
1C
  0
MLINESTYLE
  5
1C
102
{ACAD_REACTORS
330
19
102
}
100
AcDbMlineStyle
  2
STANDARD
 70
     0
  3

 62
     0
 51
90.0
 52
90.0
 71
     2
 49
0.5
 62
   256
  6
BYLAYER
 49
-0.5
 62
   256
  6
BYLAYER
  0
ENDSEC
  0
EOF
