  0
SECTION
  2
HEADER
  9
$ACADVER
  1
AC1014
  9
$ACADMAINTVER
 70
     0
  9
$DWGCODEPAGE
  3
ANSI_932
  9
$INSBASE
 10
-127.496361
 20
-333.840623
 30
0.0
  9
$EXTMIN
 10
-104.975604
 20
-301.921182
 30
0.0
  9
$EXTMAX
 10
93.411962
 20
-164.352763
 30
0.0
  9
$LIMMIN
 10
-587.250952
 20
327.890188
  9
$LIMMAX
 10
600.749048
 20
957.890188
  9
$ORTHOMODE
 70
     0
  9
$REGENMODE
 70
     1
  9
$FILLMODE
 70
     1
  9
$QTEXTMODE
 70
     0
  9
$MIRRTEXT
 70
     1
  9
$DRAGMODE
 70
     2
  9
$LTSCALE
 40
5.0
  9
$OSMODE
 70
    45
  9
$ATTMODE
 70
     1
  9
$TEXTSIZE
 40
4.0
  9
$TRACEWID
 40
0.05
  9
$TEXTSTYLE
  7
STANDARD
  9
$CLAYER
  8
外形
  9
$CELTYPE
  6
CONTINUOUS
  9
$CECOLOR
 62
   256
  9
$CELTSCALE
 40
1.0
  9
$DELOBJ
 70
     1
  9
$DISPSILH
 70
     0
  9
$DIMSCALE
 40
1.0
  9
$DIMASZ
 40
2.0
  9
$DIMEXO
 40
1.0
  9
$DIMDLI
 40
8.0
  9
$DIMRND
 40
0.0
  9
$DIMDLE
 40
0.0
  9
$DIMEXE
 40
1.5
  9
$DIMTP
 40
0.0
  9
$DIMTM
 40
0.0
  9
$DIMTXT
 40
3.0
  9
$DIMCEN
 40
-1.0
  9
$DIMTSZ
 40
0.0
  9
$DIMTOL
 70
     0
  9
$DIMLIM
 70
     0
  9
$DIMTIH
 70
     0
  9
$DIMTOH
 70
     0
  9
$DIMSE1
 70
     0
  9
$DIMSE2
 70
     0
  9
$DIMTAD
 70
     1
  9
$DIMZIN
 70
     8
  9
$DIMBLK
  1

  9
$DIMASO
 70
     1
  9
$DIMSHO
 70
     1
  9
$DIMPOST
  1

  9
$DIMAPOST
  1

  9
$DIMALT
 70
     0
  9
$DIMALTD
 70
     2
  9
$DIMALTF
 40
25.4
  9
$DIMLFAC
 40
1.0
  9
$DIMTOFL
 70
     1
  9
$DIMTVP
 40
0.0
  9
$DIMTIX
 70
     0
  9
$DIMSOXD
 70
     0
  9
$DIMSAH
 70
     1
  9
$DIMBLK1
  1
_OPEN
  9
$DIMBLK2
  1
_OPEN
  9
$DIMSTYLE
  2
STANDARD
  9
$DIMCLRD
 70
     1
  9
$DIMCLRE
 70
     1
  9
$DIMCLRT
 70
     3
  9
$DIMTFAC
 40
1.0
  9
$DIMGAP
 40
1.0
  9
$DIMJUST
 70
     0
  9
$DIMSD1
 70
     0
  9
$DIMSD2
 70
     0
  9
$DIMTOLJ
 70
     1
  9
$DIMTZIN
 70
     8
  9
$DIMALTZ
 70
     0
  9
$DIMALTTZ
 70
     0
  9
$DIMFIT
 70
     3
  9
$DIMUPT
 70
     0
  9
$DIMUNIT
 70
     2
  9
$DIMDEC
 70
     3
  9
$DIMTDEC
 70
     4
  9
$DIMALTU
 70
     2
  9
$DIMALTTD
 70
     2
  9
$DIMTXSTY
  7
STANDARD
  9
$DIMAUNIT
 70
     0
  9
$LUNITS
 70
     2
  9
$LUPREC
 70
     4
  9
$SKETCHINC
 40
0.1
  9
$FILLETRAD
 40
0.8
  9
$AUNITS
 70
     0
  9
$AUPREC
 70
     0
  9
$MENU
  1
acad
  9
$ELEVATION
 40
0.0
  9
$PELEVATION
 40
0.0
  9
$THICKNESS
 40
0.0
  9
$LIMCHECK
 70
     0
  9
$BLIPMODE
 70
     0
  9
$CHAMFERA
 40
0.0
  9
$CHAMFERB
 40
0.0
  9
$CHAMFERC
 40
0.0
  9
$CHAMFERD
 40
0.0
  9
$SKPOLY
 70
     0
  9
$TDCREATE
 40
2450751.535399305
  9
$TDUPDATE
 40
2451930.504131944
  9
$TDINDWG
 40
0.9659870370
  9
$TDUSRTIMER
 40
0.9659870370
  9
$USRTIMER
 70
     1
  9
$ANGBASE
 50
0.0
  9
$ANGDIR
 70
     0
  9
$PDMODE
 70
     0
  9
$PDSIZE
 40
0.0
  9
$PLINEWID
 40
0.0
  9
$COORDS
 70
     1
  9
$SPLFRAME
 70
     0
  9
$SPLINETYPE
 70
     5
  9
$SPLINESEGS
 70
     8
  9
$ATTDIA
 70
     0
  9
$ATTREQ
 70
     1
  9
$HANDLING
 70
     1
  9
$HANDSEED
  5
409
  9
$SURFTAB1
 70
     6
  9
$SURFTAB2
 70
     6
  9
$SURFTYPE
 70
     6
  9
$SURFU
 70
     6
  9
$SURFV
 70
     6
  9
$UCSNAME
  2

  9
$UCSORG
 10
0.0
 20
0.0
 30
0.0
  9
$UCSXDIR
 10
1.0
 20
0.0
 30
0.0
  9
$UCSYDIR
 10
0.0
 20
1.0
 30
0.0
  9
$PUCSNAME
  2

  9
$PUCSORG
 10
0.0
 20
0.0
 30
0.0
  9
$PUCSXDIR
 10
1.0
 20
0.0
 30
0.0
  9
$PUCSYDIR
 10
0.0
 20
1.0
 30
0.0
  9
$USERI1
 70
     0
  9
$USERI2
 70
     0
  9
$USERI3
 70
     0
  9
$USERI4
 70
     0
  9
$USERI5
 70
     0
  9
$USERR1
 40
0.0
  9
$USERR2
 40
0.0
  9
$USERR3
 40
0.0
  9
$USERR4
 40
0.0
  9
$USERR5
 40
0.0
  9
$WORLDVIEW
 70
     1
  9
$SHADEDGE
 70
     3
  9
$SHADEDIF
 70
    70
  9
$TILEMODE
 70
     1
  9
$MAXACTVP
 70
    16
  9
$PINSBASE
 10
0.0
 20
0.0
 30
0.0
  9
$PLIMCHECK
 70
     0
  9
$PEXTMIN
 10
1.000000E+20
 20
1.000000E+20
 30
1.000000E+20
  9
$PEXTMAX
 10
-1.000000E+20
 20
-1.000000E+20
 30
-1.000000E+20
  9
$PLIMMIN
 10
0.0
 20
0.0
  9
$PLIMMAX
 10
12.0
 20
9.0
  9
$UNITMODE
 70
     0
  9
$VISRETAIN
 70
     0
  9
$PLINEGEN
 70
     0
  9
$PSLTSCALE
 70
     1
  9
$TREEDEPTH
 70
  3020
  9
$PICKSTYLE
 70
     1
  9
$CMLSTYLE
  2
STANDARD
  9
$CMLJUST
 70
     0
  9
$CMLSCALE
 40
1.0
  9
$PROXYGRAPHICS
 70
     1
  9
$MEASUREMENT
 70
     0
  0
ENDSEC
  0
SECTION
  2
CLASSES
  0
CLASS
  1
LWPOLYLINE
  2
AcDbPolyline
  3
"AutoCAD"
 90
        0
280
     0
281
     1
  0
ENDSEC
  0
SECTION
  2
TABLES
  0
TABLE
  2
VPORT
  5
12
100
AcDbSymbolTable
 70
     1
  0
VPORT
  5
404
100
AcDbSymbolTableRecord
100
AcDbViewportTableRecord
  2
*ACTIVE
 70
     0
 10
0.0
 20
0.0
 11
1.0
 21
1.0
 12
-13.524118
 22
-230.30764
 13
0.0
 23
0.0
 14
0.05
 24
0.05
 15
10.0
 25
10.0
 16
0.0
 26
0.0
 36
1.0
 17
0.0
 27
0.0
 37
0.0
 40
149.59523
 41
1.710425
 42
50.0
 43
0.0
 44
0.0
 50
0.0
 51
0.0
 71
     0
 72
   100
 73
     1
 74
     1
 75
     0
 76
     0
 77
     0
 78
     0
  0
ENDTAB
  0
TABLE
  2
LTYPE
  5
D
100
AcDbSymbolTable
 70
     1
  0
LTYPE
  5
E
100
AcDbSymbolTableRecord
100
AcDbLinetypeTableRecord
  2
BYBLOCK
 70
     0
  3

 72
    65
 73
     0
 40
0.0
  0
LTYPE
  5
F
100
AcDbSymbolTableRecord
100
AcDbLinetypeTableRecord
  2
BYLAYER
 70
     0
  3

 72
    65
 73
     0
 40
0.0
  0
LTYPE
  5
5
100
AcDbSymbolTableRecord
100
AcDbLinetypeTableRecord
  2
CONTINUOUS
 70
     0
  3
Solid line
 72
    65
 73
     0
 40
0.0
  0
ENDTAB
  0
TABLE
  2
LAYER
  5
A
100
AcDbSymbolTable
 70
     4
  0
LAYER
  5
4
100
AcDbSymbolTableRecord
100
AcDbLayerTableRecord
  2
0
 70
     0
 62
     7
  6
CONTINUOUS
  0
LAYER
  5
34
100
AcDbSymbolTableRecord
100
AcDbLayerTableRecord
  2
外形
 70
     0
 62
     3
  6
CONTINUOUS
  0
LAYER
  5
2E
100
AcDbSymbolTableRecord
100
AcDbLayerTableRecord
  2
DEFPOINTS
 70
     0
 62
     7
  6
CONTINUOUS
  0
LAYER
  5
1B
100
AcDbSymbolTableRecord
100
AcDbLayerTableRecord
  2
寸法
 70
     0
 62
     1
  6
CONTINUOUS
  0
ENDTAB
  0
TABLE
  2
STYLE
  5
B
100
AcDbSymbolTable
 70
     1
  0
STYLE
  5
C
100
AcDbSymbolTableRecord
100
AcDbTextStyleTableRecord
  2
STANDARD
 70
     0
 40
0.0
 41
1.0
 50
0.0
 71
     0
 42
4.0
  3
MONOTXT
  4
BIGFONT
  0
ENDTAB
  0
TABLE
  2
VIEW
  5
10
100
AcDbSymbolTable
 70
     0
  0
ENDTAB
  0
TABLE
  2
UCS
  5
11
100
AcDbSymbolTable
 70
     0
  0
ENDTAB
  0
TABLE
  2
APPID
  5
14
100
AcDbSymbolTable
 70
     1
  0
APPID
  5
15
100
AcDbSymbolTableRecord
100
AcDbRegAppTableRecord
  2
ACAD
 70
     0
  0
ENDTAB
  0
TABLE
  2
DIMSTYLE
  5
16
100
AcDbSymbolTable
 70
     1
  0
DIMSTYLE
105
1D
102
{ACAD_REACTORS
330
25
330
38
330
4D
330
BB
330
5D
330
7F
330
6A
330
8C
330
27F
102
}
100
AcDbSymbolTableRecord
100
AcDbDimStyleTableRecord
  2
STANDARD
 70
     0
  3

  4

  5

  6
_OPEN
  7
_OPEN
 40
1.0
 41
2.0
 42
1.0
 43
8.0
 44
1.5
 45
0.0
 46
0.0
 47
0.0
 48
0.0
140
3.0
141
-1.0
142
0.0
143
25.4
144
1.0
145
0.0
146
1.0
147
1.0
 71
     0
 72
     0
 73
     0
 74
     0
 75
     0
 76
     0
 77
     1
 78
     8
170
     0
171
     2
172
     1
173
     1
174
     0
175
     0
176
     1
177
     1
178
     3
270
     2
271
     3
272
     4
273
     2
274
     2
340
C
275
     0
280
     0
281
     0
282
     0
283
     1
284
     8
285
     0
286
     0
287
     3
288
     0
  0
ENDTAB
  0
TABLE
  2
BLOCK_RECORD
  5
1
100
AcDbSymbolTable
 70
    19
  0
BLOCK_RECORD
  5
2
100
AcDbSymbolTableRecord
100
AcDbBlockTableRecord
  2
*MODEL_SPACE
  0
BLOCK_RECORD
  5
7
100
AcDbSymbolTableRecord
100
AcDbBlockTableRecord
  2
*PAPER_SPACE
  0
BLOCK_RECORD
  5
1E
100
AcDbSymbolTableRecord
100
AcDbBlockTableRecord
  2
_DOTSMALL
  0
BLOCK_RECORD
  5
D4
100
AcDbSymbolTableRecord
100
AcDbBlockTableRecord
  2
*D1
  0
BLOCK_RECORD
  5
106
100
AcDbSymbolTableRecord
100
AcDbBlockTableRecord
  2
_OPEN
  0
BLOCK_RECORD
  5
10C
100
AcDbSymbolTableRecord
100
AcDbBlockTableRecord
  2
*D4
  0
BLOCK_RECORD
  5
118
100
AcDbSymbolTableRecord
100
AcDbBlockTableRecord
  2
*D5
  0
BLOCK_RECORD
  5
12F
100
AcDbSymbolTableRecord
100
AcDbBlockTableRecord
  2
*D6
  0
BLOCK_RECORD
  5
13B
100
AcDbSymbolTableRecord
100
AcDbBlockTableRecord
  2
*D7
  0
BLOCK_RECORD
  5
14D
100
AcDbSymbolTableRecord
100
AcDbBlockTableRecord
  2
*D8
  0
BLOCK_RECORD
  5
159
100
AcDbSymbolTableRecord
100
AcDbBlockTableRecord
  2
*D9
  0
BLOCK_RECORD
  5
167
100
AcDbSymbolTableRecord
100
AcDbBlockTableRecord
  2
*D10
  0
BLOCK_RECORD
  5
26D
100
AcDbSymbolTableRecord
100
AcDbBlockTableRecord
  2
*D13
  0
ENDTAB
  0
ENDSEC
  0
SECTION
  2
BLOCKS
  0
BLOCK
  5
3
100
AcDbEntity
  8
0
100
AcDbBlockBegin
  2
*MODEL_SPACE
 70
     0
 10
0.0
 20
0.0
 30
0.0
  3
*MODEL_SPACE
  1

  0
ENDBLK
  5
6
100
AcDbEntity
  8
0
100
AcDbBlockEnd
  0
BLOCK
  5
8
100
AcDbEntity
 67
     1
  8
0
100
AcDbBlockBegin
  2
*PAPER_SPACE
 70
     0
 10
0.0
 20
0.0
 30
0.0
  3
*PAPER_SPACE
  1

  0
ENDBLK
  5
9
100
AcDbEntity
 67
     1
  8
0
100
AcDbBlockEnd
  0
BLOCK
  5
23
100
AcDbEntity
  8
0
100
AcDbBlockBegin
  2
_DOTSMALL
 70
     0
 10
0.0
 20
0.0
 30
0.0
  3
_DOTSMALL
  1

  0
POLYLINE
  5
1F
100
AcDbEntity
  8
0
  6
BYBLOCK
 62
     0
100
AcDb2dPolyline
 66
     1
 10
0.0
 20
0.0
 30
0.0
 70
     1
 40
0.5
 41
0.5
  0
VERTEX
  5
20
100
AcDbEntity
  8
0
  6
BYBLOCK
 62
     0
100
AcDbVertex
100
AcDb2dVertex
 10
-0.0625
 20
0.0
 30
0.0
 42
1.0
  0
VERTEX
  5
21
100
AcDbEntity
  8
0
  6
BYBLOCK
 62
     0
100
AcDbVertex
100
AcDb2dVertex
 10
0.0625
 20
0.0
 30
0.0
 42
1.0
  0
SEQEND
  5
22
100
AcDbEntity
  8
0
  6
BYBLOCK
 62
     0
  0
ENDBLK
  5
24
100
AcDbEntity
  8
0
100
AcDbBlockEnd
  0
BLOCK
  5
3A9
100
AcDbEntity
  8
0
100
AcDbBlockBegin
  2
*D1
 70
     1
 10
0.0
 20
0.0
 30
0.0
  3
*D1
  1

  0
LINE
  5
3AA
100
AcDbEntity
  8
0
  6
BYBLOCK
 62
     1
100
AcDbLine
 10
82.389587
 20
-274.883445
 30
0.0
 11
93.411962
 21
-274.883445
 31
0.0
  0
LINE
  5
3AB
100
AcDbEntity
  8
0
  6
BYBLOCK
 62
     1
100
AcDbLine
 10
82.389587
 20
-254.883445
 30
0.0
 11
93.411962
 21
-254.883445
 31
0.0
  0
LINE
  5
3AC
100
AcDbEntity
  8
0
  6
BYBLOCK
 62
     1
100
AcDbLine
 10
91.911962
 20
-272.883445
 30
0.0
 11
91.911962
 21
-256.883445
 31
0.0
  0
INSERT
  5
3AD
100
AcDbEntity
  8
0
  6
BYBLOCK
 62
     1
100
AcDbBlockReference
  2
_OPEN
 10
91.911962
 20
-274.883445
 30
0.0
 41
2.0
 42
2.0
 43
2.0
 50
270.0
  0
INSERT
  5
3AE
100
AcDbEntity
  8
0
  6
BYBLOCK
 62
     1
100
AcDbBlockReference
  2
_OPEN
 10
91.911962
 20
-254.883445
 30
0.0
 41
2.0
 42
2.0
 43
2.0
 50
90.0
  0
MTEXT
  5
3AF
100
AcDbEntity
  8
0
  6
BYBLOCK
 62
     3
100
AcDbMText
 10
89.411962
 20
-264.883445
 30
0.0
 40
3.0
 41
0.0
 71
     5
 72
     1
  1
\A1;20
 11
0.0
 21
1.0
 31
0.0
  0
POINT
  5
3B0
100
AcDbEntity
  8
DEFPOINTS
  6
BYBLOCK
 62
     0
100
AcDbPoint
 10
81.389587
 20
-274.883445
 30
0.0
  0
POINT
  5
3B1
100
AcDbEntity
  8
DEFPOINTS
  6
BYBLOCK
 62
     0
100
AcDbPoint
 10
81.389587
 20
-254.883445
 30
0.0
  0
POINT
  5
3B2
100
AcDbEntity
  8
DEFPOINTS
  6
BYBLOCK
 62
     0
100
AcDbPoint
 10
91.911962
 20
-254.883445
 30
0.0
  0
ENDBLK
  5
3B3
100
AcDbEntity
  8
0
100
AcDbBlockEnd
  0
BLOCK
  5
107
100
AcDbEntity
  8
0
100
AcDbBlockBegin
  2
_OPEN
 70
     0
 10
0.0
 20
0.0
 30
0.0
  3
_OPEN
  1

  0
LINE
  5
108
100
AcDbEntity
  8
0
  6
BYBLOCK
 62
     0
100
AcDbLine
 10
-1.0
 20
0.166667
 30
0.0
 11
0.0
 21
0.0
 31
0.0
  0
LINE
  5
109
100
AcDbEntity
  8
0
  6
BYBLOCK
 62
     0
100
AcDbLine
 10
0.0
 20
0.0
 30
0.0
 11
-1.0
 21
-0.166667
 31
0.0
  0
LINE
  5
10A
100
AcDbEntity
  8
0
  6
BYBLOCK
 62
     0
100
AcDbLine
 10
0.0
 20
0.0
 30
0.0
 11
-1.0
 21
0.0
 31
0.0
  0
ENDBLK
  5
10B
100
AcDbEntity
  8
0
100
AcDbBlockEnd
  0
BLOCK
  5
393
100
AcDbEntity
  8
0
100
AcDbBlockBegin
  2
*D4
 70
     1
 10
0.0
 20
0.0
 30
0.0
  3
*D4
  1

  0
LINE
  5
394
100
AcDbEntity
  8
0
  6
BYBLOCK
 62
     1
100
AcDbLine
 10
-18.610413
 20
-253.883445
 30
0.0
 11
-18.610413
 21
-243.62195
 31
0.0
  0
LINE
  5
395
100
AcDbEntity
  8
0
  6
BYBLOCK
 62
     1
100
AcDbLine
 10
-43.610413
 20
-253.883445
 30
0.0
 11
-43.610413
 21
-243.62195
 31
0.0
  0
LINE
  5
396
100
AcDbEntity
  8
0
  6
BYBLOCK
 62
     1
100
AcDbLine
 10
-20.610413
 20
-245.12195
 30
0.0
 11
-41.610413
 21
-245.12195
 31
0.0
  0
INSERT
  5
397
100
AcDbEntity
  8
0
  6
BYBLOCK
 62
     1
100
AcDbBlockReference
  2
_OPEN
 10
-18.610413
 20
-245.12195
 30
0.0
 41
2.0
 42
2.0
 43
2.0
  0
INSERT
  5
398
100
AcDbEntity
  8
0
  6
BYBLOCK
 62
     1
100
AcDbBlockReference
  2
_OPEN
 10
-43.610413
 20
-245.12195
 30
0.0
 41
2.0
 42
2.0
 43
2.0
 50
180.0
  0
MTEXT
  5
399
100
AcDbEntity
  8
0
  6
BYBLOCK
 62
     3
100
AcDbMText
 10
-31.110413
 20
-242.62195
 30
0.0
 40
3.0
 41
0.0
 71
     5
 72
     1
  1
\A1;25
  0
POINT
  5
39A
100
AcDbEntity
  8
DEFPOINTS
  6
BYBLOCK
 62
     0
100
AcDbPoint
 10
-18.610413
 20
-254.883445
 30
0.0
  0
POINT
  5
39B
100
AcDbEntity
  8
DEFPOINTS
  6
BYBLOCK
 62
     0
100
AcDbPoint
 10
-43.610413
 20
-254.883445
 30
0.0
  0
POINT
  5
39C
100
AcDbEntity
  8
DEFPOINTS
  6
BYBLOCK
 62
     0
100
AcDbPoint
 10
-43.610413
 20
-245.12195
 30
0.0
  0
ENDBLK
  5
39D
100
AcDbEntity
  8
0
100
AcDbBlockEnd
  0
BLOCK
  5
39E
100
AcDbEntity
  8
0
100
AcDbBlockBegin
  2
*D5
 70
     1
 10
0.0
 20
0.0
 30
0.0
  3
*D5
  1

  0
LINE
  5
39F
100
AcDbEntity
  8
0
  6
BYBLOCK
 62
     1
100
AcDbLine
 10
-44.610413
 20
-254.883445
 30
0.0
 11
-52.49019
 21
-254.883445
 31
0.0
  0
LINE
  5
3A0
100
AcDbEntity
  8
0
  6
BYBLOCK
 62
     1
100
AcDbLine
 10
-43.420413
 20
-274.883445
 30
0.0
 11
-52.49019
 21
-274.883445
 31
0.0
  0
LINE
  5
3A1
100
AcDbEntity
  8
0
  6
BYBLOCK
 62
     1
100
AcDbLine
 10
-50.99019
 20
-256.883445
 30
0.0
 11
-50.99019
 21
-272.883445
 31
0.0
  0
INSERT
  5
3A2
100
AcDbEntity
  8
0
  6
BYBLOCK
 62
     1
100
AcDbBlockReference
  2
_OPEN
 10
-50.99019
 20
-254.883445
 30
0.0
 41
2.0
 42
2.0
 43
2.0
 50
90.0
  0
INSERT
  5
3A3
100
AcDbEntity
  8
0
  6
BYBLOCK
 62
     1
100
AcDbBlockReference
  2
_OPEN
 10
-50.99019
 20
-274.883445
 30
0.0
 41
2.0
 42
2.0
 43
2.0
 50
270.0
  0
MTEXT
  5
3A4
100
AcDbEntity
  8
0
  6
BYBLOCK
 62
     3
100
AcDbMText
 10
-53.49019
 20
-264.883445
 30
0.0
 40
3.0
 41
0.0
 71
     5
 72
     1
  1
\A1;20
 11
0.0
 21
1.0
 31
0.0
  0
POINT
  5
3A5
100
AcDbEntity
  8
DEFPOINTS
  6
BYBLOCK
 62
     0
100
AcDbPoint
 10
-43.610413
 20
-254.883445
 30
0.0
  0
POINT
  5
3A6
100
AcDbEntity
  8
DEFPOINTS
  6
BYBLOCK
 62
     0
100
AcDbPoint
 10
-42.420413
 20
-274.883445
 30
0.0
  0
POINT
  5
3A7
100
AcDbEntity
  8
DEFPOINTS
  6
BYBLOCK
 62
     0
100
AcDbPoint
 10
-50.99019
 20
-274.883445
 30
0.0
  0
ENDBLK
  5
3A8
100
AcDbEntity
  8
0
100
AcDbBlockEnd
  0
BLOCK
  5
3B4
100
AcDbEntity
  8
0
100
AcDbBlockBegin
  2
*D6
 70
     1
 10
0.0
 20
0.0
 30
0.0
  3
*D6
  1

  0
LINE
  5
3B5
100
AcDbEntity
  8
0
  6
BYBLOCK
 62
     1
100
AcDbLine
 10
-43.610413
 20
-210.519647
 30
0.0
 11
-43.610413
 21
-234.921789
 31
0.0
  0
LINE
  5
3B6
100
AcDbEntity
  8
0
  6
BYBLOCK
 62
     1
100
AcDbLine
 10
81.389587
 20
-213.519647
 30
0.0
 11
81.389587
 21
-234.921789
 31
0.0
  0
LINE
  5
3B7
100
AcDbEntity
  8
0
  6
BYBLOCK
 62
     1
100
AcDbLine
 10
-41.610413
 20
-233.421789
 30
0.0
 11
79.389587
 21
-233.421789
 31
0.0
  0
INSERT
  5
3B8
100
AcDbEntity
  8
0
  6
BYBLOCK
 62
     1
100
AcDbBlockReference
  2
_OPEN
 10
-43.610413
 20
-233.421789
 30
0.0
 41
2.0
 42
2.0
 43
2.0
 50
180.0
  0
INSERT
  5
3B9
100
AcDbEntity
  8
0
  6
BYBLOCK
 62
     1
100
AcDbBlockReference
  2
_OPEN
 10
81.389587
 20
-233.421789
 30
0.0
 41
2.0
 42
2.0
 43
2.0
  0
MTEXT
  5
3BA
100
AcDbEntity
  8
0
  6
BYBLOCK
 62
     3
100
AcDbMText
 10
18.889587
 20
-230.921789
 30
0.0
 40
3.0
 41
0.0
 71
     5
 72
     1
  1
\A1;125
  0
POINT
  5
3BB
100
AcDbEntity
  8
DEFPOINTS
  6
BYBLOCK
 62
     0
100
AcDbPoint
 10
-43.610413
 20
-209.519647
 30
0.0
  0
POINT
  5
3BC
100
AcDbEntity
  8
DEFPOINTS
  6
BYBLOCK
 62
     0
100
AcDbPoint
 10
81.389587
 20
-212.519647
 30
0.0
  0
POINT
  5
3BD
100
AcDbEntity
  8
DEFPOINTS
  6
BYBLOCK
 62
     0
100
AcDbPoint
 10
81.389587
 20
-233.421789
 30
0.0
  0
ENDBLK
  5
3BE
100
AcDbEntity
  8
0
100
AcDbBlockEnd
  0
BLOCK
  5
3BF
100
AcDbEntity
  8
0
100
AcDbBlockBegin
  2
*D7
 70
     1
 10
0.0
 20
0.0
 30
0.0
  3
*D7
  1

  0
LINE
  5
3C0
100
AcDbEntity
  8
0
  6
BYBLOCK
 62
     1
100
AcDbLine
 10
-70.661154
 20
-195.052201
 30
0.0
 11
-79.013203
 21
-206.980164
 31
0.0
  0
LINE
  5
3C1
100
AcDbEntity
  8
0
  6
BYBLOCK
 62
     1
100
AcDbLine
 10
-70.587577
 20
-195.099074
 30
0.0
 11
-77.868254
 21
-207.709577
 31
0.0
  0
ARC
  5
3C2
100
AcDbEntity
  8
0
  6
BYBLOCK
 62
     1
100
AcDbCircle
 10
-70.087577
 20
-194.233049
 30
0.0
 40
14.061354
100
AcDbArc
 50
218.645744
 51
235.0
  0
LINE
  5
3C3
100
AcDbEntity
  8
0
  6
BYBLOCK
 62
     1
100
AcDbLine
 10
-81.069806
 20
-203.014411
 30
0.0
 11
-86.440535
 21
-196.297621
 31
0.0
  0
ARC
  5
3C4
100
AcDbEntity
  8
0
  6
BYBLOCK
 62
     1
100
AcDbCircle
 10
-70.087577
 20
-194.233049
 30
0.0
 40
14.061354
100
AcDbArc
 50
218.687436
 51
226.843718
  0
ARC
  5
3C5
100
AcDbEntity
  8
0
  6
BYBLOCK
 62
     1
100
AcDbCircle
 10
-70.087577
 20
-194.233049
 30
0.0
 40
14.061354
100
AcDbArc
 50
248.156282
 51
256.312564
  0
ARC
  5
3C6
100
AcDbEntity
  8
0
  6
BYBLOCK
 62
     1
100
AcDbCircle
 10
-70.087577
 20
-194.233049
 30
0.0
 40
14.061354
100
AcDbArc
 50
235.0
 51
240.0
  0
INSERT
  5
3C7
100
AcDbEntity
  8
0
  6
BYBLOCK
 62
     1
100
AcDbBlockReference
  2
_OPEN
 10
-78.152839
 20
-205.751436
 30
0.0
 41
2.0
 42
2.0
 43
2.0
 50
320.921859
  0
INSERT
  5
3C8
100
AcDbEntity
  8
0
  6
BYBLOCK
 62
     1
100
AcDbBlockReference
  2
_OPEN
 10
-77.118254
 20
-206.410539
 30
0.0
 41
2.0
 42
2.0
 43
2.0
 50
154.078141
  0
MTEXT
  5
3C9
100
AcDbEntity
  8
0
  6
BYBLOCK
 62
     3
100
AcDbMText
 10
-81.802615
 20
-198.094758
 30
0.0
 40
3.0
 41
0.0
 71
     5
 72
     1
  1
\A1;5°
 11
0.624503
 21
-0.781022
 31
0.0
  0
POINT
  5
3CA
100
AcDbEntity
  8
DEFPOINTS
  6
BYBLOCK
 62
     0
100
AcDbPoint
 10
-77.469459
 20
-206.200902
 30
0.0
  0
POINT
  5
3CB
100
AcDbEntity
  8
DEFPOINTS
  6
BYBLOCK
 62
     0
100
AcDbPoint
 10
-60.18902
 20
-180.096445
 30
0.0
  0
POINT
  5
3CC
100
AcDbEntity
  8
DEFPOINTS
  6
BYBLOCK
 62
     0
100
AcDbPoint
 10
-61.458774
 20
-179.287522
 30
0.0
  0
POINT
  5
3CD
100
AcDbEntity
  8
DEFPOINTS
  6
BYBLOCK
 62
     0
100
AcDbPoint
 10
-70.087577
 20
-194.233049
 30
0.0
  0
POINT
  5
3CE
100
AcDbEntity
  8
DEFPOINTS
  6
BYBLOCK
 62
     0
100
AcDbPoint
 10
-70.087577
 20
-194.233049
 30
0.0
  0
ENDBLK
  5
3CF
100
AcDbEntity
  8
0
100
AcDbBlockEnd
  0
BLOCK
  5
3D0
100
AcDbEntity
  8
0
100
AcDbBlockBegin
  2
*D8
 70
     1
 10
0.0
 20
0.0
 30
0.0
  3
*D8
  1

  0
LINE
  5
3D1
100
AcDbEntity
  8
0
  6
BYBLOCK
 62
     1
100
AcDbLine
 10
-29.74465
 20
-192.519647
 30
0.0
 11
-54.366251
 21
-192.519647
 31
0.0
  0
LINE
  5
3D2
100
AcDbEntity
  8
0
  6
BYBLOCK
 62
     1
100
AcDbLine
 10
-44.610413
 20
-209.519647
 30
0.0
 11
-54.366251
 21
-209.519647
 31
0.0
  0
LINE
  5
3D3
100
AcDbEntity
  8
0
  6
BYBLOCK
 62
     1
100
AcDbLine
 10
-52.866251
 20
-194.519647
 30
0.0
 11
-52.866251
 21
-207.519647
 31
0.0
  0
INSERT
  5
3D4
100
AcDbEntity
  8
0
  6
BYBLOCK
 62
     1
100
AcDbBlockReference
  2
_OPEN
 10
-52.866251
 20
-192.519647
 30
0.0
 41
2.0
 42
2.0
 43
2.0
 50
90.0
  0
INSERT
  5
3D5
100
AcDbEntity
  8
0
  6
BYBLOCK
 62
     1
100
AcDbBlockReference
  2
_OPEN
 10
-52.866251
 20
-209.519647
 30
0.0
 41
2.0
 42
2.0
 43
2.0
 50
270.0
  0
MTEXT
  5
3D6
100
AcDbEntity
  8
0
  6
BYBLOCK
 62
     3
100
AcDbMText
 10
-55.366251
 20
-198.519647
 30
0.0
 40
3.0
 41
0.0
 71
     5
 72
     1
  1
\A1;17
 11
0.0
 21
1.0
 31
0.0
  0
POINT
  5
3D7
100
AcDbEntity
  8
DEFPOINTS
  6
BYBLOCK
 62
     0
100
AcDbPoint
 10
-28.74465
 20
-192.519647
 30
0.0
  0
POINT
  5
3D8
100
AcDbEntity
  8
DEFPOINTS
  6
BYBLOCK
 62
     0
100
AcDbPoint
 10
-43.610413
 20
-209.519647
 30
0.0
  0
POINT
  5
3D9
100
AcDbEntity
  8
DEFPOINTS
  6
BYBLOCK
 62
     0
100
AcDbPoint
 10
-52.866251
 20
-209.519647
 30
0.0
  0
ENDBLK
  5
3DA
100
AcDbEntity
  8
0
100
AcDbBlockEnd
  0
BLOCK
  5
3DB
100
AcDbEntity
  8
0
100
AcDbBlockBegin
  2
*D9
 70
     1
 10
0.0
 20
0.0
 30
0.0
  3
*D9
  1

  0
LINE
  5
3DC
100
AcDbEntity
  8
0
  6
BYBLOCK
 62
     1
100
AcDbLine
 10
-43.610413
 20
-210.519647
 30
0.0
 11
-43.610413
 21
-228.914668
 31
0.0
  0
LINE
  5
3DD
100
AcDbEntity
  8
0
  6
BYBLOCK
 62
     1
100
AcDbLine
 10
-42.34485
 20
-210.250319
 30
0.0
 11
-26.813831
 21
-219.217158
 31
0.0
  0
ARC
  5
3DE
100
AcDbEntity
  8
0
  6
BYBLOCK
 62
     1
100
AcDbCircle
 10
-43.610413
 20
-209.519647
 30
0.0
 40
17.895022
100
AcDbArc
 50
276.406881
 51
323.593119
  0
INSERT
  5
3DF
100
AcDbEntity
  8
0
  6
BYBLOCK
 62
     1
100
AcDbBlockReference
  2
_OPEN
 10
-43.610413
 20
-227.414668
 30
0.0
 41
2.0
 42
2.0
 43
2.0
 50
183.203441
  0
INSERT
  5
3E0
100
AcDbEntity
  8
0
  6
BYBLOCK
 62
     1
100
AcDbBlockReference
  2
_OPEN
 10
-28.112869
 20
-218.467158
 30
0.0
 41
2.0
 42
2.0
 43
2.0
 50
56.796559
  0
MTEXT
  5
3E1
100
AcDbEntity
  8
0
  6
BYBLOCK
 62
     3
100
AcDbMText
 10
-34.553728
 20
-221.96887
 30
0.0
 40
3.0
 41
0.0
 71
     5
 72
     1
  1
\A1;60°
 11
0.808653
 21
0.588287
 31
0.0
  0
POINT
  5
3E2
100
AcDbEntity
  8
DEFPOINTS
  6
BYBLOCK
 62
     0
100
AcDbPoint
 10
-37.489955
 20
-226.335467
 30
0.0
  0
POINT
  5
3E3
100
AcDbEntity
  8
DEFPOINTS
  6
BYBLOCK
 62
     0
100
AcDbPoint
 10
-43.610413
 20
-209.519647
 30
0.0
  0
POINT
  5
3E4
100
AcDbEntity
  8
DEFPOINTS
  6
BYBLOCK
 62
     0
100
AcDbPoint
 10
-43.610413
 20
-209.084709
 30
0.0
  0
POINT
  5
3E5
100
AcDbEntity
  8
DEFPOINTS
  6
BYBLOCK
 62
     0
100
AcDbPoint
 10
-43.610413
 20
-209.519647
 30
0.0
  0
POINT
  5
3E6
100
AcDbEntity
  8
DEFPOINTS
  6
BYBLOCK
 62
     0
100
AcDbPoint
 10
-43.210876
 20
-209.750319
 30
0.0
  0
ENDBLK
  5
3E7
100
AcDbEntity
  8
0
100
AcDbBlockEnd
  0
BLOCK
  5
3E8
100
AcDbEntity
  8
0
100
AcDbBlockBegin
  2
*D10
 70
     1
 10
0.0
 20
0.0
 30
0.0
  3
*D10
  1

  0
LINE
  5
3E9
100
AcDbEntity
  8
0
  6
BYBLOCK
 62
     1
100
AcDbLine
 10
82.389587
 20
-212.519647
 30
0.0
 11
91.98756
 21
-212.519647
 31
0.0
  0
LINE
  5
3EA
100
AcDbEntity
  8
0
  6
BYBLOCK
 62
     1
100
AcDbLine
 10
82.389587
 20
-192.519647
 30
0.0
 11
91.98756
 21
-192.519647
 31
0.0
  0
LINE
  5
3EB
100
AcDbEntity
  8
0
  6
BYBLOCK
 62
     1
100
AcDbLine
 10
90.48756
 20
-210.519647
 30
0.0
 11
90.48756
 21
-194.519647
 31
0.0
  0
INSERT
  5
3EC
100
AcDbEntity
  8
0
  6
BYBLOCK
 62
     1
100
AcDbBlockReference
  2
_OPEN
 10
90.48756
 20
-212.519647
 30
0.0
 41
2.0
 42
2.0
 43
2.0
 50
270.0
  0
INSERT
  5
3ED
100
AcDbEntity
  8
0
  6
BYBLOCK
 62
     1
100
AcDbBlockReference
  2
_OPEN
 10
90.48756
 20
-192.519647
 30
0.0
 41
2.0
 42
2.0
 43
2.0
 50
90.0
  0
MTEXT
  5
3EE
100
AcDbEntity
  8
0
  6
BYBLOCK
 62
     3
100
AcDbMText
 10
87.98756
 20
-202.519647
 30
0.0
 40
3.0
 41
0.0
 71
     5
 72
     1
  1
\A1;20
 11
0.0
 21
1.0
 31
0.0
  0
POINT
  5
3EF
100
AcDbEntity
  8
DEFPOINTS
  6
BYBLOCK
 62
     0
100
AcDbPoint
 10
81.389587
 20
-212.519647
 30
0.0
  0
POINT
  5
3F0
100
AcDbEntity
  8
DEFPOINTS
  6
BYBLOCK
 62
     0
100
AcDbPoint
 10
81.389587
 20
-192.519647
 30
0.0
  0
POINT
  5
3F1
100
AcDbEntity
  8
DEFPOINTS
  6
BYBLOCK
 62
     0
100
AcDbPoint
 10
90.48756
 20
-192.519647
 30
0.0
  0
ENDBLK
  5
3F2
100
AcDbEntity
  8
0
100
AcDbBlockEnd
  0
BLOCK
  5
3F3
100
AcDbEntity
  8
0
100
AcDbBlockBegin
  2
*D13
 70
     1
 10
0.0
 20
0.0
 30
0.0
  3
*D13
  1

  0
LINE
  5
3F4
100
AcDbEntity
  8
0
  6
BYBLOCK
 62
     1
100
AcDbLine
 10
-88.470043
 20
-253.620584
 30
0.0
 11
-104.203494
 21
-244.536872
 31
0.0
  0
LINE
  5
3F5
100
AcDbEntity
  8
0
  6
BYBLOCK
 62
     1
100
AcDbLine
 10
-88.510326
 20
-253.697966
 30
0.0
 11
-104.975604
 21
-246.02008
 31
0.0
  0
ARC
  5
3F6
100
AcDbEntity
  8
0
  6
BYBLOCK
 62
     1
100
AcDbCircle
 10
-87.604018
 20
-254.120584
 30
0.0
 40
17.667424
100
AcDbArc
 50
137.00006
 51
150.0
  0
LINE
  5
3F7
100
AcDbEntity
  8
0
  6
BYBLOCK
 62
     1
100
AcDbLine
 10
-100.525167
 20
-242.071443
 30
0.0
 11
-94.659988
 21
-235.781795
 31
0.0
  0
ARC
  5
3F8
100
AcDbEntity
  8
0
  6
BYBLOCK
 62
     1
100
AcDbCircle
 10
-87.604018
 20
-254.120584
 30
0.0
 40
17.667424
100
AcDbArc
 50
137.020991
 51
143.510495
  0
ARC
  5
3F9
100
AcDbEntity
  8
0
  6
BYBLOCK
 62
     1
100
AcDbCircle
 10
-87.604018
 20
-254.120584
 30
0.0
 40
17.667424
100
AcDbArc
 50
161.489505
 51
167.979009
  0
ARC
  5
3FA
100
AcDbEntity
  8
0
  6
BYBLOCK
 62
     1
100
AcDbCircle
 10
-87.604018
 20
-254.120584
 30
0.0
 40
17.667424
100
AcDbArc
 50
150.0
 51
155.0
  0
INSERT
  5
3FB
100
AcDbEntity
  8
0
  6
BYBLOCK
 62
     1
100
AcDbBlockReference
  2
_OPEN
 10
-102.904456
 20
-245.286872
 30
0.0
 41
2.0
 42
2.0
 43
2.0
 50
236.755248
  0
INSERT
  5
3FC
100
AcDbEntity
  8
0
  6
BYBLOCK
 62
     1
100
AcDbBlockReference
  2
_OPEN
 10
-103.616142
 20
-246.654008
 30
0.0
 41
2.0
 42
2.0
 43
2.0
 50
68.244752
  0
MTEXT
  5
3FD
100
AcDbEntity
  8
0
  6
BYBLOCK
 62
     3
100
AcDbMText
 10
-99.420963
 20
-237.221625
 30
0.0
 40
3.0
 41
0.0
 71
     5
 72
     1
  1
\A1;5°
 11
0.681998
 21
0.731354
 31
0.0
  0
POINT
  5
3FE
100
AcDbEntity
  8
DEFPOINTS
  6
BYBLOCK
 62
     0
100
AcDbPoint
 10
-103.392205
 20
-246.191458
 30
0.0
  0
POINT
  5
3FF
100
AcDbEntity
  8
DEFPOINTS
  6
BYBLOCK
 62
     0
100
AcDbPoint
 10
-87.604018
 20
-254.120584
 30
0.0
  0
POINT
  5
400
100
AcDbEntity
  8
DEFPOINTS
  6
BYBLOCK
 62
     0
100
AcDbPoint
 10
-87.604018
 20
-254.120584
 30
0.0
  0
POINT
  5
401
100
AcDbEntity
  8
DEFPOINTS
  6
BYBLOCK
 62
     0
100
AcDbPoint
 10
-44.767379
 20
-278.852329
 30
0.0
  0
POINT
  5
402
100
AcDbEntity
  8
DEFPOINTS
  6
BYBLOCK
 62
     0
100
AcDbPoint
 10
-65.689068
 20
-264.339693
 30
0.0
  0
ENDBLK
  5
403
100
AcDbEntity
  8
0
100
AcDbBlockEnd
  0
ENDSEC
  0
SECTION
  2
ENTITIES
  0
DIMENSION
  5
25
100
AcDbEntity
  8
寸法
  6
CONTINUOUS
100
AcDbDimension
  2
*D4
 10
-43.610413
 20
-245.12195
 30
0.0
 11
-31.110413
 21
-242.62195
 31
0.0
 70
    32
  3
STANDARD
100
AcDbAlignedDimension
 13
-18.610413
 23
-254.883445
 33
0.0
 14
-43.610413
 24
-254.883445
 34
0.0
100
AcDbRotatedDimension
1001
ACAD
1000
DSTYLE
1002
{
1070
    40
1040
1.0
1070
   271
1070
     3
1002
}
  0
LINE
  5
33
100
AcDbEntity
  8
外形
  6
CONTINUOUS
100
AcDbLine
 10
-17.986474
 20
-254.883445
 30
0.0
 11
81.389587
 21
-254.883445
 31
0.0
  0
LINE
  5
35
100
AcDbEntity
  8
外形
  6
CONTINUOUS
100
AcDbLine
 10
-42.420413
 20
-274.883445
 30
0.0
 11
81.389587
 21
-274.883445
 31
0.0
  0
TEXT
  5
36
100
AcDbEntity
  8
外形
  6
CONTINUOUS
 62
     2
100
AcDbText
 10
-29.410247
 20
-301.921182
 30
0.0
 40
6.0
  1
ＰTTN R2020-33
100
AcDbText
  0
LINE
  5
37
100
AcDbEntity
  8
外形
  6
CONTINUOUS
100
AcDbLine
 10
-18.610413
 20
-254.883445
 30
0.0
 11
-18.610413
 21
-274.883445
 31
0.0
  0
DIMENSION
  5
38
100
AcDbEntity
  8
寸法
  6
CONTINUOUS
100
AcDbDimension
  2
*D5
 10
-50.99019
 20
-274.883445
 30
0.0
 11
-53.49019
 21
-264.883445
 31
0.0
 70
    32
  3
STANDARD
100
AcDbAlignedDimension
 13
-43.610413
 23
-254.883445
 33
0.0
 14
-42.420413
 24
-274.883445
 34
0.0
 50
90.0
100
AcDbRotatedDimension
1001
ACAD
1000
DSTYLE
1002
{
1070
    40
1040
1.0
1070
   271
1070
     3
1002
}
  0
LINE
  5
45
100
AcDbEntity
  8
外形
  6
CONTINUOUS
100
AcDbLine
 10
-42.420413
 20
-262.256248
 30
0.0
 11
-42.420413
 21
-274.883445
 31
0.0
  0
LINE
  5
46
100
AcDbEntity
  8
外形
  6
CONTINUOUS
100
AcDbLine
 10
-19.348796
 20
-252.127761
 30
0.0
 11
-19.348796
 21
-274.883445
 31
0.0
  0
LINE
  5
47
100
AcDbEntity
  8
外形
  6
CONTINUOUS
100
AcDbLine
 10
-43.610413
 20
-254.883445
 30
0.0
 11
-19.348796
 21
-252.127761
 31
0.0
  0
LINE
  5
48
100
AcDbEntity
  8
外形
  6
CONTINUOUS
100
AcDbLine
 10
-43.073216
 20
-259.613035
 30
0.0
 11
-29.586179
 21
-258.08115
 31
0.0
  0
LINE
  5
49
100
AcDbEntity
  8
外形
  6
CONTINUOUS
100
AcDbLine
 10
-42.756084
 20
-262.294374
 30
0.0
 11
-29.293887
 21
-260.765311
 31
0.0
  0
LINE
  5
4A
100
AcDbEntity
  8
外形
  6
CONTINUOUS
100
AcDbLine
 10
-43.610413
 20
-254.883445
 30
0.0
 11
-43.073216
 21
-259.613035
 31
0.0
  0
LINE
  5
4B
100
AcDbEntity
  8
外形
  6
CONTINUOUS
100
AcDbLine
 10
-30.123376
 20
-253.35156
 30
0.0
 11
-29.586179
 21
-258.08115
 31
0.0
  0
LINE
  5
4C
100
AcDbEntity
  8
外形
  6
CONTINUOUS
100
AcDbLine
 10
-19.348796
 20
-252.127761
 30
0.0
 11
-18.610413
 21
-254.883445
 31
0.0
  0
DIMENSION
  5
4D
100
AcDbEntity
  8
寸法
  6
CONTINUOUS
100
AcDbDimension
  2
*D1
 10
91.911962
 20
-254.883445
 30
0.0
 11
89.411962
 21
-264.883445
 31
0.0
 70
    32
  3
STANDARD
100
AcDbAlignedDimension
 13
81.389587
 23
-274.883445
 33
0.0
 14
81.389587
 24
-254.883445
 34
0.0
 50
90.0
100
AcDbRotatedDimension
1001
ACAD
1000
DSTYLE
1002
{
1070
    40
1040
1.0
1070
   271
1070
     3
1002
}
  0
LINE
  5
5A
100
AcDbEntity
  8
外形
  6
CONTINUOUS
100
AcDbLine
 10
81.389587
 20
-254.883445
 30
0.0
 11
81.389587
 21
-274.883445
 31
0.0
  0
LINE
  5
5B
100
AcDbEntity
  8
外形
  6
CONTINUOUS
100
AcDbLine
 10
-28.74465
 20
-192.519647
 30
0.0
 11
81.389587
 21
-192.519647
 31
0.0
  0
LINE
  5
5C
100
AcDbEntity
  8
外形
  6
CONTINUOUS
100
AcDbLine
 10
-19.410876
 20
-212.519647
 30
0.0
 11
81.389587
 21
-212.519647
 31
0.0
  0
DIMENSION
  5
5D
100
AcDbEntity
  8
寸法
  6
CONTINUOUS
100
AcDbDimension
  2
*D6
 10
81.389587
 20
-233.421789
 30
0.0
 11
18.889587
 21
-230.921789
 31
0.0
 70
    32
  3
STANDARD
100
AcDbAlignedDimension
 13
-43.610413
 23
-209.519647
 33
0.0
 14
81.389587
 24
-212.519647
 34
0.0
 50
360.0
100
AcDbRotatedDimension
1001
ACAD
1000
DSTYLE
1002
{
1070
    40
1040
1.0
1070
   271
1070
     3
1002
}
  0
DIMENSION
  5
6A
100
AcDbEntity
  8
寸法
  6
CONTINUOUS
100
AcDbDimension
  2
*D7
 10
-70.087577
 20
-194.233049
 30
0.0
 11
-81.802615
 21
-198.094758
 31
0.0
 70
    34
  3
STANDARD
100
AcDb2LineAngularDimension
 13
-61.458774
 23
-179.287522
 33
0.0
 14
-70.087577
 24
-194.233049
 34
0.0
 15
-60.18902
 25
-180.096445
 35
0.0
 16
-77.469459
 26
-206.200902
 36
0.0
1001
ACAD
1000
DSTYLE
1002
{
1070
    40
1040
1.0
1070
   271
1070
     3
1002
}
  0
LINE
  5
7B
100
AcDbEntity
  8
外形
  6
CONTINUOUS
100
AcDbLine
 10
-36.604441
 20
-197.057499
 30
0.0
 11
-28.74465
 21
-192.519647
 31
0.0
  0
LINE
  5
7C
100
AcDbEntity
  8
外形
  6
CONTINUOUS
100
AcDbLine
 10
-19.410876
 20
-192.519647
 30
0.0
 11
-19.410876
 21
-212.519647
 31
0.0
  0
LINE
  5
7D
100
AcDbEntity
  8
外形
  6
CONTINUOUS
100
AcDbLine
 10
-19.410876
 20
-212.519647
 30
0.0
 11
-20.132197
 21
-192.519647
 31
0.0
  0
LINE
  5
7E
100
AcDbEntity
  8
寸法
  6
CONTINUOUS
100
AcDbLine
 10
-70.087577
 20
-194.233049
 30
0.0
 11
-57.177763
 21
-201.686533
 31
0.0
  0
DIMENSION
  5
7F
100
AcDbEntity
  8
寸法
  6
CONTINUOUS
100
AcDbDimension
  2
*D8
 10
-52.866251
 20
-209.519647
 30
0.0
 11
-52.866251
 21
-198.519647
 31
0.0
 70
   160
  3
STANDARD
100
AcDbAlignedDimension
 13
-28.74465
 23
-192.519647
 33
0.0
 14
-43.610413
 24
-209.519647
 34
0.0
 50
90.0
100
AcDbRotatedDimension
1001
ACAD
1000
DSTYLE
1002
{
1070
    40
1040
1.0
1070
   271
1070
     3
1002
}
  0
DIMENSION
  5
8C
100
AcDbEntity
  8
寸法
  6
CONTINUOUS
100
AcDbDimension
  2
*D9
 10
-43.210876
 20
-209.750319
 30
0.0
 11
-33.083011
 21
-223.990501
 31
0.0
 70
   162
  3
STANDARD
100
AcDb2LineAngularDimension
 13
-43.610413
 23
-209.084709
 33
0.0
 14
-43.610413
 24
-209.519647
 34
0.0
 15
-43.610413
 25
-209.519647
 35
0.0
 16
-37.489955
 26
-226.335467
 36
0.0
1001
ACAD
1000
DSTYLE
1002
{
1070
    40
1040
1.0
1002
}
  0
CIRCLE
  5
9B
100
AcDbEntity
  8
外形
  6
CONTINUOUS
100
AcDbCircle
 10
-34.885876
 20
-209.057499
 30
0.0
 40
1.905
  0
LINE
  5
9C
100
AcDbEntity
  8
外形
  6
CONTINUOUS
100
AcDbLine
 10
-31.323376
 20
-201.501428
 30
0.0
 11
-43.210876
 21
-208.364679
 31
0.0
  0
LINE
  5
9D
100
AcDbEntity
  8
外形
  6
CONTINUOUS
100
AcDbLine
 10
-43.210876
 20
-209.750319
 30
0.0
 11
-31.323376
 21
-216.613571
 31
0.0
  0
LINE
  5
9E
100
AcDbEntity
  8
外形
  6
CONTINUOUS
100
AcDbLine
 10
-43.093529
 20
-208.296929
 30
0.0
 11
-36.604441
 21
-197.057499
 31
0.0
  0
ARC
  5
A1
100
AcDbEntity
  8
外形
  6
CONTINUOUS
100
AcDbCircle
 10
-42.810876
 20
-209.057499
 30
0.0
 40
0.8
100
AcDbArc
 50
120.0
 51
240.0
  0
LINE
  5
A2
100
AcDbEntity
  8
外形
  6
CONTINUOUS
100
AcDbLine
 10
-40.752202
 20
-204.241632
 30
0.0
 11
-38.410876
 21
-205.593398
 31
0.0
  0
CIRCLE
  5
A3
100
AcDbEntity
  8
外形
  6
CONTINUOUS
100
AcDbCircle
 10
-25.486203
 20
-205.644853
 30
0.0
 40
2.4585
  0
CIRCLE
  5
A4
100
AcDbEntity
  8
外形
  6
CONTINUOUS
100
AcDbCircle
 10
-25.486203
 20
-205.644853
 30
0.0
 40
3.0
  0
LINE
  5
A5
100
AcDbEntity
  8
外形
  6
CONTINUOUS
100
AcDbLine
 10
-25.486203
 20
-207.088229
 30
0.0
 11
-26.736203
 21
-206.366541
 31
0.0
  0
LINE
  5
A6
100
AcDbEntity
  8
外形
  6
CONTINUOUS
100
AcDbLine
 10
-24.236203
 20
-206.366541
 30
0.0
 11
-25.486203
 21
-207.088229
 31
0.0
  0
LINE
  5
A7
100
AcDbEntity
  8
外形
  6
CONTINUOUS
100
AcDbLine
 10
-30.123376
 20
-200.808607
 30
0.0
 11
-30.123376
 21
-215.92075
 31
0.0
  0
LINE
  5
A8
100
AcDbEntity
  8
外形
  6
CONTINUOUS
100
AcDbLine
 10
-30.123376
 20
-215.557499
 30
0.0
 11
-20.348698
 21
-215.557499
 31
0.0
  0
ARC
  5
A9
100
AcDbEntity
  8
外形
  6
CONTINUOUS
100
AcDbCircle
 10
-30.923376
 20
-215.92075
 30
0.0
 40
0.8
100
AcDbArc
 50
240.0
 51
0.0
  0
LINE
  5
AA
100
AcDbEntity
  8
外形
  6
CONTINUOUS
100
AcDbLine
 10
-19.410876
 20
-212.519647
 30
0.0
 11
-20.348698
 21
-215.557499
 31
0.0
  0
LINE
  5
AB
100
AcDbEntity
  8
外形
  6
CONTINUOUS
100
AcDbLine
 10
-34.123376
 20
-200.808607
 30
0.0
 11
-34.123376
 21
-203.118008
 31
0.0
  0
ARC
  5
AC
100
AcDbEntity
  8
外形
  6
CONTINUOUS
100
AcDbCircle
 10
-30.923376
 20
-202.194248
 30
0.0
 40
0.8
100
AcDbArc
 50
0.0
 51
120.0
  0
ARC
  5
AD
100
AcDbEntity
  8
外形
  6
CONTINUOUS
100
AcDbCircle
 10
-32.123376
 20
-200.808607
 30
0.0
 40
2.0
100
AcDbArc
 50
360.0
 51
180.0
  0
LINE
  5
AE
100
AcDbEntity
  8
外形
  6
CONTINUOUS
100
AcDbLine
 10
-26.736203
 20
-206.366541
 30
0.0
 11
-26.736203
 21
-204.923166
 31
0.0
  0
LINE
  5
AF
100
AcDbEntity
  8
外形
  6
CONTINUOUS
100
AcDbLine
 10
-24.236203
 20
-206.366541
 30
0.0
 11
-24.236203
 21
-204.923166
 31
0.0
  0
LINE
  5
B0
100
AcDbEntity
  8
外形
  6
CONTINUOUS
100
AcDbLine
 10
-25.486203
 20
-204.201478
 30
0.0
 11
-24.236203
 21
-204.923166
 31
0.0
  0
LINE
  5
B1
100
AcDbEntity
  8
外形
  6
CONTINUOUS
100
AcDbLine
 10
-26.736203
 20
-204.923166
 30
0.0
 11
-25.486203
 21
-204.201478
 31
0.0
  0
LINE
  5
B2
100
AcDbEntity
  8
外形
  6
CONTINUOUS
100
AcDbLine
 10
-56.87039
 20
-175.356949
 30
0.0
 11
-75.930197
 21
-164.352763
 31
0.0
  0
LINE
  5
B3
100
AcDbEntity
  8
外形
  6
CONTINUOUS
100
AcDbLine
 10
-56.87039
 20
-175.356949
 30
0.0
 11
-70.087577
 21
-194.233049
 31
0.0
  0
LINE
  5
B4
100
AcDbEntity
  8
外形
  6
CONTINUOUS
100
AcDbLine
 10
-75.930197
 20
-164.352763
 30
0.0
 11
-86.876758
 21
-183.312763
 31
0.0
  0
LINE
  5
B5
100
AcDbEntity
  8
外形
  6
CONTINUOUS
100
AcDbLine
 10
-86.876758
 20
-183.312763
 30
0.0
 11
-75.960964
 21
-189.615001
 31
0.0
  0
LINE
  5
B6
100
AcDbEntity
  8
外形
  6
CONTINUOUS
100
AcDbLine
 10
-61.856682
 20
-182.478111
 30
0.0
 11
-80.260324
 21
-171.852763
 31
0.0
  0
LINE
  5
B7
100
AcDbEntity
  8
外形
  6
CONTINUOUS
100
AcDbLine
 10
-70.545282
 20
-186.587912
 30
0.0
 11
-73.986741
 21
-191.502825
 31
0.0
  0
LINE
  5
B8
100
AcDbEntity
  8
外形
  6
CONTINUOUS
100
AcDbLine
 10
-66.646119
 20
-189.318136
 30
0.0
 11
-70.545282
 21
-186.587912
 31
0.0
  0
LINE
  5
B9
100
AcDbEntity
  8
外形
  6
CONTINUOUS
100
AcDbLine
 10
-70.087577
 20
-194.233049
 30
0.0
 11
-73.986741
 21
-191.502825
 31
0.0
  0
LINE
  5
BA
100
AcDbEntity
  8
外形
  6
CONTINUOUS
100
AcDbLine
 10
-72.764163
 20
-185.049495
 30
0.0
 11
-76.191282
 21
-189.943929
 31
0.0
  0
DIMENSION
  5
BB
100
AcDbEntity
  8
寸法
  6
CONTINUOUS
100
AcDbDimension
  2
*D10
 10
90.48756
 20
-192.519647
 30
0.0
 11
87.98756
 21
-202.519647
 31
0.0
 70
    32
  3
STANDARD
100
AcDbAlignedDimension
 13
81.389587
 23
-212.519647
 33
0.0
 14
81.389587
 24
-192.519647
 34
0.0
 50
90.0
100
AcDbRotatedDimension
1001
ACAD
1000
DSTYLE
1002
{
1070
    40
1040
1.0
1070
   271
1070
     3
1002
}
  0
LINE
  5
C8
100
AcDbEntity
  8
外形
  6
CONTINUOUS
100
AcDbLine
 10
81.389587
 20
-192.519647
 30
0.0
 11
81.389587
 21
-212.519647
 31
0.0
  0
LINE
  5
197
100
AcDbEntity
  8
外形
  6
CONTINUOUS
100
AcDbLine
 10
-31.027238
 20
-260.962188
 30
0.0
 11
-31.027238
 21
-274.883445
 31
0.0
  0
LINE
  5
25B
100
AcDbEntity
  8
寸法
  6
CONTINUOUS
100
AcDbLine
 10
-76.248398
 20
-234.452073
 30
0.0
 11
-87.604018
 21
-254.120584
 31
0.0
  0
LINE
  5
25C
100
AcDbEntity
  8
外形
  6
CONTINUOUS
100
AcDbLine
 10
-90.656322
 20
-260.92847
 30
0.0
 11
-96.945345
 21
-271.821377
 31
0.0
  0
LINE
  5
264
100
AcDbEntity
  8
外形
  6
CONTINUOUS
100
AcDbLine
 10
-87.604018
 20
-254.120584
 30
0.0
 11
-65.689068
 21
-264.339693
 31
0.0
  0
LINE
  5
265
100
AcDbEntity
  8
外形
  6
CONTINUOUS
100
AcDbLine
 10
-96.945345
 20
-271.821377
 30
0.0
 11
-76.742802
 21
-283.485321
 31
0.0
  0
LINE
  5
266
100
AcDbEntity
  8
外形
  6
CONTINUOUS
100
AcDbLine
 10
-89.615681
 20
-258.434609
 30
0.0
 11
-74.606496
 21
-265.433507
 31
0.0
  0
LINE
  5
267
100
AcDbEntity
  8
外形
  6
CONTINUOUS
100
AcDbLine
 10
-90.745421
 20
-260.886923
 30
0.0
 11
-75.758894
 21
-267.875255
 31
0.0
  0
LINE
  5
269
100
AcDbEntity
  8
外形
  6
CONTINUOUS
100
AcDbLine
 10
-72.594833
 20
-261.119482
 30
0.0
 11
-74.606496
 21
-265.433507
 31
0.0
  0
LINE
  5
26A
100
AcDbEntity
  8
外形
  6
CONTINUOUS
100
AcDbLine
 10
-65.689068
 20
-264.339693
 30
0.0
 11
-76.742802
 21
-283.485321
 31
0.0
  0
LINE
  5
26B
100
AcDbEntity
  8
外形
  6
CONTINUOUS
100
AcDbLine
 10
-89.604352
 20
-258.439892
 30
0.0
 11
-90.745421
 21
-260.886923
 31
0.0
  0
LINE
  5
26C
100
AcDbEntity
  8
外形
  6
CONTINUOUS
100
AcDbLine
 10
-74.617825
 20
-265.428224
 30
0.0
 11
-75.758894
 21
-267.875255
 31
0.0
  0
DIMENSION
  5
27F
100
AcDbEntity
  8
寸法
  6
CONTINUOUS
100
AcDbDimension
  2
*D13
 10
-65.689068
 20
-264.339693
 30
0.0
 11
-99.420963
 21
-237.221625
 31
0.0
 70
    34
  3
STANDARD
100
AcDb2LineAngularDimension
 13
-87.604018
 23
-254.120584
 33
0.0
 14
-44.767379
 24
-278.852329
 34
0.0
 15
-87.604018
 25
-254.120584
 35
0.0
 16
-103.392205
 26
-246.191458
 36
0.0
1001
ACAD
1000
DSTYLE
1002
{
1070
    40
1040
1.0
1002
}
  0
LINE
  5
280
100
AcDbEntity
  8
外形
  6
CONTINUOUS
100
AcDbLine
 10
-77.846764
 20
-266.901665
 30
0.0
 11
-84.751707
 21
-278.861377
 31
0.0
  0
LINE
  5
2CF
100
AcDbEntity
  8
寸法
  6
CONTINUOUS
100
AcDbLine
 10
-76.248398
 20
-234.452073
 30
0.0
 11
-59.07244
 21
-234.452073
 31
0.0
  0
LINE
  5
2D0
100
AcDbEntity
  8
寸法
  6
CONTINUOUS
100
AcDbLine
 10
-43.903696
 20
-209.350319
 30
0.0
 11
-59.07244
 21
-234.452073
 31
0.0
  0
LINE
  5
30E
100
AcDbEntity
  8
外形
  6
CONTINUOUS
100
AcDbLine
 10
-87.604018
 20
-254.120584
 30
0.0
 11
-89.615681
 21
-258.434609
 31
0.0
  0
LINE
  5
32C
100
AcDbEntity
  8
外形
  6
CONTINUOUS
100
AcDbLine
 10
-73.979571
 20
-191.492585
 30
0.0
 11
-76.191282
 21
-189.943929
 31
0.0
  0
LINE
  5
32D
100
AcDbEntity
  8
外形
  6
CONTINUOUS
100
AcDbLine
 10
-70.552452
 20
-186.598152
 30
0.0
 11
-72.764163
 21
-185.049495
 31
0.0
  0
LINE
  5
32E
100
AcDbEntity
  8
外形
  6
CONTINUOUS
100
AcDbLine
 10
-43.060796
 20
-259.611624
 30
0.0
 11
-42.756084
 21
-262.294374
 31
0.0
  0
LINE
  5
32F
100
AcDbEntity
  8
外形
  6
CONTINUOUS
100
AcDbLine
 10
-29.598599
 20
-258.08256
 30
0.0
 11
-29.293887
 21
-260.765311
 31
0.0
  0
ENDSEC
  0
SECTION
  2
OBJECTS
  0
DICTIONARY
  5
1A
100
AcDbDictionary
  3
ACAD_GROUP
350
18
  3
ACAD_MLINESTYLE
350
19
  0
DICTIONARY
  5
18
102
{ACAD_REACTORS
330
1A
102
}
100
AcDbDictionary
  0
DICTIONARY
  5
19
102
{ACAD_REACTORS
330
1A
102
}
100
AcDbDictionary
  3
STANDARD
350
1C
  0
MLINESTYLE
  5
1C
102
{ACAD_REACTORS
330
19
102
}
100
AcDbMlineStyle
  2
STANDARD
 70
     0
  3

 62
     0
 51
90.0
 52
90.0
 71
     2
 49
0.5
 62
   256
  6
BYLAYER
 49
-0.5
 62
   256
  6
BYLAYER
  0
ENDSEC
  0
EOF
