  0
SECTION
  2
HEADER
  9
$ACADVER
  1
AC1014
  9
$ACADMAINTVER
 70
     0
  9
$DWGCODEPAGE
  3
ANSI_932
  9
$INSBASE
 10
-127.496361
 20
-543.840623
 30
0.0
  9
$EXTMIN
 10
-104.351665
 20
-514.756606
 30
0.0
  9
$EXTMAX
 10
119.035901
 20
-367.314911
 30
0.0
  9
$LIMMIN
 10
-587.250952
 20
327.890188
  9
$LIMMAX
 10
600.749048
 20
957.890188
  9
$ORTHOMODE
 70
     0
  9
$REGENMODE
 70
     1
  9
$FILLMODE
 70
     1
  9
$QTEXTMODE
 70
     0
  9
$MIRRTEXT
 70
     1
  9
$DRAGMODE
 70
     2
  9
$LTSCALE
 40
5.0
  9
$OSMODE
 70
   109
  9
$ATTMODE
 70
     1
  9
$TEXTSIZE
 40
4.0
  9
$TRACEWID
 40
0.05
  9
$TEXTSTYLE
  7
STANDARD
  9
$CLAYER
  8
外形
  9
$CELTYPE
  6
CONTINUOUS
  9
$CECOLOR
 62
   256
  9
$CELTSCALE
 40
1.0
  9
$DELOBJ
 70
     1
  9
$DISPSILH
 70
     0
  9
$DIMSCALE
 40
1.0
  9
$DIMASZ
 40
2.0
  9
$DIMEXO
 40
1.0
  9
$DIMDLI
 40
8.0
  9
$DIMRND
 40
0.0
  9
$DIMDLE
 40
0.0
  9
$DIMEXE
 40
1.5
  9
$DIMTP
 40
0.0
  9
$DIMTM
 40
0.0
  9
$DIMTXT
 40
3.0
  9
$DIMCEN
 40
-1.0
  9
$DIMTSZ
 40
0.0
  9
$DIMTOL
 70
     0
  9
$DIMLIM
 70
     0
  9
$DIMTIH
 70
     0
  9
$DIMTOH
 70
     0
  9
$DIMSE1
 70
     0
  9
$DIMSE2
 70
     0
  9
$DIMTAD
 70
     1
  9
$DIMZIN
 70
     8
  9
$DIMBLK
  1

  9
$DIMASO
 70
     1
  9
$DIMSHO
 70
     1
  9
$DIMPOST
  1

  9
$DIMAPOST
  1

  9
$DIMALT
 70
     0
  9
$DIMALTD
 70
     2
  9
$DIMALTF
 40
25.4
  9
$DIMLFAC
 40
1.0
  9
$DIMTOFL
 70
     1
  9
$DIMTVP
 40
0.0
  9
$DIMTIX
 70
     0
  9
$DIMSOXD
 70
     0
  9
$DIMSAH
 70
     1
  9
$DIMBLK1
  1
_OPEN30
  9
$DIMBLK2
  1
_OPEN30
  9
$DIMSTYLE
  2
STANDARD
  9
$DIMCLRD
 70
     1
  9
$DIMCLRE
 70
     1
  9
$DIMCLRT
 70
     3
  9
$DIMTFAC
 40
1.0
  9
$DIMGAP
 40
1.0
  9
$DIMJUST
 70
     0
  9
$DIMSD1
 70
     0
  9
$DIMSD2
 70
     0
  9
$DIMTOLJ
 70
     1
  9
$DIMTZIN
 70
     8
  9
$DIMALTZ
 70
     0
  9
$DIMALTTZ
 70
     0
  9
$DIMFIT
 70
     3
  9
$DIMUPT
 70
     0
  9
$DIMUNIT
 70
     2
  9
$DIMDEC
 70
     3
  9
$DIMTDEC
 70
     4
  9
$DIMALTU
 70
     2
  9
$DIMALTTD
 70
     2
  9
$DIMTXSTY
  7
STANDARD
  9
$DIMAUNIT
 70
     0
  9
$LUNITS
 70
     2
  9
$LUPREC
 70
     4
  9
$SKETCHINC
 40
0.1
  9
$FILLETRAD
 40
0.8
  9
$AUNITS
 70
     0
  9
$AUPREC
 70
     0
  9
$MENU
  1
acad
  9
$ELEVATION
 40
0.0
  9
$PELEVATION
 40
0.0
  9
$THICKNESS
 40
0.0
  9
$LIMCHECK
 70
     0
  9
$BLIPMODE
 70
     0
  9
$CHAMFERA
 40
0.0
  9
$CHAMFERB
 40
0.0
  9
$CHAMFERC
 40
0.0
  9
$CHAMFERD
 40
0.0
  9
$SKPOLY
 70
     0
  9
$TDCREATE
 40
2450751.535399305
  9
$TDUPDATE
 40
2451930.524189815
  9
$TDINDWG
 40
0.9385799769
  9
$TDUSRTIMER
 40
0.9385799769
  9
$USRTIMER
 70
     1
  9
$ANGBASE
 50
0.0
  9
$ANGDIR
 70
     0
  9
$PDMODE
 70
     0
  9
$PDSIZE
 40
0.0
  9
$PLINEWID
 40
0.0
  9
$COORDS
 70
     1
  9
$SPLFRAME
 70
     0
  9
$SPLINETYPE
 70
     5
  9
$SPLINESEGS
 70
     8
  9
$ATTDIA
 70
     0
  9
$ATTREQ
 70
     1
  9
$HANDLING
 70
     1
  9
$HANDSEED
  5
3D6
  9
$SURFTAB1
 70
     6
  9
$SURFTAB2
 70
     6
  9
$SURFTYPE
 70
     6
  9
$SURFU
 70
     6
  9
$SURFV
 70
     6
  9
$UCSNAME
  2

  9
$UCSORG
 10
0.0
 20
0.0
 30
0.0
  9
$UCSXDIR
 10
1.0
 20
0.0
 30
0.0
  9
$UCSYDIR
 10
0.0
 20
1.0
 30
0.0
  9
$PUCSNAME
  2

  9
$PUCSORG
 10
0.0
 20
0.0
 30
0.0
  9
$PUCSXDIR
 10
1.0
 20
0.0
 30
0.0
  9
$PUCSYDIR
 10
0.0
 20
1.0
 30
0.0
  9
$USERI1
 70
     0
  9
$USERI2
 70
     0
  9
$USERI3
 70
     0
  9
$USERI4
 70
     0
  9
$USERI5
 70
     0
  9
$USERR1
 40
0.0
  9
$USERR2
 40
0.0
  9
$USERR3
 40
0.0
  9
$USERR4
 40
0.0
  9
$USERR5
 40
0.0
  9
$WORLDVIEW
 70
     1
  9
$SHADEDGE
 70
     3
  9
$SHADEDIF
 70
    70
  9
$TILEMODE
 70
     1
  9
$MAXACTVP
 70
    16
  9
$PINSBASE
 10
0.0
 20
0.0
 30
0.0
  9
$PLIMCHECK
 70
     0
  9
$PEXTMIN
 10
1.000000E+20
 20
1.000000E+20
 30
1.000000E+20
  9
$PEXTMAX
 10
-1.000000E+20
 20
-1.000000E+20
 30
-1.000000E+20
  9
$PLIMMIN
 10
0.0
 20
0.0
  9
$PLIMMAX
 10
12.0
 20
9.0
  9
$UNITMODE
 70
     0
  9
$VISRETAIN
 70
     0
  9
$PLINEGEN
 70
     0
  9
$PSLTSCALE
 70
     1
  9
$TREEDEPTH
 70
  3020
  9
$PICKSTYLE
 70
     1
  9
$CMLSTYLE
  2
STANDARD
  9
$CMLJUST
 70
     0
  9
$CMLSCALE
 40
1.0
  9
$PROXYGRAPHICS
 70
     1
  9
$MEASUREMENT
 70
     0
  0
ENDSEC
  0
SECTION
  2
CLASSES
  0
CLASS
  1
LWPOLYLINE
  2
AcDbPolyline
  3
"AutoCAD"
 90
        0
280
     0
281
     1
  0
ENDSEC
  0
SECTION
  2
TABLES
  0
TABLE
  2
VPORT
  5
12
100
AcDbSymbolTable
 70
     1
  0
VPORT
  5
3D1
100
AcDbSymbolTableRecord
100
AcDbViewportTableRecord
  2
*ACTIVE
 70
     0
 10
0.0
 20
0.0
 11
1.0
 21
1.0
 12
6.08343
 22
-442.872648
 13
0.0
 23
0.0
 14
0.05
 24
0.05
 15
10.0
 25
10.0
 16
0.0
 26
0.0
 36
1.0
 17
0.0
 27
0.0
 37
0.0
 40
169.471856
 41
1.710425
 42
50.0
 43
0.0
 44
0.0
 50
0.0
 51
0.0
 71
     0
 72
   100
 73
     1
 74
     1
 75
     0
 76
     0
 77
     0
 78
     0
  0
ENDTAB
  0
TABLE
  2
LTYPE
  5
D
100
AcDbSymbolTable
 70
     1
  0
LTYPE
  5
E
100
AcDbSymbolTableRecord
100
AcDbLinetypeTableRecord
  2
BYBLOCK
 70
     0
  3

 72
    65
 73
     0
 40
0.0
  0
LTYPE
  5
F
100
AcDbSymbolTableRecord
100
AcDbLinetypeTableRecord
  2
BYLAYER
 70
     0
  3

 72
    65
 73
     0
 40
0.0
  0
LTYPE
  5
5
100
AcDbSymbolTableRecord
100
AcDbLinetypeTableRecord
  2
CONTINUOUS
 70
     0
  3
Solid line
 72
    65
 73
     0
 40
0.0
  0
ENDTAB
  0
TABLE
  2
LAYER
  5
A
100
AcDbSymbolTable
 70
     4
  0
LAYER
  5
4
100
AcDbSymbolTableRecord
100
AcDbLayerTableRecord
  2
0
 70
     0
 62
     7
  6
CONTINUOUS
  0
LAYER
  5
26
100
AcDbSymbolTableRecord
100
AcDbLayerTableRecord
  2
外形
 70
     0
 62
     3
  6
CONTINUOUS
  0
LAYER
  5
33
100
AcDbSymbolTableRecord
100
AcDbLayerTableRecord
  2
DEFPOINTS
 70
     0
 62
     7
  6
CONTINUOUS
  0
LAYER
  5
1B
100
AcDbSymbolTableRecord
100
AcDbLayerTableRecord
  2
寸法
 70
     0
 62
     1
  6
CONTINUOUS
  0
ENDTAB
  0
TABLE
  2
STYLE
  5
B
100
AcDbSymbolTable
 70
     1
  0
STYLE
  5
C
100
AcDbSymbolTableRecord
100
AcDbTextStyleTableRecord
  2
STANDARD
 70
     0
 40
0.0
 41
1.0
 50
0.0
 71
     0
 42
4.0
  3
MONOTXT
  4
BIGFONT
  0
ENDTAB
  0
TABLE
  2
VIEW
  5
10
100
AcDbSymbolTable
 70
     0
  0
ENDTAB
  0
TABLE
  2
UCS
  5
11
100
AcDbSymbolTable
 70
     0
  0
ENDTAB
  0
TABLE
  2
APPID
  5
14
100
AcDbSymbolTable
 70
     1
  0
APPID
  5
15
100
AcDbSymbolTableRecord
100
AcDbRegAppTableRecord
  2
ACAD
 70
     0
  0
ENDTAB
  0
TABLE
  2
DIMSTYLE
  5
16
100
AcDbSymbolTable
 70
     1
  0
DIMSTYLE
105
1D
102
{ACAD_REACTORS
330
1A1
330
1A5
330
1AE
330
1B2
330
1B3
330
1B8
330
1B9
330
1D9
330
1EE
102
}
100
AcDbSymbolTableRecord
100
AcDbDimStyleTableRecord
  2
STANDARD
 70
     0
  3

  4

  5

  6
_OPEN30
  7
_OPEN30
 40
1.0
 41
2.0
 42
1.0
 43
8.0
 44
1.5
 45
0.0
 46
0.0
 47
0.0
 48
0.0
140
3.0
141
-1.0
142
0.0
143
25.4
144
1.0
145
0.0
146
1.0
147
1.0
 71
     0
 72
     0
 73
     0
 74
     0
 75
     0
 76
     0
 77
     1
 78
     8
170
     0
171
     2
172
     1
173
     1
174
     0
175
     0
176
     1
177
     1
178
     3
270
     2
271
     3
272
     4
273
     2
274
     2
340
C
275
     0
280
     0
281
     0
282
     0
283
     1
284
     8
285
     0
286
     0
287
     3
288
     0
  0
ENDTAB
  0
TABLE
  2
BLOCK_RECORD
  5
1
100
AcDbSymbolTable
 70
    20
  0
BLOCK_RECORD
  5
2
100
AcDbSymbolTableRecord
100
AcDbBlockTableRecord
  2
*MODEL_SPACE
  0
BLOCK_RECORD
  5
7
100
AcDbSymbolTableRecord
100
AcDbBlockTableRecord
  2
*PAPER_SPACE
  0
BLOCK_RECORD
  5
1E
100
AcDbSymbolTableRecord
100
AcDbBlockTableRecord
  2
_DOTSMALL
  0
BLOCK_RECORD
  5
D2
100
AcDbSymbolTableRecord
100
AcDbBlockTableRecord
  2
*D1
  0
BLOCK_RECORD
  5
EA
100
AcDbSymbolTableRecord
100
AcDbBlockTableRecord
  2
_OPEN
  0
BLOCK_RECORD
  5
F0
100
AcDbSymbolTableRecord
100
AcDbBlockTableRecord
  2
*D4
  0
BLOCK_RECORD
  5
FC
100
AcDbSymbolTableRecord
100
AcDbBlockTableRecord
  2
*D5
  0
BLOCK_RECORD
  5
108
100
AcDbSymbolTableRecord
100
AcDbBlockTableRecord
  2
*D6
  0
BLOCK_RECORD
  5
114
100
AcDbSymbolTableRecord
100
AcDbBlockTableRecord
  2
*D7
  0
BLOCK_RECORD
  5
124
100
AcDbSymbolTableRecord
100
AcDbBlockTableRecord
  2
*D8
  0
BLOCK_RECORD
  5
130
100
AcDbSymbolTableRecord
100
AcDbBlockTableRecord
  2
*D9
  0
BLOCK_RECORD
  5
13E
100
AcDbSymbolTableRecord
100
AcDbBlockTableRecord
  2
*D10
  0
BLOCK_RECORD
  5
166
100
AcDbSymbolTableRecord
100
AcDbBlockTableRecord
  2
*D13
  0
BLOCK_RECORD
  5
35A
100
AcDbSymbolTableRecord
100
AcDbBlockTableRecord
  2
_OPEN30
  0
ENDTAB
  0
ENDSEC
  0
SECTION
  2
BLOCKS
  0
BLOCK
  5
3
100
AcDbEntity
  8
0
100
AcDbBlockBegin
  2
*MODEL_SPACE
 70
     0
 10
0.0
 20
0.0
 30
0.0
  3
*MODEL_SPACE
  1

  0
ENDBLK
  5
6
100
AcDbEntity
  8
0
100
AcDbBlockEnd
  0
BLOCK
  5
8
100
AcDbEntity
 67
     1
  8
0
100
AcDbBlockBegin
  2
*PAPER_SPACE
 70
     0
 10
0.0
 20
0.0
 30
0.0
  3
*PAPER_SPACE
  1

  0
ENDBLK
  5
9
100
AcDbEntity
 67
     1
  8
0
100
AcDbBlockEnd
  0
BLOCK
  5
23
100
AcDbEntity
  8
0
100
AcDbBlockBegin
  2
_DOTSMALL
 70
     0
 10
0.0
 20
0.0
 30
0.0
  3
_DOTSMALL
  1

  0
POLYLINE
  5
1F
100
AcDbEntity
  8
0
  6
BYBLOCK
 62
     0
100
AcDb2dPolyline
 66
     1
 10
0.0
 20
0.0
 30
0.0
 70
     1
 40
0.5
 41
0.5
  0
VERTEX
  5
20
100
AcDbEntity
  8
0
  6
BYBLOCK
 62
     0
100
AcDbVertex
100
AcDb2dVertex
 10
-0.0625
 20
0.0
 30
0.0
 42
1.0
  0
VERTEX
  5
21
100
AcDbEntity
  8
0
  6
BYBLOCK
 62
     0
100
AcDbVertex
100
AcDb2dVertex
 10
0.0625
 20
0.0
 30
0.0
 42
1.0
  0
SEQEND
  5
22
100
AcDbEntity
  8
0
  6
BYBLOCK
 62
     0
  0
ENDBLK
  5
24
100
AcDbEntity
  8
0
100
AcDbBlockEnd
  0
BLOCK
  5
376
100
AcDbEntity
  8
0
100
AcDbBlockBegin
  2
*D1
 70
     1
 10
0.0
 20
0.0
 30
0.0
  3
*D1
  1

  0
LINE
  5
377
100
AcDbEntity
  8
0
  6
BYBLOCK
 62
     1
100
AcDbLine
 10
108.013526
 20
-489.883445
 30
0.0
 11
119.035901
 21
-489.883445
 31
0.0
  0
LINE
  5
378
100
AcDbEntity
  8
0
  6
BYBLOCK
 62
     1
100
AcDbLine
 10
108.013526
 20
-464.883445
 30
0.0
 11
119.035901
 21
-464.883445
 31
0.0
  0
LINE
  5
379
100
AcDbEntity
  8
0
  6
BYBLOCK
 62
     1
100
AcDbLine
 10
117.535901
 20
-487.883445
 30
0.0
 11
117.535901
 21
-466.883445
 31
0.0
  0
INSERT
  5
37A
100
AcDbEntity
  8
0
  6
BYBLOCK
 62
     1
100
AcDbBlockReference
  2
_OPEN30
 10
117.535901
 20
-489.883445
 30
0.0
 41
2.0
 42
2.0
 43
2.0
 50
270.0
  0
INSERT
  5
37B
100
AcDbEntity
  8
0
  6
BYBLOCK
 62
     1
100
AcDbBlockReference
  2
_OPEN30
 10
117.535901
 20
-464.883445
 30
0.0
 41
2.0
 42
2.0
 43
2.0
 50
90.0
  0
MTEXT
  5
37C
100
AcDbEntity
  8
0
  6
BYBLOCK
 62
     3
100
AcDbMText
 10
115.035901
 20
-477.383445
 30
0.0
 40
3.0
 41
0.0
 71
     5
 72
     1
  1
\A1;25
 11
0.0
 21
1.0
 31
0.0
  0
POINT
  5
37D
100
AcDbEntity
  8
DEFPOINTS
  6
BYBLOCK
 62
     0
100
AcDbPoint
 10
107.013526
 20
-489.883445
 30
0.0
  0
POINT
  5
37E
100
AcDbEntity
  8
DEFPOINTS
  6
BYBLOCK
 62
     0
100
AcDbPoint
 10
107.013526
 20
-464.883445
 30
0.0
  0
POINT
  5
37F
100
AcDbEntity
  8
DEFPOINTS
  6
BYBLOCK
 62
     0
100
AcDbPoint
 10
117.535901
 20
-464.883445
 30
0.0
  0
ENDBLK
  5
380
100
AcDbEntity
  8
0
100
AcDbBlockEnd
  0
BLOCK
  5
EE
100
AcDbEntity
  8
0
100
AcDbBlockBegin
  2
_OPEN
 70
     0
 10
0.0
 20
0.0
 30
0.0
  3
_OPEN
  1

  0
LINE
  5
EB
100
AcDbEntity
  8
0
  6
BYBLOCK
 62
     0
100
AcDbLine
 10
-1.0
 20
0.166667
 30
0.0
 11
0.0
 21
0.0
 31
0.0
  0
LINE
  5
EC
100
AcDbEntity
  8
0
  6
BYBLOCK
 62
     0
100
AcDbLine
 10
0.0
 20
0.0
 30
0.0
 11
-1.0
 21
-0.166667
 31
0.0
  0
LINE
  5
ED
100
AcDbEntity
  8
0
  6
BYBLOCK
 62
     0
100
AcDbLine
 10
0.0
 20
0.0
 30
0.0
 11
-1.0
 21
0.0
 31
0.0
  0
ENDBLK
  5
EF
100
AcDbEntity
  8
0
100
AcDbBlockEnd
  0
BLOCK
  5
360
100
AcDbEntity
  8
0
100
AcDbBlockBegin
  2
*D4
 70
     1
 10
0.0
 20
0.0
 30
0.0
  3
*D4
  1

  0
LINE
  5
361
100
AcDbEntity
  8
0
  6
BYBLOCK
 62
     1
100
AcDbLine
 10
-17.986474
 20
-463.883445
 30
0.0
 11
-17.986474
 21
-453.62195
 31
0.0
  0
LINE
  5
362
100
AcDbEntity
  8
0
  6
BYBLOCK
 62
     1
100
AcDbLine
 10
-42.986474
 20
-463.883445
 30
0.0
 11
-42.986474
 21
-453.62195
 31
0.0
  0
LINE
  5
363
100
AcDbEntity
  8
0
  6
BYBLOCK
 62
     1
100
AcDbLine
 10
-19.986474
 20
-455.12195
 30
0.0
 11
-40.986474
 21
-455.12195
 31
0.0
  0
INSERT
  5
364
100
AcDbEntity
  8
0
  6
BYBLOCK
 62
     1
100
AcDbBlockReference
  2
_OPEN30
 10
-17.986474
 20
-455.12195
 30
0.0
 41
2.0
 42
2.0
 43
2.0
  0
INSERT
  5
365
100
AcDbEntity
  8
0
  6
BYBLOCK
 62
     1
100
AcDbBlockReference
  2
_OPEN30
 10
-42.986474
 20
-455.12195
 30
0.0
 41
2.0
 42
2.0
 43
2.0
 50
180.0
  0
MTEXT
  5
366
100
AcDbEntity
  8
0
  6
BYBLOCK
 62
     3
100
AcDbMText
 10
-30.486474
 20
-452.62195
 30
0.0
 40
3.0
 41
0.0
 71
     5
 72
     1
  1
\A1;25
  0
POINT
  5
367
100
AcDbEntity
  8
DEFPOINTS
  6
BYBLOCK
 62
     0
100
AcDbPoint
 10
-17.986474
 20
-464.883445
 30
0.0
  0
POINT
  5
368
100
AcDbEntity
  8
DEFPOINTS
  6
BYBLOCK
 62
     0
100
AcDbPoint
 10
-42.986474
 20
-464.883445
 30
0.0
  0
POINT
  5
369
100
AcDbEntity
  8
DEFPOINTS
  6
BYBLOCK
 62
     0
100
AcDbPoint
 10
-42.986474
 20
-455.12195
 30
0.0
  0
ENDBLK
  5
36A
100
AcDbEntity
  8
0
100
AcDbBlockEnd
  0
BLOCK
  5
36B
100
AcDbEntity
  8
0
100
AcDbBlockBegin
  2
*D5
 70
     1
 10
0.0
 20
0.0
 30
0.0
  3
*D5
  1

  0
LINE
  5
36C
100
AcDbEntity
  8
0
  6
BYBLOCK
 62
     1
100
AcDbLine
 10
-43.986474
 20
-464.883445
 30
0.0
 11
-51.866251
 21
-464.883445
 31
0.0
  0
LINE
  5
36D
100
AcDbEntity
  8
0
  6
BYBLOCK
 62
     1
100
AcDbLine
 10
-42.796474
 20
-489.883445
 30
0.0
 11
-51.866251
 21
-489.883445
 31
0.0
  0
LINE
  5
36E
100
AcDbEntity
  8
0
  6
BYBLOCK
 62
     1
100
AcDbLine
 10
-50.366251
 20
-466.883445
 30
0.0
 11
-50.366251
 21
-487.883445
 31
0.0
  0
INSERT
  5
36F
100
AcDbEntity
  8
0
  6
BYBLOCK
 62
     1
100
AcDbBlockReference
  2
_OPEN30
 10
-50.366251
 20
-464.883445
 30
0.0
 41
2.0
 42
2.0
 43
2.0
 50
90.0
  0
INSERT
  5
370
100
AcDbEntity
  8
0
  6
BYBLOCK
 62
     1
100
AcDbBlockReference
  2
_OPEN30
 10
-50.366251
 20
-489.883445
 30
0.0
 41
2.0
 42
2.0
 43
2.0
 50
270.0
  0
MTEXT
  5
371
100
AcDbEntity
  8
0
  6
BYBLOCK
 62
     3
100
AcDbMText
 10
-52.866251
 20
-477.383445
 30
0.0
 40
3.0
 41
0.0
 71
     5
 72
     1
  1
\A1;25
 11
0.0
 21
1.0
 31
0.0
  0
POINT
  5
372
100
AcDbEntity
  8
DEFPOINTS
  6
BYBLOCK
 62
     0
100
AcDbPoint
 10
-42.986474
 20
-464.883445
 30
0.0
  0
POINT
  5
373
100
AcDbEntity
  8
DEFPOINTS
  6
BYBLOCK
 62
     0
100
AcDbPoint
 10
-41.796474
 20
-489.883445
 30
0.0
  0
POINT
  5
374
100
AcDbEntity
  8
DEFPOINTS
  6
BYBLOCK
 62
     0
100
AcDbPoint
 10
-50.366251
 20
-489.883445
 30
0.0
  0
ENDBLK
  5
375
100
AcDbEntity
  8
0
100
AcDbBlockEnd
  0
BLOCK
  5
381
100
AcDbEntity
  8
0
100
AcDbBlockBegin
  2
*D6
 70
     1
 10
0.0
 20
0.0
 30
0.0
  3
*D6
  1

  0
LINE
  5
382
100
AcDbEntity
  8
0
  6
BYBLOCK
 62
     1
100
AcDbLine
 10
-42.986474
 20
-420.519647
 30
0.0
 11
-42.986474
 21
-444.921789
 31
0.0
  0
LINE
  5
383
100
AcDbEntity
  8
0
  6
BYBLOCK
 62
     1
100
AcDbLine
 10
107.013526
 20
-423.519647
 30
0.0
 11
107.013526
 21
-444.921789
 31
0.0
  0
LINE
  5
384
100
AcDbEntity
  8
0
  6
BYBLOCK
 62
     1
100
AcDbLine
 10
-40.986474
 20
-443.421789
 30
0.0
 11
105.013526
 21
-443.421789
 31
0.0
  0
INSERT
  5
385
100
AcDbEntity
  8
0
  6
BYBLOCK
 62
     1
100
AcDbBlockReference
  2
_OPEN30
 10
-42.986474
 20
-443.421789
 30
0.0
 41
2.0
 42
2.0
 43
2.0
 50
180.0
  0
INSERT
  5
386
100
AcDbEntity
  8
0
  6
BYBLOCK
 62
     1
100
AcDbBlockReference
  2
_OPEN30
 10
107.013526
 20
-443.421789
 30
0.0
 41
2.0
 42
2.0
 43
2.0
  0
MTEXT
  5
387
100
AcDbEntity
  8
0
  6
BYBLOCK
 62
     3
100
AcDbMText
 10
32.013526
 20
-440.921789
 30
0.0
 40
3.0
 41
0.0
 71
     5
 72
     1
  1
\A1;150
  0
POINT
  5
388
100
AcDbEntity
  8
DEFPOINTS
  6
BYBLOCK
 62
     0
100
AcDbPoint
 10
-42.986474
 20
-419.519647
 30
0.0
  0
POINT
  5
389
100
AcDbEntity
  8
DEFPOINTS
  6
BYBLOCK
 62
     0
100
AcDbPoint
 10
107.013526
 20
-422.519647
 30
0.0
  0
POINT
  5
38A
100
AcDbEntity
  8
DEFPOINTS
  6
BYBLOCK
 62
     0
100
AcDbPoint
 10
107.013526
 20
-443.421789
 30
0.0
  0
ENDBLK
  5
38B
100
AcDbEntity
  8
0
100
AcDbBlockEnd
  0
BLOCK
  5
38C
100
AcDbEntity
  8
0
100
AcDbBlockBegin
  2
*D7
 70
     1
 10
0.0
 20
0.0
 30
0.0
  3
*D7
  1

  0
LINE
  5
38D
100
AcDbEntity
  8
0
  6
BYBLOCK
 62
     1
100
AcDbLine
 10
-70.037215
 20
-405.052201
 30
0.0
 11
-78.389264
 21
-416.980164
 31
0.0
  0
LINE
  5
38E
100
AcDbEntity
  8
0
  6
BYBLOCK
 62
     1
100
AcDbLine
 10
-69.963638
 20
-405.099074
 30
0.0
 11
-77.244315
 21
-417.709577
 31
0.0
  0
ARC
  5
38F
100
AcDbEntity
  8
0
  6
BYBLOCK
 62
     1
100
AcDbCircle
 10
-69.463638
 20
-404.233049
 30
0.0
 40
14.061354
100
AcDbArc
 50
218.645744
 51
235.0
  0
LINE
  5
390
100
AcDbEntity
  8
0
  6
BYBLOCK
 62
     1
100
AcDbLine
 10
-80.445867
 20
-413.014411
 30
0.0
 11
-85.816596
 21
-406.297621
 31
0.0
  0
ARC
  5
391
100
AcDbEntity
  8
0
  6
BYBLOCK
 62
     1
100
AcDbCircle
 10
-69.463638
 20
-404.233049
 30
0.0
 40
14.061354
100
AcDbArc
 50
218.687436
 51
226.843718
  0
ARC
  5
392
100
AcDbEntity
  8
0
  6
BYBLOCK
 62
     1
100
AcDbCircle
 10
-69.463638
 20
-404.233049
 30
0.0
 40
14.061354
100
AcDbArc
 50
248.156282
 51
256.312564
  0
ARC
  5
393
100
AcDbEntity
  8
0
  6
BYBLOCK
 62
     1
100
AcDbCircle
 10
-69.463638
 20
-404.233049
 30
0.0
 40
14.061354
100
AcDbArc
 50
235.0
 51
240.0
  0
INSERT
  5
394
100
AcDbEntity
  8
0
  6
BYBLOCK
 62
     1
100
AcDbBlockReference
  2
_OPEN30
 10
-77.5289
 20
-415.751436
 30
0.0
 41
2.0
 42
2.0
 43
2.0
 50
320.921859
  0
INSERT
  5
395
100
AcDbEntity
  8
0
  6
BYBLOCK
 62
     1
100
AcDbBlockReference
  2
_OPEN30
 10
-76.494315
 20
-416.410539
 30
0.0
 41
2.0
 42
2.0
 43
2.0
 50
154.078141
  0
MTEXT
  5
396
100
AcDbEntity
  8
0
  6
BYBLOCK
 62
     3
100
AcDbMText
 10
-81.178676
 20
-408.094758
 30
0.0
 40
3.0
 41
0.0
 71
     5
 72
     1
  1
\A1;5°
 11
0.624503
 21
-0.781022
 31
0.0
  0
POINT
  5
397
100
AcDbEntity
  8
DEFPOINTS
  6
BYBLOCK
 62
     0
100
AcDbPoint
 10
-76.84552
 20
-416.200902
 30
0.0
  0
POINT
  5
398
100
AcDbEntity
  8
DEFPOINTS
  6
BYBLOCK
 62
     0
100
AcDbPoint
 10
-59.565081
 20
-390.096445
 30
0.0
  0
POINT
  5
399
100
AcDbEntity
  8
DEFPOINTS
  6
BYBLOCK
 62
     0
100
AcDbPoint
 10
-60.834835
 20
-389.287522
 30
0.0
  0
POINT
  5
39A
100
AcDbEntity
  8
DEFPOINTS
  6
BYBLOCK
 62
     0
100
AcDbPoint
 10
-69.463638
 20
-404.233049
 30
0.0
  0
POINT
  5
39B
100
AcDbEntity
  8
DEFPOINTS
  6
BYBLOCK
 62
     0
100
AcDbPoint
 10
-69.463638
 20
-404.233049
 30
0.0
  0
ENDBLK
  5
39C
100
AcDbEntity
  8
0
100
AcDbBlockEnd
  0
BLOCK
  5
39D
100
AcDbEntity
  8
0
100
AcDbBlockBegin
  2
*D8
 70
     1
 10
0.0
 20
0.0
 30
0.0
  3
*D8
  1

  0
LINE
  5
39E
100
AcDbEntity
  8
0
  6
BYBLOCK
 62
     1
100
AcDbLine
 10
-25.700318
 20
-397.519647
 30
0.0
 11
-53.742312
 21
-397.519647
 31
0.0
  0
LINE
  5
39F
100
AcDbEntity
  8
0
  6
BYBLOCK
 62
     1
100
AcDbLine
 10
-43.986474
 20
-419.519647
 30
0.0
 11
-53.742312
 21
-419.519647
 31
0.0
  0
LINE
  5
3A0
100
AcDbEntity
  8
0
  6
BYBLOCK
 62
     1
100
AcDbLine
 10
-52.242312
 20
-399.519647
 30
0.0
 11
-52.242312
 21
-417.519647
 31
0.0
  0
INSERT
  5
3A1
100
AcDbEntity
  8
0
  6
BYBLOCK
 62
     1
100
AcDbBlockReference
  2
_OPEN30
 10
-52.242312
 20
-397.519647
 30
0.0
 41
2.0
 42
2.0
 43
2.0
 50
90.0
  0
INSERT
  5
3A2
100
AcDbEntity
  8
0
  6
BYBLOCK
 62
     1
100
AcDbBlockReference
  2
_OPEN30
 10
-52.242312
 20
-419.519647
 30
0.0
 41
2.0
 42
2.0
 43
2.0
 50
270.0
  0
MTEXT
  5
3A3
100
AcDbEntity
  8
0
  6
BYBLOCK
 62
     3
100
AcDbMText
 10
-54.742312
 20
-408.519647
 30
0.0
 40
3.0
 41
0.0
 71
     5
 72
     1
  1
\A1;22
 11
0.0
 21
1.0
 31
0.0
  0
POINT
  5
3A4
100
AcDbEntity
  8
DEFPOINTS
  6
BYBLOCK
 62
     0
100
AcDbPoint
 10
-24.700318
 20
-397.519647
 30
0.0
  0
POINT
  5
3A5
100
AcDbEntity
  8
DEFPOINTS
  6
BYBLOCK
 62
     0
100
AcDbPoint
 10
-42.986474
 20
-419.519647
 30
0.0
  0
POINT
  5
3A6
100
AcDbEntity
  8
DEFPOINTS
  6
BYBLOCK
 62
     0
100
AcDbPoint
 10
-52.242312
 20
-419.519647
 30
0.0
  0
ENDBLK
  5
3A7
100
AcDbEntity
  8
0
100
AcDbBlockEnd
  0
BLOCK
  5
3A8
100
AcDbEntity
  8
0
100
AcDbBlockBegin
  2
*D9
 70
     1
 10
0.0
 20
0.0
 30
0.0
  3
*D9
  1

  0
LINE
  5
3A9
100
AcDbEntity
  8
0
  6
BYBLOCK
 62
     1
100
AcDbLine
 10
-42.986474
 20
-420.519647
 30
0.0
 11
-42.986474
 21
-438.914668
 31
0.0
  0
LINE
  5
3AA
100
AcDbEntity
  8
0
  6
BYBLOCK
 62
     1
100
AcDbLine
 10
-41.720911
 20
-420.250319
 30
0.0
 11
-26.189892
 21
-429.217158
 31
0.0
  0
ARC
  5
3AB
100
AcDbEntity
  8
0
  6
BYBLOCK
 62
     1
100
AcDbCircle
 10
-42.986474
 20
-419.519647
 30
0.0
 40
17.895022
100
AcDbArc
 50
276.406881
 51
323.593119
  0
INSERT
  5
3AC
100
AcDbEntity
  8
0
  6
BYBLOCK
 62
     1
100
AcDbBlockReference
  2
_OPEN30
 10
-42.986474
 20
-437.414668
 30
0.0
 41
2.0
 42
2.0
 43
2.0
 50
183.203441
  0
INSERT
  5
3AD
100
AcDbEntity
  8
0
  6
BYBLOCK
 62
     1
100
AcDbBlockReference
  2
_OPEN30
 10
-27.48893
 20
-428.467158
 30
0.0
 41
2.0
 42
2.0
 43
2.0
 50
56.796559
  0
MTEXT
  5
3AE
100
AcDbEntity
  8
0
  6
BYBLOCK
 62
     3
100
AcDbMText
 10
-33.929789
 20
-431.96887
 30
0.0
 40
3.0
 41
0.0
 71
     5
 72
     1
  1
\A1;60°
 11
0.808653
 21
0.588287
 31
0.0
  0
POINT
  5
3AF
100
AcDbEntity
  8
DEFPOINTS
  6
BYBLOCK
 62
     0
100
AcDbPoint
 10
-36.866016
 20
-436.335467
 30
0.0
  0
POINT
  5
3B0
100
AcDbEntity
  8
DEFPOINTS
  6
BYBLOCK
 62
     0
100
AcDbPoint
 10
-42.986474
 20
-419.519647
 30
0.0
  0
POINT
  5
3B1
100
AcDbEntity
  8
DEFPOINTS
  6
BYBLOCK
 62
     0
100
AcDbPoint
 10
-42.986474
 20
-419.084709
 30
0.0
  0
POINT
  5
3B2
100
AcDbEntity
  8
DEFPOINTS
  6
BYBLOCK
 62
     0
100
AcDbPoint
 10
-42.986474
 20
-419.519647
 30
0.0
  0
POINT
  5
3B3
100
AcDbEntity
  8
DEFPOINTS
  6
BYBLOCK
 62
     0
100
AcDbPoint
 10
-42.586937
 20
-419.750319
 30
0.0
  0
ENDBLK
  5
3B4
100
AcDbEntity
  8
0
100
AcDbBlockEnd
  0
BLOCK
  5
3B5
100
AcDbEntity
  8
0
100
AcDbBlockBegin
  2
*D10
 70
     1
 10
0.0
 20
0.0
 30
0.0
  3
*D10
  1

  0
LINE
  5
3B6
100
AcDbEntity
  8
0
  6
BYBLOCK
 62
     1
100
AcDbLine
 10
108.013526
 20
-422.519647
 30
0.0
 11
117.611499
 21
-422.519647
 31
0.0
  0
LINE
  5
3B7
100
AcDbEntity
  8
0
  6
BYBLOCK
 62
     1
100
AcDbLine
 10
108.013526
 20
-397.519647
 30
0.0
 11
117.611499
 21
-397.519647
 31
0.0
  0
LINE
  5
3B8
100
AcDbEntity
  8
0
  6
BYBLOCK
 62
     1
100
AcDbLine
 10
116.111499
 20
-420.519647
 30
0.0
 11
116.111499
 21
-399.519647
 31
0.0
  0
INSERT
  5
3B9
100
AcDbEntity
  8
0
  6
BYBLOCK
 62
     1
100
AcDbBlockReference
  2
_OPEN30
 10
116.111499
 20
-422.519647
 30
0.0
 41
2.0
 42
2.0
 43
2.0
 50
270.0
  0
INSERT
  5
3BA
100
AcDbEntity
  8
0
  6
BYBLOCK
 62
     1
100
AcDbBlockReference
  2
_OPEN30
 10
116.111499
 20
-397.519647
 30
0.0
 41
2.0
 42
2.0
 43
2.0
 50
90.0
  0
MTEXT
  5
3BB
100
AcDbEntity
  8
0
  6
BYBLOCK
 62
     3
100
AcDbMText
 10
113.611499
 20
-410.019647
 30
0.0
 40
3.0
 41
0.0
 71
     5
 72
     1
  1
\A1;25
 11
0.0
 21
1.0
 31
0.0
  0
POINT
  5
3BC
100
AcDbEntity
  8
DEFPOINTS
  6
BYBLOCK
 62
     0
100
AcDbPoint
 10
107.013526
 20
-422.519647
 30
0.0
  0
POINT
  5
3BD
100
AcDbEntity
  8
DEFPOINTS
  6
BYBLOCK
 62
     0
100
AcDbPoint
 10
107.013526
 20
-397.519647
 30
0.0
  0
POINT
  5
3BE
100
AcDbEntity
  8
DEFPOINTS
  6
BYBLOCK
 62
     0
100
AcDbPoint
 10
116.111499
 20
-397.519647
 30
0.0
  0
ENDBLK
  5
3BF
100
AcDbEntity
  8
0
100
AcDbBlockEnd
  0
BLOCK
  5
3C0
100
AcDbEntity
  8
0
100
AcDbBlockBegin
  2
*D13
 70
     1
 10
0.0
 20
0.0
 30
0.0
  3
*D13
  1

  0
LINE
  5
3C1
100
AcDbEntity
  8
0
  6
BYBLOCK
 62
     1
100
AcDbLine
 10
-87.846104
 20
-463.620584
 30
0.0
 11
-103.579555
 21
-454.536872
 31
0.0
  0
LINE
  5
3C2
100
AcDbEntity
  8
0
  6
BYBLOCK
 62
     1
100
AcDbLine
 10
-87.886387
 20
-463.697966
 30
0.0
 11
-104.351665
 21
-456.02008
 31
0.0
  0
ARC
  5
3C3
100
AcDbEntity
  8
0
  6
BYBLOCK
 62
     1
100
AcDbCircle
 10
-86.980079
 20
-464.120584
 30
0.0
 40
17.667424
100
AcDbArc
 50
137.00006
 51
150.0
  0
LINE
  5
3C4
100
AcDbEntity
  8
0
  6
BYBLOCK
 62
     1
100
AcDbLine
 10
-99.901228
 20
-452.071443
 30
0.0
 11
-94.036049
 21
-445.781795
 31
0.0
  0
ARC
  5
3C5
100
AcDbEntity
  8
0
  6
BYBLOCK
 62
     1
100
AcDbCircle
 10
-86.980079
 20
-464.120584
 30
0.0
 40
17.667424
100
AcDbArc
 50
137.020991
 51
143.510495
  0
ARC
  5
3C6
100
AcDbEntity
  8
0
  6
BYBLOCK
 62
     1
100
AcDbCircle
 10
-86.980079
 20
-464.120584
 30
0.0
 40
17.667424
100
AcDbArc
 50
161.489505
 51
167.979009
  0
ARC
  5
3C7
100
AcDbEntity
  8
0
  6
BYBLOCK
 62
     1
100
AcDbCircle
 10
-86.980079
 20
-464.120584
 30
0.0
 40
17.667424
100
AcDbArc
 50
150.0
 51
155.0
  0
INSERT
  5
3C8
100
AcDbEntity
  8
0
  6
BYBLOCK
 62
     1
100
AcDbBlockReference
  2
_OPEN30
 10
-102.280517
 20
-455.286872
 30
0.0
 41
2.0
 42
2.0
 43
2.0
 50
236.755248
  0
INSERT
  5
3C9
100
AcDbEntity
  8
0
  6
BYBLOCK
 62
     1
100
AcDbBlockReference
  2
_OPEN30
 10
-102.992203
 20
-456.654008
 30
0.0
 41
2.0
 42
2.0
 43
2.0
 50
68.244752
  0
MTEXT
  5
3CA
100
AcDbEntity
  8
0
  6
BYBLOCK
 62
     3
100
AcDbMText
 10
-98.797024
 20
-447.221625
 30
0.0
 40
3.0
 41
0.0
 71
     5
 72
     1
  1
\A1;5°
 11
0.681998
 21
0.731354
 31
0.0
  0
POINT
  5
3CB
100
AcDbEntity
  8
DEFPOINTS
  6
BYBLOCK
 62
     0
100
AcDbPoint
 10
-102.768266
 20
-456.191458
 30
0.0
  0
POINT
  5
3CC
100
AcDbEntity
  8
DEFPOINTS
  6
BYBLOCK
 62
     0
100
AcDbPoint
 10
-86.980079
 20
-464.120584
 30
0.0
  0
POINT
  5
3CD
100
AcDbEntity
  8
DEFPOINTS
  6
BYBLOCK
 62
     0
100
AcDbPoint
 10
-86.980079
 20
-464.120584
 30
0.0
  0
POINT
  5
3CE
100
AcDbEntity
  8
DEFPOINTS
  6
BYBLOCK
 62
     0
100
AcDbPoint
 10
-44.14344
 20
-488.852329
 30
0.0
  0
POINT
  5
3CF
100
AcDbEntity
  8
DEFPOINTS
  6
BYBLOCK
 62
     0
100
AcDbPoint
 10
-65.065129
 20
-474.339693
 30
0.0
  0
ENDBLK
  5
3D0
100
AcDbEntity
  8
0
100
AcDbBlockEnd
  0
BLOCK
  5
35B
100
AcDbEntity
  8
0
100
AcDbBlockBegin
  2
_OPEN30
 70
     0
 10
0.0
 20
0.0
 30
0.0
  3
_OPEN30
  1

  0
LINE
  5
35C
100
AcDbEntity
  8
0
  6
BYBLOCK
 62
     0
100
AcDbLine
 10
-1.0
 20
0.267949
 30
0.0
 11
0.0
 21
0.0
 31
0.0
  0
LINE
  5
35D
100
AcDbEntity
  8
0
  6
BYBLOCK
 62
     0
100
AcDbLine
 10
0.0
 20
0.0
 30
0.0
 11
-1.0
 21
-0.267949
 31
0.0
  0
LINE
  5
35E
100
AcDbEntity
  8
0
  6
BYBLOCK
 62
     0
100
AcDbLine
 10
0.0
 20
0.0
 30
0.0
 11
-1.0
 21
0.0
 31
0.0
  0
ENDBLK
  5
35F
100
AcDbEntity
  8
0
100
AcDbBlockEnd
  0
ENDSEC
  0
SECTION
  2
ENTITIES
  0
TEXT
  5
38
100
AcDbEntity
  8
外形
  6
CONTINUOUS
 62
     2
100
AcDbText
 10
-33.677168
 20
-514.756606
 30
0.0
 40
6.0
  1
ＰTTN R2525-33
100
AcDbText
  0
DIMENSION
  5
1A1
100
AcDbEntity
  8
寸法
  6
CONTINUOUS
100
AcDbDimension
  2
*D4
 10
-42.986474
 20
-455.12195
 30
0.0
 11
-30.486474
 21
-452.62195
 31
0.0
 70
    32
  3
STANDARD
100
AcDbAlignedDimension
 13
-17.986474
 23
-464.883445
 33
0.0
 14
-42.986474
 24
-464.883445
 34
0.0
100
AcDbRotatedDimension
1001
ACAD
1000
DSTYLE
1002
{
1070
    40
1040
1.0
1070
   271
1070
     3
1002
}
  0
LINE
  5
1A2
100
AcDbEntity
  8
外形
  6
CONTINUOUS
100
AcDbLine
 10
-17.362535
 20
-464.883445
 30
0.0
 11
107.013526
 21
-464.883445
 31
0.0
  0
LINE
  5
1A3
100
AcDbEntity
  8
外形
  6
CONTINUOUS
100
AcDbLine
 10
-41.796474
 20
-489.883445
 30
0.0
 11
107.013526
 21
-489.883445
 31
0.0
  0
LINE
  5
1A4
100
AcDbEntity
  8
外形
  6
CONTINUOUS
100
AcDbLine
 10
-17.986474
 20
-464.883445
 30
0.0
 11
-17.986474
 21
-489.883445
 31
0.0
  0
DIMENSION
  5
1A5
100
AcDbEntity
  8
寸法
  6
CONTINUOUS
100
AcDbDimension
  2
*D5
 10
-50.366251
 20
-489.883445
 30
0.0
 11
-52.866251
 21
-477.383445
 31
0.0
 70
    32
  3
STANDARD
100
AcDbAlignedDimension
 13
-42.986474
 23
-464.883445
 33
0.0
 14
-41.796474
 24
-489.883445
 34
0.0
 50
90.0
100
AcDbRotatedDimension
1001
ACAD
1000
DSTYLE
1002
{
1070
    40
1040
1.0
1070
   271
1070
     3
1002
}
  0
LINE
  5
1A6
100
AcDbEntity
  8
外形
  6
CONTINUOUS
100
AcDbLine
 10
-41.796474
 20
-472.256248
 30
0.0
 11
-41.796474
 21
-489.883445
 31
0.0
  0
LINE
  5
1A7
100
AcDbEntity
  8
外形
  6
CONTINUOUS
100
AcDbLine
 10
-18.724857
 20
-462.127761
 30
0.0
 11
-18.724857
 21
-489.883445
 31
0.0
  0
LINE
  5
1A8
100
AcDbEntity
  8
外形
  6
CONTINUOUS
100
AcDbLine
 10
-42.986474
 20
-464.883445
 30
0.0
 11
-18.724857
 21
-462.127761
 31
0.0
  0
LINE
  5
1A9
100
AcDbEntity
  8
外形
  6
CONTINUOUS
100
AcDbLine
 10
-42.449277
 20
-469.613035
 30
0.0
 11
-28.96224
 21
-468.08115
 31
0.0
  0
LINE
  5
1AA
100
AcDbEntity
  8
外形
  6
CONTINUOUS
100
AcDbLine
 10
-42.132145
 20
-472.294374
 30
0.0
 11
-28.669948
 21
-470.765311
 31
0.0
  0
LINE
  5
1AB
100
AcDbEntity
  8
外形
  6
CONTINUOUS
100
AcDbLine
 10
-42.986474
 20
-464.883445
 30
0.0
 11
-42.449277
 21
-469.613035
 31
0.0
  0
LINE
  5
1AC
100
AcDbEntity
  8
外形
  6
CONTINUOUS
100
AcDbLine
 10
-29.499437
 20
-463.35156
 30
0.0
 11
-28.96224
 21
-468.08115
 31
0.0
  0
LINE
  5
1AD
100
AcDbEntity
  8
外形
  6
CONTINUOUS
100
AcDbLine
 10
-18.724857
 20
-462.127761
 30
0.0
 11
-17.986474
 21
-464.883445
 31
0.0
  0
DIMENSION
  5
1AE
100
AcDbEntity
  8
寸法
  6
CONTINUOUS
100
AcDbDimension
  2
*D1
 10
117.535901
 20
-464.883445
 30
0.0
 11
115.035901
 21
-477.383445
 31
0.0
 70
    32
  3
STANDARD
100
AcDbAlignedDimension
 13
107.013526
 23
-489.883445
 33
0.0
 14
107.013526
 24
-464.883445
 34
0.0
 50
90.0
100
AcDbRotatedDimension
1001
ACAD
1000
DSTYLE
1002
{
1070
    40
1040
1.0
1070
   271
1070
     3
1002
}
  0
LINE
  5
1AF
100
AcDbEntity
  8
外形
  6
CONTINUOUS
100
AcDbLine
 10
107.013526
 20
-464.883445
 30
0.0
 11
107.013526
 21
-489.883445
 31
0.0
  0
LINE
  5
1B1
100
AcDbEntity
  8
外形
  6
CONTINUOUS
100
AcDbLine
 10
-18.786937
 20
-422.519647
 30
0.0
 11
107.013526
 21
-422.519647
 31
0.0
  0
DIMENSION
  5
1B2
100
AcDbEntity
  8
寸法
  6
CONTINUOUS
100
AcDbDimension
  2
*D6
 10
107.013526
 20
-443.421789
 30
0.0
 11
32.013526
 21
-440.921789
 31
0.0
 70
    32
  3
STANDARD
100
AcDbAlignedDimension
 13
-42.986474
 23
-419.519647
 33
0.0
 14
107.013526
 24
-422.519647
 34
0.0
 50
360.0
100
AcDbRotatedDimension
1001
ACAD
1000
DSTYLE
1002
{
1070
    40
1040
1.0
1070
   271
1070
     3
1002
}
  0
DIMENSION
  5
1B3
100
AcDbEntity
  8
寸法
  6
CONTINUOUS
100
AcDbDimension
  2
*D7
 10
-69.463638
 20
-404.233049
 30
0.0
 11
-81.178676
 21
-408.094758
 31
0.0
 70
    34
  3
STANDARD
100
AcDb2LineAngularDimension
 13
-60.834835
 23
-389.287522
 33
0.0
 14
-69.463638
 24
-404.233049
 34
0.0
 15
-59.565081
 25
-390.096445
 35
0.0
 16
-76.84552
 26
-416.200902
 36
0.0
1001
ACAD
1000
DSTYLE
1002
{
1070
    40
1040
1.0
1070
   271
1070
     3
1002
}
  0
LINE
  5
1B4
100
AcDbEntity
  8
外形
  6
CONTINUOUS
100
AcDbLine
 10
-33.360572
 20
-402.519647
 30
0.0
 11
-24.700318
 21
-397.519647
 31
0.0
  0
LINE
  5
1B5
100
AcDbEntity
  8
外形
  6
CONTINUOUS
100
AcDbLine
 10
-18.786937
 20
-397.519647
 30
0.0
 11
-18.786937
 21
-422.519647
 31
0.0
  0
LINE
  5
1B6
100
AcDbEntity
  8
外形
  6
CONTINUOUS
100
AcDbLine
 10
-18.786937
 20
-422.519647
 30
0.0
 11
-19.508258
 21
-397.519647
 31
0.0
  0
LINE
  5
1B7
100
AcDbEntity
  8
寸法
  6
CONTINUOUS
100
AcDbLine
 10
-69.463638
 20
-404.233049
 30
0.0
 11
-43.279757
 21
-419.350319
 31
0.0
  0
DIMENSION
  5
1B8
100
AcDbEntity
  8
寸法
  6
CONTINUOUS
100
AcDbDimension
  2
*D8
 10
-52.242312
 20
-419.519647
 30
0.0
 11
-52.242312
 21
-408.519647
 31
0.0
 70
   160
  3
STANDARD
100
AcDbAlignedDimension
 13
-24.700318
 23
-397.519647
 33
0.0
 14
-42.986474
 24
-419.519647
 34
0.0
 50
90.0
100
AcDbRotatedDimension
1001
ACAD
1000
DSTYLE
1002
{
1070
    40
1040
1.0
1070
   271
1070
     3
1002
}
  0
DIMENSION
  5
1B9
100
AcDbEntity
  8
寸法
  6
CONTINUOUS
100
AcDbDimension
  2
*D9
 10
-42.586937
 20
-419.750319
 30
0.0
 11
-32.459072
 21
-433.990501
 31
0.0
 70
   162
  3
STANDARD
100
AcDb2LineAngularDimension
 13
-42.986474
 23
-419.084709
 33
0.0
 14
-42.986474
 24
-419.519647
 34
0.0
 15
-42.986474
 25
-419.519647
 35
0.0
 16
-36.866016
 26
-436.335467
 36
0.0
1001
ACAD
1000
DSTYLE
1002
{
1070
    40
1040
1.0
1002
}
  0
CIRCLE
  5
1BA
100
AcDbEntity
  8
外形
  6
CONTINUOUS
100
AcDbCircle
 10
-34.261937
 20
-419.057499
 30
0.0
 40
1.905
  0
LINE
  5
1BB
100
AcDbEntity
  8
外形
  6
CONTINUOUS
100
AcDbLine
 10
-30.699437
 20
-411.501428
 30
0.0
 11
-42.586937
 21
-418.364679
 31
0.0
  0
LINE
  5
1BC
100
AcDbEntity
  8
外形
  6
CONTINUOUS
100
AcDbLine
 10
-42.586937
 20
-419.750319
 30
0.0
 11
-30.699437
 21
-426.613571
 31
0.0
  0
LINE
  5
1BD
100
AcDbEntity
  8
外形
  6
CONTINUOUS
100
AcDbLine
 10
-42.46959
 20
-418.296929
 30
0.0
 11
-33.360572
 21
-402.519647
 31
0.0
  0
ARC
  5
1C0
100
AcDbEntity
  8
外形
  6
CONTINUOUS
100
AcDbCircle
 10
-42.186937
 20
-419.057499
 30
0.0
 40
0.8
100
AcDbArc
 50
120.0
 51
240.0
  0
LINE
  5
1C1
100
AcDbEntity
  8
外形
  6
CONTINUOUS
100
AcDbLine
 10
-40.128263
 20
-414.241632
 30
0.0
 11
-37.786937
 21
-415.593398
 31
0.0
  0
CIRCLE
  5
1C2
100
AcDbEntity
  8
外形
  6
CONTINUOUS
100
AcDbCircle
 10
-24.862264
 20
-415.644853
 30
0.0
 40
2.4585
  0
CIRCLE
  5
1C3
100
AcDbEntity
  8
外形
  6
CONTINUOUS
100
AcDbCircle
 10
-24.862264
 20
-415.644853
 30
0.0
 40
3.0
  0
LINE
  5
1C4
100
AcDbEntity
  8
外形
  6
CONTINUOUS
100
AcDbLine
 10
-24.862264
 20
-417.088229
 30
0.0
 11
-26.112264
 21
-416.366541
 31
0.0
  0
LINE
  5
1C5
100
AcDbEntity
  8
外形
  6
CONTINUOUS
100
AcDbLine
 10
-23.612264
 20
-416.366541
 30
0.0
 11
-24.862264
 21
-417.088229
 31
0.0
  0
LINE
  5
1C6
100
AcDbEntity
  8
外形
  6
CONTINUOUS
100
AcDbLine
 10
-29.499437
 20
-410.808607
 30
0.0
 11
-29.499437
 21
-425.92075
 31
0.0
  0
LINE
  5
1C7
100
AcDbEntity
  8
外形
  6
CONTINUOUS
100
AcDbLine
 10
-29.499437
 20
-425.557499
 30
0.0
 11
-19.724759
 21
-425.557499
 31
0.0
  0
ARC
  5
1C8
100
AcDbEntity
  8
外形
  6
CONTINUOUS
100
AcDbCircle
 10
-30.299437
 20
-425.92075
 30
0.0
 40
0.8
100
AcDbArc
 50
240.0
 51
0.0
  0
LINE
  5
1C9
100
AcDbEntity
  8
外形
  6
CONTINUOUS
100
AcDbLine
 10
-18.786937
 20
-422.519647
 30
0.0
 11
-19.724759
 21
-425.557499
 31
0.0
  0
LINE
  5
1CA
100
AcDbEntity
  8
外形
  6
CONTINUOUS
100
AcDbLine
 10
-33.499437
 20
-410.808607
 30
0.0
 11
-33.499437
 21
-413.118008
 31
0.0
  0
ARC
  5
1CB
100
AcDbEntity
  8
外形
  6
CONTINUOUS
100
AcDbCircle
 10
-30.299437
 20
-412.194248
 30
0.0
 40
0.8
100
AcDbArc
 50
0.0
 51
120.0
  0
ARC
  5
1CC
100
AcDbEntity
  8
外形
  6
CONTINUOUS
100
AcDbCircle
 10
-31.499437
 20
-410.808607
 30
0.0
 40
2.0
100
AcDbArc
 50
360.0
 51
180.0
  0
LINE
  5
1CD
100
AcDbEntity
  8
外形
  6
CONTINUOUS
100
AcDbLine
 10
-26.112264
 20
-416.366541
 30
0.0
 11
-26.112264
 21
-414.923166
 31
0.0
  0
LINE
  5
1CE
100
AcDbEntity
  8
外形
  6
CONTINUOUS
100
AcDbLine
 10
-23.612264
 20
-416.366541
 30
0.0
 11
-23.612264
 21
-414.923166
 31
0.0
  0
LINE
  5
1CF
100
AcDbEntity
  8
外形
  6
CONTINUOUS
100
AcDbLine
 10
-24.862264
 20
-414.201478
 30
0.0
 11
-23.612264
 21
-414.923166
 31
0.0
  0
LINE
  5
1D0
100
AcDbEntity
  8
外形
  6
CONTINUOUS
100
AcDbLine
 10
-26.112264
 20
-414.923166
 30
0.0
 11
-24.862264
 21
-414.201478
 31
0.0
  0
LINE
  5
1D2
100
AcDbEntity
  8
外形
  6
CONTINUOUS
100
AcDbLine
 10
-53.22951
 20
-381.04831
 30
0.0
 11
-69.463638
 21
-404.233049
 31
0.0
  0
LINE
  5
1D3
100
AcDbEntity
  8
外形
  6
CONTINUOUS
100
AcDbLine
 10
-90.582946
 20
-390.812763
 30
0.0
 11
-75.337025
 21
-399.615001
 31
0.0
  0
LINE
  5
1D5
100
AcDbEntity
  8
外形
  6
CONTINUOUS
100
AcDbLine
 10
-69.921343
 20
-396.587912
 30
0.0
 11
-73.362802
 21
-401.502825
 31
0.0
  0
LINE
  5
1D6
100
AcDbEntity
  8
外形
  6
CONTINUOUS
100
AcDbLine
 10
-66.02218
 20
-399.318136
 30
0.0
 11
-69.921343
 21
-396.587912
 31
0.0
  0
LINE
  5
1D7
100
AcDbEntity
  8
外形
  6
CONTINUOUS
100
AcDbLine
 10
-69.463638
 20
-404.233049
 30
0.0
 11
-73.362802
 21
-401.502825
 31
0.0
  0
LINE
  5
1D8
100
AcDbEntity
  8
外形
  6
CONTINUOUS
100
AcDbLine
 10
-72.140224
 20
-395.049495
 30
0.0
 11
-75.567343
 21
-399.943929
 31
0.0
  0
DIMENSION
  5
1D9
100
AcDbEntity
  8
寸法
  6
CONTINUOUS
100
AcDbDimension
  2
*D10
 10
116.111499
 20
-397.519647
 30
0.0
 11
113.611499
 21
-410.019647
 31
0.0
 70
    32
  3
STANDARD
100
AcDbAlignedDimension
 13
107.013526
 23
-422.519647
 33
0.0
 14
107.013526
 24
-397.519647
 34
0.0
 50
90.0
100
AcDbRotatedDimension
1001
ACAD
1000
DSTYLE
1002
{
1070
    40
1040
1.0
1070
   271
1070
     3
1002
}
  0
LINE
  5
1DA
100
AcDbEntity
  8
外形
  6
CONTINUOUS
100
AcDbLine
 10
107.013526
 20
-397.519647
 30
0.0
 11
107.013526
 21
-422.519647
 31
0.0
  0
LINE
  5
1DF
100
AcDbEntity
  8
寸法
  6
CONTINUOUS
100
AcDbLine
 10
-43.786937
 20
-419.057499
 30
0.0
 11
-43.786937
 21
-421.925067
 31
0.0
  0
LINE
  5
1E0
100
AcDbEntity
  8
寸法
  6
CONTINUOUS
100
AcDbLine
 10
-42.596937
 20
-419.057499
 30
0.0
 11
-42.596937
 21
-421.925067
 31
0.0
  0
LINE
  5
1E3
100
AcDbEntity
  8
外形
  6
CONTINUOUS
100
AcDbLine
 10
-30.403299
 20
-470.962188
 30
0.0
 11
-30.403299
 21
-489.883445
 31
0.0
  0
LINE
  5
1E5
100
AcDbEntity
  8
寸法
  6
CONTINUOUS
100
AcDbLine
 10
-75.624459
 20
-444.452073
 30
0.0
 11
-96.980079
 21
-481.441092
 31
0.0
  0
LINE
  5
1E6
100
AcDbEntity
  8
外形
  6
CONTINUOUS
100
AcDbLine
 10
-90.032383
 20
-470.92847
 30
0.0
 11
-98.821406
 21
-486.151504
 31
0.0
  0
LINE
  5
1E7
100
AcDbEntity
  8
外形
  6
CONTINUOUS
100
AcDbLine
 10
-86.980079
 20
-464.120584
 30
0.0
 11
-65.065129
 21
-474.339693
 31
0.0
  0
LINE
  5
1E8
100
AcDbEntity
  8
外形
  6
CONTINUOUS
100
AcDbLine
 10
-88.991742
 20
-468.434609
 30
0.0
 11
-73.982557
 21
-475.433507
 31
0.0
  0
LINE
  5
1E9
100
AcDbEntity
  8
外形
  6
CONTINUOUS
100
AcDbLine
 10
-90.121482
 20
-470.886923
 30
0.0
 11
-75.134955
 21
-477.875255
 31
0.0
  0
LINE
  5
1EA
100
AcDbEntity
  8
外形
  6
CONTINUOUS
100
AcDbLine
 10
-71.970894
 20
-471.119482
 30
0.0
 11
-73.982557
 21
-475.433507
 31
0.0
  0
LINE
  5
1EB
100
AcDbEntity
  8
外形
  6
CONTINUOUS
100
AcDbLine
 10
-65.065129
 20
-474.339693
 30
0.0
 11
-78.618863
 21
-497.815448
 31
0.0
  0
LINE
  5
1EC
100
AcDbEntity
  8
外形
  6
CONTINUOUS
100
AcDbLine
 10
-88.980413
 20
-468.439892
 30
0.0
 11
-90.121482
 21
-470.886923
 31
0.0
  0
LINE
  5
1ED
100
AcDbEntity
  8
外形
  6
CONTINUOUS
100
AcDbLine
 10
-73.993886
 20
-475.428224
 30
0.0
 11
-75.134955
 21
-477.875255
 31
0.0
  0
DIMENSION
  5
1EE
100
AcDbEntity
  8
寸法
  6
CONTINUOUS
100
AcDbDimension
  2
*D13
 10
-65.065129
 20
-474.339693
 30
0.0
 11
-98.797024
 21
-447.221625
 31
0.0
 70
    34
  3
STANDARD
100
AcDb2LineAngularDimension
 13
-86.980079
 23
-464.120584
 33
0.0
 14
-44.14344
 24
-488.852329
 34
0.0
 15
-86.980079
 25
-464.120584
 35
0.0
 16
-102.768266
 26
-456.191458
 36
0.0
1001
ACAD
1000
DSTYLE
1002
{
1070
    40
1040
1.0
1002
}
  0
LINE
  5
1EF
100
AcDbEntity
  8
外形
  6
CONTINUOUS
100
AcDbLine
 10
-77.222825
 20
-476.901665
 30
0.0
 11
-86.627768
 21
-493.191504
 31
0.0
  0
LINE
  5
1F0
100
AcDbEntity
  8
寸法
  6
CONTINUOUS
100
AcDbLine
 10
-75.624459
 20
-444.452073
 30
0.0
 11
-58.448501
 21
-444.452073
 31
0.0
  0
LINE
  5
1F1
100
AcDbEntity
  8
寸法
  6
CONTINUOUS
100
AcDbLine
 10
-43.279757
 20
-419.350319
 30
0.0
 11
-57.941321
 21
-444.744893
 31
0.0
  0
LINE
  5
1F3
100
AcDbEntity
  8
外形
  6
CONTINUOUS
100
AcDbLine
 10
-98.821406
 20
-486.151504
 30
0.0
 11
-78.618863
 21
-497.815448
 31
0.0
  0
LINE
  5
1F4
100
AcDbEntity
  8
外形
  6
CONTINUOUS
100
AcDbLine
 10
-77.016455
 20
-367.314911
 30
0.0
 11
-90.582946
 21
-390.812763
 31
0.0
  0
LINE
  5
2C1
100
AcDbEntity
  8
外形
  6
CONTINUOUS
100
AcDbLine
 10
-24.700318
 20
-397.519647
 30
0.0
 11
107.013526
 21
-397.519647
 31
0.0
  0
LINE
  5
2E9
100
AcDbEntity
  8
外形
  6
CONTINUOUS
100
AcDbLine
 10
-81.346582
 20
-374.814911
 30
0.0
 11
-58.215802
 21
-388.169473
 31
0.0
  0
LINE
  5
2EA
100
AcDbEntity
  8
外形
  6
CONTINUOUS
100
AcDbLine
 10
-77.016455
 20
-367.314911
 30
0.0
 11
-53.22951
 21
-381.04831
 31
0.0
  0
LINE
  5
2FF
100
AcDbEntity
  8
外形
  6
CONTINUOUS
100
AcDbLine
 10
-86.980079
 20
-464.120584
 30
0.0
 11
-88.991742
 21
-468.434609
 31
0.0
  0
LINE
  5
315
100
AcDbEntity
  8
外形
  6
CONTINUOUS
100
AcDbLine
 10
-42.436857
 20
-469.611624
 30
0.0
 11
-42.132145
 21
-472.294374
 31
0.0
  0
LINE
  5
316
100
AcDbEntity
  8
外形
  6
CONTINUOUS
100
AcDbLine
 10
-28.97466
 20
-468.08256
 30
0.0
 11
-28.669948
 21
-470.765311
 31
0.0
  0
LINE
  5
317
100
AcDbEntity
  8
外形
  6
CONTINUOUS
100
AcDbLine
 10
-73.355632
 20
-401.492585
 30
0.0
 11
-75.567343
 21
-399.943929
 31
0.0
  0
LINE
  5
318
100
AcDbEntity
  8
外形
  6
CONTINUOUS
100
AcDbLine
 10
-69.928513
 20
-396.598152
 30
0.0
 11
-72.140224
 21
-395.049495
 31
0.0
  0
LINE
  5
31F
100
AcDbEntity
  8
寸法
  6
CONTINUOUS
100
AcDbLine
 10
-42.879757
 20
-418.657499
 30
0.0
 11
-43.279757
 21
-419.350319
 31
0.0
  0
ENDSEC
  0
SECTION
  2
OBJECTS
  0
DICTIONARY
  5
1A
100
AcDbDictionary
  3
ACAD_GROUP
350
18
  3
ACAD_MLINESTYLE
350
19
  0
DICTIONARY
  5
18
102
{ACAD_REACTORS
330
1A
102
}
100
AcDbDictionary
  0
DICTIONARY
  5
19
102
{ACAD_REACTORS
330
1A
102
}
100
AcDbDictionary
  3
STANDARD
350
1C
  0
MLINESTYLE
  5
1C
102
{ACAD_REACTORS
330
19
102
}
100
AcDbMlineStyle
  2
STANDARD
 70
     0
  3

 62
     0
 51
90.0
 52
90.0
 71
     2
 49
0.5
 62
   256
  6
BYLAYER
 49
-0.5
 62
   256
  6
BYLAYER
  0
ENDSEC
  0
EOF
