  0
SECTION
  2
HEADER
  9
$ACADVER
  1
AC1015
  9
$ACADMAINTVER
 70
     6
  9
$DWGCODEPAGE
  3
ANSI_932
  9
$INSBASE
 10
0.0
 20
0.0
 30
0.0
  9
$EXTMIN
 10
-58.99999999996771
 20
-55.88898706609704
 30
0.0
  9
$EXTMAX
 10
104.3742441956954
 20
80.45320987615841
 30
0.0
  9
$LIMMIN
 10
0.0
 20
0.0
  9
$LIMMAX
 10
400.0
 20
273.0
  9
$ORTHOMODE
 70
     0
  9
$REGENMODE
 70
     1
  9
$FILLMODE
 70
     1
  9
$QTEXTMODE
 70
     0
  9
$MIRRTEXT
 70
     0
  9
$LTSCALE
 40
1.0
  9
$ATTMODE
 70
     1
  9
$TEXTSIZE
 40
3.0
  9
$TRACEWID
 40
0.5
  9
$TEXTSTYLE
  7
STANDARD
  9
$CLAYER
  8
0
  9
$CELTYPE
  6
ByLayer
  9
$CECOLOR
 62
   256
  9
$CELTSCALE
 40
1.0
  9
$DISPSILH
 70
     0
  9
$DIMSCALE
 40
1.0
  9
$DIMASZ
 40
3.0
  9
$DIMEXO
 40
1.0
  9
$DIMDLI
 40
5.0
  9
$DIMRND
 40
0.0
  9
$DIMDLE
 40
3.0
  9
$DIMEXE
 40
2.0
  9
$DIMTP
 40
0.0
  9
$DIMTM
 40
0.0
  9
$DIMTXT
 40
5.0
  9
$DIMCEN
 40
2.0
  9
$DIMTSZ
 40
0.0
  9
$DIMTOL
 70
     0
  9
$DIMLIM
 70
     0
  9
$DIMTIH
 70
     0
  9
$DIMTOH
 70
     0
  9
$DIMSE1
 70
     0
  9
$DIMSE2
 70
     0
  9
$DIMTAD
 70
     1
  9
$DIMZIN
 70
     8
  9
$DIMBLK
  1

  9
$DIMASO
 70
     1
  9
$DIMSHO
 70
     0
  9
$DIMPOST
  1

  9
$DIMAPOST
  1

  9
$DIMALT
 70
     0
  9
$DIMALTD
 70
     4
  9
$DIMALTF
 40
25.4
  9
$DIMLFAC
 40
1.0
  9
$DIMTOFL
 70
     1
  9
$DIMTVP
 40
1.0
  9
$DIMTIX
 70
     0
  9
$DIMSOXD
 70
     0
  9
$DIMSAH
 70
     0
  9
$DIMBLK1
  1

  9
$DIMBLK2
  1

  9
$DIMSTYLE
  2
Standard
  9
$DIMCLRD
 70
     0
  9
$DIMCLRE
 70
     0
  9
$DIMCLRT
 70
     0
  9
$DIMTFAC
 40
1.0
  9
$DIMGAP
 40
0.09
  9
$DIMJUST
 70
     0
  9
$DIMSD1
 70
     0
  9
$DIMSD2
 70
     0
  9
$DIMTOLJ
 70
     1
  9
$DIMTZIN
 70
     0
  9
$DIMALTZ
 70
     0
  9
$DIMALTTZ
 70
     0
  9
$DIMUPT
 70
     0
  9
$DIMDEC
 70
     4
  9
$DIMTDEC
 70
     4
  9
$DIMALTU
 70
     2
  9
$DIMALTTD
 70
     2
  9
$DIMTXSTY
  7
STANDARD
  9
$DIMAUNIT
 70
     0
  9
$DIMADEC
 70
     0
  9
$DIMALTRND
 40
0.0
  9
$DIMAZIN
 70
     0
  9
$DIMDSEP
 70
    46
  9
$DIMATFIT
 70
     3
  9
$DIMFRAC
 70
     0
  9
$DIMLDRBLK
  1

  9
$DIMLUNIT
 70
     2
  9
$DIMLWD
 70
    -2
  9
$DIMLWE
 70
    -2
  9
$DIMTMOVE
 70
     0
  9
$LUNITS
 70
     2
  9
$LUPREC
 70
     4
  9
$SKETCHINC
 40
1.0
  9
$FILLETRAD
 40
0.0
  9
$AUNITS
 70
     0
  9
$AUPREC
 70
     0
  9
$MENU
  1
acad
  9
$ELEVATION
 40
0.0
  9
$PELEVATION
 40
0.0
  9
$THICKNESS
 40
0.0
  9
$LIMCHECK
 70
     0
  9
$CHAMFERA
 40
0.0
  9
$CHAMFERB
 40
0.0
  9
$CHAMFERC
 40
0.0
  9
$CHAMFERD
 40
0.0
  9
$SKPOLY
 70
     0
  9
$TDCREATE
 40
2453969.539872685
  9
$TDUCREATE
 40
2453969.164872685
  9
$TDUPDATE
 40
2455482.465819942
  9
$TDUUPDATE
 40
2455482.090819942
  9
$TDINDWG
 40
0.0250289352
  9
$TDUSRTIMER
 40
0.0250283912
  9
$USRTIMER
 70
     1
  9
$ANGBASE
 50
0.0
  9
$ANGDIR
 70
     0
  9
$PDMODE
 70
     0
  9
$PDSIZE
 40
0.0
  9
$PLINEWID
 40
0.0
  9
$SPLFRAME
 70
     0
  9
$SPLINETYPE
 70
     6
  9
$SPLINESEGS
 70
    16
  9
$HANDSEED
  5
AB3
  9
$SURFTAB1
 70
     6
  9
$SURFTAB2
 70
     6
  9
$SURFTYPE
 70
     6
  9
$SURFU
 70
     6
  9
$SURFV
 70
     6
  9
$UCSBASE
  2

  9
$UCSNAME
  2

  9
$UCSORG
 10
0.0
 20
0.0
 30
0.0
  9
$UCSXDIR
 10
1.0
 20
0.0
 30
0.0
  9
$UCSYDIR
 10
0.0
 20
1.0
 30
0.0
  9
$UCSORTHOREF
  2

  9
$UCSORTHOVIEW
 70
     0
  9
$UCSORGTOP
 10
0.0
 20
0.0
 30
0.0
  9
$UCSORGBOTTOM
 10
0.0
 20
0.0
 30
0.0
  9
$UCSORGLEFT
 10
0.0
 20
0.0
 30
0.0
  9
$UCSORGRIGHT
 10
0.0
 20
0.0
 30
0.0
  9
$UCSORGFRONT
 10
0.0
 20
0.0
 30
0.0
  9
$UCSORGBACK
 10
0.0
 20
0.0
 30
0.0
  9
$PUCSBASE
  2

  9
$PUCSNAME
  2

  9
$PUCSORG
 10
0.0
 20
0.0
 30
0.0
  9
$PUCSXDIR
 10
1.0
 20
0.0
 30
0.0
  9
$PUCSYDIR
 10
0.0
 20
1.0
 30
0.0
  9
$PUCSORTHOREF
  2

  9
$PUCSORTHOVIEW
 70
     0
  9
$PUCSORGTOP
 10
0.0
 20
0.0
 30
0.0
  9
$PUCSORGBOTTOM
 10
0.0
 20
0.0
 30
0.0
  9
$PUCSORGLEFT
 10
0.0
 20
0.0
 30
0.0
  9
$PUCSORGRIGHT
 10
0.0
 20
0.0
 30
0.0
  9
$PUCSORGFRONT
 10
0.0
 20
0.0
 30
0.0
  9
$PUCSORGBACK
 10
0.0
 20
0.0
 30
0.0
  9
$USERI1
 70
     0
  9
$USERI2
 70
     0
  9
$USERI3
 70
     0
  9
$USERI4
 70
     0
  9
$USERI5
 70
     0
  9
$USERR1
 40
0.0
  9
$USERR2
 40
0.0
  9
$USERR3
 40
0.0
  9
$USERR4
 40
0.0
  9
$USERR5
 40
0.0
  9
$WORLDVIEW
 70
     1
  9
$SHADEDGE
 70
     3
  9
$SHADEDIF
 70
    70
  9
$TILEMODE
 70
     1
  9
$MAXACTVP
 70
    64
  9
$PINSBASE
 10
0.0
 20
0.0
 30
0.0
  9
$PLIMCHECK
 70
     0
  9
$PEXTMIN
 10
1.000000000000000E+20
 20
1.000000000000000E+20
 30
1.000000000000000E+20
  9
$PEXTMAX
 10
-1.000000000000000E+20
 20
-1.000000000000000E+20
 30
-1.000000000000000E+20
  9
$PLIMMIN
 10
0.0
 20
0.0
  9
$PLIMMAX
 10
12.0
 20
9.0
  9
$UNITMODE
 70
     0
  9
$VISRETAIN
 70
     1
  9
$PLINEGEN
 70
     0
  9
$PSLTSCALE
 70
     1
  9
$TREEDEPTH
 70
  3020
  9
$CMLSTYLE
  2
Standard
  9
$CMLJUST
 70
     0
  9
$CMLSCALE
 40
1.0
  9
$PROXYGRAPHICS
 70
     1
  9
$MEASUREMENT
 70
     0
  9
$CELWEIGHT
370
    -1
  9
$ENDCAPS
280
     0
  9
$JOINSTYLE
280
     0
  9
$LWDISPLAY
290
     0
  9
$INSUNITS
 70
     0
  9
$HYPERLINKBASE
  1

  9
$STYLESHEET
  1
sei_cad.ctb
  9
$XEDIT
290
     1
  9
$CEPSNTYPE
380
     0
  9
$PSTYLEMODE
290
     1
  9
$FINGERPRINTGUID
  2
{DD698B87-33E5-41C3-B3EF-C7FE4922F1F6}
  9
$VERSIONGUID
  2
{FF5C4911-1D53-4A3F-9A40-272E7489E711}
  9
$EXTNAMES
290
     1
  9
$PSVPSCALE
 40
0.0
  9
$OLESTARTUP
290
     0
  0
ENDSEC
  0
SECTION
  2
CLASSES
  0
CLASS
  1
ACDBDICTIONARYWDFLT
  2
AcDbDictionaryWithDefault
  3
ObjectDBX Classes
 90
        0
280
     0
281
     0
  0
CLASS
  1
TABLESTYLE
  2
AcDbTableStyle
  3
ObjectDBX Classes
 90
     2047
280
     0
281
     0
  0
CLASS
  1
ACME_DOCUMENT
  2
AcMeDbDoc
  3
AcMeServices
 90
        0
280
     1
281
     0
  0
CLASS
  1
ACMESCOPE
  2
AcMeScope
  3
AcMeServices
 90
        0
280
     1
281
     0
  0
CLASS
  1
ACMECOMMANDHISTORY
  2
AcMeCommandHistory
  3
AcMeServices
 90
        0
280
     1
281
     0
  0
CLASS
  1
ACIMSYSVARMAN
  2
AcImSysVarManager
  3
AcMeServices
 90
        0
280
     1
281
     0
  0
CLASS
  1
ACIMINTSYSVAR
  2
AcImIntSysVar
  3
AcMeServices
 90
        0
280
     1
281
     0
  0
CLASS
  1
ACMEDRAWINGMAN
  2
AcMeDrawingMan
  3
AcMeServices
 90
        0
280
     1
281
     0
  0
CLASS
  1
ACMEVIEW
  2
AcMeView
  3
AcMeServices
 90
        0
280
     1
281
     0
  0
CLASS
  1
ACDBENTITYCACHE
  2
AcMeEntityCache
  3
AcMeServices
 90
        0
280
     1
281
     0
  0
CLASS
  1
GSMANAGER
  2
AcMeGSManager
  3
AcMeServices
 90
        0
280
     1
281
     0
  0
CLASS
  1
AMDTINTERNALREACTOR
  2
AmdtInternalReactor
  3
AcMeServices
 90
        0
280
     1
281
     0
  0
CLASS
  1
ACMESTATEMGR
  2
AcMeStateMgr
  3
AcMeServices
 90
        0
280
     1
281
     0
  0
CLASS
  1
ACGREFMASTER
  2
AcGrefMaster
  3
AcAttribServices
 90
        0
280
     1
281
     0
  0
CLASS
  1
AM_DRAWING_MGR
  2
AcDmDwgMgr
  3
AcMechDwgViewMgmt
 90
        0
280
     1
281
     0
  0
CLASS
  1
AM_DWG_DOCUMENT
  2
AcDmDwgDocument
  3
AcMechDwgViewMgmt
 90
        0
280
     1
281
     0
  0
CLASS
  1
AM_DWG_SHEET
  2
AcDmSheet
  3
AcMechDwgViewMgmt
 90
        0
280
     1
281
     0
  0
CLASS
  1
AM_VIEWDIMPARMAP
  2
AcDmViewDimParMap
  3
AcMechDwgViewMgmt
 90
        0
280
     1
281
     0
  0
CLASS
  1
ACIMREALSYSVAR
  2
AcImRealSysVar
  3
AcMeServices
 90
        0
280
     1
281
     0
  0
CLASS
  1
AM_DWGMGR_NAME
  2
AcDmDwgMgrName
  3
AcMechDwgViewMgmt
 90
        0
280
     1
281
     0
  0
CLASS
  1
ACME_DATABASE
  2
AcMeDbDatabase
  3
AcMeServices
 90
        0
280
     1
281
     0
  0
CLASS
  1
ACRFINSADJUSTERMGR
  2
AcRfInsAdjusterMgr
  3
AcMeServices
 90
        0
280
     1
281
     0
  0
CLASS
  1
ACGREFACADMASTER
  2
AcGrefacadMaster
  3
AcGrefServices
 90
        0
280
     1
281
     0
  0
CLASS
  1
AMDTMENUSTATEMGR
  2
AmdtMenuStateMgr
  3
McadcomServices
 90
        0
280
     1
281
     0
  0
CLASS
  1
AMDTMCOMMENUSTATE
  2
AmdtMcomMenuState
  3
McadcomServices
 90
        0
280
     1
281
     0
  0
CLASS
  1
AMIMASTER
  2
AmiMaster
  3
AmiServices
 90
        0
280
     1
281
     0
  0
CLASS
  1
AMGSETTINGSOBJ
  2
AmgSettingsObj
  3
"AcadM|Product Description: AutoCAD Mechanical 2000|Company: Autodesk"
 90
        0
280
     1
281
     0
  0
CLASS
  1
MAPIAMMOUDLE
  2
MApiAmModule
  3
MApiAmServices
 90
        0
280
     1
281
     0
  0
CLASS
  1
AMDTADMENUSTATE
  2
AmdtAdMenuState
  3
DesignerServices
 90
        0
280
     1
281
     0
  0
CLASS
  1
ADAPPL
  2
AcAdAppl
  3
DesignerServices
 90
        0
280
     1
281
     0
  0
CLASS
  1
DEPMGR
  2
AcAdDepMgr
  3
DesignerServices
 90
        0
280
     1
281
     0
  0
CLASS
  1
PARAMMGR
  2
AcAdParamMgr
  3
DesignerServices
 90
        0
280
     1
281
     0
  0
CLASS
  1
PARAMSCOPE
  2
AcAdParamScope
  3
DesignerServices
 90
        0
280
     1
281
     0
  0
CLASS
  1
NAMEDAPPL
  2
AcAdNamedAppl
  3
DesignerServices
 90
        0
280
     1
281
     0
  0
CLASS
  1
AMDTDMMENUSTATE
  2
AmdtDmMenuState
  3
AcMechDwgViewMgmt
 90
        0
280
     1
281
     0
  0
CLASS
  1
AMDTAMMENUSTATE
  2
AmdtAmMenuState
  3
DesignerAssemblies
 90
        0
280
     1
281
     0
  0
CLASS
  1
ACIMSTRSYSVAR
  2
AcImStrSysVar
  3
AcMeServices
 90
        0
280
     1
281
     0
  0
CLASS
  1
ACAMPROJECT
  2
AcAmProject
  3
DesignerAssemblies
 90
        0
280
     1
281
     0
  0
CLASS
  1
ACAMGRCOMPDEF
  2
AcAmGrCompDef
  3
DesignerAssemblies
 90
        0
280
     1
281
     0
  0
CLASS
  1
ACCMCONTEXT
  2
AcCmContext
  3
DesignerAssemblies
 90
        0
280
     1
281
     0
  0
CLASS
  1
ACAMCOMPDEF
  2
AcAmCompDef
  3
DesignerAssemblies
 90
        0
280
     1
281
     0
  0
CLASS
  1
ACAMCOMPDEFMGR
  2
AcAmCompDefMgr
  3
DesignerAssemblies
 90
        0
280
     1
281
     0
  0
CLASS
  1
AMCONTEXTMGR
  2
AcAmContextMgr
  3
DesignerAssemblies
 90
        0
280
     1
281
     0
  0
CLASS
  1
ACAMCONTEXTMODELER
  2
AcAmContextModeler
  3
DesignerAssemblies
 90
        0
280
     1
281
     0
  0
CLASS
  1
ACMDATADICTIONARY
  2
AcmDataDictionary
  3
"AcmSymBB|Product Description: AutoCAD Mechanical 2004 DX|Company: Autodesk"
 90
        0
280
     1
281
     0
  0
CLASS
  1
CATALOGSTATE
  2
AcAmCatalogState
  3
DesignerAssemblies
 90
        0
280
     1
281
     0
  0
CLASS
  1
ACAMGRCOMPDEFSET
  2
AcAmGrCompDefSet
  3
DesignerAssemblies
 90
        0
280
     1
281
     0
  0
CLASS
  1
AMDTBROWSERDBTAB
  2
AmdtBrowserDbTab
  3
McadcomServices
 90
        0
280
     1
281
     0
  0
CLASS
  1
CBROWSERAPPOBJECT
  2
CBrowserAppObject
  3
McadcomServices
 90
        0
280
     1
281
     0
  0
CLASS
  1
DM_PLACEHOLDER
  2
AcDmSelsetPlaceholder
  3
AcMechDwgViewMgmt
 90
        0
280
     1
281
     0
  0
CLASS
  1
ACMSTANDARDANSI
  2
AcmStandardANSI
  3
"Amdt_StdImp|Product Description: AutoCAD Mechanical 2004 DX|Company: Autodesk"
 90
        0
280
     1
281
     0
  0
CLASS
  1
AMGOBJPROPCFG
  2
AmgObjPropCfg
  3
"AmgLay|Product Description: AutoCAD Mechanical 2000|Company: Autodesk"
 90
        1
280
     1
281
     0
  0
CLASS
  1
ACMSURFSTANDARDANSI
  2
AcmSurfTextStdANSI
  3
"Amdt_StdImp|Product Description: AutoCAD Mechanical 2004 DX|Company: Autodesk"
 90
        0
280
     1
281
     0
  0
CLASS
  1
ACMFCFSTANDARDANSI
  2
AcmFCFStdANSI
  3
"Amdt_StdImp|Product Description: AutoCAD Mechanical 2004 DX|Company: Autodesk"
 90
        0
280
     1
281
     0
  0
CLASS
  1
ACMWELDSTANDARDANSI
  2
AcmWeldingStdANSI
  3
"Amdt_StdImp|Product Description: AutoCAD Mechanical 2004 DX|Company: Autodesk"
 90
        0
280
     1
281
     0
  0
CLASS
  1
ACMIDSTANDARDANSI
  2
AcmIdStdANSI
  3
"Amdt_StdImp|Product Description: AutoCAD Mechanical 2004 DX|Company: Autodesk"
 90
        0
280
     1
281
     0
  0
CLASS
  1
ACMDATUMSTANDARDANSI
  2
AcmDatumStdANSI
  3
"Amdt_StdImp|Product Description: AutoCAD Mechanical 2004 DX|Company: Autodesk"
 90
        0
280
     1
281
     0
  0
CLASS
  1
ACMBOMSTANDARDANSI
  2
AcmBOMStdANSI
  3
"Amdt_StdImp|Product Description: AutoCAD Mechanical 2004 DX|Company: Autodesk"
 90
        0
280
     1
281
     0
  0
CLASS
  1
ACMDETAILSTANDARDANSI
  2
AmdtDetailSymStdANSI
  3
"Amdt_StdImp|Product Description: AutoCAD Mechanical 2004 DX|Company: Autodesk"
 90
        0
280
     1
281
     0
  0
CLASS
  1
ACMSECTIONSTANDARDANSI
  2
AmdtSectionSymStdANSI
  3
"Amdt_StdImp|Product Description: AutoCAD Mechanical 2004 DX|Company: Autodesk"
 90
        0
280
     1
281
     0
  0
CLASS
  1
ACMCENTERLINESTANDARDANSI
  2
AmdtCenterLineStdANSI
  3
"Amdt_StdImp|Product Description: AutoCAD Mechanical 2004 DX|Company: Autodesk"
 90
        0
280
     1
281
     0
  0
CLASS
  1
ACMTHREADLINESTANDARDANSI
  2
AmdtThreadLineStdANSI
  3
"Amdt_StdImp|Product Description: AutoCAD Mechanical 2004 DX|Company: Autodesk"
 90
        0
280
     1
281
     0
  0
CLASS
  1
ACMNOTESTANDARDANSI
  2
AmdtNoteStdANSI
  3
"Amdt_StdImp|Product Description: AutoCAD Mechanical 2004 DX|Company: Autodesk"
 90
        0
280
     1
281
     0
  0
CLASS
  1
AMDTNOTETEMPLATEDB
  2
AmdtNoteTemplateDB
  3
AMDT_STDIMP_MODULE_NAME
 90
        0
280
     1
281
     0
  0
CLASS
  1
ACAMGLAYSTD
  2
AcAmgLayStd
  3
"AcAmgLayStd|Product Description: AutoCAD Mechanical 2000|Company: Autodesk"
 90
        0
280
     1
281
     0
  0
CLASS
  1
ACAMGDIMSTD
  2
AcAmgDimStd
  3
"AcAmgDimStd|Product Description: AutoCAD Mechanical 2000|Company: Autodesk"
 90
        0
280
     1
281
     0
  0
CLASS
  1
ACAMGHOLECHARTSTDANSI
  2
AcAmgHoleChartStdANSI
  3
ACMSYMBB_MODULE_NAME
 90
        0
280
     1
281
     0
  0
CLASS
  1
ACAMGTITLESTD
  2
AcAmgTitleStd
  3
"TITLEAPP"
 90
        0
280
     1
281
     0
  0
CLASS
  1
ACAMGFILTERDAT
  2
AcAmgFilterDat
  3
"AcadM|Product Description: AutoCAD Mechanical 2000|Company: Autodesk"
 90
        0
280
     1
281
     0
  0
CLASS
  1
DICTIONARYVAR
  2
AcDbDictionaryVar
  3
ObjectDBX Classes
 90
        0
280
     0
281
     0
  0
CLASS
  1
ACMDATAENTRYBLOCK
  2
AcmDataEntryBlock
  3
"AcmSymBB|Product Description: AutoCAD Mechanical 2004 DX|Company: Autodesk"
 90
        0
280
     1
281
     0
  0
CLASS
  1
AMDTNOTE
  2
AmdtNote
  3
"AcmSymBB|Product Description: AutoCAD Mechanical 2004 DX|Company: Autodesk"
 90
     1023
280
     1
281
     1
  0
CLASS
  1
ACMSTANDARDJIS
  2
AcmStandardJIS
  3
"Amdt_StdImp|Product Description: AutoCAD Mechanical 2004 DX|Company: Autodesk"
 90
        0
280
     1
281
     0
  0
CLASS
  1
ACMSURFSTANDARDJIS
  2
AcmSurfTextStdJIS
  3
"Amdt_StdImp|Product Description: AutoCAD Mechanical 2004 DX|Company: Autodesk"
 90
        0
280
     1
281
     0
  0
CLASS
  1
ACMFCFSTANDARDJIS98
  2
AcmFCFStdJIS98
  3
"Amdt_StdImp|Product Description: AutoCAD Mechanical 2004 DX|Company: Autodesk"
 90
        0
280
     1
281
     0
  0
CLASS
  1
ACMWELDSTANDARDJIS
  2
AcmWeldingStdJIS
  3
"Amdt_StdImp|Product Description: AutoCAD Mechanical 2004 DX|Company: Autodesk"
 90
        0
280
     1
281
     0
  0
CLASS
  1
ACMIDSTANDARDJIS
  2
AcmIdStdJIS
  3
"Amdt_StdImp|Product Description: AutoCAD Mechanical 2004 DX|Company: Autodesk"
 90
        0
280
     1
281
     0
  0
CLASS
  1
ACMDATUMSTANDARDJIS
  2
AcmDatumStdJIS
  3
"Amdt_StdImp|Product Description: AutoCAD Mechanical 2004 DX|Company: Autodesk"
 90
        0
280
     1
281
     0
  0
CLASS
  1
ACMBOMSTANDARDJIS
  2
AcmBOMStdJIS
  3
"Amdt_StdImp|Product Description: AutoCAD Mechanical 2004 DX|Company: Autodesk"
 90
        0
280
     1
281
     0
  0
CLASS
  1
ACMDETAILSTANDARDJIS
  2
AmdtDetailSymStdJIS
  3
"Amdt_StdImp|Product Description: AutoCAD Mechanical 2004 DX|Company: Autodesk"
 90
        0
280
     1
281
     0
  0
CLASS
  1
ACMSECTIONSTANDARDJIS
  2
AmdtSectionSymStdJIS
  3
"Amdt_StdImp|Product Description: AutoCAD Mechanical 2004 DX|Company: Autodesk"
 90
        0
280
     1
281
     0
  0
CLASS
  1
ACMCENTERLINESTANDARDJIS
  2
AmdtCenterLineStdJIS
  3
"Amdt_StdImp|Product Description: AutoCAD Mechanical 2004 DX|Company: Autodesk"
 90
        0
280
     1
281
     0
  0
CLASS
  1
ACMTHREADLINESTANDARDJIS
  2
AmdtThreadLineStdJIS
  3
"Amdt_StdImp|Product Description: AutoCAD Mechanical 2004 DX|Company: Autodesk"
 90
        0
280
     1
281
     0
  0
CLASS
  1
ACMNOTESTANDARDJIS
  2
AmdtNoteStdJIS
  3
"Amdt_StdImp|Product Description: AutoCAD Mechanical 2004 DX|Company: Autodesk"
 90
        0
280
     1
281
     0
  0
CLASS
  1
ACAMGHOLECHARTSTDJIS
  2
AcAmgHoleChartStdJIS
  3
ACMSYMBB_MODULE_NAME
 90
        0
280
     1
281
     0
  0
CLASS
  1
ACDBPLACEHOLDER
  2
AcDbPlaceHolder
  3
ObjectDBX Classes
 90
        0
280
     0
281
     0
  0
CLASS
  1
LAYOUT
  2
AcDbLayout
  3
ObjectDBX Classes
 90
        0
280
     0
281
     0
  0
ENDSEC
  0
SECTION
  2
TABLES
  0
TABLE
  2
VPORT
  5
8
330
0
100
AcDbSymbolTable
 70
     3
  0
VPORT
  5
AAD
330
8
100
AcDbSymbolTableRecord
100
AcDbViewportTableRecord
  2
*Active
 70
     0
 10
0.0
 20
0.0
 11
1.0
 21
1.0
 12
29.46748314933801
 22
12.46809113380817
 13
0.0
 23
0.0
 14
0.5
 24
0.5
 15
0.0
 25
0.0
 16
0.0
 26
0.0
 36
1.0
 17
0.0
 27
0.0
 37
0.0
 40
137.4405787677721
 41
1.610603290676417
 42
50.0
 43
0.0
 44
0.0
 50
0.0
 51
0.0
 71
     0
 72
 10000
 73
     1
 74
     1
 75
     0
 76
     0
 77
     0
 78
     0
281
     0
 65
     0
110
0.0
120
0.0
130
0.0
111
1.0
121
0.0
131
0.0
112
0.0
122
1.0
132
0.0
 79
     0
146
0.0
  0
ENDTAB
  0
TABLE
  2
LTYPE
  5
5
330
0
100
AcDbSymbolTable
 70
    15
  0
LTYPE
  5
13
330
5
100
AcDbSymbolTableRecord
100
AcDbLinetypeTableRecord
  2
ByBlock
 70
     0
  3

 72
    65
 73
     0
 40
0.0
  0
LTYPE
  5
14
330
5
100
AcDbSymbolTableRecord
100
AcDbLinetypeTableRecord
  2
ByLayer
 70
     0
  3

 72
    65
 73
     0
 40
0.0
  0
LTYPE
  5
15
330
5
100
AcDbSymbolTableRecord
100
AcDbLinetypeTableRecord
  2
CONTINUOUS
 70
     0
  3
solid line
 72
    65
 73
     0
 40
0.0
  0
LTYPE
  5
27
330
5
100
AcDbSymbolTableRecord
100
AcDbLinetypeTableRecord
  2
CENTER
 70
     0
  3
--- - --- - --- - --- - --- - 
 72
    65
 73
     4
 40
6.0
 49
3.0
 74
     0
 49
-1.0
 74
     0
 49
1.0
 74
     0
 49
-1.0
 74
     0
  0
LTYPE
  5
28
330
5
100
AcDbSymbolTableRecord
100
AcDbLinetypeTableRecord
  2
PHANTOM
 70
     0
  3
----- - - ----- - - ----- - - 
 72
    65
 73
     6
 40
8.0
 49
3.0
 74
     0
 49
-1.0
 74
     0
 49
1.0
 74
     0
 49
-1.0
 74
     0
 49
1.0
 74
     0
 49
-1.0
 74
     0
  0
LTYPE
  5
370
330
5
100
AcDbSymbolTableRecord
100
AcDbLinetypeTableRecord
  2
HIDDEN
 70
     0
  3
Hidden __ __ __ __ __ __ __ __ __ __ __ __ __ _
 72
    65
 73
     2
 40
0.375
 49
0.25
 74
     0
 49
-0.125
 74
     0
  0
LTYPE
  5
371
330
5
100
AcDbSymbolTableRecord
100
AcDbLinetypeTableRecord
  2
PHANTOM2
 70
     0
  3
Phantom (.5x) ___ _ _ ___ _ _ ___ _ _ ___ _ _
 72
    65
 73
     6
 40
1.25
 49
0.625
 74
     0
 49
-0.125
 74
     0
 49
0.125
 74
     0
 49
-0.125
 74
     0
 49
0.125
 74
     0
 49
-0.125
 74
     0
  0
LTYPE
  5
3AA
330
5
100
AcDbSymbolTableRecord
100
AcDbLinetypeTableRecord
  2
AM_ISO08W050
 70
     0
  3
____ . ____ . ____ . ____ . ____ . ____ . ____
 72
    65
 73
     4
 40
18.0
 49
12.0
 74
     0
 49
-1.5
 74
     0
 49
3.0
 74
     0
 49
-1.5
 74
     0
  0
LTYPE
  5
3AC
330
5
100
AcDbSymbolTableRecord
100
AcDbLinetypeTableRecord
  2
Amconstr
 70
     0
  3
_______________________
 72
    65
 73
     2
 40
9999.0
 49
9999.0
 74
     0
 49
0.0
 74
     0
  0
LTYPE
  5
3B2
330
5
100
AcDbSymbolTableRecord
100
AcDbLinetypeTableRecord
  2
CENTER2
 70
     0
  3
Center (.5x) ___ _ ___ _ ___ _ ___ _ ___ _ ___
 72
    65
 73
     4
 40
1.125
 49
0.75
 74
     0
 49
-0.125
 74
     0
 49
0.125
 74
     0
 49
-0.125
 74
     0
  0
LTYPE
  5
3B3
330
5
100
AcDbSymbolTableRecord
100
AcDbLinetypeTableRecord
  2
HIDDEN2
 70
     0
  3
Hidden (.5x) _ _ _ _ _ _ _ _ _ _ _ _ _ _ _ _ _
 72
    65
 73
     2
 40
0.1875
 49
0.125
 74
     0
 49
-0.0625
 74
     0
  0
LTYPE
  5
3B4
330
5
100
AcDbSymbolTableRecord
100
AcDbLinetypeTableRecord
  2
Amzigzag2
 70
     0
  3
/\/-/\/-/\/-/\/-/\/-/\/
 72
    65
 73
     2
 40
0.4401
 49
0.0001
 74
     4
 75
   135
340
3B0
 46
0.0016
 50
0.0
 44
0.0
 45
0.0
 49
-0.44
 74
     0
  0
LTYPE
  5
3C2
330
5
100
AcDbSymbolTableRecord
100
AcDbLinetypeTableRecord
  2
ACANSTGB
 70
     0
  3
__ . . __ . .
 72
    65
 73
     6
 40
0.35433070866
 49
0.15748031496
 74
     0
 49
-0.03937007874
 74
     0
 49
0.03937007874
 74
     0
 49
-0.03937007874
 74
     0
 49
0.03937007874
 74
     0
 49
-0.03937007874
 74
     0
  0
LTYPE
  5
3C3
330
5
100
AcDbSymbolTableRecord
100
AcDbLinetypeTableRecord
  2
ACANSTGL
 70
     0
  3
_ _ _ _ _
 72
    65
 73
     2
 40
0.11811023622
 49
0.07874015748
 74
     0
 49
-0.03937007874
 74
     0
  0
LTYPE
  5
706
330
5
100
AcDbSymbolTableRecord
100
AcDbLinetypeTableRecord
  2
ACJISWELD
 70
     0
  3
_ _ _ _ _
 72
    65
 73
     2
 40
2.0
 49
2.0
 74
     0
 49
-1.0
 74
     0
  0
LTYPE
  5
707
330
5
100
AcDbSymbolTableRecord
100
AcDbLinetypeTableRecord
  2
ACJISTGB
 70
     0
  3
__ . . __ . .
 72
    65
 73
     6
 40
9.0
 49
4.0
 74
     0
 49
-1.0
 74
     0
 49
1.0
 74
     0
 49
-1.0
 74
     0
 49
1.0
 74
     0
 49
-1.0
 74
     0
  0
LTYPE
  5
708
330
5
100
AcDbSymbolTableRecord
100
AcDbLinetypeTableRecord
  2
ACJISTGL
 70
     0
  3
_ _ _ _ _
 72
    65
 73
     2
 40
3.0
 49
2.0
 74
     0
 49
-1.0
 74
     0
  0
ENDTAB
  0
TABLE
  2
LAYER
  5
2
102
{ACAD_XDICTIONARY
360
717
102
}
330
0
100
AcDbSymbolTable
 70
     7
  0
LAYER
  5
10
330
2
100
AcDbSymbolTableRecord
100
AcDbLayerTableRecord
  2
0
 70
     0
 62
     7
  6
CONTINUOUS
370
    -3
390
F
  0
LAYER
  5
29
330
2
100
AcDbSymbolTableRecord
100
AcDbLayerTableRecord
  2
1
 70
     0
 62
     7
  6
CONTINUOUS
370
    -3
390
F
  0
LAYER
  5
2A
330
2
100
AcDbSymbolTableRecord
100
AcDbLayerTableRecord
  2
2
 70
     0
 62
     7
  6
CONTINUOUS
370
    -3
390
F
  0
LAYER
  5
2C
330
2
100
AcDbSymbolTableRecord
100
AcDbLayerTableRecord
  2
6
 70
     0
 62
     7
  6
CONTINUOUS
370
    -3
390
F
  0
LAYER
  5
30
330
2
100
AcDbSymbolTableRecord
100
AcDbLayerTableRecord
  2
DEFPOINTS
 70
     0
 62
    -7
  6
CONTINUOUS
290
     0
370
    -3
390
F
  0
LAYER
  5
40C
330
2
100
AcDbSymbolTableRecord
100
AcDbLayerTableRecord
  2
AM_5
 70
     0
 62
     3
  6
CONTINUOUS
370
    15
390
F
  0
LAYER
  5
70A
330
2
100
AcDbSymbolTableRecord
100
AcDbLayerTableRecord
  2
AM_6
 70
     0
 62
     2
  6
CONTINUOUS
370
    30
390
F
  0
ENDTAB
  0
TABLE
  2
STYLE
  5
3
330
0
100
AcDbSymbolTable
 70
     6
  0
STYLE
  5
11
330
3
100
AcDbSymbolTableRecord
100
AcDbTextStyleTableRecord
  2
STANDARD
 70
     0
 40
0.0
 41
1.0
 50
0.0
 71
     0
 42
3.0
  3
txt
  4

  0
STYLE
  5
3B0
330
3
100
AcDbSymbolTableRecord
100
AcDbTextStyleTableRecord
  2

 70
     1
 40
0.0
 41
1.0
 50
0.0
 71
     0
 42
3.0
  3
ltypeshp.shx
  4

  0
STYLE
  5
3B5
330
3
100
AcDbSymbolTableRecord
100
AcDbTextStyleTableRecord
  2
ACANSTS
 70
     0
 40
1.0
 41
1.0
 50
0.0
 71
     0
 42
3.0
  3
romans.shx
  4
extfont.shx
  0
STYLE
  5
3C1
330
3
100
AcDbSymbolTableRecord
100
AcDbTextStyleTableRecord
  2
ACANSGDT
 70
     0
 40
0.0
 41
1.0
 50
0.0
 71
     0
 42
3.0
  3
amgdtans.shx
  4

  0
STYLE
  5
70C
330
3
100
AcDbSymbolTableRecord
100
AcDbTextStyleTableRecord
  2
ACJISTS
 70
     0
 40
1.0
 41
1.0
 50
0.0
 71
     0
 42
1.0
  3
isocp.shx
  4
extfont.shx
  0
STYLE
  5
70D
330
3
100
AcDbSymbolTableRecord
100
AcDbTextStyleTableRecord
  2
ACJISGDT
 70
     0
 40
0.0
 41
1.0
 50
0.0
 71
     0
 42
1.0
  3
amgdt.shx
  4

  0
ENDTAB
  0
TABLE
  2
VIEW
  5
6
330
0
100
AcDbSymbolTable
 70
     0
  0
ENDTAB
  0
TABLE
  2
UCS
  5
7
330
0
100
AcDbSymbolTable
 70
     0
  0
ENDTAB
  0
TABLE
  2
APPID
  5
9
330
0
100
AcDbSymbolTable
 70
    10
  0
APPID
  5
12
330
9
100
AcDbSymbolTableRecord
100
AcDbRegAppTableRecord
  2
ACAD
 70
     0
  0
APPID
  5
343
330
9
100
AcDbSymbolTableRecord
100
AcDbRegAppTableRecord
  2
MCAD_NO_VIS
 70
     0
  0
APPID
  5
344
330
9
100
AcDbSymbolTableRecord
100
AcDbRegAppTableRecord
  2
ACAD_TEMP_GRAPHIC
 70
     0
  0
APPID
  5
373
330
9
100
AcDbSymbolTableRecord
100
AcDbRegAppTableRecord
  2
AD_DRAW
 70
     0
  0
APPID
  5
376
330
9
100
AcDbSymbolTableRecord
100
AcDbRegAppTableRecord
  2
ACATTRIBSERVICES
 70
     0
  0
APPID
  5
398
330
9
100
AcDbSymbolTableRecord
100
AcDbRegAppTableRecord
  2
DESIGNERASSEMBLIES
 70
     0
  0
APPID
  5
39E
330
9
100
AcDbSymbolTableRecord
100
AcDbRegAppTableRecord
  2
ACADM_DIM_EDIT
 70
     0
  0
APPID
  5
39F
330
9
100
AcDbSymbolTableRecord
100
AcDbRegAppTableRecord
  2
AMDT_DM_ADJ
 70
     0
  0
APPID
  5
3E2
330
9
100
AcDbSymbolTableRecord
100
AcDbRegAppTableRecord
  2
ACAD_PSEXT
 70
     0
  0
APPID
  5
4B8
330
9
100
AcDbSymbolTableRecord
100
AcDbRegAppTableRecord
  2
GENIUS_GENDTOL_13
 70
     0
  0
ENDTAB
  0
TABLE
  2
DIMSTYLE
  5
A
330
0
100
AcDbSymbolTable
 70
    17
100
AcDbDimStyleTable
  0
DIMSTYLE
105
340
330
A
100
AcDbSymbolTableRecord
100
AcDbDimStyleTableRecord
  2
Standard
 70
     0
340
11
  0
DIMSTYLE
105
3CE
330
A
100
AcDbSymbolTableRecord
100
AcDbDimStyleTableRecord
  2
AM_ANSI
 70
     0
  4
mm
 41
0.1
 42
0.05
 43
0.5
 44
0.1
 47
0.1
 48
0.1
 78
     7
 79
     2
140
0.12
141
0.0
146
0.71
147
0.06
176
   256
177
   256
178
     2
274
     4
284
     7
340
11
371
    -1
372
    -1
  0
DIMSTYLE
105
3D1
330
A
100
AcDbSymbolTableRecord
100
AcDbDimStyleTableRecord
  2
AM_ANSI$7
 70
     0
  4
mm
 41
0.1
 42
0.05
 43
0.5
 44
0.1
 47
0.1
 48
0.1
 78
     7
 79
     2
140
0.24
141
0.0
146
0.71
147
0.06
176
   256
177
   256
178
     2
274
     4
284
     7
340
11
371
    -1
372
    -1
  0
DIMSTYLE
105
3D2
330
A
100
AcDbSymbolTableRecord
100
AcDbDimStyleTableRecord
  2
AM_ANSI$SF
 70
     0
  4
mm
 41
0.1
 42
0.05
 43
0.5
 44
0.1
 47
0.1
 48
0.1
 75
     1
 76
     1
 78
     7
 79
     2
140
0.12
141
0.0
146
0.71
147
0.06
176
   256
177
   256
178
     2
274
     4
284
     7
340
11
371
    -1
372
    -1
  0
DIMSTYLE
105
3D7
330
A
100
AcDbSymbolTableRecord
100
AcDbDimStyleTableRecord
  2
AM_ANSI$SH
 70
     0
  4
mm
 41
0.1
 42
0.05
 43
0.5
 44
0.1
 47
0.1
 48
0.1
 75
     1
 76
     1
 78
     7
 79
     2
140
0.12
141
0.0
146
0.71
147
0.06
173
     1
176
   256
177
   256
178
     2
274
     4
284
     7
340
11
343
3D3
371
    -1
372
    -1
  0
DIMSTYLE
105
418
102
{ACAD_REACTORS
330
41C
330
4A0
330
5B6
330
5DE
330
607
330
6AA
102
}
330
A
100
AcDbSymbolTableRecord
100
AcDbDimStyleTableRecord
  2
Standard$0
 70
     0
340
11
  0
DIMSTYLE
105
4E4
102
{ACAD_REACTORS
330
53D
330
82D
102
}
330
A
100
AcDbSymbolTableRecord
100
AcDbDimStyleTableRecord
  2
Standard$2
 70
     0
340
11
  0
DIMSTYLE
105
578
330
A
100
AcDbSymbolTableRecord
100
AcDbDimStyleTableRecord
  2
Standard$4
 70
     0
340
11
  0
DIMSTYLE
105
58A
102
{ACAD_REACTORS
330
58B
102
}
330
A
100
AcDbSymbolTableRecord
100
AcDbDimStyleTableRecord
  2
Standard$3
 70
     0
340
11
  0
DIMSTYLE
105
70F
330
A
100
AcDbSymbolTableRecord
100
AcDbDimStyleTableRecord
  2
AM_JIS
 70
     0
  4
"
 41
2.5
 42
1.0
 43
10.0
 44
1.0
 47
0.1
 48
0.1000000001
 73
     0
 74
     0
 77
     3
 78
     8
 79
     2
140
3.8
141
0.0
143
0.0393701
146
0.71
147
1.5
172
     1
176
   256
177
   256
178
     2
271
     2
272
     2
275
     1
283
     0
284
     8
340
11
341
700
342
700
371
    -1
372
    -1
  0
DIMSTYLE
105
710
330
A
100
AcDbSymbolTableRecord
100
AcDbDimStyleTableRecord
  2
AM_JIS$3
 70
     0
  4
"
 41
2.5
 42
1.0
 43
10.0
 44
1.0
 47
0.1
 48
0.1000000001
 73
     0
 77
     3
 78
     8
 79
     2
140
3.8
141
0.0
143
0.0393701
146
0.71
147
1.5
176
   256
177
   256
178
     2
271
     2
272
     2
275
     1
283
     0
284
     8
288
     1
289
     0
340
11
341
700
342
700
371
    -1
372
    -1
  0
DIMSTYLE
105
711
330
A
100
AcDbSymbolTableRecord
100
AcDbDimStyleTableRecord
  2
AM_JIS$4
 70
     0
  4
"
 41
2.5
 42
1.0
 43
10.0
 44
1.0
 47
0.1
 48
0.1000000001
 73
     0
 77
     3
 78
     8
 79
     2
140
3.8
141
0.0
143
0.0393701
146
0.71
147
1.5
176
   256
177
   256
178
     2
271
     2
272
     2
275
     1
283
     0
284
     8
288
     1
289
     0
340
11
341
700
342
700
371
    -1
372
    -1
  0
DIMSTYLE
105
712
330
A
100
AcDbSymbolTableRecord
100
AcDbDimStyleTableRecord
  2
AM_JIS$6
 70
     0
  4
"
 41
2.5
 42
1.0
 43
10.0
 44
1.0
 47
0.1
 48
0.1000000001
 73
     0
 74
     0
 78
     8
 79
     2
140
3.8
141
0.0
143
0.0393701
146
0.71
147
1.5
172
     1
176
   256
177
   256
178
     2
271
     2
272
     2
275
     1
283
     0
284
     8
340
11
341
700
342
700
371
    -1
372
    -1
  0
DIMSTYLE
105
713
330
A
100
AcDbSymbolTableRecord
100
AcDbDimStyleTableRecord
  2
AM_JIS$7
 70
     0
  4
"
 41
2.5
 42
1.0
 43
10.0
 44
1.0
 47
0.1
 48
0.1000000001
 73
     0
 74
     0
 77
     3
 78
     8
 79
     2
140
5.0
141
0.0
143
0.0393701
146
0.71
147
1.5
172
     1
176
   256
177
   256
178
     2
271
     2
272
     2
275
     1
283
     0
284
     8
340
11
341
700
342
700
371
    -1
372
    -1
  0
DIMSTYLE
105
714
330
A
100
AcDbSymbolTableRecord
100
AcDbDimStyleTableRecord
  2
AM_JIS$SF
 70
     0
  4
"
 41
2.5
 42
1.0
 43
10.0
 44
1.0
 47
0.1
 48
0.1
 73
     0
 74
     0
 75
     1
 76
     1
 77
     3
 78
     8
 79
     2
140
3.5
141
0.0
143
0.0393701
146
0.71
147
1.5
172
     1
176
   256
177
   256
178
     2
271
     2
272
     3
274
     4
283
     0
284
     8
340
11
341
700
342
700
343
700
344
700
371
    -1
372
    -1
  0
DIMSTYLE
105
715
330
A
100
AcDbSymbolTableRecord
100
AcDbDimStyleTableRecord
  2
AM_JIS$SH
 70
     0
  4
"
 41
2.5
 42
1.0
 43
10.0
 44
1.0
 47
0.1
 48
0.1
 73
     0
 74
     0
 75
     1
 76
     1
 77
     3
 78
     8
 79
     2
140
3.5
141
0.0
143
0.0393701
144
2.0
146
0.71
147
1.5
172
     1
173
     1
176
   256
177
   256
178
     2
271
     2
272
     3
274
     4
283
     0
284
     8
340
11
341
700
342
700
343
3D3
344
700
371
    -1
372
    -1
  0
DIMSTYLE
105
716
330
A
100
AcDbSymbolTableRecord
100
AcDbDimStyleTableRecord
  2
AM_JIS$2
 70
     0
  4
"
 41
2.5
 42
1.0
 43
10.0
 44
1.0
 47
0.1
 48
0.1000000001
 73
     0
 74
     0
 77
     3
 78
     8
 79
     2
140
3.8
141
0.0
143
0.0393701
146
0.71
147
1.5
172
     1
176
   256
177
   256
178
     2
271
     2
272
     2
275
     1
283
     0
284
     8
340
11
341
700
342
700
371
    -1
372
    -1
  0
ENDTAB
  0
TABLE
  2
BLOCK_RECORD
  5
1
330
0
100
AcDbSymbolTable
 70
    13
  0
BLOCK_RECORD
  5
22
330
1
100
AcDbSymbolTableRecord
100
AcDbBlockTableRecord
  2
*Model_Space
340
25
  0
BLOCK_RECORD
  5
1E
330
1
100
AcDbSymbolTableRecord
100
AcDbBlockTableRecord
  2
*Paper_Space
340
21
  0
BLOCK_RECORD
  5
112
330
1
100
AcDbSymbolTableRecord
100
AcDbBlockTableRecord
  2
LRIS-25-1_0001
340
0
102
{BLKREFS
331
20E
102
}
  0
BLOCK_RECORD
  5
38F
330
1
100
AcDbSymbolTableRecord
100
AcDbBlockTableRecord
  2
*U1
340
0
  0
BLOCK_RECORD
  5
3D3
330
1
100
AcDbSymbolTableRecord
100
AcDbBlockTableRecord
  2
GENAXEH
340
0
  0
BLOCK_RECORD
  5
41D
330
1
100
AcDbSymbolTableRecord
100
AcDbBlockTableRecord
  2
*D3
340
0
  0
BLOCK_RECORD
  5
4A1
330
1
100
AcDbSymbolTableRecord
100
AcDbBlockTableRecord
  2
*D4
340
0
  0
BLOCK_RECORD
  5
53E
330
1
100
AcDbSymbolTableRecord
100
AcDbBlockTableRecord
  2
*D5
340
0
  0
BLOCK_RECORD
  5
58C
330
1
100
AcDbSymbolTableRecord
100
AcDbBlockTableRecord
  2
*D6
340
0
  0
BLOCK_RECORD
  5
5B7
330
1
100
AcDbSymbolTableRecord
100
AcDbBlockTableRecord
  2
*D7
340
0
  0
BLOCK_RECORD
  5
5DF
330
1
100
AcDbSymbolTableRecord
100
AcDbBlockTableRecord
  2
*D8
340
0
  0
BLOCK_RECORD
  5
608
330
1
100
AcDbSymbolTableRecord
100
AcDbBlockTableRecord
  2
*D9
340
0
  0
BLOCK_RECORD
  5
6AB
330
1
100
AcDbSymbolTableRecord
100
AcDbBlockTableRecord
  2
*D10
340
0
  0
BLOCK_RECORD
  5
700
330
1
100
AcDbSymbolTableRecord
100
AcDbBlockTableRecord
  2
_Open30
340
0
  0
BLOCK_RECORD
  5
82E
330
1
100
AcDbSymbolTableRecord
100
AcDbBlockTableRecord
  2
*D12
340
0
  0
ENDTAB
  0
ENDSEC
  0
SECTION
  2
BLOCKS
  0
BLOCK
  5
23
330
22
100
AcDbEntity
  8
0
100
AcDbBlockBegin
  2
*Model_Space
 70
     0
 71
     0
 10
0.0
 20
0.0
 30
0.0
  3
*Model_Space
  1

  0
ENDBLK
  5
24
330
22
100
AcDbEntity
  8
0
100
AcDbBlockEnd
  0
BLOCK
  5
1F
330
1E
100
AcDbEntity
 67
     1
  8
0
100
AcDbBlockBegin
  2
*Paper_Space
 70
     0
 71
     0
 10
0.0
 20
0.0
 30
0.0
  3
*Paper_Space
  1

  0
ENDBLK
  5
20
330
1E
100
AcDbEntity
 67
     1
  8
0
100
AcDbBlockEnd
  0
BLOCK
  5
113
330
112
100
AcDbEntity
  8
1
100
AcDbBlockBegin
  2
LRIS-25-1_0001
 70
     0
 71
     0
 10
0.0
 20
0.0
 30
0.0
  3
LRIS-25-1_0001
  1

  0
CIRCLE
  5
114
330
112
100
AcDbEntity
  8
1
  6
Continuous
100
AcDbCircle
 10
-0.0000001192585701
 20
0.0000001184027614
 30
0.0
 40
1.799999952316284
  0
LINE
  5
115
330
112
100
AcDbEntity
  8
1
  6
CENTER
100
AcDbLine
 10
-1.62634551530044
 20
-1.626345754476267
 30
0.0
 11
1.626345753620458
 21
1.626345514444632
 31
0.0
  0
LINE
  5
116
330
112
100
AcDbEntity
  8
1
  6
CENTER
100
AcDbLine
 10
1.626345753620458
 20
-1.626345754476267
 30
0.0
 11
-1.62634551530044
 21
1.626345514444632
 31
0.0
  0
LINE
  5
117
330
112
100
AcDbEntity
  8
1
  6
Continuous
100
AcDbLine
 10
0.6363965272410637
 20
-0.9192391642052709
 30
0.0
 11
0.919239163349462
 21
-0.6363965280968724
 31
0.0
  0
LINE
  5
118
330
112
100
AcDbEntity
  8
1
  6
Continuous
100
AcDbLine
 10
-0.6363960505024666
 20
0.9192389241736354
 30
0.0
 11
-0.9192389250294442
 21
0.6363960496466579
 31
0.0
  0
LINE
  5
119
330
112
100
AcDbEntity
  8
1
  6
Continuous
100
AcDbLine
 10
0.919239163349462
 20
-0.6363965280968724
 30
0.0
 11
0.3863703011973625
 21
-0.1035276659447728
 31
0.0
  0
LINE
  5
11A
330
112
100
AcDbEntity
  8
1
  6
Continuous
100
AcDbLine
 10
-0.1035276651875252
 20
0.3863703004401149
 30
0.0
 11
-0.6363960505024666
 21
0.9192389241736354
 31
0.0
  0
LINE
  5
11B
330
112
100
AcDbEntity
  8
1
  6
Continuous
100
AcDbLine
 10
-0.9192389250294442
 20
0.6363960496466579
 30
0.0
 11
-0.3863703012959237
 21
0.1035276643317165
 31
0.0
  0
LINE
  5
11C
330
112
100
AcDbEntity
  8
1
  6
Continuous
100
AcDbLine
 10
0.1035276650889641
 20
-0.3863703020531712
 30
0.0
 11
0.6363965272410637
 21
-0.9192391642052709
 31
0.0
  0
LINE
  5
11D
330
112
100
AcDbEntity
  8
1
  6
Continuous
100
AcDbLine
 10
0.0915156602366691
 20
1.11428224959783
 30
0.0
 11
-0.1035276651875252
 21
0.3863703004401149
 31
0.0
  0
LINE
  5
11E
330
112
100
AcDbEntity
  8
1
  6
Continuous
100
AcDbLine
 10
-0.2828427553669686
 20
-0.2828427561242162
 30
0.0
 11
-0.4778860807911629
 21
-1.010754705281931
 31
0.0
  0
LINE
  5
11F
330
112
100
AcDbEntity
  8
1
  6
Continuous
100
AcDbLine
 10
-0.4778860807911629
 20
-1.010754705281931
 30
0.0
 11
-0.0915158987538094
 21
-1.114282251210886
 31
0.0
  0
LINE
  5
120
330
112
100
AcDbEntity
  8
1
  6
Continuous
100
AcDbLine
 10
-0.0915158987538094
 20
-1.114282251210886
 30
0.0
 11
0.1035276650889641
 21
-0.3863703020531712
 31
0.0
  0
LINE
  5
121
330
112
100
AcDbEntity
  8
1
  6
Continuous
100
AcDbLine
 10
0.2828427552684074
 20
0.2828427545111598
 30
0.0
 11
0.4778863191111809
 21
1.010754703668875
 31
0.0
  0
LINE
  5
122
330
112
100
AcDbEntity
  8
1
  6
Continuous
100
AcDbLine
 10
0.4778863191111809
 20
1.010754703668875
 30
0.0
 11
0.0915156602366691
 21
1.11428224959783
 31
0.0
  0
LINE
  5
123
330
112
100
AcDbEntity
  8
1
  6
Continuous
100
AcDbLine
 10
-1.010754704524683
 20
-0.4778863199669896
 30
0.0
 11
-0.2828427553669686
 21
-0.2828427561242162
 31
0.0
  0
LINE
  5
124
330
112
100
AcDbEntity
  8
1
  6
Continuous
100
AcDbLine
 10
0.3863703011973625
 20
-0.1035276659447728
 30
0.0
 11
1.114282250355077
 21
0.0915158978980006
 31
0.0
  0
LINE
  5
125
330
112
100
AcDbEntity
  8
1
  6
Continuous
100
AcDbLine
 10
1.114282250355077
 20
0.0915158978980006
 30
0.0
 11
1.010754704426122
 21
0.4778860799353542
 31
0.0
  0
LINE
  5
126
330
112
100
AcDbEntity
  8
1
  6
Continuous
100
AcDbLine
 10
1.010754704426122
 20
0.4778860799353542
 30
0.0
 11
0.2828427552684074
 21
0.2828427545111598
 31
0.0
  0
LINE
  5
127
330
112
100
AcDbEntity
  8
1
  6
Continuous
100
AcDbLine
 10
-0.3863703012959237
 20
0.1035276643317165
 30
0.0
 11
-1.114282250453639
 21
-0.0915156610924779
 31
0.0
  0
LINE
  5
128
330
112
100
AcDbEntity
  8
1
  6
Continuous
100
AcDbLine
 10
-1.114282250453639
 20
-0.0915156610924779
 30
0.0
 11
-1.010754704524683
 21
-0.4778863199669896
 31
0.0
  0
ENDBLK
  5
129
330
112
100
AcDbEntity
  8
1
100
AcDbBlockEnd
  0
BLOCK
  5
390
330
38F
100
AcDbEntity
  8
0
100
AcDbBlockBegin
  2
*U1
 70
     1
 71
     0
 10
0.0
 20
0.0
 30
0.0
  3
*U1
  1

  0
ENDBLK
  5
391
330
38F
100
AcDbEntity
  8
0
100
AcDbBlockEnd
  0
BLOCK
  5
3D5
330
3D3
100
AcDbEntity
  8
0
100
AcDbBlockBegin
  2
GENAXEH
 70
     0
 71
     0
 10
0.0
 20
0.0
 30
0.0
  3
GENAXEH
  1

  0
LINE
  5
3D4
330
3D3
100
AcDbEntity
  8
0
100
AcDbLine
 10
-1.0
 20
0.0
 30
0.0
 11
1.0
 21
0.0
 31
0.0
  0
ENDBLK
  5
3D6
330
3D3
100
AcDbEntity
  8
0
100
AcDbBlockEnd
  0
BLOCK
  5
429
330
41D
100
AcDbEntity
  8
0
100
AcDbBlockBegin
  2
*D3
 70
     1
 71
     0
 10
0.0
 20
0.0
 30
0.0
  3
*D3
  1

  0
LINE
  5
A02
330
41D
100
AcDbEntity
  8
AM_5
 62
     0
370
    -2
100
AcDbLine
 10
2.978019913704884
 20
0.0000000000000003
 30
0.0
 11
-25.71523549519668
 21
0.0000000000000084
 31
0.0
  0
LINE
  5
A03
330
41D
100
AcDbEntity
  8
AM_5
 62
     0
370
    -2
100
AcDbLine
 10
21.49016189578424
 20
-6.000000000855777
 30
0.0
 11
-25.71523549519668
 21
-6.000000000855764
 31
0.0
  0
LINE
  5
A04
330
41D
100
AcDbEntity
  8
AM_5
 62
     0
370
    -2
100
AcDbLine
 10
-23.71523549519668
 20
3.000000000000008
 30
0.0
 11
-23.71523549519668
 21
6.000000000000008
 31
0.0
  0
LINE
  5
A05
330
41D
100
AcDbEntity
  8
AM_5
 62
     0
370
    -2
100
AcDbLine
 10
-23.71523549519668
 20
-9.000000000855765
 30
0.0
 11
-23.71523549519668
 21
-12.00000000085577
 31
0.0
  0
LINE
  5
A06
330
41D
100
AcDbEntity
  8
AM_5
 62
     0
370
    -2
100
AcDbLine
 10
-23.71523549519668
 20
0.0000000000000078
 30
0.0
 11
-23.71523549519668
 21
-6.000000000855764
 31
0.0
  0
SOLID
  5
A07
330
41D
100
AcDbEntity
  8
AM_5
 62
     0
100
AcDbTrace
 10
-24.21523549519668
 20
3.000000000000008
 30
0.0
 11
-23.21523549519668
 21
3.000000000000008
 31
0.0
 12
-23.71523549519668
 22
0.0000000000000078
 32
0.0
 13
-23.71523549519668
 23
0.0000000000000078
 33
0.0
  0
SOLID
  5
A08
330
41D
100
AcDbEntity
  8
AM_5
 62
     0
100
AcDbTrace
 10
-24.21523549519668
 20
-9.000000000855765
 30
0.0
 11
-23.21523549519668
 21
-9.000000000855765
 31
0.0
 12
-23.71523549519668
 22
-6.000000000855764
 32
0.0
 13
-23.71523549519668
 23
-6.000000000855764
 33
0.0
  0
MTEXT
  5
A09
330
41D
100
AcDbEntity
  8
AM_5
 62
     0
100
AcDbMText
 10
-26.30523549519668
 20
-3.000000000427882
 30
0.0
 40
5.0
 41
0.0
 71
     5
 72
     1
  1
\A1;6
 11
6.123031769111886E-17
 21
1.0
 31
0.0
 73
     1
 44
1.0
  0
POINT
  5
A0A
330
41D
100
AcDbEntity
  8
DEFPOINTS
 62
     0
100
AcDbPoint
 10
3.978019913704884
 20
0.0
 30
0.0
  0
POINT
  5
A0B
330
41D
100
AcDbEntity
  8
DEFPOINTS
 62
     0
100
AcDbPoint
 10
22.49016189578424
 20
-6.000000000855778
 30
0.0
  0
POINT
  5
A0C
330
41D
100
AcDbEntity
  8
DEFPOINTS
 62
     0
100
AcDbPoint
 10
-23.71523549519668
 20
-6.000000000855764
 30
0.0
  0
ENDBLK
  5
42A
330
41D
100
AcDbEntity
  8
0
100
AcDbBlockEnd
  0
BLOCK
  5
4AC
330
4A1
100
AcDbEntity
  8
0
100
AcDbBlockBegin
  2
*D4
 70
     1
 71
     0
 10
0.0
 20
0.0
 30
0.0
  3
*D4
  1

  0
LINE
  5
A0D
330
4A1
100
AcDbEntity
  8
AM_5
 62
     0
370
    -2
100
AcDbLine
 10
0.0000000000321734
 20
0.999622442701309
 30
0.0
 11
0.0000000000321748
 21
23.60923278731747
 31
0.0
  0
LINE
  5
A0E
330
4A1
100
AcDbEntity
  8
AM_5
 62
     0
370
    -2
100
AcDbLine
 10
20.00000000003223
 20
1.0
 30
0.0
 11
20.00000000003223
 21
23.60923278731747
 31
0.0
  0
LINE
  5
A0F
330
4A1
100
AcDbEntity
  8
AM_5
 62
     0
370
    -2
100
AcDbLine
 10
3.000000000032175
 20
21.60923278731747
 30
0.0
 11
17.00000000003223
 21
21.60923278731747
 31
0.0
  0
SOLID
  5
A10
330
4A1
100
AcDbEntity
  8
AM_5
 62
     0
100
AcDbTrace
 10
3.000000000032175
 20
22.10923278731747
 30
0.0
 11
3.000000000032175
 21
21.10923278731747
 31
0.0
 12
0.0000000000321747
 22
21.60923278731747
 32
0.0
 13
0.0000000000321747
 23
21.60923278731747
 33
0.0
  0
SOLID
  5
A11
330
4A1
100
AcDbEntity
  8
AM_5
 62
     0
100
AcDbTrace
 10
17.00000000003223
 20
22.10923278731747
 30
0.0
 11
17.00000000003223
 21
21.10923278731747
 31
0.0
 12
20.00000000003223
 22
21.60923278731747
 32
0.0
 13
20.00000000003223
 23
21.60923278731747
 33
0.0
  0
MTEXT
  5
A12
330
4A1
100
AcDbEntity
  8
AM_5
 62
     0
100
AcDbMText
 10
10.0000000000322
 20
24.19923278731747
 30
0.0
 40
5.0
 41
0.0
 71
     5
 72
     1
  1
\A1;20
 73
     1
 44
1.0
  0
POINT
  5
A13
330
4A1
100
AcDbEntity
  8
DEFPOINTS
 62
     0
100
AcDbPoint
 10
0.0000000000321734
 20
-0.000377557298691
 30
0.0
  0
POINT
  5
A14
330
4A1
100
AcDbEntity
  8
DEFPOINTS
 62
     0
100
AcDbPoint
 10
20.00000000003223
 20
0.0
 30
0.0
  0
POINT
  5
A15
330
4A1
100
AcDbEntity
  8
DEFPOINTS
 62
     0
100
AcDbPoint
 10
20.00000000003223
 20
21.60923278731747
 30
0.0
  0
ENDBLK
  5
4AD
330
4A1
100
AcDbEntity
  8
0
100
AcDbBlockEnd
  0
BLOCK
  5
54D
330
53E
100
AcDbEntity
  8
0
100
AcDbBlockBegin
  2
*D5
 70
     1
 71
     0
 10
0.0
 20
0.0
 30
0.0
  3
*D5
  1

  0
LINE
  5
A16
330
53E
100
AcDbEntity
  8
AM_5
 62
     0
370
    -2
100
AcDbLine
 10
0.00000000003223
 20
-2.254021015010665
 30
0.0
 11
0.0000000000322244
 21
-31.36793545510891
 31
0.0
  0
LINE
  5
A17
330
53E
100
AcDbEntity
  8
AM_5
 62
     0
370
    -2
100
AcDbLine
 10
0.631948184208359
 20
-7.326751531946304
 30
0.0
 11
2.724870671933843
 21
-31.24896503226991
 31
0.0
  0
ARC
  5
A18
330
53E
100
AcDbEntity
  8
AM_5
 62
     0
370
    -2
100
AcDbCircle
 10
0.0000000000322302
 20
-0.1035507341793444
 30
0.0
 40
29.26438472092956
100
AcDbArc
 50
258.232123437342
 51
270.0
  0
LINE
  5
A19
330
53E
100
AcDbEntity
  8
AM_5
 62
     0
370
    -2
100
AcDbLine
 10
-5.968389563076394
 20
-28.75285332809167
 30
0.0
 11
-14.30278869961698
 21
-27.01658276240327
 31
0.0
  0
ARC
  5
A1A
330
53E
100
AcDbEntity
  8
AM_5
 62
     0
370
    -2
100
AcDbCircle
 10
0.0000000000322302
 20
-0.1035507341793444
 30
0.0
 40
29.26438472092956
100
AcDbArc
 50
258.2476467642508
 51
264.1238233821254
  0
ARC
  5
A1B
330
53E
100
AcDbEntity
  8
AM_5
 62
     0
370
    -2
100
AcDbCircle
 10
0.0000000000322302
 20
-0.1035507341793444
 30
0.0
 40
29.26438472092956
100
AcDbArc
 50
280.8761766178754
 51
286.75235323575
  0
ARC
  5
A1C
330
53E
100
AcDbEntity
  8
AM_5
 62
     0
370
    -2
100
AcDbCircle
 10
0.0000000000322302
 20
-0.1035507341793444
 30
0.0
 40
29.26438472092956
100
AcDbArc
 50
270.0
 51
275.0000000000009
  0
SOLID
  5
A1D
330
53E
100
AcDbEntity
  8
AM_5
 62
     0
100
AcDbTrace
 10
-2.970428090086559
 20
-28.71482217134163
 30
0.0
 11
-3.021684934004661
 21
-29.71350767536757
 31
0.0
 12
0.0000000000322247
 22
-29.36793545510891
 32
0.0
 13
0.0000000000322247
 23
-29.36793545510891
 33
0.0
  0
SOLID
  5
A1E
330
53E
100
AcDbEntity
  8
AM_5
 62
     0
100
AcDbTrace
 10
5.590864300559352
 20
-29.33747565494046
 30
0.0
 11
5.452761327532507
 21
-28.34705777907131
 31
0.0
 12
2.550559186438497
 22
-29.25657563608642
 32
0.0
 13
2.550559186438497
 23
-29.25657563608642
 33
0.0
  0
MTEXT
  5
A1F
330
53E
100
AcDbEntity
  8
AM_5
 62
     0
100
AcDbMText
 10
-9.607365862145477
 20
-25.34915495633124
 30
0.0
 40
5.0
 41
0.0
 71
     5
 72
     1
  1
\A1;5°
 11
0.978981887612442
 21
-0.2039472081857952
 31
0.0
 73
     1
 44
1.0
  0
POINT
  5
A20
330
53E
100
AcDbEntity
  8
DEFPOINTS
 62
     0
100
AcDbPoint
 10
1.701572642801309
 20
-29.31842474787236
 30
0.0
  0
POINT
  5
A21
330
53E
100
AcDbEntity
  8
DEFPOINTS
 62
     0
100
AcDbPoint
 10
0.0003775573309213
 20
-0.1078662338506718
 30
0.0
  0
POINT
  5
A22
330
53E
100
AcDbEntity
  8
DEFPOINTS
 62
     0
100
AcDbPoint
 10
0.0000000000322302
 20
0.9461047420647334
 30
0.0
  0
POINT
  5
A23
330
53E
100
AcDbEntity
  8
DEFPOINTS
 62
     0
100
AcDbPoint
 10
0.0000000000322302
 20
-1.254021015010665
 30
0.0
  0
POINT
  5
A24
330
53E
100
AcDbEntity
  8
DEFPOINTS
 62
     0
100
AcDbPoint
 10
0.544792441460686
 20
-6.330556833854559
 30
0.0
  0
ENDBLK
  5
54E
330
53E
100
AcDbEntity
  8
0
100
AcDbBlockEnd
  0
BLOCK
  5
592
330
58C
100
AcDbEntity
  8
0
100
AcDbBlockBegin
  2
*D6
 70
     1
 71
     0
 10
0.0
 20
0.0
 30
0.0
  3
*D6
  1

  0
LINE
  5
A25
330
58C
100
AcDbEntity
  8
AM_5
 62
     0
370
    -2
100
AcDbLine
 10
99.69630908285231
 20
25.89324317749034
 30
0.0
 11
66.95520017853724
 21
0.6742793300251968
 31
0.0
  0
LINE
  5
A26
330
58C
100
AcDbEntity
  8
AM_5
 62
     0
370
    -2
100
AcDbLine
 10
49.62512208715228
 20
-12.67427933173672
 30
0.0
 11
47.24842566319092
 21
-14.50493880534978
 31
0.0
  0
MTEXT
  5
A27
330
58C
100
AcDbEntity
  8
AM_5
 62
     0
100
AcDbMText
 10
86.82125017587441
 20
19.24542379168469
 30
0.0
 40
5.0
 41
0.0
 71
     5
 72
     1
  1
\A1;\U+220515.875
 11
0.7922321413204554
 21
0.6102198245376874
 31
0.0
 73
     1
 44
1.0
  0
LINE
  5
A28
330
58C
100
AcDbEntity
  8
AM_5
 62
     0
370
    -2
100
AcDbLine
 10
52.00181851111364
 20
-10.84361985812366
 30
0.0
 11
64.57850375457588
 21
-1.156380143587867
 31
0.0
  0
SOLID
  5
A29
330
58C
100
AcDbEntity
  8
AM_5
 62
     0
100
AcDbTrace
 10
49.32001217488343
 20
-12.2781632610765
 30
0.0
 11
49.93023199942113
 21
-13.07039540239695
 31
0.0
 12
52.00181851111364
 22
-10.84361985812366
 32
0.0
 13
52.00181851111364
 23
-10.84361985812366
 33
0.0
  0
SOLID
  5
A2A
330
58C
100
AcDbEntity
  8
AM_5
 62
     0
100
AcDbTrace
 10
66.65009026626841
 20
1.070395400685424
 30
0.0
 11
67.26031009080609
 21
0.2781632593649661
 31
0.0
 12
64.57850375457588
 22
-1.156380143587867
 32
0.0
 13
64.57850375457588
 23
-1.156380143587867
 33
0.0
  0
POINT
  5
A2B
330
58C
100
AcDbEntity
  8
DEFPOINTS
 62
     0
100
AcDbPoint
 10
64.57850375457588
 20
-1.156380143587867
 30
0.0
  0
POINT
  5
A2C
330
58C
100
AcDbEntity
  8
DEFPOINTS
 62
     0
100
AcDbPoint
 10
52.00181851111364
 20
-10.84361985812366
 30
0.0
  0
ENDBLK
  5
593
330
58C
100
AcDbEntity
  8
0
100
AcDbBlockEnd
  0
BLOCK
  5
5C1
330
5B7
100
AcDbEntity
  8
0
100
AcDbBlockBegin
  2
*D7
 70
     1
 71
     0
 10
0.0
 20
0.0
 30
0.0
  3
*D7
  1

  0
LINE
  5
A2D
330
5B7
100
AcDbEntity
  8
AM_5
 62
     0
370
    -2
100
AcDbLine
 10
50.79016113284473
 20
-2.401172140069235
 30
0.0
 11
50.79016113284473
 21
19.45332406161668
 31
0.0
  0
LINE
  5
A2E
330
5B7
100
AcDbEntity
  8
AM_5
 62
     0
370
    -2
100
AcDbLine
 10
65.79016113284473
 20
-2.401172140069349
 30
0.0
 11
65.79016113284473
 21
19.45332406161668
 31
0.0
  0
LINE
  5
A2F
330
5B7
100
AcDbEntity
  8
AM_5
 62
     0
370
    -2
100
AcDbLine
 10
53.79016113284473
 20
17.45332406161668
 30
0.0
 11
62.79016113284473
 21
17.45332406161668
 31
0.0
  0
SOLID
  5
A30
330
5B7
100
AcDbEntity
  8
AM_5
 62
     0
100
AcDbTrace
 10
53.79016113284473
 20
17.95332406161668
 30
0.0
 11
53.79016113284473
 21
16.95332406161668
 31
0.0
 12
50.79016113284473
 22
17.45332406161668
 32
0.0
 13
50.79016113284473
 23
17.45332406161668
 33
0.0
  0
SOLID
  5
A31
330
5B7
100
AcDbEntity
  8
AM_5
 62
     0
100
AcDbTrace
 10
62.79016113284473
 20
17.95332406161668
 30
0.0
 11
62.79016113284473
 21
16.95332406161668
 31
0.0
 12
65.79016113284473
 22
17.45332406161668
 32
0.0
 13
65.79016113284473
 23
17.45332406161668
 33
0.0
  0
MTEXT
  5
A32
330
5B7
100
AcDbEntity
  8
AM_5
 62
     0
100
AcDbMText
 10
58.29016113284473
 20
20.04332406161668
 30
0.0
 40
5.0
 41
0.0
 71
     5
 72
     1
  1
\A1;15
 73
     1
 44
1.0
  0
POINT
  5
A33
330
5B7
100
AcDbEntity
  8
DEFPOINTS
 62
     0
100
AcDbPoint
 10
50.79016113284473
 20
-3.401172140069235
 30
0.0
  0
POINT
  5
A34
330
5B7
100
AcDbEntity
  8
DEFPOINTS
 62
     0
100
AcDbPoint
 10
65.79016113284473
 20
-3.401172140069349
 30
0.0
  0
POINT
  5
A35
330
5B7
100
AcDbEntity
  8
DEFPOINTS
 62
     0
100
AcDbPoint
 10
65.79016113284473
 20
17.45332406161668
 30
0.0
  0
ENDBLK
  5
5C2
330
5B7
100
AcDbEntity
  8
0
100
AcDbBlockEnd
  0
BLOCK
  5
5E9
330
5DF
100
AcDbEntity
  8
0
100
AcDbBlockBegin
  2
*D8
 70
     1
 71
     0
 10
0.0
 20
0.0
 30
0.0
  3
*D8
  1

  0
LINE
  5
A36
330
5DF
100
AcDbEntity
  8
AM_5
 62
     0
370
    -2
100
AcDbLine
 10
0.0000000000322302
 20
68.99999999914422
 30
0.0
 11
0.0000000000322284
 21
39.9379127895882
 31
0.0
  0
LINE
  5
A37
330
5DF
100
AcDbEntity
  8
AM_5
 62
     0
370
    -2
100
AcDbLine
 10
100.0000000000322
 20
63.95096189346755
 30
0.0
 11
100.0000000000322
 21
39.9379127895882
 31
0.0
  0
LINE
  5
A38
330
5DF
100
AcDbEntity
  8
AM_5
 62
     0
370
    -2
100
AcDbLine
 10
3.000000000032228
 20
41.9379127895882
 30
0.0
 11
97.00000000003223
 21
41.9379127895882
 31
0.0
  0
SOLID
  5
A39
330
5DF
100
AcDbEntity
  8
AM_5
 62
     0
100
AcDbTrace
 10
3.000000000032228
 20
42.4379127895882
 30
0.0
 11
3.000000000032228
 21
41.4379127895882
 31
0.0
 12
0.0000000000322285
 22
41.9379127895882
 32
0.0
 13
0.0000000000322285
 23
41.9379127895882
 33
0.0
  0
SOLID
  5
A3A
330
5DF
100
AcDbEntity
  8
AM_5
 62
     0
100
AcDbTrace
 10
97.00000000003223
 20
42.4379127895882
 30
0.0
 11
97.00000000003223
 21
41.4379127895882
 31
0.0
 12
100.0000000000322
 22
41.9379127895882
 32
0.0
 13
100.0000000000322
 23
41.9379127895882
 33
0.0
  0
MTEXT
  5
A3B
330
5DF
100
AcDbEntity
  8
AM_5
 62
     0
100
AcDbMText
 10
50.00000000003223
 20
44.5279127895882
 30
0.0
 40
5.0
 41
0.0
 71
     5
 72
     1
  1
\A1;100
 73
     1
 44
1.0
  0
POINT
  5
A3C
330
5DF
100
AcDbEntity
  8
DEFPOINTS
 62
     0
100
AcDbPoint
 10
0.0000000000322302
 20
69.99999999914422
 30
0.0
  0
POINT
  5
A3D
330
5DF
100
AcDbEntity
  8
DEFPOINTS
 62
     0
100
AcDbPoint
 10
100.0000000000322
 20
64.95096189346755
 30
0.0
  0
POINT
  5
A3E
330
5DF
100
AcDbEntity
  8
DEFPOINTS
 62
     0
100
AcDbPoint
 10
100.0000000000322
 20
41.9379127895882
 30
0.0
  0
ENDBLK
  5
5EA
330
5DF
100
AcDbEntity
  8
0
100
AcDbBlockEnd
  0
BLOCK
  5
613
330
608
100
AcDbEntity
  8
0
100
AcDbBlockBegin
  2
*D9
 70
     1
 71
     0
 10
0.0
 20
0.0
 30
0.0
  3
*D9
  1

  0
LINE
  5
A3F
330
608
100
AcDbEntity
  8
AM_5
 62
     0
370
    -2
100
AcDbLine
 10
-0.9999999999355396
 20
69.99999999914422
 30
0.0
 11
-15.35633329345756
 21
69.99999999914422
 31
0.0
  0
LINE
  5
A40
330
608
100
AcDbEntity
  8
AM_5
 62
     0
370
    -2
100
AcDbLine
 10
-0.9999999999355396
 20
69.99999999914422
 30
0.0
 11
-15.35633329345756
 21
69.99999999914422
 31
0.0
  0
LINE
  5
A41
330
608
100
AcDbEntity
  8
AM_5
 62
     0
370
    -2
100
AcDbLine
 10
-13.35633329345756
 20
66.99999999914422
 30
0.0
 11
-13.35633329345756
 21
63.99999999914422
 31
0.0
  0
LINE
  5
A42
330
608
100
AcDbEntity
  8
AM_5
 62
     0
370
    -2
100
AcDbLine
 10
-13.35633329345756
 20
72.99999999914422
 30
0.0
 11
-13.35633329345755
 21
78.67999999914427
 31
0.0
  0
SOLID
  5
A43
330
608
100
AcDbEntity
  8
AM_5
 62
     0
100
AcDbTrace
 10
-13.85633329345756
 20
66.99999999914422
 30
0.0
 11
-12.85633329345756
 21
66.99999999914422
 31
0.0
 12
-13.35633329345756
 22
69.99999999914422
 32
0.0
 13
-13.35633329345756
 23
69.99999999914422
 33
0.0
  0
SOLID
  5
A44
330
608
100
AcDbEntity
  8
AM_5
 62
     0
100
AcDbTrace
 10
-13.85633329345756
 20
72.99999999914422
 30
0.0
 11
-12.85633329345756
 21
72.99999999914422
 31
0.0
 12
-13.35633329345756
 22
69.99999999914422
 32
0.0
 13
-13.35633329345756
 23
69.99999999914422
 33
0.0
  0
MTEXT
  5
A45
330
608
100
AcDbEntity
  8
AM_5
 62
     0
100
AcDbMText
 10
-15.94633329345757
 20
77.33999999914427
 30
0.0
 40
5.0
 41
0.0
 71
     5
 72
     1
  1
\A1;0
 11
6.123031769111886E-17
 21
1.0
 31
0.0
 73
     1
 44
1.0
  0
POINT
  5
A46
330
608
100
AcDbEntity
  8
DEFPOINTS
 62
     0
100
AcDbPoint
 10
0.0000000000644604
 20
69.99999999914422
 30
0.0
  0
POINT
  5
A47
330
608
100
AcDbEntity
  8
DEFPOINTS
 62
     0
100
AcDbPoint
 10
0.0000000000644604
 20
69.99999999914422
 30
0.0
  0
POINT
  5
A48
330
608
100
AcDbEntity
  8
DEFPOINTS
 62
     0
100
AcDbPoint
 10
-13.35633329345756
 20
69.99999999914422
 30
0.0
  0
ENDBLK
  5
614
330
608
100
AcDbEntity
  8
0
100
AcDbBlockEnd
  0
BLOCK
  5
6B5
330
6AB
100
AcDbEntity
  8
0
100
AcDbBlockBegin
  2
*D10
 70
     1
 71
     0
 10
0.0
 20
0.0
 30
0.0
  3
*D10
  1

  0
LINE
  5
A49
330
6AB
100
AcDbEntity
  8
AM_5
 62
     0
370
    -2
100
AcDbLine
 10
59.29016113284473
 20
1.499999999144222
 30
0.0
 11
78.7394671463473
 21
1.499999999144216
 31
0.0
  0
LINE
  5
A4A
330
6AB
100
AcDbEntity
  8
AM_5
 62
     0
370
    -2
100
AcDbLine
 10
59.29016113284473
 20
-13.50000000085581
 30
0.0
 11
78.7394671463473
 21
-13.50000000085581
 31
0.0
  0
LINE
  5
A4B
330
6AB
100
AcDbEntity
  8
AM_5
 62
     0
370
    -2
100
AcDbLine
 10
76.7394671463473
 20
-1.500000000855783
 30
0.0
 11
76.7394671463473
 21
-10.50000000085581
 31
0.0
  0
LINE
  5
A4C
330
6AB
100
AcDbEntity
  8
AM_5
 62
     0
370
    -2
100
AcDbLine
 10
76.7394671463473
 20
-13.50000000085581
 30
0.0
 11
76.73946714634728
 21
-32.37163547825493
 31
0.0
  0
SOLID
  5
A4D
330
6AB
100
AcDbEntity
  8
AM_5
 62
     0
100
AcDbTrace
 10
76.2394671463473
 20
-1.500000000855783
 30
0.0
 11
77.2394671463473
 21
-1.500000000855783
 31
0.0
 12
76.7394671463473
 22
1.499999999144217
 32
0.0
 13
76.7394671463473
 23
1.499999999144217
 33
0.0
  0
SOLID
  5
A4E
330
6AB
100
AcDbEntity
  8
AM_5
 62
     0
100
AcDbTrace
 10
76.2394671463473
 20
-10.50000000085581
 30
0.0
 11
77.2394671463473
 21
-10.50000000085581
 31
0.0
 12
76.7394671463473
 22
-13.50000000085581
 32
0.0
 13
76.7394671463473
 23
-13.50000000085581
 33
0.0
  0
MTEXT
  5
A4F
330
6AB
100
AcDbEntity
  8
AM_5
 62
     0
100
AcDbMText
 10
74.14946714634729
 20
-28.94830214492158
 30
0.0
 40
5.0
 41
0.0
 71
     5
 72
     1
  1
\A1;15
 11
6.123031769111886E-17
 21
1.0
 31
0.0
 73
     1
 44
1.0
  0
POINT
  5
A50
330
6AB
100
AcDbEntity
  8
DEFPOINTS
 62
     0
100
AcDbPoint
 10
58.29016113284473
 20
1.499999999144222
 30
0.0
  0
POINT
  5
A51
330
6AB
100
AcDbEntity
  8
DEFPOINTS
 62
     0
100
AcDbPoint
 10
58.29016113284473
 20
-13.50000000085581
 30
0.0
  0
POINT
  5
A52
330
6AB
100
AcDbEntity
  8
DEFPOINTS
 62
     0
100
AcDbPoint
 10
76.7394671463473
 20
-13.50000000085581
 30
0.0
  0
ENDBLK
  5
6B6
330
6AB
100
AcDbEntity
  8
0
100
AcDbBlockEnd
  0
BLOCK
  5
701
330
700
100
AcDbEntity
  8
0
100
AcDbBlockBegin
  2
_Open30
 70
     0
 71
     0
 10
0.0
 20
0.0
 30
0.0
  3
_Open30
  1

  0
LINE
  5
702
330
700
100
AcDbEntity
  8
0
  6
ByBlock
 62
     0
370
    -2
100
AcDbLine
 10
-1.0
 20
0.26794919
 30
0.0
 11
0.0
 21
0.0
 31
0.0
  0
LINE
  5
703
330
700
100
AcDbEntity
  8
0
  6
ByBlock
 62
     0
370
    -2
100
AcDbLine
 10
0.0
 20
0.0
 30
0.0
 11
-1.0
 21
-0.26794919
 31
0.0
  0
LINE
  5
704
330
700
100
AcDbEntity
  8
0
  6
ByBlock
 62
     0
370
    -2
100
AcDbLine
 10
0.0
 20
0.0
 30
0.0
 11
-1.0
 21
0.0
 31
0.0
  0
ENDBLK
  5
705
330
700
100
AcDbEntity
  8
0
100
AcDbBlockEnd
  0
BLOCK
  5
83D
330
82E
100
AcDbEntity
  8
0
100
AcDbBlockBegin
  2
*D12
 70
     1
 71
     0
 10
0.0
 20
0.0
 30
0.0
  3
*D12
  1

  0
LINE
  5
A53
330
82E
100
AcDbEntity
  8
AM_5
 62
     0
370
    -2
100
AcDbLine
 10
-0.0970838553627748
 20
1.006122810739085
 30
0.0
 11
-1.85711356273684
 21
21.12335442043487
 31
0.0
  0
LINE
  5
A54
330
82E
100
AcDbEntity
  8
AM_5
 62
     0
370
    -2
100
AcDbLine
 10
-1.006122810706847
 20
0.0970838553950026
 30
0.0
 11
-21.12335442040265
 21
1.857113562768825
 31
0.0
  0
ARC
  5
A55
330
82E
100
AcDbEntity
  8
AM_5
 62
     0
370
    -2
100
AcDbCircle
 10
-0.0099281126151015
 20
0.009928112647341
 30
0.0
 40
19.19407616626674
100
AcDbArc
 50
103.9643690289315
 51
166.0356309710692
  0
SOLID
  5
A56
330
82E
100
AcDbEntity
  8
AM_5
 62
     0
100
AcDbTrace
 10
-4.724183159641624
 20
19.12991069100041
 30
0.0
 11
-4.559442236295356
 21
18.14357381742475
 31
0.0
 12
-1.682802077241492
 22
19.13096502425138
 32
0.0
 13
-1.682802077241492
 23
19.13096502425138
 33
0.0
  0
SOLID
  5
A57
330
82E
100
AcDbEntity
  8
AM_5
 62
     0
100
AcDbTrace
 10
-18.14357381739256
 20
4.559442236327379
 30
0.0
 11
-19.12991069096823
 21
4.724183159673634
 31
0.0
 12
-19.13096502421917
 22
1.682802077273506
 32
0.0
 13
-19.13096502421917
 23
1.682802077273506
 33
0.0
  0
MTEXT
  5
A58
330
82E
100
AcDbEntity
  8
AM_5
 62
     0
100
AcDbMText
 10
-15.41359609166665
 20
15.41359609169871
 30
0.0
 40
5.0
 41
0.0
 71
     5
 72
     1
  1
\A1;80°
 11
0.7071067811865436
 21
0.7071067811865515
 31
0.0
 73
     1
 44
1.0
  0
POINT
  5
A59
330
82E
100
AcDbEntity
  8
DEFPOINTS
 62
     0
100
AcDbPoint
 10
-10.08636858106305
 20
16.34632634978252
 30
0.0
  0
POINT
  5
A5A
330
82E
100
AcDbEntity
  8
DEFPOINTS
 62
     0
100
AcDbPoint
 10
6.330556833886817
 20
-0.5447924414283709
 30
0.0
  0
POINT
  5
A5B
330
82E
100
AcDbEntity
  8
DEFPOINTS
 62
     0
100
AcDbPoint
 10
0.0003775573309213
 20
-0.1078662338506717
 30
0.0
  0
POINT
  5
A5C
330
82E
100
AcDbEntity
  8
DEFPOINTS
 62
     0
100
AcDbPoint
 10
0.5447924414606855
 20
-6.330556833854558
 30
0.0
  0
POINT
  5
A5D
330
82E
100
AcDbEntity
  8
DEFPOINTS
 62
     0
100
AcDbPoint
 10
0.1078662338830441
 20
-0.000377557298691
 30
0.0
  0
ENDBLK
  5
83E
330
82E
100
AcDbEntity
  8
0
100
AcDbBlockEnd
  0
ENDSEC
  0
SECTION
  2
ENTITIES
  0
LINE
  5
1E7
330
22
100
AcDbEntity
  8
1
  6
CENTER
100
AcDbLine
 10
22.49016189578424
 20
-6.000000000855778
 30
0.0
 11
101.9901580810869
 21
-6.000000000855792
 31
0.0
  0
LINE
  5
1E8
330
22
100
AcDbEntity
  8
1
  6
CENTER
100
AcDbLine
 10
58.29016113284473
 20
3.937499999144222
 30
0.0
 11
58.29016113284473
 21
-15.93750000085578
 31
0.0
  0
LINE
  5
1E9
330
22
100
AcDbEntity
  8
1
  6
Continuous
 62
     3
100
AcDbLine
 10
0.0
 20
0.0
 30
0.0
 11
20.00000000003223
 21
0.0
 31
0.0
  0
LINE
  5
1EA
330
22
100
AcDbEntity
  8
1
  6
Continuous
100
AcDbLine
 10
22.50000190738081
 20
-13.00000000085578
 30
0.0
 11
22.50000190738081
 21
0.9999999991442223
 31
0.0
  0
LINE
  5
1EB
330
22
100
AcDbEntity
  8
1
  6
Continuous
100
AcDbLine
 10
9.0
 20
-11.29902036894806
 30
0.0
 11
9.0
 21
-1.716893121924272
 31
0.0
  0
LINE
  5
1EE
330
22
100
AcDbEntity
  8
1
  6
Continuous
100
AcDbLine
 10
100.0000000000322
 20
1.437499999144208
 30
0.0
 11
100.0000000000322
 21
-13.43750000085579
 31
0.0
  0
LINE
  5
1FE
330
22
100
AcDbEntity
  8
1
  6
PHANTOM
100
AcDbLine
 10
23.43750190738081
 20
1.937499999144222
 30
0.0
 11
99.50000000003223
 21
1.937499999144208
 31
0.0
  0
LINE
  5
1FF
330
22
100
AcDbEntity
  8
1
  6
PHANTOM
100
AcDbLine
 10
23.43750190738081
 20
-13.93750000085578
 30
0.0
 11
99.50000000003223
 21
-13.93750000085579
 31
0.0
  0
LINE
  5
200
330
22
100
AcDbEntity
  8
1
  6
Continuous
100
AcDbLine
 10
0.8555173240889644
 20
-6.440044520364779
 30
0.0
 11
1.298206066577677
 21
-11.50000000085578
 31
0.0
  0
LINE
  5
201
330
22
100
AcDbEntity
  8
1
  6
Continuous
100
AcDbLine
 10
7.874015073858004
 20
-0.9809734913144723
 30
0.0
 11
6.440044520397009
 21
-0.8555173240566774
 31
0.0
  0
LINE
  5
202
330
22
100
AcDbEntity
  8
1
  6
Continuous
100
AcDbLine
 10
8.309793787596277
 20
-1.000000000855778
 30
0.0
 11
16.9999999988911
 21
-1.000000000855778
 31
0.0
  0
ARC
  5
203
330
22
100
AcDbEntity
  8
1
  6
Continuous
100
AcDbCircle
 10
16.9999999988911
 20
3.999999999144222
 30
0.0
 40
4.999999999999997
100
AcDbArc
 50
270.0
 51
323.130102354156
  0
ARC
  5
204
330
22
100
AcDbEntity
  8
1
  6
Continuous
100
AcDbCircle
 10
8.309793787596277
 20
3.999999999144222
 30
0.0
 40
5.000000000000001
100
AcDbArc
 50
265.0
 51
270.0
  0
LINE
  5
205
330
22
100
AcDbEntity
  8
1
  6
Continuous
100
AcDbLine
 10
6.857676750315022
 20
-6.965165426834773
 30
0.0
 11
0.6349861503111356
 21
-6.420750542705065
 31
0.0
  0
LINE
  5
206
330
22
100
AcDbEntity
  8
1
  6
Continuous
100
AcDbLine
 10
6.965165426867088
 20
-6.857676750282764
 30
0.0
 11
6.420750542737437
 21
-0.6349861502788485
 31
0.0
  0
LINE
  5
207
330
22
100
AcDbEntity
  8
1
  6
Continuous
100
AcDbLine
 10
6.330556833886817
 20
-0.5447924414283705
 30
0.0
 11
0.1078662338830441
 21
-0.000377557298691
 31
0.0
  0
LINE
  5
208
330
22
100
AcDbEntity
  8
1
  6
Continuous
100
AcDbLine
 10
0.0003775573309213
 20
-0.1078662338506717
 30
0.0
 11
0.544792441460686
 21
-6.330556833854558
 31
0.0
  0
CIRCLE
  5
209
330
22
100
AcDbEntity
  8
1
  6
Continuous
100
AcDbCircle
 10
3.482771492099005
 20
-3.482771492066775
 30
0.0
 40
1.875
  0
ARC
  5
20A
330
22
100
AcDbEntity
  8
1
  6
Continuous
100
AcDbCircle
 10
0.0992187500322643
 20
-0.0992187499999773
 30
0.0
 40
0.0992187500000001
100
AcDbArc
 50
84.99999999999977
 51
185.0
  0
ARC
  5
20B
330
22
100
AcDbEntity
  8
1
  6
Continuous
100
AcDbCircle
 10
6.321909350036094
 20
-0.6436336341295714
 30
0.0
 40
0.0992187499999993
100
AcDbArc
 50
4.999999999999503
 51
84.99999999999994
  0
ARC
  5
20C
330
22
100
AcDbEntity
  8
1
  6
Continuous
100
AcDbCircle
 10
6.866324234165745
 20
-6.866324234133487
 30
0.0
 40
0.0992187499999998
100
AcDbArc
 50
265.0
 51
4.999999999999982
  0
ARC
  5
20D
330
22
100
AcDbEntity
  8
1
  6
Continuous
100
AcDbCircle
 10
0.6436336341619153
 20
-6.321909350003892
 30
0.0
 40
0.0992187500000002
100
AcDbArc
 50
185.0000000000005
 51
264.9999999999993
  0
INSERT
  5
20E
330
22
100
AcDbEntity
  8
1
  6
Continuous
100
AcDbBlockReference
  2
LRIS-25-1_0001
 10
3.53580462940738
 20
-3.535804629375093
 30
0.0
  0
ARC
  5
20F
330
22
100
AcDbEntity
  8
1
  6
Continuous
100
AcDbCircle
 10
6.227843094776404
 20
-6.227843094744173
 30
0.0
 40
1.500000000000587
100
AcDbArc
 50
224.9999999999999
 51
45.00000000000009
  0
LINE
  5
210
330
22
100
AcDbEntity
  8
1
  6
Continuous
100
AcDbLine
 10
6.772085698352612
 20
-4.650765354759869
 30
0.0
 11
7.288503266556631
 21
-5.167182922963889
 31
0.0
  0
LINE
  5
211
330
22
100
AcDbEntity
  8
1
  6
Continuous
100
AcDbLine
 10
5.167182922996176
 20
-7.288503266524373
 30
0.0
 11
4.650765354792156
 21
-6.772085698320382
 31
0.0
  0
LINE
  5
214
330
22
100
AcDbEntity
  8
1
  6
PHANTOM
100
AcDbLine
 10
99.50000000003223
 20
1.937499999144208
 30
0.0
 11
100.0000000000322
 21
1.437499999144208
 31
0.0
  0
LINE
  5
215
330
22
100
AcDbEntity
  8
1
  6
PHANTOM
100
AcDbLine
 10
99.50000000003223
 20
-13.93750000085579
 30
0.0
 11
99.93750000003223
 21
-13.50000000085579
 31
0.0
  0
LINE
  5
216
330
22
100
AcDbEntity
  8
1
  6
Continuous
100
AcDbLine
 10
99.50000000003223
 20
1.499999999144208
 30
0.0
 11
99.50000000003223
 21
-3.401923789502476
 31
0.0
  0
LINE
  5
217
330
22
100
AcDbEntity
  8
1
  6
Continuous
100
AcDbLine
 10
99.50000000003223
 20
-8.598076212209094
 30
0.0
 11
99.50000000003223
 21
-13.50000000085579
 31
0.0
  0
ARC
  5
218
330
22
100
AcDbEntity
  8
1
  6
Continuous
100
AcDbCircle
 10
58.29016113284473
 20
-6.000000000855792
 30
0.0
 40
7.937499999999999
100
AcDbArc
 50
109.111732137199
 51
160.8882678628011
  0
ARC
  5
219
330
22
100
AcDbEntity
  8
1
  6
Continuous
100
AcDbCircle
 10
58.29016113284473
 20
-6.000000000855792
 30
0.0
 40
7.9375
100
AcDbArc
 50
199.1117321371989
 51
250.8882678628011
  0
ARC
  5
21A
330
22
100
AcDbEntity
  8
1
  6
Continuous
100
AcDbCircle
 10
58.29016113284473
 20
-6.000000000855792
 30
0.0
 40
7.937499999999999
100
AcDbArc
 50
289.1117321371989
 51
340.8882678628011
  0
ARC
  5
21B
330
22
100
AcDbEntity
  8
1
  6
Continuous
100
AcDbCircle
 10
58.29016113284473
 20
-6.000000000855792
 30
0.0
 40
7.937499999999999
100
AcDbArc
 50
19.11173213719897
 51
70.88826786280112
  0
LINE
  5
21C
330
22
100
AcDbEntity
  8
1
  6
Continuous
100
AcDbLine
 10
65.79016113284473
 20
-3.401172140069292
 30
0.0
 11
65.79016113284473
 21
-8.598827861642292
 31
0.0
  0
LINE
  5
21D
330
22
100
AcDbEntity
  8
1
  6
Continuous
100
AcDbLine
 10
50.79016113284473
 20
-3.401172140069292
 30
0.0
 11
50.79016113284473
 21
-8.598827861642292
 31
0.0
  0
LINE
  5
21E
330
22
100
AcDbEntity
  8
1
  6
Continuous
100
AcDbLine
 10
23.00000190738081
 20
1.499999999144222
 30
0.0
 11
99.93750000003223
 21
1.499999999144208
 31
0.0
  0
LINE
  5
21F
330
22
100
AcDbEntity
  8
1
  6
Continuous
100
AcDbLine
 10
23.32055243561058
 20
-13.50000000085578
 30
0.0
 11
99.93750000003223
 21
-13.50000000085579
 31
0.0
  0
LINE
  5
220
330
22
100
AcDbEntity
  8
1
  6
Continuous
100
AcDbLine
 10
23.43750190738081
 20
-3.401172140069292
 30
0.0
 11
99.50000000003223
 21
-3.401172140069306
 31
0.0
  0
LINE
  5
221
330
22
100
AcDbEntity
  8
1
  6
Continuous
100
AcDbLine
 10
23.43750190738081
 20
-8.598827861642292
 30
0.0
 11
99.50000000003223
 21
-8.598827861642292
 31
0.0
  0
LINE
  5
222
330
22
100
AcDbEntity
  8
1
  6
Continuous
100
AcDbLine
 10
99.93750000003223
 20
-13.50000000085579
 30
0.0
 11
100.0000000000322
 21
-13.43750000085579
 31
0.0
  0
ARC
  5
223
330
22
100
AcDbEntity
  8
1
  6
Continuous
100
AcDbCircle
 10
92.00000000003223
 20
-6.000000000855792
 30
0.0
 40
7.9375
100
AcDbArc
 50
340.8882678628011
 51
19.11173213719897
  0
LINE
  5
226
330
22
100
AcDbEntity
  8
1
  6
Continuous
100
AcDbLine
 10
20.9999999988911
 20
0.9999999991442223
 30
0.0
 11
22.50000190738081
 21
0.9999999991442223
 31
0.0
  0
LINE
  5
227
330
22
100
AcDbEntity
  8
1
  6
Continuous
100
AcDbLine
 10
23.43750190738081
 20
-13.50000000085578
 30
0.0
 11
23.43750190738081
 21
-8.598827861642292
 31
0.0
  0
LINE
  5
228
330
22
100
AcDbEntity
  8
1
  6
Continuous
100
AcDbLine
 10
23.43750190738081
 20
-3.401172140069292
 30
0.0
 11
23.43750190738081
 21
1.499999999144222
 31
0.0
  0
LINE
  5
229
330
22
100
AcDbEntity
  8
1
  6
Continuous
100
AcDbLine
 10
22.50000190738081
 20
0.9999999991442223
 30
0.0
 11
23.00000190738081
 21
1.499999999144222
 31
0.0
  0
LINE
  5
22A
330
22
100
AcDbEntity
  8
1
  6
Continuous
100
AcDbLine
 10
2.341950398340714
 20
-12.50000000085578
 30
0.0
 11
20.32055243561058
 21
-12.50000000085578
 31
0.0
  0
LINE
  5
22B
330
22
100
AcDbEntity
  8
1
  6
Continuous
100
AcDbLine
 10
1.298206066577677
 20
-11.50000000085578
 30
0.0
 11
2.298206066577677
 21
-12.50000000085578
 31
0.0
  0
ARC
  5
22C
330
22
100
AcDbEntity
  8
1
  6
Continuous
100
AcDbCircle
 10
20.32055243561058
 20
-17.50000000085578
 30
0.0
 40
5.0
100
AcDbArc
 50
53.13010235415597
 51
90.0
  0
ARC
  5
22D
330
22
100
AcDbEntity
  8
1
  6
Continuous
100
AcDbCircle
 10
30.93750190738103
 20
-6.000000000855778
 30
0.0
 40
7.937500000000117
100
AcDbArc
 50
160.8882678628013
 51
199.1117321371987
  0
POLYLINE
  5
22E
330
22
100
AcDbEntity
  8
1
  6
Continuous
100
AcDb2dPolyline
 66
     1
 10
0.0
 20
0.0
 30
0.0
  0
VERTEX
  5
22F
330
22E
100
AcDbEntity
  8
1
  6
Continuous
100
AcDbVertex
100
AcDb2dVertex
 10
12.40404591012253
 20
-6.000000030658072
 30
0.0
  0
VERTEX
  5
230
330
22E
100
AcDbEntity
  8
1
  6
Continuous
100
AcDbVertex
100
AcDb2dVertex
 10
12.34018110639823
 20
-4.615195195914367
 30
0.0
  0
VERTEX
  5
231
330
22E
100
AcDbEntity
  8
1
  6
Continuous
100
AcDbVertex
100
AcDb2dVertex
 10
12.15048663087475
 20
-3.290310984311873
 30
0.0
  0
VERTEX
  5
232
330
22E
100
AcDbEntity
  8
1
  6
Continuous
100
AcDbVertex
100
AcDb2dVertex
 10
11.84111471610163
 20
-2.06894147354717
 30
0.0
  0
VERTEX
  5
233
330
22E
100
AcDbEntity
  8
1
  6
Continuous
100
AcDbVertex
100
AcDb2dVertex
 10
11.42432545544227
 20
-1.000000000855778
 30
0.0
  0
SEQEND
  5
234
330
22E
100
AcDbEntity
  8
1
  0
POLYLINE
  5
235
330
22
100
AcDbEntity
  8
1
  6
Continuous
100
AcDb2dPolyline
 66
     1
 10
0.0
 20
0.0
 30
0.0
  0
VERTEX
  5
236
330
235
100
AcDbEntity
  8
1
  6
Continuous
100
AcDbVertex
100
AcDb2dVertex
 10
10.35373109553365
 20
-12.50000000085578
 30
0.0
  0
VERTEX
  5
237
330
235
100
AcDbEntity
  8
1
  6
Continuous
100
AcDbVertex
100
AcDb2dVertex
 10
10.7891267631461
 20
-12.04209029895198
 30
0.0
  0
VERTEX
  5
238
330
235
100
AcDbEntity
  8
1
  6
Continuous
100
AcDbVertex
100
AcDb2dVertex
 10
11.18886397808888
 20
-11.44938707115718
 30
0.0
  0
VERTEX
  5
239
330
235
100
AcDbEntity
  8
1
  6
Continuous
100
AcDbVertex
100
AcDb2dVertex
 10
11.54381309009892
 20
-10.73542024484188
 30
0.0
  0
VERTEX
  5
23A
330
235
100
AcDbEntity
  8
1
  6
Continuous
100
AcDbVertex
100
AcDb2dVertex
 10
11.84549647949268
 20
-9.917202982818694
 30
0.0
  0
VERTEX
  5
23B
330
235
100
AcDbEntity
  8
1
  6
Continuous
100
AcDbVertex
100
AcDb2dVertex
 10
12.26187070874374
 20
-8.049775707708577
 30
0.0
  0
VERTEX
  5
23C
330
235
100
AcDbEntity
  8
1
  6
Continuous
100
AcDbVertex
100
AcDb2dVertex
 10
12.40404591012253
 20
-6.000000030658072
 30
0.0
  0
SEQEND
  5
23D
330
235
100
AcDbEntity
  8
1
  0
LINE
  5
23F
330
22
100
AcDbEntity
  8
2
  6
Continuous
100
AcDbLine
 10
6.40278339389215
 20
70.30000001106512
 30
0.0
 11
8.362929344209533
 21
70.30000001106512
 31
0.0
  0
LINE
  5
240
330
22
100
AcDbEntity
  8
2
  6
Continuous
100
AcDbLine
 10
0.0000000000644604
 20
69.99999999914422
 30
0.0
 11
6.965542793306099
 21
69.99999999914422
 31
0.0
  0
LINE
  5
241
330
22
100
AcDbEntity
  8
2
  6
CENTER
100
AcDbLine
 10
3.480012893709045
 20
68.75899302873864
 30
0.0
 11
3.480012893709045
 21
80.45320987615841
 31
0.0
  0
LINE
  5
242
330
22
100
AcDbEntity
  8
2
  6
CENTER
100
AcDbLine
 10
104.3742441956954
 20
69.99999999914421
 30
0.0
 11
89.59739048590336
 21
69.99999999914421
 31
0.0
  0
LINE
  5
243
330
22
100
AcDbEntity
  8
2
  6
CENTER
100
AcDbLine
 10
89.59739048590336
 20
69.99999999914421
 30
0.0
 11
34.5959257636739
 21
69.99999999914422
 31
0.0
  0
LINE
  5
244
330
22
100
AcDbEntity
  8
2
  6
CENTER
100
AcDbLine
 10
34.5959257636739
 20
69.99999999914422
 30
0.0
 11
13.52009585283355
 21
69.99999999914422
 31
0.0
  0
LINE
  5
24F
330
22
100
AcDbEntity
  8
2
  6
Continuous
100
AcDbLine
 10
0.3200907476728503
 20
72.37999999914422
 30
0.0
 11
6.250011986480104
 21
72.37999999914422
 31
0.0
  0
LINE
  5
250
330
22
100
AcDbEntity
  8
2
  6
Continuous
100
AcDbLine
 10
12.40404591012253
 20
62.99999999914422
 30
0.0
 11
9.269237526261406
 21
69.72261827280579
 31
0.0
  0
ARC
  5
251
330
22
100
AcDbEntity
  8
2
  6
Continuous
100
AcDbCircle
 10
8.36292973922474
 20
69.30000001106512
 30
0.0
 40
1.0
100
AcDbArc
 50
25.00000000000015
 51
90.0
  0
LINE
  5
252
330
22
100
AcDbEntity
  8
2
  6
Continuous
100
AcDbLine
 10
22.50000095746407
 20
76.49999999914421
 30
0.0
 11
22.50000095746407
 21
63.49999999914422
 31
0.0
  0
LINE
  5
253
330
22
100
AcDbEntity
  8
2
  6
Continuous
100
AcDbLine
 10
0.0000000000322302
 20
69.99999999914422
 30
0.0
 11
0.3297497801726195
 21
72.37999999914422
 31
0.0
  0
LINE
  5
254
330
22
100
AcDbEntity
  8
2
  6
Continuous
100
AcDbLine
 10
6.928707614430891
 20
70.30000001106512
 30
0.0
 11
6.965542984165495
 21
69.99999999914422
 31
0.0
  0
LINE
  5
255
330
22
100
AcDbEntity
  8
2
  6
Continuous
100
AcDbLine
 10
6.121267187278704
 20
72.37999999914422
 30
0.0
 11
6.413494442227602
 21
69.99999999914422
 31
0.0
  0
LINE
  5
256
330
22
100
AcDbEntity
  8
2
  6
Continuous
100
AcDbLine
 10
6.250011986480104
 20
72.37999999914422
 30
0.0
 11
6.250011986480104
 21
71.57999999914424
 31
0.0
  0
LINE
  5
257
330
22
100
AcDbEntity
  8
2
  6
Continuous
100
AcDbLine
 10
6.40278323923684
 20
70.30000001106512
 30
0.0
 11
6.250011986480104
 21
71.57999999914424
 31
0.0
  0
LINE
  5
258
330
22
100
AcDbEntity
  8
2
  6
Continuous
100
AcDbLine
 10
0.3200907476728503
 20
76.99999999914422
 30
0.0
 11
0.3200907476728503
 21
72.37999999914422
 31
0.0
  0
LINE
  5
259
330
22
100
AcDbEntity
  8
2
  6
Continuous
100
AcDbLine
 10
8.091489073053708
 20
74.15331393049172
 30
0.0
 11
8.091489073053708
 21
71.12200031615274
 31
0.0
  0
LINE
  5
25A
330
22
100
AcDbEntity
  8
2
  6
Continuous
100
AcDbLine
 10
100.0000000000322
 20
62.56249999914421
 30
0.0
 11
100.0000000000322
 21
77.43749999914421
 31
0.0
  0
LINE
  5
25B
330
22
100
AcDbEntity
  8
2
  6
Continuous
100
AcDbLine
 10
99.50000000003223
 20
77.49999999914421
 30
0.0
 11
99.50000000003223
 21
72.59807621049752
 31
0.0
  0
LINE
  5
25C
330
22
100
AcDbEntity
  8
2
  6
Continuous
100
AcDbLine
 10
99.50000000003223
 20
67.40192378779089
 30
0.0
 11
99.50000000003223
 21
62.49999999914421
 31
0.0
  0
ARC
  5
25D
330
22
100
AcDbEntity
  8
2
  6
Continuous
100
AcDbCircle
 10
92.00000000003223
 20
69.99999999914421
 30
0.0
 40
7.9375
100
AcDbArc
 50
340.8882678628011
 51
19.11173213719897
  0
LINE
  5
25E
330
22
100
AcDbEntity
  8
2
  6
Continuous
100
AcDbLine
 10
23.00000190738081
 20
77.49999999914421
 30
0.0
 11
99.93750000003223
 21
77.49999999914421
 31
0.0
  0
LINE
  5
25F
330
22
100
AcDbEntity
  8
2
  6
Continuous
100
AcDbLine
 10
23.43750190738081
 20
72.59882785993074
 30
0.0
 11
99.50000000003223
 21
72.59882785993072
 31
0.0
  0
LINE
  5
260
330
22
100
AcDbEntity
  8
2
  6
Continuous
100
AcDbLine
 10
23.43750190738081
 20
67.40117213835771
 30
0.0
 11
99.50000000003223
 21
67.40117213835769
 31
0.0
  0
LINE
  5
261
330
22
100
AcDbEntity
  8
2
  6
Continuous
100
AcDbLine
 10
23.00000190738081
 20
62.49999999914422
 30
0.0
 11
99.93750000003223
 21
62.49999999914421
 31
0.0
  0
LINE
  5
262
330
22
100
AcDbEntity
  8
2
  6
Continuous
100
AcDbLine
 10
23.43750190738081
 20
62.49999999914422
 30
0.0
 11
23.43750190738081
 21
77.49999999914421
 31
0.0
  0
LINE
  5
263
330
22
100
AcDbEntity
  8
2
  6
Continuous
100
AcDbLine
 10
22.50000190738081
 20
62.99999999914422
 30
0.0
 11
22.50000190738081
 21
76.99999999914421
 31
0.0
  0
LINE
  5
264
330
22
100
AcDbEntity
  8
2
  6
Continuous
100
AcDbLine
 10
22.50000190738081
 20
76.99999999914421
 30
0.0
 11
23.00000190738081
 21
77.49999999914421
 31
0.0
  0
LINE
  5
265
330
22
100
AcDbEntity
  8
2
  6
Continuous
100
AcDbLine
 10
13.52009585283355
 20
76.99999999914422
 30
0.0
 11
22.50000190738081
 21
76.99999999914421
 31
0.0
  0
LINE
  5
266
330
22
100
AcDbEntity
  8
2
  6
Continuous
100
AcDbLine
 10
99.93750000003223
 20
62.49999999914421
 30
0.0
 11
100.0000000000322
 21
62.56249999914421
 31
0.0
  0
LINE
  5
267
330
22
100
AcDbEntity
  8
2
  6
Continuous
100
AcDbLine
 10
99.93750000003223
 20
77.49999999914421
 30
0.0
 11
100.0000000000322
 21
77.43749999914421
 31
0.0
  0
LINE
  5
268
330
22
100
AcDbEntity
  8
2
  6
Continuous
100
AcDbLine
 10
12.40404591012253
 20
62.99999999914422
 30
0.0
 11
22.50000190738081
 21
62.99999999914422
 31
0.0
  0
LINE
  5
269
330
22
100
AcDbEntity
  8
2
  6
Continuous
100
AcDbLine
 10
22.50000190738081
 20
62.99999999914422
 30
0.0
 11
23.00000190738081
 21
62.49999999914422
 31
0.0
  0
LINE
  5
26A
330
22
100
AcDbEntity
  8
2
  6
Continuous
100
AcDbLine
 10
22.50000095746407
 20
76.99999999914421
 30
0.0
 11
0.3200907476728503
 21
76.99999999914422
 31
0.0
  0
LINE
  5
26B
330
22
100
AcDbEntity
  8
2
  6
Continuous
100
AcDbLine
 10
16.99999999888962
 20
65.10102054399474
 30
0.0
 11
11.42432394011769
 21
65.10102054399474
 31
0.0
  0
POLYLINE
  5
26C
330
22
100
AcDbEntity
  8
2
  6
Continuous
100
AcDb2dPolyline
 66
     1
 10
0.0
 20
0.0
 30
0.0
  0
VERTEX
  5
26D
330
26C
100
AcDbEntity
  8
2
  6
Continuous
100
AcDbVertex
100
AcDb2dVertex
 10
0.3200907476728503
 20
74.09217211491082
 30
0.0
  0
VERTEX
  5
26E
330
26C
100
AcDbEntity
  8
2
  6
Continuous
100
AcDbVertex
100
AcDb2dVertex
 10
4.031669408596144
 20
74.50823101876981
 30
0.0
  0
VERTEX
  5
26F
330
26C
100
AcDbEntity
  8
2
  6
Continuous
100
AcDbVertex
100
AcDb2dVertex
 10
8.091452675497521
 20
74.89897945429371
 30
0.0
  0
SEQEND
  5
270
330
26C
100
AcDbEntity
  8
2
  0
LINE
  5
271
330
22
100
AcDbEntity
  8
2
  6
Continuous
100
AcDbLine
 10
16.9999999988911
 20
74.89897945429371
 30
0.0
 11
8.091452675497521
 21
74.89897945429371
 31
0.0
  0
ARC
  5
272
330
22
100
AcDbEntity
  8
2
  6
Continuous
100
AcDbCircle
 10
16.000000036144
 20
69.99999999914422
 30
0.0
 40
4.999999962747094
100
AcDbArc
 50
281.5369586842638
 51
78.46304131573615
  0
LINE
  5
2E8
330
22
100
AcDbEntity
  8
6
  6
Continuous
100
AcDbLine
 10
-49.99999999996771
 20
-6.965542794129675
 30
0.0
 11
-49.99999999996771
 21
-0.0000000008557777
 31
0.0
  0
LINE
  5
2E9
330
22
100
AcDbEntity
  8
6
  6
Continuous
100
AcDbLine
 10
-50.30000001188864
 20
-6.402783394715669
 30
0.0
 11
-50.30000001188864
 21
-12.50000000085578
 31
0.0
  0
LINE
  5
2EA
330
22
100
AcDbEntity
  8
6
  6
CENTER
100
AcDbLine
 10
-49.42242020365353
 20
-3.535804510972383
 30
0.0
 11
-57.69801139828314
 21
-3.535804510972383
 31
0.0
  0
LINE
  5
2EB
330
22
100
AcDbEntity
  8
6
  6
Continuous
100
AcDbLine
 10
-52.37999999996771
 20
-6.250011986447873
 30
0.0
 11
-52.37999999996771
 21
-0.2922272558046757
 31
0.0
  0
LINE
  5
2EC
330
22
100
AcDbEntity
  8
6
  6
Continuous
100
AcDbLine
 10
-54.09128714910457
 20
-0.3200907476405916
 30
0.0
 11
-52.37999999996771
 21
-0.3200907476405916
 31
0.0
  0
LINE
  5
2ED
330
22
100
AcDbEntity
  8
6
  6
Continuous
100
AcDbLine
 10
-49.99999999996771
 20
-0.0000000008557777
 30
0.0
 11
-52.37999999996771
 21
-0.2922272558046757
 31
0.0
  0
LINE
  5
2EE
330
22
100
AcDbEntity
  8
6
  6
Continuous
100
AcDbLine
 10
-49.99999999996771
 20
-1.000000000855778
 30
0.0
 11
-45.10102054481826
 21
-1.000000000855778
 31
0.0
  0
LINE
  5
2EF
330
22
100
AcDbEntity
  8
6
  6
Continuous
100
AcDbLine
 10
-49.99999999996771
 20
-6.965542984133265
 30
0.0
 11
-50.30000001188864
 21
-6.928707614398689
 31
0.0
  0
LINE
  5
2F0
330
22
100
AcDbEntity
  8
6
  6
Continuous
100
AcDbLine
 10
-52.37999999996771
 20
-6.250011986447873
 30
0.0
 11
-51.57999999996775
 21
-6.250011986447873
 31
0.0
  0
LINE
  5
2F1
330
22
100
AcDbEntity
  8
6
  6
Continuous
100
AcDbLine
 10
-50.30000001188864
 20
-6.402783239204581
 30
0.0
 11
-51.57999999996775
 21
-6.250011986447873
 31
0.0
  0
ARC
  5
2F2
330
22
100
AcDbEntity
  8
6
  6
Continuous
100
AcDbCircle
 10
-49.99999999996771
 20
-6.000000030658072
 30
0.0
 40
7.0
100
AcDbArc
 50
291.7867899554971
 51
248.2132100445029
  0
LINE
  5
2F3
330
22
100
AcDbEntity
  8
6
  6
CENTER
100
AcDbLine
 10
-58.99999999996771
 20
-6.000000030658072
 30
0.0
 11
-40.99999999996771
 21
-6.000000030658072
 31
0.0
  0
LINE
  5
2F4
330
22
100
AcDbEntity
  8
6
  6
CENTER
100
AcDbLine
 10
-49.99999999996771
 20
-15.00000003065807
 30
0.0
 11
-49.99999999996771
 21
2.999999969341928
 31
0.0
  0
LINE
  5
2F5
330
22
100
AcDbEntity
  8
6
  6
Continuous
100
AcDbLine
 10
-49.99999999996771
 20
-6.413494442195372
 30
0.0
 11
-52.37999999996771
 21
-6.14375046653177
 31
0.0
  0
ARC
  5
2F6
330
22
100
AcDbEntity
  8
6
  6
Continuous
100
AcDbCircle
 10
-49.99999999996771
 20
-6.000000030658072
 30
0.0
 40
7.937499999999999
100
AcDbArc
 50
19.11173236487189
 51
70.88826851984626
  0
ARC
  5
2F7
330
22
100
AcDbEntity
  8
6
  6
Continuous
100
AcDbCircle
 10
-49.99999999996771
 20
-6.000000030658072
 30
0.0
 40
7.937499999999999
100
AcDbArc
 50
109.1117314801537
 51
160.8882678628011
  0
ARC
  5
2F8
330
22
100
AcDbEntity
  8
6
  6
Continuous
100
AcDbCircle
 10
-49.99999999996771
 20
-6.000000030658072
 30
0.0
 40
7.937499999999999
100
AcDbArc
 50
199.1117321371989
 51
250.8882672057559
  0
ARC
  5
2F9
330
22
100
AcDbEntity
  8
6
  6
Continuous
100
AcDbCircle
 10
-49.99999999996771
 20
-6.000000030658072
 30
0.0
 40
7.937499999999999
100
AcDbArc
 50
289.1117327942441
 51
340.8882680904741
  0
LINE
  5
2FA
330
22
100
AcDbEntity
  8
6
  6
Continuous
100
AcDbLine
 10
-52.59807628588203
 20
-12.50000000085578
 30
0.0
 11
-47.4019237140534
 21
-12.50000000085578
 31
0.0
  0
LINE
  5
2FB
330
22
100
AcDbEntity
  8
6
  6
Continuous
100
AcDbLine
 10
-42.50000001029457
 20
-3.401172140069292
 30
0.0
 11
-42.49999998964097
 21
-8.598827861642263
 31
0.0
  0
LINE
  5
2FC
330
22
100
AcDbEntity
  8
6
  6
Continuous
100
AcDbLine
 10
-52.59882777474729
 20
1.499999999144222
 30
0.0
 11
-47.40117222518825
 21
1.499999999144222
 31
0.0
  0
LINE
  5
2FD
330
22
100
AcDbEntity
  8
6
  6
Continuous
100
AcDbLine
 10
-52.59882794676128
 20
-13.50000000085578
 30
0.0
 11
-47.40117205317426
 21
-13.50000000085578
 31
0.0
  0
LINE
  5
2FE
330
22
100
AcDbEntity
  8
6
  6
Continuous
100
AcDbLine
 10
-57.49999999996771
 20
-8.598827891444557
 30
0.0
 11
-57.49999999996771
 21
-3.401172169871671
 31
0.0
  0
LINE
  5
2FF
330
22
100
AcDbEntity
  8
6
  6
Continuous
100
AcDbLine
 10
-54.33012705674389
 20
-11.50000000085578
 30
0.0
 11
-50.30000001188864
 21
-11.50000000085578
 31
0.0
  0
DIMENSION
  5
41C
330
22
100
AcDbEntity
  8
AM_5
100
AcDbDimension
  2
*D3
 10
-23.71523549519668
 20
-6.000000000855764
 30
0.0
 11
-26.30523549519668
 21
-3.000000000427882
 31
0.0
 70
    32
 71
     5
 42
6.000000000855773
  3
Standard$0
100
AcDbAlignedDimension
 13
3.978019913704884
 23
0.0
 33
0.0
 14
22.49016189578424
 24
-6.000000000855778
 34
0.0
 50
90.0
100
AcDbRotatedDimension
1001
ACAD
1000
DSTYLE
1002
{
1070
    41
1040
3.0
1070
    42
1040
1.0
1070
    43
1040
5.0
1070
    44
1040
2.0
1070
    46
1040
3.0
1070
    73
1070
     0
1070
    74
1070
     0
1070
    77
1070
     1
1070
    78
1070
     8
1070
   140
1040
5.0
1070
   141
1040
2.0
1070
   145
1040
1.0
1070
   171
1070
     4
1070
   172
1070
     1
1070
   271
1070
     0
1002
}
  0
DIMENSION
  5
4A0
330
22
100
AcDbEntity
  8
AM_5
100
AcDbDimension
  2
*D4
 10
20.00000000003223
 20
21.60923278731747
 30
0.0
 11
10.0000000000322
 21
24.19923278731747
 31
0.0
 70
    32
  1
20
 71
     5
 42
20.00000000000006
  3
Standard$0
100
AcDbAlignedDimension
 13
0.0000000000321734
 23
-0.000377557298691
 33
0.0
 14
20.00000000003223
 24
0.0
 34
0.0
100
AcDbRotatedDimension
1001
ACAD
1000
DSTYLE
1002
{
1070
    41
1040
3.0
1070
    42
1040
1.0
1070
    43
1040
5.0
1070
    44
1040
2.0
1070
    46
1040
3.0
1070
    73
1070
     0
1070
    74
1070
     0
1070
    77
1070
     1
1070
    78
1070
     8
1070
   140
1040
5.0
1070
   141
1040
2.0
1070
   145
1040
1.0
1070
   171
1070
     4
1070
   172
1070
     1
1002
}
  0
LINE
  5
4D6
330
22
100
AcDbEntity
  8
0
100
AcDbLine
 10
0.0000000000322302
 20
0.9461047420647333
 30
0.0
 11
0.0000000000322302
 21
-1.254021015010665
 31
0.0
  0
DIMENSION
  5
53D
330
22
100
AcDbEntity
  8
AM_5
100
AcDbDimension
  2
*D5
 10
0.544792441460686
 20
-6.330556833854558
 30
0.0
 11
-9.607365862145477
 21
-25.34915495633124
 31
0.0
 70
    34
 71
     5
 42
0.0872664625997315
  3
Standard$2
100
AcDb2LineAngularDimension
 13
0.0000000000322302
 23
0.9461047420647333
 33
0.0
 14
0.0000000000322302
 24
-1.254021015010665
 34
0.0
 15
0.0003775573309213
 25
-0.1078662338506717
 35
0.0
 16
1.701572642801309
 26
-29.31842474787236
 36
0.0
1001
ACAD
1000
DSTYLE
1002
{
1070
    41
1040
3.0
1070
    42
1040
1.0
1070
    43
1040
5.0
1070
    44
1040
2.0
1070
    46
1040
3.0
1070
    73
1070
     0
1070
    74
1070
     0
1070
    77
1070
     1
1070
    78
1070
     8
1070
   140
1040
5.0
1070
   141
1040
2.0
1070
   145
1040
1.0
1070
   171
1070
     4
1070
   172
1070
     1
1002
}
  0
DIMENSION
  5
58B
330
22
100
AcDbEntity
  8
AM_5
100
AcDbDimension
  2
*D6
 10
52.00181851111364
 20
-10.84361985812366
 30
0.0
 11
88.40171952142703
 21
17.19354254566471
 31
0.0
 70
   163
 71
     5
 42
15.87500000000001
  3
Standard$3
100
AcDbDiametricDimension
 15
64.57850375457588
 25
-1.156380143587867
 35
0.0
 40
0.0
1001
ACAD
1000
DSTYLE
1002
{
1070
    41
1040
3.0
1070
    42
1040
1.0
1070
    43
1040
5.0
1070
    44
1040
2.0
1070
    46
1040
3.0
1070
    73
1070
     0
1070
    74
1070
     0
1070
    77
1070
     1
1070
    78
1070
     8
1070
   140
1040
5.0
1070
   141
1040
2.0
1070
   145
1040
1.0
1070
   171
1070
     4
1070
   172
1070
     1
1002
}
  0
DIMENSION
  5
5B6
330
22
100
AcDbEntity
  8
AM_5
100
AcDbDimension
  2
*D7
 10
65.79016113284473
 20
17.45332406161668
 30
0.0
 11
58.29016113284473
 21
20.04332406161668
 31
0.0
 70
    32
 71
     5
 42
15.0
  3
Standard$0
100
AcDbAlignedDimension
 13
50.79016113284473
 23
-3.401172140069235
 33
0.0
 14
65.79016113284473
 24
-3.401172140069349
 34
0.0
100
AcDbRotatedDimension
1001
ACAD
1000
DSTYLE
1002
{
1070
    41
1040
3.0
1070
    42
1040
1.0
1070
    43
1040
5.0
1070
    44
1040
2.0
1070
    46
1040
3.0
1070
    73
1070
     0
1070
    74
1070
     0
1070
    77
1070
     1
1070
    78
1070
     8
1070
   140
1040
5.0
1070
   141
1040
2.0
1070
   145
1040
1.0
1070
   171
1070
     4
1070
   172
1070
     1
1002
}
  0
DIMENSION
  5
5DE
330
22
100
AcDbEntity
  8
AM_5
100
AcDbDimension
  2
*D8
 10
100.0000000000322
 20
41.9379127895882
 30
0.0
 11
50.00000000003223
 21
44.5279127895882
 31
0.0
 70
    32
 71
     5
 42
100.0
  3
Standard$0
100
AcDbAlignedDimension
 13
0.0000000000322302
 23
69.99999999914422
 33
0.0
 14
100.0000000000322
 24
64.95096189346755
 34
0.0
100
AcDbRotatedDimension
1001
ACAD
1000
DSTYLE
1002
{
1070
    41
1040
3.0
1070
    42
1040
1.0
1070
    43
1040
5.0
1070
    44
1040
2.0
1070
    46
1040
3.0
1070
    73
1070
     0
1070
    74
1070
     0
1070
    77
1070
     1
1070
    78
1070
     8
1070
   140
1040
5.0
1070
   141
1040
2.0
1070
   145
1040
1.0
1070
   171
1070
     4
1070
   172
1070
     1
1002
}
  0
DIMENSION
  5
607
330
22
100
AcDbEntity
  8
AM_5
100
AcDbDimension
  2
*D9
 10
-13.35633329345756
 20
69.99999999914422
 30
0.0
 11
-13.35633329345757
 21
77.33999999914427
 31
0.0
 70
   160
 71
     5
 42
-1.0
  3
Standard$0
100
AcDbAlignedDimension
 13
0.0000000000644604
 23
69.99999999914422
 33
0.0
 14
0.0000000000644604
 24
69.99999999914422
 34
0.0
 50
90.0
100
AcDbRotatedDimension
1001
ACAD
1000
DSTYLE
1002
{
1070
    41
1040
3.0
1070
    42
1040
1.0
1070
    43
1040
5.0
1070
    44
1040
2.0
1070
    46
1040
3.0
1070
    73
1070
     0
1070
    74
1070
     0
1070
    77
1070
     1
1070
    78
1070
     8
1070
   140
1040
5.0
1070
   141
1040
2.0
1070
   145
1040
1.0
1070
   171
1070
     4
1070
   172
1070
     1
1002
}
  0
DIMENSION
  5
6AA
330
22
100
AcDbEntity
  8
AM_5
100
AcDbDimension
  2
*D10
 10
76.7394671463473
 20
-13.50000000085581
 30
0.0
 11
76.7394671463473
 21
-28.94830214492158
 31
0.0
 70
   160
 71
     5
 42
15.00000000000003
  3
Standard$0
100
AcDbAlignedDimension
 13
58.29016113284473
 23
1.499999999144222
 33
0.0
 14
58.29016113284473
 24
-13.50000000085581
 34
0.0
 50
90.0
100
AcDbRotatedDimension
1001
ACAD
1000
DSTYLE
1002
{
1070
    41
1040
3.0
1070
    42
1040
1.0
1070
    43
1040
5.0
1070
    44
1040
2.0
1070
    46
1040
3.0
1070
    73
1070
     0
1070
    74
1070
     0
1070
    77
1070
     1
1070
    78
1070
     8
1070
   140
1040
5.0
1070
   141
1040
2.0
1070
   145
1040
1.0
1070
   171
1070
     4
1070
   172
1070
     1
1002
}
  0
TEXT
  5
6D8
330
22
100
AcDbEntity
  8
0
100
AcDbText
 10
15.04158568905586
 20
-54.88898706609704
 30
0.0
 40
5.0
  1
%%uRS15H-SCLL06
100
AcDbText
  0
DIMENSION
  5
82D
330
22
100
AcDbEntity
  8
AM_5
100
AcDbDimension
  2
*D12
 10
0.1078662338830441
 20
-0.000377557298691
 30
0.0
 11
-15.41359609166665
 21
15.41359609169871
 31
0.0
 70
    34
 71
     5
 42
1.396263401595445
  3
Standard$2
100
AcDb2LineAngularDimension
 13
0.0003775573309213
 23
-0.1078662338506717
 33
0.0
 14
0.544792441460686
 24
-6.330556833854558
 34
0.0
 15
6.330556833886817
 25
-0.5447924414283705
 35
0.0
 16
-10.08636858106305
 26
16.34632634978252
 36
0.0
1001
ACAD
1000
DSTYLE
1002
{
1070
    41
1040
3.0
1070
    42
1040
1.0
1070
    43
1040
5.0
1070
    44
1040
2.0
1070
    46
1040
3.0
1070
    73
1070
     0
1070
    74
1070
     0
1070
    77
1070
     1
1070
    78
1070
     8
1070
   140
1040
5.0
1070
   141
1040
2.0
1070
   145
1040
1.0
1070
   171
1070
     4
1070
   172
1070
     1
1002
}
  0
ACAD_PROXY_ENTITY
  5
A87
330
22
100
AcDbEntity
  8
AM_5
100
AcDbProxyEntity
 90
      498
 91
      571
 95
       25
 70
     0
 92
      668
310
9C020000270000000C00000016000000000000C00C00000013000000010000000C00000016000000030000C30C00000017000000FFFFFFFF3C000000060000000200000078DD0A9B2EE747C020A4F0FC7B5241400000000000000000AB103ECE617A44C021A4F0FC7B52414000000000000000000C00000016000000000000
310
C00C00000010000000FFFFFFFF0C00000012000000FFFFFFFF0C00000017000000000000000C00000014000000010000000C00000013000000020000000C00000016000000030000C30C00000017000000FFFFFFFF3C0000000600000002000000AB103ECE617A44C021A4F0FC7B524140000000000000000078DD0A9B2EE7
310
42C022A4F0FC7B52414000000000000000000C00000016000000000000C00C00000010000000FFFFFFFF0C00000012000000FFFFFFFF0C00000017000000000000000C00000014000000010000000C00000013000000030000000C00000016000000030000C30C00000017000000FFFFFFFF3C0000000600000002000000AB
310
103ECE617A44C0786231EC661D4140000000000000000078DD0A9B2EE742C022A4F0FC7B52414000000000000000000C00000016000000000000C00C00000010000000FFFFFFFF0C00000012000000FFFFFFFF0C00000017000000000000000C00000014000000010000000C00000013000000040000000C00000016000000
310
030000C30C00000017000000FFFFFFFF3C000000060000000200000078DD0A9B2EE742C022A4F0FC7B5241400000000000000000AB103ECE617A44C0CBE5AF0D9187414000000000000000000C00000016000000000000C00C00000010000000FFFFFFFF0C00000012000000FFFFFFFF0C00000017000000000000000C0000
310
0014000000010000000C00000013000000050000000C00000016000000000000C0
 93
     1473
310
5DC780B789A825E42C008A93C3F1ED49050219FD35022281B66F19197D35022281B64F2A54051F8000000C800AA1E3742A6CBB9D1F0020A4F0FC7B5241409018FFFFFFFF1E3742A6CBB9D0B0022A4F0FC7B524140A8FFFFFFFF1FFFFFFFF0F1BA15365DCE8F801052787E3DA920A045409C870E8437101951D47C02C0F62A5
310
854710902A0000000000003C2FC65F4D4088A86D9BC68333333333333094041D050000000000003C2FC000000000000F0BF40401015213500500
340
71D
340
728
330
0
330
0
340
0
340
0
340
70C
330
0
330
0
 94
        0
  0
ACAD_PROXY_ENTITY
  5
A88
330
22
100
AcDbEntity
  8
AM_5
100
AcDbProxyEntity
 90
      498
 91
      571
 95
       25
 70
     0
 92
      668
310
9C020000270000000C00000016000000000000C00C00000013000000010000000C00000016000000030000C30C00000017000000FFFFFFFF3C000000060000000200000078DD0A9B2EE747C020A4F0FC7B52414000000000000000006DDD0A9B2EE747C0AAAE47605ECB3B4000000000000000000C00000016000000000000
310
C00C00000010000000FFFFFFFF0C00000012000000FFFFFFFF0C00000017000000000000000C00000014000000010000000C00000013000000020000000C00000016000000030000C30C00000017000000FFFFFFFF3C00000006000000020000006DDD0A9B2EE747C0AAAE47605ECB3B40000000000000000068DD0A9B2EE7
310
47C04448E1F9F7A4384000000000000000000C00000016000000000000C00C00000010000000FFFFFFFF0C00000012000000FFFFFFFF0C00000017000000000000000C00000014000000010000000C00000013000000030000000C00000016000000030000C30C00000017000000FFFFFFFF3C000000060000000200000016
310
1FCAAB431C48C0A9AE47605ECB3B40000000000000000068DD0A9B2EE747C04448E1F9F7A4384000000000000000000C00000016000000000000C00C00000010000000FFFFFFFF0C00000012000000FFFFFFFF0C00000017000000000000000C00000014000000010000000C00000013000000040000000C00000016000000
310
030000C30C00000017000000FFFFFFFF3C000000060000000200000068DD0A9B2EE747C04448E1F9F7A438400000000000000000C49B4B8A19B247C0ACAE47605ECB3B4000000000000000000C00000016000000000000C00C00000010000000FFFFFFFF0C00000012000000FFFFFFFF0C00000017000000000000000C0000
310
0014000000010000000C00000013000000050000000C00000016000000000000C0
 93
     1537
310
5DC68DD0A9B2EE747C013292EFE27E4CDD02465F4D4088A06D13C866F4D4088A06D13C0000000000003C2FEA54051F8000000C800AA1E3742A6CBB9D1F0020A4F0FC7B5241409018FFFFFFFF1A3742A6CBB9D1F004448E1F9F7A43840A8FFFFFFFF1FFFFFFFF0F1BA15365DCE8F801052787E3DA920A045409C870E8437101
310
951D47C0240295D8F8A210102A0000000000003C2FD197D35022281B44F28333333333333094041D050000000000003C2FC000000000000F0BF40401015213500500
340
71D
340
728
330
0
330
0
340
0
340
0
340
70C
330
0
330
0
 94
        0
  0
TEXT
  5
A89
330
22
100
AcDbEntity
  8
AM_6
100
AcDbText
 10
-48.66670730981923
 20
17.01692681877725
 30
0.0
 40
4.0
  1
0%%D
100
AcDbText
  0
TEXT
  5
A8A
330
22
100
AcDbEntity
  8
AM_6
100
AcDbText
 10
-36.08180469862572
 20
32.75198956816433
 30
0.0
 40
4.0
  1
0%%D
100
AcDbText
  0
ENDSEC
  0
SECTION
  2
OBJECTS
  0
DICTIONARY
  5
C
330
0
100
AcDbDictionary
281
     1
  3
ACAD_COLOR
350
1B
  3
ACAD_GROUP
350
D
  3
ACAD_LAYOUT
350
19
  3
ACAD_MATERIAL
350
1A
  3
ACAD_MLINESTYLE
350
16
  3
ACAD_PLOTSETTINGS
350
18
  3
ACAD_PLOTSTYLENAME
350
E
  3
ACAD_TABLESTYLE
350
1C
  3
AcAmCatalogState
350
39B
  3
ACDBHEADERROUNDTRIPXREC
350
AB0
  3
AcDbVariableDictionary
350
3EC
  3
ACDMSYSVARMGR
350
355
  3
ACGREF_MASTER
350
34F
  3
ACGREFACAD_MASTER
350
377
  3
AcmDictionary
350
399
  3
ACME_BOM_MANAGER_NAME
350
349
  3
ACME_COMMAND_HISTORY
350
346
  3
ACME_SCOPE_NAME
350
345
  3
ACMESTATEMGR
350
34E
  3
AcmeSysVarManager
350
347
  3
AcmSystemVariableManager
350
3A4
  3
AD_APPL
350
386
  3
ADSYSVARMGR
350
385
  3
AmdtNamedDwgMgr
350
372
  3
AMG
350
37B
  3
AMGSNAPSETTINGS
350
3DB
  3
AMI_MASTER
350
37A
  3
AUTOCAD_ASSEMBLIES_PROJECT
350
38E
  3
Designer_Assemblies_SysVars
350
389
  3
GREFAM_MODULE
350
37F
  0
DICTIONARY
  5
717
330
2
100
AcDbDictionary
280
     1
281
     1
  3
ACAD_LAYERSTATES
360
718
  0
DICTIONARY
  5
1B
102
{ACAD_REACTORS
330
C
102
}
330
C
100
AcDbDictionary
281
     1
  0
DICTIONARY
  5
D
102
{ACAD_REACTORS
330
C
102
}
330
C
100
AcDbDictionary
281
     1
  0
DICTIONARY
  5
19
102
{ACAD_REACTORS
330
C
102
}
330
C
100
AcDbDictionary
281
     1
  3
Model
350
25
  3
レイアウト1
350
21
  0
DICTIONARY
  5
1A
102
{ACAD_REACTORS
330
C
102
}
330
C
100
AcDbDictionary
281
     1
  0
DICTIONARY
  5
16
102
{ACAD_REACTORS
330
C
102
}
330
C
100
AcDbDictionary
281
     1
  3
Standard
350
17
  0
DICTIONARY
  5
18
102
{ACAD_REACTORS
330
C
102
}
330
C
100
AcDbDictionary
281
     1
  0
ACDBDICTIONARYWDFLT
  5
E
102
{ACAD_REACTORS
330
C
102
}
330
C
100
AcDbDictionary
281
     1
  3
Normal
350
F
100
AcDbDictionaryWithDefault
340
F
  0
DICTIONARY
  5
1C
102
{ACAD_REACTORS
330
C
102
}
330
C
100
AcDbDictionary
281
     1
  3
Standard
350
1D
  0
ACAD_PROXY_OBJECT
  5
39B
102
{ACAD_REACTORS
330
C
102
}
330
C
100
AcDbProxyObject
 90
      499
 91
      545
 95
       25
 70
     0
 93
      504
310
3FFFFFFFE00A0281402992E2E21BA3239AE483ECB654563CBCEAE4AABC7C0483ECB652E487CC6F6CBB846A445F7AE41BDC1B341A12E272A25C83ECB65400AA
  0
DICTIONARY
  5
AB0
102
{ACAD_REACTORS
330
C
102
}
330
C
100
AcDbDictionary
281
     1
  3
COLORDICT
350
AB1
  3
MATERIALDICT
350
AB2
  0
DICTIONARY
  5
3EC
102
{ACAD_REACTORS
330
C
102
}
330
C
100
AcDbDictionary
281
     1
  3
CTABLESTYLE
350
3ED
  3
DIMASSOC
350
AAE
  3
HIDETEXT
350
AAF
  0
ACAD_PROXY_OBJECT
  5
355
102
{ACAD_REACTORS
330
C
102
}
330
C
100
AcDbProxyObject
 90
      499
 91
      505
 95
       25
 70
     0
 93
      240
310
4C51A47A0000000000000000000000000000000000000000000000000000
330
356
330
357
330
358
330
359
330
35A
330
35B
330
35C
330
35D
330
35E
330
35F
330
360
330
361
330
362
330
363
330
364
330
365
330
366
330
367
330
368
330
369
330
36A
330
36B
330
36C
330
36D
330
36E
330
36F
 94
        0
  0
ACAD_PROXY_OBJECT
  5
34F
102
{ACAD_REACTORS
330
C
102
}
330
C
100
AcDbProxyObject
 90
      499
 91
      513
 95
       25
 70
     0
 93
       34
310
0400004280
  0
ACAD_PROXY_OBJECT
  5
377
102
{ACAD_REACTORS
330
C
102
}
330
C
100
AcDbProxyObject
 90
      499
 91
      522
 95
       25
 70
     0
 93
      114
310
04000041C080000000000000000000
  0
DICTIONARY
  5
399
102
{ACAD_REACTORS
330
C
102
}
330
C
100
AcDbDictionary
281
     1
  3
AcmBOMDATA
350
39A
  3
AcmStdDictionary
350
3A6
  3
AMDTSECTSYM_ARROWCOLOR
350
3C6
  0
ACAD_PROXY_OBJECT
  5
349
102
{ACAD_REACTORS
330
C
102
}
330
C
100
AcDbProxyObject
 90
      499
 91
      507
 95
       25
 70
     0
 93
       50
310
00010040400000
330
0
330
0
330
34A
 94
        0
  0
ACAD_PROXY_OBJECT
  5
346
102
{ACAD_REACTORS
330
C
102
}
330
C
100
AcDbProxyObject
 90
      499
 91
      504
 95
       25
 70
     0
 93
     5326
310
4780506524F544154458050844524F5047454F4D805044D4F564540405184D5347202D20436F6D6D616E642043414E43454C4C45442E01411693D3D3601415454D05591501014B5354D1C80B481414104E88080819195CDADD1BDC0B985C9E08119A5B1955995C9CDA5BDB8E880E4B8C8B8C0B8D0050E414D4454524553455
310
444424D4F4440805084E202D20554E444F014213880B4815539113C0504554E444F80504554E444F805044D4F5645805045A4F4F4D805055153415645404052D4D5347202D205050413A2020206465736B746F702E6172782046696C6556657273696F6E3A20392E322E302E3401411693D3D3601415454D05591501014B53
310
54D1C80B481414104E88080819195CDADD1BDC0B985C9E08119A5B1955995C9CDA5BDB8E880E4B8C8B8C0B8D005044C494E4540405184D5347202D20436F6D6D616E642043414E43454C4C45442E01415454D05591501014B5354D1C80B481414104E88080819195CDADD1BDC0B985C9E08119A5B1955995C9CDA5BDB8E880
310
E4B8C8B8C0B8D0050E414D4454524553455444424D4F4440805084E202D20554E444F014213880B4815539113C0504554E444F80504554E444F8050A50524F5045525449455380505455241534580504554E444F80506494E534552548050653454C4543548050844524F5047454F4D80508434F5059434C49508050551534
310
15645404052D4D5347202D205050413A2020206465736B746F702E6172782046696C6556657273696F6E3A20392E322E302E34014390535115149154D15511109353D1102014213880B4815539113C05084E202D20554E444F014115539113E014115539113E014154155491D1501014B5354D1C80B481414104E880808191
310
95CDADD1BDC0B985C9E08119A5B1955995C9CDA5BDB8E880E4B8C8B8C0B8D0
  0
ACAD_PROXY_OBJECT
  5
345
102
{ACAD_REACTORS
330
C
102
}
330
C
100
AcDbProxyObject
 90
      499
 91
      503
 95
       25
 70
     0
 93
      546
310
090000464080000000000000000012F4CE0000000000000000000000000000000000000000000000000000000000000000000000000000000000000000000000AAA406AA80
360
348
360
34A
360
350
360
351
360
352
360
353
360
356
360
357
360
358
360
359
360
35A
360
35B
360
35C
360
35D
360
35E
360
35F
360
360
360
361
360
362
360
363
360
364
360
365
360
366
360
367
360
368
360
369
360
36A
360
36B
360
36C
360
36D
360
36E
360
36F
360
381
360
382
360
383
360
384
360
38A
360
38B
360
38C
360
38D
360
392
360
393
360
394
360
395
360
396
360
397
360
3A5
 94
        0
  0
ACAD_PROXY_OBJECT
  5
34E
102
{ACAD_REACTORS
330
C
102
}
330
C
100
AcDbProxyObject
 90
      499
 91
      512
 95
       25
 70
     0
 93
       50
310
09000042641280
  0
ACAD_PROXY_OBJECT
  5
347
102
{ACAD_REACTORS
330
C
102
}
330
C
100
AcDbProxyObject
 90
      499
 91
      505
 95
       25
 70
     0
 93
       32
310
90140A00
330
348
 94
        0
  0
ACAD_PROXY_OBJECT
  5
3A4
102
{ACAD_REACTORS
330
C
102
}
330
C
100
AcDbProxyObject
 90
      499
 91
      505
 95
       25
 70
     0
 93
       32
310
90140A00
330
3A5
 94
        0
  0
ACAD_PROXY_OBJECT
  5
386
102
{ACAD_REACTORS
330
C
102
}
330
C
100
AcDbProxyObject
 90
      499
 91
      533
 95
       25
 70
     0
 93
       42
310
000900004040
330
381
 94
        0
  0
ACAD_PROXY_OBJECT
  5
385
102
{ACAD_REACTORS
330
C
102
}
330
C
100
AcDbProxyObject
 90
      499
 91
      505
 95
       25
 70
     0
 93
        8
310
AA
  0
ACAD_PROXY_OBJECT
  5
372
102
{ACAD_REACTORS
330
C
102
}
330
C
100
AcDbProxyObject
 90
      499
 91
      519
 95
       25
 70
     0
 93
       42
310
000100005E80
330
350
 94
        0
  0
DICTIONARY
  5
37B
102
{ACAD_REACTORS
330
C
102
}
330
C
100
AcDbDictionary
281
     1
  3
AcMgSettings
350
37C
  3
AMGLAYCFG
350
3A8
  0
DICTIONARY
  5
3DB
102
{ACAD_REACTORS
330
C
102
}
330
C
100
AcDbDictionary
281
     1
  3
DIMENSION
350
3E0
  3
FEA
350
3DF
  3
HATCH (1)
350
3DC
  3
HATCH (2)
350
3DD
  3
SIMPLE WELD
350
3E1
  3
SYMBOLS
350
3DE
  0
ACAD_PROXY_OBJECT
  5
37A
102
{ACAD_REACTORS
330
C
102
}
330
C
100
AcDbProxyObject
 90
      499
 91
      525
 95
       25
 70
     0
 93
       34
310
0500004280
  0
ACAD_PROXY_OBJECT
  5
38E
102
{ACAD_REACTORS
330
C
102
}
330
C
100
AcDbProxyObject
 90
      499
 91
      537
 95
       25
 70
     0
 93
       98
310
0900004E400000000000000000
330
395
330
0
330
396
330
0
330
0
330
0
330
0
330
0
 94
        0
  0
ACAD_PROXY_OBJECT
  5
389
102
{ACAD_REACTORS
330
C
102
}
330
C
100
AcDbProxyObject
 90
      499
 91
      505
 95
       25
 70
     0
 93
       56
310
90441600000000
330
38A
330
38B
330
38C
330
38D
 94
        0
  0
ACAD_PROXY_OBJECT
  5
37F
102
{ACAD_REACTORS
330
C
102
}
330
C
100
AcDbProxyObject
 90
      499
 91
      527
 95
       25
 70
     0
 93
        8
310
05
  0
DICTIONARY
  5
718
102
{ACAD_REACTORS
330
717
102
}
330
717
100
AcDbDictionary
281
     1
  0
LAYOUT
  5
25
102
{ACAD_REACTORS
330
19
102
}
330
19
100
AcDbPlotSettings
  1

  2
Canon LBP9100C
  4
A4
  6

 40
5.789083480834961
 41
5.789072036743164
 42
5.789093017578125
 43
5.789093017578125
 44
209.9733276367188
 45
296.9259948730469
 46
0.0
 47
0.0
 48
332.9508777298951
 49
-74.06102174529275
140
532.7057094828015
141
81.6835842655936
142
1.0
143
0.785022240298168
 70
 11952
 72
     1
 73
     1
 74
     4
  7
sei_cad.ctb
 75
     0
147
1.273849260143482
148
-332.9508777298951
149
74.06102174529275
100
AcDbLayout
  1
Model
 70
     1
 71
     0
 10
0.0
 20
0.0
 11
12.0
 21
9.0
 12
0.0
 22
0.0
 32
0.0
 14
0.0
 24
0.0
 34
0.0
 15
0.0
 25
0.0
 35
0.0
146
0.0
 13
0.0
 23
0.0
 33
0.0
 16
1.0
 26
0.0
 36
0.0
 17
0.0
 27
1.0
 37
0.0
 76
     0
330
22
1001
ACAD_PSEXT
1000
Canon LBP9100C
1000
Canon LBP9100C
1000
IP_10.254.89.242
1000

1070
     0
  0
LAYOUT
  5
21
102
{ACAD_REACTORS
330
19
102
}
330
19
100
AcDbPlotSettings
  1

  2
Canon LBP-1420
  4

  6

 40
0.0
 41
0.0
 42
0.0
 43
0.0
 44
0.0
 45
0.0
 46
0.0
 47
0.0
 48
0.0
 49
0.0
140
0.0
141
0.0
142
1.0
143
1.0
 70
   688
 72
     0
 73
     0
 74
     5
  7
sei_cad.ctb
 75
    16
147
1.0
148
0.0
149
0.0
100
AcDbLayout
  1
レイアウト1
 70
     1
 71
     1
 10
0.0
 20
0.0
 11
12.0
 21
9.0
 12
0.0
 22
0.0
 32
0.0
 14
1.000000000000000E+20
 24
1.000000000000000E+20
 34
1.000000000000000E+20
 15
-1.000000000000000E+20
 25
-1.000000000000000E+20
 35
-1.000000000000000E+20
146
0.0
 13
0.0
 23
0.0
 33
0.0
 16
1.0
 26
0.0
 36
0.0
 17
0.0
 27
1.0
 37
0.0
 76
     0
330
1E
  0
MLINESTYLE
  5
17
102
{ACAD_REACTORS
330
16
102
}
330
16
100
AcDbMlineStyle
  2
STANDARD
 70
     0
  3

 62
   256
 51
90.0
 52
90.0
 71
     2
 49
0.5
 62
   256
  6
BYLAYER
 49
-0.5
 62
   256
  6
BYLAYER
  0
ACDBPLACEHOLDER
  5
F
102
{ACAD_REACTORS
330
E
102
}
330
E
  0
TABLESTYLE
  5
1D
102
{ACAD_REACTORS
330
1C
102
}
330
1C
100
AcDbTableStyle
  3
Standard
 70
     0
 71
     0
 40
0.06
 41
0.06
280
     0
281
     0
  7
STANDARD
140
0.18
170
     2
 62
     0
 63
     7
283
     0
274
    -2
284
     1
 64
     0
275
    -2
285
     1
 65
     0
276
    -2
286
     1
 66
     0
277
    -2
287
     1
 67
     0
278
    -2
288
     1
 68
     0
279
    -2
289
     1
 69
     0
  7
STANDARD
140
0.25
170
     5
 62
     0
 63
     7
283
     0
274
    -2
284
     1
 64
     0
275
    -2
285
     1
 65
     0
276
    -2
286
     1
 66
     0
277
    -2
287
     1
 67
     0
278
    -2
288
     1
 68
     0
279
    -2
289
     1
 69
     0
  7
STANDARD
140
0.18
170
     5
 62
     0
 63
     7
283
     0
274
    -2
284
     1
 64
     0
275
    -2
285
     1
 65
     0
276
    -2
286
     1
 66
     0
277
    -2
287
     1
 67
     0
278
    -2
288
     1
 68
     0
279
    -2
289
     1
 69
     0
  0
XRECORD
  5
AB1
102
{ACAD_REACTORS
330
AB0
102
}
330
AB0
100
AcDbXrecord
280
     1
340
1B
  0
XRECORD
  5
AB2
102
{ACAD_REACTORS
330
AB0
102
}
330
AB0
100
AcDbXrecord
280
     1
340
1A
  0
DICTIONARYVAR
  5
3ED
102
{ACAD_REACTORS
330
3EC
102
}
330
3EC
100
DictionaryVariables
280
     0
  1
STANDARD
  0
DICTIONARYVAR
  5
AAE
102
{ACAD_REACTORS
330
3EC
102
}
330
3EC
100
DictionaryVariables
280
     0
  1
1
  0
DICTIONARYVAR
  5
AAF
102
{ACAD_REACTORS
330
3EC
102
}
330
3EC
100
DictionaryVariables
280
     0
  1
0
  0
ACAD_PROXY_OBJECT
  5
39A
102
{ACAD_REACTORS
330
399
102
}
330
399
100
AcDbProxyObject
 90
      499
 91
      544
 95
       25
 70
     0
 93
       76
310
90100057356C1D774160
  0
DICTIONARY
  5
3A6
102
{ACAD_REACTORS
330
399
102
}
330
399
100
AcDbDictionary
281
     1
  3
ANSI
350
3A7
  3
JIS
350
71D
  0
XRECORD
  5
3C6
102
{ACAD_REACTORS
330
399
102
}
330
399
100
AcDbXrecord
280
     1
 90
-1023410169
  0
ACAD_PROXY_OBJECT
  5
348
330
345
100
AcDbProxyObject
 90
      499
 91
      506
 95
       25
 70
     0
 93
      156
310
000101439050D35154D6535093D314D256915080
330
345
 94
        0
  0
ACAD_PROXY_OBJECT
  5
34A
330
345
100
AcDbProxyObject
 90
      499
 91
      508
 95
       25
 70
     0
 93
      120
310
000101422565255A6557080C402B00
330
345
330
0
330
0
 94
        0
  0
ACAD_PROXY_OBJECT
  5
350
330
345
100
AcDbProxyObject
 90
      499
 91
      514
 95
       25
 70
     0
 93
      366
310
0001014124FEA55D00507392E322E302E32014124FEA55D00507392E322E302E3240501000041905394D24CCC658
330
345
330
351
330
355
 94
        0
  0
ACAD_PROXY_OBJECT
  5
351
330
345
100
AcDbProxyObject
 90
      499
 91
      515
 95
       25
 70
     0
 93
       48
310
000190140A00
330
345
330
352
 94
        0
  0
ACAD_PROXY_OBJECT
  5
352
330
345
100
AcDbProxyObject
 90
      499
 91
      516
 95
       25
 70
     0
 93
       48
310
0001AA000000
330
345
330
21
330
353
330
0
 94
        0
  0
ACAD_PROXY_OBJECT
  5
353
330
345
100
AcDbProxyObject
 90
      499
 91
      517
 95
       25
 70
     0
 93
       28
310
0001AAA0
330
345
 94
        0
  0
ACAD_PROXY_OBJECT
  5
356
330
345
100
AcDbProxyObject
 90
      499
 91
      506
 95
       25
 70
     0
 93
      108
310
000101421053521310D05310D010
330
345
 94
        0
  0
ACAD_PROXY_OBJECT
  5
357
330
345
100
AcDbProxyObject
 90
      499
 91
      506
 95
       25
 70
     0
 93
      124
310
00010142905354915554D15112535010
330
345
 94
        0
  0
ACAD_PROXY_OBJECT
  5
358
330
345
100
AcDbProxyObject
 90
      499
 91
      506
 95
       25
 70
     0
 93
      132
310
00010143105354D150D51253D391125360
330
345
 94
        0
  0
ACAD_PROXY_OBJECT
  5
359
330
345
100
AcDbProxyObject
 90
      499
 91
      506
 95
       25
 70
     0
 93
      124
310
00010142905355941093D49111549010
330
345
 94
        0
  0
ACAD_PROXY_OBJECT
  5
35A
330
345
100
AcDbProxyObject
 90
      499
 91
      506
 95
       25
 70
     0
 93
      116
310
0001014290535115D1D0D3D313D4A0
330
345
 94
        0
  0
ACAD_PROXY_OBJECT
  5
35B
330
345
100
AcDbProxyObject
 90
      499
 91
      506
 95
       25
 70
     0
 93
      148
310
00010143505355925155D49151949154D21010
330
345
 94
        0
  0
ACAD_PROXY_OBJECT
  5
35C
330
345
100
AcDbProxyObject
 90
      499
 91
      506
 95
       25
 70
     0
 93
      172
310
00010144105350539393D51154149154D15495915010
330
345
 94
        0
  0
ACAD_PROXY_OBJECT
  5
35D
330
345
100
AcDbProxyObject
 90
      499
 91
      506
 95
       25
 70
     0
 93
      172
310
00010144105350555513D11253505494905391D15010
330
345
 94
        0
  0
ACAD_PROXY_OBJECT
  5
35E
330
345
100
AcDbProxyObject
 90
      499
 91
      506
 95
       25
 70
     0
 93
      124
310
00010142D05351561514915191125360
330
345
 94
        0
  0
ACAD_PROXY_OBJECT
  5
35F
330
345
100
AcDbProxyObject
 90
      499
 91
      506
 95
       25
 70
     0
 93
      132
310
00010142D05355105410539393D5115010
330
345
 94
        0
  0
ACAD_PROXY_OBJECT
  5
360
330
345
100
AcDbProxyObject
 90
      499
 91
      506
 95
       25
 70
     0
 93
      108
310
00010142105350555513D0D31010
330
345
 94
        0
  0
ACAD_PROXY_OBJECT
  5
361
330
345
100
AcDbProxyObject
 90
      499
 91
      506
 95
       25
 70
     0
 93
      108
310
00010142105350D3119150551050
330
345
 94
        0
  0
ACAD_PROXY_OBJECT
  5
362
330
345
100
AcDbProxyObject
 90
      499
 91
      506
 95
       25
 70
     0
 93
      108
310
00010142105350D315925155D3F0
330
345
 94
        0
  0
ACAD_PROXY_OBJECT
  5
363
330
345
100
AcDbProxyObject
 90
      499
 91
      506
 95
       25
 70
     0
 93
      148
310
0001014350535212511156915493D112535010
330
345
 94
        0
  0
ACAD_PROXY_OBJECT
  5
364
330
345
100
AcDbProxyObject
 90
      499
 91
      506
 95
       25
 70
     0
 93
      124
310
00010142905352105510D21254D3D010
330
345
 94
        0
  0
ACAD_PROXY_OBJECT
  5
365
330
345
100
AcDbProxyObject
 90
      499
 91
      506
 95
       25
 70
     0
 93
      148
310
00010143905354D25391D31152105513105660
330
345
 94
        0
  0
ACAD_PROXY_OBJECT
  5
366
330
345
100
AcDbProxyObject
 90
      499
 91
      506
 95
       25
 70
     0
 93
      124
310
00010142D0535115D1D193111254D420
330
345
 94
        0
  0
ACAD_PROXY_OBJECT
  5
367
330
345
100
AcDbProxyObject
 90
      499
 91
      506
 95
       25
 70
     0
 93
      100
310
00010142105350555513D213A0
330
345
 94
        0
  0
ACAD_PROXY_OBJECT
  5
368
330
345
100
AcDbProxyObject
 90
      499
 91
      506
 95
       25
 70
     0
 93
      116
310
000101425053521390D3D553951010
330
345
 94
        0
  0
ACAD_PROXY_OBJECT
  5
369
330
345
100
AcDbProxyObject
 90
      499
 91
      506
 95
       25
 70
     0
 93
      108
310
0001014210535213941493D29010
330
345
 94
        0
  0
ACAD_PROXY_OBJECT
  5
36A
330
345
100
AcDbProxyObject
 90
      499
 91
      506
 95
       25
 70
     0
 93
      108
310
0001014210535213951654115070
330
345
 94
        0
  0
ACAD_PROXY_OBJECT
  5
36B
330
345
100
AcDbProxyObject
 90
      499
 91
      506
 95
       25
 70
     0
 93
      108
310
000101421053521395925155D0F0
330
345
 94
        0
  0
ACAD_PROXY_OBJECT
  5
36C
330
345
100
AcDbProxyObject
 90
      499
 91
      506
 95
       25
 70
     0
 93
      140
310
00010143505354D150D51253D390D3D41660
330
345
 94
        0
  0
ACAD_PROXY_OBJECT
  5
36D
330
345
100
AcDbProxyObject
 90
      499
 91
      506
 95
       25
 70
     0
 93
      108
310
00010142105350D3141493D29030
330
345
 94
        0
  0
ACAD_PROXY_OBJECT
  5
36E
330
345
100
AcDbProxyObject
 90
      499
 91
      518
 95
       25
 70
     0
 93
      212
310
00010143905350555513D2105510D21493D500000000000002E400
330
345
 94
        0
  0
ACAD_PROXY_OBJECT
  5
36F
330
345
100
AcDbProxyObject
 90
      499
 91
      506
 95
       25
 70
     0
 93
      156
310
00010143905350555513D2105510D21111551010
330
345
 94
        0
  0
ACAD_PROXY_OBJECT
  5
381
330
345
100
AcDbProxyObject
 90
      499
 91
      529
 95
       25
 70
     0
 93
      698
310
0001000000009AA6A9AA4051E546875204175672032342030303A30393A353120323030362028555443290141CE4B8C8B8C0B8C80518547565204F63742031322031313A31303A343620323031300141CE4B8C8B8C0B8C80
330
345
330
382
330
383
330
385
330
0
 94
        0
  0
ACAD_PROXY_OBJECT
  5
382
330
345
100
AcDbProxyObject
 90
      499
 91
      530
 95
       25
 70
     0
 93
       70
310
0001AAA80820000000
330
345
330
382
330
382
 94
        0
  0
ACAD_PROXY_OBJECT
  5
383
330
345
100
AcDbProxyObject
 90
      499
 91
      531
 95
       25
 70
     0
 93
       48
310
000100000000
330
345
330
0
330
384
330
0
330
0
 94
        0
  0
ACAD_PROXY_OBJECT
  5
384
330
345
100
AcDbProxyObject
 90
      499
 91
      532
 95
       25
 70
     0
 93
       40
310
000100AAAA
330
345
330
0
 94
        0
  0
ACAD_PROXY_OBJECT
  5
38A
330
345
100
AcDbProxyObject
 90
      499
 91
      536
 95
       25
 70
     0
 93
      180
310
00010143105050D3D35411119390535140504434F4D500
330
345
 94
        0
  0
ACAD_PROXY_OBJECT
  5
38B
330
345
100
AcDbProxyObject
 90
      499
 91
      536
 95
       25
 70
     0
 93
      212
310
0001014390505193D311115491119390535140506466F6C6465720
330
345
 94
        0
  0
ACAD_PROXY_OBJECT
  5
38C
330
345
100
AcDbProxyObject
 90
      499
 91
      536
 95
       25
 70
     0
 93
      180
310
00010143105050539393D1119390535140504284156290
330
345
 94
        0
  0
ACAD_PROXY_OBJECT
  5
38D
330
345
100
AcDbProxyObject
 90
      499
 91
      536
 95
       25
 70
     0
 93
      436
310
00010143905050D3D35415925155D31254D50052295BD96CA0A90B396CA0A894591A496CA0A8DB691A496CA0A89BA96CA0A95E28F95310
330
345
 94
        0
  0
ACAD_PROXY_OBJECT
  5
392
330
345
100
AcDbProxyObject
 90
      499
 91
      538
 95
       25
 70
     0
 93
       32
310
00010000
330
345
340
38F
330
394
330
38F
 94
        0
  0
ACAD_PROXY_OBJECT
  5
393
330
345
100
AcDbProxyObject
 90
      499
 91
      539
 95
       25
 70
     0
 93
       18
310
000180
330
345
 94
        0
  0
ACAD_PROXY_OBJECT
  5
394
330
345
100
AcDbProxyObject
 90
      499
 91
      540
 95
       25
 70
     0
 93
      186
310
000101431494CC4D520B54D0D3130C0D9050055401550000
330
345
330
392
330
393
 94
        0
  0
ACAD_PROXY_OBJECT
  5
395
330
345
100
AcDbProxyObject
 90
      499
 91
      541
 95
       25
 70
     0
 93
      178
310
000100AAAAAA8B20513FDD0469D069C62C3839F6759880
330
345
330
394
 94
        0
  0
ACAD_PROXY_OBJECT
  5
396
330
345
100
AcDbProxyObject
 90
      499
 91
      542
 95
       25
 70
     0
 93
      108
310
000190140A000000000000AAAAA0
330
345
330
397
330
397
330
397
330
397
330
397
330
0
 94
        0
  0
ACAD_PROXY_OBJECT
  5
397
330
345
100
AcDbProxyObject
 90
      499
 91
      543
 95
       25
 70
     0
 93
       51
310
00010000AAAA80
330
345
330
396
330
394
 94
        0
  0
ACAD_PROXY_OBJECT
  5
3A5
330
345
100
AcDbProxyObject
 90
      499
 91
      536
 95
       25
 70
     0
 93
      148
310
00010142105350D55494D51100504414E53490
330
345
 94
        0
  0
DICTIONARY
  5
37C
102
{ACAD_REACTORS
330
37B
102
}
330
37B
100
AcDbDictionary
281
     1
  3
DWGSETTINGS
350
37D
  3
Shaft
350
8C9
  3
TRANSSETTINGS
350
37E
  0
ACAD_PROXY_OBJECT
  5
3A8
102
{ACAD_REACTORS
330
37B
102
}
330
37B
100
AcDbProxyObject
 90
      499
 91
      551
 95
       25
 70
     0
 93
    17920
310
41503491013041105357CC201C00030C011E441013141105357CC603800030C011E441013241105357CCA01400030C011E441013341105357CCE01800030C010F9013441105357CD200C00030C010F9013541105357CD600C00030C010F9013641105357CDA00800030C011E9013741105357CDE01000030C010F901384110
310
5357CE200400030C010F9013941105357CE63F400030C0241102324141505357CC4C201C00030C011E902344141505357CC4C600C00030C010F902495041505357CC4CA01C00030C011E40902304E41505357CC13A01C00030C011E902314E41505357CC53A03800030C011E902324E41505357CC93A01400030C011E90233
310
4E41505357CCD3A01800030C010F902344E41505357CD13A00C00030C010F902354E41505357CD53A00C00030C010F902364E41505357CD93A00800030C011E902374E41505357CDD3A01000030C010F902384E41505357CE13A00400030C010F902394E41505357CE53A3F400030C024110332414E41905357CC4C13A01C0
310
0030C011E90334414E41905357CC4C53A00C00030C010F90349504E41905357CC4C93A01C00030C011E409044B4C494E41505357D0D3200400030C010F42504494E464F42105357D410549151A01000030C010F42D055241484D3541905357D093D4A01C00030C011E425045649455742105357D5925155D4E00400030C010
310
F42D06424548494E4441905357D25395A3F400030C0243505545241494C41505357D514A00C00030C010F4250348494441905357D21251201C00030C010F4250356495341905357D59254E01C00030C011E4250650415244494D42505357D41054911253600C00030C010F4250652454644494D42505357D49151911253601
310
000030C010F425534110921395901398000000C0003FFFFFFFE415092139594D06424548494E448000000C0003FFFFFFFE411093D48C9055241484D358010000C30043E411093D48CD055241484D358020000C30047A411093D48D5055241484D358000000C0003FFFFFFFE4110D0530C901348000000C0003FFFFFFFE4110
310
D0530CD01348020000C30047A4110D0530D501348070000C30047A4110D0530DD013481E0000C3004F24110D15393901378000000C0003FFFFFFFE4110D15395D01378000000C0003FFFFFFFE4110D312539044B4C494E8000000C0003FFFFFFFE4110D3D38C501308000000C0003FFFFFFFD034110D3D38C901318000000C
310
0003FFFFFFFD034110D3D38CD01328000000C0003FFFFFFFD034110D3D38D101328000000C0003FFFFFFFD034111115510501348000000C0003FFFFFFFE4111125051D01358000000C0003FFFFFFFE4111125312501358000000C0003FFFFFFFE411112535410650415244494D8000000C0003FFFFFFFE4111125354906524
310
54644494D8000000C0003FFFFFFFE4111915353901388000000C0003FFFFFFFE415191535413901388030000C3003FFFFFFFE4151915354D410234418000000C0003FFFFFFFE4151915354D510234418030000C30043E415191535593901328000000C0003FFFFFFFE415191535595101328030000C30043E4112105510D01
310
388000000C0003FFFFFFFD014112125113901338000000C0003FFFFFFFD034112125115D01338000000C0003FFFFFFFD034112131253901348000000C0003FFFFFFFD01411213D0D3901378000000C0003FFFFFFFE411213D0D5D01378000000C0003FFFFFFFE4112539193D04494E464F8000000C0003FFFFFFFE41131150
310
51101358000000C0003FFFFFFFE419397D0921395902394E8000000C0003FFFFFFFE419397D0D3D38C502304E8000000C0003FFFFFFFD03419397D0D3D38C902314E8000000C0003FFFFFFFD03419397D0D3D38CD02324E8000000C0003FFFFFFFD03419397D0D3D38D102324E8000000C0003FFFFFFFD03419397D0D15393
310
902374E8000000C0003FFFFFFFE419397D0D15395D02374E8000000C0003FFFFFFFE419397D1125312502354E8000000C0003FFFFFFFE419397D2105510D02384E8000000C0003FFFFFFFD01419397D2125113902334E8000000C0003FFFFFFFD03419397D2125115D02334E8000000C0003FFFFFFFD03419397D311505110
310
2354E8000000C0003FFFFFFFE419397D391D25410349504E8000000C0003FFFFFFFE419397D412105390334414E8000000C0003FFFFFFFE419397D510D3D3902304E8000000C0003FFFFFFFD03419397D5121312502344E8000000C0003FFFFFFFD01419397D5131153902304E8000000C0003FFFFFFFD03419397D5941312
310
50332414E8000000C0003FFFFFFFE411391D25410249508000000C0003FFFFFFFE411410530C9055241484D358010000C30043E411410530CD055241484D358020000C30047A411410530D5055241484D358000000C0003FFFFFFFE411412105390234418000000C0003FFFFFFFE411413D4D3901358000000C0003FFFFFFF
310
E411490D1D3901378000000C0003FFFFFFFE411490D1D5D01378000000C0003FFFFFFFE4114D09492D01348070000C300479014114D150D5101348000000C0003FFFFFFFD014114D6508CD01358020000C30047A411354D653501358020000C30047A411510D3D3901308000000C0003FFFFFFFD0341151213125013480000
310
00C0003FFFFFFFD01411512550C9055241484D358010000C30043E411512550CD055241484D358020000C30047A411512550D5055241484D358000000C0003FFFFFFFE4115131153901308000000C0003FFFFFFFD03415514905253105545241494C8000000C0003FFFFFFFE4115149312501348000000C0003FFFFFFFD014
310
11516150C501368030000C30043E411516150C901368030000C30043E411516150CD01368000000C0003FFFFFFFE411516150D501368070000C30047A411516150DD013681E0000C3004F24115925155D04564945578000000C0003FFFFFFFE41159151121034849448000000C0003FFFFFFFD024115915115903564953800
310
0000C0003FFFFFFFD02411594131250232418000000C0003FFFFFFFE4116925690501348000000C0003FFFFFFFD01AAA3F400030C01013F90A4391E41D1E4190F4151E4110F40D0F4091E4050F4793C7F6
340
15
340
15
340
15
340
370
340
15
340
15
340
15
340
27
340
15
340
15
340
27
340
371
340
15
340
15
340
15
340
15
340
370
340
15
340
15
340
15
340
27
340
15
340
15
340
27
340
371
340
15
340
3AC
340
15
340
15
340
15
340
15
340
15
340
370
340
15
340
15
340
15
340
14
340
14
340
14
340
14
340
14
340
14
340
14
340
14
340
14
340
3B2
340
14
340
14
340
14
340
14
340
14
340
14
340
14
340
14
340
14
340
14
340
14
340
14
340
14
340
15
340
14
340
14
340
14
340
14
340
3B3
340
14
340
14
340
3B2
340
14
340
14
340
14
340
14
340
14
340
14
340
14
340
14
340
3B2
340
14
340
14
340
14
340
3B3
340
14
340
14
340
14
340
14
340
14
340
3B3
340
14
340
371
340
14
340
14
340
14
340
14
340
14
340
14
340
3B2
340
14
340
14
340
14
340
14
340
14
340
14
340
3B3
340
14
340
14
340
14
340
14
340
14
340
14
340
14
340
14
340
14
340
14
340
14
340
14
340
14
340
14
340
371
340
3B4
 94
        0
  0
ACAD_PROXY_OBJECT
  5
3E0
102
{ACAD_REACTORS
330
3DB
102
}
330
3DB
100
AcDbProxyObject
 90
      499
 91
      568
 95
       25
 70
     0
 93
      253
310
43D1444494D454E53494F4E2C414D44545F2A5F44494D404A9012A404A9012A8
  0
ACAD_PROXY_OBJECT
  5
3DF
102
{ACAD_REACTORS
330
3DB
102
}
330
3DB
100
AcDbProxyObject
 90
      499
 91
      568
 95
       25
 70
     0
 93
      181
310
43D012A42D05357D191504B505357CA9012A404A9012A8
  0
ACAD_PROXY_OBJECT
  5
3DC
102
{ACAD_REACTORS
330
3DB
102
}
330
3DB
100
AcDbProxyObject
 90
      499
 91
      568
 95
       25
 70
     0
 93
      133
310
43D054841544348404A9012A404A9012A8
  0
ACAD_PROXY_OBJECT
  5
3DD
102
{ACAD_REACTORS
330
3DB
102
}
330
3DB
100
AcDbProxyObject
 90
      499
 91
      568
 95
       25
 70
     0
 93
      549
310
43D044C494E4549CE0B0E138B0A8B4E0B0A8B4E138B105357CE0B105357CE138B0A8B505357CE0B0A8B505357CE139012A404A910494E534552542C5354445041525432448
  0
ACAD_PROXY_OBJECT
  5
3E1
102
{ACAD_REACTORS
330
3DB
102
}
330
3DB
100
AcDbProxyObject
 90
      499
 91
      568
 95
       25
 70
     0
 93
      181
310
43D0341524341105357CD5012A404C906494E534552540
  0
ACAD_PROXY_OBJECT
  5
3DE
102
{ACAD_REACTORS
330
3DB
102
}
330
3DB
100
AcDbProxyObject
 90
      499
 91
      568
 95
       25
 70
     0
 93
     1053
310
43D7841434D46434652414D452C41434D444154554D5441524745542C41434D444154554D49442C41434D57454C4453594D2C41434D5355524653594D2C41434D4645415449442C41434D504152545245462C41434D42414C4C4F4F4E2C414D44544544474553594D2C414D47534352455743414C435441424C45404A9012A
310
404A9012A8
  0
ACAD_PROXY_OBJECT
  5
3A7
102
{ACAD_REACTORS
330
3A6
102
}
330
3A6
100
AcDbProxyObject
 90
      499
 91
      550
 95
       25
 70
     0
 93
     2395
310
5DCB81E85EB51B8BE3F8030000C30041105394D2501640600800030C0200800030C00B81E85EB51B8BE3F48821E8720B1B6A9BAB9332A32BC3A29BA3220480A1282C6DA8C868CA6E8C88120286A0B1B6ABB2B63234B733A9BA3220480A1082C6DA92C8A6E8C88120285A0B1B6A230BA3AB6A9BA3220480A1282C6DA849E9AA
310
6E8C8812028820B6B23A2232BA30B4B629BCB6A9BA3220480A2282DAC8E8A6CAC6E8D2DEDCA6F2DAA6E8C88120288A0B6B23A21B2B73A32B92634B732A9BA3220480A2282DAC8E8A8D0E4CAC2C898D2DCCAA6E8C88120285A0B6B23A2737BA32A9BA3220480A1682C682DACE98C2F2A6E8C88120285A0B1A0B6B3A234B6A9B
310
A3220480A2282C682DACE90DED8CA86D0C2E4E8A6E8C88120286A0B1A0B6B3AA34BA3632A9BA3220480A02812020
340
3B5
360
3B6
360
3B7
360
3B8
360
3B9
360
3BA
360
3BB
360
3BC
360
3BD
360
3BE
360
3BF
360
3C0
360
3CC
360
3CD
360
3D8
360
3D9
340
0
340
0
 94
        0
  0
ACAD_PROXY_OBJECT
  5
71D
102
{ACAD_REACTORS
330
3A6
102
}
330
3A6
100
AcDbProxyObject
 90
      499
 91
      572
 95
       25
 70
     0
 93
     2387
310
5DC33333333333309408030000C30040D29254D01640600800030C0200800030C003333333333330940C8121E8720B1B6A9BAB9332A32BC3A29BA3220480A1282C6DA8C868CA6E8C88120286A0B1B6ABB2B63234B733A9BA3220480A1082C6DA92C8A6E8C88120285A0B1B6A230BA3AB6A9BA3220480A1282C6DA849E9AA6E
310
8C8812028820B6B23A2232BA30B4B629BCB6A9BA3220480A2282DAC8E8A6CAC6E8D2DEDCA6F2DAA6E8C88120288A0B6B23A21B2B73A32B92634B732A9BA3220480A2282DAC8E8A8D0E4CAC2C898D2DCCAA6E8C88120285A0B6B23A2737BA32A9BA3220480A1682C682DACE98C2F2A6E8C88120285A0B1A0B6B3A234B6A9BA3
310
220480A2282C682DACE90DED8CA86D0C2E4E8A6E8C88120286A0B1A0B6B3AA34BA3632A9BA3220480A02812020
340
70C
360
71E
360
71F
360
720
360
721
360
722
360
723
360
724
360
725
360
726
360
727
360
728
360
72E
360
72F
360
730
360
731
340
0
340
0
 94
        0
  0
ACAD_PROXY_OBJECT
  5
37D
102
{ACAD_REACTORS
330
37C
102
}
330
37C
100
AcDbProxyObject
 90
      499
 91
      526
 95
       25
 70
     0
 93
     2420
310
4050B44574753455454494E4753A1286829C8E82A4A482B282A0472608321A2A720A723A0A849A1ABE1C983E18999AA0C868A9C889282940000000000001C07E83A1A2A72224A0A9A0A8598171ABE1897183E18971AA0E868A9C8892A6A8940000000000001807E8321A2A72622A7250000000000000701FA0C868A9C9E8C8
310
C940000000000001C07E84A1A624A720A92920ACA0A87181718991ABE1817191ABE18171AA108698929C8AA8B2A082A0AB098929C8A84A22BA3AAA9A1A0A622A50A0E9882A6A89E849482A02608426A0A5A2AB24A2ABA7E8120CA0A68682988A0C00800010652455649534941501304154D0D0531150540CC4E8C50954494D
310
455354414D504A074CEC641792B734141D5915494D253D3905414C4D4B8C0C1107B44574753455454494E4753454E447D0
  0
ACAD_PROXY_OBJECT
  5
8C9
102
{ACAD_REACTORS
330
37C
102
}
330
37C
100
AcDbProxyObject
 90
      499
 91
      526
 95
       25
 70
     0
 93
      199
310
405055368616674220F688AE8EA68AA8A8929C8EA68A9C88FA
  0
ACAD_PROXY_OBJECT
  5
37E
102
{ACAD_REACTORS
330
37C
102
}
330
37C
100
AcDbProxyObject
 90
      499
 91
      526
 95
       25
 70
     0
 93
      852
310
4050D5452414E5353455454494E4753A2488A482AE929C8EA8A4829CA69882A8929E9C0C00800050D4F524947494E414C4C595F4F4E0600400008529A7AAA921A2A620A723A0A81A52827212AAA0A48AA68AA4AC8A0C0080001107B44574753455454494E4753454E447D0
  0
ACAD_PROXY_OBJECT
  5
3B6
330
3A7
100
AcDbProxyObject
 90
      499
 91
      552
 95
       25
 70
     0
 93
       96
310
5DC20E80A0280A0280A02808
  0
ACAD_PROXY_OBJECT
  5
3B7
330
3A7
100
AcDbProxyObject
 90
      499
 91
      553
 95
       25
 70
     0
 93
      332
310
5DD0E4050140501405014050140501405014050142501405014050140501405012000000000000000400
340
3C1
 94
        0
  0
ACAD_PROXY_OBJECT
  5
3B8
330
3A7
100
AcDbProxyObject
 90
      499
 91
      554
 95
       25
 70
     0
 93
      403
310
5DCC199999999999E99F91F4050140501405014050140501405014050140501405014050140501405014050140501405014040
340
0
 94
        0
  0
ACAD_PROXY_OBJECT
  5
3B9
330
3A7
100
AcDbProxyObject
 90
      499
 91
      555
 95
       25
 70
     0
 93
       10
310
5DC0
  0
ACAD_PROXY_OBJECT
  5
3BA
330
3A7
100
AcDbProxyObject
 90
      499
 91
      556
 95
       25
 70
     0
 93
      257
310
5DE290EA22A7D90F49F9353333333333727F44D4CCCCCCCCCDC9FC010000618000
340
3C2
340
3C3
 94
        0
  0
ACAD_PROXY_OBJECT
  5
3BB
330
3A7
100
AcDbProxyObject
 90
      499
 91
      557
 95
       25
 70
     0
 93
    13023
310
5DD0E411255115350141236025B6901405014069011309A4F2590CB64FD3347454E545241434F2C4A504E2C302C8D8096DA2C47454E54524154582C25732C2847454E4D53472067656E647767203232322940690120281A8AA2CA0282484A4BE52028120280A03202261349E4B2196C9FA668E8A9CA8A482869E5894A09C58
310
605921292F94588E8A9CA8A482A8B0584AE658508E8A9C9AA68E40CECADCC8EECE406464665280D202405044E414D454050496BC914F4051C40640A8B95C2E97CBE502404CD1D15395149050D3CB1294138B0C0B25AF2453CB11D15395149055160B095CCB0A11D1539354D1C819D95B991DD9C80C8C8D8A50192C3D494628
310
4953424C414E4B28504152543A4E414D45292C424C4F434B3A4E414D452C504152543A4E414D452940480A0A888AA686A480A09251B1DBE80A3A80C81D10782C06030180C8099A3A2A72A2920A1A7962528271618164946C76F9623A2A72A2920AA2C1612B9961423A2A726A9A39033B2B7323BB39019189B94A0248090142
310
14D51053911054911014122D2E29A50147501904A383BFDFEFF5FBFCFD3347454E545241434F2C4A504E2C302C8B4B8A692C47454E54524154582C25732C2847454E4D53472067656E64776720323138294049012028426A0AA22A924A0A62028246EF4BDFA028EA0320B41396D838E9017D9FA668E8A9CA8A482869E5894A
310
09C5860591BBD2F7E588E8A9CA8A482A8B0584AE658508E8A9C9AA68E40CECADCC8EECE406464625280D202405044E4F544540504928D8B4C4051D40641A8B95C2E97CBE5F23F4CD1D15395149050D3CB1294138B0C0B24A362D30B11D15395149055160B095CCB0A11D1539354D1C819D95B991DD9C80C8C8D4A501A40480
310
A0CAC8A9C889EA480A1106F1072706BF02B680A3A80C83D172B85D2F97CBE47E9BA3A2A72A2920A1A79625282716181641BC41C9C1AFC0AD9623A2A72A2920AA2C1612B9961423A2A726A9A39033B2B7323BB39019191A14A0348090141911154D0D48C90141A43825AF880C90147501908A20F0580C0603019013447454E5
310
45241434F2C4A504E2C302C90E096BE20322C47454E54524154582C25732C2847454E4D53472067656E6477672033362940490120284A9AA20A72220A922192028345A5C53490192028EA0321347077FBFDFEBF7F9FA6A8E8A9CA8A482869E5894A09C586059169714D24064588E8A9CA8A482A8B0584AE658508E8A9C9AA6
310
8E40CECADCC8EECE4064646052809202405094D4154455249414C32405068DDE97BF20324051D40642A8272DB071D202FB3F4D11D15395149050D3CB1294138B0C0B2377A5EFC80C8B11D15395149055160B095CCB0A11D1539354D1C819D95B991DD9C80D0C0A501240480A089A82A6A680A091D7F2F9480A3A80A0485A06
310
81172B85D2F97CBE47E9923A2A72A2920A1A796252827161816475FCBE51623A2A72A2920AA2C1612B9961423A2A726A9A39033B2B7323BB3901A1914A024809014154149250D150141226FE29A501475014090C409022E570BA5F2F97C8FD3247454E545241434F2C4A504E2C302C89BF8A692C47454E54524154582C2573
310
2C2847454E4D53472067656E6477672034332940490120281A224A6A02824850CB202028EA028121A81A045CAE174BE5F2F91FA648E8A9CA8A482869E5894A09C58605921432C80588E8A9CA8A482A8B0584AE658508E8A9C9AA68E40CECADCC8EECE406868528092024050E441022E07A17AD46E338FE07800030C0001018
310
ACD56AB55AADF63F2B355AAD56AB7D8FD073D3C4954454D3E405018ACD56AB55AADF63F2B355AAD56AB7D8FD073D3C4954454D3E40501890C7E3F1783CEE3F2431F8FC5E0F3B8FD073D3C4954454D3E40501890C7E3F1783CEE3F2431F8FC5E0F3B8FD073D3C4954454D3E405029012B355AAD56AB7D8FCACD56AB55AADF63
310
F41CF4F125511534F901418F4F1455164F9014062B355AAD56AB7D8FCACD56AB55AADF63F41CF4F125511534F9014061309A4F2590CBA4FC4C2693C96432E93F41CF4F125511534F901901002B355AAD56AB7D8FCACD56AB55AADF63FA2000000000000008204018000618048220681A048120280C88214844882034852034
310
8452028521485214814000000000000F0BF0000000000003C2FD018020000C3008070000C3000EF7D3E365DBA88FC3BDF4F8D976EA23F2E07A17AD46E2F8FF20341A405024150741A4069703D0BD6A3717C7F0040001860100400018601002000186002026280A02
340
0
340
0
 94
        0
  0
ACAD_PROXY_OBJECT
  5
3BC
330
3A7
100
AcDbProxyObject
 90
      499
 91
      558
 95
       25
 70
     0
 93
      994
310
5DC0B81E85EB51B8CE3F4BCF511155105253080F11115510525317D3105091530F971414D0D05311480F11115510525317D05094D4D0D053114F92341C9A9999999999B93F26A666666666724FC000000000000E03F4000000000000004000000000000005100000000000000244081E0000C3002E07A17AD46E338FC0
340
371
340
3B5
 94
        0
  0
ACAD_PROXY_OBJECT
  5
3BD
330
3A7
100
AcDbProxyObject
 90
      499
 91
      559
 95
       25
 70
     0
 93
      823
310
5DC031703D0BD6A3719C7E999EA9A2A1AA24A7A7101E29A2A1AA24A7A72FA620A122A62FA324A929AA1F169E29A2A1AA24A7A72FA620A122A62FA620A9AA1F1353333333333B27E3FFFE01C00030C008840F000061801353333333333B27F1703D0BD6A3719C7E
340
371
340
3B5
 94
        0
  0
ACAD_PROXY_OBJECT
  5
3BE
330
3A7
100
AcDbProxyObject
 90
      499
 91
      560
 95
       25
 70
     0
 93
      280
310
5DC2B8716D9CEF7C33F0A5723F0BD4A2F0FC295C8FC2F528BC3FA199999999999F99FC
  0
ACAD_PROXY_OBJECT
  5
3BF
330
3A7
100
AcDbProxyObject
 90
      499
 91
      561
 95
       25
 70
     0
 93
       14
310
5DE4
340
0
 94
        0
  0
ACAD_PROXY_OBJECT
  5
3C0
330
3A7
100
AcDbProxyObject
 90
      499
 91
      562
 95
       25
 70
     0
 93
     7123
310
5DD084050BA4050AA405024050E836583938376838C815B8367203140405013D3C696628657175616C28486F6C653A7461707065642C223022292C22252563222C486F6C653A6E6F6D696E616C2022202220696628657175616C28486F6C653A756E6974732C223122292C2278222C222D222920222022293E3C6966286571
310
75616C28486F6C653A7461707065642C223022292C486F6C653A6469612C486F6C653A706974636864657363293E207B5C46414D4744543B787D203C696628657175616C28486F6C653A7465726D696E6174696F6E2C223022292C486F6C653A64657074682C228AD192CA22293E5C507B5C46414D4744543B767D2525633C
310
486F6C653A63746469613E207B5C46414D4744543B787D203C486F6C653A637464657074683E406901405034050E836583938376838C815B83672031405FE3D3C696628657175616C28486F6C653A7461707065642C223022292C22252563222C486F6C653A6E6F6D696E616C2022202220696628657175616C28486F6C653
310
A756E6974732C223122292C2278222C222D222920222022293E3C696628657175616C28486F6C653A7461707065642C223022292C486F6C653A6469612C486F6C653A706974636864657363293E207B5C46414D4744543B787D203C696628657175616C28486F6C653A7465726D696E6174696F6E2C223022292C486F6C653
310
A64657074682C228AD192CA22293E5C507B5C46414D4744543B777D2525633C486F6C653A63746469613E2058203C486F6C653A6374616E676C653E252564406901405014050E836583938376838C815B83672031405CF3D3C696628657175616C28486F6C653A7461707065642C223022292C22252563222C486F6C653A6E
310
6F6D696E616C2022202220696628657175616C28486F6C653A756E6974732C223122292C2278222C222D222920222022293E3C696628657175616C28486F6C653A7461707065642C223022292C486F6C653A6469612C486F6C653A706974636864657363293E5C507B5C46414D4744543B787D203C696628657175616C2848
310
6F6C653A7465726D696E6174696F6E2C223022292C486F6C653A64657074682C228AD192CA22293E4069014051E4090E836583938376838C815B83672032405173D3C535444503A444553433E203C535444503A5354443E40690E836583938376838C815B836720314050C3D3C535444503A444553433E40690240515AAABB
310
A060
360
3CA
330
3CA
360
3CB
330
3CB
360
3C9
330
3C9
360
3C8
360
3C7
330
3C8
330
3C7
 94
        0
  0
ACAD_PROXY_OBJECT
  5
3CC
330
3A7
100
AcDbProxyObject
 90
      499
 91
      564
 95
       25
 70
     0
 93
       26
310
5DD02A80
340
3A8
 94
        0
  0
ACAD_PROXY_OBJECT
  5
3CD
330
3A7
100
AcDbProxyObject
 90
      499
 91
      565
 95
       25
 70
     0
 93
      258
310
5DD02000000000000380FC000000000000E03F408F0F9023C3E40DB18CCCFFFF80
340
3CE
340
418
340
4E4
340
58A
340
578
340
0
340
3D1
340
3D2
340
3D7
340
0
 94
        0
  0
ACAD_PROXY_OBJECT
  5
3D8
330
3A7
100
AcDbProxyObject
 90
      499
 91
      566
 95
       25
 70
     0
 93
    13993
310
5DD1D023FFFFFFFD010300002E07A17AD46E2F8FE00800030C01010300002E07A17AD46E2F8FE00800030C00050C8DC0955782CC838A83588367014ED1D15395149050D3CB1294138B0C0B23702555E0B320E2A0D620D9CB11D15395149055160B095CCB0A11D1539354D1C819D95B991A5B5E880CCC0A78000C0000000000
310
00000000000000000000007B14AE47E17AA43F2E07A17AD46E2F8FE00800030C007B14AE47E17AA43F2E07A17AD46E2F8FE00800030C020143CF4F111959985D5B1D151A5D1B194F8050A8C8A8365815B8375838B014E51D15395149050D3CB1294138B0C0B2322A0D96056E0DD60E2CB11D15395149055160B095CCB0A11D
310
1539354D1C819D95B991A5B5E880CCC4A78000C000000000000000000000000000000007B14AE47E17AA43F2E07A17AD46E2F8FE00800030C007B14AE47E17AA43F2E07A17AD46E2F8FE00800030C020143CF4F111959985D5B1D151A5D1B194F90D4410F4450240D0441507431014391244D05449074510C4350F00014123
310
2D24D7C053247454E545241434F2C4A504E2C302C8CB4935F2C47454E54524154582C25732C2847454E4D53472067656E64696D7A20312900010104002214000282465A49AF80A648E8A9CA8A482869E5894A09C586059196926BE588E8A9CA8A482A8B0584AE658508E8A9C9AA68E40CECADCC8D2DAF44062520002020800
310
43E80005028C8A014C11D15395149050D3CB1294138B0C0B23228B11D15395149055160B095CCB0A11D1539354D1C819D95B991A5B5E880C8A4054E3D3C4946284953424C414E4B28486F6C654974656D292C4F726967696E2C20486F6C654974656D293E3C4946284953424C414E4B28486F6C654974656D292C22222C204
310
86F6C65496E646578293E010104002234000280AC00A5E8E8A9CA8A482869E5894A09C586058B0588E8A9CA8A482A8B0584AE658508E8A9C9AA68E40CECADCC8D2DAF4406652000202000040A800050159014BD1D15395149050D3CB1294138B0C0B164B11D15395149055160B095CCB0A11D1539354D1C819D95B991A5B5E
310
880D0A4000404000081D0000A02A40297A3A2A72A2920A1A796252827161816291623A2A72A2920AA2C1612B9961423A2A726A9A39033B2B73234B6BD101B148000808000104A000140A0F4C053047454E545241434F2C4A504E2C302C83D32C47454E54524154582C25732C2847454E4D53472067656E64696D7A20372900
310
0101030020B400028141E980A608E8A9CA8A482869E5894A09C58605907A6588E8A9CA8A482A8B0584AE658508E8A9C9AA68E40CECADCC8D2DAF4407052000202020041E800050490E096BE014CD1D15395149050D3CB1294138B0C0B243825AF8B11D15395149055160B095CCB0A11D1539354D1C819D95B991A5B5E880C8
310
C0A400040010008650000A091B012DB40299A3A2A72A2920A1A79625282716181646C04B6D1623A2A72A2920AA2C1612B9961423A2A726A9A39033B2B73234B6BD10189A148000808280501A00014320D0E0E4E0D9A0D8A0D3A0D60053B47454E545241434F2C4A504E2C302C8343839383668362834E83582C47454E54524
310
154582C25732C2847454E4D53472067656E64696D7A203135290001010500A1D4000281464500A628E8A9CA8A482869E5894A09C5860591914588E8A9CA8A482A8B0584AE658508E8A9C9AA68E40CECADCC8D2DAF440626C52000202080044A800050E8C8A8343839383668362834E8358014F51D15395149050D3CB129413
310
8B0C0B2322A0D0E0E4E0D9A0D8A0D3A0D60B11D15395149055160B095CCB0A11D1539354D1C819D95B991A5B5E880C4DCA4000404140089D0000A0921292F940299A3A2A72A2920A1A796252827161816484A4BE51623A2A72A2920AA2C1612B9961423A2A726A9A39033B2B73234B6BD10189C948000808300114A0001412
310
2D2E29A4053347454E545241434F2C4A504E2C302C8B4B8A692C47454E54524154582C25732C2847454E4D53472067656E64696D7A20323129000100040021B4878030026A6666666667A4FE064D4CCCCCCCCCF49FC049A9999999999E93F809353333333333D27F0226A6666666667A4FE044D4CCCCCCCCCF49FC0D818000
310
00000000000810026A666666666764FE004D4CCCCCCCCCF49FC009A9999999999E93F801353333333333D27F032E07A17AD46E378FE0633B333333333032050F006004D4CCCCCCCCCF49FC0C9A9999999999E93F819353333333333D27F0326A6666666667A4FE064D4CCCCCCCCCF49FC0C9A9999999999E93F81B03000000
310
00000000102004D4CCCCCCCCCEC9FC009A9999999999E93F819353333333333D27F0026A6666666667A4FE065C0F42F5A8DC6F1FC0C6766666666660640A088800000021E000000890000002260000008220E000200890000002060002008100008000
340
0
340
0
340
0
340
0
340
3B5
340
3B5
 94
        0
  0
ACAD_PROXY_OBJECT
  5
3D9
330
3A7
100
AcDbProxyObject
 90
      499
 91
      567
 95
       25
 70
     0
 93
     5214
310
5DD9741105394D2506414E53495F4342905394D257D512551554D15414E53495F54525F5265766973696F6E6C697374614191143202831372E307832322E30696E63682941905394D257D0D1146202832382E307834302E30696E63682941905394D257D191142202831312E307831372E30696E63682941905394D257D091
310
144202832322E307833342E30696E63682941905394D257D111145202833342E307834342E30696E63682941905394D257D1510412028382E357831312E30696E63682941905394D257D050543905B9CDA482557247A25E4C81110D0C414E53495F5449544C45444343505B9CDA482557247A25E4C81050B414E53495F5449
310
544C454143905B9CDA482557247A25E4C81050D0C414E53495F5449544C45414343505B9CDA482557247A25E4C81110B414E53495F5449544C4544425554C82557247A25E4D0A414E53495F544954555342110979A97F0838A8358836720415F42525F45505394D257D09497D4995D9A5CDA5BDB9B1A5CDD18510979A97F08
310
38A8358836720415F54525F45505394D257D51497D4995D9A5CDA5BDB9B1A5CDD18510979A97F0838A8358836720445F42525F45505394D257D09497D4995D9A5CDA5BDB9B1A5CDD19110979A97F0838A8358836720445F54525F45505394D257D51497D4995D9A5CDA5BDB9B1A5CDD19110979A97F0838A8358836720415F
310
424C5F45505394D257D09317D4995D9A5CDA5BDB9B1A5CDD18510979A97F0838A8358836720415F544C5F45505394D257D51317D4995D9A5CDA5BDB9B1A5CDD18510979A97F0838A8358836720445F424C5F45505394D257D09317D4995D9A5CDA5BDB9B1A5CDD19110979A97F0838A8358836720445F544C5F45505394D25
310
7D51317D4995D9A5CDA5BDB9B1A5CDD190
  0
ACAD_PROXY_OBJECT
  5
71E
330
71D
100
AcDbProxyObject
 90
      499
 91
      573
 95
       25
 70
     0
 93
       86
310
5DEA0C80A0280A0280A034
  0
ACAD_PROXY_OBJECT
  5
71F
330
71D
100
AcDbProxyObject
 90
      499
 91
      574
 95
       25
 70
     0
 93
      282
310
5DD0E4050140501405014050140501405014050141101405014048000000000000001000
340
70D
 94
        0
  0
ACAD_PROXY_OBJECT
  5
720
330
71D
100
AcDbProxyObject
 90
      499
 91
      575
 95
       25
 70
     0
 93
      387
310
5DC8666666666667A67E6DDB36EDDB36ED9F91740501405014050140501405014050140501405014050140501405014040
340
706
 94
        0
  0
ACAD_PROXY_OBJECT
  5
721
330
71D
100
AcDbProxyObject
 90
      499
 91
      576
 95
       25
 70
     0
 93
       10
310
5DC0
  0
ACAD_PROXY_OBJECT
  5
722
330
71D
100
AcDbProxyObject
 90
      499
 91
      577
 95
       25
 70
     0
 93
      257
310
5DE0C16A22A7D90F49F80000000000001081400000000000004204010000618000
340
707
340
708
 94
        0
  0
ACAD_PROXY_OBJECT
  5
723
330
71D
100
AcDbProxyObject
 90
      499
 91
      578
 95
       25
 70
     0
 93
    13013
310
5DD0E411255115350141236025B690140501406901000000000000091013347454E545241434F2C4A504E2C302C8D8096DA2C47454E54524154582C25732C2847454E4D53472067656E647767203232322940690120281A8AA2CA0282484A4BE52028120280A0320200000000000012202668E8A9CA8A482869E5894A09C58
310
605921292F94588E8A9CA8A482A8B0584AE658508E8A9C9AA68E40CECADCC8EECE406464665280D202405044E414D454050496BC914F4051C40640A80000000000004E404CD1D15395149050D3CB1294138B0C0B25AF2453CB11D15395149055160B095CCB0A11D1539354D1C819D95B991DD9C80C8C8D8A50192C3D494628
310
4953424C414E4B28504152543A4E414D45292C424C4F434B3A4E414D452C504152543A4E414D452940480A0A888AA686A480A09251B1DBE80A3A80C81D0000000000100A28099A3A2A72A2920A1A7962528271618164946C76F9623A2A72A2920AA2C1612B9961423A2A726A9A39033B2B7323BB39019189B94A0348090142
310
14D51053911054911014122D2E29A50147501904A000000000000125013347454E545241434F2C4A504E2C302C8B4B8A692C47454E54524154582C25732C2847454E4D53472067656E64776720323138294069012028426A0AA22A924A0A62028246EF4BDFA028EA0320B40000000000001CA02668E8A9CA8A482869E5894A
310
09C5860591BBD2F7E588E8A9CA8A482A8B0584AE658508E8A9C9AA68E40CECADCC8EECE406464625280D202405044E4F544540504928D8B4C4051D40641A80000000000003E404CD1D15395149050D3CB1294138B0C0B24A362D30B11D15395149055160B095CCB0A11D1539354D1C819D95B991DD9C80C8C8D4A501240480
310
A0CAC8A9C889EA480A1106F1072706BF02B680A3A80C83D00000000000007C809BA3A2A72A2920A1A79625282716181641BC41C9C1AFC0AD9623A2A72A2920AA2C1612B9961423A2A726A9A39033B2B7323BB39019191A14A0248090141911154D0D48C90141A43825AF880C90147501908A000000000020145013447454E5
310
45241434F2C4A504E2C302C90E096BE20322C47454E54524154582C25732C2847454E4D53472067656E6477672033362940490120284A9AA20A72220A922192028345A5C53490192028EA03213400000000000024A026A8E8A9CA8A482869E5894A09C586059169714D24064588E8A9CA8A482A8B0584AE658508E8A9C9AA6
310
8E40CECADCC8EECE4064646052809202405094D4154455249414C32405068DDE97BF20324051D40642A8713D0AD7A37045404D11D15395149050D3CB1294138B0C0B2377A5EFC80C8B11D15395149055160B095CCB0A11D1539354D1C819D95B991DD9C80D0C0A501240480A089A82A6A680A091D7F2F9480A3A80A0485A06
310
8100000000000007C809923A2A72A2920A1A796252827161816475FCBE51623A2A72A2920AA2C1612B9961423A2A726A9A39033B2B7323BB3901A1914A024809014154149250D150141226FE29A501475014090C409020000000000000F9013247454E545241434F2C4A504E2C302C89BF8A692C47454E54524154582C2573
310
2C2847454E4D53472067656E6477672034332940490120281A224A6A02824850CB202028EA028121A81A040000000000001F202648E8A9CA8A482869E5894A09C58605921432C80588E8A9CA8A482A8B0584AE658508E8A9C9AA68E40CECADCC8EECE406868528092024050E445020000000000000490201C00030C0001018
310
0000000000003B400000000000000ED01073D3C4954454D3E4050180000000000003B400000000000000ED01073D3C4954454D3E40501800000000000032400000000000000C901073D3C4954454D3E40501800000000000032400000000000000C901073D3C4954454D3E405029010000000000000ED000000000000003B4
310
041CF4F125511534F901418F4F1455164F9014060000000000000ED000000000000003B4041CF4F125511534F9014060000000000000D100000000000000344041CF4F125511534F901901000000000000000ED000000000000003B40A2200000000000008204018000618048220681A048120280C88214844882034852034
310
8452028521485214814000000000000F0BF0000000000003C2FD018020000C3008070000C3003373333333333B0FCCDCCCCCCCCCCEC3F0CCCCCCCCCCCC25012034164050341105901A19999999999984A040100006180401000061804008000618008098A02808
340
0
340
0
 94
        0
  0
ACAD_PROXY_OBJECT
  5
724
330
71D
100
AcDbProxyObject
 90
      499
 91
      579
 95
       25
 70
     0
 93
      898
310
5DC4000000000000124048CF4F11115510525317D3105091530F880A0F11115510525317D05094D4D0D053114F8A50241C9A9999999999B93F26A666666666724FC000000000000E03F400000000000000400000000000000510000000000000024408070000C300000000000000049000
340
15
340
70C
 94
        0
  0
ACAD_PROXY_OBJECT
  5
725
330
71D
100
AcDbProxyObject
 90
      499
 91
      580
 95
       25
 70
     0
 93
      823
310
5DC0B00000000000002480959E9E29A2A1AA24A7A72FA620A122A62FA324A929AA1F169E29A2A1AA24A7A72FA620A122A62FA620A9AA1F000000000000048803FFFE01C00030C008140380006180000000000000048800000000000000A2000000000000002480
340
3AA
340
70C
 94
        0
  0
ACAD_PROXY_OBJECT
  5
726
330
71D
100
AcDbProxyObject
 90
      499
 91
      581
 95
       25
 70
     0
 93
      152
310
5DE8273108AC1C5A0640A3D0A5723F0BD1F200
  0
ACAD_PROXY_OBJECT
  5
727
330
71D
100
AcDbProxyObject
 90
      499
 91
      582
 95
       25
 70
     0
 93
       14
310
5DE0
340
0
 94
        0
  0
ACAD_PROXY_OBJECT
  5
728
330
71D
100
AcDbProxyObject
 90
      499
 91
      583
 95
       25
 70
     0
 93
     6059
310
5DD084050BA4050AA405024050E836583938376838C815B83672031405983D3C486F6C653A6469613E3C696628657175616C28486F6C653A7465726D696E6174696F6E2C223022292C2220905B82B320222C22208368838A838B22293E3C696628657175616C28486F6C653A7465726D696E6174696F6E2C223022292C486F
310
6C653A64657074682C2222293E2C203C486F6C653A63746469613E2082B482AE82E882CC905B82B3203C486F6C653A637464657074683E406901405034050E836583938376838C815B83672031405EF3D3C486F6C653A6374616E676C653E252564202525633C486F6C653A63746469613E208E4D8C8A2C203C69662865717
310
5616C28486F6C653A7461707065642C223022292C22252563222C486F6C653A6E6F6D696E616C202220782022293E3C696628657175616C28486F6C653A7461707065642C223022292C486F6C653A6469612C486F6C653A706974636864657363293E203C696628657175616C28486F6C653A7465726D696E6174696F6E2C2
310
23022292C22905B82B320222C222022293E3C696628657175616C28486F6C653A7465726D696E6174696F6E2C223022292C486F6C653A64657074682C2222293E406901405014050E836583938376838C815B83672031405C73D3C696628657175616C28486F6C653A7461707065642C223022292C22252563222C486F6C65
310
3A6E6F6D696E616C202220782022293E3C696628657175616C28486F6C653A7461707065642C223022292C486F6C653A6469612C486F6C653A706974636864657363293E203C696628657175616C28486F6C653A7465726D696E6174696F6E2C223022292C22905B82B320222C222022293E3C696628657175616C28486F6C
310
653A7465726D696E6174696F6E2C223022292C486F6C653A64657074682C2222293E4069014051E4090E836583938376838C815B83672032405173D3C535444503A444553433E203C535444503A5354443E40690E836583938376838C815B836720314050C3D3C535444503A444553433E40690240515AAABBA120
360
729
330
729
360
72A
330
72A
360
72B
330
72B
360
72C
360
72D
330
72C
330
72D
 94
        0
  0
ACAD_PROXY_OBJECT
  5
72E
330
71D
100
AcDbProxyObject
 90
      499
 91
      564
 95
       25
 70
     0
 93
       26
310
5DD02A80
340
0
 94
        0
  0
ACAD_PROXY_OBJECT
  5
72F
330
71D
100
AcDbProxyObject
 90
      499
 91
      565
 95
       25
 70
     0
 93
      250
310
5DD020000000000000A1000000000000002440408F0F9023C3E409A0DCFFFF80
340
70F
340
0
340
716
340
710
340
711
340
712
340
713
340
714
340
715
340
0
 94
        0
  0
ACAD_PROXY_OBJECT
  5
730
330
71D
100
AcDbProxyObject
 90
      499
 91
      584
 95
       25
 70
     0
 93
    13889
310
5DD1D003FFFFFFFD030300030CCCCCCCCCCCC250200800030C01030300030CCCCCCCCCCCC250200800030C00050C8DC0955782CC838A83588367014ED1D15395149050D3CB1294138B0C0B23702555E0B320E2A0D620D9CB11D15395149055160B095CCB0A11D1539354D1C819D95B991A5B5E880CCC0A78000C0000000000
310
00000000000000000000010CCCCCCCCCCCC250200800030C010CCCCCCCCCCCC250200800030C020143CF4F111959985D5B1D151A5D1B194F8050A8C8A8365815B8375838B014E51D15395149050D3CB1294138B0C0B2322A0D96056E0DD60E2CB11D15395149055160B095CCB0A11D1539354D1C819D95B991A5B5E880CCC4
310
A78000C000000000000000000000000000000010CCCCCCCCCCCC250200800030C010CCCCCCCCCCCC250200800030C020143CF4F111959985D5B1D151A5D1B194F90D44111409034110541D0C4350F4050E44D03449074510F000141232D24D7C053247454E545241434F2C4A504E2C302C8CB4935F2C47454E54524154582C
310
25732C2847454E4D53472067656E64696D7A20312900010104002214000281464500A608E8A9CA8A482869E5894A09C5860591914588E8A9CA8A482A8B0584AE658508E8A9C9AA68E40CECADCC8D2DAF4406452029E9E9E27B934B3B4B71F1E24A31427A91424A9A12620A7259427B934B3B4B7149624A9A12620A7259424B
310
A32B6949496111116111711149F1E24BA32B69F00808200111A000140560052F47454E545241434F2C4A504E2C302C582C47454E54524154582C25732C2847454E4D53472067656E64696D7A20332900010100002054000280AC80A5E8E8A9CA8A482869E5894A09C586058B2588E8A9CA8A482A8B0584AE658508E8A9C9AA
310
68E40CECADCC8D2DAF4406852000202000040E800050152014BD1D15395149050D3CB1294138B0C0B148B11D15395149055160B095CCB0A11D1539354D1C819D95B991A5B5E880D8A400040400008250000A0507A6029823A2A72A2920A1A79625282716181641E99623A2A72A2920AA2C1612B9961423A2A726A9A39033B2
310
B73234B6BD101B948000808180105A000140A0F4C053047454E545241434F2C4A504E2C302C83D32C47454E54524154582C25732C2847454E4D53472067656E64696D7A203829000101010020F400028248704B5F00A668E8A9CA8A482869E5894A09C58605921C12D7C588E8A9CA8A482A8B0584AE658508E8A9C9AA68E40
310
CECADCC8D2DAF440646052000200080043280005048B4B8A69014CD1D15395149050D3CB1294138B0C0B22D2E29A4B11D15395149055160B095CCB0A11D1539354D1C819D95B991A5B5E880C8C4A4000400100086D0000A09196926BE029923A2A72A2920A1A796252827161816465A49AF9623A2A72A2920AA2C1612B9961
310
423A2A726A9A39033B2B73234B6BD10189480A02620202080043E80005048D8096DA014CD1D15395149050D3CB1294138B0C0B236025B68B11D15395149055160B095CCB0A11D1539354D1C819D95B991A5B5E880C4D0A4000404140280D0000A190687072706CD06C5069D06B0029DA3A2A72A2920A1A7962528271618164
310
1A1C1C9C1B341B141A741AC1623A2A72A2920AA2C1612B9961423A2A726A9A39033B2B73234B6BD10189A94800080820050EA000143A322A0D0E0E4E0D9A0D8A0D3A0D60053D47454E545241434F2C4A504E2C302C8C8A8343839383668362834E83582C47454E54524154582C25732C2847454E4D53472067656E64696D7A
310
2031372900010105002274000281464500A628E8A9CA8A482869E5894A09C5860591914588E8A9CA8A482A8B0584AE658508E8A9C9AA68E40CECADCC8D2DAF440626C52000202080044A8000504909497CA014CD1D15395149050D3CB1294138B0C0B242525F28B11D15395149055160B095CCB0A11D1539354D1C819D95B9
310
91A5B5E880C4E4A400040418008A521E000000000000001CA040C00000000000034408080000000000006881010000000000000D102040000000000001A204080000000000003440818000000000000728103000000000000125020600000000004028A040000000000000034408000000000000004881000000000000000D
310
102000000000000001A204000000000000003440818000000000000508143C0000000000000039408180000000000006881030000000000000D102060000000000001A2040C00000000000034408180000000000006881030000000000000E5020600000000000024A040C0000000000805140800000000000000688100000
310
00000000009102000000000000001A2040000000000000034408180000000000006881030000000000000A10284220000000878000002020000008380000020400000081800000208000000828000002028900000000
340
0
340
0
340
0
340
0
340
70C
340
70C
 94
        0
  0
ACAD_PROXY_OBJECT
  5
731
330
71D
100
AcDbProxyObject
 90
      499
 91
      567
 95
       25
 70
     0
 93
     2290
310
5DD9740D29254D0A53484D323030355F413440DE184D1134A49535F42525F5265766973696F6E6C6973744050A53484D323030355F41344B10CE971058D8591B4C8C0C0D571058D8591B5711D95B97111DD9D7199BDC9B585D1714D2134C8C0C0D57D04D10140DE184D124433A5C416361646D323030355C416361646D5C47
310
656E5C4477675C5469746C655C7861344110E979A97F0838A835883675F42525F44D29254D7D09497D4995D9A5CDA5BDB9B1A5CDD10E979A97F0838A835883675F54525F44D29254D7D51497D4995D9A5CDA5BDB9B1A5CDD10E979A97F0838A835883675F424C5F44D29254D7D09317D4995D9A5CDA5BDB9B1A5CDD10E979A
310
97F0838A835883675F544C5F44D29254D7D51317D4995D9A5CDA5BDB9B1A5CDD00
  0
ACAD_PROXY_OBJECT
  5
3CA
330
3C0
100
AcDbProxyObject
 90
      499
 91
      563
 95
       25
 70
     0
 93
     2256
310
5DE0143A0D960E4E0DDA0E32056E0D9C80C40405013D3C696628657175616C28486F6C653A7461707065642C223022292C22252563222C486F6C653A6E6F6D696E616C2022202220696628657175616C28486F6C653A756E6974732C223122292C2278222C222D222920222022293E3C696628657175616C28486F6C653A74
310
61707065642C223022292C486F6C653A6469612C486F6C653A706974636864657363293E207B5C46414D4744543B787D203C696628657175616C28486F6C653A7465726D696E6174696F6E2C223022292C486F6C653A64657074682C228AD192CA22293E5C507B5C46414D4744543B767D2525633C486F6C653A6374646961
310
3E207B5C46414D4744543B787D203C486F6C653A637464657074683E
  0
ACAD_PROXY_OBJECT
  5
3CB
330
3C0
100
AcDbProxyObject
 90
      499
 91
      563
 95
       25
 70
     0
 93
     2192
310
5DE0143A0D960E4E0DDA0E32056E0D9C80C405FE3D3C696628657175616C28486F6C653A7461707065642C223022292C22252563222C486F6C653A6E6F6D696E616C2022202220696628657175616C28486F6C653A756E6974732C223122292C2278222C222D222920222022293E3C696628657175616C28486F6C653A7461
310
707065642C223022292C486F6C653A6469612C486F6C653A706974636864657363293E207B5C46414D4744543B787D203C696628657175616C28486F6C653A7465726D696E6174696F6E2C223022292C486F6C653A64657074682C228AD192CA22293E5C507B5C46414D4744543B777D2525633C486F6C653A63746469613E
310
2058203C486F6C653A6374616E676C653E252564
  0
ACAD_PROXY_OBJECT
  5
3C9
330
3C0
100
AcDbProxyObject
 90
      499
 91
      563
 95
       25
 70
     0
 93
     1816
310
5DE0143A0D960E4E0DDA0E32056E0D9C80C405CF3D3C696628657175616C28486F6C653A7461707065642C223022292C22252563222C486F6C653A6E6F6D696E616C2022202220696628657175616C28486F6C653A756E6974732C223122292C2278222C222D222920222022293E3C696628657175616C28486F6C653A7461
310
707065642C223022292C486F6C653A6469612C486F6C653A706974636864657363293E5C507B5C46414D4744543B787D203C696628657175616C28486F6C653A7465726D696E6174696F6E2C223022292C486F6C653A64657074682C228AD192CA22293E
  0
ACAD_PROXY_OBJECT
  5
3C8
330
3C0
100
AcDbProxyObject
 90
      499
 91
      563
 95
       25
 70
     0
 93
      344
310
5DE0143A0D960E4E0DDA0E32056E0D9C80C805173D3C535444503A444553433E203C535444503A5354443E
  0
ACAD_PROXY_OBJECT
  5
3C7
330
3C0
100
AcDbProxyObject
 90
      499
 91
      563
 95
       25
 70
     0
 93
      256
310
5DE0143A0D960E4E0DDA0E32056E0D9C80C4050C3D3C535444503A444553433E
  0
ACAD_PROXY_OBJECT
  5
729
330
728
100
AcDbProxyObject
 90
      499
 91
      563
 95
       25
 70
     0
 93
     1376
310
5DE0143A0D960E4E0DDA0E32056E0D9C80C405983D3C486F6C653A6469613E3C696628657175616C28486F6C653A7465726D696E6174696F6E2C223022292C2220905B82B320222C22208368838A838B22293E3C696628657175616C28486F6C653A7465726D696E6174696F6E2C223022292C486F6C653A64657074682C22
310
22293E2C203C486F6C653A63746469613E2082B482AE82E882CC905B82B3203C486F6C653A637464657074683E
  0
ACAD_PROXY_OBJECT
  5
72A
330
728
100
AcDbProxyObject
 90
      499
 91
      563
 95
       25
 70
     0
 93
     2072
310
5DE0143A0D960E4E0DDA0E32056E0D9C80C405EF3D3C486F6C653A6374616E676C653E252564202525633C486F6C653A63746469613E208E4D8C8A2C203C696628657175616C28486F6C653A7461707065642C223022292C22252563222C486F6C653A6E6F6D696E616C202220782022293E3C696628657175616C28486F6C
310
653A7461707065642C223022292C486F6C653A6469612C486F6C653A706974636864657363293E203C696628657175616C28486F6C653A7465726D696E6174696F6E2C223022292C22905B82B320222C222022293E3C696628657175616C28486F6C653A7465726D696E6174696F6E2C223022292C486F6C653A6465707468
310
2C2222293E
  0
ACAD_PROXY_OBJECT
  5
72B
330
728
100
AcDbProxyObject
 90
      499
 91
      563
 95
       25
 70
     0
 93
     1752
310
5DE0143A0D960E4E0DDA0E32056E0D9C80C405C73D3C696628657175616C28486F6C653A7461707065642C223022292C22252563222C486F6C653A6E6F6D696E616C202220782022293E3C696628657175616C28486F6C653A7461707065642C223022292C486F6C653A6469612C486F6C653A706974636864657363293E20
310
3C696628657175616C28486F6C653A7465726D696E6174696F6E2C223022292C22905B82B320222C222022293E3C696628657175616C28486F6C653A7465726D696E6174696F6E2C223022292C486F6C653A64657074682C2222293E
  0
ACAD_PROXY_OBJECT
  5
72C
330
728
100
AcDbProxyObject
 90
      499
 91
      563
 95
       25
 70
     0
 93
      344
310
5DE0143A0D960E4E0DDA0E32056E0D9C80C805173D3C535444503A444553433E203C535444503A5354443E
  0
ACAD_PROXY_OBJECT
  5
72D
330
728
100
AcDbProxyObject
 90
      499
 91
      563
 95
       25
 70
     0
 93
      256
310
5DE0143A0D960E4E0DDA0E32056E0D9C80C4050C3D3C535444503A444553433E
  0
ENDSEC
  0
EOF
