  0
SECTION
  2
HEADER
  9
$ACADVER
  1
AC1015
  9
$ACADMAINTVER
 70
     6
  9
$DWGCODEPAGE
  3
ANSI_932
  9
$INSBASE
 10
0.0
 20
0.0
 30
0.0
  9
$EXTMIN
 10
-62.43707908130955
 20
-67.56848383169415
 30
-0.0015258207003583
  9
$EXTMAX
 10
106.6934333933373
 20
71.13685954235336
 30
0.0000000349246037
  9
$LIMMIN
 10
0.0
 20
0.0
  9
$LIMMAX
 10
400.0
 20
273.0
  9
$ORTHOMODE
 70
     0
  9
$REGENMODE
 70
     1
  9
$FILLMODE
 70
     1
  9
$QTEXTMODE
 70
     0
  9
$MIRRTEXT
 70
     1
  9
$LTSCALE
 40
1.0
  9
$ATTMODE
 70
     1
  9
$TEXTSIZE
 40
3.0
  9
$TRACEWID
 40
0.5
  9
$TEXTSTYLE
  7
STANDARD
  9
$CLAYER
  8
0
  9
$CELTYPE
  6
ByLayer
  9
$CECOLOR
 62
   256
  9
$CELTSCALE
 40
1.0
  9
$DISPSILH
 70
     0
  9
$DIMSCALE
 40
1.0
  9
$DIMASZ
 40
3.0
  9
$DIMEXO
 40
1.0
  9
$DIMDLI
 40
5.0
  9
$DIMRND
 40
0.0
  9
$DIMDLE
 40
3.0
  9
$DIMEXE
 40
2.0
  9
$DIMTP
 40
0.0
  9
$DIMTM
 40
0.0
  9
$DIMTXT
 40
5.0
  9
$DIMCEN
 40
2.0
  9
$DIMTSZ
 40
0.0
  9
$DIMTOL
 70
     0
  9
$DIMLIM
 70
     0
  9
$DIMTIH
 70
     0
  9
$DIMTOH
 70
     0
  9
$DIMSE1
 70
     0
  9
$DIMSE2
 70
     0
  9
$DIMTAD
 70
     1
  9
$DIMZIN
 70
     8
  9
$DIMBLK
  1

  9
$DIMASO
 70
     1
  9
$DIMSHO
 70
     0
  9
$DIMPOST
  1

  9
$DIMAPOST
  1

  9
$DIMALT
 70
     0
  9
$DIMALTD
 70
     4
  9
$DIMALTF
 40
25.4
  9
$DIMLFAC
 40
1.0
  9
$DIMTOFL
 70
     1
  9
$DIMTVP
 40
1.0
  9
$DIMTIX
 70
     0
  9
$DIMSOXD
 70
     0
  9
$DIMSAH
 70
     0
  9
$DIMBLK1
  1

  9
$DIMBLK2
  1

  9
$DIMSTYLE
  2
Standard
  9
$DIMCLRD
 70
     0
  9
$DIMCLRE
 70
     0
  9
$DIMCLRT
 70
     0
  9
$DIMTFAC
 40
1.0
  9
$DIMGAP
 40
0.09
  9
$DIMJUST
 70
     0
  9
$DIMSD1
 70
     0
  9
$DIMSD2
 70
     0
  9
$DIMTOLJ
 70
     1
  9
$DIMTZIN
 70
     0
  9
$DIMALTZ
 70
     0
  9
$DIMALTTZ
 70
     0
  9
$DIMUPT
 70
     0
  9
$DIMDEC
 70
     0
  9
$DIMTDEC
 70
     4
  9
$DIMALTU
 70
     2
  9
$DIMALTTD
 70
     2
  9
$DIMTXSTY
  7
STANDARD
  9
$DIMAUNIT
 70
     0
  9
$DIMADEC
 70
     0
  9
$DIMALTRND
 40
0.0
  9
$DIMAZIN
 70
     0
  9
$DIMDSEP
 70
    46
  9
$DIMATFIT
 70
     3
  9
$DIMFRAC
 70
     0
  9
$DIMLDRBLK
  1

  9
$DIMLUNIT
 70
     2
  9
$DIMLWD
 70
    -2
  9
$DIMLWE
 70
    -2
  9
$DIMTMOVE
 70
     0
  9
$LUNITS
 70
     2
  9
$LUPREC
 70
     4
  9
$SKETCHINC
 40
1.0
  9
$FILLETRAD
 40
0.0
  9
$AUNITS
 70
     0
  9
$AUPREC
 70
     0
  9
$MENU
  1
acad
  9
$ELEVATION
 40
0.0
  9
$PELEVATION
 40
0.0
  9
$THICKNESS
 40
0.0
  9
$LIMCHECK
 70
     0
  9
$CHAMFERA
 40
0.0
  9
$CHAMFERB
 40
0.0
  9
$CHAMFERC
 40
0.0
  9
$CHAMFERD
 40
0.0
  9
$SKPOLY
 70
     0
  9
$TDCREATE
 40
2453969.582071759
  9
$TDUCREATE
 40
2453969.207071759
  9
$TDUPDATE
 40
2455441.410106146
  9
$TDUUPDATE
 40
2455441.035106146
  9
$TDINDWG
 40
0.0196144329
  9
$TDUSRTIMER
 40
0.0196140625
  9
$USRTIMER
 70
     1
  9
$ANGBASE
 50
0.0
  9
$ANGDIR
 70
     0
  9
$PDMODE
 70
     0
  9
$PDSIZE
 40
0.0
  9
$PLINEWID
 40
0.0
  9
$SPLFRAME
 70
     0
  9
$SPLINETYPE
 70
     6
  9
$SPLINESEGS
 70
    16
  9
$HANDSEED
  5
79A
  9
$SURFTAB1
 70
     6
  9
$SURFTAB2
 70
     6
  9
$SURFTYPE
 70
     6
  9
$SURFU
 70
     6
  9
$SURFV
 70
     6
  9
$UCSBASE
  2

  9
$UCSNAME
  2

  9
$UCSORG
 10
0.0
 20
0.0
 30
0.0
  9
$UCSXDIR
 10
1.0
 20
0.0
 30
0.0
  9
$UCSYDIR
 10
0.0
 20
1.0
 30
0.0
  9
$UCSORTHOREF
  2

  9
$UCSORTHOVIEW
 70
     0
  9
$UCSORGTOP
 10
0.0
 20
0.0
 30
0.0
  9
$UCSORGBOTTOM
 10
0.0
 20
0.0
 30
0.0
  9
$UCSORGLEFT
 10
0.0
 20
0.0
 30
0.0
  9
$UCSORGRIGHT
 10
0.0
 20
0.0
 30
0.0
  9
$UCSORGFRONT
 10
0.0
 20
0.0
 30
0.0
  9
$UCSORGBACK
 10
0.0
 20
0.0
 30
0.0
  9
$PUCSBASE
  2

  9
$PUCSNAME
  2

  9
$PUCSORG
 10
0.0
 20
0.0
 30
0.0
  9
$PUCSXDIR
 10
1.0
 20
0.0
 30
0.0
  9
$PUCSYDIR
 10
0.0
 20
1.0
 30
0.0
  9
$PUCSORTHOREF
  2

  9
$PUCSORTHOVIEW
 70
     0
  9
$PUCSORGTOP
 10
0.0
 20
0.0
 30
0.0
  9
$PUCSORGBOTTOM
 10
0.0
 20
0.0
 30
0.0
  9
$PUCSORGLEFT
 10
0.0
 20
0.0
 30
0.0
  9
$PUCSORGRIGHT
 10
0.0
 20
0.0
 30
0.0
  9
$PUCSORGFRONT
 10
0.0
 20
0.0
 30
0.0
  9
$PUCSORGBACK
 10
0.0
 20
0.0
 30
0.0
  9
$USERI1
 70
     0
  9
$USERI2
 70
     0
  9
$USERI3
 70
     0
  9
$USERI4
 70
     0
  9
$USERI5
 70
     0
  9
$USERR1
 40
0.0
  9
$USERR2
 40
0.0
  9
$USERR3
 40
0.0
  9
$USERR4
 40
0.0
  9
$USERR5
 40
0.0
  9
$WORLDVIEW
 70
     1
  9
$SHADEDGE
 70
     3
  9
$SHADEDIF
 70
    70
  9
$TILEMODE
 70
     1
  9
$MAXACTVP
 70
    64
  9
$PINSBASE
 10
0.0
 20
0.0
 30
0.0
  9
$PLIMCHECK
 70
     0
  9
$PEXTMIN
 10
1.000000000000000E+20
 20
1.000000000000000E+20
 30
1.000000000000000E+20
  9
$PEXTMAX
 10
-1.000000000000000E+20
 20
-1.000000000000000E+20
 30
-1.000000000000000E+20
  9
$PLIMMIN
 10
0.0
 20
0.0
  9
$PLIMMAX
 10
12.0
 20
9.0
  9
$UNITMODE
 70
     0
  9
$VISRETAIN
 70
     1
  9
$PLINEGEN
 70
     0
  9
$PSLTSCALE
 70
     1
  9
$TREEDEPTH
 70
  3020
  9
$CMLSTYLE
  2
Standard
  9
$CMLJUST
 70
     0
  9
$CMLSCALE
 40
1.0
  9
$PROXYGRAPHICS
 70
     1
  9
$MEASUREMENT
 70
     0
  9
$CELWEIGHT
370
    -1
  9
$ENDCAPS
280
     0
  9
$JOINSTYLE
280
     0
  9
$LWDISPLAY
290
     0
  9
$INSUNITS
 70
     0
  9
$HYPERLINKBASE
  1

  9
$STYLESHEET
  1
sei_cad.ctb
  9
$XEDIT
290
     1
  9
$CEPSNTYPE
380
     0
  9
$PSTYLEMODE
290
     1
  9
$FINGERPRINTGUID
  2
{9C2EE22F-5BD2-49F6-B186-AD0A9A9AC097}
  9
$VERSIONGUID
  2
{BC7239AE-1370-42F0-BF28-5E8E6FC42D95}
  9
$EXTNAMES
290
     1
  9
$PSVPSCALE
 40
0.0
  9
$OLESTARTUP
290
     0
  0
ENDSEC
  0
SECTION
  2
CLASSES
  0
CLASS
  1
ACDBDICTIONARYWDFLT
  2
AcDbDictionaryWithDefault
  3
ObjectDBX Classes
 90
        0
280
     0
281
     0
  0
CLASS
  1
TABLESTYLE
  2
AcDbTableStyle
  3
ObjectDBX Classes
 90
     2047
280
     0
281
     0
  0
CLASS
  1
ACME_DOCUMENT
  2
AcMeDbDoc
  3
AcMeServices
 90
        0
280
     1
281
     0
  0
CLASS
  1
ACMESCOPE
  2
AcMeScope
  3
AcMeServices
 90
        0
280
     1
281
     0
  0
CLASS
  1
ACMECOMMANDHISTORY
  2
AcMeCommandHistory
  3
AcMeServices
 90
        0
280
     1
281
     0
  0
CLASS
  1
ACIMSYSVARMAN
  2
AcImSysVarManager
  3
AcMeServices
 90
        0
280
     1
281
     0
  0
CLASS
  1
ACIMINTSYSVAR
  2
AcImIntSysVar
  3
AcMeServices
 90
        0
280
     1
281
     0
  0
CLASS
  1
ACMEDRAWINGMAN
  2
AcMeDrawingMan
  3
AcMeServices
 90
        0
280
     1
281
     0
  0
CLASS
  1
ACMEVIEW
  2
AcMeView
  3
AcMeServices
 90
        0
280
     1
281
     0
  0
CLASS
  1
ACDBENTITYCACHE
  2
AcMeEntityCache
  3
AcMeServices
 90
        0
280
     1
281
     0
  0
CLASS
  1
GSMANAGER
  2
AcMeGSManager
  3
AcMeServices
 90
        0
280
     1
281
     0
  0
CLASS
  1
AMDTINTERNALREACTOR
  2
AmdtInternalReactor
  3
AcMeServices
 90
        0
280
     1
281
     0
  0
CLASS
  1
ACMESTATEMGR
  2
AcMeStateMgr
  3
AcMeServices
 90
        0
280
     1
281
     0
  0
CLASS
  1
ACGREFMASTER
  2
AcGrefMaster
  3
AcAttribServices
 90
        0
280
     1
281
     0
  0
CLASS
  1
AM_DRAWING_MGR
  2
AcDmDwgMgr
  3
AcMechDwgViewMgmt
 90
        0
280
     1
281
     0
  0
CLASS
  1
AM_DWG_DOCUMENT
  2
AcDmDwgDocument
  3
AcMechDwgViewMgmt
 90
        0
280
     1
281
     0
  0
CLASS
  1
AM_DWG_SHEET
  2
AcDmSheet
  3
AcMechDwgViewMgmt
 90
        0
280
     1
281
     0
  0
CLASS
  1
AM_VIEWDIMPARMAP
  2
AcDmViewDimParMap
  3
AcMechDwgViewMgmt
 90
        0
280
     1
281
     0
  0
CLASS
  1
ACIMREALSYSVAR
  2
AcImRealSysVar
  3
AcMeServices
 90
        0
280
     1
281
     0
  0
CLASS
  1
AM_DWGMGR_NAME
  2
AcDmDwgMgrName
  3
AcMechDwgViewMgmt
 90
        0
280
     1
281
     0
  0
CLASS
  1
ACME_DATABASE
  2
AcMeDbDatabase
  3
AcMeServices
 90
        0
280
     1
281
     0
  0
CLASS
  1
ACRFINSADJUSTERMGR
  2
AcRfInsAdjusterMgr
  3
AcMeServices
 90
        0
280
     1
281
     0
  0
CLASS
  1
ACGREFACADMASTER
  2
AcGrefacadMaster
  3
AcGrefServices
 90
        0
280
     1
281
     0
  0
CLASS
  1
AMDTMENUSTATEMGR
  2
AmdtMenuStateMgr
  3
McadcomServices
 90
        0
280
     1
281
     0
  0
CLASS
  1
AMDTMCOMMENUSTATE
  2
AmdtMcomMenuState
  3
McadcomServices
 90
        0
280
     1
281
     0
  0
CLASS
  1
AMIMASTER
  2
AmiMaster
  3
AmiServices
 90
        0
280
     1
281
     0
  0
CLASS
  1
AMGSETTINGSOBJ
  2
AmgSettingsObj
  3
"AcadM|Product Description: AutoCAD Mechanical 2000|Company: Autodesk"
 90
        0
280
     1
281
     0
  0
CLASS
  1
MAPIAMMOUDLE
  2
MApiAmModule
  3
MApiAmServices
 90
        0
280
     1
281
     0
  0
CLASS
  1
AMDTADMENUSTATE
  2
AmdtAdMenuState
  3
DesignerServices
 90
        0
280
     1
281
     0
  0
CLASS
  1
ADAPPL
  2
AcAdAppl
  3
DesignerServices
 90
        0
280
     1
281
     0
  0
CLASS
  1
DEPMGR
  2
AcAdDepMgr
  3
DesignerServices
 90
        0
280
     1
281
     0
  0
CLASS
  1
PARAMMGR
  2
AcAdParamMgr
  3
DesignerServices
 90
        0
280
     1
281
     0
  0
CLASS
  1
PARAMSCOPE
  2
AcAdParamScope
  3
DesignerServices
 90
        0
280
     1
281
     0
  0
CLASS
  1
NAMEDAPPL
  2
AcAdNamedAppl
  3
DesignerServices
 90
        0
280
     1
281
     0
  0
CLASS
  1
AMDTDMMENUSTATE
  2
AmdtDmMenuState
  3
AcMechDwgViewMgmt
 90
        0
280
     1
281
     0
  0
CLASS
  1
AMDTAMMENUSTATE
  2
AmdtAmMenuState
  3
DesignerAssemblies
 90
        0
280
     1
281
     0
  0
CLASS
  1
ACIMSTRSYSVAR
  2
AcImStrSysVar
  3
AcMeServices
 90
        0
280
     1
281
     0
  0
CLASS
  1
ACAMPROJECT
  2
AcAmProject
  3
DesignerAssemblies
 90
        0
280
     1
281
     0
  0
CLASS
  1
ACAMGRCOMPDEF
  2
AcAmGrCompDef
  3
DesignerAssemblies
 90
        0
280
     1
281
     0
  0
CLASS
  1
ACCMCONTEXT
  2
AcCmContext
  3
DesignerAssemblies
 90
        0
280
     1
281
     0
  0
CLASS
  1
ACAMCOMPDEF
  2
AcAmCompDef
  3
DesignerAssemblies
 90
        0
280
     1
281
     0
  0
CLASS
  1
ACAMCOMPDEFMGR
  2
AcAmCompDefMgr
  3
DesignerAssemblies
 90
        0
280
     1
281
     0
  0
CLASS
  1
AMCONTEXTMGR
  2
AcAmContextMgr
  3
DesignerAssemblies
 90
        0
280
     1
281
     0
  0
CLASS
  1
ACAMCONTEXTMODELER
  2
AcAmContextModeler
  3
DesignerAssemblies
 90
        0
280
     1
281
     0
  0
CLASS
  1
ACMDATADICTIONARY
  2
AcmDataDictionary
  3
"AcmSymBB|Product Description: AutoCAD Mechanical 2004 DX|Company: Autodesk"
 90
        0
280
     1
281
     0
  0
CLASS
  1
CATALOGSTATE
  2
AcAmCatalogState
  3
DesignerAssemblies
 90
        0
280
     1
281
     0
  0
CLASS
  1
ACAMGRCOMPDEFSET
  2
AcAmGrCompDefSet
  3
DesignerAssemblies
 90
        0
280
     1
281
     0
  0
CLASS
  1
AMDTBROWSERDBTAB
  2
AmdtBrowserDbTab
  3
McadcomServices
 90
        0
280
     1
281
     0
  0
CLASS
  1
CBROWSERAPPOBJECT
  2
CBrowserAppObject
  3
McadcomServices
 90
        0
280
     1
281
     0
  0
CLASS
  1
DM_PLACEHOLDER
  2
AcDmSelsetPlaceholder
  3
AcMechDwgViewMgmt
 90
        0
280
     1
281
     0
  0
CLASS
  1
ACMSTANDARDANSI
  2
AcmStandardANSI
  3
"Amdt_StdImp|Product Description: AutoCAD Mechanical 2004 DX|Company: Autodesk"
 90
        0
280
     1
281
     0
  0
CLASS
  1
AMGOBJPROPCFG
  2
AmgObjPropCfg
  3
"AmgLay|Product Description: AutoCAD Mechanical 2000|Company: Autodesk"
 90
        1
280
     1
281
     0
  0
CLASS
  1
ACMSURFSTANDARDANSI
  2
AcmSurfTextStdANSI
  3
"Amdt_StdImp|Product Description: AutoCAD Mechanical 2004 DX|Company: Autodesk"
 90
        0
280
     1
281
     0
  0
CLASS
  1
ACMFCFSTANDARDANSI
  2
AcmFCFStdANSI
  3
"Amdt_StdImp|Product Description: AutoCAD Mechanical 2004 DX|Company: Autodesk"
 90
        0
280
     1
281
     0
  0
CLASS
  1
ACMWELDSTANDARDANSI
  2
AcmWeldingStdANSI
  3
"Amdt_StdImp|Product Description: AutoCAD Mechanical 2004 DX|Company: Autodesk"
 90
        0
280
     1
281
     0
  0
CLASS
  1
ACMIDSTANDARDANSI
  2
AcmIdStdANSI
  3
"Amdt_StdImp|Product Description: AutoCAD Mechanical 2004 DX|Company: Autodesk"
 90
        0
280
     1
281
     0
  0
CLASS
  1
ACMDATUMSTANDARDANSI
  2
AcmDatumStdANSI
  3
"Amdt_StdImp|Product Description: AutoCAD Mechanical 2004 DX|Company: Autodesk"
 90
        0
280
     1
281
     0
  0
CLASS
  1
ACMBOMSTANDARDANSI
  2
AcmBOMStdANSI
  3
"Amdt_StdImp|Product Description: AutoCAD Mechanical 2004 DX|Company: Autodesk"
 90
        0
280
     1
281
     0
  0
CLASS
  1
ACMDETAILSTANDARDANSI
  2
AmdtDetailSymStdANSI
  3
"Amdt_StdImp|Product Description: AutoCAD Mechanical 2004 DX|Company: Autodesk"
 90
        0
280
     1
281
     0
  0
CLASS
  1
ACMSECTIONSTANDARDANSI
  2
AmdtSectionSymStdANSI
  3
"Amdt_StdImp|Product Description: AutoCAD Mechanical 2004 DX|Company: Autodesk"
 90
        0
280
     1
281
     0
  0
CLASS
  1
ACMCENTERLINESTANDARDANSI
  2
AmdtCenterLineStdANSI
  3
"Amdt_StdImp|Product Description: AutoCAD Mechanical 2004 DX|Company: Autodesk"
 90
        0
280
     1
281
     0
  0
CLASS
  1
ACMTHREADLINESTANDARDANSI
  2
AmdtThreadLineStdANSI
  3
"Amdt_StdImp|Product Description: AutoCAD Mechanical 2004 DX|Company: Autodesk"
 90
        0
280
     1
281
     0
  0
CLASS
  1
ACMNOTESTANDARDANSI
  2
AmdtNoteStdANSI
  3
"Amdt_StdImp|Product Description: AutoCAD Mechanical 2004 DX|Company: Autodesk"
 90
        0
280
     1
281
     0
  0
CLASS
  1
AMDTNOTETEMPLATEDB
  2
AmdtNoteTemplateDB
  3
AMDT_STDIMP_MODULE_NAME
 90
        0
280
     1
281
     0
  0
CLASS
  1
ACAMGLAYSTD
  2
AcAmgLayStd
  3
"AcAmgLayStd|Product Description: AutoCAD Mechanical 2000|Company: Autodesk"
 90
        0
280
     1
281
     0
  0
CLASS
  1
ACAMGDIMSTD
  2
AcAmgDimStd
  3
"AcAmgDimStd|Product Description: AutoCAD Mechanical 2000|Company: Autodesk"
 90
        0
280
     1
281
     0
  0
CLASS
  1
ACAMGHOLECHARTSTDANSI
  2
AcAmgHoleChartStdANSI
  3
ACMSYMBB_MODULE_NAME
 90
        0
280
     1
281
     0
  0
CLASS
  1
ACAMGTITLESTD
  2
AcAmgTitleStd
  3
"TITLEAPP"
 90
        0
280
     1
281
     0
  0
CLASS
  1
ACAMGFILTERDAT
  2
AcAmgFilterDat
  3
"AcadM|Product Description: AutoCAD Mechanical 2000|Company: Autodesk"
 90
        0
280
     1
281
     0
  0
CLASS
  1
DICTIONARYVAR
  2
AcDbDictionaryVar
  3
ObjectDBX Classes
 90
        0
280
     0
281
     0
  0
CLASS
  1
SORTENTSTABLE
  2
AcDbSortentsTable
  3
ObjectDBX Classes
 90
        0
280
     0
281
     0
  0
CLASS
  1
ACMDATAENTRYBLOCK
  2
AcmDataEntryBlock
  3
"AcmSymBB|Product Description: AutoCAD Mechanical 2004 DX|Company: Autodesk"
 90
        0
280
     1
281
     0
  0
CLASS
  1
AMDTNOTE
  2
AmdtNote
  3
"AcmSymBB|Product Description: AutoCAD Mechanical 2004 DX|Company: Autodesk"
 90
     1023
280
     1
281
     1
  0
CLASS
  1
ACMSTANDARDJIS
  2
AcmStandardJIS
  3
"Amdt_StdImp|Product Description: AutoCAD Mechanical 2004 DX|Company: Autodesk"
 90
        0
280
     1
281
     0
  0
CLASS
  1
ACMSURFSTANDARDJIS
  2
AcmSurfTextStdJIS
  3
"Amdt_StdImp|Product Description: AutoCAD Mechanical 2004 DX|Company: Autodesk"
 90
        0
280
     1
281
     0
  0
CLASS
  1
ACMFCFSTANDARDJIS
  2
AcmFCFStdJIS
  3
"Amdt_StdImp|Product Description: AutoCAD Mechanical 2004 DX|Company: Autodesk"
 90
        0
280
     1
281
     0
  0
CLASS
  1
ACMWELDSTANDARDJIS
  2
AcmWeldingStdJIS
  3
"Amdt_StdImp|Product Description: AutoCAD Mechanical 2004 DX|Company: Autodesk"
 90
        0
280
     1
281
     0
  0
CLASS
  1
ACMIDSTANDARDJIS
  2
AcmIdStdJIS
  3
"Amdt_StdImp|Product Description: AutoCAD Mechanical 2004 DX|Company: Autodesk"
 90
        0
280
     1
281
     0
  0
CLASS
  1
ACMDATUMSTANDARDJIS
  2
AcmDatumStdJIS
  3
"Amdt_StdImp|Product Description: AutoCAD Mechanical 2004 DX|Company: Autodesk"
 90
        0
280
     1
281
     0
  0
CLASS
  1
ACMBOMSTANDARDJIS
  2
AcmBOMStdJIS
  3
"Amdt_StdImp|Product Description: AutoCAD Mechanical 2004 DX|Company: Autodesk"
 90
        0
280
     1
281
     0
  0
CLASS
  1
ACMDETAILSTANDARDJIS
  2
AmdtDetailSymStdJIS
  3
"Amdt_StdImp|Product Description: AutoCAD Mechanical 2004 DX|Company: Autodesk"
 90
        0
280
     1
281
     0
  0
CLASS
  1
ACMSECTIONSTANDARDJIS
  2
AmdtSectionSymStdJIS
  3
"Amdt_StdImp|Product Description: AutoCAD Mechanical 2004 DX|Company: Autodesk"
 90
        0
280
     1
281
     0
  0
CLASS
  1
ACMCENTERLINESTANDARDJIS
  2
AmdtCenterLineStdJIS
  3
"Amdt_StdImp|Product Description: AutoCAD Mechanical 2004 DX|Company: Autodesk"
 90
        0
280
     1
281
     0
  0
CLASS
  1
ACMTHREADLINESTANDARDJIS
  2
AmdtThreadLineStdJIS
  3
"Amdt_StdImp|Product Description: AutoCAD Mechanical 2004 DX|Company: Autodesk"
 90
        0
280
     1
281
     0
  0
CLASS
  1
ACMNOTESTANDARDJIS
  2
AmdtNoteStdJIS
  3
"Amdt_StdImp|Product Description: AutoCAD Mechanical 2004 DX|Company: Autodesk"
 90
        0
280
     1
281
     0
  0
CLASS
  1
ACAMGHOLECHARTSTDJIS
  2
AcAmgHoleChartStdJIS
  3
ACMSYMBB_MODULE_NAME
 90
        0
280
     1
281
     0
  0
CLASS
  1
ACDBPLACEHOLDER
  2
AcDbPlaceHolder
  3
ObjectDBX Classes
 90
        0
280
     0
281
     0
  0
CLASS
  1
LAYOUT
  2
AcDbLayout
  3
ObjectDBX Classes
 90
        0
280
     0
281
     0
  0
ENDSEC
  0
SECTION
  2
TABLES
  0
TABLE
  2
VPORT
  5
8
330
0
100
AcDbSymbolTable
 70
     3
  0
VPORT
  5
794
330
8
100
AcDbSymbolTableRecord
100
AcDbViewportTableRecord
  2
*Active
 70
     0
 10
0.0
 20
0.0
 11
1.0
 21
1.0
 12
22.12817715601388
 22
1.784187855329606
 13
0.0
 23
0.0
 14
0.5
 24
0.5
 15
0.0
 25
0.0
 16
0.0
 26
0.0
 36
1.0
 17
0.0
 27
0.0
 37
0.0
 40
139.766863859053
 41
1.372924648786718
 42
50.0
 43
0.0
 44
0.0
 50
0.0
 51
0.0
 71
     0
 72
 10000
 73
     1
 74
     1
 75
     0
 76
     0
 77
     0
 78
     0
281
     0
 65
     0
110
0.0
120
0.0
130
0.0
111
1.0
121
0.0
131
0.0
112
0.0
122
1.0
132
0.0
 79
     0
146
0.0
  0
ENDTAB
  0
TABLE
  2
LTYPE
  5
5
330
0
100
AcDbSymbolTable
 70
    14
  0
LTYPE
  5
13
330
5
100
AcDbSymbolTableRecord
100
AcDbLinetypeTableRecord
  2
ByBlock
 70
     0
  3

 72
    65
 73
     0
 40
0.0
  0
LTYPE
  5
14
330
5
100
AcDbSymbolTableRecord
100
AcDbLinetypeTableRecord
  2
ByLayer
 70
     0
  3

 72
    65
 73
     0
 40
0.0
  0
LTYPE
  5
15
330
5
100
AcDbSymbolTableRecord
100
AcDbLinetypeTableRecord
  2
CONTINUOUS
 70
     0
  3
solid line
 72
    65
 73
     0
 40
0.0
  0
LTYPE
  5
27
330
5
100
AcDbSymbolTableRecord
100
AcDbLinetypeTableRecord
  2
DASHED
 70
     0
  3
-- -- -- -- -- -- -- -- -- -- 
 72
    65
 73
     2
 40
3.0
 49
2.0
 74
     0
 49
-1.0
 74
     0
  0
LTYPE
  5
28
330
5
100
AcDbSymbolTableRecord
100
AcDbLinetypeTableRecord
  2
CENTER
 70
     0
  3
--- - --- - --- - --- - --- - 
 72
    65
 73
     4
 40
6.0
 49
3.0
 74
     0
 49
-1.0
 74
     0
 49
1.0
 74
     0
 49
-1.0
 74
     0
  0
LTYPE
  5
29
330
5
100
AcDbSymbolTableRecord
100
AcDbLinetypeTableRecord
  2
PHANTOM
 70
     0
  3
----- - - ----- - - ----- - - 
 72
    65
 73
     6
 40
8.0
 49
3.0
 74
     0
 49
-1.0
 74
     0
 49
1.0
 74
     0
 49
-1.0
 74
     0
 49
1.0
 74
     0
 49
-1.0
 74
     0
  0
LTYPE
  5
338
330
5
100
AcDbSymbolTableRecord
100
AcDbLinetypeTableRecord
  2
HIDDEN
 70
     0
  3
Hidden __ __ __ __ __ __ __ __ __ __ __ __ __ _
 72
    65
 73
     2
 40
0.375
 49
0.25
 74
     0
 49
-0.125
 74
     0
  0
LTYPE
  5
339
330
5
100
AcDbSymbolTableRecord
100
AcDbLinetypeTableRecord
  2
PHANTOM2
 70
     0
  3
Phantom (.5x) ___ _ _ ___ _ _ ___ _ _ ___ _ _
 72
    65
 73
     6
 40
1.25
 49
0.625
 74
     0
 49
-0.125
 74
     0
 49
0.125
 74
     0
 49
-0.125
 74
     0
 49
0.125
 74
     0
 49
-0.125
 74
     0
  0
LTYPE
  5
374
330
5
100
AcDbSymbolTableRecord
100
AcDbLinetypeTableRecord
  2
Amconstr
 70
     0
  3
_______________________
 72
    65
 73
     2
 40
9999.0
 49
9999.0
 74
     0
 49
0.0
 74
     0
  0
LTYPE
  5
37A
330
5
100
AcDbSymbolTableRecord
100
AcDbLinetypeTableRecord
  2
CENTER2
 70
     0
  3
Center (.5x) ___ _ ___ _ ___ _ ___ _ ___ _ ___
 72
    65
 73
     4
 40
1.125
 49
0.75
 74
     0
 49
-0.125
 74
     0
 49
0.125
 74
     0
 49
-0.125
 74
     0
  0
LTYPE
  5
37B
330
5
100
AcDbSymbolTableRecord
100
AcDbLinetypeTableRecord
  2
HIDDEN2
 70
     0
  3
Hidden (.5x) _ _ _ _ _ _ _ _ _ _ _ _ _ _ _ _ _
 72
    65
 73
     2
 40
0.1875
 49
0.125
 74
     0
 49
-0.0625
 74
     0
  0
LTYPE
  5
37C
330
5
100
AcDbSymbolTableRecord
100
AcDbLinetypeTableRecord
  2
Amzigzag2
 70
     0
  3
/\/-/\/-/\/-/\/-/\/-/\/
 72
    65
 73
     2
 40
0.4401
 49
0.0001
 74
     4
 75
   135
340
378
 46
0.0016
 50
0.0
 44
0.0
 45
0.0
 49
-0.44
 74
     0
  0
LTYPE
  5
38A
330
5
100
AcDbSymbolTableRecord
100
AcDbLinetypeTableRecord
  2
ACANSTGB
 70
     0
  3
__ . . __ . .
 72
    65
 73
     6
 40
0.35433070866
 49
0.15748031496
 74
     0
 49
-0.03937007874
 74
     0
 49
0.03937007874
 74
     0
 49
-0.03937007874
 74
     0
 49
0.03937007874
 74
     0
 49
-0.03937007874
 74
     0
  0
LTYPE
  5
38B
330
5
100
AcDbSymbolTableRecord
100
AcDbLinetypeTableRecord
  2
ACANSTGL
 70
     0
  3
_ _ _ _ _
 72
    65
 73
     2
 40
0.11811023622
 49
0.07874015748
 74
     0
 49
-0.03937007874
 74
     0
  0
LTYPE
  5
658
330
5
100
AcDbSymbolTableRecord
100
AcDbLinetypeTableRecord
  2
ACJISTGB
 70
     0
  3
__ . . __ . .
 72
    65
 73
     6
 40
9.0
 49
4.0
 74
     0
 49
-1.0
 74
     0
 49
1.0
 74
     0
 49
-1.0
 74
     0
 49
1.0
 74
     0
 49
-1.0
 74
     0
  0
LTYPE
  5
659
330
5
100
AcDbSymbolTableRecord
100
AcDbLinetypeTableRecord
  2
ACJISTGL
 70
     0
  3
_ _ _ _ _
 72
    65
 73
     2
 40
3.0
 49
2.0
 74
     0
 49
-1.0
 74
     0
  0
ENDTAB
  0
TABLE
  2
LAYER
  5
2
102
{ACAD_XDICTIONARY
360
667
102
}
330
0
100
AcDbSymbolTable
 70
     7
  0
LAYER
  5
10
330
2
100
AcDbSymbolTableRecord
100
AcDbLayerTableRecord
  2
0
 70
     0
 62
     7
  6
CONTINUOUS
370
    -3
390
F
  0
LAYER
  5
2A
330
2
100
AcDbSymbolTableRecord
100
AcDbLayerTableRecord
  2
1
 70
     0
 62
     7
  6
CONTINUOUS
370
    -3
390
F
  0
LAYER
  5
2B
330
2
100
AcDbSymbolTableRecord
100
AcDbLayerTableRecord
  2
2
 70
     0
 62
     7
  6
CONTINUOUS
370
    -3
390
F
  0
LAYER
  5
2D
330
2
100
AcDbSymbolTableRecord
100
AcDbLayerTableRecord
  2
6
 70
     0
 62
     7
  6
CONTINUOUS
370
    -3
390
F
  0
LAYER
  5
31
330
2
100
AcDbSymbolTableRecord
100
AcDbLayerTableRecord
  2
DEFPOINTS
 70
     0
 62
    -7
  6
CONTINUOUS
290
     0
370
    -3
390
F
  0
LAYER
  5
408
330
2
100
AcDbSymbolTableRecord
100
AcDbLayerTableRecord
  2
AM_5
 70
     0
 62
     3
  6
CONTINUOUS
370
    15
390
F
  0
LAYER
  5
65B
330
2
100
AcDbSymbolTableRecord
100
AcDbLayerTableRecord
  2
AM_6
 70
     0
 62
     2
  6
CONTINUOUS
370
    30
390
F
  0
ENDTAB
  0
TABLE
  2
STYLE
  5
3
330
0
100
AcDbSymbolTable
 70
     6
  0
STYLE
  5
11
330
3
100
AcDbSymbolTableRecord
100
AcDbTextStyleTableRecord
  2
STANDARD
 70
     0
 40
0.0
 41
1.0
 50
0.0
 71
     0
 42
3.0
  3
txt
  4

  0
STYLE
  5
378
330
3
100
AcDbSymbolTableRecord
100
AcDbTextStyleTableRecord
  2

 70
     1
 40
0.0
 41
1.0
 50
0.0
 71
     0
 42
3.0
  3
ltypeshp.shx
  4

  0
STYLE
  5
37D
330
3
100
AcDbSymbolTableRecord
100
AcDbTextStyleTableRecord
  2
ACANSTS
 70
     0
 40
1.0
 41
1.0
 50
0.0
 71
     0
 42
3.0
  3
romans.shx
  4
extfont.shx
  0
STYLE
  5
389
330
3
100
AcDbSymbolTableRecord
100
AcDbTextStyleTableRecord
  2
ACANSGDT
 70
     0
 40
0.0
 41
1.0
 50
0.0
 71
     0
 42
3.0
  3
amgdtans.shx
  4

  0
STYLE
  5
65C
330
3
100
AcDbSymbolTableRecord
100
AcDbTextStyleTableRecord
  2
ACJISTS
 70
     0
 40
1.0
 41
1.0
 50
0.0
 71
     0
 42
2.5
  3
isocp.shx
  4
bigfont.shx
  0
STYLE
  5
65D
330
3
100
AcDbSymbolTableRecord
100
AcDbTextStyleTableRecord
  2
ACJISGDT
 70
     0
 40
0.0
 41
1.0
 50
0.0
 71
     0
 42
2.5
  3
amgdt.shx
  4

  0
ENDTAB
  0
TABLE
  2
VIEW
  5
6
330
0
100
AcDbSymbolTable
 70
     0
  0
ENDTAB
  0
TABLE
  2
UCS
  5
7
330
0
100
AcDbSymbolTable
 70
     0
  0
ENDTAB
  0
TABLE
  2
APPID
  5
9
330
0
100
AcDbSymbolTable
 70
    10
  0
APPID
  5
12
330
9
100
AcDbSymbolTableRecord
100
AcDbRegAppTableRecord
  2
ACAD
 70
     0
  0
APPID
  5
30B
330
9
100
AcDbSymbolTableRecord
100
AcDbRegAppTableRecord
  2
MCAD_NO_VIS
 70
     0
  0
APPID
  5
30C
330
9
100
AcDbSymbolTableRecord
100
AcDbRegAppTableRecord
  2
ACAD_TEMP_GRAPHIC
 70
     0
  0
APPID
  5
33B
330
9
100
AcDbSymbolTableRecord
100
AcDbRegAppTableRecord
  2
AD_DRAW
 70
     0
  0
APPID
  5
33E
330
9
100
AcDbSymbolTableRecord
100
AcDbRegAppTableRecord
  2
ACATTRIBSERVICES
 70
     0
  0
APPID
  5
360
330
9
100
AcDbSymbolTableRecord
100
AcDbRegAppTableRecord
  2
DESIGNERASSEMBLIES
 70
     0
  0
APPID
  5
366
330
9
100
AcDbSymbolTableRecord
100
AcDbRegAppTableRecord
  2
ACADM_DIM_EDIT
 70
     0
  0
APPID
  5
367
330
9
100
AcDbSymbolTableRecord
100
AcDbRegAppTableRecord
  2
AMDT_DM_ADJ
 70
     0
  0
APPID
  5
3AA
330
9
100
AcDbSymbolTableRecord
100
AcDbRegAppTableRecord
  2
ACAD_PSEXT
 70
     0
  0
APPID
  5
463
330
9
100
AcDbSymbolTableRecord
100
AcDbRegAppTableRecord
  2
GENIUS_GENDTOL_13
 70
     0
  0
ENDTAB
  0
TABLE
  2
DIMSTYLE
  5
A
330
0
100
AcDbSymbolTable
 70
    18
100
AcDbDimStyleTable
  0
DIMSTYLE
105
308
330
A
100
AcDbSymbolTableRecord
100
AcDbDimStyleTableRecord
  2
Standard
 70
     0
340
11
  0
DIMSTYLE
105
396
330
A
100
AcDbSymbolTableRecord
100
AcDbDimStyleTableRecord
  2
AM_ANSI
 70
     0
  4
mm
 41
0.1
 42
0.05
 43
0.5
 44
0.1
 47
0.1
 48
0.1
 78
     7
 79
     2
140
0.12
141
0.0
146
0.71
147
0.06
176
   256
177
   256
178
     2
274
     4
284
     7
340
11
371
    -1
372
    -1
  0
DIMSTYLE
105
399
330
A
100
AcDbSymbolTableRecord
100
AcDbDimStyleTableRecord
  2
AM_ANSI$7
 70
     0
  4
mm
 41
0.1
 42
0.05
 43
0.5
 44
0.1
 47
0.1
 48
0.1
 78
     7
 79
     2
140
0.24
141
0.0
146
0.71
147
0.06
176
   256
177
   256
178
     2
274
     4
284
     7
340
11
371
    -1
372
    -1
  0
DIMSTYLE
105
39A
330
A
100
AcDbSymbolTableRecord
100
AcDbDimStyleTableRecord
  2
AM_ANSI$SF
 70
     0
  4
mm
 41
0.1
 42
0.05
 43
0.5
 44
0.1
 47
0.1
 48
0.1
 75
     1
 76
     1
 78
     7
 79
     2
140
0.12
141
0.0
146
0.71
147
0.06
176
   256
177
   256
178
     2
274
     4
284
     7
340
11
371
    -1
372
    -1
  0
DIMSTYLE
105
39F
330
A
100
AcDbSymbolTableRecord
100
AcDbDimStyleTableRecord
  2
AM_ANSI$SH
 70
     0
  4
mm
 41
0.1
 42
0.05
 43
0.5
 44
0.1
 47
0.1
 48
0.1
 75
     1
 76
     1
 78
     7
 79
     2
140
0.12
141
0.0
146
0.71
147
0.06
173
     1
176
   256
177
   256
178
     2
274
     4
284
     7
340
11
343
39B
371
    -1
372
    -1
  0
DIMSTYLE
105
414
102
{ACAD_REACTORS
330
418
330
440
330
4FB
330
543
330
56C
330
599
102
}
330
A
100
AcDbSymbolTableRecord
100
AcDbDimStyleTableRecord
  2
Standard$0
 70
     0
340
11
  0
DIMSTYLE
105
46E
102
{ACAD_REACTORS
330
4B5
102
}
330
A
100
AcDbSymbolTableRecord
100
AcDbDimStyleTableRecord
  2
Standard$2
 70
     0
340
11
  0
DIMSTYLE
105
5CA
330
A
100
AcDbSymbolTableRecord
100
AcDbDimStyleTableRecord
  2
Standard$4
 70
     0
340
11
  0
DIMSTYLE
105
5DC
102
{ACAD_REACTORS
330
5DD
102
}
330
A
100
AcDbSymbolTableRecord
100
AcDbDimStyleTableRecord
  2
Standard$3
 70
     0
340
11
  0
DIMSTYLE
105
65E
330
A
100
AcDbSymbolTableRecord
100
AcDbDimStyleTableRecord
  2
AM_JIS
 70
     0
  4
"
 41
2.5
 42
0.0
 43
10.0
 44
1.0
 47
0.1
 48
0.1000000001
 73
     0
 74
     0
 77
     3
 78
     1
 79
     2
140
3.8
141
0.0
143
0.0393701
146
0.71
147
1.5
172
     1
176
   256
177
   256
178
     2
179
     1
271
     2
272
     2
275
     1
283
     0
284
     8
340
11
341
652
342
652
371
    -1
372
    -1
  0
DIMSTYLE
105
65F
330
A
100
AcDbSymbolTableRecord
100
AcDbDimStyleTableRecord
  2
AM_JIS$3
 70
     0
  4
"
 41
2.5
 42
0.0
 43
10.0
 44
1.0
 47
0.1
 48
0.1000000001
 73
     0
 77
     3
 78
     1
 79
     2
140
3.8
141
0.0
143
0.0393701
146
0.71
147
1.5
172
     1
176
   256
177
   256
178
     2
179
     1
271
     2
272
     2
275
     1
283
     0
284
     8
288
     1
289
     0
340
11
341
652
342
652
371
    -1
372
    -1
  0
DIMSTYLE
105
660
330
A
100
AcDbSymbolTableRecord
100
AcDbDimStyleTableRecord
  2
AM_JIS$4
 70
     0
  4
"
 41
2.5
 42
0.0
 43
10.0
 44
1.0
 47
0.1
 48
0.1000000001
 73
     0
 77
     3
 78
     1
 79
     2
140
3.8
141
0.0
143
0.0393701
146
0.71
147
1.5
172
     1
176
   256
177
   256
178
     2
179
     1
271
     2
272
     2
275
     1
283
     0
284
     8
288
     1
289
     0
340
11
341
652
342
652
371
    -1
372
    -1
  0
DIMSTYLE
105
661
330
A
100
AcDbSymbolTableRecord
100
AcDbDimStyleTableRecord
  2
AM_JIS$6
 70
     0
  4
"
 41
2.5
 42
0.0
 43
10.0
 44
1.0
 47
0.1
 48
0.1000000001
 73
     0
 74
     0
 78
     1
 79
     2
140
3.8
141
0.0
143
0.0393701
146
0.71
147
1.5
172
     1
176
   256
177
   256
178
     2
179
     1
271
     2
272
     2
275
     1
283
     0
284
     8
340
11
341
652
342
652
371
    -1
372
    -1
  0
DIMSTYLE
105
662
330
A
100
AcDbSymbolTableRecord
100
AcDbDimStyleTableRecord
  2
AM_JIS$7
 70
     0
  4
"
 41
2.5
 42
0.0
 43
10.0
 44
1.0
 47
0.1
 48
0.1000000001
 73
     0
 74
     0
 77
     3
 78
     1
 79
     2
140
5.0
141
0.0
143
0.0393701
146
0.71
147
1.5
172
     1
176
   256
177
   256
178
     2
179
     1
271
     2
272
     2
275
     1
283
     0
284
     8
340
11
341
652
342
652
371
    -1
372
    -1
  0
DIMSTYLE
105
663
330
A
100
AcDbSymbolTableRecord
100
AcDbDimStyleTableRecord
  2
AM_JIS$SF
 70
     0
  4
"
 41
2.5
 42
1.0
 43
10.0
 44
1.0
 47
0.1
 48
0.1
 73
     0
 74
     0
 75
     1
 76
     1
 77
     3
 78
     8
 79
     2
140
3.5
141
0.0
143
0.0393701
146
0.71
147
1.5
176
   256
177
   256
178
     2
271
     2
272
     3
274
     4
340
11
341
652
342
652
343
652
344
652
371
    -1
372
    -1
  0
DIMSTYLE
105
664
330
A
100
AcDbSymbolTableRecord
100
AcDbDimStyleTableRecord
  2
AM_JIS$SH
 70
     0
  4
"
 41
2.5
 42
1.0
 43
10.0
 44
1.0
 47
0.1
 48
0.1
 73
     0
 74
     0
 75
     1
 76
     1
 77
     3
 78
     8
 79
     2
140
3.5
141
0.0
143
0.0393701
144
2.0
146
0.71
147
1.5
173
     1
176
   256
177
   256
178
     2
271
     2
272
     3
274
     4
340
11
341
652
342
652
343
39B
344
652
371
    -1
372
    -1
  0
DIMSTYLE
105
665
330
A
100
AcDbSymbolTableRecord
100
AcDbDimStyleTableRecord
  2
AM_JIS$0
 70
     0
  4
"
 41
2.5
 42
0.0
 43
10.0
 44
1.0
 47
0.1
 48
0.1000000001
 73
     0
 74
     0
 77
     3
 78
     1
 79
     2
140
3.8
141
0.0
143
0.0393701
146
0.71
147
1.5
172
     1
176
     3
177
     3
178
     2
271
     2
272
     2
275
     1
283
     0
284
     8
289
     0
340
11
341
652
342
652
371
    13
372
    13
  0
DIMSTYLE
105
666
330
A
100
AcDbSymbolTableRecord
100
AcDbDimStyleTableRecord
  2
AM_JIS$2
 70
     0
  4
"
 41
2.5
 42
0.0
 43
10.0
 44
1.0
 47
0.1
 48
0.1000000001
 73
     0
 74
     0
 77
     3
 78
     1
 79
     2
140
3.8
141
0.0
143
0.0393701
146
0.71
147
1.5
172
     1
176
     3
177
     3
178
     2
271
     2
272
     2
275
     1
283
     0
284
     8
289
     0
340
11
341
652
342
652
371
    13
372
    13
  0
ENDTAB
  0
TABLE
  2
BLOCK_RECORD
  5
1
330
0
100
AcDbSymbolTable
 70
    11
  0
BLOCK_RECORD
  5
22
102
{ACAD_XDICTIONARY
360
586
102
}
330
1
100
AcDbSymbolTableRecord
100
AcDbBlockTableRecord
  2
*Model_Space
340
25
  0
BLOCK_RECORD
  5
1E
330
1
100
AcDbSymbolTableRecord
100
AcDbBlockTableRecord
  2
*Paper_Space
340
21
  0
BLOCK_RECORD
  5
357
330
1
100
AcDbSymbolTableRecord
100
AcDbBlockTableRecord
  2
*U0
340
0
  0
BLOCK_RECORD
  5
39B
330
1
100
AcDbSymbolTableRecord
100
AcDbBlockTableRecord
  2
GENAXEH
340
0
  0
BLOCK_RECORD
  5
419
330
1
100
AcDbSymbolTableRecord
100
AcDbBlockTableRecord
  2
*D2
340
0
  0
BLOCK_RECORD
  5
441
330
1
100
AcDbSymbolTableRecord
100
AcDbBlockTableRecord
  2
*D3
340
0
  0
BLOCK_RECORD
  5
4B6
330
1
100
AcDbSymbolTableRecord
100
AcDbBlockTableRecord
  2
*D4
340
0
  0
BLOCK_RECORD
  5
4FC
330
1
100
AcDbSymbolTableRecord
100
AcDbBlockTableRecord
  2
*D5
340
0
  0
BLOCK_RECORD
  5
544
330
1
100
AcDbSymbolTableRecord
100
AcDbBlockTableRecord
  2
*D6
340
0
  0
BLOCK_RECORD
  5
56D
330
1
100
AcDbSymbolTableRecord
100
AcDbBlockTableRecord
  2
*D7
340
0
  0
BLOCK_RECORD
  5
59A
330
1
100
AcDbSymbolTableRecord
100
AcDbBlockTableRecord
  2
*D8
340
0
  0
BLOCK_RECORD
  5
5DE
330
1
100
AcDbSymbolTableRecord
100
AcDbBlockTableRecord
  2
*D9
340
0
  0
BLOCK_RECORD
  5
652
330
1
100
AcDbSymbolTableRecord
100
AcDbBlockTableRecord
  2
_Open30
340
0
  0
ENDTAB
  0
ENDSEC
  0
SECTION
  2
BLOCKS
  0
BLOCK
  5
23
330
22
100
AcDbEntity
  8
0
100
AcDbBlockBegin
  2
*Model_Space
 70
     0
 71
     0
 10
0.0
 20
0.0
 30
0.0
  3
*Model_Space
  1

  0
ENDBLK
  5
24
330
22
100
AcDbEntity
  8
0
100
AcDbBlockEnd
  0
BLOCK
  5
1F
330
1E
100
AcDbEntity
 67
     1
  8
0
100
AcDbBlockBegin
  2
*Paper_Space
 70
     0
 71
     0
 10
0.0
 20
0.0
 30
0.0
  3
*Paper_Space
  1

  0
ENDBLK
  5
20
330
1E
100
AcDbEntity
 67
     1
  8
0
100
AcDbBlockEnd
  0
BLOCK
  5
358
330
357
100
AcDbEntity
  8
0
100
AcDbBlockBegin
  2
*U0
 70
     1
 71
     0
 10
0.0
 20
0.0
 30
0.0
  3
*U0
  1

  0
ENDBLK
  5
359
330
357
100
AcDbEntity
  8
0
100
AcDbBlockEnd
  0
BLOCK
  5
39D
330
39B
100
AcDbEntity
  8
0
100
AcDbBlockBegin
  2
GENAXEH
 70
     0
 71
     0
 10
0.0
 20
0.0
 30
0.0
  3
GENAXEH
  1

  0
LINE
  5
39C
330
39B
100
AcDbEntity
  8
0
100
AcDbLine
 10
-1.0
 20
0.0
 30
0.0
 11
1.0
 21
0.0
 31
0.0
  0
ENDBLK
  5
39E
330
39B
100
AcDbEntity
  8
0
100
AcDbBlockEnd
  0
BLOCK
  5
423
330
419
100
AcDbEntity
  8
0
100
AcDbBlockBegin
  2
*D2
 70
     1
 71
     0
 10
0.0
 20
0.0
 30
0.0
  3
*D2
  1

  0
LINE
  5
745
330
419
100
AcDbEntity
  8
AM_5
 62
     0
370
    -2
100
AcDbLine
 10
-1.0
 20
0.0000000000000003
 30
0.0
 11
-15.75274177618382
 21
0.0000000000000045
 31
0.0
  0
LINE
  5
746
330
419
100
AcDbEntity
  8
AM_5
 62
     0
370
    -2
100
AcDbLine
 10
-1.0
 20
-10.0
 30
0.0
 11
-15.75274177618383
 21
-9.999999999999995
 31
0.0
  0
LINE
  5
747
330
419
100
AcDbEntity
  8
AM_5
 62
     0
370
    -2
100
AcDbLine
 10
-13.75274177618382
 20
-2.999999999999996
 30
0.0
 11
-13.75274177618383
 21
-6.999999999999997
 31
0.0
  0
SOLID
  5
748
330
419
100
AcDbEntity
  8
AM_5
 62
     0
100
AcDbTrace
 10
-14.25274177618382
 20
-2.999999999999996
 30
0.0
 11
-13.25274177618382
 21
-2.999999999999996
 31
0.0
 12
-13.75274177618382
 22
0.0000000000000039
 32
0.0
 13
-13.75274177618382
 23
0.0000000000000039
 33
0.0
  0
SOLID
  5
749
330
419
100
AcDbEntity
  8
AM_5
 62
     0
100
AcDbTrace
 10
-14.25274177618383
 20
-6.999999999999996
 30
0.0
 11
-13.25274177618383
 21
-6.999999999999997
 31
0.0
 12
-13.75274177618383
 22
-9.999999999999996
 32
0.0
 13
-13.75274177618383
 23
-9.999999999999996
 33
0.0
  0
MTEXT
  5
74A
330
419
100
AcDbEntity
  8
AM_5
 62
     0
100
AcDbMText
 10
-16.34274177618383
 20
-4.999999999999999
 30
0.0
 40
5.0
 41
0.0
 71
     5
 72
     1
  1
\A1;10
 11
6.123031769111886E-17
 21
1.0
 31
0.0
 73
     1
 44
1.0
  0
POINT
  5
74B
330
419
100
AcDbEntity
  8
DEFPOINTS
 62
     0
100
AcDbPoint
 10
0.0
 20
0.0
 30
0.0
  0
POINT
  5
74C
330
419
100
AcDbEntity
  8
DEFPOINTS
 62
     0
100
AcDbPoint
 10
0.0
 20
-10.0
 30
0.0
  0
POINT
  5
74D
330
419
100
AcDbEntity
  8
DEFPOINTS
 62
     0
100
AcDbPoint
 10
-13.75274177618383
 20
-9.999999999999996
 30
0.0
  0
ENDBLK
  5
424
330
419
100
AcDbEntity
  8
0
100
AcDbBlockEnd
  0
BLOCK
  5
44B
330
441
100
AcDbEntity
  8
0
100
AcDbBlockBegin
  2
*D3
 70
     1
 71
     0
 10
0.0
 20
0.0
 30
0.0
  3
*D3
  1

  0
LINE
  5
74E
330
441
100
AcDbEntity
  8
AM_5
 62
     0
370
    -2
100
AcDbLine
 10
0.0000000000000001
 20
1.0
 30
0.0
 11
0.0000000000000008
 21
13.75755895528232
 31
0.0
  0
LINE
  5
74F
330
441
100
AcDbEntity
  8
AM_5
 62
     0
370
    -2
100
AcDbLine
 10
20.5
 20
-1.5
 30
0.0
 11
20.5
 21
13.75755895528232
 31
0.0
  0
LINE
  5
750
330
441
100
AcDbEntity
  8
AM_5
 62
     0
370
    -2
100
AcDbLine
 10
3.000000000000001
 20
11.75755895528232
 30
0.0
 11
17.5
 21
11.75755895528232
 31
0.0
  0
SOLID
  5
751
330
441
100
AcDbEntity
  8
AM_5
 62
     0
100
AcDbTrace
 10
3.000000000000001
 20
12.25755895528232
 30
0.0
 11
3.000000000000001
 21
11.25755895528232
 31
0.0
 12
0.0000000000000007
 22
11.75755895528232
 32
0.0
 13
0.0000000000000007
 23
11.75755895528232
 33
0.0
  0
SOLID
  5
752
330
441
100
AcDbEntity
  8
AM_5
 62
     0
100
AcDbTrace
 10
17.5
 20
12.25755895528232
 30
0.0
 11
17.5
 21
11.25755895528232
 31
0.0
 12
20.5
 22
11.75755895528232
 32
0.0
 13
20.5
 23
11.75755895528232
 33
0.0
  0
MTEXT
  5
753
330
441
100
AcDbEntity
  8
AM_5
 62
     0
100
AcDbMText
 10
10.25
 20
14.34755895528232
 30
0.0
 40
5.0
 41
0.0
 71
     5
 72
     1
  1
\A1;20
 73
     1
 44
1.0
  0
POINT
  5
754
330
441
100
AcDbEntity
  8
DEFPOINTS
 62
     0
100
AcDbPoint
 10
0.0
 20
0.0
 30
0.0
  0
POINT
  5
755
330
441
100
AcDbEntity
  8
DEFPOINTS
 62
     0
100
AcDbPoint
 10
20.5
 20
-2.5
 30
0.0
  0
POINT
  5
756
330
441
100
AcDbEntity
  8
DEFPOINTS
 62
     0
100
AcDbPoint
 10
20.5
 20
11.75755895528232
 30
0.0
  0
ENDBLK
  5
44C
330
441
100
AcDbEntity
  8
0
100
AcDbBlockEnd
  0
BLOCK
  5
4C6
330
4B6
100
AcDbEntity
  8
0
100
AcDbBlockBegin
  2
*D4
 70
     1
 71
     0
 10
0.0
 20
0.0
 30
0.0
  3
*D4
  1

  0
LINE
  5
757
330
4B6
100
AcDbEntity
  8
AM_5
 62
     0
370
    -2
100
AcDbLine
 10
-0.0000000000000011
 20
-1.198437500000011
 30
0.0
 11
-0.0000000000000333
 21
-30.90339666890532
 31
0.0
  0
LINE
  5
758
330
4B6
100
AcDbEntity
  8
AM_5
 62
     0
370
    -2
100
AcDbLine
 10
1.840297544481264
 20
-11.72620609617829
 30
0.0
 11
4.817614649517041
 21
-30.52424208566752
 31
0.0
  0
ARC
  5
759
330
4B6
100
AcDbEntity
  8
AM_5
 62
     0
370
    -2
100
AcDbCircle
 10
-0.0000000000000001
 20
-0.1070274020393129
 30
0.0
 40
28.79636926686601
100
AcDbArc
 50
258.0401731689581
 51
269.9999999999999
  0
LINE
  5
75A
330
4B6
100
AcDbEntity
  8
AM_5
 62
     0
370
    -2
100
AcDbLine
 10
-5.967350877184368
 20
-28.27831786701929
 30
0.0
 11
-14.29588646220644
 21
-26.51413549167783
 31
0.0
  0
ARC
  5
75B
330
4B6
100
AcDbEntity
  8
AM_5
 62
     0
370
    -2
100
AcDbCircle
 10
-0.0000000000000001
 20
-0.1070274020393129
 30
0.0
 40
28.79636926686601
100
AcDbArc
 50
258.0564689261368
 51
264.0282344630684
  0
ARC
  5
75C
330
4B6
100
AcDbEntity
  8
AM_5
 62
     0
370
    -2
100
AcDbCircle
 10
-0.0000000000000001
 20
-0.1070274020393129
 30
0.0
 40
28.79636926686601
100
AcDbArc
 50
284.9717676053318
 51
290.9435331422634
  0
ARC
  5
75D
330
4B6
100
AcDbEntity
  8
AM_5
 62
     0
370
    -2
100
AcDbCircle
 10
-0.0000000000000001
 20
-0.1070274020393129
 30
0.0
 40
28.79636926686601
100
AcDbArc
 50
269.9999999999999
 51
279.0000020684003
  0
SOLID
  5
75E
330
4B6
100
AcDbEntity
  8
AM_5
 62
     0
100
AcDbTrace
 10
-2.969882248755648
 20
-28.24780576862811
 30
0.0
 11
-3.021972148912818
 21
-29.24644816823951
 31
0.0
 12
-0.0000000000000315
 22
-28.90339666890532
 32
0.0
 13
-0.0000000000000315
 23
-28.90339666890532
 33
0.0
  0
SOLID
  5
75F
330
4B6
100
AcDbEntity
  8
AM_5
 62
     0
100
AcDbTrace
 10
7.543177378154388
 20
-28.41495267571777
 30
0.0
 11
7.335506666243324
 21
-27.43675388435972
 31
0.0
 12
4.504745648124704
 22
-28.54886541577194
 32
0.0
 13
4.504745648124704
 23
-28.54886541577194
 33
0.0
  0
MTEXT
  5
760
330
4B6
100
AcDbEntity
  8
AM_5
 62
     0
100
AcDbMText
 10
-9.594903828019477
 20
-24.86244745085907
 30
0.0
 40
5.0
 41
0.0
 71
     5
 72
     1
  1
\A1;9°
 11
0.9782931384129296
 21
-0.2072258075968831
 31
0.0
 73
     1
 44
1.0
  0
POINT
  5
761
330
4B6
100
AcDbEntity
  8
DEFPOINTS
 62
     0
100
AcDbPoint
 10
3.010040916397024
 20
-28.74564707260516
 30
0.0
  0
POINT
  5
762
330
4B6
100
AcDbEntity
  8
DEFPOINTS
 62
     0
100
AcDbPoint
 10
1.683863043785095
 20
-10.7385177612305
 30
0.0
  0
POINT
  5
763
330
4B6
100
AcDbEntity
  8
DEFPOINTS
 62
     0
100
AcDbPoint
 10
0.0
 20
0.0
 30
0.0
  0
POINT
  5
764
330
4B6
100
AcDbEntity
  8
DEFPOINTS
 62
     0
100
AcDbPoint
 10
0.0
 20
-0.1984375000000114
 30
0.0
  0
POINT
  5
765
330
4B6
100
AcDbEntity
  8
DEFPOINTS
 62
     0
100
AcDbPoint
 10
0.0012215533060953
 20
-0.1147399842739105
 30
0.0
  0
ENDBLK
  5
4C7
330
4B6
100
AcDbEntity
  8
0
100
AcDbBlockEnd
  0
BLOCK
  5
507
330
4FC
100
AcDbEntity
  8
0
100
AcDbBlockBegin
  2
*D5
 70
     1
 71
     0
 10
0.0
 20
0.0
 30
0.0
  3
*D5
  1

  0
LINE
  5
766
330
4FC
100
AcDbEntity
  8
AM_5
 62
     0
370
    -2
100
AcDbLine
 10
0.5027498253099337
 20
58.61709637982554
 30
0.0
 11
-15.75274177618383
 21
58.61709637982554
 31
0.0
  0
LINE
  5
767
330
4FC
100
AcDbEntity
  8
AM_5
 62
     0
370
    -2
100
AcDbLine
 10
0.5027498253099337
 20
58.61709637982554
 30
0.0
 11
-15.75274177618383
 21
58.61709637982554
 31
0.0
  0
LINE
  5
768
330
4FC
100
AcDbEntity
  8
AM_5
 62
     0
370
    -2
100
AcDbLine
 10
-13.75274177618383
 20
55.61709637982554
 30
0.0
 11
-13.75274177618383
 21
52.61709637982554
 31
0.0
  0
LINE
  5
769
330
4FC
100
AcDbEntity
  8
AM_5
 62
     0
370
    -2
100
AcDbLine
 10
-13.75274177618382
 20
61.61709637982554
 30
0.0
 11
-13.75274177618382
 21
67.29709637982555
 31
0.0
  0
SOLID
  5
76A
330
4FC
100
AcDbEntity
  8
AM_5
 62
     0
100
AcDbTrace
 10
-14.25274177618383
 20
55.61709637982554
 30
0.0
 11
-13.25274177618383
 21
55.61709637982554
 31
0.0
 12
-13.75274177618383
 22
58.61709637982554
 32
0.0
 13
-13.75274177618383
 23
58.61709637982554
 33
0.0
  0
SOLID
  5
76B
330
4FC
100
AcDbEntity
  8
AM_5
 62
     0
100
AcDbTrace
 10
-14.25274177618382
 20
61.61709637982554
 30
0.0
 11
-13.25274177618382
 21
61.61709637982554
 31
0.0
 12
-13.75274177618383
 22
58.61709637982554
 32
0.0
 13
-13.75274177618383
 23
58.61709637982554
 33
0.0
  0
MTEXT
  5
76C
330
4FC
100
AcDbEntity
  8
AM_5
 62
     0
100
AcDbMText
 10
-16.34274177618383
 20
65.95709637982554
 30
0.0
 40
5.0
 41
0.0
 71
     5
 72
     1
  1
\A1;0
 11
6.123031769111886E-17
 21
1.0
 31
0.0
 73
     1
 44
1.0
  0
POINT
  5
76D
330
4FC
100
AcDbEntity
  8
DEFPOINTS
 62
     0
100
AcDbPoint
 10
1.502749825309934
 20
58.61709637982554
 30
0.0
  0
POINT
  5
76E
330
4FC
100
AcDbEntity
  8
DEFPOINTS
 62
     0
100
AcDbPoint
 10
1.502749825309934
 20
58.61709637982554
 30
0.0
  0
POINT
  5
76F
330
4FC
100
AcDbEntity
  8
DEFPOINTS
 62
     0
100
AcDbPoint
 10
-13.75274177618383
 20
58.61709637982554
 30
0.0
  0
ENDBLK
  5
508
330
4FC
100
AcDbEntity
  8
0
100
AcDbBlockEnd
  0
BLOCK
  5
54E
330
544
100
AcDbEntity
  8
0
100
AcDbBlockBegin
  2
*D6
 70
     1
 71
     0
 10
0.0
 20
0.0
 30
0.0
  3
*D6
  1

  0
LINE
  5
770
330
544
100
AcDbEntity
  8
AM_5
 62
     0
370
    -2
100
AcDbLine
 10
100.0000000000001
 20
51.80127519392907
 30
0.0
 11
100.0000000000001
 21
29.32166007480873
 31
0.0
  0
LINE
  5
771
330
544
100
AcDbEntity
  8
AM_5
 62
     0
370
    -2
100
AcDbLine
 10
-0.0000028647482396
 20
57.61709637982554
 30
0.0
 11
-0.0000028647482413
 21
29.32166007480873
 31
0.0
  0
LINE
  5
772
330
544
100
AcDbEntity
  8
AM_5
 62
     0
370
    -2
100
AcDbLine
 10
97.00000000000006
 20
31.32166007480873
 30
0.0
 11
2.999997135251759
 21
31.32166007480873
 31
0.0
  0
SOLID
  5
773
330
544
100
AcDbEntity
  8
AM_5
 62
     0
100
AcDbTrace
 10
97.00000000000006
 20
31.82166007480873
 30
0.0
 11
97.00000000000006
 21
30.82166007480873
 31
0.0
 12
100.0000000000001
 22
31.32166007480873
 32
0.0
 13
100.0000000000001
 23
31.32166007480873
 33
0.0
  0
SOLID
  5
774
330
544
100
AcDbEntity
  8
AM_5
 62
     0
100
AcDbTrace
 10
2.999997135251759
 20
31.82166007480873
 30
0.0
 11
2.999997135251759
 21
30.82166007480873
 31
0.0
 12
-0.0000028647482412
 22
31.32166007480873
 32
0.0
 13
-0.0000028647482412
 23
31.32166007480873
 33
0.0
  0
MTEXT
  5
775
330
544
100
AcDbEntity
  8
AM_5
 62
     0
100
AcDbMText
 10
49.99999856762591
 20
33.91166007480874
 30
0.0
 40
5.0
 41
0.0
 71
     5
 72
     1
  1
\A1;100
 73
     1
 44
1.0
  0
POINT
  5
776
330
544
100
AcDbEntity
  8
DEFPOINTS
 62
     0
100
AcDbPoint
 10
100.0000000000001
 20
52.80127519392907
 30
0.0
  0
POINT
  5
777
330
544
100
AcDbEntity
  8
DEFPOINTS
 62
     0
100
AcDbPoint
 10
-0.0000028647482395
 20
58.61709637982554
 30
0.0
  0
POINT
  5
778
330
544
100
AcDbEntity
  8
DEFPOINTS
 62
     0
100
AcDbPoint
 10
-0.0000028647482412
 20
31.32166007480873
 30
0.0
  0
ENDBLK
  5
54F
330
544
100
AcDbEntity
  8
0
100
AcDbBlockEnd
  0
BLOCK
  5
577
330
56D
100
AcDbEntity
  8
0
100
AcDbBlockBegin
  2
*D7
 70
     1
 71
     0
 10
0.0
 20
0.0
 30
0.0
  3
*D7
  1

  0
LINE
  5
779
330
56D
100
AcDbEntity
  8
AM_5
 62
     0
370
    -2
100
AcDbLine
 10
69.07473087011732
 20
-9.000000000000014
 30
0.0
 11
69.07473087011732
 21
12.82286037668325
 31
0.0
  0
LINE
  5
77A
330
56D
100
AcDbEntity
  8
AM_5
 62
     0
370
    -2
100
AcDbLine
 10
54.07473087011738
 20
-9.0
 30
0.0
 11
54.07473087011738
 21
12.82286037668325
 31
0.0
  0
LINE
  5
77B
330
56D
100
AcDbEntity
  8
AM_5
 62
     0
370
    -2
100
AcDbLine
 10
66.07473087011732
 20
10.82286037668325
 30
0.0
 11
57.07473087011738
 21
10.82286037668325
 31
0.0
  0
SOLID
  5
77C
330
56D
100
AcDbEntity
  8
AM_5
 62
     0
100
AcDbTrace
 10
66.07473087011732
 20
11.32286037668325
 30
0.0
 11
66.07473087011732
 21
10.32286037668325
 31
0.0
 12
69.07473087011732
 22
10.82286037668325
 32
0.0
 13
69.07473087011732
 23
10.82286037668325
 33
0.0
  0
SOLID
  5
77D
330
56D
100
AcDbEntity
  8
AM_5
 62
     0
100
AcDbTrace
 10
57.07473087011738
 20
11.32286037668325
 30
0.0
 11
57.07473087011738
 21
10.32286037668325
 31
0.0
 12
54.07473087011738
 22
10.82286037668325
 32
0.0
 13
54.07473087011738
 23
10.82286037668325
 33
0.0
  0
MTEXT
  5
77E
330
56D
100
AcDbEntity
  8
AM_5
 62
     0
100
AcDbMText
 10
61.57473087011735
 20
13.41286037668325
 30
0.0
 40
5.0
 41
0.0
 71
     5
 72
     1
  1
\A1;15
 73
     1
 44
1.0
  0
POINT
  5
77F
330
56D
100
AcDbEntity
  8
DEFPOINTS
 62
     0
100
AcDbPoint
 10
69.07473087011732
 20
-10.00000000000001
 30
0.0
  0
POINT
  5
780
330
56D
100
AcDbEntity
  8
DEFPOINTS
 62
     0
100
AcDbPoint
 10
54.07473087011738
 20
-10.0
 30
0.0
  0
POINT
  5
781
330
56D
100
AcDbEntity
  8
DEFPOINTS
 62
     0
100
AcDbPoint
 10
54.07473087011738
 20
10.82286037668325
 30
0.0
  0
ENDBLK
  5
578
330
56D
100
AcDbEntity
  8
0
100
AcDbBlockEnd
  0
BLOCK
  5
5A4
330
59A
100
AcDbEntity
  8
0
100
AcDbBlockBegin
  2
*D8
 70
     1
 71
     0
 10
0.0
 20
0.0
 30
0.0
  3
*D8
  1

  0
LINE
  5
782
330
59A
100
AcDbEntity
  8
AM_5
 62
     0
370
    -2
100
AcDbLine
 10
62.57473087011732
 20
-2.500000000000014
 30
0.0
 11
77.17715674373687
 21
-2.500000000000019
 31
0.0
  0
LINE
  5
783
330
59A
100
AcDbEntity
  8
AM_5
 62
     0
370
    -2
100
AcDbLine
 10
62.57473087011732
 20
-17.50000000000001
 30
0.0
 11
77.17715674373687
 21
-17.50000000000002
 31
0.0
  0
LINE
  5
784
330
59A
100
AcDbEntity
  8
AM_5
 62
     0
370
    -2
100
AcDbLine
 10
75.17715674373687
 20
-5.500000000000019
 30
0.0
 11
75.17715674373687
 21
-14.50000000000002
 31
0.0
  0
LINE
  5
785
330
59A
100
AcDbEntity
  8
AM_5
 62
     0
370
    -2
100
AcDbLine
 10
75.17715674373687
 20
-17.50000000000002
 30
0.0
 11
75.17715674373687
 21
-29.45382690136655
 31
0.0
  0
SOLID
  5
786
330
59A
100
AcDbEntity
  8
AM_5
 62
     0
100
AcDbTrace
 10
74.67715674373687
 20
-5.500000000000019
 30
0.0
 11
75.67715674373687
 21
-5.500000000000019
 31
0.0
 12
75.17715674373687
 22
-2.500000000000018
 32
0.0
 13
75.17715674373687
 23
-2.500000000000018
 33
0.0
  0
SOLID
  5
787
330
59A
100
AcDbEntity
  8
AM_5
 62
     0
100
AcDbTrace
 10
74.67715674373687
 20
-14.50000000000002
 30
0.0
 11
75.67715674373687
 21
-14.50000000000002
 31
0.0
 12
75.17715674373687
 22
-17.50000000000002
 32
0.0
 13
75.17715674373687
 23
-17.50000000000002
 33
0.0
  0
MTEXT
  5
788
330
59A
100
AcDbEntity
  8
AM_5
 62
     0
100
AcDbMText
 10
72.58715674373687
 20
-26.03049356803321
 30
0.0
 40
5.0
 41
0.0
 71
     5
 72
     1
  1
\A1;15
 11
6.123031769111886E-17
 21
1.0
 31
0.0
 73
     1
 44
1.0
  0
POINT
  5
789
330
59A
100
AcDbEntity
  8
DEFPOINTS
 62
     0
100
AcDbPoint
 10
61.57473087011732
 20
-2.500000000000014
 30
0.0
  0
POINT
  5
78A
330
59A
100
AcDbEntity
  8
DEFPOINTS
 62
     0
100
AcDbPoint
 10
61.57473087011732
 20
-17.50000000000001
 30
0.0
  0
POINT
  5
78B
330
59A
100
AcDbEntity
  8
DEFPOINTS
 62
     0
100
AcDbPoint
 10
75.17715674373687
 20
-17.50000000000002
 30
0.0
  0
ENDBLK
  5
5A5
330
59A
100
AcDbEntity
  8
0
100
AcDbBlockEnd
  0
BLOCK
  5
5E4
330
5DE
100
AcDbEntity
  8
0
100
AcDbBlockBegin
  2
*D9
 70
     1
 71
     0
 10
0.0
 20
0.0
 30
0.0
  3
*D9
  1

  0
LINE
  5
78C
330
5DE
100
AcDbEntity
  8
AM_5
 62
     0
370
    -2
100
AcDbLine
 10
48.3036385422316
 20
-32.10659085248517
 30
0.0
 11
55.94520736397661
 21
-19.37749280691864
 31
0.0
  0
LINE
  5
78D
330
5DE
100
AcDbEntity
  8
AM_5
 62
     0
370
    -2
100
AcDbLine
 10
67.20425437625814
 20
-0.6225071930814572
 30
0.0
 11
68.74835225222816
 21
1.949605119673343
 31
0.0
  0
MTEXT
  5
78E
330
5DE
100
AcDbEntity
  8
AM_5
 62
     0
100
AcDbMText
 10
49.13178371844079
 20
-25.69502681982519
 30
0.0
 40
5.0
 41
0.0
 71
     5
 72
     1
  1
\A1;\U+220516
 11
0.5146992919900096
 21
0.8573707709182666
 31
0.0
 73
     1
 44
1.0
  0
LINE
  5
78F
330
5DE
100
AcDbEntity
  8
AM_5
 62
     0
370
    -2
100
AcDbLine
 10
65.6601565002881
 20
-3.194619505836258
 30
0.0
 11
57.48930523994664
 21
-16.80538049416384
 31
0.0
  0
SOLID
  5
790
330
5DE
100
AcDbEntity
  8
AM_5
 62
     0
100
AcDbTrace
 10
66.775568990799
 20
-0.3651575470864543
 30
0.0
 11
67.63293976171727
 21
-0.8798568390764636
 31
0.0
 12
65.6601565002881
 22
-3.194619505836258
 32
0.0
 13
65.6601565002881
 23
-3.194619505836258
 33
0.0
  0
SOLID
  5
791
330
5DE
100
AcDbEntity
  8
AM_5
 62
     0
100
AcDbTrace
 10
55.51652197851748
 20
-19.12014316092364
 30
0.0
 11
56.37389274943575
 21
-19.63484245291365
 31
0.0
 12
57.48930523994664
 22
-16.80538049416384
 32
0.0
 13
57.48930523994664
 23
-16.80538049416384
 33
0.0
  0
POINT
  5
792
330
5DE
100
AcDbEntity
  8
DEFPOINTS
 62
     0
100
AcDbPoint
 10
57.48930523994664
 20
-16.80538049416384
 30
0.0
  0
POINT
  5
793
330
5DE
100
AcDbEntity
  8
DEFPOINTS
 62
     0
100
AcDbPoint
 10
65.6601565002881
 20
-3.194619505836258
 30
0.0
  0
ENDBLK
  5
5E5
330
5DE
100
AcDbEntity
  8
0
100
AcDbBlockEnd
  0
BLOCK
  5
653
330
652
100
AcDbEntity
  8
0
100
AcDbBlockBegin
  2
_Open30
 70
     0
 71
     0
 10
0.0
 20
0.0
 30
0.0
  3
_Open30
  1

  0
LINE
  5
654
330
652
100
AcDbEntity
  8
0
 62
     0
370
    -2
100
AcDbLine
 10
-1.0
 20
0.26794919
 30
0.0
 11
0.0
 21
0.0
 31
0.0
  0
LINE
  5
655
330
652
100
AcDbEntity
  8
0
 62
     0
370
    -2
100
AcDbLine
 10
0.0
 20
0.0
 30
0.0
 11
-1.0
 21
-0.26794919
 31
0.0
  0
LINE
  5
656
330
652
100
AcDbEntity
  8
0
 62
     0
370
    -2
100
AcDbLine
 10
0.0
 20
0.0
 30
0.0
 11
-1.0
 21
0.0
 31
0.0
  0
ENDBLK
  5
657
330
652
100
AcDbEntity
  8
0
100
AcDbBlockEnd
  0
ENDSEC
  0
SECTION
  2
ENTITIES
  0
CIRCLE
  5
187
330
22
100
AcDbEntity
  8
1
  6
Continuous
100
AcDbCircle
 10
4.663171768188477
 20
-9.253090858459501
 30
0.0
 40
1.875
  0
LINE
  5
188
330
22
100
AcDbEntity
  8
1
  6
Continuous
100
AcDbLine
 10
9.325121879577637
 20
-18.3914413452148
 30
0.0
 11
7.642478942871094
 21
-7.767663002014189
 31
0.0
  0
LINE
  5
189
330
22
100
AcDbEntity
  8
1
  6
Continuous
100
AcDbLine
 10
9.155750274658203
 20
-18.47588348388671
 30
0.0
 11
1.683863043785095
 21
-10.7385177612305
 31
0.0
  0
LINE
  5
18A
330
22
100
AcDbEntity
  8
1
  6
Continuous
100
AcDbLine
 10
1.683863043785095
 20
-10.7385177612305
 30
0.0
 11
0.0012215533060953
 21
-0.1147399842739105
 31
0.0
  0
LINE
  5
18B
330
22
100
AcDbEntity
  8
1
  6
Continuous
100
AcDbLine
 10
0.1705907434225082
 20
-0.0302956197411106
 30
0.0
 11
7.642478942871094
 21
-7.767663002014189
 31
0.0
  0
CIRCLE
  5
18C
330
22
100
AcDbEntity
  8
1
  6
Continuous
100
AcDbCircle
 10
4.663171768188477
 20
-9.253090858459501
 30
0.0
 40
1.799999952316284
  0
LINE
  5
18D
330
22
100
AcDbEntity
  8
1
  6
CENTER
100
AcDbLine
 10
3.636916399002075
 20
-7.194742202758789
 30
0.0
 11
5.689426898956299
 21
-11.31143951416019
 31
0.0
  0
LINE
  5
18E
330
22
100
AcDbEntity
  8
1
  6
CENTER
100
AcDbLine
 10
6.721519947052002
 20
-8.22683620452878
 30
0.0
 11
2.604822158813477
 21
-10.27934551239011
 31
0.0
  0
LINE
  5
18F
330
22
100
AcDbEntity
  8
1
  6
Continuous
100
AcDbLine
 10
5.558359146118164
 20
-8.583286285400419
 30
0.0
 11
5.736838340759277
 21
-8.94126033782959
 31
0.0
  0
LINE
  5
190
330
22
100
AcDbEntity
  8
1
  6
Continuous
100
AcDbLine
 10
3.767982244491577
 20
-9.92289447784421
 30
0.0
 11
3.589503765106201
 21
-9.5649223327637
 31
0.0
  0
LINE
  5
191
330
22
100
AcDbEntity
  8
1
  6
Continuous
100
AcDbLine
 10
5.736838340759277
 20
-8.94126033782959
 30
0.0
 11
5.062425136566162
 21
-9.2775106430054
 31
0.0
  0
LINE
  5
192
330
22
100
AcDbEntity
  8
1
  6
Continuous
100
AcDbLine
 10
4.442396640777588
 20
-9.58664608001709
 30
0.0
 11
3.767982244491577
 21
-9.92289447784421
 31
0.0
  0
LINE
  5
193
330
22
100
AcDbEntity
  8
1
  6
Continuous
100
AcDbLine
 10
3.589503765106201
 20
-9.5649223327637
 30
0.0
 11
4.263917446136475
 21
-9.228671073913603
 31
0.0
  0
LINE
  5
194
330
22
100
AcDbEntity
  8
1
  6
Continuous
100
AcDbLine
 10
4.883945941925049
 20
-8.9195365905762
 30
0.0
 11
5.558359146118164
 21
-8.583286285400419
 31
0.0
  0
LINE
  5
195
330
22
100
AcDbEntity
  8
1
  6
Continuous
100
AcDbLine
 10
4.39639139175415
 20
-10.33882999420169
 30
0.0
 11
4.442396640777588
 21
-9.58664608001709
 31
0.0
  0
LINE
  5
196
330
22
100
AcDbEntity
  8
1
  6
Continuous
100
AcDbLine
 10
4.484692096710205
 20
-8.89511775970459
 30
0.0
 11
4.530697822570801
 21
-8.142932891845703
 31
0.0
  0
LINE
  5
197
330
22
100
AcDbEntity
  8
1
  6
Continuous
100
AcDbLine
 10
4.530697822570801
 20
-8.142932891845703
 30
0.0
 11
4.929951190948486
 21
-8.167351722717314
 31
0.0
  0
LINE
  5
198
330
22
100
AcDbEntity
  8
1
  6
Continuous
100
AcDbLine
 10
4.929951190948486
 20
-8.167351722717314
 30
0.0
 11
4.883945941925049
 21
-8.9195365905762
 31
0.0
  0
LINE
  5
199
330
22
100
AcDbEntity
  8
1
  6
Continuous
100
AcDbLine
 10
4.841650485992432
 20
-9.6110649108887
 30
0.0
 11
4.795644283294678
 21
-10.36324882507321
 31
0.0
  0
LINE
  5
19A
330
22
100
AcDbEntity
  8
1
  6
Continuous
100
AcDbLine
 10
4.795644283294678
 20
-10.36324882507321
 30
0.0
 11
4.39639139175415
 21
-10.33882999420169
 31
0.0
  0
LINE
  5
19B
330
22
100
AcDbEntity
  8
1
  6
Continuous
100
AcDbLine
 10
3.856283903121948
 20
-8.479182243347196
 30
0.0
 11
4.484692096710205
 21
-8.89511775970459
 31
0.0
  0
LINE
  5
19C
330
22
100
AcDbEntity
  8
1
  6
Continuous
100
AcDbLine
 10
5.062425136566162
 20
-9.2775106430054
 30
0.0
 11
5.690832614898682
 21
-9.693444252014189
 31
0.0
  0
LINE
  5
19D
330
22
100
AcDbEntity
  8
1
  6
Continuous
100
AcDbLine
 10
5.690832614898682
 20
-9.693444252014189
 30
0.0
 11
5.470057964324951
 21
-10.02699851989749
 31
0.0
  0
LINE
  5
19E
330
22
100
AcDbEntity
  8
1
  6
Continuous
100
AcDbLine
 10
5.470057964324951
 20
-10.02699851989749
 30
0.0
 11
4.841650485992432
 21
-9.6110649108887
 31
0.0
  0
LINE
  5
19F
330
22
100
AcDbEntity
  8
1
  6
Continuous
100
AcDbLine
 10
4.263917446136475
 20
-9.228671073913603
 30
0.0
 11
3.635509014129639
 21
-8.812737464904814
 31
0.0
  0
LINE
  5
1A0
330
22
100
AcDbEntity
  8
1
  6
Continuous
100
AcDbLine
 10
3.635509014129639
 20
-8.812737464904814
 30
0.0
 11
3.856283903121948
 21
-8.479182243347196
 31
0.0
  0
ARC
  5
1A1
330
22
100
AcDbEntity
  8
1
  6
Continuous
100
AcDbCircle
 10
0.0992187499999773
 20
-0.0992187500000199
 30
0.0
 40
0.0992187500000008
100
AcDbArc
 50
43.99999976610542
 51
189.0000027809323
  0
ARC
  5
1A2
330
22
100
AcDbEntity
  8
1
  6
Continuous
100
AcDbCircle
 10
9.227123655771152
 20
-18.40696233182641
 30
0.0
 40
0.0992187500000003
100
AcDbArc
 50
223.999998533897
 51
9.000001808599079
  0
LINE
  5
1A3
330
22
100
AcDbEntity
  8
1
  6
Continuous
100
AcDbLine
 10
2.192350199765883
 20
-11.265071625004
 30
0.0
 11
3.655019619303516
 21
-20.5
 31
0.0
  0
LINE
  5
1A4
330
22
100
AcDbEntity
  8
1
  6
CENTER
100
AcDbLine
 10
0.0
 20
-10.0
 30
0.0
 11
103.1840943327049
 21
-10.00000000000001
 31
0.0
  0
LINE
  5
1A5
330
22
100
AcDbEntity
  8
1
  6
CENTER
100
AcDbLine
 10
61.57473087011732
 20
-21.52500000000002
 30
0.0
 11
61.57473087011732
 21
1.524999999999992
 31
0.0
  0
LINE
  5
1A6
330
22
100
AcDbEntity
  8
1
  6
Continuous
100
AcDbLine
 10
3.655019619303516
 20
-20.5
 30
0.0
 11
18.7679491924311
 21
-20.5
 31
0.0
  0
LINE
  5
1A9
330
22
100
AcDbEntity
  8
1
  6
Continuous
100
AcDbLine
 10
100.0000000000001
 20
-17.02500000000002
 30
0.0
 11
100.0000000000001
 21
-2.975000000000009
 31
0.0
  0
LINE
  5
1AA
330
22
100
AcDbEntity
  8
1
  6
Continuous
100
AcDbLine
 10
99.00000000000006
 20
-17.50000000000001
 30
0.0
 11
99.00000000000006
 21
-13.11859343294381
 31
0.0
  0
LINE
  5
1AB
330
22
100
AcDbEntity
  8
1
  6
Continuous
100
AcDbLine
 10
99.00000000000006
 20
-13.11859343294381
 30
0.0
 11
99.00000000000006
 21
-12.59882786078651
 31
0.0
  0
LINE
  5
1AC
330
22
100
AcDbEntity
  8
1
  6
Continuous
100
AcDbLine
 10
99.00000000000006
 20
-7.401172139213529
 30
0.0
 11
99.00000000000006
 21
-6.881406567056203
 31
0.0
  0
LINE
  5
1AD
330
22
100
AcDbEntity
  8
1
  6
Continuous
100
AcDbLine
 10
99.00000000000006
 20
-6.881406567056203
 30
0.0
 11
99.00000000000006
 21
-2.500000000000014
 31
0.0
  0
ARC
  5
1BB
330
22
100
AcDbEntity
  8
1
  6
Continuous
100
AcDbCircle
 10
8.928997152044872
 20
-2.495901675957114
 30
0.0
 40
5.0
100
AcDbArc
 50
247.4362218531612
 51
270.0
  0
LINE
  5
1BD
330
22
100
AcDbEntity
  8
1
  6
Continuous
100
AcDbLine
 10
7.384017552246405
 20
-7.500018374576598
 30
0.0
 11
7.34244005407345
 21
-7.237508637196726
 31
0.0
  0
LINE
  5
1BE
330
22
100
AcDbEntity
  8
1
  6
Continuous
100
AcDbLine
 10
7.597867707743717
 20
-7.721466711820284
 30
0.0
 11
7.53053579849751
 21
-7.296350180277699
 31
0.0
  0
LINE
  5
1BF
330
22
100
AcDbEntity
  8
1
  6
Continuous
100
AcDbLine
 10
20.5
 20
-2.5
 30
0.0
 11
99.52500000000003
 21
-2.500000000000014
 31
0.0
  0
LINE
  5
1C0
330
22
100
AcDbEntity
  8
1
  6
PHANTOM
100
AcDbLine
 10
22.9375
 20
-2.0625
 30
0.0
 11
100.0000000000001
 21
-2.062500000000014
 31
0.0
  0
LINE
  5
1C1
330
22
100
AcDbEntity
  8
1
  6
Continuous
100
AcDbLine
 10
99.52500000000003
 20
-2.500000000000014
 30
0.0
 11
100.0000000000001
 21
-2.975000000000009
 31
0.0
  0
LINE
  5
1C2
330
22
100
AcDbEntity
  8
1
  6
Continuous
100
AcDbLine
 10
99.52500000000003
 20
-17.50000000000001
 30
0.0
 11
100.0000000000001
 21
-17.02500000000002
 31
0.0
  0
LINE
  5
1C3
330
22
100
AcDbEntity
  8
1
  6
Continuous
100
AcDbLine
 10
20.5
 20
-17.5
 30
0.0
 11
99.52500000000003
 21
-17.50000000000001
 31
0.0
  0
LINE
  5
1C4
330
22
100
AcDbEntity
  8
1
  6
PHANTOM
100
AcDbLine
 10
22.9375
 20
-17.9375
 30
0.0
 11
100.0000000000001
 21
-17.93750000000001
 31
0.0
  0
ARC
  5
1C5
330
22
100
AcDbEntity
  8
1
  6
Continuous
100
AcDbCircle
 10
61.57473087011732
 20
-10.00000000000001
 30
0.0
 40
7.9375
100
AcDbArc
 50
19.11173213719897
 51
70.88826786280112
  0
ARC
  5
1C6
330
22
100
AcDbEntity
  8
1
  6
Continuous
100
AcDbCircle
 10
61.57473087011732
 20
-10.00000000000001
 30
0.0
 40
7.9375
100
AcDbArc
 50
199.1117321371989
 51
250.8882678628011
  0
LINE
  5
1C7
330
22
100
AcDbEntity
  8
1
  6
Continuous
100
AcDbLine
 10
54.07473087011732
 20
-12.5988278607865
 30
0.0
 11
54.07473087011732
 21
-7.401172139213514
 31
0.0
  0
LINE
  5
1C8
330
22
100
AcDbEntity
  8
1
  6
Continuous
100
AcDbLine
 10
69.07473087011732
 20
-12.59882786078651
 30
0.0
 11
69.07473087011732
 21
-7.401172139213529
 31
0.0
  0
LINE
  5
1C9
330
22
100
AcDbEntity
  8
1
  6
Continuous
100
AcDbLine
 10
22.9375
 20
-7.401172139213514
 30
0.0
 11
99.00000000000006
 21
-7.401172139213529
 31
0.0
  0
LINE
  5
1CA
330
22
100
AcDbEntity
  8
1
  6
Continuous
100
AcDbLine
 10
22.9375
 20
-12.5988278607865
 30
0.0
 11
99.00000000000006
 21
-12.59882786078651
 31
0.0
  0
ARC
  5
1CB
330
22
100
AcDbEntity
  8
1
  6
Continuous
100
AcDbCircle
 10
91.50906135844747
 20
-10.00000000000001
 30
0.0
 40
7.928938641552462
100
AcDbArc
 50
340.8668293491715
 51
19.13317065082851
  0
POLYLINE
  5
1D0
330
22
100
AcDbEntity
  8
1
  6
Continuous
100
AcDb2dPolyline
 66
     1
 10
0.0
 20
0.0
 30
0.0
  0
VERTEX
  5
1D1
330
1D0
100
AcDbEntity
  8
1
  6
Continuous
100
AcDbVertex
100
AcDb2dVertex
 10
17.036122708074
 20
-10.0
 30
0.0
  0
VERTEX
  5
1D2
330
1D0
100
AcDbEntity
  8
1
  6
Continuous
100
AcDbVertex
100
AcDb2dVertex
 10
16.9925510711106
 20
-8.593114307946422
 30
0.0
  0
VERTEX
  5
1D3
330
1D0
100
AcDbEntity
  8
1
  6
Continuous
100
AcDbVertex
100
AcDb2dVertex
 10
16.86239478085088
 20
-7.217823143466575
 30
0.0
  0
SEQEND
  5
1D4
330
1D0
100
AcDbEntity
  8
1
  0
POLYLINE
  5
1D5
330
22
100
AcDbEntity
  8
1
  6
Continuous
100
AcDb2dPolyline
 66
     1
 10
0.0
 20
0.0
 30
0.0
  0
VERTEX
  5
1D6
330
1D5
100
AcDbEntity
  8
1
  6
Continuous
100
AcDbVertex
100
AcDb2dVertex
 10
12.13989229744652
 20
-20.5
 30
0.0
  0
VERTEX
  5
1D7
330
1D5
100
AcDbEntity
  8
1
  6
Continuous
100
AcDbVertex
100
AcDb2dVertex
 10
13.0963384860035
 20
-20.2997655516678
 30
0.0
  0
VERTEX
  5
1D8
330
1D5
100
AcDbEntity
  8
1
  6
Continuous
100
AcDbVertex
100
AcDb2dVertex
 10
14.01230752003573
 20
-19.70485625843858
 30
0.0
  0
VERTEX
  5
1D9
330
1D5
100
AcDbEntity
  8
1
  6
Continuous
100
AcDbVertex
100
AcDb2dVertex
 10
15.60205002305304
 20
-17.4246212024588
 30
0.0
  0
VERTEX
  5
1DA
330
1D5
100
AcDbEntity
  8
1
  6
Continuous
100
AcDbVertex
100
AcDb2dVertex
 10
16.66534109204991
 20
-14.0154074029101
 30
0.0
  0
VERTEX
  5
1DB
330
1D5
100
AcDbEntity
  8
1
  6
Continuous
100
AcDbVertex
100
AcDb2dVertex
 10
17.036122708074
 20
-10.0
 30
0.0
  0
SEQEND
  5
1DC
330
1D5
100
AcDbEntity
  8
1
  0
LINE
  5
1DD
330
22
100
AcDbEntity
  8
1
  6
Continuous
100
AcDbLine
 10
12.0
 20
-19.7814015702034
 30
0.0
 11
12.0
 21
-8.582631681562191
 31
0.0
  0
LINE
  5
1DF
330
22
100
AcDbEntity
  8
1
  6
Continuous
100
AcDbLine
 10
8.928997152044872
 20
-7.4959016759571
 30
0.0
 11
14.98502148507441
 21
-7.4959016759571
 31
0.0
  0
ARC
  5
1E0
330
22
100
AcDbEntity
  8
1
  6
Continuous
100
AcDbCircle
 10
14.98502148507441
 20
-2.495901675957114
 30
0.0
 40
5.000000000000001
100
AcDbArc
 50
270.0
 51
335.0
  0
LINE
  5
1E1
330
22
100
AcDbEntity
  8
1
  6
Continuous
100
AcDbLine
 10
19.51656042025763
 20
-4.608992984660489
 30
0.0
 11
20.5
 21
-2.5
 31
0.0
  0
LINE
  5
1E2
330
22
100
AcDbEntity
  8
1
  6
Continuous
100
AcDbLine
 10
22.5
 20
-17.5
 30
0.0
 11
22.5
 21
-2.5
 31
0.0
  0
LINE
  5
1E3
330
22
100
AcDbEntity
  8
1
  6
Continuous
100
AcDbLine
 10
22.9375
 20
-17.5
 30
0.0
 11
22.9375
 21
-12.5988278607865
 31
0.0
  0
LINE
  5
1E4
330
22
100
AcDbEntity
  8
1
  6
Continuous
100
AcDbLine
 10
22.9375
 20
-7.401172139213514
 30
0.0
 11
22.9375
 21
-2.5
 31
0.0
  0
ARC
  5
1E5
330
22
100
AcDbEntity
  8
1
  6
Continuous
100
AcDbCircle
 10
30.42843864155248
 20
-10.00000000000001
 30
0.0
 40
7.928938641552517
100
AcDbArc
 50
160.8668293491716
 51
199.1331706508284
  0
LINE
  5
1E6
330
22
100
AcDbEntity
  8
1
  6
Continuous
100
AcDbLine
 10
20.5
 20
-17.5
 30
0.0
 11
20.5
 21
-3.0
 31
0.0
  0
LINE
  5
1E7
330
22
100
AcDbEntity
  8
1
  6
Continuous
100
AcDbLine
 10
18.7679491924311
 20
-20.5
 30
0.0
 11
18.7679491924311
 21
-6.286051407028396
 31
0.0
  0
LINE
  5
1E8
330
22
100
AcDbEntity
  8
1
  6
Continuous
100
AcDbLine
 10
18.7679491924311
 20
-20.5
 30
0.0
 11
20.5
 21
-17.5
 31
0.0
  0
LINE
  5
1E9
330
22
100
AcDbEntity
  8
1
  6
Continuous
100
AcDbLine
 10
8.220652603352164
 20
-18.00325192423809
 30
0.0
 11
8.126740202633698
 21
-17.41031236195481
 31
0.0
  0
ARC
  5
1EA
330
22
100
AcDbEntity
  8
1
  6
Continuous
100
AcDbCircle
 10
9.455263029096102
 20
-17.8077088429378
 30
0.0
 40
1.25
100
AcDbArc
 50
189.0000000000001
 51
9.000002768538247
  0
LINE
  5
1EB
330
22
100
AcDbEntity
  8
1
  6
Continuous
100
AcDbLine
 10
10.6898734548401
 20
-17.6121657616375
 30
0.0
 11
10.47610212501013
 21
-16.26246670412951
 31
0.0
  0
ARC
  5
1EC
330
22
100
AcDbEntity
  8
1
  6
Continuous
100
AcDbCircle
 10
9.241491699266192
 20
-16.45800978542981
 30
0.0
 40
1.250000000000002
100
AcDbArc
 50
9.000000000000048
 51
43.99999807937051
  0
LINE
  5
1ED
330
22
100
AcDbEntity
  8
1
  6
Continuous
100
AcDbLine
 10
10.14066647879679
 20
-15.58968685249759
 30
0.0
 11
8.634305760140194
 21
-14.029804560183
 31
0.0
  0
LINE
  5
1EE
330
22
100
AcDbEntity
  8
2
  6
Continuous
100
AcDbLine
 10
-0.0000028647482395
 20
58.61709637982554
 30
0.0
 11
9.316500663757324
 21
58.61709637982554
 31
0.0
  0
LINE
  5
1EF
330
22
100
AcDbEntity
  8
2
  6
CENTER
100
AcDbLine
 10
4.653329849243164
 20
56.61709637982554
 30
0.0
 11
4.653329849243164
 21
71.11709637982554
 31
0.0
  0
LINE
  5
1F0
330
22
100
AcDbEntity
  8
2
  6
CENTER
100
AcDbLine
 10
106.6830335704099
 20
58.61709637982553
 30
0.0
 11
19.99015808105469
 21
58.61709637982554
 31
0.0
  0
LINE
  5
1FB
330
22
100
AcDbEntity
  8
2
  6
Continuous
100
AcDbLine
 10
-0.0000028647804129
 20
58.61709637982554
 30
0.0
 11
0.4405871775920218
 21
61.79709637982555
 31
0.0
  0
LINE
  5
1FC
330
22
100
AcDbEntity
  8
2
  6
Continuous
100
AcDbLine
 10
100.0000000000001
 20
65.64209637982553
 30
0.0
 11
100.0000000000001
 21
51.59209637982552
 31
0.0
  0
LINE
  5
1FD
330
22
100
AcDbEntity
  8
2
  6
Continuous
100
AcDbLine
 10
99.00000000000006
 20
66.11709637982553
 30
0.0
 11
99.00000000000006
 21
61.73959536893072
 31
0.0
  0
LINE
  5
1FE
330
22
100
AcDbEntity
  8
2
  6
Continuous
100
AcDbLine
 10
99.00000000000006
 20
61.73959536893072
 30
0.0
 11
99.00000000000006
 21
61.21592424061204
 31
0.0
  0
LINE
  5
1FF
330
22
100
AcDbEntity
  8
2
  6
Continuous
100
AcDbLine
 10
99.00000000000006
 20
56.01826851903901
 30
0.0
 11
99.00000000000006
 21
55.49459739072033
 31
0.0
  0
LINE
  5
200
330
22
100
AcDbEntity
  8
2
  6
Continuous
100
AcDbLine
 10
99.00000000000006
 20
55.49459739072033
 30
0.0
 11
99.00000000000006
 21
51.11709637982553
 31
0.0
  0
LINE
  5
201
330
22
100
AcDbEntity
  8
2
  6
Continuous
100
AcDbLine
 10
7.332598135128137
 20
61.79709637982555
 30
0.0
 11
0.4405871775920218
 21
61.79709637982555
 31
0.0
  0
LINE
  5
202
330
22
100
AcDbEntity
  8
2
  6
Continuous
100
AcDbLine
 10
9.279665295486495
 20
58.91709637982555
 30
0.0
 11
9.316500663757324
 21
58.61709637982554
 31
0.0
  0
LINE
  5
203
330
22
100
AcDbEntity
  8
2
  6
Continuous
100
AcDbLine
 10
22.92765808105469
 20
66.11709637982554
 30
0.0
 11
22.92765808105469
 21
61.73568981276934
 31
0.0
  0
LINE
  5
204
330
22
100
AcDbEntity
  8
2
  6
Continuous
100
AcDbLine
 10
22.92765808105469
 20
61.73568981276934
 30
0.0
 11
22.92765808105469
 21
61.21592424061205
 31
0.0
  0
LINE
  5
205
330
22
100
AcDbEntity
  8
2
  6
Continuous
100
AcDbLine
 10
22.92765808105469
 20
56.01826851903902
 30
0.0
 11
22.92765808105469
 21
55.49850294688172
 31
0.0
  0
LINE
  5
206
330
22
100
AcDbEntity
  8
2
  6
Continuous
100
AcDbLine
 10
22.92765808105469
 20
55.49850294688172
 30
0.0
 11
22.92765808105469
 21
51.11709637982553
 31
0.0
  0
LINE
  5
207
330
22
100
AcDbEntity
  8
2
  6
Continuous
100
AcDbLine
 10
22.49015808105469
 20
66.11709637982554
 30
0.0
 11
22.49015808105469
 21
51.11709637982553
 31
0.0
  0
LINE
  5
208
330
22
100
AcDbEntity
  8
2
  6
Continuous
100
AcDbLine
 10
18.75810727348579
 20
69.11709637982554
 30
0.0
 11
0.5631383113511674
 21
69.11709637982554
 31
0.0
  0
LINE
  5
209
330
22
100
AcDbEntity
  8
2
  6
Continuous
100
AcDbLine
 10
7.520693879552198
 20
58.91709637982555
 30
0.0
 11
11.3530878202472
 21
58.91709637982555
 31
0.0
  0
LINE
  5
20A
330
22
100
AcDbEntity
  8
2
  6
Continuous
100
AcDbLine
 10
7.632637023925781
 20
58.61709637982554
 30
0.0
 11
7.599705542105482
 21
58.91709637982555
 31
0.0
  0
LINE
  5
20B
330
22
100
AcDbEntity
  8
2
  6
Continuous
100
AcDbLine
 10
7.332598135128137
 20
61.35039781856622
 30
0.0
 11
7.283563316630591
 21
61.79709637982555
 31
0.0
  0
LINE
  5
20D
330
22
100
AcDbEntity
  8
2
  6
Continuous
100
AcDbLine
 10
7.332598135128137
 20
61.79709637982555
 30
0.0
 11
7.332598135128137
 21
60.59709637982547
 31
0.0
  0
LINE
  5
20E
330
22
100
AcDbEntity
  8
2
  6
Continuous
100
AcDbLine
 10
7.520693879552198
 20
58.91709637982555
 30
0.0
 11
7.332598135128137
 21
60.59709637982547
 31
0.0
  0
LINE
  5
20F
330
22
100
AcDbEntity
  8
2
  6
Continuous
100
AcDbLine
 10
0.5631383113511674
 20
69.11709637982554
 30
0.0
 11
0.5631383113511674
 21
61.79709637982555
 31
0.0
  0
LINE
  5
210
330
22
100
AcDbEntity
  8
2
  6
Continuous
100
AcDbLine
 10
6.79678105508799
 20
67.21632227667723
 30
0.0
 11
6.79678105508799
 21
62.92996494890022
 31
0.0
  0
LINE
  5
211
330
22
100
AcDbEntity
  8
2
  6
PHANTOM
100
AcDbLine
 10
99.00000000000006
 20
66.55459637982553
 30
0.0
 11
22.92765808105469
 21
66.55459637982554
 31
0.0
  0
LINE
  5
212
330
22
100
AcDbEntity
  8
2
  6
Continuous
100
AcDbLine
 10
99.52500000000003
 20
66.11709637982553
 30
0.0
 11
20.49015808105469
 21
66.11709637982554
 31
0.0
  0
LINE
  5
213
330
22
100
AcDbEntity
  8
2
  6
Continuous
100
AcDbLine
 10
99.52500000000003
 20
66.11709637982553
 30
0.0
 11
100.0000000000001
 21
65.64209637982553
 31
0.0
  0
LINE
  5
214
330
22
100
AcDbEntity
  8
2
  6
Continuous
100
AcDbLine
 10
22.92765808105469
 20
61.21592424061205
 30
0.0
 11
99.00000000000006
 21
61.21592424061204
 31
0.0
  0
LINE
  5
215
330
22
100
AcDbEntity
  8
2
  6
Continuous
100
AcDbLine
 10
22.92765808105469
 20
56.01826851903902
 30
0.0
 11
99.00000000000006
 21
56.01826851903901
 31
0.0
  0
ARC
  5
216
330
22
100
AcDbEntity
  8
2
  6
Continuous
100
AcDbCircle
 10
91.5090613584477
 20
58.61709637982553
 30
0.0
 40
7.928938641552363
100
AcDbArc
 50
340.8668293491714
 51
19.13317065082899
  0
ARC
  5
217
330
22
100
AcDbEntity
  8
2
  6
Continuous
100
AcDbCircle
 10
30.41859672260716
 20
58.61709637982553
 30
0.0
 40
7.928938641552538
100
AcDbArc
 50
160.8668293491716
 51
199.1331706508283
  0
LINE
  5
218
330
22
100
AcDbEntity
  8
2
  6
Continuous
100
AcDbLine
 10
99.52500000000003
 20
51.11709637982553
 30
0.0
 11
20.49015808105469
 21
51.11709637982553
 31
0.0
  0
LINE
  5
219
330
22
100
AcDbEntity
  8
2
  6
PHANTOM
100
AcDbLine
 10
99.00000000000006
 20
50.67959637982553
 30
0.0
 11
22.92765808105469
 21
50.67959637982553
 31
0.0
  0
LINE
  5
21A
330
22
100
AcDbEntity
  8
2
  6
Continuous
100
AcDbLine
 10
99.52500000000003
 20
51.11709637982553
 30
0.0
 11
100.0000000000001
 21
51.59209637982552
 31
0.0
  0
LINE
  5
21B
330
22
100
AcDbEntity
  8
2
  6
Continuous
100
AcDbLine
 10
13.19720398558621
 20
68.81409637982554
 30
0.0
 11
7.181760448926298
 21
68.81409637982554
 31
0.0
  0
ARC
  5
21C
330
22
100
AcDbEntity
  8
2
  6
Continuous
100
AcDbCircle
 10
7.181760448926298
 20
61.81409637982554
 30
0.0
 40
7.000000000000001
100
AcDbArc
 50
90.0
 51
160.9998015977199
  0
LINE
  5
21D
330
22
100
AcDbEntity
  8
2
  6
Continuous
100
AcDbLine
 10
12.25939560728386
 20
58.33971464156622
 30
0.0
 11
17.02628078912869
 21
48.11709637982553
 31
0.0
  0
ARC
  5
21E
330
22
100
AcDbEntity
  8
2
  6
Continuous
100
AcDbCircle
 10
11.3530878202472
 20
57.91709637982555
 30
0.0
 40
0.9999999999999992
100
AcDbArc
 50
24.99999999999999
 51
90.0
  0
LINE
  5
21F
330
22
100
AcDbEntity
  8
2
  6
Continuous
100
AcDbLine
 10
20.49015808105469
 20
66.11709637982554
 30
0.0
 11
20.49015808105469
 21
51.11709637982553
 31
0.0
  0
LINE
  5
220
330
22
100
AcDbEntity
  8
2
  6
Continuous
100
AcDbLine
 10
18.75810727348579
 20
69.11709637982554
 30
0.0
 11
20.49015808105469
 21
66.11709637982554
 31
0.0
  0
LINE
  5
221
330
22
100
AcDbEntity
  8
2
  6
Continuous
100
AcDbLine
 10
18.75810727348579
 20
48.11709637982553
 30
0.0
 11
20.49015808105469
 21
51.11709637982553
 31
0.0
  0
LINE
  5
222
330
22
100
AcDbEntity
  8
2
  6
Continuous
100
AcDbLine
 10
18.75810727348579
 20
48.11709637982553
 30
0.0
 11
17.02628078912869
 21
48.11709637982553
 31
0.0
  0
LINE
  5
223
330
22
100
AcDbEntity
  8
2
  6
Continuous
100
AcDbLine
 10
18.75810727348579
 20
48.11709637982553
 30
0.0
 11
18.75810727348579
 21
69.11709637982554
 31
0.0
  0
LINE
  5
2B4
330
22
100
AcDbEntity
  8
6
  6
Continuous
100
AcDbLine
 10
-50.0
 20
-18.5061810818264
 30
0.0
 11
-50.0
 21
0.0
 31
0.0
  0
LINE
  5
2B5
330
22
100
AcDbEntity
  8
6
  6
Continuous
100
AcDbLine
 10
-50.30000000000007
 20
-20.49571341072149
 30
0.0
 11
-50.30000000000007
 21
-11.20164197361621
 31
0.0
  0
LINE
  5
2B6
330
22
100
AcDbEntity
  8
6
  6
Continuous
100
AcDbLine
 10
-53.18000000000006
 20
-0.9250081770491079
 30
0.0
 11
-53.18000000000006
 21
-10.52460510697279
 31
0.0
  0
LINE
  5
2B7
330
22
100
AcDbEntity
  8
6
  6
Continuous
100
AcDbLine
 10
-53.18000000000006
 20
-10.52460510697279
 30
0.0
 11
-53.18000000000006
 21
-10.89758275750342
 31
0.0
  0
LINE
  5
2B8
330
22
100
AcDbEntity
  8
6
  6
Continuous
100
AcDbLine
 10
-50.0
 20
-10.7385177612305
 30
0.0
 11
-53.18000000000006
 21
-10.52460510697279
 31
0.0
  0
LINE
  5
2B9
330
22
100
AcDbEntity
  8
6
  6
Continuous
100
AcDbLine
 10
-50.0
 20
0.0
 30
0.0
 11
-53.18000000000006
 21
-0.9250081770491079
 31
0.0
  0
ARC
  5
2BA
330
22
100
AcDbEntity
  8
6
  6
Continuous
100
AcDbCircle
 10
-50.0
 20
-10.0
 30
0.0
 40
10.5
100
AcDbArc
 50
121.432019239108
 51
13.7971738019385
  0
LINE
  5
2BB
330
22
100
AcDbEntity
  8
6
  6
CENTER
100
AcDbLine
 10
-62.433539195148
 20
-9.253090858459487
 30
0.0
 11
-48.0
 21
-9.253090858459501
 31
0.0
  0
LINE
  5
2BC
330
22
100
AcDbEntity
  8
6
  6
DASHED
100
AcDbLine
 10
-60.19703346976587
 20
-7.495901675957086
 30
0.0
 11
-53.18000000000006
 21
-7.4959016759571
 31
0.0
  0
LINE
  5
2BE
330
22
100
AcDbEntity
  8
6
  6
Continuous
100
AcDbLine
 10
-50.0
 20
-18.5061810818264
 30
0.0
 11
-50.30000000000007
 21
-18.40173573184009
 31
0.0
  0
LINE
  5
2BF
330
22
100
AcDbEntity
  8
6
  6
Continuous
100
AcDbLine
 10
-55.47560877253545
 20
-1.040775224935317
 30
0.0
 11
-53.18000000000006
 21
-1.040775224935317
 31
0.0
  0
LINE
  5
2C0
330
22
100
AcDbEntity
  8
6
  6
Continuous
100
AcDbLine
 10
-53.18000000000006
 20
-10.89758275750342
 30
0.0
 11
-51.98000000000002
 21
-10.89758275750342
 31
0.0
  0
LINE
  5
2C1
330
22
100
AcDbEntity
  8
6
  6
Continuous
100
AcDbLine
 10
-50.30000000000007
 20
-11.20164197361621
 30
0.0
 11
-51.98000000000002
 21
-10.89758275750342
 31
0.0
  0
ARC
  5
2C2
330
22
100
AcDbEntity
  8
6
  6
Continuous
100
AcDbCircle
 10
-50.0
 20
-10.0
 30
0.0
 40
7.9375
100
AcDbArc
 50
18.38960947784716
 51
70.88826786280104
  0
LINE
  5
2C3
330
22
100
AcDbEntity
  8
6
  6
Continuous
100
AcDbLine
 10
-50.0
 20
-2.5
 30
0.0
 11
-47.40117213921349
 21
-2.5
 31
0.0
  0
LINE
  5
2C4
330
22
100
AcDbEntity
  8
6
  6
CENTER
100
AcDbLine
 10
-60.9375
 20
-9.999999999999986
 30
0.0
 11
-39.0625
 21
-10.0
 31
0.0
  0
LINE
  5
2C5
330
22
100
AcDbEntity
  8
6
  6
CENTER
100
AcDbLine
 10
-50.0
 20
-20.9375
 30
0.0
 11
-50.0
 21
0.9375
 31
0.0
  0
LINE
  5
2C6
330
22
100
AcDbEntity
  8
6
  6
Continuous
100
AcDbLine
 10
-50.0
 20
-7.4959016759571
 30
0.0
 11
-39.80296653023413
 21
-7.4959016759571
 31
0.0
  0
ARC
  5
2C7
330
22
100
AcDbEntity
  8
6
  6
Continuous
100
AcDbCircle
 10
-50.0
 20
-10.0
 30
0.0
 40
7.5
100
AcDbArc
 50
19.50443213152908
 51
90.0
  0
LINE
  5
403
330
22
100
AcDbEntity
  8
0
100
AcDbLine
 10
0.1984374999999545
 20
0.0
 30
0.0
 11
0.0
 21
0.0
 31
0.0
  0
LINE
  5
404
330
22
100
AcDbEntity
  8
0
100
AcDbLine
 10
0.0
 20
0.0
 30
0.0
 11
0.0
 21
-0.1984375000000114
 31
0.0
  0
DIMENSION
  5
418
330
22
100
AcDbEntity
  8
AM_5
100
AcDbDimension
  2
*D2
 10
-13.75274177618383
 20
-9.999999999999996
 30
0.0
 11
-16.34274177618383
 21
-4.999999999999999
 31
0.0
 70
    32
 71
     5
 42
10.0
  3
Standard$0
100
AcDbAlignedDimension
 13
0.0
 23
0.0
 33
0.0
 14
0.0
 24
-10.0
 34
0.0
 50
270.0
100
AcDbRotatedDimension
1001
ACAD
1000
DSTYLE
1002
{
1070
    41
1040
3.0
1070
    42
1040
1.0
1070
    43
1040
5.0
1070
    44
1040
2.0
1070
    46
1040
3.0
1070
    73
1070
     0
1070
    74
1070
     0
1070
    77
1070
     1
1070
    78
1070
     8
1070
   140
1040
5.0
1070
   141
1040
2.0
1070
   145
1040
1.0
1070
   171
1070
     4
1070
   172
1070
     1
1002
}
  0
DIMENSION
  5
440
330
22
100
AcDbEntity
  8
AM_5
100
AcDbDimension
  2
*D3
 10
20.5
 20
11.75755895528232
 30
0.0
 11
10.25
 21
14.34755895528232
 31
0.0
 70
    32
  1
20
 71
     5
 42
20.5
  3
Standard$0
100
AcDbAlignedDimension
 13
0.0
 23
0.0
 33
0.0
 14
20.5
 24
-2.5
 34
0.0
 50
180.0
100
AcDbRotatedDimension
1001
ACAD
1000
DSTYLE
1002
{
1070
    41
1040
3.0
1070
    42
1040
1.0
1070
    43
1040
5.0
1070
    44
1040
2.0
1070
    46
1040
3.0
1070
    73
1070
     0
1070
    74
1070
     0
1070
    77
1070
     1
1070
    78
1070
     8
1070
   140
1040
5.0
1070
   141
1040
2.0
1070
   145
1040
1.0
1070
   171
1070
     4
1070
   172
1070
     1
1070
   271
1070
     0
1002
}
  0
DIMENSION
  5
4B5
330
22
100
AcDbEntity
  8
AM_5
100
AcDbDimension
  2
*D4
 10
0.0012215533060953
 20
-0.1147399842739105
 30
0.0
 11
-9.594903828019477
 21
-24.86244745085907
 31
0.0
 70
    34
 71
     5
 42
0.1570796687798852
  3
Standard$2
100
AcDb2LineAngularDimension
 13
0.0
 23
0.0
 33
0.0
 14
0.0
 24
-0.1984375000000114
 34
0.0
 15
1.683863043785095
 25
-10.7385177612305
 35
0.0
 16
3.010040916397024
 26
-28.74564707260516
 36
0.0
1001
ACAD
1000
DSTYLE
1002
{
1070
    41
1040
3.0
1070
    42
1040
1.0
1070
    43
1040
5.0
1070
    44
1040
2.0
1070
    46
1040
3.0
1070
    73
1070
     0
1070
    74
1070
     0
1070
    77
1070
     1
1070
    78
1070
     8
1070
   140
1040
5.0
1070
   141
1040
2.0
1070
   145
1040
1.0
1070
   171
1070
     4
1070
   172
1070
     1
1070
   271
1070
     0
1002
}
  0
DIMENSION
  5
4FB
330
22
100
AcDbEntity
  8
AM_5
100
AcDbDimension
  2
*D5
 10
-13.75274177618383
 20
58.61709637982554
 30
0.0
 11
-16.34274177618383
 21
65.95709637982554
 31
0.0
 70
    32
 71
     5
 42
-1.0
  3
Standard$0
100
AcDbAlignedDimension
 13
1.502749825309934
 23
58.61709637982554
 33
0.0
 14
1.502749825309934
 24
58.61709637982554
 34
0.0
 50
270.0
100
AcDbRotatedDimension
1001
ACAD
1000
DSTYLE
1002
{
1070
    41
1040
3.0
1070
    42
1040
1.0
1070
    43
1040
5.0
1070
    44
1040
2.0
1070
    46
1040
3.0
1070
    73
1070
     0
1070
    74
1070
     0
1070
    77
1070
     1
1070
    78
1070
     8
1070
   140
1040
5.0
1070
   141
1040
2.0
1070
   145
1040
1.0
1070
   171
1070
     4
1070
   172
1070
     1
1070
   271
1070
     0
1002
}
  0
DIMENSION
  5
543
330
22
100
AcDbEntity
  8
AM_5
100
AcDbDimension
  2
*D6
 10
-0.0000028647482412
 20
31.32166007480873
 30
0.0
 11
49.99999856762591
 21
33.91166007480874
 31
0.0
 70
    32
 71
     5
 42
100.0000028647483
  3
Standard$0
100
AcDbAlignedDimension
 13
100.0000000000001
 23
52.80127519392907
 33
0.0
 14
-0.0000028647482395
 24
58.61709637982554
 34
0.0
 50
180.0
100
AcDbRotatedDimension
1001
ACAD
1000
DSTYLE
1002
{
1070
    41
1040
3.0
1070
    42
1040
1.0
1070
    43
1040
5.0
1070
    44
1040
2.0
1070
    46
1040
3.0
1070
    73
1070
     0
1070
    74
1070
     0
1070
    77
1070
     1
1070
    78
1070
     8
1070
   140
1040
5.0
1070
   141
1040
2.0
1070
   145
1040
1.0
1070
   171
1070
     4
1070
   172
1070
     1
1070
   271
1070
     0
1002
}
  0
DIMENSION
  5
56C
330
22
100
AcDbEntity
  8
AM_5
100
AcDbDimension
  2
*D7
 10
54.07473087011738
 20
10.82286037668325
 30
0.0
 11
61.57473087011735
 21
13.41286037668325
 31
0.0
 70
    32
 71
     5
 42
14.99999999999994
  3
Standard$0
100
AcDbAlignedDimension
 13
69.07473087011732
 23
-10.00000000000001
 33
0.0
 14
54.07473087011738
 24
-10.0
 34
0.0
 50
180.0
100
AcDbRotatedDimension
1001
ACAD
1000
DSTYLE
1002
{
1070
    41
1040
3.0
1070
    42
1040
1.0
1070
    43
1040
5.0
1070
    44
1040
2.0
1070
    46
1040
3.0
1070
    73
1070
     0
1070
    74
1070
     0
1070
    77
1070
     1
1070
    78
1070
     8
1070
   140
1040
5.0
1070
   141
1040
2.0
1070
   145
1040
1.0
1070
   171
1070
     4
1070
   172
1070
     1
1070
   271
1070
     0
1002
}
  0
ARC
  5
585
330
22
100
AcDbEntity
  8
1
  6
Continuous
100
AcDbCircle
 10
61.57473087011732
 20
-10.00000000000001
 30
0.0
 40
7.9375
100
AcDbArc
 50
289.1117321371989
 51
340.8882678628011
  0
ARC
  5
588
330
22
100
AcDbEntity
  8
1
  6
Continuous
100
AcDbCircle
 10
61.57473087011732
 20
-10.00000000000001
 30
0.0
 40
7.9375
100
AcDbArc
 50
109.1117321371989
 51
160.8882678628011
  0
DIMENSION
  5
599
330
22
100
AcDbEntity
  8
AM_5
100
AcDbDimension
  2
*D8
 10
75.17715674373687
 20
-17.50000000000002
 30
0.0
 11
75.17715674373687
 21
-26.03049356803321
 31
0.0
 70
   160
 71
     5
 42
15.0
  3
Standard$0
100
AcDbAlignedDimension
 13
61.57473087011732
 23
-2.500000000000014
 33
0.0
 14
61.57473087011732
 24
-17.50000000000001
 34
0.0
 50
270.0
100
AcDbRotatedDimension
1001
ACAD
1000
DSTYLE
1002
{
1070
    41
1040
3.0
1070
    42
1040
1.0
1070
    43
1040
5.0
1070
    44
1040
2.0
1070
    46
1040
3.0
1070
    73
1070
     0
1070
    74
1070
     0
1070
    77
1070
     1
1070
    78
1070
     8
1070
   140
1040
5.0
1070
   141
1040
2.0
1070
   145
1040
1.0
1070
   171
1070
     4
1070
   172
1070
     1
1070
   271
1070
     0
1002
}
  0
DIMENSION
  5
5DD
330
22
100
AcDbEntity
  8
AM_5
100
AcDbDimension
  2
*D9
 10
65.6601565002881
 20
-3.194619505836258
 30
0.0
 11
49.13178371844079
 21
-25.69502681982519
 31
0.0
 70
    35
 71
     5
 42
15.87500000000012
  3
Standard$3
100
AcDbDiametricDimension
 15
57.48930523994664
 25
-16.80538049416384
 35
0.0
 40
0.0
1001
ACAD
1000
DSTYLE
1002
{
1070
    41
1040
3.0
1070
    42
1040
1.0
1070
    43
1040
5.0
1070
    44
1040
2.0
1070
    46
1040
3.0
1070
    73
1070
     0
1070
    74
1070
     0
1070
    77
1070
     1
1070
    78
1070
     8
1070
   140
1040
5.0
1070
   141
1040
2.0
1070
   145
1040
1.0
1070
   171
1070
     4
1070
   172
1070
     1
1070
   271
1070
     0
1002
}
  0
TEXT
  5
600
330
22
100
AcDbEntity
  8
0
100
AcDbText
 10
12.28950719085196
 20
-66.53823028801021
 30
0.0
 40
5.0
  1
%%uRS15H-SVXL11
100
AcDbText
  0
ACAD_PROXY_ENTITY
  5
720
330
22
100
AcDbEntity
  8
AM_5
100
AcDbProxyEntity
 90
      498
 91
      572
 95
       25
 70
     0
 92
      668
310
9C020000270000000C00000016000000000000C00C00000013000000010000000C00000016000000000000C00C00000017000000FFFFFFFF3C0000000600000002000000404A15EC960543C06C5B3074C80038400000000000000000E6FA903E94313FC06F5B3074C800384000000000000000000C00000016000000000000
310
C00C00000010000000FFFFFFFF0C00000012000000FFFFFFFF0C00000017000000000000000C00000014000000010000000C00000013000000020000000C00000016000000000000C00C00000017000000FFFFFFFF3C0000000600000002000000E6FA903E94313FC06F5B3074C8003840000000000000000080942AD82D0B
310
3CC0705B3074C800384000000000000000000C00000016000000000000C00C00000010000000FFFFFFFF0C00000012000000FFFFFFFF0C00000017000000000000000C00000014000000010000000C00000013000000030000000C00000016000000000000C00C00000017000000FFFFFFFF3C0000000600000002000000E6
310
FA903E94313FC01CD8B1529E963740000000000000000080942AD82D0B3CC0705B3074C800384000000000000000000C00000016000000000000C00C00000010000000FFFFFFFF0C00000012000000FFFFFFFF0C00000017000000000000000C00000014000000010000000C00000013000000040000000C00000016000000
310
000000C00C00000017000000FFFFFFFF3C000000060000000200000080942AD82D0B3CC0705B3074C80038400000000000000000E6FA903E94313FC0C1DEAE95F26A384000000000000000000C00000016000000000000C00C00000010000000FFFFFFFF0C00000012000000FFFFFFFF0C00000017000000000000000C0000
310
0014000000010000000C00000013000000050000000C00000016000000000000C0
 93
     1473
310
5DC80F004D7D5F93AC01C16CC1D32000E10219FD35022281B66F19197D35022281B64F2A54051F8000000C800AA1012857B258150F006C5B3074C80038409018FFFFFFFF20250AB60B42CF300705B3074C8003840A8FFFFFFFF1FFFFFFFF080942BD92C0A8780362D983A64001C2045409C870B0B07B52FD3B42C0232398E9
310
FEE4CE502A0000000000003C2FC65F4D4088A86D9BC68333333333333094041D050000000000003C2FC000000000000F0BF40401015213500500
340
66D
340
679
330
0
330
0
340
0
340
0
340
65C
330
0
330
0
 94
        0
  0
ACAD_PROXY_ENTITY
  5
721
330
22
100
AcDbEntity
  8
AM_5
100
AcDbProxyEntity
 90
      498
 91
      572
 95
       25
 70
     0
 92
      668
310
9C020000270000000C00000016000000000000C00C00000013000000010000000C00000016000000000000C00C00000017000000FFFFFFFF3C0000000600000002000000404A15EC960543C06C5B3074C80038400000000000000000354A15EC960543C0D6C196DA2E27314000000000000000000C00000016000000000000
310
C00C00000010000000FFFFFFFF0C00000012000000FFFFFFFF0C00000017000000000000000C00000014000000010000000C00000013000000020000000C00000016000000000000C00C00000017000000FFFFFFFF3C0000000600000002000000354A15EC960543C0D6C196DA2E2731400000000000000000304A15EC9605
310
43C0E0B660E890012C4000000000000000000C00000016000000000000C00C00000010000000FFFFFFFF0C00000012000000FFFFFFFF0C00000017000000000000000C00000014000000010000000C00000013000000030000000C00000016000000000000C00C00000017000000FFFFFFFF3C0000000600000002000000DE
310
8BD4FCAB3A43C0D5C196DA2E2731400000000000000000304A15EC960543C0E0B660E890012C4000000000000000000C00000016000000000000C00C00000010000000FFFFFFFF0C00000012000000FFFFFFFF0C00000017000000000000000C00000014000000010000000C00000013000000040000000C00000016000000
310
000000C00C00000017000000FFFFFFFF3C0000000600000002000000304A15EC960543C0E0B660E890012C4000000000000000008C0856DB81D042C0D8C196DA2E27314000000000000000000C00000016000000000000C00C00000010000000FFFFFFFF0C00000012000000FFFFFFFF0C00000017000000000000000C0000
310
0014000000010000000C00000013000000050000000C00000016000000000000C0
 93
     1537
310
5DC304A15EC960543C03C1B8579B8378A502465F4D4088A06D13C866F4D4088A06D13C0000000000003C2FEA54051F8000000C800AA1012857B258150F006C5B3074C80038409018FFFFFFFF0C12857B258150F00E0B660E890012C40A8FFFFFFFF1FFFFFFFF080942BD92C0A8780362D983A64001C2045409C870B0B07B52
310
FD3B42C0130A3F50255B4D902A0000000000003C2FD197D35022281B44F28333333333333094041D050000000000003C2FC000000000000F0BF40401015213500500
340
66D
340
679
330
0
330
0
340
0
340
0
340
65C
330
0
330
0
 94
        0
  0
TEXT
  5
722
330
22
100
AcDbEntity
  8
AM_6
100
AcDbText
 10
-38.90426579875117
 20
6.37557668707997
 30
0.0
 40
4.0
  1
0%%D
100
AcDbText
  0
TEXT
  5
723
330
22
100
AcDbEntity
  8
AM_6
100
AcDbText
 10
-26.31936318755766
 20
22.11063943646705
 30
0.0
 40
4.0
  1
0%%D
100
AcDbText
  0
ENDSEC
  0
SECTION
  2
OBJECTS
  0
DICTIONARY
  5
C
330
0
100
AcDbDictionary
281
     1
  3
ACAD_COLOR
350
1B
  3
ACAD_GROUP
350
D
  3
ACAD_LAYOUT
350
19
  3
ACAD_MATERIAL
350
1A
  3
ACAD_MLINESTYLE
350
16
  3
ACAD_PLOTSETTINGS
350
18
  3
ACAD_PLOTSTYLENAME
350
E
  3
ACAD_TABLESTYLE
350
1C
  3
AcAmCatalogState
350
363
  3
ACDBHEADERROUNDTRIPXREC
350
797
  3
AcDbVariableDictionary
350
3B4
  3
ACDMSYSVARMGR
350
31D
  3
ACGREF_MASTER
350
317
  3
ACGREFACAD_MASTER
350
33F
  3
AcmDictionary
350
361
  3
ACME_BOM_MANAGER_NAME
350
311
  3
ACME_COMMAND_HISTORY
350
30E
  3
ACME_SCOPE_NAME
350
30D
  3
ACMESTATEMGR
350
316
  3
AcmeSysVarManager
350
30F
  3
AcmSystemVariableManager
350
36C
  3
AD_APPL
350
34E
  3
ADSYSVARMGR
350
34D
  3
AmdtNamedDwgMgr
350
33A
  3
AMG
350
343
  3
AMGSNAPSETTINGS
350
3A3
  3
AMI_MASTER
350
342
  3
AUTOCAD_ASSEMBLIES_PROJECT
350
356
  3
Designer_Assemblies_SysVars
350
351
  3
GREFAM_MODULE
350
347
  0
DICTIONARY
  5
667
330
2
100
AcDbDictionary
280
     1
281
     1
  3
ACAD_LAYERSTATES
360
668
  0
DICTIONARY
  5
586
330
22
100
AcDbDictionary
280
     1
281
     1
  3
ACAD_SORTENTS
360
587
  0
DICTIONARY
  5
1B
102
{ACAD_REACTORS
330
C
102
}
330
C
100
AcDbDictionary
281
     1
  0
DICTIONARY
  5
D
102
{ACAD_REACTORS
330
C
102
}
330
C
100
AcDbDictionary
281
     1
  0
DICTIONARY
  5
19
102
{ACAD_REACTORS
330
C
102
}
330
C
100
AcDbDictionary
281
     1
  3
Model
350
25
  3
レイアウト1
350
21
  0
DICTIONARY
  5
1A
102
{ACAD_REACTORS
330
C
102
}
330
C
100
AcDbDictionary
281
     1
  0
DICTIONARY
  5
16
102
{ACAD_REACTORS
330
C
102
}
330
C
100
AcDbDictionary
281
     1
  3
Standard
350
17
  0
DICTIONARY
  5
18
102
{ACAD_REACTORS
330
C
102
}
330
C
100
AcDbDictionary
281
     1
  0
ACDBDICTIONARYWDFLT
  5
E
102
{ACAD_REACTORS
330
C
102
}
330
C
100
AcDbDictionary
281
     1
  3
Normal
350
F
100
AcDbDictionaryWithDefault
340
F
  0
DICTIONARY
  5
1C
102
{ACAD_REACTORS
330
C
102
}
330
C
100
AcDbDictionary
281
     1
  3
Standard
350
1D
  0
ACAD_PROXY_OBJECT
  5
363
102
{ACAD_REACTORS
330
C
102
}
330
C
100
AcDbProxyObject
 90
      499
 91
      545
 95
       25
 70
     0
 93
      504
310
3FFFFFFFE00A0281402992E2E21BA3239AE483ECB654563CBCEAE4AABC7C0483ECB652E487CC6F6CBB846A445F7AE41BDC1B341A12E272A25C83ECB65400AA
  0
DICTIONARY
  5
797
102
{ACAD_REACTORS
330
C
102
}
330
C
100
AcDbDictionary
281
     1
  3
COLORDICT
350
798
  3
MATERIALDICT
350
799
  0
DICTIONARY
  5
3B4
102
{ACAD_REACTORS
330
C
102
}
330
C
100
AcDbDictionary
281
     1
  3
CTABLESTYLE
350
3B5
  3
DIMASSOC
350
795
  3
HIDETEXT
350
796
  0
ACAD_PROXY_OBJECT
  5
31D
102
{ACAD_REACTORS
330
C
102
}
330
C
100
AcDbProxyObject
 90
      499
 91
      505
 95
       25
 70
     0
 93
      240
310
4C51A47A0000000000000000000000000000000000000000000000000000
330
31E
330
31F
330
320
330
321
330
322
330
323
330
324
330
325
330
326
330
327
330
328
330
329
330
32A
330
32B
330
32C
330
32D
330
32E
330
32F
330
330
330
331
330
332
330
333
330
334
330
335
330
336
330
337
 94
        0
  0
ACAD_PROXY_OBJECT
  5
317
102
{ACAD_REACTORS
330
C
102
}
330
C
100
AcDbProxyObject
 90
      499
 91
      513
 95
       25
 70
     0
 93
       34
310
0400004280
  0
ACAD_PROXY_OBJECT
  5
33F
102
{ACAD_REACTORS
330
C
102
}
330
C
100
AcDbProxyObject
 90
      499
 91
      522
 95
       25
 70
     0
 93
      114
310
04000041C080000000000000000000
  0
DICTIONARY
  5
361
102
{ACAD_REACTORS
330
C
102
}
330
C
100
AcDbDictionary
281
     1
  3
AcmBOMDATA
350
362
  3
AcmStdDictionary
350
36E
  3
AMDTSECTSYM_ARROWCOLOR
350
38E
  0
ACAD_PROXY_OBJECT
  5
311
102
{ACAD_REACTORS
330
C
102
}
330
C
100
AcDbProxyObject
 90
      499
 91
      507
 95
       25
 70
     0
 93
       50
310
00010040400000
330
0
330
0
330
312
 94
        0
  0
ACAD_PROXY_OBJECT
  5
30E
102
{ACAD_REACTORS
330
C
102
}
330
C
100
AcDbProxyObject
 90
      499
 91
      504
 95
       25
 70
     0
 93
     5600
310
478050C475249505F535452455443488050653454C454354408052D4D5347202D205050413A2020206465736B746F702E6172782046696C6556657273696F6E3A20392E322E302E34014B5354D1C80B481414104E88080819195CDADD1BDC0B985C9E08119A5B1955995C9CDA5BDB8E880E4B8C8B8C0B8D0050E414D445452
310
4553455444424D4F4440805084E202D20554E444F014213880B4815539113C0504554E444F80504554E444F80504554E444F80506494E534552548050653454C4543548050844524F5047454F4D404052D4D5347202D205050413A2020206465736B746F702E6172782046696C6556657273696F6E3A20392E322E302E3401
310
4390535115149154D15511109353D1102014213880B4815539113C05084E202D20554E444F014115539113E014115539113E0142941493D4115495125154E014154155491D1601415454D05591501014B5354D1C80B481414104E88080819195CDADD1BDC0B985C9E08119A5B1955995C9CDA5BDB8E880E4B8C8B8C0B8D005
310
0E414D4454524553455444424D4F4440805084E202D20554E444F014213880B4815539113C0504554E444F80504554E444F80505455241534580506524F544154458050844524F5047454F4D805095041535445434C4950805055153415645404052D4D5347202D205050413A2020206465736B746F702E6172782046696C6
310
556657273696F6E3A20392E322E302E3401415454D05591501014B5354D1C80B481414104E88080819195CDADD1BDC0B985C9E08119A5B1955995C9CDA5BDB8E880E4B8C8B8C0B8D0050E414D4454524553455444424D4F4440805084E202D20554E444F014213880B4815539113C0504554E444F80504554E444F805044D4
310
F5645805045A4F4F4D805055153415645404052D4D5347202D205050413A2020206465736B746F702E6172782046696C6556657273696F6E3A20392E322E302E34
  0
ACAD_PROXY_OBJECT
  5
30D
102
{ACAD_REACTORS
330
C
102
}
330
C
100
AcDbProxyObject
 90
      499
 91
      503
 95
       25
 70
     0
 93
      546
310
090000464080000000000000000012F4CE0000000000000000000000000000000000000000000000000000000000000000000000000000000000000000000000AAA406AA80
360
310
360
312
360
318
360
319
360
31A
360
31B
360
31E
360
31F
360
320
360
321
360
322
360
323
360
324
360
325
360
326
360
327
360
328
360
329
360
32A
360
32B
360
32C
360
32D
360
32E
360
32F
360
330
360
331
360
332
360
333
360
334
360
335
360
336
360
337
360
349
360
34A
360
34B
360
34C
360
352
360
353
360
354
360
355
360
35A
360
35B
360
35C
360
35D
360
35E
360
35F
360
36D
 94
        0
  0
ACAD_PROXY_OBJECT
  5
316
102
{ACAD_REACTORS
330
C
102
}
330
C
100
AcDbProxyObject
 90
      499
 91
      512
 95
       25
 70
     0
 93
       50
310
09000042641280
  0
ACAD_PROXY_OBJECT
  5
30F
102
{ACAD_REACTORS
330
C
102
}
330
C
100
AcDbProxyObject
 90
      499
 91
      505
 95
       25
 70
     0
 93
       32
310
90140A00
330
310
 94
        0
  0
ACAD_PROXY_OBJECT
  5
36C
102
{ACAD_REACTORS
330
C
102
}
330
C
100
AcDbProxyObject
 90
      499
 91
      505
 95
       25
 70
     0
 93
       32
310
90140A00
330
36D
 94
        0
  0
ACAD_PROXY_OBJECT
  5
34E
102
{ACAD_REACTORS
330
C
102
}
330
C
100
AcDbProxyObject
 90
      499
 91
      533
 95
       25
 70
     0
 93
       42
310
000900004040
330
349
 94
        0
  0
ACAD_PROXY_OBJECT
  5
34D
102
{ACAD_REACTORS
330
C
102
}
330
C
100
AcDbProxyObject
 90
      499
 91
      505
 95
       25
 70
     0
 93
        8
310
AA
  0
ACAD_PROXY_OBJECT
  5
33A
102
{ACAD_REACTORS
330
C
102
}
330
C
100
AcDbProxyObject
 90
      499
 91
      519
 95
       25
 70
     0
 93
       42
310
000100005E80
330
318
 94
        0
  0
DICTIONARY
  5
343
102
{ACAD_REACTORS
330
C
102
}
330
C
100
AcDbDictionary
281
     1
  3
AcMgSettings
350
344
  3
AMGLAYCFG
350
370
  0
DICTIONARY
  5
3A3
102
{ACAD_REACTORS
330
C
102
}
330
C
100
AcDbDictionary
281
     1
  3
DIMENSION
350
3A8
  3
FEA
350
3A7
  3
HATCH (1)
350
3A4
  3
HATCH (2)
350
3A5
  3
SIMPLE WELD
350
3A9
  3
SYMBOLS
350
3A6
  0
ACAD_PROXY_OBJECT
  5
342
102
{ACAD_REACTORS
330
C
102
}
330
C
100
AcDbProxyObject
 90
      499
 91
      525
 95
       25
 70
     0
 93
       34
310
0500004280
  0
ACAD_PROXY_OBJECT
  5
356
102
{ACAD_REACTORS
330
C
102
}
330
C
100
AcDbProxyObject
 90
      499
 91
      537
 95
       25
 70
     0
 93
       98
310
0900004E400000000000000000
330
35D
330
0
330
35E
330
0
330
0
330
0
330
0
330
0
 94
        0
  0
ACAD_PROXY_OBJECT
  5
351
102
{ACAD_REACTORS
330
C
102
}
330
C
100
AcDbProxyObject
 90
      499
 91
      505
 95
       25
 70
     0
 93
       56
310
90441600000000
330
352
330
353
330
354
330
355
 94
        0
  0
ACAD_PROXY_OBJECT
  5
347
102
{ACAD_REACTORS
330
C
102
}
330
C
100
AcDbProxyObject
 90
      499
 91
      527
 95
       25
 70
     0
 93
        8
310
05
  0
DICTIONARY
  5
668
102
{ACAD_REACTORS
330
667
102
}
330
667
100
AcDbDictionary
281
     1
  0
SORTENTSTABLE
  5
587
102
{ACAD_REACTORS
330
586
102
}
330
586
100
AcDbSortentsTable
330
22
331
187
  5
187
331
188
  5
188
331
189
  5
189
331
18A
  5
18A
331
18B
  5
18B
331
18C
  5
18C
331
18D
  5
18D
331
18E
  5
18E
331
18F
  5
18F
331
190
  5
190
331
191
  5
191
331
192
  5
192
331
193
  5
193
331
194
  5
194
331
195
  5
195
331
196
  5
196
331
197
  5
197
331
198
  5
198
331
199
  5
199
331
19A
  5
19A
331
19B
  5
19B
331
19C
  5
19C
331
19D
  5
19D
331
19E
  5
19E
331
19F
  5
19F
331
1A0
  5
1A0
331
1A1
  5
1A1
331
1A2
  5
1A2
331
1A3
  5
1A3
331
1A4
  5
1A4
331
1A5
  5
1A5
331
1A6
  5
1A6
331
1A9
  5
1A9
331
1AA
  5
1AA
331
1AB
  5
1AB
331
1AC
  5
1AC
331
1AD
  5
1AD
331
1BB
  5
1BB
331
1BD
  5
1BD
331
1BE
  5
1BE
331
1BF
  5
1BF
331
1C0
  5
1C0
331
1C1
  5
1C1
331
1C2
  5
1C2
331
1C3
  5
1C3
331
1C4
  5
1C4
331
1C5
  5
1C5
331
1C6
  5
1C7
331
1C7
  5
1C9
331
1C8
  5
1CA
331
1C9
  5
1CB
331
1CA
  5
1D0
331
1CB
  5
1D5
331
1D0
  5
1DD
331
1D5
  5
1DF
331
1DD
  5
1E0
331
1DF
  5
1E1
331
1E0
  5
1E2
331
1E1
  5
1E3
331
1E2
  5
1E4
331
1E3
  5
1E5
331
1E4
  5
1E6
331
1E5
  5
1E7
331
1E6
  5
1E8
331
1E7
  5
1E9
331
1E8
  5
1EA
331
1E9
  5
1EB
331
1EA
  5
1EC
331
1EB
  5
1ED
331
1EC
  5
1EE
331
1ED
  5
1EF
331
1EE
  5
1F0
331
1EF
  5
1FB
331
1F0
  5
1FC
331
1FB
  5
1FD
331
1FC
  5
1FE
331
1FD
  5
1FF
331
1FE
  5
200
331
1FF
  5
201
331
200
  5
202
331
201
  5
203
331
202
  5
204
331
203
  5
205
331
204
  5
206
331
205
  5
207
331
206
  5
208
331
207
  5
209
331
208
  5
20A
331
209
  5
20B
331
20A
  5
20D
331
20B
  5
20E
331
20D
  5
20F
331
20E
  5
210
331
20F
  5
211
331
210
  5
212
331
211
  5
213
331
212
  5
214
331
213
  5
215
331
214
  5
216
331
215
  5
217
331
216
  5
218
331
217
  5
219
331
218
  5
21A
331
219
  5
21B
331
21A
  5
21C
331
21B
  5
21D
331
21C
  5
21E
331
21D
  5
21F
331
21E
  5
220
331
21F
  5
221
331
220
  5
222
331
221
  5
223
331
222
  5
2B4
331
223
  5
2B5
331
2B4
  5
2B6
331
2B5
  5
2B7
331
2B6
  5
2B8
331
2B7
  5
2B9
331
2B8
  5
2BA
331
2B9
  5
2BB
331
2BA
  5
2BC
331
2BB
  5
2BE
331
2BC
  5
2BF
331
2BE
  5
2C0
331
2BF
  5
2C1
331
2C0
  5
2C2
331
2C1
  5
2C3
331
2C2
  5
2C4
331
2C3
  5
2C5
331
2C4
  5
2C6
331
2C5
  5
2C7
331
2C6
  5
403
331
2C7
  5
404
331
403
  5
418
331
404
  5
440
331
418
  5
4B5
331
440
  5
4FB
331
4B5
  5
543
331
4FB
  5
56C
331
543
  5
585
331
56C
  5
588
331
585
  5
1C8
331
588
  5
1C6
  0
LAYOUT
  5
25
102
{ACAD_REACTORS
330
19
102
}
330
19
100
AcDbPlotSettings
  1

  2
Canon LBP-1420
  4
A4
  6

 40
5.873749732971191
 41
5.873747825622559
 42
5.873748779296875
 43
5.873748779296875
 44
209.9733276367188
 45
296.9259948730469
 46
0.0
 47
0.0
 48
0.0
 49
0.0
140
400.0
141
273.0
142
1.0
143
1.402630290955233
 70
 11952
 72
     1
 73
     1
 74
     4
  7
sei_cad.ctb
 75
     0
147
0.7129462456703186
148
0.0
149
0.0
100
AcDbLayout
  1
Model
 70
     1
 71
     0
 10
0.0
 20
0.0
 11
12.0
 21
9.0
 12
0.0
 22
0.0
 32
0.0
 14
0.0
 24
0.0
 34
0.0
 15
0.0
 25
0.0
 35
0.0
146
0.0
 13
0.0
 23
0.0
 33
0.0
 16
1.0
 26
0.0
 36
0.0
 17
0.0
 27
1.0
 37
0.0
 76
     0
330
22
1001
ACAD_PSEXT
1000
Canon LBP-1420
1000
Canon LASER SHOT LBP-1420
1000
10.254.89.243:lp
1000

1070
     0
  0
LAYOUT
  5
21
102
{ACAD_REACTORS
330
19
102
}
330
19
100
AcDbPlotSettings
  1

  2
Canon LBP-1420
  4

  6

 40
0.0
 41
0.0
 42
0.0
 43
0.0
 44
0.0
 45
0.0
 46
0.0
 47
0.0
 48
0.0
 49
0.0
140
0.0
141
0.0
142
1.0
143
1.0
 70
   688
 72
     0
 73
     0
 74
     5
  7
sei_cad.ctb
 75
    16
147
1.0
148
0.0
149
0.0
100
AcDbLayout
  1
レイアウト1
 70
     1
 71
     1
 10
0.0
 20
0.0
 11
12.0
 21
9.0
 12
0.0
 22
0.0
 32
0.0
 14
1.000000000000000E+20
 24
1.000000000000000E+20
 34
1.000000000000000E+20
 15
-1.000000000000000E+20
 25
-1.000000000000000E+20
 35
-1.000000000000000E+20
146
0.0
 13
0.0
 23
0.0
 33
0.0
 16
1.0
 26
0.0
 36
0.0
 17
0.0
 27
1.0
 37
0.0
 76
     0
330
1E
  0
MLINESTYLE
  5
17
102
{ACAD_REACTORS
330
16
102
}
330
16
100
AcDbMlineStyle
  2
STANDARD
 70
     0
  3

 62
   256
 51
90.0
 52
90.0
 71
     2
 49
0.5
 62
   256
  6
BYLAYER
 49
-0.5
 62
   256
  6
BYLAYER
  0
ACDBPLACEHOLDER
  5
F
102
{ACAD_REACTORS
330
E
102
}
330
E
  0
TABLESTYLE
  5
1D
102
{ACAD_REACTORS
330
1C
102
}
330
1C
100
AcDbTableStyle
  3
Standard
 70
     0
 71
     0
 40
0.06
 41
0.06
280
     0
281
     0
  7
STANDARD
140
0.18
170
     2
 62
     0
 63
     7
283
     0
274
    -2
284
     1
 64
     0
275
    -2
285
     1
 65
     0
276
    -2
286
     1
 66
     0
277
    -2
287
     1
 67
     0
278
    -2
288
     1
 68
     0
279
    -2
289
     1
 69
     0
  7
STANDARD
140
0.25
170
     5
 62
     0
 63
     7
283
     0
274
    -2
284
     1
 64
     0
275
    -2
285
     1
 65
     0
276
    -2
286
     1
 66
     0
277
    -2
287
     1
 67
     0
278
    -2
288
     1
 68
     0
279
    -2
289
     1
 69
     0
  7
STANDARD
140
0.18
170
     5
 62
     0
 63
     7
283
     0
274
    -2
284
     1
 64
     0
275
    -2
285
     1
 65
     0
276
    -2
286
     1
 66
     0
277
    -2
287
     1
 67
     0
278
    -2
288
     1
 68
     0
279
    -2
289
     1
 69
     0
  0
XRECORD
  5
798
102
{ACAD_REACTORS
330
797
102
}
330
797
100
AcDbXrecord
280
     1
340
1B
  0
XRECORD
  5
799
102
{ACAD_REACTORS
330
797
102
}
330
797
100
AcDbXrecord
280
     1
340
1A
  0
DICTIONARYVAR
  5
3B5
102
{ACAD_REACTORS
330
3B4
102
}
330
3B4
100
DictionaryVariables
280
     0
  1
STANDARD
  0
DICTIONARYVAR
  5
795
102
{ACAD_REACTORS
330
3B4
102
}
330
3B4
100
DictionaryVariables
280
     0
  1
1
  0
DICTIONARYVAR
  5
796
102
{ACAD_REACTORS
330
3B4
102
}
330
3B4
100
DictionaryVariables
280
     0
  1
0
  0
ACAD_PROXY_OBJECT
  5
362
102
{ACAD_REACTORS
330
361
102
}
330
361
100
AcDbProxyObject
 90
      499
 91
      544
 95
       25
 70
     0
 93
       76
310
90100057356C1D774120
  0
DICTIONARY
  5
36E
102
{ACAD_REACTORS
330
361
102
}
330
361
100
AcDbDictionary
281
     1
  3
ANSI
350
36F
  3
JIS
350
66D
  0
XRECORD
  5
38E
102
{ACAD_REACTORS
330
361
102
}
330
361
100
AcDbXrecord
280
     1
 90
-1023410169
  0
ACAD_PROXY_OBJECT
  5
310
330
30D
100
AcDbProxyObject
 90
      499
 91
      506
 95
       25
 70
     0
 93
      156
310
000101439050D35154D6535093D314D256915080
330
30D
 94
        0
  0
ACAD_PROXY_OBJECT
  5
312
330
30D
100
AcDbProxyObject
 90
      499
 91
      508
 95
       25
 70
     0
 93
      120
310
000101422565255A6557080C402B00
330
30D
330
0
330
0
 94
        0
  0
ACAD_PROXY_OBJECT
  5
318
330
30D
100
AcDbProxyObject
 90
      499
 91
      514
 95
       25
 70
     0
 93
      366
310
0001014124FEA55D00507392E322E302E32014124FEA55D00507392E322E302E3240501000041905394D24CCC658
330
30D
330
319
330
31D
 94
        0
  0
ACAD_PROXY_OBJECT
  5
319
330
30D
100
AcDbProxyObject
 90
      499
 91
      515
 95
       25
 70
     0
 93
       48
310
000190140A00
330
30D
330
31A
 94
        0
  0
ACAD_PROXY_OBJECT
  5
31A
330
30D
100
AcDbProxyObject
 90
      499
 91
      516
 95
       25
 70
     0
 93
       48
310
0001AA000000
330
30D
330
21
330
31B
330
0
 94
        0
  0
ACAD_PROXY_OBJECT
  5
31B
330
30D
100
AcDbProxyObject
 90
      499
 91
      517
 95
       25
 70
     0
 93
       28
310
0001AAA0
330
30D
 94
        0
  0
ACAD_PROXY_OBJECT
  5
31E
330
30D
100
AcDbProxyObject
 90
      499
 91
      506
 95
       25
 70
     0
 93
      108
310
000101421053521310D05310D010
330
30D
 94
        0
  0
ACAD_PROXY_OBJECT
  5
31F
330
30D
100
AcDbProxyObject
 90
      499
 91
      506
 95
       25
 70
     0
 93
      124
310
00010142905354915554D15112535010
330
30D
 94
        0
  0
ACAD_PROXY_OBJECT
  5
320
330
30D
100
AcDbProxyObject
 90
      499
 91
      506
 95
       25
 70
     0
 93
      132
310
00010143105354D150D51253D391125360
330
30D
 94
        0
  0
ACAD_PROXY_OBJECT
  5
321
330
30D
100
AcDbProxyObject
 90
      499
 91
      506
 95
       25
 70
     0
 93
      124
310
00010142905355941093D49111549010
330
30D
 94
        0
  0
ACAD_PROXY_OBJECT
  5
322
330
30D
100
AcDbProxyObject
 90
      499
 91
      506
 95
       25
 70
     0
 93
      116
310
0001014290535115D1D0D3D313D4A0
330
30D
 94
        0
  0
ACAD_PROXY_OBJECT
  5
323
330
30D
100
AcDbProxyObject
 90
      499
 91
      506
 95
       25
 70
     0
 93
      148
310
00010143505355925155D49151949154D21010
330
30D
 94
        0
  0
ACAD_PROXY_OBJECT
  5
324
330
30D
100
AcDbProxyObject
 90
      499
 91
      506
 95
       25
 70
     0
 93
      172
310
00010144105350539393D51154149154D15495915010
330
30D
 94
        0
  0
ACAD_PROXY_OBJECT
  5
325
330
30D
100
AcDbProxyObject
 90
      499
 91
      506
 95
       25
 70
     0
 93
      172
310
00010144105350555513D11253505494905391D15010
330
30D
 94
        0
  0
ACAD_PROXY_OBJECT
  5
326
330
30D
100
AcDbProxyObject
 90
      499
 91
      506
 95
       25
 70
     0
 93
      124
310
00010142D05351561514915191125360
330
30D
 94
        0
  0
ACAD_PROXY_OBJECT
  5
327
330
30D
100
AcDbProxyObject
 90
      499
 91
      506
 95
       25
 70
     0
 93
      132
310
00010142D05355105410539393D5115010
330
30D
 94
        0
  0
ACAD_PROXY_OBJECT
  5
328
330
30D
100
AcDbProxyObject
 90
      499
 91
      506
 95
       25
 70
     0
 93
      108
310
00010142105350555513D0D31010
330
30D
 94
        0
  0
ACAD_PROXY_OBJECT
  5
329
330
30D
100
AcDbProxyObject
 90
      499
 91
      506
 95
       25
 70
     0
 93
      108
310
00010142105350D3119150551050
330
30D
 94
        0
  0
ACAD_PROXY_OBJECT
  5
32A
330
30D
100
AcDbProxyObject
 90
      499
 91
      506
 95
       25
 70
     0
 93
      108
310
00010142105350D315925155D3F0
330
30D
 94
        0
  0
ACAD_PROXY_OBJECT
  5
32B
330
30D
100
AcDbProxyObject
 90
      499
 91
      506
 95
       25
 70
     0
 93
      148
310
0001014350535212511156915493D112535010
330
30D
 94
        0
  0
ACAD_PROXY_OBJECT
  5
32C
330
30D
100
AcDbProxyObject
 90
      499
 91
      506
 95
       25
 70
     0
 93
      124
310
00010142905352105510D21254D3D010
330
30D
 94
        0
  0
ACAD_PROXY_OBJECT
  5
32D
330
30D
100
AcDbProxyObject
 90
      499
 91
      506
 95
       25
 70
     0
 93
      148
310
00010143905354D25391D31152105513105660
330
30D
 94
        0
  0
ACAD_PROXY_OBJECT
  5
32E
330
30D
100
AcDbProxyObject
 90
      499
 91
      506
 95
       25
 70
     0
 93
      124
310
00010142D0535115D1D193111254D420
330
30D
 94
        0
  0
ACAD_PROXY_OBJECT
  5
32F
330
30D
100
AcDbProxyObject
 90
      499
 91
      506
 95
       25
 70
     0
 93
      100
310
00010142105350555513D213A0
330
30D
 94
        0
  0
ACAD_PROXY_OBJECT
  5
330
330
30D
100
AcDbProxyObject
 90
      499
 91
      506
 95
       25
 70
     0
 93
      116
310
000101425053521390D3D553951010
330
30D
 94
        0
  0
ACAD_PROXY_OBJECT
  5
331
330
30D
100
AcDbProxyObject
 90
      499
 91
      506
 95
       25
 70
     0
 93
      108
310
0001014210535213941493D29010
330
30D
 94
        0
  0
ACAD_PROXY_OBJECT
  5
332
330
30D
100
AcDbProxyObject
 90
      499
 91
      506
 95
       25
 70
     0
 93
      108
310
0001014210535213951654115070
330
30D
 94
        0
  0
ACAD_PROXY_OBJECT
  5
333
330
30D
100
AcDbProxyObject
 90
      499
 91
      506
 95
       25
 70
     0
 93
      108
310
000101421053521395925155D0F0
330
30D
 94
        0
  0
ACAD_PROXY_OBJECT
  5
334
330
30D
100
AcDbProxyObject
 90
      499
 91
      506
 95
       25
 70
     0
 93
      140
310
00010143505354D150D51253D390D3D41660
330
30D
 94
        0
  0
ACAD_PROXY_OBJECT
  5
335
330
30D
100
AcDbProxyObject
 90
      499
 91
      506
 95
       25
 70
     0
 93
      108
310
00010142105350D3141493D29030
330
30D
 94
        0
  0
ACAD_PROXY_OBJECT
  5
336
330
30D
100
AcDbProxyObject
 90
      499
 91
      518
 95
       25
 70
     0
 93
      212
310
00010143905350555513D2105510D21493D500000000000002E400
330
30D
 94
        0
  0
ACAD_PROXY_OBJECT
  5
337
330
30D
100
AcDbProxyObject
 90
      499
 91
      506
 95
       25
 70
     0
 93
      156
310
00010143905350555513D2105510D21111551010
330
30D
 94
        0
  0
ACAD_PROXY_OBJECT
  5
349
330
30D
100
AcDbProxyObject
 90
      499
 91
      529
 95
       25
 70
     0
 93
      698
310
0001000000009AA6A9AA4051E546875204175672032342030303A31323A343720323030362028555443290141CE4B8C8B8C0B8C80518576564205365702030312030393A35303A333320323031300141CE4B8C8B8C0B8C80
330
30D
330
34A
330
34B
330
34D
330
0
 94
        0
  0
ACAD_PROXY_OBJECT
  5
34A
330
30D
100
AcDbProxyObject
 90
      499
 91
      530
 95
       25
 70
     0
 93
       70
310
0001AAA80820000000
330
30D
330
34A
330
34A
 94
        0
  0
ACAD_PROXY_OBJECT
  5
34B
330
30D
100
AcDbProxyObject
 90
      499
 91
      531
 95
       25
 70
     0
 93
       48
310
000100000000
330
30D
330
0
330
34C
330
0
330
0
 94
        0
  0
ACAD_PROXY_OBJECT
  5
34C
330
30D
100
AcDbProxyObject
 90
      499
 91
      532
 95
       25
 70
     0
 93
       40
310
000100AAAA
330
30D
330
0
 94
        0
  0
ACAD_PROXY_OBJECT
  5
352
330
30D
100
AcDbProxyObject
 90
      499
 91
      536
 95
       25
 70
     0
 93
      180
310
00010143105050D3D35411119390535140504434F4D500
330
30D
 94
        0
  0
ACAD_PROXY_OBJECT
  5
353
330
30D
100
AcDbProxyObject
 90
      499
 91
      536
 95
       25
 70
     0
 93
      212
310
0001014390505193D311115491119390535140506466F6C6465720
330
30D
 94
        0
  0
ACAD_PROXY_OBJECT
  5
354
330
30D
100
AcDbProxyObject
 90
      499
 91
      536
 95
       25
 70
     0
 93
      180
310
00010143105050539393D1119390535140504284156290
330
30D
 94
        0
  0
ACAD_PROXY_OBJECT
  5
355
330
30D
100
AcDbProxyObject
 90
      499
 91
      536
 95
       25
 70
     0
 93
      436
310
00010143905050D3D35415925155D31254D50052295BD96CA0A90B396CA0A894591A496CA0A8DB691A496CA0A89BA96CA0A95E28F95310
330
30D
 94
        0
  0
ACAD_PROXY_OBJECT
  5
35A
330
30D
100
AcDbProxyObject
 90
      499
 91
      538
 95
       25
 70
     0
 93
       32
310
00010000
330
30D
340
357
330
35C
330
357
 94
        0
  0
ACAD_PROXY_OBJECT
  5
35B
330
30D
100
AcDbProxyObject
 90
      499
 91
      539
 95
       25
 70
     0
 93
       18
310
000180
330
30D
 94
        0
  0
ACAD_PROXY_OBJECT
  5
35C
330
30D
100
AcDbProxyObject
 90
      499
 91
      540
 95
       25
 70
     0
 93
      186
310
000101431494CC4D520B54D596130C4C5050055401550000
330
30D
330
35A
330
35B
 94
        0
  0
ACAD_PROXY_OBJECT
  5
35D
330
30D
100
AcDbProxyObject
 90
      499
 91
      541
 95
       25
 70
     0
 93
      178
310
000100AAAAAAABA3DF9AADDAB352E9E2BE641424C2DEC0
330
30D
330
35C
 94
        0
  0
ACAD_PROXY_OBJECT
  5
35E
330
30D
100
AcDbProxyObject
 90
      499
 91
      542
 95
       25
 70
     0
 93
      108
310
000190140A000000000000AAAAA0
330
30D
330
35F
330
35F
330
35F
330
35F
330
35F
330
0
 94
        0
  0
ACAD_PROXY_OBJECT
  5
35F
330
30D
100
AcDbProxyObject
 90
      499
 91
      543
 95
       25
 70
     0
 93
       51
310
00010000AAAA80
330
30D
330
35E
330
35C
 94
        0
  0
ACAD_PROXY_OBJECT
  5
36D
330
30D
100
AcDbProxyObject
 90
      499
 91
      536
 95
       25
 70
     0
 93
      148
310
00010142105350D55494D51100504414E53490
330
30D
 94
        0
  0
DICTIONARY
  5
344
102
{ACAD_REACTORS
330
343
102
}
330
343
100
AcDbDictionary
281
     1
  3
DWGSETTINGS
350
345
  3
Shaft
350
3F5
  3
TRANSSETTINGS
350
346
  0
ACAD_PROXY_OBJECT
  5
370
102
{ACAD_REACTORS
330
343
102
}
330
343
100
AcDbProxyObject
 90
      499
 91
      551
 95
       25
 70
     0
 93
    17920
310
41503491013041105357CC201C00030C011E441013141105357CC603800030C011E441013241105357CCA01400030C011E441013341105357CCE01800030C010F9013441105357CD200C00030C010F9013541105357CD600C00030C010F9013641105357CDA00800030C011E9013741105357CDE01000030C010F901384110
310
5357CE200400030C010F9013941105357CE63F400030C0241102324141505357CC4C201C00030C011E902344141505357CC4C600C00030C010F902495041505357CC4CA01C00030C011E40902304E41505357CC13A01C00030C011E902314E41505357CC53A03800030C011E902324E41505357CC93A01400030C011E90233
310
4E41505357CCD3A01800030C010F902344E41505357CD13A00C00030C010F902354E41505357CD53A00C00030C010F902364E41505357CD93A00800030C011E902374E41505357CDD3A01000030C010F902384E41505357CE13A00400030C010F902394E41505357CE53A3F400030C024110332414E41905357CC4C13A01C0
310
0030C011E90334414E41905357CC4C53A00C00030C010F90349504E41905357CC4C93A01C00030C011E409044B4C494E41505357D0D3200400030C010F42504494E464F42105357D410549151A01000030C010F42D055241484D3541905357D093D4A01C00030C011E425045649455742105357D5925155D4E00400030C010
310
F42D06424548494E4441905357D25395A3F400030C0243505545241494C41505357D514A00C00030C010F4250348494441905357D21251201C00030C010F4250356495341905357D59254E01C00030C011E4250650415244494D42505357D41054911253600C00030C010F4250652454644494D42505357D49151911253601
310
000030C010F425534110921395901398000000C0003FFFFFFFE415092139594D06424548494E448000000C0003FFFFFFFE411093D48C9055241484D358010000C30043E411093D48CD055241484D358020000C30047A411093D48D5055241484D358000000C0003FFFFFFFE4110D0530C901348000000C0003FFFFFFFE4110
310
D0530CD01348020000C30047A4110D0530D501348070000C30047A4110D0530DD013481E0000C3004F24110D15393901378000000C0003FFFFFFFE4110D15395D01378000000C0003FFFFFFFE4110D312539044B4C494E8000000C0003FFFFFFFE4110D3D38C501308000000C0003FFFFFFFD034110D3D38C901318000000C
310
0003FFFFFFFD034110D3D38CD01328000000C0003FFFFFFFD034110D3D38D101328000000C0003FFFFFFFD034111115510501348000000C0003FFFFFFFE4111125051D01358000000C0003FFFFFFFE4111125312501358000000C0003FFFFFFFE411112535410650415244494D8000000C0003FFFFFFFE4111125354906524
310
54644494D8000000C0003FFFFFFFE4111915353901388000000C0003FFFFFFFE415191535413901388030000C3003FFFFFFFE4151915354D410234418000000C0003FFFFFFFE4151915354D510234418030000C30043E415191535593901328000000C0003FFFFFFFE415191535595101328030000C30043E4112105510D01
310
388000000C0003FFFFFFFD014112125113901338000000C0003FFFFFFFD034112125115D01338000000C0003FFFFFFFD034112131253901348000000C0003FFFFFFFD01411213D0D3901378000000C0003FFFFFFFE411213D0D5D01378000000C0003FFFFFFFE4112539193D04494E464F8000000C0003FFFFFFFE41131150
310
51101358000000C0003FFFFFFFE419397D0921395902394E8000000C0003FFFFFFFE419397D0D3D38C502304E8000000C0003FFFFFFFD03419397D0D3D38C902314E8000000C0003FFFFFFFD03419397D0D3D38CD02324E8000000C0003FFFFFFFD03419397D0D3D38D102324E8000000C0003FFFFFFFD03419397D0D15393
310
902374E8000000C0003FFFFFFFE419397D0D15395D02374E8000000C0003FFFFFFFE419397D1125312502354E8000000C0003FFFFFFFE419397D2105510D02384E8000000C0003FFFFFFFD01419397D2125113902334E8000000C0003FFFFFFFD03419397D2125115D02334E8000000C0003FFFFFFFD03419397D311505110
310
2354E8000000C0003FFFFFFFE419397D391D25410349504E8000000C0003FFFFFFFE419397D412105390334414E8000000C0003FFFFFFFE419397D510D3D3902304E8000000C0003FFFFFFFD03419397D5121312502344E8000000C0003FFFFFFFD01419397D5131153902304E8000000C0003FFFFFFFD03419397D5941312
310
50332414E8000000C0003FFFFFFFE411391D25410249508000000C0003FFFFFFFE411410530C9055241484D358010000C30043E411410530CD055241484D358020000C30047A411410530D5055241484D358000000C0003FFFFFFFE411412105390234418000000C0003FFFFFFFE411413D4D3901358000000C0003FFFFFFF
310
E411490D1D3901378000000C0003FFFFFFFE411490D1D5D01378000000C0003FFFFFFFE4114D09492D01348070000C300479014114D150D5101348000000C0003FFFFFFFD014114D6508CD01358020000C30047A411354D653501358020000C30047A411510D3D3901308000000C0003FFFFFFFD0341151213125013480000
310
00C0003FFFFFFFD01411512550C9055241484D358010000C30043E411512550CD055241484D358020000C30047A411512550D5055241484D358000000C0003FFFFFFFE4115131153901308000000C0003FFFFFFFD03415514905253105545241494C8000000C0003FFFFFFFE4115149312501348000000C0003FFFFFFFD014
310
11516150C501368030000C30043E411516150C901368030000C30043E411516150CD01368000000C0003FFFFFFFE411516150D501368070000C30047A411516150DD013681E0000C3004F24115925155D04564945578000000C0003FFFFFFFE41159151121034849448000000C0003FFFFFFFD024115915115903564953800
310
0000C0003FFFFFFFD02411594131250232418000000C0003FFFFFFFE4116925690501348000000C0003FFFFFFFD01AAA3F400030C01013F90A4050F4091E40D0F4110F4151E4190F41D1E4391E4793C7F6
340
15
340
15
340
15
340
338
340
15
340
15
340
15
340
28
340
15
340
15
340
28
340
339
340
15
340
15
340
15
340
15
340
338
340
15
340
15
340
15
340
28
340
15
340
15
340
28
340
339
340
15
340
374
340
15
340
15
340
15
340
15
340
15
340
338
340
15
340
15
340
15
340
14
340
14
340
14
340
14
340
14
340
14
340
14
340
14
340
14
340
37A
340
14
340
14
340
14
340
14
340
14
340
14
340
14
340
14
340
14
340
14
340
14
340
14
340
14
340
15
340
14
340
14
340
14
340
14
340
37B
340
14
340
14
340
37A
340
14
340
14
340
14
340
14
340
14
340
14
340
14
340
14
340
37A
340
14
340
14
340
14
340
37B
340
14
340
14
340
14
340
14
340
14
340
37B
340
14
340
339
340
14
340
14
340
14
340
14
340
14
340
14
340
37A
340
14
340
14
340
14
340
14
340
14
340
14
340
37B
340
14
340
14
340
14
340
14
340
14
340
14
340
14
340
14
340
14
340
14
340
14
340
14
340
14
340
14
340
339
340
37C
 94
        0
  0
ACAD_PROXY_OBJECT
  5
3A8
102
{ACAD_REACTORS
330
3A3
102
}
330
3A3
100
AcDbProxyObject
 90
      499
 91
      568
 95
       25
 70
     0
 93
      253
310
43D1444494D454E53494F4E2C414D44545F2A5F44494D404A9012A404A9012A8
  0
ACAD_PROXY_OBJECT
  5
3A7
102
{ACAD_REACTORS
330
3A3
102
}
330
3A3
100
AcDbProxyObject
 90
      499
 91
      568
 95
       25
 70
     0
 93
      181
310
43D012A42D05357D191504B505357CA9012A404A9012A8
  0
ACAD_PROXY_OBJECT
  5
3A4
102
{ACAD_REACTORS
330
3A3
102
}
330
3A3
100
AcDbProxyObject
 90
      499
 91
      568
 95
       25
 70
     0
 93
      133
310
43D054841544348404A9012A404A9012A8
  0
ACAD_PROXY_OBJECT
  5
3A5
102
{ACAD_REACTORS
330
3A3
102
}
330
3A3
100
AcDbProxyObject
 90
      499
 91
      568
 95
       25
 70
     0
 93
      549
310
43D044C494E4549CE0B0E138B0A8B4E0B0A8B4E138B105357CE0B105357CE138B0A8B505357CE0B0A8B505357CE139012A404A910494E534552542C5354445041525432448
  0
ACAD_PROXY_OBJECT
  5
3A9
102
{ACAD_REACTORS
330
3A3
102
}
330
3A3
100
AcDbProxyObject
 90
      499
 91
      568
 95
       25
 70
     0
 93
      181
310
43D0341524341105357CD5012A404C906494E534552540
  0
ACAD_PROXY_OBJECT
  5
3A6
102
{ACAD_REACTORS
330
3A3
102
}
330
3A3
100
AcDbProxyObject
 90
      499
 91
      568
 95
       25
 70
     0
 93
     1053
310
43D7841434D46434652414D452C41434D444154554D5441524745542C41434D444154554D49442C41434D57454C4453594D2C41434D5355524653594D2C41434D4645415449442C41434D504152545245462C41434D42414C4C4F4F4E2C414D44544544474553594D2C414D47534352455743414C435441424C45404A9012A
310
404A9012A8
  0
ACAD_PROXY_OBJECT
  5
36F
102
{ACAD_REACTORS
330
36E
102
}
330
36E
100
AcDbProxyObject
 90
      499
 91
      550
 95
       25
 70
     0
 93
     2395
310
5DCB81E85EB51B8BE3F8030000C30041105394D2501640600800030C0200800030C00B81E85EB51B8BE3F48821E8720B1B6A9BAB9332A32BC3A29BA3220480A1282C6DA8C868CA6E8C88120286A0B1B6ABB2B63234B733A9BA3220480A1082C6DA92C8A6E8C88120285A0B1B6A230BA3AB6A9BA3220480A1282C6DA849E9AA
310
6E8C8812028820B6B23A2232BA30B4B629BCB6A9BA3220480A2282DAC8E8A6CAC6E8D2DEDCA6F2DAA6E8C88120288A0B6B23A21B2B73A32B92634B732A9BA3220480A2282DAC8E8A8D0E4CAC2C898D2DCCAA6E8C88120285A0B6B23A2737BA32A9BA3220480A1682C682DACE98C2F2A6E8C88120285A0B1A0B6B3A234B6A9B
310
A3220480A2282C682DACE90DED8CA86D0C2E4E8A6E8C88120286A0B1A0B6B3AA34BA3632A9BA3220480A02812020
340
37D
360
37E
360
37F
360
380
360
381
360
382
360
383
360
384
360
385
360
386
360
387
360
388
360
394
360
395
360
3A0
360
3A1
340
0
340
0
 94
        0
  0
ACAD_PROXY_OBJECT
  5
66D
102
{ACAD_REACTORS
330
36E
102
}
330
36E
100
AcDbProxyObject
 90
      499
 91
      573
 95
       25
 70
     0
 93
     2379
310
5DC33333333333309408000000C00040D29254D01640600800030C0200800030C003333333333330940C8121E8720B1B6A9BAB9332A32BC3A29BA3220480A1282C6DA8C868CA6E8C88120286A0B1B6ABB2B63234B733A9BA3220480A1082C6DA92C8A6E8C88120285A0B1B6A230BA3AB6A9BA3220480A1282C6DA849E9AA6E
310
8C88120286A0B1A0B6B3AA34BA3632A9BA3220480A2082DAC8E888CAE8C2D2D8A6F2DAA6E8C88120288A0B6B23A29B2B1BA34B7B729BCB6A9BA3220480A2282DAC8E886CADCE8CAE498D2DCCAA6E8C88120288A0B6B23A2A343932B0B22634B732A9BA3220480A1682DAC8E89CDEE8CAA6E8C88120285A0B1A0B6B3A630BCA
310
9BA3220480A1682C682DACE88D2DAA6E8C88120288A0B1A0B6B3A437B632A1B430B93A29BA3220480C812020
340
65C
360
66E
360
66F
360
670
360
671
360
672
360
673
360
674
360
675
360
676
360
677
360
678
360
679
360
67F
360
680
360
681
340
0
340
0
 94
        0
  0
ACAD_PROXY_OBJECT
  5
345
102
{ACAD_REACTORS
330
344
102
}
330
344
100
AcDbProxyObject
 90
      499
 91
      526
 95
       25
 70
     0
 93
     2420
310
4050B44574753455454494E4753A1286829C8E82A4A482B282A0472608321A2A720A723A0A849A1ABE1C983E18999AA0C868A9C889282940000000000001C07E83A1A2A72224A0A9A0A8598171ABE1897183E18971AA0E868A9C8892A6A8940000000000001807E8321A2A72622A7250000000000000701FA0C868A9C9E8C8
310
C940000000000001C07E84A1A624A720A92920ACA0A87181718991ABE1817191ABE18171AA108698929C8AA8B2A082A0AB098929C8A84A22BA3AAA9A1A0A622A50A0E9882A6A89E849482A02608426A0A5A2AB24A2ABA7E8120CA0A68682988A0C00800010652455649534941501304154D0D0531150540CC4E8C50954494D
310
455354414D504A0D7C08451722B734141D5915494D253D3905414C4D4B8C0C1107B44574753455454494E4753454E447D0
  0
ACAD_PROXY_OBJECT
  5
3F5
102
{ACAD_REACTORS
330
344
102
}
330
344
100
AcDbProxyObject
 90
      499
 91
      526
 95
       25
 70
     0
 93
      199
310
405055368616674220F688AE8EA68AA8A8929C8EA68A9C88FA
  0
ACAD_PROXY_OBJECT
  5
346
102
{ACAD_REACTORS
330
344
102
}
330
344
100
AcDbProxyObject
 90
      499
 91
      526
 95
       25
 70
     0
 93
      852
310
4050D5452414E5353455454494E4753A2488A482AE929C8EA8A4829CA69882A8929E9C0C00800050D4F524947494E414C4C595F4F4E0600400008529A7AAA921A2A620A723A0A81A52827212AAA0A48AA68AA4AC8A0C0080001107B44574753455454494E4753454E447D0
  0
ACAD_PROXY_OBJECT
  5
37E
330
36F
100
AcDbProxyObject
 90
      499
 91
      552
 95
       25
 70
     0
 93
       96
310
5DC20E80A0280A0280A02808
  0
ACAD_PROXY_OBJECT
  5
37F
330
36F
100
AcDbProxyObject
 90
      499
 91
      553
 95
       25
 70
     0
 93
      332
310
5DD0E4050140501405014050140501405014050142501405014050140501405012000000000000000400
340
389
 94
        0
  0
ACAD_PROXY_OBJECT
  5
380
330
36F
100
AcDbProxyObject
 90
      499
 91
      554
 95
       25
 70
     0
 93
      403
310
5DCC199999999999E99F91F4050140501405014050140501405014050140501405014050140501405014050140501405014040
340
0
 94
        0
  0
ACAD_PROXY_OBJECT
  5
381
330
36F
100
AcDbProxyObject
 90
      499
 91
      555
 95
       25
 70
     0
 93
       10
310
5DC0
  0
ACAD_PROXY_OBJECT
  5
382
330
36F
100
AcDbProxyObject
 90
      499
 91
      556
 95
       25
 70
     0
 93
      257
310
5DE290EA22A7D90F49F9353333333333727F44D4CCCCCCCCCDC9FC010000618000
340
38A
340
38B
 94
        0
  0
ACAD_PROXY_OBJECT
  5
383
330
36F
100
AcDbProxyObject
 90
      499
 91
      557
 95
       25
 70
     0
 93
    13023
310
5DD0E411255115350141236025B6901405014069011309A4F2590CB64FD3347454E545241434F2C4A504E2C302C8D8096DA2C47454E54524154582C25732C2847454E4D53472067656E647767203232322940690120281A8AA2CA0282484A4BE52028120280A03202261349E4B2196C9FA668E8A9CA8A482869E5894A09C58
310
605921292F94588E8A9CA8A482A8B0584AE658508E8A9C9AA68E40CECADCC8EECE406464665280D202405044E414D454050496BC914F4051C40640A8B95C2E97CBE502404CD1D15395149050D3CB1294138B0C0B25AF2453CB11D15395149055160B095CCB0A11D1539354D1C819D95B991DD9C80C8C8D8A50192C3D494628
310
4953424C414E4B28504152543A4E414D45292C424C4F434B3A4E414D452C504152543A4E414D452940480A0A888AA686A480A09251B1DBE80A3A80C81D10782C06030180C8099A3A2A72A2920A1A7962528271618164946C76F9623A2A72A2920AA2C1612B9961423A2A726A9A39033B2B7323BB39019189B94A0248090142
310
14D51053911054911014122D2E29A50147501904A383BFDFEFF5FBFCFD3347454E545241434F2C4A504E2C302C8B4B8A692C47454E54524154582C25732C2847454E4D53472067656E64776720323138294049012028426A0AA22A924A0A62028246EF4BDFA028EA0320B41396D838E9017D9FA668E8A9CA8A482869E5894A
310
09C5860591BBD2F7E588E8A9CA8A482A8B0584AE658508E8A9C9AA68E40CECADCC8EECE406464625280D202405044E4F544540504928D8B4C4051D40641A8B95C2E97CBE5F23F4CD1D15395149050D3CB1294138B0C0B24A362D30B11D15395149055160B095CCB0A11D1539354D1C819D95B991DD9C80C8C8D4A501A40480
310
A0CAC8A9C889EA480A1106F1072706BF02B680A3A80C83D172B85D2F97CBE47E9BA3A2A72A2920A1A79625282716181641BC41C9C1AFC0AD9623A2A72A2920AA2C1612B9961423A2A726A9A39033B2B7323BB39019191A14A0348090141911154D0D48C90141A43825AF880C90147501908A20F0580C0603019013447454E5
310
45241434F2C4A504E2C302C90E096BE20322C47454E54524154582C25732C2847454E4D53472067656E6477672033362940490120284A9AA20A72220A922192028345A5C53490192028EA0321347077FBFDFEBF7F9FA6A8E8A9CA8A482869E5894A09C586059169714D24064588E8A9CA8A482A8B0584AE658508E8A9C9AA6
310
8E40CECADCC8EECE4064646052809202405094D4154455249414C32405068DDE97BF20324051D40642A8272DB071D202FB3F4D11D15395149050D3CB1294138B0C0B2377A5EFC80C8B11D15395149055160B095CCB0A11D1539354D1C819D95B991DD9C80D0C0A501240480A089A82A6A680A091D7F2F9480A3A80A0485A06
310
81172B85D2F97CBE47E9923A2A72A2920A1A796252827161816475FCBE51623A2A72A2920AA2C1612B9961423A2A726A9A39033B2B7323BB3901A1914A024809014154149250D150141226FE29A501475014090C409022E570BA5F2F97C8FD3247454E545241434F2C4A504E2C302C89BF8A692C47454E54524154582C2573
310
2C2847454E4D53472067656E6477672034332940490120281A224A6A02824850CB202028EA028121A81A045CAE174BE5F2F91FA648E8A9CA8A482869E5894A09C58605921432C80588E8A9CA8A482A8B0584AE658508E8A9C9AA68E40CECADCC8EECE406868528092024050E441022E07A17AD46E338FE07800030C0001018
310
ACD56AB55AADF63F2B355AAD56AB7D8FD073D3C4954454D3E405018ACD56AB55AADF63F2B355AAD56AB7D8FD073D3C4954454D3E40501890C7E3F1783CEE3F2431F8FC5E0F3B8FD073D3C4954454D3E40501890C7E3F1783CEE3F2431F8FC5E0F3B8FD073D3C4954454D3E405029012B355AAD56AB7D8FCACD56AB55AADF63
310
F41CF4F125511534F901418F4F1455164F9014062B355AAD56AB7D8FCACD56AB55AADF63F41CF4F125511534F9014061309A4F2590CBA4FC4C2693C96432E93F41CF4F125511534F901901002B355AAD56AB7D8FCACD56AB55AADF63FA2000000000000008204018000618048220681A048120280C88214844882034852034
310
8452028521485214814000000000000F0BF0000000000003C2FD018020000C3008070000C3000EF7D3E365DBA88FC3BDF4F8D976EA23F2E07A17AD46E2F8FF20341A405024150741A4069703D0BD6A3717C7F0040001860100400018601002000186002026280A02
340
0
340
0
 94
        0
  0
ACAD_PROXY_OBJECT
  5
384
330
36F
100
AcDbProxyObject
 90
      499
 91
      558
 95
       25
 70
     0
 93
      994
310
5DC0B81E85EB51B8CE3F4BCF511155105253080F11115510525317D3105091530F971414D0D05311480F11115510525317D05094D4D0D053114F92341C9A9999999999B93F26A666666666724FC000000000000E03F4000000000000004000000000000005100000000000000244081E0000C3002E07A17AD46E338FC0
340
339
340
37D
 94
        0
  0
ACAD_PROXY_OBJECT
  5
385
330
36F
100
AcDbProxyObject
 90
      499
 91
      559
 95
       25
 70
     0
 93
      823
310
5DC031703D0BD6A3719C7E999EA9A2A1AA24A7A7101E29A2A1AA24A7A72FA620A122A62FA324A929AA1F169E29A2A1AA24A7A72FA620A122A62FA620A9AA1F1353333333333B27E3FFFE01C00030C008840F000061801353333333333B27F1703D0BD6A3719C7E
340
339
340
37D
 94
        0
  0
ACAD_PROXY_OBJECT
  5
386
330
36F
100
AcDbProxyObject
 90
      499
 91
      560
 95
       25
 70
     0
 93
      280
310
5DC2B8716D9CEF7C33F0A5723F0BD4A2F0FC295C8FC2F528BC3FA199999999999F99FC
  0
ACAD_PROXY_OBJECT
  5
387
330
36F
100
AcDbProxyObject
 90
      499
 91
      561
 95
       25
 70
     0
 93
       14
310
5DE4
340
0
 94
        0
  0
ACAD_PROXY_OBJECT
  5
388
330
36F
100
AcDbProxyObject
 90
      499
 91
      562
 95
       25
 70
     0
 93
     7123
310
5DD084050BA4050AA405024050E836583938376838C815B8367203140405013D3C696628657175616C28486F6C653A7461707065642C223022292C22252563222C486F6C653A6E6F6D696E616C2022202220696628657175616C28486F6C653A756E6974732C223122292C2278222C222D222920222022293E3C6966286571
310
75616C28486F6C653A7461707065642C223022292C486F6C653A6469612C486F6C653A706974636864657363293E207B5C46414D4744543B787D203C696628657175616C28486F6C653A7465726D696E6174696F6E2C223022292C486F6C653A64657074682C228AD192CA22293E5C507B5C46414D4744543B767D2525633C
310
486F6C653A63746469613E207B5C46414D4744543B787D203C486F6C653A637464657074683E406901405034050E836583938376838C815B83672031405FE3D3C696628657175616C28486F6C653A7461707065642C223022292C22252563222C486F6C653A6E6F6D696E616C2022202220696628657175616C28486F6C653
310
A756E6974732C223122292C2278222C222D222920222022293E3C696628657175616C28486F6C653A7461707065642C223022292C486F6C653A6469612C486F6C653A706974636864657363293E207B5C46414D4744543B787D203C696628657175616C28486F6C653A7465726D696E6174696F6E2C223022292C486F6C653
310
A64657074682C228AD192CA22293E5C507B5C46414D4744543B777D2525633C486F6C653A63746469613E2058203C486F6C653A6374616E676C653E252564406901405014050E836583938376838C815B83672031405CF3D3C696628657175616C28486F6C653A7461707065642C223022292C22252563222C486F6C653A6E
310
6F6D696E616C2022202220696628657175616C28486F6C653A756E6974732C223122292C2278222C222D222920222022293E3C696628657175616C28486F6C653A7461707065642C223022292C486F6C653A6469612C486F6C653A706974636864657363293E5C507B5C46414D4744543B787D203C696628657175616C2848
310
6F6C653A7465726D696E6174696F6E2C223022292C486F6C653A64657074682C228AD192CA22293E4069014051E4090E836583938376838C815B83672032405173D3C535444503A444553433E203C535444503A5354443E40690E836583938376838C815B836720314050C3D3C535444503A444553433E40690240515AAABB
310
A060
360
392
330
392
360
393
330
393
360
391
330
391
360
390
360
38F
330
390
330
38F
 94
        0
  0
ACAD_PROXY_OBJECT
  5
394
330
36F
100
AcDbProxyObject
 90
      499
 91
      564
 95
       25
 70
     0
 93
       26
310
5DD02A80
340
370
 94
        0
  0
ACAD_PROXY_OBJECT
  5
395
330
36F
100
AcDbProxyObject
 90
      499
 91
      565
 95
       25
 70
     0
 93
      258
310
5DD02000000000000380FC000000000000E03F408F0F9023C3E40DB18CCCFFFF80
340
396
340
414
340
46E
340
5DC
340
5CA
340
0
340
399
340
39A
340
39F
340
0
 94
        0
  0
ACAD_PROXY_OBJECT
  5
3A0
330
36F
100
AcDbProxyObject
 90
      499
 91
      566
 95
       25
 70
     0
 93
    13993
310
5DD1D023FFFFFFFD010300002E07A17AD46E2F8FE00800030C01010300002E07A17AD46E2F8FE00800030C00050C8DC0955782CC838A83588367014ED1D15395149050D3CB1294138B0C0B23702555E0B320E2A0D620D9CB11D15395149055160B095CCB0A11D1539354D1C819D95B991A5B5E880CCC0A78000C0000000000
310
00000000000000000000007B14AE47E17AA43F2E07A17AD46E2F8FE00800030C007B14AE47E17AA43F2E07A17AD46E2F8FE00800030C020143CF4F111959985D5B1D151A5D1B194F8050A8C8A8365815B8375838B014E51D15395149050D3CB1294138B0C0B2322A0D96056E0DD60E2CB11D15395149055160B095CCB0A11D
310
1539354D1C819D95B991A5B5E880CCC4A78000C000000000000000000000000000000007B14AE47E17AA43F2E07A17AD46E2F8FE00800030C007B14AE47E17AA43F2E07A17AD46E2F8FE00800030C020143CF4F111959985D5B1D151A5D1B194F90D4410F4450240D0441507431014391244D05449074510C4350F00014123
310
2D24D7C053247454E545241434F2C4A504E2C302C8CB4935F2C47454E54524154582C25732C2847454E4D53472067656E64696D7A20312900010104002214000282465A49AF80A648E8A9CA8A482869E5894A09C586059196926BE588E8A9CA8A482A8B0584AE658508E8A9C9AA68E40CECADCC8D2DAF44062520002020800
310
43E80005028C8A014C11D15395149050D3CB1294138B0C0B23228B11D15395149055160B095CCB0A11D1539354D1C819D95B991A5B5E880C8A4054E3D3C4946284953424C414E4B28486F6C654974656D292C4F726967696E2C20486F6C654974656D293E3C4946284953424C414E4B28486F6C654974656D292C22222C204
310
86F6C65496E646578293E010104002234000280AC00A5E8E8A9CA8A482869E5894A09C586058B0588E8A9CA8A482A8B0584AE658508E8A9C9AA68E40CECADCC8D2DAF4406652000202000040A800050159014BD1D15395149050D3CB1294138B0C0B164B11D15395149055160B095CCB0A11D1539354D1C819D95B991A5B5E
310
880D0A4000404000081D0000A02A40297A3A2A72A2920A1A796252827161816291623A2A72A2920AA2C1612B9961423A2A726A9A39033B2B73234B6BD101B148000808000104A000140A0F4C053047454E545241434F2C4A504E2C302C83D32C47454E54524154582C25732C2847454E4D53472067656E64696D7A20372900
310
0101030020B400028141E980A608E8A9CA8A482869E5894A09C58605907A6588E8A9CA8A482A8B0584AE658508E8A9C9AA68E40CECADCC8D2DAF4407052000202020041E800050490E096BE014CD1D15395149050D3CB1294138B0C0B243825AF8B11D15395149055160B095CCB0A11D1539354D1C819D95B991A5B5E880C8
310
C0A400040010008650000A091B012DB40299A3A2A72A2920A1A79625282716181646C04B6D1623A2A72A2920AA2C1612B9961423A2A726A9A39033B2B73234B6BD10189A148000808280501A00014320D0E0E4E0D9A0D8A0D3A0D60053B47454E545241434F2C4A504E2C302C8343839383668362834E83582C47454E54524
310
154582C25732C2847454E4D53472067656E64696D7A203135290001010500A1D4000281464500A628E8A9CA8A482869E5894A09C5860591914588E8A9CA8A482A8B0584AE658508E8A9C9AA68E40CECADCC8D2DAF440626C52000202080044A800050E8C8A8343839383668362834E8358014F51D15395149050D3CB129413
310
8B0C0B2322A0D0E0E4E0D9A0D8A0D3A0D60B11D15395149055160B095CCB0A11D1539354D1C819D95B991A5B5E880C4DCA4000404140089D0000A0921292F940299A3A2A72A2920A1A796252827161816484A4BE51623A2A72A2920AA2C1612B9961423A2A726A9A39033B2B73234B6BD10189C948000808300114A0001412
310
2D2E29A4053347454E545241434F2C4A504E2C302C8B4B8A692C47454E54524154582C25732C2847454E4D53472067656E64696D7A20323129000100040021B4878030026A6666666667A4FE064D4CCCCCCCCCF49FC049A9999999999E93F809353333333333D27F0226A6666666667A4FE044D4CCCCCCCCCF49FC0D818000
310
00000000000810026A666666666764FE004D4CCCCCCCCCF49FC009A9999999999E93F801353333333333D27F032E07A17AD46E378FE0633B333333333032050F006004D4CCCCCCCCCF49FC0C9A9999999999E93F819353333333333D27F0326A6666666667A4FE064D4CCCCCCCCCF49FC0C9A9999999999E93F81B03000000
310
00000000102004D4CCCCCCCCCEC9FC009A9999999999E93F819353333333333D27F0026A6666666667A4FE065C0F42F5A8DC6F1FC0C6766666666660640A088800000021E000000890000002260000008220E000200890000002060002008100008000
340
0
340
0
340
0
340
0
340
37D
340
37D
 94
        0
  0
ACAD_PROXY_OBJECT
  5
3A1
330
36F
100
AcDbProxyObject
 90
      499
 91
      567
 95
       25
 70
     0
 93
     5214
310
5DD9741105394D2506414E53495F4342905394D257D512551554D15414E53495F54525F5265766973696F6E6C697374614191143202831372E307832322E30696E63682941905394D257D0D1146202832382E307834302E30696E63682941905394D257D191142202831312E307831372E30696E63682941905394D257D091
310
144202832322E307833342E30696E63682941905394D257D111145202833342E307834342E30696E63682941905394D257D1510412028382E357831312E30696E63682941905394D257D050543905B9CDA482557247A25E4C81110D0C414E53495F5449544C45444343505B9CDA482557247A25E4C81050B414E53495F5449
310
544C454143905B9CDA482557247A25E4C81050D0C414E53495F5449544C454143425554C82557247A25E4D0A414E53495F544954555343505B9CDA482557247A25E4C81110B414E53495F5449544C454442110979A97F0838A8358836720415F42525F45505394D257D09497D4995D9A5CDA5BDB9B1A5CDD18510979A97F08
310
38A8358836720415F54525F45505394D257D51497D4995D9A5CDA5BDB9B1A5CDD18510979A97F0838A8358836720445F42525F45505394D257D09497D4995D9A5CDA5BDB9B1A5CDD19110979A97F0838A8358836720445F54525F45505394D257D51497D4995D9A5CDA5BDB9B1A5CDD19110979A97F0838A8358836720415F
310
424C5F45505394D257D09317D4995D9A5CDA5BDB9B1A5CDD18510979A97F0838A8358836720415F544C5F45505394D257D51317D4995D9A5CDA5BDB9B1A5CDD18510979A97F0838A8358836720445F424C5F45505394D257D09317D4995D9A5CDA5BDB9B1A5CDD19110979A97F0838A8358836720445F544C5F45505394D25
310
7D51317D4995D9A5CDA5BDB9B1A5CDD190
  0
ACAD_PROXY_OBJECT
  5
66E
330
66D
100
AcDbProxyObject
 90
      499
 91
      574
 95
       25
 70
     0
 93
       86
310
5DEA0C80A0280A0280A034
  0
ACAD_PROXY_OBJECT
  5
66F
330
66D
100
AcDbProxyObject
 90
      499
 91
      575
 95
       25
 70
     0
 93
      282
310
5DD0E4050140501405014050140501405014050141101405014041000000000000001000
340
65D
 94
        0
  0
ACAD_PROXY_OBJECT
  5
670
330
66D
100
AcDbProxyObject
 90
      499
 91
      576
 95
       25
 70
     0
 93
      323
310
5DCC199999999999E99F91740501405014050140501405014050140501405014050140501405014040
340
0
 94
        0
  0
ACAD_PROXY_OBJECT
  5
671
330
66D
100
AcDbProxyObject
 90
      499
 91
      577
 95
       25
 70
     0
 93
       10
310
5DC0
  0
ACAD_PROXY_OBJECT
  5
672
330
66D
100
AcDbProxyObject
 90
      499
 91
      578
 95
       25
 70
     0
 93
      257
310
5DE0C16A22A7D90F49F80000000000001081400000000000004204010000618000
340
658
340
659
 94
        0
  0
ACAD_PROXY_OBJECT
  5
673
330
66D
100
AcDbProxyObject
 90
      499
 91
      579
 95
       25
 70
     0
 93
     5277
310
5DD06411255115350141236025B6901405014069010000000000000910240690120281A8AA2CA0282484A4BE52028120280A032020000000000001220480D202405044E414D454050496BC914F4051C40640A80000000000004E4090193C3D3C4946284953424C414E4B28504152543A4E414D45292C424C4F434B3A4E414D
310
452C504152543A4E414D45293E3C41435F44455343524950544E3E40480A109A82A88AA492829880A091BBD2F7E80A3A80C81D0E27A15AF46E08A81203480901411393D5115014124A363B7D0147501904A0000000000000F902406428F4F1050D7D393D5114F901202832B22A72227A92028366EF6EE06F582028EA0320B4
310
0000000000001F20480C879E9E20A1AFAB27222FA620A122A61F20240506445020000000000000490201C00030C00010180000000000003E400000000000000F901073D3C4954454D3E4050180000000000003E400000000000000F901073D3C4954454D3E40501800000000000034400000000000000D101073D3C4954454
310
D3E40501800000000000034400000000000000D101073D3C4954454D3E405029010000000000000F9000000000000003E4041CF4F125511534F901418F4F1455164F9014060000000000000F9000000000000003E4041CF4F125511534F901800000000000034400000000000000D101073D3C4954454D3E40640400000000
310
0000003E400000000000000F90288800000000000020810000001800120881A068120480A032208521122080D21480D211480A1485214852050000000000003C2FC000000000000F0BF40600800030C0200400030C00CDCCCCCCCCCCEC3F3373333333333B0FC3333333333330940C80D069014090341504901A1999999999
310
9984A040100006180400800061804010000618008098A02808
340
0
340
0
 94
        0
  0
ACAD_PROXY_OBJECT
  5
674
330
66D
100
AcDbProxyObject
 90
      499
 91
      567
 95
       25
 70
     0
 93
     3042
310
5DD9740D29254D064A49535F413342929254D7D512551311505134A49535F42525F5265766973696F6E6C6973744190F4134522028323937783231306D6D2941D29254D7D04D1490E41312028353934783834316D6D2941929254D7D04C50E41332028323937783432306D6D2941929254D7D04CD0F41344C2028323130783
310
239376D6D2941D29254D7D04D1310E41322028343230783539346D6D2941929254D7D04C90F4130202838343178313138396D6D2941929254D7D04C10243129254C82557247A25E4C81050A4A49535F5449544C454143129254C82557247A25E4C81090A4A49535F5449544C45424110E979A97F0838A835883675F42525F4
310
4D29254D7D09497D4995D9A5CDA5BDB9B1A5CDD10E979A97F0838A835883675F54525F44D29254D7D51497D4995D9A5CDA5BDB9B1A5CDD10E979A97F0838A835883675F424C5F44D29254D7D09317D4995D9A5CDA5BDB9B1A5CDD10E979A97F0838A835883675F544C5F44D29254D7D51317D4995D9A5CDA5BDB9B1A5CDD00
  0
ACAD_PROXY_OBJECT
  5
675
330
66D
100
AcDbProxyObject
 90
      499
 91
      580
 95
       25
 70
     0
 93
      898
310
5DC4000000000000124048CF4F11115510525317D3105091530F880A0F11115510525317D05094D4D0D053114F8A50241C9A9999999999B93F26A666666666724FC000000000000E03F400000000000000400000000000000510000000000000024408070000C300000000000000049000
340
15
340
65C
 94
        0
  0
ACAD_PROXY_OBJECT
  5
676
330
66D
100
AcDbProxyObject
 90
      499
 91
      581
 95
       25
 70
     0
 93
      823
310
5DC0B00000000000002480959E9E29A2A1AA24A7A72FA620A122A62FA324A929AA1F169E29A2A1AA24A7A72FA620A122A62FA620A9AA1F000000000000048803FFFE01C00030C008140380006180000000000000048800000000000000A2000000000000002480
340
28
340
65C
 94
        0
  0
ACAD_PROXY_OBJECT
  5
677
330
66D
100
AcDbProxyObject
 90
      499
 91
      582
 95
       25
 70
     0
 93
      152
310
5DE8273108AC1C5A0640A3D0A5723F0BD1F200
  0
ACAD_PROXY_OBJECT
  5
678
330
66D
100
AcDbProxyObject
 90
      499
 91
      583
 95
       25
 70
     0
 93
       14
310
5DE0
340
0
 94
        0
  0
ACAD_PROXY_OBJECT
  5
679
330
66D
100
AcDbProxyObject
 90
      499
 91
      584
 95
       25
 70
     0
 93
     6059
310
5DD084050BA4050AA405024050E836583938376838C815B83672031405983D3C486F6C653A6469613E3C696628657175616C28486F6C653A7465726D696E6174696F6E2C223022292C2220905B82B320222C22208368838A838B22293E3C696628657175616C28486F6C653A7465726D696E6174696F6E2C223022292C486F
310
6C653A64657074682C2222293E2C203C486F6C653A63746469613E2082B482AE82E882CC905B82B3203C486F6C653A637464657074683E406901405034050E836583938376838C815B83672031405EF3D3C486F6C653A6374616E676C653E252564202525633C486F6C653A63746469613E208E4D8C8A2C203C69662865717
310
5616C28486F6C653A7461707065642C223022292C22252563222C486F6C653A6E6F6D696E616C202220782022293E3C696628657175616C28486F6C653A7461707065642C223022292C486F6C653A6469612C486F6C653A706974636864657363293E203C696628657175616C28486F6C653A7465726D696E6174696F6E2C2
310
23022292C22905B82B320222C222022293E3C696628657175616C28486F6C653A7465726D696E6174696F6E2C223022292C486F6C653A64657074682C2222293E406901405014050E836583938376838C815B83672031405C73D3C696628657175616C28486F6C653A7461707065642C223022292C22252563222C486F6C65
310
3A6E6F6D696E616C202220782022293E3C696628657175616C28486F6C653A7461707065642C223022292C486F6C653A6469612C486F6C653A706974636864657363293E203C696628657175616C28486F6C653A7465726D696E6174696F6E2C223022292C22905B82B320222C222022293E3C696628657175616C28486F6C
310
653A7465726D696E6174696F6E2C223022292C486F6C653A64657074682C2222293E4069014051E4090E836583938376838C815B83672032405173D3C535444503A444553433E203C535444503A5354443E40690E836583938376838C815B836720314050C3D3C535444503A444553433E40690240515AAABBA120
360
67A
330
67A
360
67B
330
67B
360
67C
330
67C
360
67D
360
67E
330
67D
330
67E
 94
        0
  0
ACAD_PROXY_OBJECT
  5
67F
330
66D
100
AcDbProxyObject
 90
      499
 91
      564
 95
       25
 70
     0
 93
       26
310
5DD02A80
340
0
 94
        0
  0
ACAD_PROXY_OBJECT
  5
680
330
66D
100
AcDbProxyObject
 90
      499
 91
      565
 95
       25
 70
     0
 93
      250
310
5DD020000000000000A1000000000000002440408F0F9023C3E409A0DCFFFF80
340
65E
340
665
340
666
340
65F
340
660
340
661
340
662
340
663
340
664
340
0
 94
        0
  0
ACAD_PROXY_OBJECT
  5
681
330
66D
100
AcDbProxyObject
 90
      499
 91
      585
 95
       25
 70
     0
 93
    13889
310
5DD1D003FFFFFFFD030300030CCCCCCCCCCCC250200800030C01030300030CCCCCCCCCCCC250200800030C00050C8DC0955782CC838A83588367014ED1D15395149050D3CB1294138B0C0B23702555E0B320E2A0D620D9CB11D15395149055160B095CCB0A11D1539354D1C819D95B991A5B5E880CCC0A78000C0000000000
310
00000000000000000000010CCCCCCCCCCCC250200800030C010CCCCCCCCCCCC250200800030C020143CF4F111959985D5B1D151A5D1B194F8050A8C8A8365815B8375838B014E51D15395149050D3CB1294138B0C0B2322A0D96056E0DD60E2CB11D15395149055160B095CCB0A11D1539354D1C819D95B991A5B5E880CCC4
310
A78000C000000000000000000000000000000010CCCCCCCCCCCC250200800030C010CCCCCCCCCCCC250200800030C020143CF4F111959985D5B1D151A5D1B194F90D44111409034110541D0C4350F4050E44D03449074510F000141232D24D7C053247454E545241434F2C4A504E2C302C8CB4935F2C47454E54524154582C
310
25732C2847454E4D53472067656E64696D7A20312900010104002214000281464500A608E8A9CA8A482869E5894A09C5860591914588E8A9CA8A482A8B0584AE658508E8A9C9AA68E40CECADCC8D2DAF4406452029E9E9E27B934B3B4B71F1E24A31427A91424A9A12620A7259427B934B3B4B7149624A9A12620A7259424B
310
A32B6949496111116111711149F1E24BA32B69F00808200111A000140560052F47454E545241434F2C4A504E2C302C582C47454E54524154582C25732C2847454E4D53472067656E64696D7A20332900010100002054000280AC80A5E8E8A9CA8A482869E5894A09C586058B2588E8A9CA8A482A8B0584AE658508E8A9C9AA
310
68E40CECADCC8D2DAF4406852000202000040E800050152014BD1D15395149050D3CB1294138B0C0B148B11D15395149055160B095CCB0A11D1539354D1C819D95B991A5B5E880D8A400040400008250000A0507A6029823A2A72A2920A1A79625282716181641E99623A2A72A2920AA2C1612B9961423A2A726A9A39033B2
310
B73234B6BD101B948000808180105A000140A0F4C053047454E545241434F2C4A504E2C302C83D32C47454E54524154582C25732C2847454E4D53472067656E64696D7A203829000101010020F400028248704B5F00A668E8A9CA8A482869E5894A09C58605921C12D7C588E8A9CA8A482A8B0584AE658508E8A9C9AA68E40
310
CECADCC8D2DAF440646052000200080043280005048B4B8A69014CD1D15395149050D3CB1294138B0C0B22D2E29A4B11D15395149055160B095CCB0A11D1539354D1C819D95B991A5B5E880C8C4A4000400100086D0000A09196926BE029923A2A72A2920A1A796252827161816465A49AF9623A2A72A2920AA2C1612B9961
310
423A2A726A9A39033B2B73234B6BD10189480A02620202080043E80005048D8096DA014CD1D15395149050D3CB1294138B0C0B236025B68B11D15395149055160B095CCB0A11D1539354D1C819D95B991A5B5E880C4D0A4000404140280D0000A190687072706CD06C5069D06B0029DA3A2A72A2920A1A7962528271618164
310
1A1C1C9C1B341B141A741AC1623A2A72A2920AA2C1612B9961423A2A726A9A39033B2B73234B6BD10189A94800080820050EA000143A322A0D0E0E4E0D9A0D8A0D3A0D60053D47454E545241434F2C4A504E2C302C8C8A8343839383668362834E83582C47454E54524154582C25732C2847454E4D53472067656E64696D7A
310
2031372900010105002274000281464500A628E8A9CA8A482869E5894A09C5860591914588E8A9CA8A482A8B0584AE658508E8A9C9AA68E40CECADCC8D2DAF440626C52000202080044A8000504909497CA014CD1D15395149050D3CB1294138B0C0B242525F28B11D15395149055160B095CCB0A11D1539354D1C819D95B9
310
91A5B5E880C4E4A400040418008A521E000000000000001CA040C00000000000034408080000000000006881010000000000000D102040000000000001A204080000000000003440818000000000000728103000000000000125020600000000004028A040000000000000034408000000000000004881000000000000000D
310
102000000000000001A204000000000000003440818000000000000508143C0000000000000039408180000000000006881030000000000000D102060000000000001A2040C00000000000034408180000000000006881030000000000000E5020600000000000024A040C0000000000805140800000000000000688100000
310
00000000009102000000000000001A2040000000000000034408180000000000006881030000000000000A10284220000000878000002020000008380000020400000081800000208000000828000002028900000000
340
0
340
0
340
0
340
0
340
65C
340
65C
 94
        0
  0
ACAD_PROXY_OBJECT
  5
392
330
388
100
AcDbProxyObject
 90
      499
 91
      563
 95
       25
 70
     0
 93
     2256
310
5DE0143A0D960E4E0DDA0E32056E0D9C80C40405013D3C696628657175616C28486F6C653A7461707065642C223022292C22252563222C486F6C653A6E6F6D696E616C2022202220696628657175616C28486F6C653A756E6974732C223122292C2278222C222D222920222022293E3C696628657175616C28486F6C653A74
310
61707065642C223022292C486F6C653A6469612C486F6C653A706974636864657363293E207B5C46414D4744543B787D203C696628657175616C28486F6C653A7465726D696E6174696F6E2C223022292C486F6C653A64657074682C228AD192CA22293E5C507B5C46414D4744543B767D2525633C486F6C653A6374646961
310
3E207B5C46414D4744543B787D203C486F6C653A637464657074683E
  0
ACAD_PROXY_OBJECT
  5
393
330
388
100
AcDbProxyObject
 90
      499
 91
      563
 95
       25
 70
     0
 93
     2192
310
5DE0143A0D960E4E0DDA0E32056E0D9C80C405FE3D3C696628657175616C28486F6C653A7461707065642C223022292C22252563222C486F6C653A6E6F6D696E616C2022202220696628657175616C28486F6C653A756E6974732C223122292C2278222C222D222920222022293E3C696628657175616C28486F6C653A7461
310
707065642C223022292C486F6C653A6469612C486F6C653A706974636864657363293E207B5C46414D4744543B787D203C696628657175616C28486F6C653A7465726D696E6174696F6E2C223022292C486F6C653A64657074682C228AD192CA22293E5C507B5C46414D4744543B777D2525633C486F6C653A63746469613E
310
2058203C486F6C653A6374616E676C653E252564
  0
ACAD_PROXY_OBJECT
  5
391
330
388
100
AcDbProxyObject
 90
      499
 91
      563
 95
       25
 70
     0
 93
     1816
310
5DE0143A0D960E4E0DDA0E32056E0D9C80C405CF3D3C696628657175616C28486F6C653A7461707065642C223022292C22252563222C486F6C653A6E6F6D696E616C2022202220696628657175616C28486F6C653A756E6974732C223122292C2278222C222D222920222022293E3C696628657175616C28486F6C653A7461
310
707065642C223022292C486F6C653A6469612C486F6C653A706974636864657363293E5C507B5C46414D4744543B787D203C696628657175616C28486F6C653A7465726D696E6174696F6E2C223022292C486F6C653A64657074682C228AD192CA22293E
  0
ACAD_PROXY_OBJECT
  5
390
330
388
100
AcDbProxyObject
 90
      499
 91
      563
 95
       25
 70
     0
 93
      344
310
5DE0143A0D960E4E0DDA0E32056E0D9C80C805173D3C535444503A444553433E203C535444503A5354443E
  0
ACAD_PROXY_OBJECT
  5
38F
330
388
100
AcDbProxyObject
 90
      499
 91
      563
 95
       25
 70
     0
 93
      256
310
5DE0143A0D960E4E0DDA0E32056E0D9C80C4050C3D3C535444503A444553433E
  0
ACAD_PROXY_OBJECT
  5
67A
330
679
100
AcDbProxyObject
 90
      499
 91
      563
 95
       25
 70
     0
 93
     1376
310
5DE0143A0D960E4E0DDA0E32056E0D9C80C405983D3C486F6C653A6469613E3C696628657175616C28486F6C653A7465726D696E6174696F6E2C223022292C2220905B82B320222C22208368838A838B22293E3C696628657175616C28486F6C653A7465726D696E6174696F6E2C223022292C486F6C653A64657074682C22
310
22293E2C203C486F6C653A63746469613E2082B482AE82E882CC905B82B3203C486F6C653A637464657074683E
  0
ACAD_PROXY_OBJECT
  5
67B
330
679
100
AcDbProxyObject
 90
      499
 91
      563
 95
       25
 70
     0
 93
     2072
310
5DE0143A0D960E4E0DDA0E32056E0D9C80C405EF3D3C486F6C653A6374616E676C653E252564202525633C486F6C653A63746469613E208E4D8C8A2C203C696628657175616C28486F6C653A7461707065642C223022292C22252563222C486F6C653A6E6F6D696E616C202220782022293E3C696628657175616C28486F6C
310
653A7461707065642C223022292C486F6C653A6469612C486F6C653A706974636864657363293E203C696628657175616C28486F6C653A7465726D696E6174696F6E2C223022292C22905B82B320222C222022293E3C696628657175616C28486F6C653A7465726D696E6174696F6E2C223022292C486F6C653A6465707468
310
2C2222293E
  0
ACAD_PROXY_OBJECT
  5
67C
330
679
100
AcDbProxyObject
 90
      499
 91
      563
 95
       25
 70
     0
 93
     1752
310
5DE0143A0D960E4E0DDA0E32056E0D9C80C405C73D3C696628657175616C28486F6C653A7461707065642C223022292C22252563222C486F6C653A6E6F6D696E616C202220782022293E3C696628657175616C28486F6C653A7461707065642C223022292C486F6C653A6469612C486F6C653A706974636864657363293E20
310
3C696628657175616C28486F6C653A7465726D696E6174696F6E2C223022292C22905B82B320222C222022293E3C696628657175616C28486F6C653A7465726D696E6174696F6E2C223022292C486F6C653A64657074682C2222293E
  0
ACAD_PROXY_OBJECT
  5
67D
330
679
100
AcDbProxyObject
 90
      499
 91
      563
 95
       25
 70
     0
 93
      344
310
5DE0143A0D960E4E0DDA0E32056E0D9C80C805173D3C535444503A444553433E203C535444503A5354443E
  0
ACAD_PROXY_OBJECT
  5
67E
330
679
100
AcDbProxyObject
 90
      499
 91
      563
 95
       25
 70
     0
 93
      256
310
5DE0143A0D960E4E0DDA0E32056E0D9C80C4050C3D3C535444503A444553433E
  0
ENDSEC
  0
EOF
