  0
SECTION
  2
HEADER
  9
$ACADVER
  1
AC1015
  9
$ACADMAINTVER
 70
     6
  9
$DWGCODEPAGE
  3
ANSI_932
  9
$INSBASE
 10
0.0
 20
0.0
 30
0.0
  9
$EXTMIN
 10
-62.38348770138384
 20
-58.04433757033333
 30
0.0
  9
$EXTMAX
 10
121.9901609458673
 20
80.45320987615841
 30
0.0
  9
$LIMMIN
 10
0.0
 20
0.0
  9
$LIMMAX
 10
400.0
 20
273.0
  9
$ORTHOMODE
 70
     0
  9
$REGENMODE
 70
     1
  9
$FILLMODE
 70
     1
  9
$QTEXTMODE
 70
     0
  9
$MIRRTEXT
 70
     1
  9
$LTSCALE
 40
1.0
  9
$ATTMODE
 70
     1
  9
$TEXTSIZE
 40
3.0
  9
$TRACEWID
 40
0.5
  9
$TEXTSTYLE
  7
STANDARD
  9
$CLAYER
  8
0
  9
$CELTYPE
  6
ByLayer
  9
$CECOLOR
 62
   256
  9
$CELTSCALE
 40
1.0
  9
$DISPSILH
 70
     0
  9
$DIMSCALE
 40
1.0
  9
$DIMASZ
 40
3.0
  9
$DIMEXO
 40
1.0
  9
$DIMDLI
 40
5.0
  9
$DIMRND
 40
0.0
  9
$DIMDLE
 40
3.0
  9
$DIMEXE
 40
2.0
  9
$DIMTP
 40
0.0
  9
$DIMTM
 40
0.0
  9
$DIMTXT
 40
5.0
  9
$DIMCEN
 40
2.0
  9
$DIMTSZ
 40
0.0
  9
$DIMTOL
 70
     0
  9
$DIMLIM
 70
     0
  9
$DIMTIH
 70
     0
  9
$DIMTOH
 70
     0
  9
$DIMSE1
 70
     0
  9
$DIMSE2
 70
     0
  9
$DIMTAD
 70
     1
  9
$DIMZIN
 70
     8
  9
$DIMBLK
  1

  9
$DIMASO
 70
     1
  9
$DIMSHO
 70
     0
  9
$DIMPOST
  1

  9
$DIMAPOST
  1

  9
$DIMALT
 70
     0
  9
$DIMALTD
 70
     4
  9
$DIMALTF
 40
25.4
  9
$DIMLFAC
 40
1.0
  9
$DIMTOFL
 70
     1
  9
$DIMTVP
 40
1.0
  9
$DIMTIX
 70
     0
  9
$DIMSOXD
 70
     0
  9
$DIMSAH
 70
     0
  9
$DIMBLK1
  1

  9
$DIMBLK2
  1

  9
$DIMSTYLE
  2
Standard
  9
$DIMCLRD
 70
     0
  9
$DIMCLRE
 70
     0
  9
$DIMCLRT
 70
     0
  9
$DIMTFAC
 40
1.0
  9
$DIMGAP
 40
0.09
  9
$DIMJUST
 70
     0
  9
$DIMSD1
 70
     0
  9
$DIMSD2
 70
     0
  9
$DIMTOLJ
 70
     1
  9
$DIMTZIN
 70
     0
  9
$DIMALTZ
 70
     0
  9
$DIMALTTZ
 70
     0
  9
$DIMUPT
 70
     0
  9
$DIMDEC
 70
     4
  9
$DIMTDEC
 70
     4
  9
$DIMALTU
 70
     2
  9
$DIMALTTD
 70
     2
  9
$DIMTXSTY
  7
STANDARD
  9
$DIMAUNIT
 70
     0
  9
$DIMADEC
 70
     0
  9
$DIMALTRND
 40
0.0
  9
$DIMAZIN
 70
     0
  9
$DIMDSEP
 70
    46
  9
$DIMATFIT
 70
     3
  9
$DIMFRAC
 70
     0
  9
$DIMLDRBLK
  1

  9
$DIMLUNIT
 70
     2
  9
$DIMLWD
 70
    -2
  9
$DIMLWE
 70
    -2
  9
$DIMTMOVE
 70
     0
  9
$LUNITS
 70
     2
  9
$LUPREC
 70
     4
  9
$SKETCHINC
 40
1.0
  9
$FILLETRAD
 40
0.0
  9
$AUNITS
 70
     0
  9
$AUPREC
 70
     0
  9
$MENU
  1
acad
  9
$ELEVATION
 40
0.0
  9
$PELEVATION
 40
0.0
  9
$THICKNESS
 40
0.0
  9
$LIMCHECK
 70
     0
  9
$CHAMFERA
 40
0.0
  9
$CHAMFERB
 40
0.0
  9
$CHAMFERC
 40
0.0
  9
$CHAMFERD
 40
0.0
  9
$SKPOLY
 70
     0
  9
$TDCREATE
 40
2453969.54056713
  9
$TDUCREATE
 40
2453969.16556713
  9
$TDUPDATE
 40
2455441.395407986
  9
$TDUUPDATE
 40
2455441.020407986
  9
$TDINDWG
 40
0.0236727894
  9
$TDUSRTIMER
 40
0.0236720718
  9
$USRTIMER
 70
     1
  9
$ANGBASE
 50
0.0
  9
$ANGDIR
 70
     0
  9
$PDMODE
 70
     0
  9
$PDSIZE
 40
0.0
  9
$PLINEWID
 40
0.0
  9
$SPLFRAME
 70
     0
  9
$SPLINETYPE
 70
     6
  9
$SPLINESEGS
 70
    16
  9
$HANDSEED
  5
A62
  9
$SURFTAB1
 70
     6
  9
$SURFTAB2
 70
     6
  9
$SURFTYPE
 70
     6
  9
$SURFU
 70
     6
  9
$SURFV
 70
     6
  9
$UCSBASE
  2

  9
$UCSNAME
  2

  9
$UCSORG
 10
0.0
 20
0.0
 30
0.0
  9
$UCSXDIR
 10
1.0
 20
0.0
 30
0.0
  9
$UCSYDIR
 10
0.0
 20
1.0
 30
0.0
  9
$UCSORTHOREF
  2

  9
$UCSORTHOVIEW
 70
     0
  9
$UCSORGTOP
 10
0.0
 20
0.0
 30
0.0
  9
$UCSORGBOTTOM
 10
0.0
 20
0.0
 30
0.0
  9
$UCSORGLEFT
 10
0.0
 20
0.0
 30
0.0
  9
$UCSORGRIGHT
 10
0.0
 20
0.0
 30
0.0
  9
$UCSORGFRONT
 10
0.0
 20
0.0
 30
0.0
  9
$UCSORGBACK
 10
0.0
 20
0.0
 30
0.0
  9
$PUCSBASE
  2

  9
$PUCSNAME
  2

  9
$PUCSORG
 10
0.0
 20
0.0
 30
0.0
  9
$PUCSXDIR
 10
1.0
 20
0.0
 30
0.0
  9
$PUCSYDIR
 10
0.0
 20
1.0
 30
0.0
  9
$PUCSORTHOREF
  2

  9
$PUCSORTHOVIEW
 70
     0
  9
$PUCSORGTOP
 10
0.0
 20
0.0
 30
0.0
  9
$PUCSORGBOTTOM
 10
0.0
 20
0.0
 30
0.0
  9
$PUCSORGLEFT
 10
0.0
 20
0.0
 30
0.0
  9
$PUCSORGRIGHT
 10
0.0
 20
0.0
 30
0.0
  9
$PUCSORGFRONT
 10
0.0
 20
0.0
 30
0.0
  9
$PUCSORGBACK
 10
0.0
 20
0.0
 30
0.0
  9
$USERI1
 70
     0
  9
$USERI2
 70
     0
  9
$USERI3
 70
     0
  9
$USERI4
 70
     0
  9
$USERI5
 70
     0
  9
$USERR1
 40
0.0
  9
$USERR2
 40
0.0
  9
$USERR3
 40
0.0
  9
$USERR4
 40
0.0
  9
$USERR5
 40
0.0
  9
$WORLDVIEW
 70
     1
  9
$SHADEDGE
 70
     3
  9
$SHADEDIF
 70
    70
  9
$TILEMODE
 70
     1
  9
$MAXACTVP
 70
    64
  9
$PINSBASE
 10
0.0
 20
0.0
 30
0.0
  9
$PLIMCHECK
 70
     0
  9
$PEXTMIN
 10
1.000000000000000E+20
 20
1.000000000000000E+20
 30
1.000000000000000E+20
  9
$PEXTMAX
 10
-1.000000000000000E+20
 20
-1.000000000000000E+20
 30
-1.000000000000000E+20
  9
$PLIMMIN
 10
0.0
 20
0.0
  9
$PLIMMAX
 10
12.0
 20
9.0
  9
$UNITMODE
 70
     0
  9
$VISRETAIN
 70
     1
  9
$PLINEGEN
 70
     0
  9
$PSLTSCALE
 70
     1
  9
$TREEDEPTH
 70
  3020
  9
$CMLSTYLE
  2
Standard
  9
$CMLJUST
 70
     0
  9
$CMLSCALE
 40
1.0
  9
$PROXYGRAPHICS
 70
     1
  9
$MEASUREMENT
 70
     0
  9
$CELWEIGHT
370
    -1
  9
$ENDCAPS
280
     0
  9
$JOINSTYLE
280
     0
  9
$LWDISPLAY
290
     0
  9
$INSUNITS
 70
     0
  9
$HYPERLINKBASE
  1

  9
$STYLESHEET
  1
sei_cad.ctb
  9
$XEDIT
290
     1
  9
$CEPSNTYPE
380
     0
  9
$PSTYLEMODE
290
     1
  9
$FINGERPRINTGUID
  2
{9E37A949-1A4A-4A70-A830-DA95EAF70F35}
  9
$VERSIONGUID
  2
{141AC5CF-AACC-4FD1-926B-DD2CCD071391}
  9
$EXTNAMES
290
     1
  9
$PSVPSCALE
 40
0.0
  9
$OLESTARTUP
290
     0
  0
ENDSEC
  0
SECTION
  2
CLASSES
  0
CLASS
  1
ACDBDICTIONARYWDFLT
  2
AcDbDictionaryWithDefault
  3
ObjectDBX Classes
 90
        0
280
     0
281
     0
  0
CLASS
  1
TABLESTYLE
  2
AcDbTableStyle
  3
ObjectDBX Classes
 90
     2047
280
     0
281
     0
  0
CLASS
  1
ACME_DOCUMENT
  2
AcMeDbDoc
  3
AcMeServices
 90
        0
280
     1
281
     0
  0
CLASS
  1
ACMESCOPE
  2
AcMeScope
  3
AcMeServices
 90
        0
280
     1
281
     0
  0
CLASS
  1
ACMECOMMANDHISTORY
  2
AcMeCommandHistory
  3
AcMeServices
 90
        0
280
     1
281
     0
  0
CLASS
  1
ACIMSYSVARMAN
  2
AcImSysVarManager
  3
AcMeServices
 90
        0
280
     1
281
     0
  0
CLASS
  1
ACIMINTSYSVAR
  2
AcImIntSysVar
  3
AcMeServices
 90
        0
280
     1
281
     0
  0
CLASS
  1
ACMEDRAWINGMAN
  2
AcMeDrawingMan
  3
AcMeServices
 90
        0
280
     1
281
     0
  0
CLASS
  1
ACMEVIEW
  2
AcMeView
  3
AcMeServices
 90
        0
280
     1
281
     0
  0
CLASS
  1
ACDBENTITYCACHE
  2
AcMeEntityCache
  3
AcMeServices
 90
        0
280
     1
281
     0
  0
CLASS
  1
GSMANAGER
  2
AcMeGSManager
  3
AcMeServices
 90
        0
280
     1
281
     0
  0
CLASS
  1
AMDTINTERNALREACTOR
  2
AmdtInternalReactor
  3
AcMeServices
 90
        0
280
     1
281
     0
  0
CLASS
  1
ACMESTATEMGR
  2
AcMeStateMgr
  3
AcMeServices
 90
        0
280
     1
281
     0
  0
CLASS
  1
ACGREFMASTER
  2
AcGrefMaster
  3
AcAttribServices
 90
        0
280
     1
281
     0
  0
CLASS
  1
AM_DRAWING_MGR
  2
AcDmDwgMgr
  3
AcMechDwgViewMgmt
 90
        0
280
     1
281
     0
  0
CLASS
  1
AM_DWG_DOCUMENT
  2
AcDmDwgDocument
  3
AcMechDwgViewMgmt
 90
        0
280
     1
281
     0
  0
CLASS
  1
AM_DWG_SHEET
  2
AcDmSheet
  3
AcMechDwgViewMgmt
 90
        0
280
     1
281
     0
  0
CLASS
  1
AM_VIEWDIMPARMAP
  2
AcDmViewDimParMap
  3
AcMechDwgViewMgmt
 90
        0
280
     1
281
     0
  0
CLASS
  1
ACIMREALSYSVAR
  2
AcImRealSysVar
  3
AcMeServices
 90
        0
280
     1
281
     0
  0
CLASS
  1
AM_DWGMGR_NAME
  2
AcDmDwgMgrName
  3
AcMechDwgViewMgmt
 90
        0
280
     1
281
     0
  0
CLASS
  1
ACME_DATABASE
  2
AcMeDbDatabase
  3
AcMeServices
 90
        0
280
     1
281
     0
  0
CLASS
  1
ACRFINSADJUSTERMGR
  2
AcRfInsAdjusterMgr
  3
AcMeServices
 90
        0
280
     1
281
     0
  0
CLASS
  1
ACGREFACADMASTER
  2
AcGrefacadMaster
  3
AcGrefServices
 90
        0
280
     1
281
     0
  0
CLASS
  1
AMDTMENUSTATEMGR
  2
AmdtMenuStateMgr
  3
McadcomServices
 90
        0
280
     1
281
     0
  0
CLASS
  1
AMDTMCOMMENUSTATE
  2
AmdtMcomMenuState
  3
McadcomServices
 90
        0
280
     1
281
     0
  0
CLASS
  1
AMIMASTER
  2
AmiMaster
  3
AmiServices
 90
        0
280
     1
281
     0
  0
CLASS
  1
AMGSETTINGSOBJ
  2
AmgSettingsObj
  3
"AcadM|Product Description: AutoCAD Mechanical 2000|Company: Autodesk"
 90
        0
280
     1
281
     0
  0
CLASS
  1
MAPIAMMOUDLE
  2
MApiAmModule
  3
MApiAmServices
 90
        0
280
     1
281
     0
  0
CLASS
  1
AMDTADMENUSTATE
  2
AmdtAdMenuState
  3
DesignerServices
 90
        0
280
     1
281
     0
  0
CLASS
  1
ADAPPL
  2
AcAdAppl
  3
DesignerServices
 90
        0
280
     1
281
     0
  0
CLASS
  1
DEPMGR
  2
AcAdDepMgr
  3
DesignerServices
 90
        0
280
     1
281
     0
  0
CLASS
  1
PARAMMGR
  2
AcAdParamMgr
  3
DesignerServices
 90
        0
280
     1
281
     0
  0
CLASS
  1
PARAMSCOPE
  2
AcAdParamScope
  3
DesignerServices
 90
        0
280
     1
281
     0
  0
CLASS
  1
NAMEDAPPL
  2
AcAdNamedAppl
  3
DesignerServices
 90
        0
280
     1
281
     0
  0
CLASS
  1
AMDTDMMENUSTATE
  2
AmdtDmMenuState
  3
AcMechDwgViewMgmt
 90
        0
280
     1
281
     0
  0
CLASS
  1
AMDTAMMENUSTATE
  2
AmdtAmMenuState
  3
DesignerAssemblies
 90
        0
280
     1
281
     0
  0
CLASS
  1
ACIMSTRSYSVAR
  2
AcImStrSysVar
  3
AcMeServices
 90
        0
280
     1
281
     0
  0
CLASS
  1
ACAMPROJECT
  2
AcAmProject
  3
DesignerAssemblies
 90
        0
280
     1
281
     0
  0
CLASS
  1
ACAMGRCOMPDEF
  2
AcAmGrCompDef
  3
DesignerAssemblies
 90
        0
280
     1
281
     0
  0
CLASS
  1
ACCMCONTEXT
  2
AcCmContext
  3
DesignerAssemblies
 90
        0
280
     1
281
     0
  0
CLASS
  1
ACAMCOMPDEF
  2
AcAmCompDef
  3
DesignerAssemblies
 90
        0
280
     1
281
     0
  0
CLASS
  1
ACAMCOMPDEFMGR
  2
AcAmCompDefMgr
  3
DesignerAssemblies
 90
        0
280
     1
281
     0
  0
CLASS
  1
AMCONTEXTMGR
  2
AcAmContextMgr
  3
DesignerAssemblies
 90
        0
280
     1
281
     0
  0
CLASS
  1
ACAMCONTEXTMODELER
  2
AcAmContextModeler
  3
DesignerAssemblies
 90
        0
280
     1
281
     0
  0
CLASS
  1
ACMDATADICTIONARY
  2
AcmDataDictionary
  3
"AcmSymBB|Product Description: AutoCAD Mechanical 2004 DX|Company: Autodesk"
 90
        0
280
     1
281
     0
  0
CLASS
  1
CATALOGSTATE
  2
AcAmCatalogState
  3
DesignerAssemblies
 90
        0
280
     1
281
     0
  0
CLASS
  1
ACAMGRCOMPDEFSET
  2
AcAmGrCompDefSet
  3
DesignerAssemblies
 90
        0
280
     1
281
     0
  0
CLASS
  1
AMDTBROWSERDBTAB
  2
AmdtBrowserDbTab
  3
McadcomServices
 90
        0
280
     1
281
     0
  0
CLASS
  1
CBROWSERAPPOBJECT
  2
CBrowserAppObject
  3
McadcomServices
 90
        0
280
     1
281
     0
  0
CLASS
  1
DM_PLACEHOLDER
  2
AcDmSelsetPlaceholder
  3
AcMechDwgViewMgmt
 90
        0
280
     1
281
     0
  0
CLASS
  1
ACMSTANDARDANSI
  2
AcmStandardANSI
  3
"Amdt_StdImp|Product Description: AutoCAD Mechanical 2004 DX|Company: Autodesk"
 90
        0
280
     1
281
     0
  0
CLASS
  1
AMGOBJPROPCFG
  2
AmgObjPropCfg
  3
"AmgLay|Product Description: AutoCAD Mechanical 2000|Company: Autodesk"
 90
        1
280
     1
281
     0
  0
CLASS
  1
ACMSURFSTANDARDANSI
  2
AcmSurfTextStdANSI
  3
"Amdt_StdImp|Product Description: AutoCAD Mechanical 2004 DX|Company: Autodesk"
 90
        0
280
     1
281
     0
  0
CLASS
  1
ACMFCFSTANDARDANSI
  2
AcmFCFStdANSI
  3
"Amdt_StdImp|Product Description: AutoCAD Mechanical 2004 DX|Company: Autodesk"
 90
        0
280
     1
281
     0
  0
CLASS
  1
ACMWELDSTANDARDANSI
  2
AcmWeldingStdANSI
  3
"Amdt_StdImp|Product Description: AutoCAD Mechanical 2004 DX|Company: Autodesk"
 90
        0
280
     1
281
     0
  0
CLASS
  1
ACMIDSTANDARDANSI
  2
AcmIdStdANSI
  3
"Amdt_StdImp|Product Description: AutoCAD Mechanical 2004 DX|Company: Autodesk"
 90
        0
280
     1
281
     0
  0
CLASS
  1
ACMDATUMSTANDARDANSI
  2
AcmDatumStdANSI
  3
"Amdt_StdImp|Product Description: AutoCAD Mechanical 2004 DX|Company: Autodesk"
 90
        0
280
     1
281
     0
  0
CLASS
  1
ACMBOMSTANDARDANSI
  2
AcmBOMStdANSI
  3
"Amdt_StdImp|Product Description: AutoCAD Mechanical 2004 DX|Company: Autodesk"
 90
        0
280
     1
281
     0
  0
CLASS
  1
ACMDETAILSTANDARDANSI
  2
AmdtDetailSymStdANSI
  3
"Amdt_StdImp|Product Description: AutoCAD Mechanical 2004 DX|Company: Autodesk"
 90
        0
280
     1
281
     0
  0
CLASS
  1
ACMSECTIONSTANDARDANSI
  2
AmdtSectionSymStdANSI
  3
"Amdt_StdImp|Product Description: AutoCAD Mechanical 2004 DX|Company: Autodesk"
 90
        0
280
     1
281
     0
  0
CLASS
  1
ACMCENTERLINESTANDARDANSI
  2
AmdtCenterLineStdANSI
  3
"Amdt_StdImp|Product Description: AutoCAD Mechanical 2004 DX|Company: Autodesk"
 90
        0
280
     1
281
     0
  0
CLASS
  1
ACMTHREADLINESTANDARDANSI
  2
AmdtThreadLineStdANSI
  3
"Amdt_StdImp|Product Description: AutoCAD Mechanical 2004 DX|Company: Autodesk"
 90
        0
280
     1
281
     0
  0
CLASS
  1
ACMNOTESTANDARDANSI
  2
AmdtNoteStdANSI
  3
"Amdt_StdImp|Product Description: AutoCAD Mechanical 2004 DX|Company: Autodesk"
 90
        0
280
     1
281
     0
  0
CLASS
  1
AMDTNOTETEMPLATEDB
  2
AmdtNoteTemplateDB
  3
AMDT_STDIMP_MODULE_NAME
 90
        0
280
     1
281
     0
  0
CLASS
  1
ACAMGLAYSTD
  2
AcAmgLayStd
  3
"AcAmgLayStd|Product Description: AutoCAD Mechanical 2000|Company: Autodesk"
 90
        0
280
     1
281
     0
  0
CLASS
  1
ACAMGDIMSTD
  2
AcAmgDimStd
  3
"AcAmgDimStd|Product Description: AutoCAD Mechanical 2000|Company: Autodesk"
 90
        0
280
     1
281
     0
  0
CLASS
  1
ACAMGHOLECHARTSTDANSI
  2
AcAmgHoleChartStdANSI
  3
ACMSYMBB_MODULE_NAME
 90
        0
280
     1
281
     0
  0
CLASS
  1
ACAMGTITLESTD
  2
AcAmgTitleStd
  3
"TITLEAPP"
 90
        0
280
     1
281
     0
  0
CLASS
  1
ACAMGFILTERDAT
  2
AcAmgFilterDat
  3
"AcadM|Product Description: AutoCAD Mechanical 2000|Company: Autodesk"
 90
        0
280
     1
281
     0
  0
CLASS
  1
DICTIONARYVAR
  2
AcDbDictionaryVar
  3
ObjectDBX Classes
 90
        0
280
     0
281
     0
  0
CLASS
  1
AMDTNOTE
  2
AmdtNote
  3
"AcmSymBB|Product Description: AutoCAD Mechanical 2004 DX|Company: Autodesk"
 90
     1023
280
     1
281
     1
  0
CLASS
  1
ACMSTANDARDJIS
  2
AcmStandardJIS
  3
"Amdt_StdImp|Product Description: AutoCAD Mechanical 2004 DX|Company: Autodesk"
 90
        0
280
     1
281
     0
  0
CLASS
  1
ACMSURFSTANDARDJIS
  2
AcmSurfTextStdJIS
  3
"Amdt_StdImp|Product Description: AutoCAD Mechanical 2004 DX|Company: Autodesk"
 90
        0
280
     1
281
     0
  0
CLASS
  1
ACMFCFSTANDARDJIS98
  2
AcmFCFStdJIS98
  3
"Amdt_StdImp|Product Description: AutoCAD Mechanical 2004 DX|Company: Autodesk"
 90
        0
280
     1
281
     0
  0
CLASS
  1
ACMWELDSTANDARDJIS
  2
AcmWeldingStdJIS
  3
"Amdt_StdImp|Product Description: AutoCAD Mechanical 2004 DX|Company: Autodesk"
 90
        0
280
     1
281
     0
  0
CLASS
  1
ACMIDSTANDARDJIS
  2
AcmIdStdJIS
  3
"Amdt_StdImp|Product Description: AutoCAD Mechanical 2004 DX|Company: Autodesk"
 90
        0
280
     1
281
     0
  0
CLASS
  1
ACMDATUMSTANDARDJIS
  2
AcmDatumStdJIS
  3
"Amdt_StdImp|Product Description: AutoCAD Mechanical 2004 DX|Company: Autodesk"
 90
        0
280
     1
281
     0
  0
CLASS
  1
ACMBOMSTANDARDJIS
  2
AcmBOMStdJIS
  3
"Amdt_StdImp|Product Description: AutoCAD Mechanical 2004 DX|Company: Autodesk"
 90
        0
280
     1
281
     0
  0
CLASS
  1
ACMDETAILSTANDARDJIS
  2
AmdtDetailSymStdJIS
  3
"Amdt_StdImp|Product Description: AutoCAD Mechanical 2004 DX|Company: Autodesk"
 90
        0
280
     1
281
     0
  0
CLASS
  1
ACMSECTIONSTANDARDJIS
  2
AmdtSectionSymStdJIS
  3
"Amdt_StdImp|Product Description: AutoCAD Mechanical 2004 DX|Company: Autodesk"
 90
        0
280
     1
281
     0
  0
CLASS
  1
ACMCENTERLINESTANDARDJIS
  2
AmdtCenterLineStdJIS
  3
"Amdt_StdImp|Product Description: AutoCAD Mechanical 2004 DX|Company: Autodesk"
 90
        0
280
     1
281
     0
  0
CLASS
  1
ACMTHREADLINESTANDARDJIS
  2
AmdtThreadLineStdJIS
  3
"Amdt_StdImp|Product Description: AutoCAD Mechanical 2004 DX|Company: Autodesk"
 90
        0
280
     1
281
     0
  0
CLASS
  1
ACMNOTESTANDARDJIS
  2
AmdtNoteStdJIS
  3
"Amdt_StdImp|Product Description: AutoCAD Mechanical 2004 DX|Company: Autodesk"
 90
        0
280
     1
281
     0
  0
CLASS
  1
ACAMGHOLECHARTSTDJIS
  2
AcAmgHoleChartStdJIS
  3
ACMSYMBB_MODULE_NAME
 90
        0
280
     1
281
     0
  0
CLASS
  1
ACMDATAENTRYBLOCK
  2
AcmDataEntryBlock
  3
"AcmSymBB|Product Description: AutoCAD Mechanical 2004 DX|Company: Autodesk"
 90
        0
280
     1
281
     0
  0
CLASS
  1
ACDBPLACEHOLDER
  2
AcDbPlaceHolder
  3
ObjectDBX Classes
 90
        0
280
     0
281
     0
  0
CLASS
  1
LAYOUT
  2
AcDbLayout
  3
ObjectDBX Classes
 90
        0
280
     0
281
     0
  0
ENDSEC
  0
SECTION
  2
TABLES
  0
TABLE
  2
VPORT
  5
8
330
0
100
AcDbSymbolTable
 70
     3
  0
VPORT
  5
A5C
330
8
100
AcDbSymbolTableRecord
100
AcDbViewportTableRecord
  2
*Active
 70
     0
 10
0.0
 20
0.0
 11
1.0
 21
1.0
 12
-27.43070010133108
 22
24.74898265755843
 13
0.0
 23
0.0
 14
0.5
 24
0.5
 15
0.0
 25
0.0
 16
0.0
 26
0.0
 36
1.0
 17
0.0
 27
0.0
 37
0.0
 40
139.6021209902021
 41
1.372924648786718
 42
50.0
 43
0.0
 44
0.0
 50
0.0
 51
0.0
 71
     0
 72
 10000
 73
     1
 74
     1
 75
     0
 76
     0
 77
     0
 78
     0
281
     0
 65
     0
110
0.0
120
0.0
130
0.0
111
1.0
121
0.0
131
0.0
112
0.0
122
1.0
132
0.0
 79
     0
146
0.0
  0
ENDTAB
  0
TABLE
  2
LTYPE
  5
5
330
0
100
AcDbSymbolTable
 70
    15
  0
LTYPE
  5
13
330
5
100
AcDbSymbolTableRecord
100
AcDbLinetypeTableRecord
  2
ByBlock
 70
     0
  3

 72
    65
 73
     0
 40
0.0
  0
LTYPE
  5
14
330
5
100
AcDbSymbolTableRecord
100
AcDbLinetypeTableRecord
  2
ByLayer
 70
     0
  3

 72
    65
 73
     0
 40
0.0
  0
LTYPE
  5
15
330
5
100
AcDbSymbolTableRecord
100
AcDbLinetypeTableRecord
  2
CONTINUOUS
 70
     0
  3
solid line
 72
    65
 73
     0
 40
0.0
  0
LTYPE
  5
27
330
5
100
AcDbSymbolTableRecord
100
AcDbLinetypeTableRecord
  2
CENTER
 70
     0
  3
--- - --- - --- - --- - --- - 
 72
    65
 73
     4
 40
6.0
 49
3.0
 74
     0
 49
-1.0
 74
     0
 49
1.0
 74
     0
 49
-1.0
 74
     0
  0
LTYPE
  5
28
330
5
100
AcDbSymbolTableRecord
100
AcDbLinetypeTableRecord
  2
PHANTOM
 70
     0
  3
----- - - ----- - - ----- - - 
 72
    65
 73
     6
 40
8.0
 49
3.0
 74
     0
 49
-1.0
 74
     0
 49
1.0
 74
     0
 49
-1.0
 74
     0
 49
1.0
 74
     0
 49
-1.0
 74
     0
  0
LTYPE
  5
385
330
5
100
AcDbSymbolTableRecord
100
AcDbLinetypeTableRecord
  2
HIDDEN
 70
     0
  3
Hidden __ __ __ __ __ __ __ __ __ __ __ __ __ _
 72
    65
 73
     2
 40
0.375
 49
0.25
 74
     0
 49
-0.125
 74
     0
  0
LTYPE
  5
386
330
5
100
AcDbSymbolTableRecord
100
AcDbLinetypeTableRecord
  2
PHANTOM2
 70
     0
  3
Phantom (.5x) ___ _ _ ___ _ _ ___ _ _ ___ _ _
 72
    65
 73
     6
 40
1.25
 49
0.625
 74
     0
 49
-0.125
 74
     0
 49
0.125
 74
     0
 49
-0.125
 74
     0
 49
0.125
 74
     0
 49
-0.125
 74
     0
  0
LTYPE
  5
3BF
330
5
100
AcDbSymbolTableRecord
100
AcDbLinetypeTableRecord
  2
AM_ISO08W050
 70
     0
  3
____ . ____ . ____ . ____ . ____ . ____ . ____
 72
    65
 73
     4
 40
18.0
 49
12.0
 74
     0
 49
-1.5
 74
     0
 49
3.0
 74
     0
 49
-1.5
 74
     0
  0
LTYPE
  5
3C1
330
5
100
AcDbSymbolTableRecord
100
AcDbLinetypeTableRecord
  2
Amconstr
 70
     0
  3
_______________________
 72
    65
 73
     2
 40
9999.0
 49
9999.0
 74
     0
 49
0.0
 74
     0
  0
LTYPE
  5
3C7
330
5
100
AcDbSymbolTableRecord
100
AcDbLinetypeTableRecord
  2
CENTER2
 70
     0
  3
Center (.5x) ___ _ ___ _ ___ _ ___ _ ___ _ ___
 72
    65
 73
     4
 40
1.125
 49
0.75
 74
     0
 49
-0.125
 74
     0
 49
0.125
 74
     0
 49
-0.125
 74
     0
  0
LTYPE
  5
3C8
330
5
100
AcDbSymbolTableRecord
100
AcDbLinetypeTableRecord
  2
HIDDEN2
 70
     0
  3
Hidden (.5x) _ _ _ _ _ _ _ _ _ _ _ _ _ _ _ _ _
 72
    65
 73
     2
 40
0.1875
 49
0.125
 74
     0
 49
-0.0625
 74
     0
  0
LTYPE
  5
3C9
330
5
100
AcDbSymbolTableRecord
100
AcDbLinetypeTableRecord
  2
Amzigzag2
 70
     0
  3
/\/-/\/-/\/-/\/-/\/-/\/
 72
    65
 73
     2
 40
0.4401
 49
0.0001
 74
     4
 75
   135
340
3C5
 46
0.0016
 50
0.0
 44
0.0
 45
0.0
 49
-0.44
 74
     0
  0
LTYPE
  5
3D7
330
5
100
AcDbSymbolTableRecord
100
AcDbLinetypeTableRecord
  2
ACANSTGB
 70
     0
  3
__ . . __ . .
 72
    65
 73
     6
 40
0.35433070866
 49
0.15748031496
 74
     0
 49
-0.03937007874
 74
     0
 49
0.03937007874
 74
     0
 49
-0.03937007874
 74
     0
 49
0.03937007874
 74
     0
 49
-0.03937007874
 74
     0
  0
LTYPE
  5
3D8
330
5
100
AcDbSymbolTableRecord
100
AcDbLinetypeTableRecord
  2
ACANSTGL
 70
     0
  3
_ _ _ _ _
 72
    65
 73
     2
 40
0.11811023622
 49
0.07874015748
 74
     0
 49
-0.03937007874
 74
     0
  0
LTYPE
  5
749
330
5
100
AcDbSymbolTableRecord
100
AcDbLinetypeTableRecord
  2
ACJISWELD
 70
     0
  3
_ _ _ _ _
 72
    65
 73
     2
 40
2.0
 49
2.0
 74
     0
 49
-1.0
 74
     0
  0
LTYPE
  5
74A
330
5
100
AcDbSymbolTableRecord
100
AcDbLinetypeTableRecord
  2
ACJISTGB
 70
     0
  3
__ . . __ . .
 72
    65
 73
     6
 40
9.0
 49
4.0
 74
     0
 49
-1.0
 74
     0
 49
1.0
 74
     0
 49
-1.0
 74
     0
 49
1.0
 74
     0
 49
-1.0
 74
     0
  0
LTYPE
  5
74B
330
5
100
AcDbSymbolTableRecord
100
AcDbLinetypeTableRecord
  2
ACJISTGL
 70
     0
  3
_ _ _ _ _
 72
    65
 73
     2
 40
3.0
 49
2.0
 74
     0
 49
-1.0
 74
     0
  0
ENDTAB
  0
TABLE
  2
LAYER
  5
2
102
{ACAD_XDICTIONARY
360
757
102
}
330
0
100
AcDbSymbolTable
 70
     7
  0
LAYER
  5
10
330
2
100
AcDbSymbolTableRecord
100
AcDbLayerTableRecord
  2
0
 70
     0
 62
     7
  6
CONTINUOUS
370
    -3
390
F
  0
LAYER
  5
29
330
2
100
AcDbSymbolTableRecord
100
AcDbLayerTableRecord
  2
1
 70
     0
 62
     7
  6
CONTINUOUS
370
    -3
390
F
  0
LAYER
  5
2A
330
2
100
AcDbSymbolTableRecord
100
AcDbLayerTableRecord
  2
2
 70
     0
 62
     7
  6
CONTINUOUS
370
    -3
390
F
  0
LAYER
  5
2C
330
2
100
AcDbSymbolTableRecord
100
AcDbLayerTableRecord
  2
6
 70
     0
 62
     7
  6
CONTINUOUS
370
    -3
390
F
  0
LAYER
  5
30
330
2
100
AcDbSymbolTableRecord
100
AcDbLayerTableRecord
  2
DEFPOINTS
 70
     0
 62
    -7
  6
CONTINUOUS
290
     0
370
    -3
390
F
  0
LAYER
  5
504
330
2
100
AcDbSymbolTableRecord
100
AcDbLayerTableRecord
  2
AM_5
 70
     0
 62
     3
  6
CONTINUOUS
370
    15
390
F
  0
LAYER
  5
74C
330
2
100
AcDbSymbolTableRecord
100
AcDbLayerTableRecord
  2
AM_6
 70
     0
 62
     2
  6
CONTINUOUS
370
    30
390
F
  0
ENDTAB
  0
TABLE
  2
STYLE
  5
3
330
0
100
AcDbSymbolTable
 70
     6
  0
STYLE
  5
11
330
3
100
AcDbSymbolTableRecord
100
AcDbTextStyleTableRecord
  2
STANDARD
 70
     0
 40
0.0
 41
1.0
 50
0.0
 71
     0
 42
3.0
  3
txt
  4

  0
STYLE
  5
3C5
330
3
100
AcDbSymbolTableRecord
100
AcDbTextStyleTableRecord
  2

 70
     1
 40
0.0
 41
1.0
 50
0.0
 71
     0
 42
3.0
  3
ltypeshp.shx
  4

  0
STYLE
  5
3CA
330
3
100
AcDbSymbolTableRecord
100
AcDbTextStyleTableRecord
  2
ACANSTS
 70
     0
 40
1.0
 41
1.0
 50
0.0
 71
     0
 42
3.0
  3
romans.shx
  4
extfont.shx
  0
STYLE
  5
3D6
330
3
100
AcDbSymbolTableRecord
100
AcDbTextStyleTableRecord
  2
ACANSGDT
 70
     0
 40
0.0
 41
1.0
 50
0.0
 71
     0
 42
3.0
  3
amgdtans.shx
  4

  0
STYLE
  5
74D
330
3
100
AcDbSymbolTableRecord
100
AcDbTextStyleTableRecord
  2
ACJISTS
 70
     0
 40
1.0
 41
1.0
 50
0.0
 71
     0
 42
1.0
  3
isocp.shx
  4
extfont.shx
  0
STYLE
  5
74E
330
3
100
AcDbSymbolTableRecord
100
AcDbTextStyleTableRecord
  2
ACJISGDT
 70
     0
 40
0.0
 41
1.0
 50
0.0
 71
     0
 42
1.0
  3
amgdt.shx
  4

  0
ENDTAB
  0
TABLE
  2
VIEW
  5
6
330
0
100
AcDbSymbolTable
 70
     0
  0
ENDTAB
  0
TABLE
  2
UCS
  5
7
330
0
100
AcDbSymbolTable
 70
     0
  0
ENDTAB
  0
TABLE
  2
APPID
  5
9
330
0
100
AcDbSymbolTable
 70
     9
  0
APPID
  5
12
330
9
100
AcDbSymbolTableRecord
100
AcDbRegAppTableRecord
  2
ACAD
 70
     0
  0
APPID
  5
358
330
9
100
AcDbSymbolTableRecord
100
AcDbRegAppTableRecord
  2
MCAD_NO_VIS
 70
     0
  0
APPID
  5
359
330
9
100
AcDbSymbolTableRecord
100
AcDbRegAppTableRecord
  2
ACAD_TEMP_GRAPHIC
 70
     0
  0
APPID
  5
388
330
9
100
AcDbSymbolTableRecord
100
AcDbRegAppTableRecord
  2
AD_DRAW
 70
     0
  0
APPID
  5
38B
330
9
100
AcDbSymbolTableRecord
100
AcDbRegAppTableRecord
  2
ACATTRIBSERVICES
 70
     0
  0
APPID
  5
3AD
330
9
100
AcDbSymbolTableRecord
100
AcDbRegAppTableRecord
  2
DESIGNERASSEMBLIES
 70
     0
  0
APPID
  5
3B3
330
9
100
AcDbSymbolTableRecord
100
AcDbRegAppTableRecord
  2
ACADM_DIM_EDIT
 70
     0
  0
APPID
  5
3B4
330
9
100
AcDbSymbolTableRecord
100
AcDbRegAppTableRecord
  2
AMDT_DM_ADJ
 70
     0
  0
APPID
  5
3F7
330
9
100
AcDbSymbolTableRecord
100
AcDbRegAppTableRecord
  2
ACAD_PSEXT
 70
     0
  0
ENDTAB
  0
TABLE
  2
DIMSTYLE
  5
A
330
0
100
AcDbSymbolTable
 70
    17
100
AcDbDimStyleTable
  0
DIMSTYLE
105
355
330
A
100
AcDbSymbolTableRecord
100
AcDbDimStyleTableRecord
  2
Standard
 70
     0
340
11
  0
DIMSTYLE
105
3E3
330
A
100
AcDbSymbolTableRecord
100
AcDbDimStyleTableRecord
  2
AM_ANSI
 70
     0
  4
mm
 41
0.1
 42
0.05
 43
0.5
 44
0.1
 47
0.1
 48
0.1
 78
     7
 79
     2
140
0.12
141
0.0
146
0.71
147
0.06
176
   256
177
   256
178
     2
274
     4
284
     7
340
11
371
    -1
372
    -1
  0
DIMSTYLE
105
3E6
330
A
100
AcDbSymbolTableRecord
100
AcDbDimStyleTableRecord
  2
AM_ANSI$7
 70
     0
  4
mm
 41
0.1
 42
0.05
 43
0.5
 44
0.1
 47
0.1
 48
0.1
 78
     7
 79
     2
140
0.24
141
0.0
146
0.71
147
0.06
176
   256
177
   256
178
     2
274
     4
284
     7
340
11
371
    -1
372
    -1
  0
DIMSTYLE
105
3E7
330
A
100
AcDbSymbolTableRecord
100
AcDbDimStyleTableRecord
  2
AM_ANSI$SF
 70
     0
  4
mm
 41
0.1
 42
0.05
 43
0.5
 44
0.1
 47
0.1
 48
0.1
 75
     1
 76
     1
 78
     7
 79
     2
140
0.12
141
0.0
146
0.71
147
0.06
176
   256
177
   256
178
     2
274
     4
284
     7
340
11
371
    -1
372
    -1
  0
DIMSTYLE
105
3EC
330
A
100
AcDbSymbolTableRecord
100
AcDbDimStyleTableRecord
  2
AM_ANSI$SH
 70
     0
  4
mm
 41
0.1
 42
0.05
 43
0.5
 44
0.1
 47
0.1
 48
0.1
 75
     1
 76
     1
 78
     7
 79
     2
140
0.12
141
0.0
146
0.71
147
0.06
173
     1
176
   256
177
   256
178
     2
274
     4
284
     7
340
11
343
3E8
371
    -1
372
    -1
  0
DIMSTYLE
105
510
102
{ACAD_REACTORS
330
514
330
5D3
330
674
330
6F6
330
728
330
794
102
}
330
A
100
AcDbSymbolTableRecord
100
AcDbDimStyleTableRecord
  2
Standard$0
 70
     0
340
11
  0
DIMSTYLE
105
53E
330
A
100
AcDbSymbolTableRecord
100
AcDbDimStyleTableRecord
  2
Standard$4
 70
     0
340
11
  0
DIMSTYLE
105
550
102
{ACAD_REACTORS
330
551
102
}
330
A
100
AcDbSymbolTableRecord
100
AcDbDimStyleTableRecord
  2
Standard$3
 70
     0
340
11
  0
DIMSTYLE
105
5F1
102
{ACAD_REACTORS
330
5F2
330
628
102
}
330
A
100
AcDbSymbolTableRecord
100
AcDbDimStyleTableRecord
  2
Standard$2
 70
     0
340
11
  0
DIMSTYLE
105
74F
330
A
100
AcDbSymbolTableRecord
100
AcDbDimStyleTableRecord
  2
AM_JIS
 70
     0
  4
"
 41
2.5
 42
1.0
 43
10.0
 44
1.0
 47
0.1
 48
0.1000000001
 73
     0
 74
     0
 77
     3
 78
     8
 79
     2
140
3.8
141
0.0
143
0.0393701
146
0.71
147
1.5
172
     1
176
   256
177
   256
178
     2
271
     2
272
     2
275
     1
283
     0
284
     8
340
11
341
743
342
743
371
    -1
372
    -1
  0
DIMSTYLE
105
750
330
A
100
AcDbSymbolTableRecord
100
AcDbDimStyleTableRecord
  2
AM_JIS$3
 70
     0
  4
"
 41
2.5
 42
1.0
 43
10.0
 44
1.0
 47
0.1
 48
0.1000000001
 73
     0
 77
     3
 78
     8
 79
     2
140
3.8
141
0.0
143
0.0393701
146
0.71
147
1.5
176
   256
177
   256
178
     2
271
     2
272
     2
275
     1
283
     0
284
     8
288
     1
289
     0
340
11
341
743
342
743
371
    -1
372
    -1
  0
DIMSTYLE
105
751
330
A
100
AcDbSymbolTableRecord
100
AcDbDimStyleTableRecord
  2
AM_JIS$4
 70
     0
  4
"
 41
2.5
 42
1.0
 43
10.0
 44
1.0
 47
0.1
 48
0.1000000001
 73
     0
 77
     3
 78
     8
 79
     2
140
3.8
141
0.0
143
0.0393701
146
0.71
147
1.5
176
   256
177
   256
178
     2
271
     2
272
     2
275
     1
283
     0
284
     8
288
     1
289
     0
340
11
341
743
342
743
371
    -1
372
    -1
  0
DIMSTYLE
105
752
330
A
100
AcDbSymbolTableRecord
100
AcDbDimStyleTableRecord
  2
AM_JIS$6
 70
     0
  4
"
 41
2.5
 42
1.0
 43
10.0
 44
1.0
 47
0.1
 48
0.1000000001
 73
     0
 74
     0
 78
     8
 79
     2
140
3.8
141
0.0
143
0.0393701
146
0.71
147
1.5
172
     1
176
   256
177
   256
178
     2
271
     2
272
     2
275
     1
283
     0
284
     8
340
11
341
743
342
743
371
    -1
372
    -1
  0
DIMSTYLE
105
753
330
A
100
AcDbSymbolTableRecord
100
AcDbDimStyleTableRecord
  2
AM_JIS$7
 70
     0
  4
"
 41
2.5
 42
1.0
 43
10.0
 44
1.0
 47
0.1
 48
0.1000000001
 73
     0
 74
     0
 77
     3
 78
     8
 79
     2
140
5.0
141
0.0
143
0.0393701
146
0.71
147
1.5
172
     1
176
   256
177
   256
178
     2
271
     2
272
     2
275
     1
283
     0
284
     8
340
11
341
743
342
743
371
    -1
372
    -1
  0
DIMSTYLE
105
754
330
A
100
AcDbSymbolTableRecord
100
AcDbDimStyleTableRecord
  2
AM_JIS$SF
 70
     0
  4
"
 41
2.5
 42
1.0
 43
10.0
 44
1.0
 47
0.1
 48
0.1
 73
     0
 74
     0
 75
     1
 76
     1
 77
     3
 78
     8
 79
     2
140
3.5
141
0.0
143
0.0393701
146
0.71
147
1.5
172
     1
176
   256
177
   256
178
     2
271
     2
272
     3
274
     4
283
     0
284
     8
340
11
341
743
342
743
343
743
344
743
371
    -1
372
    -1
  0
DIMSTYLE
105
755
330
A
100
AcDbSymbolTableRecord
100
AcDbDimStyleTableRecord
  2
AM_JIS$SH
 70
     0
  4
"
 41
2.5
 42
1.0
 43
10.0
 44
1.0
 47
0.1
 48
0.1
 73
     0
 74
     0
 75
     1
 76
     1
 77
     3
 78
     8
 79
     2
140
3.5
141
0.0
143
0.0393701
144
2.0
146
0.71
147
1.5
172
     1
173
     1
176
   256
177
   256
178
     2
271
     2
272
     3
274
     4
283
     0
284
     8
340
11
341
743
342
743
343
3E8
344
743
371
    -1
372
    -1
  0
DIMSTYLE
105
756
330
A
100
AcDbSymbolTableRecord
100
AcDbDimStyleTableRecord
  2
AM_JIS$2
 70
     0
  4
"
 41
2.5
 42
1.0
 43
10.0
 44
1.0
 47
0.1
 48
0.1000000001
 73
     0
 74
     0
 77
     3
 78
     8
 79
     2
140
3.8
141
0.0
143
0.0393701
146
0.71
147
1.5
172
     1
176
   256
177
   256
178
     2
271
     2
272
     2
275
     1
283
     0
284
     8
340
11
341
743
342
743
371
    -1
372
    -1
  0
ENDTAB
  0
TABLE
  2
BLOCK_RECORD
  5
1
330
0
100
AcDbSymbolTable
 70
    14
  0
BLOCK_RECORD
  5
22
330
1
100
AcDbSymbolTableRecord
100
AcDbBlockTableRecord
  2
*Model_Space
340
25
  0
BLOCK_RECORD
  5
1E
330
1
100
AcDbSymbolTableRecord
100
AcDbBlockTableRecord
  2
*Paper_Space
340
21
  0
BLOCK_RECORD
  5
38
330
1
100
AcDbSymbolTableRecord
100
AcDbBlockTableRecord
  2
MARK4_2
340
0
102
{BLKREFS
331
202
102
}
  0
BLOCK_RECORD
  5
112
330
1
100
AcDbSymbolTableRecord
100
AcDbBlockTableRecord
  2
LRIS-25-1_0001
340
0
102
{BLKREFS
331
22D
102
}
  0
BLOCK_RECORD
  5
3A4
330
1
100
AcDbSymbolTableRecord
100
AcDbBlockTableRecord
  2
*U2
340
0
  0
BLOCK_RECORD
  5
3E8
330
1
100
AcDbSymbolTableRecord
100
AcDbBlockTableRecord
  2
GENAXEH
340
0
  0
BLOCK_RECORD
  5
515
330
1
100
AcDbSymbolTableRecord
100
AcDbBlockTableRecord
  2
*D4
340
0
  0
BLOCK_RECORD
  5
552
330
1
100
AcDbSymbolTableRecord
100
AcDbBlockTableRecord
  2
*D5
340
0
  0
BLOCK_RECORD
  5
5D4
330
1
100
AcDbSymbolTableRecord
100
AcDbBlockTableRecord
  2
*D6
340
0
  0
BLOCK_RECORD
  5
5F3
330
1
100
AcDbSymbolTableRecord
100
AcDbBlockTableRecord
  2
*D7
340
0
  0
BLOCK_RECORD
  5
629
330
1
100
AcDbSymbolTableRecord
100
AcDbBlockTableRecord
  2
*D8
340
0
  0
BLOCK_RECORD
  5
675
330
1
100
AcDbSymbolTableRecord
100
AcDbBlockTableRecord
  2
*D9
340
0
  0
BLOCK_RECORD
  5
6F7
330
1
100
AcDbSymbolTableRecord
100
AcDbBlockTableRecord
  2
*D10
340
0
  0
BLOCK_RECORD
  5
729
330
1
100
AcDbSymbolTableRecord
100
AcDbBlockTableRecord
  2
*D11
340
0
  0
BLOCK_RECORD
  5
743
330
1
100
AcDbSymbolTableRecord
100
AcDbBlockTableRecord
  2
_Open30
340
0
  0
BLOCK_RECORD
  5
795
330
1
100
AcDbSymbolTableRecord
100
AcDbBlockTableRecord
  2
*D13
340
0
  0
ENDTAB
  0
ENDSEC
  0
SECTION
  2
BLOCKS
  0
BLOCK
  5
23
330
22
100
AcDbEntity
  8
0
100
AcDbBlockBegin
  2
*Model_Space
 70
     0
 71
     0
 10
0.0
 20
0.0
 30
0.0
  3
*Model_Space
  1

  0
ENDBLK
  5
24
330
22
100
AcDbEntity
  8
0
100
AcDbBlockEnd
  0
BLOCK
  5
1F
330
1E
100
AcDbEntity
 67
     1
  8
0
100
AcDbBlockBegin
  2
*Paper_Space
 70
     0
 71
     0
 10
0.0
 20
0.0
 30
0.0
  3
*Paper_Space
  1

  0
ENDBLK
  5
20
330
1E
100
AcDbEntity
 67
     1
  8
0
100
AcDbBlockEnd
  0
BLOCK
  5
39
330
38
100
AcDbEntity
  8
0
100
AcDbBlockBegin
  2
MARK4_2
 70
     0
 71
     0
 10
0.0
 20
0.0
 30
0.0
  3
MARK4_2
  1

  0
CIRCLE
  5
3A
330
38
100
AcDbEntity
  8
0
  6
Continuous
 62
     0
100
AcDbCircle
 10
0.0
 20
0.0
 30
0.0
 40
0.125
  0
CIRCLE
  5
3B
330
38
100
AcDbEntity
  8
0
  6
Continuous
 62
     0
100
AcDbCircle
 10
0.0
 20
0.0
 30
0.0
 40
0.0625
  0
ENDBLK
  5
3C
330
38
100
AcDbEntity
  8
0
100
AcDbBlockEnd
  0
BLOCK
  5
113
330
112
100
AcDbEntity
  8
1
100
AcDbBlockBegin
  2
LRIS-25-1_0001
 70
     0
 71
     0
 10
0.0
 20
0.0
 30
0.0
  3
LRIS-25-1_0001
  1

  0
CIRCLE
  5
114
330
112
100
AcDbEntity
  8
1
  6
Continuous
100
AcDbCircle
 10
-0.0000001192585701
 20
0.0000001184027614
 30
0.0
 40
1.799999952316284
  0
LINE
  5
115
330
112
100
AcDbEntity
  8
1
  6
CENTER
100
AcDbLine
 10
-1.62634551530044
 20
-1.626345754476267
 30
0.0
 11
1.626345753620458
 21
1.626345514444632
 31
0.0
  0
LINE
  5
116
330
112
100
AcDbEntity
  8
1
  6
CENTER
100
AcDbLine
 10
1.626345753620458
 20
-1.626345754476267
 30
0.0
 11
-1.62634551530044
 21
1.626345514444632
 31
0.0
  0
LINE
  5
117
330
112
100
AcDbEntity
  8
1
  6
Continuous
100
AcDbLine
 10
0.6363965272410637
 20
-0.9192391642052709
 30
0.0
 11
0.919239163349462
 21
-0.6363965280968724
 31
0.0
  0
LINE
  5
118
330
112
100
AcDbEntity
  8
1
  6
Continuous
100
AcDbLine
 10
-0.6363960505024666
 20
0.9192389241736354
 30
0.0
 11
-0.9192389250294442
 21
0.6363960496466579
 31
0.0
  0
LINE
  5
119
330
112
100
AcDbEntity
  8
1
  6
Continuous
100
AcDbLine
 10
0.919239163349462
 20
-0.6363965280968724
 30
0.0
 11
0.3863703011973625
 21
-0.1035276659447728
 31
0.0
  0
LINE
  5
11A
330
112
100
AcDbEntity
  8
1
  6
Continuous
100
AcDbLine
 10
-0.1035276651875252
 20
0.3863703004401149
 30
0.0
 11
-0.6363960505024666
 21
0.9192389241736354
 31
0.0
  0
LINE
  5
11B
330
112
100
AcDbEntity
  8
1
  6
Continuous
100
AcDbLine
 10
-0.9192389250294442
 20
0.6363960496466579
 30
0.0
 11
-0.3863703012959237
 21
0.1035276643317165
 31
0.0
  0
LINE
  5
11C
330
112
100
AcDbEntity
  8
1
  6
Continuous
100
AcDbLine
 10
0.1035276650889641
 20
-0.3863703020531712
 30
0.0
 11
0.6363965272410637
 21
-0.9192391642052709
 31
0.0
  0
LINE
  5
11D
330
112
100
AcDbEntity
  8
1
  6
Continuous
100
AcDbLine
 10
0.0915156602366691
 20
1.11428224959783
 30
0.0
 11
-0.1035276651875252
 21
0.3863703004401149
 31
0.0
  0
LINE
  5
11E
330
112
100
AcDbEntity
  8
1
  6
Continuous
100
AcDbLine
 10
-0.2828427553669686
 20
-0.2828427561242162
 30
0.0
 11
-0.4778860807911629
 21
-1.010754705281931
 31
0.0
  0
LINE
  5
11F
330
112
100
AcDbEntity
  8
1
  6
Continuous
100
AcDbLine
 10
-0.4778860807911629
 20
-1.010754705281931
 30
0.0
 11
-0.0915158987538094
 21
-1.114282251210886
 31
0.0
  0
LINE
  5
120
330
112
100
AcDbEntity
  8
1
  6
Continuous
100
AcDbLine
 10
-0.0915158987538094
 20
-1.114282251210886
 30
0.0
 11
0.1035276650889641
 21
-0.3863703020531712
 31
0.0
  0
LINE
  5
121
330
112
100
AcDbEntity
  8
1
  6
Continuous
100
AcDbLine
 10
0.2828427552684074
 20
0.2828427545111598
 30
0.0
 11
0.4778863191111809
 21
1.010754703668875
 31
0.0
  0
LINE
  5
122
330
112
100
AcDbEntity
  8
1
  6
Continuous
100
AcDbLine
 10
0.4778863191111809
 20
1.010754703668875
 30
0.0
 11
0.0915156602366691
 21
1.11428224959783
 31
0.0
  0
LINE
  5
123
330
112
100
AcDbEntity
  8
1
  6
Continuous
100
AcDbLine
 10
-1.010754704524683
 20
-0.4778863199669896
 30
0.0
 11
-0.2828427553669686
 21
-0.2828427561242162
 31
0.0
  0
LINE
  5
124
330
112
100
AcDbEntity
  8
1
  6
Continuous
100
AcDbLine
 10
0.3863703011973625
 20
-0.1035276659447728
 30
0.0
 11
1.114282250355077
 21
0.0915158978980006
 31
0.0
  0
LINE
  5
125
330
112
100
AcDbEntity
  8
1
  6
Continuous
100
AcDbLine
 10
1.114282250355077
 20
0.0915158978980006
 30
0.0
 11
1.010754704426122
 21
0.4778860799353542
 31
0.0
  0
LINE
  5
126
330
112
100
AcDbEntity
  8
1
  6
Continuous
100
AcDbLine
 10
1.010754704426122
 20
0.4778860799353542
 30
0.0
 11
0.2828427552684074
 21
0.2828427545111598
 31
0.0
  0
LINE
  5
127
330
112
100
AcDbEntity
  8
1
  6
Continuous
100
AcDbLine
 10
-0.3863703012959237
 20
0.1035276643317165
 30
0.0
 11
-1.114282250453639
 21
-0.0915156610924779
 31
0.0
  0
LINE
  5
128
330
112
100
AcDbEntity
  8
1
  6
Continuous
100
AcDbLine
 10
-1.114282250453639
 20
-0.0915156610924779
 30
0.0
 11
-1.010754704524683
 21
-0.4778863199669896
 31
0.0
  0
ENDBLK
  5
129
330
112
100
AcDbEntity
  8
1
100
AcDbBlockEnd
  0
BLOCK
  5
3A5
330
3A4
100
AcDbEntity
  8
0
100
AcDbBlockBegin
  2
*U2
 70
     1
 71
     0
 10
0.0
 20
0.0
 30
0.0
  3
*U2
  1

  0
ENDBLK
  5
3A6
330
3A4
100
AcDbEntity
  8
0
100
AcDbBlockEnd
  0
BLOCK
  5
3EA
330
3E8
100
AcDbEntity
  8
0
100
AcDbBlockBegin
  2
GENAXEH
 70
     0
 71
     0
 10
0.0
 20
0.0
 30
0.0
  3
GENAXEH
  1

  0
LINE
  5
3E9
330
3E8
100
AcDbEntity
  8
0
100
AcDbLine
 10
-1.0
 20
0.0
 30
0.0
 11
1.0
 21
0.0
 31
0.0
  0
ENDBLK
  5
3EB
330
3E8
100
AcDbEntity
  8
0
100
AcDbBlockEnd
  0
BLOCK
  5
520
330
515
100
AcDbEntity
  8
0
100
AcDbBlockBegin
  2
*D4
 70
     1
 71
     0
 10
0.0
 20
0.0
 30
0.0
  3
*D4
  1

  0
LINE
  5
9D2
330
515
100
AcDbEntity
  8
AM_5
 62
     0
370
    -2
100
AcDbLine
 10
0.9615889923232999
 20
69.99999999914422
 30
0.0
 11
-9.786287775448841
 21
69.99999999914422
 31
0.0
  0
LINE
  5
9D3
330
515
100
AcDbEntity
  8
AM_5
 62
     0
370
    -2
100
AcDbLine
 10
0.9615889923554732
 20
69.99999999914422
 30
0.0
 11
-9.786287775448841
 21
69.99999999914422
 31
0.0
  0
LINE
  5
9D4
330
515
100
AcDbEntity
  8
AM_5
 62
     0
370
    -2
100
AcDbLine
 10
-7.786287775448841
 20
66.99999999914422
 30
0.0
 11
-7.786287775448842
 21
63.99999999914422
 31
0.0
  0
LINE
  5
9D5
330
515
100
AcDbEntity
  8
AM_5
 62
     0
370
    -2
100
AcDbLine
 10
-7.78628777544884
 20
72.99999999914422
 30
0.0
 11
-7.786287775448838
 21
78.67999999914423
 31
0.0
  0
SOLID
  5
9D6
330
515
100
AcDbEntity
  8
AM_5
 62
     0
100
AcDbTrace
 10
-8.286287775448841
 20
66.99999999914422
 30
0.0
 11
-7.286287775448841
 21
66.99999999914422
 31
0.0
 12
-7.786287775448841
 22
69.99999999914422
 32
0.0
 13
-7.786287775448841
 23
69.99999999914422
 33
0.0
  0
SOLID
  5
9D7
330
515
100
AcDbEntity
  8
AM_5
 62
     0
100
AcDbTrace
 10
-8.286287775448839
 20
72.99999999914422
 30
0.0
 11
-7.28628777544884
 21
72.99999999914422
 31
0.0
 12
-7.786287775448841
 22
69.99999999914422
 32
0.0
 13
-7.786287775448841
 23
69.99999999914422
 33
0.0
  0
MTEXT
  5
9D8
330
515
100
AcDbEntity
  8
AM_5
 62
     0
100
AcDbMText
 10
-10.37628777544885
 20
77.33999999914423
 30
0.0
 40
5.0
 41
0.0
 71
     5
 72
     1
  1
\A1;0
 11
6.123031769111886E-17
 21
1.0
 31
0.0
 73
     1
 44
1.0
  0
POINT
  5
9D9
330
515
100
AcDbEntity
  8
DEFPOINTS
 62
     0
100
AcDbPoint
 10
1.9615889923233
 20
69.99999999914422
 30
0.0
  0
POINT
  5
9DA
330
515
100
AcDbEntity
  8
DEFPOINTS
 62
     0
100
AcDbPoint
 10
1.961588992355473
 20
69.99999999914422
 30
0.0
  0
POINT
  5
9DB
330
515
100
AcDbEntity
  8
DEFPOINTS
 62
     0
100
AcDbPoint
 10
-7.786287775448841
 20
69.99999999914422
 30
0.0
  0
ENDBLK
  5
521
330
515
100
AcDbEntity
  8
0
100
AcDbBlockEnd
  0
BLOCK
  5
558
330
552
100
AcDbEntity
  8
0
100
AcDbBlockBegin
  2
*D5
 70
     1
 71
     0
 10
0.0
 20
0.0
 30
0.0
  3
*D5
  1

  0
LINE
  5
9DC
330
552
100
AcDbEntity
  8
AM_5
 62
     0
370
    -2
100
AcDbLine
 10
97.01788902487311
 20
31.58921666152092
 30
0.0
 11
79.97584120099043
 21
4.591380678766591
 31
0.0
  0
LINE
  5
9DD
330
552
100
AcDbEntity
  8
AM_5
 62
     0
370
    -2
100
AcDbLine
 10
66.60448679419552
 20
-16.59138074008281
 30
0.0
 11
65.00312698499853
 21
-19.12823839503481
 31
0.0
  0
MTEXT
  5
9DE
330
552
100
AcDbEntity
  8
AM_5
 62
     0
100
AcDbMText
 10
88.7745951706666
 20
23.38240202774239
 30
0.0
 40
5.0
 41
0.0
 71
     5
 72
     1
  1
\A1;\U+220519.05
 11
0.5337866030656617
 21
0.8456192183173357
 31
0.0
 73
     1
 44
1.0
  0
LINE
  5
9DF
330
552
100
AcDbEntity
  8
AM_5
 62
     0
370
    -2
100
AcDbLine
 10
68.2058466033925
 20
-14.0545230851308
 30
0.0
 11
78.37448139179344
 21
2.054523023814589
 31
0.0
  0
SOLID
  5
9E0
330
552
100
AcDbEntity
  8
AM_5
 62
     0
100
AcDbTrace
 10
66.18167718503686
 20
-16.32448743854998
 30
0.0
 11
67.02729640335419
 21
-16.85827404161564
 31
0.0
 12
68.2058466033925
 22
-14.0545230851308
 32
0.0
 13
68.2058466033925
 23
-14.0545230851308
 33
0.0
  0
SOLID
  5
9E1
330
552
100
AcDbEntity
  8
AM_5
 62
     0
100
AcDbTrace
 10
79.55303159183175
 20
4.858273980299423
 30
0.0
 11
80.39865081014909
 21
4.324487377233758
 31
0.0
 12
78.37448139179344
 22
2.054523023814589
 32
0.0
 13
78.37448139179344
 23
2.054523023814589
 33
0.0
  0
POINT
  5
9E2
330
552
100
AcDbEntity
  8
DEFPOINTS
 62
     0
100
AcDbPoint
 10
78.37448139179344
 20
2.054523023814589
 30
0.0
  0
POINT
  5
9E3
330
552
100
AcDbEntity
  8
DEFPOINTS
 62
     0
100
AcDbPoint
 10
68.2058466033925
 20
-14.0545230851308
 30
0.0
  0
ENDBLK
  5
559
330
552
100
AcDbEntity
  8
0
100
AcDbBlockEnd
  0
BLOCK
  5
5E0
330
5D4
100
AcDbEntity
  8
0
100
AcDbBlockBegin
  2
*D6
 70
     1
 71
     0
 10
0.0
 20
0.0
 30
0.0
  3
*D6
  1

  0
LINE
  5
9E4
330
5D4
100
AcDbEntity
  8
AM_5
 62
     0
370
    -2
100
AcDbLine
 10
21.75623148716261
 20
-6.000000000855777
 30
0.0
 11
-24.47949213075196
 21
-6.000000000855764
 31
0.0
  0
LINE
  5
9E5
330
5D4
100
AcDbEntity
  8
AM_5
 62
     0
370
    -2
100
AcDbLine
 10
-1.0
 20
0.0000000000000003
 30
0.0
 11
-24.47949213075196
 21
0.0000000000000069
 31
0.0
  0
LINE
  5
9E6
330
5D4
100
AcDbEntity
  8
AM_5
 62
     0
370
    -2
100
AcDbLine
 10
-22.47949213075197
 20
-9.000000000855765
 30
0.0
 11
-22.47949213075197
 21
-12.00000000085577
 31
0.0
  0
LINE
  5
9E7
330
5D4
100
AcDbEntity
  8
AM_5
 62
     0
370
    -2
100
AcDbLine
 10
-22.47949213075196
 20
3.000000000000006
 30
0.0
 11
-22.47949213075196
 21
6.000000000000007
 31
0.0
  0
LINE
  5
9E8
330
5D4
100
AcDbEntity
  8
AM_5
 62
     0
370
    -2
100
AcDbLine
 10
-22.47949213075196
 20
-6.000000000855764
 30
0.0
 11
-22.47949213075196
 21
0.0000000000000064
 31
0.0
  0
SOLID
  5
9E9
330
5D4
100
AcDbEntity
  8
AM_5
 62
     0
100
AcDbTrace
 10
-22.97949213075197
 20
-9.000000000855765
 30
0.0
 11
-21.97949213075197
 21
-9.000000000855765
 31
0.0
 12
-22.47949213075196
 22
-6.000000000855764
 32
0.0
 13
-22.47949213075196
 23
-6.000000000855764
 33
0.0
  0
SOLID
  5
9EA
330
5D4
100
AcDbEntity
  8
AM_5
 62
     0
100
AcDbTrace
 10
-22.97949213075196
 20
3.000000000000006
 30
0.0
 11
-21.97949213075196
 21
3.000000000000006
 31
0.0
 12
-22.47949213075196
 22
0.0000000000000064
 32
0.0
 13
-22.47949213075196
 23
0.0000000000000064
 33
0.0
  0
MTEXT
  5
9EB
330
5D4
100
AcDbEntity
  8
AM_5
 62
     0
100
AcDbMText
 10
-25.06949213075196
 20
-3.000000000427883
 30
0.0
 40
5.0
 41
0.0
 71
     5
 72
     1
  1
\A1;6
 11
6.123031769111886E-17
 21
1.0
 31
0.0
 73
     1
 44
1.0
  0
POINT
  5
9EC
330
5D4
100
AcDbEntity
  8
DEFPOINTS
 62
     0
100
AcDbPoint
 10
22.75623148716261
 20
-6.000000000855778
 30
0.0
  0
POINT
  5
9ED
330
5D4
100
AcDbEntity
  8
DEFPOINTS
 62
     0
100
AcDbPoint
 10
0.0
 20
0.0
 30
0.0
  0
POINT
  5
9EE
330
5D4
100
AcDbEntity
  8
DEFPOINTS
 62
     0
100
AcDbPoint
 10
-22.47949213075196
 20
0.0000000000000064
 30
0.0
  0
ENDBLK
  5
5E1
330
5D4
100
AcDbEntity
  8
0
100
AcDbBlockEnd
  0
BLOCK
  5
602
330
5F3
100
AcDbEntity
  8
0
100
AcDbBlockBegin
  2
*D7
 70
     1
 71
     0
 10
0.0
 20
0.0
 30
0.0
  3
*D7
  1

  0
LINE
  5
9EF
330
5F3
100
AcDbEntity
  8
AM_5
 62
     0
370
    -2
100
AcDbLine
 10
0.0000000000658476
 20
-1.955437751962847
 30
0.0
 11
0.0000000010154038
 21
-30.15375635015541
 31
0.0
  0
LINE
  5
9F0
330
5F3
100
AcDbEntity
  8
AM_5
 62
     0
370
    -2
100
AcDbLine
 10
0.6319481842082451
 20
-7.326751531946303
 30
0.0
 11
2.619047990212693
 21
-30.03940624538021
 31
0.0
  0
ARC
  5
9F1
330
5F3
100
AcDbEntity
  8
AM_5
 62
     0
370
    -2
100
AcDbCircle
 10
0.000000000003487
 20
-0.1035507338521071
 30
0.0
 40
28.0502056163033
100
AcDbArc
 50
257.7208225088915
 51
270.0000000019294
  0
LINE
  5
9F2
330
5F3
100
AcDbEntity
  8
AM_5
 62
     0
370
    -2
100
AcDbLine
 10
-5.965585698271219
 20
-27.51204982434288
 30
0.0
 11
-14.28415890645089
 21
-25.70147416323399
 31
0.0
  0
ARC
  5
9F3
330
5F3
100
AcDbEntity
  8
AM_5
 62
     0
370
    -2
100
AcDbCircle
 10
0.000000000003487
 20
-0.1035507338521071
 30
0.0
 40
28.0502056163033
100
AcDbArc
 50
257.7384594652479
 51
263.8692297335886
  0
ARC
  5
9F4
330
5F3
100
AcDbEntity
  8
AM_5
 62
     0
370
    -2
100
AcDbCircle
 10
0.000000000003487
 20
-0.1035507338521071
 30
0.0
 40
28.0502056163033
100
AcDbArc
 50
281.1307702683416
 51
287.2615405366823
  0
ARC
  5
9F5
330
5F3
100
AcDbEntity
  8
AM_5
 62
     0
370
    -2
100
AcDbCircle
 10
0.000000000003487
 20
-0.1035507338521071
 30
0.0
 40
28.0502056163033
100
AcDbArc
 50
270.0000000019294
 51
275.0000000000009
  0
SOLID
  5
9F6
330
5F3
100
AcDbEntity
  8
AM_5
 62
     0
100
AcDbTrace
 10
-2.968969705517344
 20
-27.49404513902529
 30
0.0
 11
-3.022445249318169
 21
-28.49261429848056
 31
0.0
 12
0.0000000009480554
 22
-28.15375635015541
 32
0.0
 13
0.0000000009480554
 23
-28.15375635015541
 33
0.0
  0
SOLID
  5
9F7
330
5F3
100
AcDbEntity
  8
AM_5
 62
     0
100
AcDbTrace
 10
5.485213854479865
 20
-28.12116187992097
 30
0.0
 11
5.344910764457326
 21
-27.13105327833722
 31
0.0
 12
2.444736504717347
 22
-28.04701684919672
 32
0.0
 13
2.444736504717347
 23
-28.04701684919672
 33
0.0
  0
MTEXT
  5
9F8
330
5F3
100
AcDbEntity
  8
AM_5
 62
     0
100
AcDbMText
 10
-9.574043293480235
 20
-24.07601360586533
 30
0.0
 40
5.0
 41
0.0
 71
     5
 72
     1
  1
\A1;5°
 11
0.9771229297000391
 21
-0.2126752930041767
 31
0.0
 73
     1
 44
1.0
  0
POINT
  5
9F9
330
5F3
100
AcDbEntity
  8
DEFPOINTS
 62
     0
100
AcDbPoint
 10
1.63097440678171
 20
-28.10629984177592
 30
0.0
  0
POINT
  5
9FA
330
5F3
100
AcDbEntity
  8
DEFPOINTS
 62
     0
100
AcDbPoint
 10
0.0003775573308076
 20
-0.1078662338506717
 30
0.0
  0
POINT
  5
9FB
330
5F3
100
AcDbEntity
  8
DEFPOINTS
 62
     0
100
AcDbPoint
 10
0.0
 20
0.0
 30
0.0
  0
POINT
  5
9FC
330
5F3
100
AcDbEntity
  8
DEFPOINTS
 62
     0
100
AcDbPoint
 10
0.0000000000321734
 20
-0.9554377519628475
 30
0.0
  0
POINT
  5
9FD
330
5F3
100
AcDbEntity
  8
DEFPOINTS
 62
     0
100
AcDbPoint
 10
0.5447924414605723
 20
-6.330556833854558
 30
0.0
  0
ENDBLK
  5
603
330
5F3
100
AcDbEntity
  8
0
100
AcDbBlockEnd
  0
BLOCK
  5
638
330
629
100
AcDbEntity
  8
0
100
AcDbBlockBegin
  2
*D8
 70
     1
 71
     0
 10
0.0
 20
0.0
 30
0.0
  3
*D8
  1

  0
LINE
  5
9FE
330
629
100
AcDbEntity
  8
AM_5
 62
     0
370
    -2
100
AcDbLine
 10
-0.0970838553628883
 20
1.006122810739091
 30
0.0
 11
-1.885153894228573
 21
21.44385687597086
 31
0.0
  0
LINE
  5
9FF
330
629
100
AcDbEntity
  8
AM_5
 62
     0
370
    -2
100
AcDbLine
 10
-1.00612281070696
 20
0.0970838553950072
 30
0.0
 11
-21.44385687593876
 21
1.885153894260434
 31
0.0
  0
ARC
  5
A00
330
629
100
AcDbEntity
  8
AM_5
 62
     0
370
    -2
100
AcDbCircle
 10
-0.0099281126152152
 20
0.0099281126473467
 30
0.0
 40
19.51580288911512
100
AcDbArc
 50
103.8162926597614
 51
166.1837073402393
  0
SOLID
  5
A01
330
629
100
AcDbEntity
  8
AM_5
 62
     0
100
AcDbTrace
 10
-4.752222314293805
 20
19.45434324965489
 30
0.0
 11
-4.588756082598914
 21
18.46779431975051
 31
0.0
 12
-1.710842408733228
 22
19.45146747978738
 32
0.0
 13
-1.710842408733228
 23
19.45146747978738
 33
0.0
  0
SOLID
  5
A02
330
629
100
AcDbEntity
  8
AM_5
 62
     0
100
AcDbTrace
 10
-18.46779431971844
 20
4.588756082630812
 30
0.0
 11
-19.45434324962281
 21
4.752222314325691
 31
0.0
 12
-19.45146747975527
 22
1.710842408765114
 32
0.0
 13
-19.45146747975527
 23
1.710842408765114
 33
0.0
  0
MTEXT
  5
A03
330
629
100
AcDbEntity
  8
AM_5
 62
     0
100
AcDbMText
 10
-15.64109123908179
 20
15.64109123911372
 30
0.0
 40
5.0
 41
0.0
 71
     5
 72
     1
  1
\A1;80°
 11
0.7071067811865436
 21
0.7071067811865515
 31
0.0
 73
     1
 44
1.0
  0
POINT
  5
A04
330
629
100
AcDbEntity
  8
DEFPOINTS
 62
     0
100
AcDbPoint
 10
-10.25526757582635
 20
16.6201533275673
 30
0.0
  0
POINT
  5
A05
330
629
100
AcDbEntity
  8
DEFPOINTS
 62
     0
100
AcDbPoint
 10
6.330556833886817
 20
-0.5447924414283709
 30
0.0
  0
POINT
  5
A06
330
629
100
AcDbEntity
  8
DEFPOINTS
 62
     0
100
AcDbPoint
 10
0.0003775573308076
 20
-0.1078662338506717
 30
0.0
  0
POINT
  5
A07
330
629
100
AcDbEntity
  8
DEFPOINTS
 62
     0
100
AcDbPoint
 10
0.5447924414605723
 20
-6.330556833854557
 30
0.0
  0
POINT
  5
A08
330
629
100
AcDbEntity
  8
DEFPOINTS
 62
     0
100
AcDbPoint
 10
0.1078662338829872
 20
-0.0003775572986911
 30
0.0
  0
ENDBLK
  5
639
330
629
100
AcDbEntity
  8
0
100
AcDbBlockEnd
  0
BLOCK
  5
680
330
675
100
AcDbEntity
  8
0
100
AcDbBlockBegin
  2
*D9
 70
     1
 71
     0
 10
0.0
 20
0.0
 30
0.0
  3
*D9
  1

  0
LINE
  5
A09
330
675
100
AcDbEntity
  8
AM_5
 62
     0
370
    -2
100
AcDbLine
 10
20.00000000003217
 20
1.0
 30
0.0
 11
20.00000000003217
 21
21.35007665490269
 31
0.0
  0
LINE
  5
A0A
330
675
100
AcDbEntity
  8
AM_5
 62
     0
370
    -2
100
AcDbLine
 10
0.0000000000000001
 20
1.0
 30
0.0
 11
0.0000000000000013
 21
21.35007665490269
 31
0.0
  0
LINE
  5
A0B
330
675
100
AcDbEntity
  8
AM_5
 62
     0
370
    -2
100
AcDbLine
 10
17.00000000003217
 20
19.35007665490269
 30
0.0
 11
3.000000000000001
 21
19.35007665490269
 31
0.0
  0
SOLID
  5
A0C
330
675
100
AcDbEntity
  8
AM_5
 62
     0
100
AcDbTrace
 10
17.00000000003217
 20
19.85007665490269
 30
0.0
 11
17.00000000003217
 21
18.85007665490269
 31
0.0
 12
20.00000000003217
 22
19.35007665490269
 32
0.0
 13
20.00000000003217
 23
19.35007665490269
 33
0.0
  0
SOLID
  5
A0D
330
675
100
AcDbEntity
  8
AM_5
 62
     0
100
AcDbTrace
 10
3.000000000000001
 20
19.85007665490269
 30
0.0
 11
3.000000000000001
 21
18.85007665490269
 31
0.0
 12
0.0000000000000012
 22
19.35007665490269
 32
0.0
 13
0.0000000000000012
 23
19.35007665490269
 33
0.0
  0
MTEXT
  5
A0E
330
675
100
AcDbEntity
  8
AM_5
 62
     0
100
AcDbMText
 10
10.00000000001609
 20
21.94007665490269
 30
0.0
 40
5.0
 41
0.0
 71
     5
 72
     1
  1
\A1;20
 73
     1
 44
1.0
  0
POINT
  5
A0F
330
675
100
AcDbEntity
  8
DEFPOINTS
 62
     0
100
AcDbPoint
 10
20.00000000003217
 20
0.0
 30
0.0
  0
POINT
  5
A10
330
675
100
AcDbEntity
  8
DEFPOINTS
 62
     0
100
AcDbPoint
 10
0.0
 20
0.0
 30
0.0
  0
POINT
  5
A11
330
675
100
AcDbEntity
  8
DEFPOINTS
 62
     0
100
AcDbPoint
 10
0.0000000000000012
 20
19.35007665490269
 30
0.0
  0
ENDBLK
  5
681
330
675
100
AcDbEntity
  8
0
100
AcDbBlockEnd
  0
BLOCK
  5
701
330
6F7
100
AcDbEntity
  8
0
100
AcDbBlockBegin
  2
*D10
 70
     1
 71
     0
 10
0.0
 20
0.0
 30
0.0
  3
*D10
  1

  0
LINE
  5
A12
330
6F7
100
AcDbEntity
  8
AM_5
 62
     0
370
    -2
100
AcDbLine
 10
74.29016113284467
 20
-15.0000000306581
 30
0.0
 11
91.20184321722002
 21
-15.00000003065811
 31
0.0
  0
LINE
  5
A13
330
6F7
100
AcDbEntity
  8
AM_5
 62
     0
370
    -2
100
AcDbLine
 10
74.29016113284467
 20
2.999999969341914
 30
0.0
 11
91.20184321722002
 21
2.999999969341909
 31
0.0
  0
LINE
  5
A14
330
6F7
100
AcDbEntity
  8
AM_5
 62
     0
370
    -2
100
AcDbLine
 10
89.20184321722002
 20
-0.0000000306580901
 30
0.0
 11
89.20184321722002
 21
-12.00000003065811
 31
0.0
  0
LINE
  5
A15
330
6F7
100
AcDbEntity
  8
AM_5
 62
     0
370
    -2
100
AcDbLine
 10
89.20184321722002
 20
-15.00000003065811
 30
0.0
 11
89.20184321722002
 21
-27.97132351346365
 31
0.0
  0
SOLID
  5
A16
330
6F7
100
AcDbEntity
  8
AM_5
 62
     0
100
AcDbTrace
 10
88.70184321722002
 20
-0.00000003065809
 30
0.0
 11
89.70184321722002
 21
-0.0000000306580902
 31
0.0
 12
89.20184321722002
 22
2.99999996934191
 32
0.0
 13
89.20184321722002
 23
2.99999996934191
 33
0.0
  0
SOLID
  5
A17
330
6F7
100
AcDbEntity
  8
AM_5
 62
     0
100
AcDbTrace
 10
88.70184321722002
 20
-12.00000003065811
 30
0.0
 11
89.70184321722002
 21
-12.00000003065811
 31
0.0
 12
89.20184321722002
 22
-15.00000003065811
 32
0.0
 13
89.20184321722002
 23
-15.00000003065811
 33
0.0
  0
MTEXT
  5
A18
330
6F7
100
AcDbEntity
  8
AM_5
 62
     0
100
AcDbMText
 10
86.61184321722001
 20
-24.5479901801303
 30
0.0
 40
5.0
 41
0.0
 71
     5
 72
     1
  1
\A1;18
 11
6.123031769111886E-17
 21
1.0
 31
0.0
 73
     1
 44
1.0
  0
POINT
  5
A19
330
6F7
100
AcDbEntity
  8
DEFPOINTS
 62
     0
100
AcDbPoint
 10
73.29016113284467
 20
-15.0000000306581
 30
0.0
  0
POINT
  5
A1A
330
6F7
100
AcDbEntity
  8
DEFPOINTS
 62
     0
100
AcDbPoint
 10
73.29016113284467
 20
2.999999969341914
 30
0.0
  0
POINT
  5
A1B
330
6F7
100
AcDbEntity
  8
DEFPOINTS
 62
     0
100
AcDbPoint
 10
89.20184321722002
 20
2.99999996934191
 30
0.0
  0
ENDBLK
  5
702
330
6F7
100
AcDbEntity
  8
0
100
AcDbBlockEnd
  0
BLOCK
  5
733
330
729
100
AcDbEntity
  8
0
100
AcDbBlockBegin
  2
*D11
 70
     1
 71
     0
 10
0.0
 20
0.0
 30
0.0
  3
*D11
  1

  0
LINE
  5
A1C
330
729
100
AcDbEntity
  8
AM_5
 62
     0
370
    -2
100
AcDbLine
 10
120.0000028648125
 20
63.10590752667581
 30
0.0
 11
120.0000028648125
 21
41.87763148803646
 31
0.0
  0
LINE
  5
A1D
330
729
100
AcDbEntity
  8
AM_5
 62
     0
370
    -2
100
AcDbLine
 10
0.0000000000321733
 20
68.99999999914422
 30
0.0
 11
0.0000000000321717
 21
41.87763148803646
 31
0.0
  0
LINE
  5
A1E
330
729
100
AcDbEntity
  8
AM_5
 62
     0
370
    -2
100
AcDbLine
 10
117.0000028648125
 20
43.87763148803646
 30
0.0
 11
3.000000000032172
 21
43.87763148803646
 31
0.0
  0
SOLID
  5
A1F
330
729
100
AcDbEntity
  8
AM_5
 62
     0
100
AcDbTrace
 10
117.0000028648125
 20
44.37763148803646
 30
0.0
 11
117.0000028648125
 21
43.37763148803646
 31
0.0
 12
120.0000028648125
 22
43.87763148803646
 32
0.0
 13
120.0000028648125
 23
43.87763148803646
 33
0.0
  0
SOLID
  5
A20
330
729
100
AcDbEntity
  8
AM_5
 62
     0
100
AcDbTrace
 10
3.000000000032172
 20
44.37763148803646
 30
0.0
 11
3.000000000032172
 21
43.37763148803646
 31
0.0
 12
0.0000000000321718
 22
43.87763148803646
 32
0.0
 13
0.0000000000321718
 23
43.87763148803646
 33
0.0
  0
MTEXT
  5
A21
330
729
100
AcDbEntity
  8
AM_5
 62
     0
100
AcDbMText
 10
60.00000143242232
 20
46.46763148803646
 30
0.0
 40
5.0
 41
0.0
 71
     5
 72
     1
  1
\A1;120
 73
     1
 44
1.0
  0
POINT
  5
A22
330
729
100
AcDbEntity
  8
DEFPOINTS
 62
     0
100
AcDbPoint
 10
120.0000028648125
 20
64.10590752667581
 30
0.0
  0
POINT
  5
A23
330
729
100
AcDbEntity
  8
DEFPOINTS
 62
     0
100
AcDbPoint
 10
0.0000000000321734
 20
69.99999999914422
 30
0.0
  0
POINT
  5
A24
330
729
100
AcDbEntity
  8
DEFPOINTS
 62
     0
100
AcDbPoint
 10
0.0000000000321718
 20
43.87763148803646
 30
0.0
  0
ENDBLK
  5
734
330
729
100
AcDbEntity
  8
0
100
AcDbBlockEnd
  0
BLOCK
  5
744
330
743
100
AcDbEntity
  8
0
100
AcDbBlockBegin
  2
_Open30
 70
     0
 71
     0
 10
0.0
 20
0.0
 30
0.0
  3
_Open30
  1

  0
LINE
  5
745
330
743
100
AcDbEntity
  8
0
  6
ByBlock
 62
     0
370
    -2
100
AcDbLine
 10
-1.0
 20
0.26794919
 30
0.0
 11
0.0
 21
0.0
 31
0.0
  0
LINE
  5
746
330
743
100
AcDbEntity
  8
0
  6
ByBlock
 62
     0
370
    -2
100
AcDbLine
 10
0.0
 20
0.0
 30
0.0
 11
-1.0
 21
-0.26794919
 31
0.0
  0
LINE
  5
747
330
743
100
AcDbEntity
  8
0
  6
ByBlock
 62
     0
370
    -2
100
AcDbLine
 10
0.0
 20
0.0
 30
0.0
 11
-1.0
 21
0.0
 31
0.0
  0
ENDBLK
  5
748
330
743
100
AcDbEntity
  8
0
100
AcDbBlockEnd
  0
BLOCK
  5
79F
330
795
100
AcDbEntity
  8
0
100
AcDbBlockBegin
  2
*D13
 70
     1
 71
     0
 10
0.0
 20
0.0
 30
0.0
  3
*D13
  1

  0
LINE
  5
A25
330
795
100
AcDbEntity
  8
AM_5
 62
     0
370
    -2
100
AcDbLine
 10
82.29016399759286
 20
-5.000000000855778
 30
0.0
 11
82.29016399759286
 21
23.05249018945386
 31
0.0
  0
LINE
  5
A26
330
795
100
AcDbEntity
  8
AM_5
 62
     0
370
    -2
100
AcDbLine
 10
64.29016399759286
 20
-5.000000030658086
 30
0.0
 11
64.29016399759286
 21
23.05249018945386
 31
0.0
  0
LINE
  5
A27
330
795
100
AcDbEntity
  8
AM_5
 62
     0
370
    -2
100
AcDbLine
 10
79.29016399759286
 20
21.05249018945386
 30
0.0
 11
67.29016399759286
 21
21.05249018945386
 31
0.0
  0
SOLID
  5
A28
330
795
100
AcDbEntity
  8
AM_5
 62
     0
100
AcDbTrace
 10
79.29016399759286
 20
21.55249018945386
 30
0.0
 11
79.29016399759286
 21
20.55249018945386
 31
0.0
 12
82.29016399759286
 22
21.05249018945386
 32
0.0
 13
82.29016399759286
 23
21.05249018945386
 33
0.0
  0
SOLID
  5
A29
330
795
100
AcDbEntity
  8
AM_5
 62
     0
100
AcDbTrace
 10
67.29016399759286
 20
21.55249018945386
 30
0.0
 11
67.29016399759286
 21
20.55249018945386
 31
0.0
 12
64.29016399759286
 22
21.05249018945386
 32
0.0
 13
64.29016399759286
 23
21.05249018945386
 33
0.0
  0
MTEXT
  5
A2A
330
795
100
AcDbEntity
  8
AM_5
 62
     0
100
AcDbMText
 10
73.29016399759286
 20
23.64249018945386
 30
0.0
 40
5.0
 41
0.0
 71
     5
 72
     1
  1
\A1;18
 73
     1
 44
1.0
  0
POINT
  5
A2B
330
795
100
AcDbEntity
  8
DEFPOINTS
 62
     0
100
AcDbPoint
 10
82.29016399759286
 20
-6.000000000855778
 30
0.0
  0
POINT
  5
A2C
330
795
100
AcDbEntity
  8
DEFPOINTS
 62
     0
100
AcDbPoint
 10
64.29016399759286
 20
-6.000000030658086
 30
0.0
  0
POINT
  5
A2D
330
795
100
AcDbEntity
  8
DEFPOINTS
 62
     0
100
AcDbPoint
 10
64.29016399759286
 20
21.05249018945386
 30
0.0
  0
ENDBLK
  5
7A0
330
795
100
AcDbEntity
  8
0
100
AcDbBlockEnd
  0
ENDSEC
  0
SECTION
  2
ENTITIES
  0
LINE
  5
1E0
330
22
100
AcDbEntity
  8
1
  6
CENTER
100
AcDbLine
 10
22.49016189578413
 20
-6.000000000855778
 30
0.0
 11
121.9901580810869
 21
-6.000000000855792
 31
0.0
  0
LINE
  5
1E1
330
22
100
AcDbEntity
  8
1
  6
CENTER
100
AcDbLine
 10
73.29016113284467
 20
5.432118891813914
 30
0.0
 11
73.29016113284467
 21
-17.5689620980238
 31
0.0
  0
LINE
  5
1E2
330
22
100
AcDbEntity
  8
1
  6
Continuous
 62
     3
100
AcDbLine
 10
0.0
 20
0.0
 30
0.0
 11
20.00000000003217
 21
0.0
 31
0.0
  0
LINE
  5
1E3
330
22
100
AcDbEntity
  8
1
  6
Continuous
100
AcDbLine
 10
22.50000061889296
 20
2.5
 30
0.0
 11
23.00000058823491
 21
2.999999969341928
 31
0.0
  0
LINE
  5
1E4
330
22
100
AcDbEntity
  8
1
  6
Continuous
100
AcDbLine
 10
22.50000190738081
 20
-14.50000000085578
 30
0.0
 11
22.50000190738081
 21
2.499999999144222
 31
0.0
  0
LINE
  5
1E5
330
22
100
AcDbEntity
  8
1
  6
Continuous
100
AcDbLine
 10
23.00000064955106
 20
-15.00000003065809
 30
0.0
 11
22.50000061889296
 21
-14.49999999999999
 31
0.0
  0
LINE
  5
1E6
330
22
100
AcDbEntity
  8
1
  6
Continuous
100
AcDbLine
 10
22.50000095743178
 20
2.5
 30
0.0
 11
21.81742810687018
 21
2.5
 31
0.0
  0
ARC
  5
1E7
330
22
100
AcDbEntity
  8
1
  6
Continuous
100
AcDbCircle
 10
20.32055138504649
 20
-18.99999999999999
 30
0.0
 40
5.0
100
AcDbArc
 50
64.15806723683291
 51
90.0
  0
LINE
  5
1E8
330
22
100
AcDbEntity
  8
1
  6
Continuous
100
AcDbLine
 10
2.429439061791754
 20
-13.99999999999999
 30
0.0
 11
20.32055138504649
 21
-13.99999999999999
 31
0.0
  0
POLYLINE
  5
1E9
330
22
100
AcDbEntity
  8
1
  6
Continuous
100
AcDb2dPolyline
 66
     1
 10
0.0
 20
0.0
 30
0.0
  0
VERTEX
  5
1EA
330
1E9
100
AcDbEntity
  8
1
  6
Continuous
100
AcDbVertex
100
AcDb2dVertex
 10
10.48245063355648
 20
-13.99999999999999
 30
0.0
  0
VERTEX
  5
1EB
330
1E9
100
AcDbEntity
  8
1
  6
Continuous
100
AcDbVertex
100
AcDb2dVertex
 10
11.54469329634816
 20
-12.75734751088986
 30
0.0
  0
VERTEX
  5
1EC
330
1E9
100
AcDbEntity
  8
1
  6
Continuous
100
AcDbVertex
100
AcDb2dVertex
 10
12.38528358222982
 20
-10.88097599095107
 30
0.0
  0
VERTEX
  5
1ED
330
1E9
100
AcDbEntity
  8
1
  6
Continuous
100
AcDbVertex
100
AcDb2dVertex
 10
12.92046526076626
 20
-8.560809967897981
 30
0.0
  0
VERTEX
  5
1EE
330
1E9
100
AcDbEntity
  8
1
  6
Continuous
100
AcDbVertex
100
AcDb2dVertex
 10
13.1035073973228
 20
-6.000000030658072
 30
0.0
  0
VERTEX
  5
1EF
330
1E9
100
AcDbEntity
  8
1
  6
Continuous
100
AcDbVertex
100
AcDb2dVertex
 10
13.05493890675109
 20
-4.665490852337484
 30
0.0
  0
VERTEX
  5
1F0
330
1E9
100
AcDbEntity
  8
1
  6
Continuous
100
AcDbVertex
100
AcDb2dVertex
 10
12.91010790281177
 20
-3.369847174992287
 30
0.0
  0
VERTEX
  5
1F1
330
1E9
100
AcDbEntity
  8
1
  6
Continuous
100
AcDbVertex
100
AcDb2dVertex
 10
12.67180459165115
 20
-2.138387561684851
 30
0.0
  0
VERTEX
  5
1F2
330
1E9
100
AcDbEntity
  8
1
  6
Continuous
100
AcDbVertex
100
AcDb2dVertex
 10
12.34557151113665
 20
-1.000000000855778
 30
0.0
  0
SEQEND
  5
1F3
330
1E9
100
AcDbEntity
  8
1
  0
LINE
  5
1F4
330
22
100
AcDbEntity
  8
1
  6
Continuous
100
AcDbLine
 10
9.0
 20
-13.25013402189957
 30
0.0
 11
9.0
 21
-1.716893121924272
 31
0.0
  0
LINE
  5
1F7
330
22
100
AcDbEntity
  8
1
  6
Continuous
100
AcDbLine
 10
120.0000000000322
 20
2.524999969341891
 30
0.0
 11
120.0000000000322
 21
-14.52500003065809
 31
0.0
  0
LINE
  5
1F8
330
22
100
AcDbEntity
  8
1
  6
Continuous
100
AcDbLine
 10
119.0000000000322
 20
2.999999969341914
 30
0.0
 11
119.0000000000322
 21
-2.877500564715703
 31
0.0
  0
LINE
  5
1F9
330
22
100
AcDbEntity
  8
1
  6
Continuous
100
AcDbLine
 10
119.0000000000322
 20
-9.122499019763296
 30
0.0
 11
119.0000000000322
 21
-15.0000000306581
 31
0.0
  0
INSERT
  5
202
330
22
100
AcDbEntity
  8
1
  6
Continuous
100
AcDbBlockReference
  2
MARK4_2
 10
4.150602817567574
 20
-3.444563628098791
 30
0.0
 41
3.0
 42
3.0
 50
297.0000000000001
  0
ARC
  5
209
330
22
100
AcDbEntity
  8
1
  6
Continuous
100
AcDbCircle
 10
73.29016399759286
 20
-6.000000030658072
 30
0.0
 40
9.525
100
AcDbArc
 50
19.11173213719897
 51
70.88826786280094
  0
ARC
  5
20A
330
22
100
AcDbEntity
  8
1
  6
Continuous
100
AcDbCircle
 10
73.29016399759286
 20
-6.000000030658072
 30
0.0
 40
9.525000000000006
100
AcDbArc
 50
109.111732137199
 51
160.888267862801
  0
ARC
  5
20B
330
22
100
AcDbEntity
  8
1
  6
Continuous
100
AcDbCircle
 10
73.29016399759286
 20
-6.000000030658072
 30
0.0
 40
9.525
100
AcDbArc
 50
199.111732137199
 51
250.8882678628009
  0
ARC
  5
20C
330
22
100
AcDbEntity
  8
1
  6
Continuous
100
AcDbCircle
 10
73.29016399759286
 20
-6.000000030658072
 30
0.0
 40
9.525000000000006
100
AcDbArc
 50
289.1117321371991
 51
340.8882678628009
  0
LINE
  5
20D
330
22
100
AcDbEntity
  8
1
  6
Continuous
100
AcDbLine
 10
64.29016399759286
 20
-2.881406597714289
 30
0.0
 11
64.29016399759286
 21
-9.118593463601883
 31
0.0
  0
LINE
  5
20E
330
22
100
AcDbEntity
  8
1
  6
Continuous
100
AcDbLine
 10
82.29016399759286
 20
-2.881406597714289
 30
0.0
 11
82.29016399759286
 21
-9.118593463601883
 31
0.0
  0
LINE
  5
20F
330
22
100
AcDbEntity
  8
1
  6
Continuous
100
AcDbLine
 10
23.00000058823491
 20
2.999999969341928
 30
0.0
 11
119.5250000000322
 21
2.999999969341914
 31
0.0
  0
LINE
  5
210
330
22
100
AcDbEntity
  8
1
  6
Continuous
100
AcDbLine
 10
23.00000064955106
 20
-15.00000003065809
 30
0.0
 11
119.5250000000322
 21
-15.0000000306581
 31
0.0
  0
LINE
  5
212
330
22
100
AcDbEntity
  8
1
  6
Continuous
100
AcDbLine
 10
23.52500064955109
 20
-2.881406597714289
 30
0.0
 11
119.0000000000322
 21
-2.881406597714303
 31
0.0
  0
LINE
  5
213
330
22
100
AcDbEntity
  8
1
  6
Continuous
100
AcDbLine
 10
23.52500064955109
 20
-9.118593463601869
 30
0.0
 11
119.0000000000322
 21
-9.118593463601883
 31
0.0
  0
LINE
  5
214
330
22
100
AcDbEntity
  8
1
  6
PHANTOM
100
AcDbLine
 10
22.4901609458351
 20
3.524999969341906
 30
0.0
 11
119.0000000000322
 21
3.524999969341891
 31
0.0
  0
LINE
  5
215
330
22
100
AcDbEntity
  8
1
  6
PHANTOM
100
AcDbLine
 10
22.4901609458351
 20
-15.52500003065808
 30
0.0
 11
119.0000000000322
 21
-15.52500003065809
 31
0.0
  0
LINE
  5
216
330
22
100
AcDbEntity
  8
1
  6
Continuous
100
AcDbLine
 10
119.5250000000322
 20
2.999999969341914
 30
0.0
 11
120.0000000000322
 21
2.524999969341891
 31
0.0
  0
LINE
  5
217
330
22
100
AcDbEntity
  8
1
  6
Continuous
100
AcDbLine
 10
120.0000000000322
 20
-14.52500003065809
 30
0.0
 11
119.5250000000322
 21
-15.0000000306581
 31
0.0
  0
ARC
  5
218
330
22
100
AcDbEntity
  8
1
  6
Continuous
100
AcDbCircle
 10
110.0000000000323
 20
-6.000000030658086
 30
0.0
 40
9.524999999999906
100
AcDbArc
 50
340.8882678628008
 51
19.11173213719913
  0
LINE
  5
21A
330
22
100
AcDbEntity
  8
1
  6
Continuous
100
AcDbLine
 10
23.52500064955109
 20
-15.00000003065809
 30
0.0
 11
23.52500064955109
 21
-9.118593463601869
 31
0.0
  0
LINE
  5
21B
330
22
100
AcDbEntity
  8
1
  6
Continuous
100
AcDbLine
 10
23.52500064955109
 20
-2.881406597714289
 30
0.0
 11
23.52500064955109
 21
2.999999969341928
 31
0.0
  0
ARC
  5
21C
330
22
100
AcDbEntity
  8
1
  6
Continuous
100
AcDbCircle
 10
32.5250006495512
 20
-6.000000030658072
 30
0.0
 40
9.525000000000034
100
AcDbArc
 50
160.8882678628011
 51
199.1117321371989
  0
LINE
  5
21E
330
22
100
AcDbEntity
  8
1
  6
Continuous
100
AcDbLine
 10
0.8555173240888507
 20
-6.440044520364779
 30
0.0
 11
1.429439061791754
 21
-12.99999999999999
 31
0.0
  0
LINE
  5
21F
330
22
100
AcDbEntity
  8
1
  6
Continuous
100
AcDbLine
 10
7.874015073858004
 20
-0.9809734913144723
 30
0.0
 11
6.440044520397009
 21
-0.8555173240566774
 31
0.0
  0
LINE
  5
220
330
22
100
AcDbEntity
  8
1
  6
Continuous
100
AcDbLine
 10
8.309793787596277
 20
-1.000000000855778
 30
0.0
 11
16.9999999988911
 21
-1.000000000855778
 31
0.0
  0
LINE
  5
221
330
22
100
AcDbEntity
  8
1
  6
Continuous
100
AcDbLine
 10
21.53153893407438
 20
1.88690869044072
 30
0.0
 11
21.81742810687018
 21
2.5
 31
0.0
  0
ARC
  5
222
330
22
100
AcDbEntity
  8
1
  6
Continuous
100
AcDbCircle
 10
16.9999999988911
 20
3.999999999144222
 30
0.0
 40
4.999999999999999
100
AcDbArc
 50
270.0
 51
335.0
  0
ARC
  5
223
330
22
100
AcDbEntity
  8
1
  6
Continuous
100
AcDbCircle
 10
8.309793787596277
 20
3.999999999144222
 30
0.0
 40
5.000000000000001
100
AcDbArc
 50
265.0
 51
270.0
  0
LINE
  5
224
330
22
100
AcDbEntity
  8
1
  6
Continuous
100
AcDbLine
 10
6.857676750315022
 20
-6.965165426834773
 30
0.0
 11
0.6349861503110788
 21
-6.420750542705065
 31
0.0
  0
LINE
  5
225
330
22
100
AcDbEntity
  8
1
  6
Continuous
100
AcDbLine
 10
6.965165426866975
 20
-6.857676750282764
 30
0.0
 11
6.420750542737324
 21
-0.6349861502788485
 31
0.0
  0
LINE
  5
226
330
22
100
AcDbEntity
  8
1
  6
Continuous
100
AcDbLine
 10
6.330556833886817
 20
-0.5447924414283705
 30
0.0
 11
0.1078662338829872
 21
-0.000377557298691
 31
0.0
  0
LINE
  5
227
330
22
100
AcDbEntity
  8
1
  6
Continuous
100
AcDbLine
 10
0.0003775573308076
 20
-0.1078662338506717
 30
0.0
 11
0.5447924414605723
 21
-6.330556833854558
 31
0.0
  0
CIRCLE
  5
228
330
22
100
AcDbEntity
  8
1
  6
Continuous
100
AcDbCircle
 10
3.482771492099005
 20
-3.482771492066775
 30
0.0
 40
1.875
  0
ARC
  5
229
330
22
100
AcDbEntity
  8
1
  6
Continuous
100
AcDbCircle
 10
0.0992187500321506
 20
-0.0992187499999773
 30
0.0
 40
0.0992187500000001
100
AcDbArc
 50
84.99999999999977
 51
185.0
  0
ARC
  5
22A
330
22
100
AcDbEntity
  8
1
  6
Continuous
100
AcDbCircle
 10
6.321909350036094
 20
-0.6436336341295714
 30
0.0
 40
0.0992187499999993
100
AcDbArc
 50
4.999999999999503
 51
84.99999999999994
  0
ARC
  5
22B
330
22
100
AcDbEntity
  8
1
  6
Continuous
100
AcDbCircle
 10
6.866324234165631
 20
-6.866324234133487
 30
0.0
 40
0.0992187499999998
100
AcDbArc
 50
265.0
 51
4.999999999999982
  0
ARC
  5
22C
330
22
100
AcDbEntity
  8
1
  6
Continuous
100
AcDbCircle
 10
0.6436336341618016
 20
-6.321909350003892
 30
0.0
 40
0.0992187500000002
100
AcDbArc
 50
185.0000000000005
 51
264.9999999999993
  0
INSERT
  5
22D
330
22
100
AcDbEntity
  8
1
  6
Continuous
100
AcDbBlockReference
  2
LRIS-25-1_0001
 10
3.53580462940738
 20
-3.535804629375093
 30
0.0
  0
LINE
  5
22E
330
22
100
AcDbEntity
  8
1
  6
Continuous
100
AcDbLine
 10
1.429439061791754
 20
-12.99999999999999
 30
0.0
 11
2.429439061791754
 21
-13.99999999999999
 31
0.0
  0
ARC
  5
22F
330
22
100
AcDbEntity
  8
1
  6
Continuous
100
AcDbCircle
 10
6.227843094776404
 20
-6.227843094744173
 30
0.0
 40
1.500000000000587
100
AcDbArc
 50
224.9999999999999
 51
45.00000000000009
  0
LINE
  5
230
330
22
100
AcDbEntity
  8
1
  6
Continuous
100
AcDbLine
 10
6.772085698352498
 20
-4.650765354759869
 30
0.0
 11
7.288503266556631
 21
-5.167182922963889
 31
0.0
  0
LINE
  5
231
330
22
100
AcDbEntity
  8
1
  6
Continuous
100
AcDbLine
 10
5.167182922996176
 20
-7.288503266524373
 30
0.0
 11
4.650765354792043
 21
-6.772085698320382
 31
0.0
  0
LINE
  5
234
330
22
100
AcDbEntity
  8
2
  6
Continuous
100
AcDbLine
 10
6.402783393892037
 20
70.30000001106512
 30
0.0
 11
8.362929344209533
 21
70.30000001106512
 31
0.0
  0
LINE
  5
235
330
22
100
AcDbEntity
  8
2
  6
Continuous
100
AcDbLine
 10
0.0000000000643468
 20
69.99999999914422
 30
0.0
 11
6.965542793306099
 21
69.99999999914422
 31
0.0
  0
LINE
  5
236
330
22
100
AcDbEntity
  8
2
  6
CENTER
100
AcDbLine
 10
3.480012893708931
 20
68.75899302873864
 30
0.0
 11
3.480012893708931
 21
80.45320987615841
 31
0.0
  0
LINE
  5
237
330
22
100
AcDbEntity
  8
2
  6
Continuous
100
AcDbLine
 10
22.50000095746401
 20
61.49999999914422
 30
0.0
 11
13.10350739735497
 21
61.49999999914422
 31
0.0
  0
LINE
  5
238
330
22
100
AcDbEntity
  8
2
  6
CENTER
100
AcDbLine
 10
121.9901609458673
 20
69.99999999914421
 30
0.0
 11
19.99016094586727
 21
69.99999999914422
 31
0.0
  0
LINE
  5
239
330
22
100
AcDbEntity
  8
2
  6
Continuous
100
AcDbLine
 10
22.50000095746401
 20
78.49999999914422
 30
0.0
 11
0.3200907476727934
 21
78.49999999914422
 31
0.0
  0
LINE
  5
244
330
22
100
AcDbEntity
  8
2
  6
Continuous
100
AcDbLine
 10
0.3200907476727934
 20
72.37999999914422
 30
0.0
 11
6.250011986480104
 21
72.37999999914422
 31
0.0
  0
LINE
  5
245
330
22
100
AcDbEntity
  8
2
  6
Continuous
100
AcDbLine
 10
13.10350739735497
 20
61.49999999914422
 30
0.0
 11
9.26923752626135
 21
69.72261827280579
 31
0.0
  0
ARC
  5
246
330
22
100
AcDbEntity
  8
2
  6
Continuous
100
AcDbCircle
 10
8.362929739224683
 20
69.30000001106512
 30
0.0
 40
1.0
100
AcDbArc
 50
25.00000000000015
 51
90.0
  0
LINE
  5
247
330
22
100
AcDbEntity
  8
2
  6
Continuous
100
AcDbLine
 10
22.5000005979735
 20
78.49999999914422
 30
0.0
 11
23.0000005979735
 21
78.99999999914422
 31
0.0
  0
LINE
  5
248
330
22
100
AcDbEntity
  8
2
  6
Continuous
100
AcDbLine
 10
22.50000095746401
 20
78.49999999914422
 30
0.0
 11
22.50000095746401
 21
61.49999999914422
 31
0.0
  0
LINE
  5
249
330
22
100
AcDbEntity
  8
2
  6
Continuous
100
AcDbLine
 10
23.0000005979735
 20
60.99999999914422
 30
0.0
 11
22.5000005979735
 21
61.49999999914422
 31
0.0
  0
LINE
  5
24A
330
22
100
AcDbEntity
  8
2
  6
Continuous
100
AcDbLine
 10
0.0000000000321734
 20
69.99999999914422
 30
0.0
 11
0.3297497801726195
 21
72.37999999914422
 31
0.0
  0
LINE
  5
24B
330
22
100
AcDbEntity
  8
2
  6
Continuous
100
AcDbLine
 10
120.0000028648125
 20
78.52499999914421
 30
0.0
 11
120.0000028648125
 21
61.4749999991442
 31
0.0
  0
LINE
  5
24C
330
22
100
AcDbEntity
  8
2
  6
Continuous
100
AcDbLine
 10
119.0000028648125
 20
78.99999999914421
 30
0.0
 11
119.0000028648125
 21
73.1224989882494
 31
0.0
  0
LINE
  5
24D
330
22
100
AcDbEntity
  8
2
  6
Continuous
100
AcDbLine
 10
119.0000028648125
 20
66.87750101003901
 30
0.0
 11
119.0000028648125
 21
60.99999999914421
 31
0.0
  0
LINE
  5
24E
330
22
100
AcDbEntity
  8
2
  6
Continuous
100
AcDbLine
 10
119.0000028648125
 20
66.8814065662004
 30
0.0
 11
23.52500059797353
 21
66.88140656620041
 31
0.0
  0
LINE
  5
24F
330
22
100
AcDbEntity
  8
2
  6
Continuous
100
AcDbLine
 10
119.0000028648125
 20
73.11859343208802
 30
0.0
 11
23.52500059797353
 21
73.11859343208803
 31
0.0
  0
LINE
  5
250
330
22
100
AcDbEntity
  8
2
  6
Continuous
100
AcDbLine
 10
23.52500059797353
 20
60.99999999914422
 30
0.0
 11
23.52500059797353
 21
66.88140656620041
 31
0.0
  0
LINE
  5
251
330
22
100
AcDbEntity
  8
2
  6
Continuous
100
AcDbLine
 10
23.52500059797353
 20
73.11859343208803
 30
0.0
 11
23.52500059797353
 21
78.99999999914422
 31
0.0
  0
LINE
  5
252
330
22
100
AcDbEntity
  8
2
  6
Continuous
100
AcDbLine
 10
119.5250028648125
 20
78.99999999914421
 30
0.0
 11
120.0000028648125
 21
78.52499999914421
 31
0.0
  0
LINE
  5
253
330
22
100
AcDbEntity
  8
2
  6
Continuous
100
AcDbLine
 10
120.0000028648125
 20
61.4749999991442
 30
0.0
 11
119.5250028648125
 21
60.99999999914421
 31
0.0
  0
LINE
  5
254
330
22
100
AcDbEntity
  8
2
  6
Continuous
100
AcDbLine
 10
119.5250028648125
 20
78.99999999914421
 30
0.0
 11
23.0000005979735
 21
78.99999999914422
 31
0.0
  0
LINE
  5
255
330
22
100
AcDbEntity
  8
2
  6
Continuous
100
AcDbLine
 10
119.5250028648125
 20
60.99999999914421
 30
0.0
 11
23.0000005979735
 21
60.99999999914422
 31
0.0
  0
ARC
  5
256
330
22
100
AcDbEntity
  8
2
  6
Continuous
100
AcDbCircle
 10
110.0000028648127
 20
69.99999999914422
 30
0.0
 40
9.524999999999906
100
AcDbArc
 50
340.8882678628008
 51
19.11173213719913
  0
ARC
  5
257
330
22
100
AcDbEntity
  8
2
  6
Continuous
100
AcDbCircle
 10
32.52500059797347
 20
69.99999999914422
 30
0.0
 40
9.525000000000034
100
AcDbArc
 50
160.8882678628011
 51
199.1117321371989
  0
LINE
  5
258
330
22
100
AcDbEntity
  8
2
  6
Continuous
100
AcDbLine
 10
6.928707614430891
 20
70.30000001106512
 30
0.0
 11
6.965542984165495
 21
69.99999999914422
 31
0.0
  0
LINE
  5
259
330
22
100
AcDbEntity
  8
2
  6
Continuous
100
AcDbLine
 10
6.121267187278704
 20
72.37999999914422
 30
0.0
 11
6.413494442227602
 21
69.99999999914422
 31
0.0
  0
LINE
  5
25A
330
22
100
AcDbEntity
  8
2
  6
Continuous
100
AcDbLine
 10
6.250011986480104
 20
72.37999999914422
 30
0.0
 11
6.250011986480104
 21
71.57999999914424
 31
0.0
  0
LINE
  5
25B
330
22
100
AcDbEntity
  8
2
  6
Continuous
100
AcDbLine
 10
6.402783239236783
 20
70.30000001106512
 30
0.0
 11
6.250011986480104
 21
71.57999999914424
 31
0.0
  0
LINE
  5
25C
330
22
100
AcDbEntity
  8
2
  6
Continuous
100
AcDbLine
 10
0.3200907476727934
 20
78.49999999914422
 30
0.0
 11
0.3200907476727934
 21
72.37999999914422
 31
0.0
  0
LINE
  5
25D
330
22
100
AcDbEntity
  8
2
  6
Continuous
100
AcDbLine
 10
8.091489073053708
 20
76.34093027443433
 30
0.0
 11
8.091489073053708
 21
71.12200031615274
 31
0.0
  0
POLYLINE
  5
25E
330
22
100
AcDbEntity
  8
2
  6
Continuous
100
AcDb2dPolyline
 66
     1
 10
0.0
 20
0.0
 30
0.0
  0
VERTEX
  5
25F
330
25E
100
AcDbEntity
  8
2
  6
Continuous
100
AcDbVertex
100
AcDb2dVertex
 10
21.53153893407438
 20
66.83035162352661
 30
0.0
  0
VERTEX
  5
260
330
25E
100
AcDbEntity
  8
2
  6
Continuous
100
AcDbVertex
100
AcDb2dVertex
 10
21.06761756562685
 20
65.75633855184893
 30
0.0
  0
VERTEX
  5
261
330
25E
100
AcDbEntity
  8
2
  6
Continuous
100
AcDbVertex
100
AcDb2dVertex
 10
20.62182717825357
 20
64.91912760721033
 30
0.0
  0
VERTEX
  5
262
330
25E
100
AcDbEntity
  8
2
  6
Continuous
100
AcDbVertex
100
AcDb2dVertex
 10
20.15969605724661
 20
64.25338372717991
 30
0.0
  0
VERTEX
  5
263
330
25E
100
AcDbEntity
  8
2
  6
Continuous
100
AcDbVertex
100
AcDb2dVertex
 10
19.68649804062528
 20
63.77052040893503
 30
0.0
  0
VERTEX
  5
264
330
25E
100
AcDbEntity
  8
2
  6
Continuous
100
AcDbVertex
100
AcDb2dVertex
 10
19.32221541337736
 20
63.5214100100462
 30
0.0
  0
VERTEX
  5
265
330
25E
100
AcDbEntity
  8
2
  6
Continuous
100
AcDbVertex
100
AcDb2dVertex
 10
18.91067158247211
 20
63.33093955972862
 30
0.0
  0
VERTEX
  5
266
330
25E
100
AcDbEntity
  8
2
  6
Continuous
100
AcDbVertex
100
AcDb2dVertex
 10
18.45241647591877
 20
63.19930526603039
 30
0.0
  0
VERTEX
  5
267
330
25E
100
AcDbEntity
  8
2
  6
Continuous
100
AcDbVertex
100
AcDb2dVertex
 10
17.94618468418918
 20
63.12613647838853
 30
0.0
  0
SEQEND
  5
268
330
25E
100
AcDbEntity
  8
2
  0
POLYLINE
  5
269
330
22
100
AcDbEntity
  8
2
  6
Continuous
100
AcDb2dPolyline
 66
     1
 10
0.0
 20
0.0
 30
0.0
  0
VERTEX
  5
26A
330
269
100
AcDbEntity
  8
2
  6
Continuous
100
AcDbVertex
100
AcDb2dVertex
 10
21.81742809257401
 20
69.99999999914422
 30
0.0
  0
VERTEX
  5
26B
330
269
100
AcDbEntity
  8
2
  6
Continuous
100
AcDbVertex
100
AcDb2dVertex
 10
21.7457496361925
 20
71.61752100759122
 30
0.0
  0
VERTEX
  5
26C
330
269
100
AcDbEntity
  8
2
  6
Continuous
100
AcDbVertex
100
AcDb2dVertex
 10
21.53267294611646
 20
73.16964837476183
 30
0.0
  0
SEQEND
  5
26D
330
269
100
AcDbEntity
  8
2
  0
POLYLINE
  5
26E
330
22
100
AcDbEntity
  8
2
  6
Continuous
100
AcDb2dPolyline
 66
     1
 10
0.0
 20
0.0
 30
0.0
  0
VERTEX
  5
26F
330
26E
100
AcDbEntity
  8
2
  6
Continuous
100
AcDbVertex
100
AcDb2dVertex
 10
0.3200907476727934
 20
76.32375780651684
 30
0.0
  0
VERTEX
  5
270
330
26E
100
AcDbEntity
  8
2
  6
Continuous
100
AcDbVertex
100
AcDb2dVertex
 10
1.253603619461501
 20
76.39622523011191
 30
0.0
  0
VERTEX
  5
271
330
26E
100
AcDbEntity
  8
2
  6
Continuous
100
AcDbVertex
100
AcDb2dVertex
 10
2.19776916449166
 20
76.46765477887142
 30
0.0
  0
VERTEX
  5
272
330
26E
100
AcDbEntity
  8
2
  6
Continuous
100
AcDbVertex
100
AcDb2dVertex
 10
3.152470392099417
 20
76.53803621743866
 30
0.0
  0
VERTEX
  5
273
330
26E
100
AcDbEntity
  8
2
  6
Continuous
100
AcDbVertex
100
AcDb2dVertex
 10
4.117590311620802
 20
76.60735931045666
 30
0.0
  0
VERTEX
  5
274
330
26E
100
AcDbEntity
  8
2
  6
Continuous
100
AcDbVertex
100
AcDb2dVertex
 10
5.09301193239196
 20
76.67561382256865
 30
0.0
  0
VERTEX
  5
275
330
26E
100
AcDbEntity
  8
2
  6
Continuous
100
AcDbVertex
100
AcDb2dVertex
 10
6.078618263749036
 20
76.74278951841771
 30
0.0
  0
VERTEX
  5
276
330
26E
100
AcDbEntity
  8
2
  6
Continuous
100
AcDbVertex
100
AcDb2dVertex
 10
7.074292315027719
 20
76.80887616264715
 30
0.0
  0
VERTEX
  5
277
330
26E
100
AcDbEntity
  8
2
  6
Continuous
100
AcDbVertex
100
AcDb2dVertex
 10
8.079917095564611
 20
76.87386351990003
 30
0.0
  0
SEQEND
  5
278
330
26E
100
AcDbEntity
  8
2
  0
LINE
  5
279
330
22
100
AcDbEntity
  8
2
  6
Continuous
100
AcDbLine
 10
17.94618468418918
 20
63.12613647838853
 30
0.0
 11
12.34522750387816
 21
63.12613647838853
 31
0.0
  0
LINE
  5
27A
330
22
100
AcDbEntity
  8
2
  6
Continuous
100
AcDbLine
 10
17.94618468418918
 20
76.87386351990003
 30
0.0
 11
8.079917095564611
 21
76.87386351990003
 31
0.0
  0
POLYLINE
  5
27B
330
22
100
AcDbEntity
  8
2
  6
Continuous
100
AcDb2dPolyline
 66
     1
 10
0.0
 20
0.0
 30
0.0
  0
VERTEX
  5
27C
330
27B
100
AcDbEntity
  8
2
  6
Continuous
100
AcDbVertex
100
AcDb2dVertex
 10
21.53153893407438
 20
73.16964837476183
 30
0.0
  0
VERTEX
  5
27D
330
27B
100
AcDbEntity
  8
2
  6
Continuous
100
AcDbVertex
100
AcDb2dVertex
 10
21.06761756562685
 20
74.24366144643952
 30
0.0
  0
VERTEX
  5
27E
330
27B
100
AcDbEntity
  8
2
  6
Continuous
100
AcDbVertex
100
AcDb2dVertex
 10
20.62182717825357
 20
75.08087239107812
 30
0.0
  0
VERTEX
  5
27F
330
27B
100
AcDbEntity
  8
2
  6
Continuous
100
AcDbVertex
100
AcDb2dVertex
 10
20.15969605724661
 20
75.74661627110854
 30
0.0
  0
VERTEX
  5
280
330
27B
100
AcDbEntity
  8
2
  6
Continuous
100
AcDbVertex
100
AcDb2dVertex
 10
19.68649804062528
 20
76.22947958935342
 30
0.0
  0
VERTEX
  5
281
330
27B
100
AcDbEntity
  8
2
  6
Continuous
100
AcDbVertex
100
AcDb2dVertex
 10
19.32221541337736
 20
76.47858998824231
 30
0.0
  0
VERTEX
  5
282
330
27B
100
AcDbEntity
  8
2
  6
Continuous
100
AcDbVertex
100
AcDb2dVertex
 10
18.91067158247211
 20
76.66906043855983
 30
0.0
  0
VERTEX
  5
283
330
27B
100
AcDbEntity
  8
2
  6
Continuous
100
AcDbVertex
100
AcDb2dVertex
 10
18.45241647591877
 20
76.80069473225805
 30
0.0
  0
VERTEX
  5
284
330
27B
100
AcDbEntity
  8
2
  6
Continuous
100
AcDbVertex
100
AcDb2dVertex
 10
17.94618468418918
 20
76.87386351990003
 30
0.0
  0
SEQEND
  5
285
330
27B
100
AcDbEntity
  8
2
  0
POLYLINE
  5
286
330
22
100
AcDbEntity
  8
2
  6
Continuous
100
AcDb2dPolyline
 66
     1
 10
0.0
 20
0.0
 30
0.0
  0
VERTEX
  5
287
330
286
100
AcDbEntity
  8
2
  6
Continuous
100
AcDbVertex
100
AcDb2dVertex
 10
21.81742809257401
 20
69.99999999914422
 30
0.0
  0
VERTEX
  5
288
330
286
100
AcDbEntity
  8
2
  6
Continuous
100
AcDbVertex
100
AcDb2dVertex
 10
21.7457496361925
 20
68.38247899069722
 30
0.0
  0
VERTEX
  5
289
330
286
100
AcDbEntity
  8
2
  6
Continuous
100
AcDbVertex
100
AcDb2dVertex
 10
21.53267294611646
 20
66.83035162352661
 30
0.0
  0
SEQEND
  5
28A
330
286
100
AcDbEntity
  8
2
  0
LINE
  5
2FD
330
22
100
AcDbEntity
  8
6
  6
Continuous
100
AcDbLine
 10
-49.99999999996783
 20
-6.965542794129675
 30
0.0
 11
-49.99999999996783
 21
-0.0000000008557777
 31
0.0
  0
LINE
  5
2FE
330
22
100
AcDbEntity
  8
6
  6
Continuous
100
AcDbLine
 10
-50.30000001188876
 20
-6.402783394715669
 30
0.0
 11
-50.30000001188876
 21
-14.00000000085578
 31
0.0
  0
LINE
  5
2FF
330
22
100
AcDbEntity
  8
6
  6
CENTER
100
AcDbLine
 10
-49.42242020365359
 20
-3.535804510972383
 30
0.0
 11
-59.99999999996783
 21
-3.535804510972383
 31
0.0
  0
LINE
  5
300
330
22
100
AcDbEntity
  8
6
  6
CENTER
100
AcDbLine
 10
-49.99999999996783
 20
5.085924624540922
 30
0.0
 11
-49.99999999996783
 21
-17.00000190820435
 31
0.0
  0
CIRCLE
  5
301
330
22
100
AcDbEntity
  8
6
  6
Continuous
100
AcDbCircle
 10
-49.99999999996783
 20
-6.000000030658072
 30
0.0
 40
8.5
  0
LINE
  5
302
330
22
100
AcDbEntity
  8
6
  6
Continuous
100
AcDbLine
 10
-54.81983522771236
 20
-13.00137049488805
 30
0.0
 11
-50.30000001188876
 21
-13.00137049488805
 31
0.0
  0
LINE
  5
303
330
22
100
AcDbEntity
  8
6
  6
Continuous
100
AcDbLine
 10
-52.37999999996782
 20
-6.250011986447873
 30
0.0
 11
-52.37999999996782
 21
-0.2922272558046757
 31
0.0
  0
LINE
  5
304
330
22
100
AcDbEntity
  8
6
  6
CENTER
100
AcDbLine
 10
-62.38348770138384
 20
-6.000000030658072
 30
0.0
 11
-38.99999999996783
 21
-6.000000030658072
 31
0.0
  0
LINE
  5
305
330
22
100
AcDbEntity
  8
6
  6
Continuous
100
AcDbLine
 10
-52.87228132323685
 20
-14.00000003065807
 30
0.0
 11
-47.12771867669881
 21
-14.00000003065807
 31
0.0
  0
ARC
  5
306
330
22
100
AcDbEntity
  8
6
  6
Continuous
100
AcDbCircle
 10
-49.99999999996783
 20
-6.000000030658072
 30
0.0
 40
9.525
100
AcDbArc
 50
19.11173213719897
 51
70.88826786280104
  0
ARC
  5
307
330
22
100
AcDbEntity
  8
6
  6
Continuous
100
AcDbCircle
 10
-49.99999999996783
 20
-6.000000030658072
 30
0.0
 40
9.525
100
AcDbArc
 50
109.111732137199
 51
160.888267862801
  0
ARC
  5
308
330
22
100
AcDbEntity
  8
6
  6
Continuous
100
AcDbCircle
 10
-49.99999999996783
 20
-6.000000030658072
 30
0.0
 40
9.525
100
AcDbArc
 50
199.111732137199
 51
250.888267862801
  0
ARC
  5
309
330
22
100
AcDbEntity
  8
6
  6
Continuous
100
AcDbCircle
 10
-49.99999999996783
 20
-6.000000030658072
 30
0.0
 40
9.525
100
AcDbArc
 50
289.1117321371989
 51
340.8882678628009
  0
LINE
  5
30A
330
22
100
AcDbEntity
  8
6
  6
Continuous
100
AcDbLine
 10
-53.11859343291167
 20
2.999999969341928
 30
0.0
 11
-46.88140656702399
 21
2.999999969341928
 31
0.0
  0
LINE
  5
30B
330
22
100
AcDbEntity
  8
6
  6
Continuous
100
AcDbLine
 10
-53.11859343291167
 20
-15.00000003065807
 30
0.0
 11
-46.88140656702399
 21
-15.00000003065807
 31
0.0
  0
LINE
  5
30C
330
22
100
AcDbEntity
  8
6
  6
Continuous
100
AcDbLine
 10
-40.99999999996783
 20
-2.881406597714289
 30
0.0
 11
-40.99999999996783
 21
-9.118593463601854
 31
0.0
  0
LINE
  5
30D
330
22
100
AcDbEntity
  8
6
  6
Continuous
100
AcDbLine
 10
-58.99999999996783
 20
-2.881406597714289
 30
0.0
 11
-58.99999999996783
 21
-9.118593463601854
 31
0.0
  0
LINE
  5
30E
330
22
100
AcDbEntity
  8
6
  6
Continuous
100
AcDbLine
 10
-56.32365642142929
 20
-0.3200907476405916
 30
0.0
 11
-52.37999999996782
 21
-0.3200907476405916
 31
0.0
  0
LINE
  5
30F
330
22
100
AcDbEntity
  8
6
  6
Continuous
100
AcDbLine
 10
-49.99999999996783
 20
-0.0000000008557777
 30
0.0
 11
-52.37999999996782
 21
-0.2922272558046757
 31
0.0
  0
LINE
  5
310
330
22
100
AcDbEntity
  8
6
  6
Continuous
100
AcDbLine
 10
-49.99999999996783
 20
-1.000000000855778
 30
0.0
 11
-43.12613647921205
 21
-1.000000000855778
 31
0.0
  0
LINE
  5
311
330
22
100
AcDbEntity
  8
6
  6
Continuous
100
AcDbLine
 10
-54.82182542497162
 20
-12.99999999999997
 30
0.0
 11
-50.30000001188876
 21
-12.99999999999997
 31
0.0
  0
LINE
  5
312
330
22
100
AcDbEntity
  8
6
  6
Continuous
100
AcDbLine
 10
-49.99999999996783
 20
-6.965542984133265
 30
0.0
 11
-50.30000001188876
 21
-6.928707614398689
 31
0.0
  0
LINE
  5
313
330
22
100
AcDbEntity
  8
6
  6
Continuous
100
AcDbLine
 10
-52.37999999996782
 20
-6.250011986447873
 30
0.0
 11
-51.57999999996787
 21
-6.250011986447873
 31
0.0
  0
LINE
  5
314
330
22
100
AcDbEntity
  8
6
  6
Continuous
100
AcDbLine
 10
-50.30000001188876
 20
-6.402783239204581
 30
0.0
 11
-51.57999999996787
 21
-6.250011986447873
 31
0.0
  0
DIMENSION
  5
514
330
22
100
AcDbEntity
  8
AM_5
100
AcDbDimension
  2
*D4
 10
-7.786287775448841
 20
69.99999999914422
 30
0.0
 11
-10.37628777544885
 21
77.33999999914423
 31
0.0
 70
    32
 71
     5
 42
-1.0
  3
Standard$0
100
AcDbAlignedDimension
 13
1.9615889923233
 23
69.99999999914422
 33
0.0
 14
1.961588992355473
 24
69.99999999914422
 34
0.0
 50
270.0
100
AcDbRotatedDimension
1001
ACAD
1000
DSTYLE
1002
{
1070
    41
1040
3.0
1070
    42
1040
1.0
1070
    43
1040
5.0
1070
    44
1040
2.0
1070
    46
1040
3.0
1070
    73
1070
     0
1070
    74
1070
     0
1070
    77
1070
     1
1070
    78
1070
     8
1070
   140
1040
5.0
1070
   141
1040
2.0
1070
   145
1040
1.0
1070
   171
1070
     4
1070
   172
1070
     1
1002
}
  0
DIMENSION
  5
551
330
22
100
AcDbEntity
  8
AM_5
100
AcDbDimension
  2
*D5
 10
68.2058466033925
 20
-14.0545230851308
 30
0.0
 11
90.9647489461085
 21
21.99989472580233
 31
0.0
 70
   163
 71
     5
 42
19.05000000000016
  3
Standard$3
100
AcDbDiametricDimension
 15
78.37448139179344
 25
2.054523023814589
 35
0.0
 40
0.0
1001
ACAD
1000
DSTYLE
1002
{
1070
    41
1040
3.0
1070
    42
1040
1.0
1070
    43
1040
5.0
1070
    44
1040
2.0
1070
    46
1040
3.0
1070
    73
1070
     0
1070
    74
1070
     0
1070
    77
1070
     1
1070
    78
1070
     8
1070
   140
1040
5.0
1070
   141
1040
2.0
1070
   145
1040
1.0
1070
   171
1070
     4
1070
   172
1070
     1
1002
}
  0
LINE
  5
599
330
22
100
AcDbEntity
  8
0
100
AcDbLine
 10
0.0
 20
0.0
 30
0.0
 11
0.0000000000321734
 21
-0.9554377519628474
 31
0.0
  0
DIMENSION
  5
5D3
330
22
100
AcDbEntity
  8
AM_5
100
AcDbDimension
  2
*D6
 10
-22.47949213075196
 20
0.0000000000000064
 30
0.0
 11
-25.06949213075196
 21
-3.000000000427883
 31
0.0
 70
    32
 71
     5
 42
6.000000000855772
  3
Standard$0
100
AcDbAlignedDimension
 13
22.75623148716261
 23
-6.000000000855778
 33
0.0
 14
0.0
 24
0.0
 34
0.0
 50
270.0
100
AcDbRotatedDimension
1001
ACAD
1000
DSTYLE
1002
{
1070
    41
1040
3.0
1070
    42
1040
1.0
1070
    43
1040
5.0
1070
    44
1040
2.0
1070
    46
1040
3.0
1070
    73
1070
     0
1070
    74
1070
     0
1070
    77
1070
     1
1070
    78
1070
     8
1070
   140
1040
5.0
1070
   141
1040
2.0
1070
   145
1040
1.0
1070
   171
1070
     4
1070
   172
1070
     1
1002
}
  0
DIMENSION
  5
5F2
330
22
100
AcDbEntity
  8
AM_5
100
AcDbDimension
  2
*D7
 10
0.5447924414605723
 20
-6.330556833854558
 30
0.0
 11
-9.574043293480235
 21
-24.07601360586533
 31
0.0
 70
    34
 71
     5
 42
0.0872664625660571
  3
Standard$2
100
AcDb2LineAngularDimension
 13
0.0
 23
0.0
 33
0.0
 14
0.0000000000321734
 24
-0.9554377519628474
 34
0.0
 15
0.0003775573308076
 25
-0.1078662338506717
 35
0.0
 16
1.63097440678171
 26
-28.10629984177592
 36
0.0
1001
ACAD
1000
DSTYLE
1002
{
1070
    41
1040
3.0
1070
    42
1040
1.0
1070
    43
1040
5.0
1070
    44
1040
2.0
1070
    46
1040
3.0
1070
    73
1070
     0
1070
    74
1070
     0
1070
    77
1070
     1
1070
    78
1070
     8
1070
   140
1040
5.0
1070
   141
1040
2.0
1070
   145
1040
1.0
1070
   171
1070
     4
1070
   172
1070
     1
1002
}
  0
DIMENSION
  5
628
330
22
100
AcDbEntity
  8
AM_5
100
AcDbDimension
  2
*D8
 10
0.1078662338829872
 20
-0.000377557298691
 30
0.0
 11
-15.64109123908179
 21
15.64109123911372
 31
0.0
 70
    34
 71
     5
 42
1.396263401595446
  3
Standard$2
100
AcDb2LineAngularDimension
 13
0.0003775573308076
 23
-0.1078662338506717
 33
0.0
 14
0.5447924414605723
 24
-6.330556833854558
 34
0.0
 15
6.330556833886817
 25
-0.5447924414283705
 35
0.0
 16
-10.25526757582635
 26
16.6201533275673
 36
0.0
1001
ACAD
1000
DSTYLE
1002
{
1070
    41
1040
3.0
1070
    42
1040
1.0
1070
    43
1040
5.0
1070
    44
1040
2.0
1070
    46
1040
3.0
1070
    73
1070
     0
1070
    74
1070
     0
1070
    77
1070
     1
1070
    78
1070
     8
1070
   140
1040
5.0
1070
   141
1040
2.0
1070
   145
1040
1.0
1070
   171
1070
     4
1070
   172
1070
     1
1002
}
  0
DIMENSION
  5
674
330
22
100
AcDbEntity
  8
AM_5
100
AcDbDimension
  2
*D9
 10
0.0000000000000012
 20
19.35007665490269
 30
0.0
 11
10.00000000001609
 21
21.94007665490269
 31
0.0
 70
    32
 71
     5
 42
20.00000000003217
  3
Standard$0
100
AcDbAlignedDimension
 13
20.00000000003217
 23
0.0
 33
0.0
 14
0.0
 24
0.0
 34
0.0
 50
180.0
100
AcDbRotatedDimension
1001
ACAD
1000
DSTYLE
1002
{
1070
    41
1040
3.0
1070
    42
1040
1.0
1070
    43
1040
5.0
1070
    44
1040
2.0
1070
    46
1040
3.0
1070
    73
1070
     0
1070
    74
1070
     0
1070
    77
1070
     1
1070
    78
1070
     8
1070
   140
1040
5.0
1070
   141
1040
2.0
1070
   145
1040
1.0
1070
   171
1070
     4
1070
   172
1070
     1
1002
}
  0
DIMENSION
  5
6F6
330
22
100
AcDbEntity
  8
AM_5
100
AcDbDimension
  2
*D10
 10
89.20184321722002
 20
2.99999996934191
 30
0.0
 11
89.20184321722002
 21
-24.5479901801303
 31
0.0
 70
   160
 71
     5
 42
18.00000000000001
  3
Standard$0
100
AcDbAlignedDimension
 13
73.29016113284467
 23
-15.0000000306581
 33
0.0
 14
73.29016113284467
 24
2.999999969341914
 34
0.0
 50
270.0
100
AcDbRotatedDimension
1001
ACAD
1000
DSTYLE
1002
{
1070
    41
1040
3.0
1070
    42
1040
1.0
1070
    43
1040
5.0
1070
    44
1040
2.0
1070
    46
1040
3.0
1070
    73
1070
     0
1070
    74
1070
     0
1070
    77
1070
     1
1070
    78
1070
     8
1070
   140
1040
5.0
1070
   141
1040
2.0
1070
   145
1040
1.0
1070
   171
1070
     4
1070
   172
1070
     1
1002
}
  0
DIMENSION
  5
728
330
22
100
AcDbEntity
  8
AM_5
100
AcDbDimension
  2
*D11
 10
0.0000000000321718
 20
43.87763148803646
 30
0.0
 11
60.00000143242232
 21
46.46763148803646
 31
0.0
 70
    32
 71
     5
 42
120.0000028647803
  3
Standard$0
100
AcDbAlignedDimension
 13
120.0000028648125
 23
64.10590752667581
 33
0.0
 14
0.0000000000321734
 24
69.99999999914422
 34
0.0
 50
180.0
100
AcDbRotatedDimension
1001
ACAD
1000
DSTYLE
1002
{
1070
    41
1040
3.0
1070
    42
1040
1.0
1070
    43
1040
5.0
1070
    44
1040
2.0
1070
    46
1040
3.0
1070
    73
1070
     0
1070
    74
1070
     0
1070
    77
1070
     1
1070
    78
1070
     8
1070
   140
1040
5.0
1070
   141
1040
2.0
1070
   145
1040
1.0
1070
   171
1070
     4
1070
   172
1070
     1
1002
}
  0
DIMENSION
  5
794
330
22
100
AcDbEntity
  8
AM_5
100
AcDbDimension
  2
*D13
 10
64.29016399759286
 20
21.05249018945386
 30
0.0
 11
73.29016399759286
 21
23.64249018945386
 31
0.0
 70
    32
 71
     5
 42
18.0
  3
Standard$0
100
AcDbAlignedDimension
 13
82.29016399759286
 23
-6.000000000855778
 33
0.0
 14
64.29016399759286
 24
-6.000000030658086
 34
0.0
 50
180.0
100
AcDbRotatedDimension
1001
ACAD
1000
DSTYLE
1002
{
1070
    41
1040
3.0
1070
    42
1040
1.0
1070
    43
1040
5.0
1070
    44
1040
2.0
1070
    46
1040
3.0
1070
    73
1070
     0
1070
    74
1070
     0
1070
    77
1070
     1
1070
    78
1070
     8
1070
   140
1040
5.0
1070
   141
1040
2.0
1070
   145
1040
1.0
1070
   171
1070
     4
1070
   172
1070
     1
1002
}
  0
TEXT
  5
7B5
330
22
100
AcDbEntity
  8
0
100
AcDbText
 10
16.87806382360833
 20
-57.04433757033333
 30
0.0
 40
5.0
  1
%%uRS19X-SCLL06
100
AcDbText
  0
ACAD_PROXY_ENTITY
  5
A58
330
22
100
AcDbEntity
  8
AM_5
100
AcDbProxyEntity
 90
      498
 91
      570
 95
       25
 70
     0
 92
      668
310
9C020000270000000C00000016000000000000C00C00000013000000010000000C00000016000000030000C30C00000017000000FFFFFFFF3C000000060000000200000068350C8961CA45C090513BE91AC83F4000000000000000009B683FBC945D42C093513BE91AC83F4000000000000000000C00000016000000000000
310
C00C00000010000000FFFFFFFF0C00000012000000FFFFFFFF0C00000017000000000000000C00000014000000010000000C00000013000000020000000C00000016000000030000C30C00000017000000FFFFFFFF3C00000006000000020000009B683FBC945D42C093513BE91AC83F40000000000000000068350C8961CA
310
40C094513BE91AC83F4000000000000000000C00000016000000000000C00C00000010000000FFFFFFFF0C00000012000000FFFFFFFF0C00000017000000000000000C00000014000000010000000C00000013000000030000000C00000016000000030000C30C00000017000000FFFFFFFF3C00000006000000020000009B
310
683FBC945D42C040CEBCC7F05D3F40000000000000000068350C8961CA40C094513BE91AC83F4000000000000000000C00000016000000000000C00C00000010000000FFFFFFFF0C00000012000000FFFFFFFF0C00000017000000000000000C00000014000000010000000C00000013000000040000000C00000016000000
310
030000C30C00000017000000FFFFFFFF3C000000060000000200000068350C8961CA40C094513BE91AC83F4000000000000000009B683FBC945D42C073EA5C852219404000000000000000000C00000016000000000000C00C00000010000000FFFFFFFF0C00000012000000FFFFFFFF0C00000017000000000000000C0000
310
0014000000010000000C00000013000000050000000C00000016000000000000C0
 93
     1473
310
5DC68637988B54140C025144EFA46B20FD0219FD35022281B66F19197D35022281B64F2A54051F8000000C800AA1A0D432258729170090513BE91AC83F409018FFFFFFFF1A0D432258729030094513BE91AC83F40A8FFFFFFFF1FFFFFFFF0D06A1912C3948B8048289DF48D641FA045409C870D89B72EFC70045C016108DC3
310
A9EB50102A0000000000003C2FC65F4D4088A86D9BC68333333333333094041D050000000000003C2FC000000000000F0BF40401015213500500
340
760
340
76B
330
0
330
0
340
0
340
0
340
74D
330
0
330
0
 94
        0
  0
ACAD_PROXY_ENTITY
  5
A59
330
22
100
AcDbEntity
  8
AM_5
100
AcDbProxyEntity
 90
      498
 91
      570
 95
       25
 70
     0
 92
      668
310
9C020000270000000C00000016000000000000C00C00000013000000010000000C00000016000000030000C30C00000017000000FFFFFFFF3C000000060000000200000068350C8961CA45C090513BE91AC83F4000000000000000005D350C8961CA45C0FAB7A14F81EE384000000000000000000C00000016000000000000
310
C00C00000010000000FFFFFFFF0C00000012000000FFFFFFFF0C00000017000000000000000C00000014000000010000000C00000013000000020000000C00000016000000030000C30C00000017000000FFFFFFFF3C00000006000000020000005D350C8961CA45C0FAB7A14F81EE3840000000000000000058350C8961CA
310
45C094513BE91AC8354000000000000000000C00000016000000000000C00C00000010000000FFFFFFFF0C00000012000000FFFFFFFF0C00000017000000000000000C00000014000000010000000C00000013000000030000000C00000016000000030000C30C00000017000000FFFFFFFF3C000000060000000200000006
310
77CB9976FF45C0F9B7A14F81EE3840000000000000000058350C8961CA45C094513BE91AC8354000000000000000000C00000016000000000000C00C00000010000000FFFFFFFF0C00000012000000FFFFFFFF0C00000017000000000000000C00000014000000010000000C00000013000000040000000C00000016000000
310
030000C30C00000017000000FFFFFFFF3C000000060000000200000058350C8961CA45C094513BE91AC835400000000000000000B4F34C784C9545C0FCB7A14F81EE384000000000000000000C00000016000000000000C00C00000010000000FFFFFFFF0C00000012000000FFFFFFFF0C00000017000000000000000C0000
310
0014000000010000000C00000013000000050000000C00000016000000000000C0
 93
     1537
310
5DC58350C8961CA45C0272B457A30AD8D102465F4D4088A06D13C866F4D4088A06D13C0000000000003C2FEA54051F8000000C800AA1A0D432258729170090513BE91AC83F409018FFFFFFFF160D432258729170094513BE91AC83540A8FFFFFFFF1FFFFFFFF0D06A1912C3948B8048289DF48D641FA045409C870D89B72EF
310
C70045C01C07822DB9CD0F902A0000000000003C2FD197D35022281B44F28333333333333094041D050000000000003C2FC000000000000F0BF40401015213500500
340
760
340
76B
330
0
330
0
340
0
340
0
340
74D
330
0
330
0
 94
        0
  0
TEXT
  5
A5A
330
22
100
AcDbEntity
  8
AM_6
100
AcDbText
 10
-44.44169906116201
 20
14.1541786340787
 30
0.0
 40
4.0
  1
0%%D
100
AcDbText
  0
TEXT
  5
A5B
330
22
100
AcDbEntity
  8
AM_6
100
AcDbText
 10
-31.8567964499685
 20
29.88924138346579
 30
0.0
 40
4.0
  1
0%%D
100
AcDbText
  0
ENDSEC
  0
SECTION
  2
OBJECTS
  0
DICTIONARY
  5
C
330
0
100
AcDbDictionary
281
     1
  3
ACAD_COLOR
350
1B
  3
ACAD_GROUP
350
D
  3
ACAD_LAYOUT
350
19
  3
ACAD_MATERIAL
350
1A
  3
ACAD_MLINESTYLE
350
16
  3
ACAD_PLOTSETTINGS
350
18
  3
ACAD_PLOTSTYLENAME
350
E
  3
ACAD_TABLESTYLE
350
1C
  3
AcAmCatalogState
350
3B0
  3
ACDBHEADERROUNDTRIPXREC
350
A5F
  3
AcDbVariableDictionary
350
401
  3
ACDMSYSVARMGR
350
36A
  3
ACGREF_MASTER
350
364
  3
ACGREFACAD_MASTER
350
38C
  3
AcmDictionary
350
3AE
  3
ACME_BOM_MANAGER_NAME
350
35E
  3
ACME_COMMAND_HISTORY
350
35B
  3
ACME_SCOPE_NAME
350
35A
  3
ACMESTATEMGR
350
363
  3
AcmeSysVarManager
350
35C
  3
AcmSystemVariableManager
350
3B9
  3
AD_APPL
350
39B
  3
ADSYSVARMGR
350
39A
  3
AmdtNamedDwgMgr
350
387
  3
AMG
350
390
  3
AMGSNAPSETTINGS
350
3F0
  3
AMI_MASTER
350
38F
  3
AUTOCAD_ASSEMBLIES_PROJECT
350
3A3
  3
Designer_Assemblies_SysVars
350
39E
  3
GREFAM_MODULE
350
394
  0
DICTIONARY
  5
757
330
2
100
AcDbDictionary
280
     1
281
     1
  3
ACAD_LAYERSTATES
360
758
  0
DICTIONARY
  5
1B
102
{ACAD_REACTORS
330
C
102
}
330
C
100
AcDbDictionary
281
     1
  0
DICTIONARY
  5
D
102
{ACAD_REACTORS
330
C
102
}
330
C
100
AcDbDictionary
281
     1
  0
DICTIONARY
  5
19
102
{ACAD_REACTORS
330
C
102
}
330
C
100
AcDbDictionary
281
     1
  3
Model
350
25
  3
レイアウト1
350
21
  0
DICTIONARY
  5
1A
102
{ACAD_REACTORS
330
C
102
}
330
C
100
AcDbDictionary
281
     1
  0
DICTIONARY
  5
16
102
{ACAD_REACTORS
330
C
102
}
330
C
100
AcDbDictionary
281
     1
  3
Standard
350
17
  0
DICTIONARY
  5
18
102
{ACAD_REACTORS
330
C
102
}
330
C
100
AcDbDictionary
281
     1
  0
ACDBDICTIONARYWDFLT
  5
E
102
{ACAD_REACTORS
330
C
102
}
330
C
100
AcDbDictionary
281
     1
  3
Normal
350
F
100
AcDbDictionaryWithDefault
340
F
  0
DICTIONARY
  5
1C
102
{ACAD_REACTORS
330
C
102
}
330
C
100
AcDbDictionary
281
     1
  3
Standard
350
1D
  0
ACAD_PROXY_OBJECT
  5
3B0
102
{ACAD_REACTORS
330
C
102
}
330
C
100
AcDbProxyObject
 90
      499
 91
      545
 95
       25
 70
     0
 93
      504
310
3FFFFFFFE00A0281402992E2E21BA3239AE483ECB654563CBCEAE4AABC7C0483ECB652E487CC6F6CBB846A445F7AE41BDC1B341A12E272A25C83ECB65400AA
  0
DICTIONARY
  5
A5F
102
{ACAD_REACTORS
330
C
102
}
330
C
100
AcDbDictionary
281
     1
  3
COLORDICT
350
A60
  3
MATERIALDICT
350
A61
  0
DICTIONARY
  5
401
102
{ACAD_REACTORS
330
C
102
}
330
C
100
AcDbDictionary
281
     1
  3
CTABLESTYLE
350
402
  3
DIMASSOC
350
A5D
  3
HIDETEXT
350
A5E
  0
ACAD_PROXY_OBJECT
  5
36A
102
{ACAD_REACTORS
330
C
102
}
330
C
100
AcDbProxyObject
 90
      499
 91
      505
 95
       25
 70
     0
 93
      240
310
4C51A47A0000000000000000000000000000000000000000000000000000
330
36B
330
36C
330
36D
330
36E
330
36F
330
370
330
371
330
372
330
373
330
374
330
375
330
376
330
377
330
378
330
379
330
37A
330
37B
330
37C
330
37D
330
37E
330
37F
330
380
330
381
330
382
330
383
330
384
 94
        0
  0
ACAD_PROXY_OBJECT
  5
364
102
{ACAD_REACTORS
330
C
102
}
330
C
100
AcDbProxyObject
 90
      499
 91
      513
 95
       25
 70
     0
 93
       34
310
0400004280
  0
ACAD_PROXY_OBJECT
  5
38C
102
{ACAD_REACTORS
330
C
102
}
330
C
100
AcDbProxyObject
 90
      499
 91
      522
 95
       25
 70
     0
 93
      114
310
04000041C080000000000000000000
  0
DICTIONARY
  5
3AE
102
{ACAD_REACTORS
330
C
102
}
330
C
100
AcDbDictionary
281
     1
  3
AcmBOMDATA
350
3AF
  3
AcmStdDictionary
350
3BB
  3
AMDTSECTSYM_ARROWCOLOR
350
3DB
  0
ACAD_PROXY_OBJECT
  5
35E
102
{ACAD_REACTORS
330
C
102
}
330
C
100
AcDbProxyObject
 90
      499
 91
      507
 95
       25
 70
     0
 93
       50
310
00010040400000
330
0
330
0
330
35F
 94
        0
  0
ACAD_PROXY_OBJECT
  5
35B
102
{ACAD_REACTORS
330
C
102
}
330
C
100
AcDbProxyObject
 90
      499
 91
      504
 95
       25
 70
     0
 93
     6530
310
4780504554E444F80504554E444F80506524F544154458050844524F5047454F4D805044D4F5645404052D4D5347202D205050413A2020206465736B746F702E6172782046696C6556657273696F6E3A20392E322E302E3401411693D3D3601415454D05591501014B5354D1C80B481414104E88080819195CDADD1BDC0B98
310
5C9E08119A5B1955995C9CDA5BDB8E880E4B8C8B8C0B8D005055153415645404052D4D5347202D205050413A2020206465736B746F702E6172782046696C6556657273696F6E3A20392E322E302E3401415454D05591502014B5354D1C80B481414104E88080819195CDADD1BDC0B985C9E08119A5B1955995C9CDA5BDB8E8
310
80E4B8C8B8C0B8D005184D5347202D20436F6D6D616E642043414E43454C4C45442E01411353D591601415454D05591501014B5354D1C80B481414104E88080819195CDADD1BDC0B985C9E08119A5B1955995C9CDA5BDB8E880E4B8C8B8C0B8D005045A4F4F4D805044D4F5645805045A4F4F4D805055153415645404052D4
310
D5347202D205050413A2020206465736B746F702E6172782046696C6556657273696F6E3A20392E322E302E3401415454D05591501014B5354D1C80B481414104E88080819195CDADD1BDC0B985C9E08119A5B1955995C9CDA5BDB8E880E4B8C8B8C0B8D0050E414D4454524553455444424D4F4440805084E202D20554E44
310
4F014213880B4815539113C0504554E444F80504554E444F805044D4F5645805045A4F4F4D805044C494E4540405184D5347202D20436F6D6D616E642043414E43454C4C45442E01415454D05591501014B5354D1C80B481414104E88080819195CDADD1BDC0B985C9E08119A5B1955995C9CDA5BDB8E880E4B8C8B8C0B8D0
310
05055153415645404052D4D5347202D205050413A2020206465736B746F702E6172782046696C6556657273696F6E3A20392E322E302E34014390535115149154D15511109353D1102014213880B4815539113C05084E202D20554E444F014115539113E014115539113E014151549054D160142541054D51150D312542014
310
15454D05591501014B5354D1C80B481414104E88080819195CDADD1BDC0B985C9E08119A5B1955995C9CDA5BDB8E880E4B8C8B8C0B8D00
  0
ACAD_PROXY_OBJECT
  5
35A
102
{ACAD_REACTORS
330
C
102
}
330
C
100
AcDbProxyObject
 90
      499
 91
      503
 95
       25
 70
     0
 93
      546
310
090000464080000000000000000012F4CE0000000000000000000000000000000000000000000000000000000000000000000000000000000000000000000000AAA406AA80
360
35D
360
35F
360
365
360
366
360
367
360
368
360
36B
360
36C
360
36D
360
36E
360
36F
360
370
360
371
360
372
360
373
360
374
360
375
360
376
360
377
360
378
360
379
360
37A
360
37B
360
37C
360
37D
360
37E
360
37F
360
380
360
381
360
382
360
383
360
384
360
396
360
397
360
398
360
399
360
39F
360
3A0
360
3A1
360
3A2
360
3A7
360
3A8
360
3A9
360
3AA
360
3AB
360
3AC
360
3BA
 94
        0
  0
ACAD_PROXY_OBJECT
  5
363
102
{ACAD_REACTORS
330
C
102
}
330
C
100
AcDbProxyObject
 90
      499
 91
      512
 95
       25
 70
     0
 93
       50
310
09000042641280
  0
ACAD_PROXY_OBJECT
  5
35C
102
{ACAD_REACTORS
330
C
102
}
330
C
100
AcDbProxyObject
 90
      499
 91
      505
 95
       25
 70
     0
 93
       32
310
90140A00
330
35D
 94
        0
  0
ACAD_PROXY_OBJECT
  5
3B9
102
{ACAD_REACTORS
330
C
102
}
330
C
100
AcDbProxyObject
 90
      499
 91
      505
 95
       25
 70
     0
 93
       32
310
90140A00
330
3BA
 94
        0
  0
ACAD_PROXY_OBJECT
  5
39B
102
{ACAD_REACTORS
330
C
102
}
330
C
100
AcDbProxyObject
 90
      499
 91
      533
 95
       25
 70
     0
 93
       42
310
000900004040
330
396
 94
        0
  0
ACAD_PROXY_OBJECT
  5
39A
102
{ACAD_REACTORS
330
C
102
}
330
C
100
AcDbProxyObject
 90
      499
 91
      505
 95
       25
 70
     0
 93
        8
310
AA
  0
ACAD_PROXY_OBJECT
  5
387
102
{ACAD_REACTORS
330
C
102
}
330
C
100
AcDbProxyObject
 90
      499
 91
      519
 95
       25
 70
     0
 93
       42
310
000100005E80
330
365
 94
        0
  0
DICTIONARY
  5
390
102
{ACAD_REACTORS
330
C
102
}
330
C
100
AcDbDictionary
281
     1
  3
AcMgSettings
350
391
  3
AMGLAYCFG
350
3BD
  0
DICTIONARY
  5
3F0
102
{ACAD_REACTORS
330
C
102
}
330
C
100
AcDbDictionary
281
     1
  3
DIMENSION
350
3F5
  3
FEA
350
3F4
  3
HATCH (1)
350
3F1
  3
HATCH (2)
350
3F2
  3
SIMPLE WELD
350
3F6
  3
SYMBOLS
350
3F3
  0
ACAD_PROXY_OBJECT
  5
38F
102
{ACAD_REACTORS
330
C
102
}
330
C
100
AcDbProxyObject
 90
      499
 91
      525
 95
       25
 70
     0
 93
       34
310
0500004280
  0
ACAD_PROXY_OBJECT
  5
3A3
102
{ACAD_REACTORS
330
C
102
}
330
C
100
AcDbProxyObject
 90
      499
 91
      537
 95
       25
 70
     0
 93
       98
310
0900004E400000000000000000
330
3AA
330
0
330
3AB
330
0
330
0
330
0
330
0
330
0
 94
        0
  0
ACAD_PROXY_OBJECT
  5
39E
102
{ACAD_REACTORS
330
C
102
}
330
C
100
AcDbProxyObject
 90
      499
 91
      505
 95
       25
 70
     0
 93
       56
310
90441600000000
330
39F
330
3A0
330
3A1
330
3A2
 94
        0
  0
ACAD_PROXY_OBJECT
  5
394
102
{ACAD_REACTORS
330
C
102
}
330
C
100
AcDbProxyObject
 90
      499
 91
      527
 95
       25
 70
     0
 93
        8
310
05
  0
DICTIONARY
  5
758
102
{ACAD_REACTORS
330
757
102
}
330
757
100
AcDbDictionary
281
     1
  0
LAYOUT
  5
25
102
{ACAD_REACTORS
330
19
102
}
330
19
100
AcDbPlotSettings
  1

  2
Canon LBP-1420
  4
A4
  6

 40
5.873749732971191
 41
5.873747825622559
 42
5.873748779296875
 43
5.873748779296875
 44
209.9733276367188
 45
296.9259948730469
 46
0.0
 47
0.0
 48
0.0
 49
0.0
140
400.0
141
273.0
142
1.0
143
1.402630290955233
 70
 11952
 72
     1
 73
     1
 74
     4
  7
sei_cad.ctb
 75
     0
147
0.7129462456703186
148
0.0
149
0.0
100
AcDbLayout
  1
Model
 70
     1
 71
     0
 10
0.0
 20
0.0
 11
12.0
 21
9.0
 12
0.0
 22
0.0
 32
0.0
 14
0.0
 24
0.0
 34
0.0
 15
0.0
 25
0.0
 35
0.0
146
0.0
 13
0.0
 23
0.0
 33
0.0
 16
1.0
 26
0.0
 36
0.0
 17
0.0
 27
1.0
 37
0.0
 76
     0
330
22
1001
ACAD_PSEXT
1000
Canon LBP-1420
1000
Canon LASER SHOT LBP-1420
1000
10.254.89.243:lp
1000

1070
     0
  0
LAYOUT
  5
21
102
{ACAD_REACTORS
330
19
102
}
330
19
100
AcDbPlotSettings
  1

  2
Canon LBP-1420
  4

  6

 40
0.0
 41
0.0
 42
0.0
 43
0.0
 44
0.0
 45
0.0
 46
0.0
 47
0.0
 48
0.0
 49
0.0
140
0.0
141
0.0
142
1.0
143
1.0
 70
   688
 72
     0
 73
     0
 74
     5
  7
sei_cad.ctb
 75
    16
147
1.0
148
0.0
149
0.0
100
AcDbLayout
  1
レイアウト1
 70
     1
 71
     1
 10
0.0
 20
0.0
 11
12.0
 21
9.0
 12
0.0
 22
0.0
 32
0.0
 14
1.000000000000000E+20
 24
1.000000000000000E+20
 34
1.000000000000000E+20
 15
-1.000000000000000E+20
 25
-1.000000000000000E+20
 35
-1.000000000000000E+20
146
0.0
 13
0.0
 23
0.0
 33
0.0
 16
1.0
 26
0.0
 36
0.0
 17
0.0
 27
1.0
 37
0.0
 76
     0
330
1E
  0
MLINESTYLE
  5
17
102
{ACAD_REACTORS
330
16
102
}
330
16
100
AcDbMlineStyle
  2
STANDARD
 70
     0
  3

 62
   256
 51
90.0
 52
90.0
 71
     2
 49
0.5
 62
   256
  6
BYLAYER
 49
-0.5
 62
   256
  6
BYLAYER
  0
ACDBPLACEHOLDER
  5
F
102
{ACAD_REACTORS
330
E
102
}
330
E
  0
TABLESTYLE
  5
1D
102
{ACAD_REACTORS
330
1C
102
}
330
1C
100
AcDbTableStyle
  3
Standard
 70
     0
 71
     0
 40
0.06
 41
0.06
280
     0
281
     0
  7
STANDARD
140
0.18
170
     2
 62
     0
 63
     7
283
     0
274
    -2
284
     1
 64
     0
275
    -2
285
     1
 65
     0
276
    -2
286
     1
 66
     0
277
    -2
287
     1
 67
     0
278
    -2
288
     1
 68
     0
279
    -2
289
     1
 69
     0
  7
STANDARD
140
0.25
170
     5
 62
     0
 63
     7
283
     0
274
    -2
284
     1
 64
     0
275
    -2
285
     1
 65
     0
276
    -2
286
     1
 66
     0
277
    -2
287
     1
 67
     0
278
    -2
288
     1
 68
     0
279
    -2
289
     1
 69
     0
  7
STANDARD
140
0.18
170
     5
 62
     0
 63
     7
283
     0
274
    -2
284
     1
 64
     0
275
    -2
285
     1
 65
     0
276
    -2
286
     1
 66
     0
277
    -2
287
     1
 67
     0
278
    -2
288
     1
 68
     0
279
    -2
289
     1
 69
     0
  0
XRECORD
  5
A60
102
{ACAD_REACTORS
330
A5F
102
}
330
A5F
100
AcDbXrecord
280
     1
340
1B
  0
XRECORD
  5
A61
102
{ACAD_REACTORS
330
A5F
102
}
330
A5F
100
AcDbXrecord
280
     1
340
1A
  0
DICTIONARYVAR
  5
402
102
{ACAD_REACTORS
330
401
102
}
330
401
100
DictionaryVariables
280
     0
  1
STANDARD
  0
DICTIONARYVAR
  5
A5D
102
{ACAD_REACTORS
330
401
102
}
330
401
100
DictionaryVariables
280
     0
  1
1
  0
DICTIONARYVAR
  5
A5E
102
{ACAD_REACTORS
330
401
102
}
330
401
100
DictionaryVariables
280
     0
  1
0
  0
ACAD_PROXY_OBJECT
  5
3AF
102
{ACAD_REACTORS
330
3AE
102
}
330
3AE
100
AcDbProxyObject
 90
      499
 91
      544
 95
       25
 70
     0
 93
       76
310
90100057356C1D774120
  0
DICTIONARY
  5
3BB
102
{ACAD_REACTORS
330
3AE
102
}
330
3AE
100
AcDbDictionary
281
     1
  3
ANSI
350
3BC
  3
JIS
350
760
  0
XRECORD
  5
3DB
102
{ACAD_REACTORS
330
3AE
102
}
330
3AE
100
AcDbXrecord
280
     1
 90
-1023410169
  0
ACAD_PROXY_OBJECT
  5
35D
330
35A
100
AcDbProxyObject
 90
      499
 91
      506
 95
       25
 70
     0
 93
      156
310
000101439050D35154D6535093D314D256915080
330
35A
 94
        0
  0
ACAD_PROXY_OBJECT
  5
35F
330
35A
100
AcDbProxyObject
 90
      499
 91
      508
 95
       25
 70
     0
 93
      120
310
000101422565255A6557080C402B00
330
35A
330
0
330
0
 94
        0
  0
ACAD_PROXY_OBJECT
  5
365
330
35A
100
AcDbProxyObject
 90
      499
 91
      514
 95
       25
 70
     0
 93
      366
310
0001014124FEA55D00507392E322E302E32014124FEA55D00507392E322E302E3240501000041905394D24CCC658
330
35A
330
366
330
36A
 94
        0
  0
ACAD_PROXY_OBJECT
  5
366
330
35A
100
AcDbProxyObject
 90
      499
 91
      515
 95
       25
 70
     0
 93
       48
310
000190140A00
330
35A
330
367
 94
        0
  0
ACAD_PROXY_OBJECT
  5
367
330
35A
100
AcDbProxyObject
 90
      499
 91
      516
 95
       25
 70
     0
 93
       48
310
0001AA000000
330
35A
330
21
330
368
330
0
 94
        0
  0
ACAD_PROXY_OBJECT
  5
368
330
35A
100
AcDbProxyObject
 90
      499
 91
      517
 95
       25
 70
     0
 93
       28
310
0001AAA0
330
35A
 94
        0
  0
ACAD_PROXY_OBJECT
  5
36B
330
35A
100
AcDbProxyObject
 90
      499
 91
      506
 95
       25
 70
     0
 93
      108
310
000101421053521310D05310D010
330
35A
 94
        0
  0
ACAD_PROXY_OBJECT
  5
36C
330
35A
100
AcDbProxyObject
 90
      499
 91
      506
 95
       25
 70
     0
 93
      124
310
00010142905354915554D15112535010
330
35A
 94
        0
  0
ACAD_PROXY_OBJECT
  5
36D
330
35A
100
AcDbProxyObject
 90
      499
 91
      506
 95
       25
 70
     0
 93
      132
310
00010143105354D150D51253D391125360
330
35A
 94
        0
  0
ACAD_PROXY_OBJECT
  5
36E
330
35A
100
AcDbProxyObject
 90
      499
 91
      506
 95
       25
 70
     0
 93
      124
310
00010142905355941093D49111549010
330
35A
 94
        0
  0
ACAD_PROXY_OBJECT
  5
36F
330
35A
100
AcDbProxyObject
 90
      499
 91
      506
 95
       25
 70
     0
 93
      116
310
0001014290535115D1D0D3D313D4A0
330
35A
 94
        0
  0
ACAD_PROXY_OBJECT
  5
370
330
35A
100
AcDbProxyObject
 90
      499
 91
      506
 95
       25
 70
     0
 93
      148
310
00010143505355925155D49151949154D21010
330
35A
 94
        0
  0
ACAD_PROXY_OBJECT
  5
371
330
35A
100
AcDbProxyObject
 90
      499
 91
      506
 95
       25
 70
     0
 93
      172
310
00010144105350539393D51154149154D15495915010
330
35A
 94
        0
  0
ACAD_PROXY_OBJECT
  5
372
330
35A
100
AcDbProxyObject
 90
      499
 91
      506
 95
       25
 70
     0
 93
      172
310
00010144105350555513D11253505494905391D15010
330
35A
 94
        0
  0
ACAD_PROXY_OBJECT
  5
373
330
35A
100
AcDbProxyObject
 90
      499
 91
      506
 95
       25
 70
     0
 93
      124
310
00010142D05351561514915191125360
330
35A
 94
        0
  0
ACAD_PROXY_OBJECT
  5
374
330
35A
100
AcDbProxyObject
 90
      499
 91
      506
 95
       25
 70
     0
 93
      132
310
00010142D05355105410539393D5115010
330
35A
 94
        0
  0
ACAD_PROXY_OBJECT
  5
375
330
35A
100
AcDbProxyObject
 90
      499
 91
      506
 95
       25
 70
     0
 93
      108
310
00010142105350555513D0D31010
330
35A
 94
        0
  0
ACAD_PROXY_OBJECT
  5
376
330
35A
100
AcDbProxyObject
 90
      499
 91
      506
 95
       25
 70
     0
 93
      108
310
00010142105350D3119150551050
330
35A
 94
        0
  0
ACAD_PROXY_OBJECT
  5
377
330
35A
100
AcDbProxyObject
 90
      499
 91
      506
 95
       25
 70
     0
 93
      108
310
00010142105350D315925155D3F0
330
35A
 94
        0
  0
ACAD_PROXY_OBJECT
  5
378
330
35A
100
AcDbProxyObject
 90
      499
 91
      506
 95
       25
 70
     0
 93
      148
310
0001014350535212511156915493D112535010
330
35A
 94
        0
  0
ACAD_PROXY_OBJECT
  5
379
330
35A
100
AcDbProxyObject
 90
      499
 91
      506
 95
       25
 70
     0
 93
      124
310
00010142905352105510D21254D3D010
330
35A
 94
        0
  0
ACAD_PROXY_OBJECT
  5
37A
330
35A
100
AcDbProxyObject
 90
      499
 91
      506
 95
       25
 70
     0
 93
      148
310
00010143905354D25391D31152105513105660
330
35A
 94
        0
  0
ACAD_PROXY_OBJECT
  5
37B
330
35A
100
AcDbProxyObject
 90
      499
 91
      506
 95
       25
 70
     0
 93
      124
310
00010142D0535115D1D193111254D420
330
35A
 94
        0
  0
ACAD_PROXY_OBJECT
  5
37C
330
35A
100
AcDbProxyObject
 90
      499
 91
      506
 95
       25
 70
     0
 93
      100
310
00010142105350555513D213A0
330
35A
 94
        0
  0
ACAD_PROXY_OBJECT
  5
37D
330
35A
100
AcDbProxyObject
 90
      499
 91
      506
 95
       25
 70
     0
 93
      116
310
000101425053521390D3D553951010
330
35A
 94
        0
  0
ACAD_PROXY_OBJECT
  5
37E
330
35A
100
AcDbProxyObject
 90
      499
 91
      506
 95
       25
 70
     0
 93
      108
310
0001014210535213941493D29010
330
35A
 94
        0
  0
ACAD_PROXY_OBJECT
  5
37F
330
35A
100
AcDbProxyObject
 90
      499
 91
      506
 95
       25
 70
     0
 93
      108
310
0001014210535213951654115070
330
35A
 94
        0
  0
ACAD_PROXY_OBJECT
  5
380
330
35A
100
AcDbProxyObject
 90
      499
 91
      506
 95
       25
 70
     0
 93
      108
310
000101421053521395925155D0F0
330
35A
 94
        0
  0
ACAD_PROXY_OBJECT
  5
381
330
35A
100
AcDbProxyObject
 90
      499
 91
      506
 95
       25
 70
     0
 93
      140
310
00010143505354D150D51253D390D3D41660
330
35A
 94
        0
  0
ACAD_PROXY_OBJECT
  5
382
330
35A
100
AcDbProxyObject
 90
      499
 91
      506
 95
       25
 70
     0
 93
      108
310
00010142105350D3141493D29030
330
35A
 94
        0
  0
ACAD_PROXY_OBJECT
  5
383
330
35A
100
AcDbProxyObject
 90
      499
 91
      518
 95
       25
 70
     0
 93
      212
310
00010143905350555513D2105510D21493D500000000000002E400
330
35A
 94
        0
  0
ACAD_PROXY_OBJECT
  5
384
330
35A
100
AcDbProxyObject
 90
      499
 91
      506
 95
       25
 70
     0
 93
      156
310
00010143905350555513D2105510D21111551010
330
35A
 94
        0
  0
ACAD_PROXY_OBJECT
  5
396
330
35A
100
AcDbProxyObject
 90
      499
 91
      529
 95
       25
 70
     0
 93
      698
310
0001000000009AA6A9AA4051E546875204175672032342030303A31363A353220323030362028555443290141CE4B8C8B8C0B8C80518576564205365702030312030393A32393A323320323031300141CE4B8C8B8C0B8C80
330
35A
330
397
330
398
330
39A
330
0
 94
        0
  0
ACAD_PROXY_OBJECT
  5
397
330
35A
100
AcDbProxyObject
 90
      499
 91
      530
 95
       25
 70
     0
 93
       70
310
0001AAA80820000000
330
35A
330
397
330
397
 94
        0
  0
ACAD_PROXY_OBJECT
  5
398
330
35A
100
AcDbProxyObject
 90
      499
 91
      531
 95
       25
 70
     0
 93
       48
310
000100000000
330
35A
330
0
330
399
330
0
330
0
 94
        0
  0
ACAD_PROXY_OBJECT
  5
399
330
35A
100
AcDbProxyObject
 90
      499
 91
      532
 95
       25
 70
     0
 93
       40
310
000100AAAA
330
35A
330
0
 94
        0
  0
ACAD_PROXY_OBJECT
  5
39F
330
35A
100
AcDbProxyObject
 90
      499
 91
      536
 95
       25
 70
     0
 93
      180
310
00010143105050D3D35411119390535140504434F4D500
330
35A
 94
        0
  0
ACAD_PROXY_OBJECT
  5
3A0
330
35A
100
AcDbProxyObject
 90
      499
 91
      536
 95
       25
 70
     0
 93
      212
310
0001014390505193D311115491119390535140506466F6C6465720
330
35A
 94
        0
  0
ACAD_PROXY_OBJECT
  5
3A1
330
35A
100
AcDbProxyObject
 90
      499
 91
      536
 95
       25
 70
     0
 93
      180
310
00010143105050539393D1119390535140504284156290
330
35A
 94
        0
  0
ACAD_PROXY_OBJECT
  5
3A2
330
35A
100
AcDbProxyObject
 90
      499
 91
      536
 95
       25
 70
     0
 93
      436
310
00010143905050D3D35415925155D31254D50052295BD96CA0A90B396CA0A894591A496CA0A8DB691A496CA0A89BA96CA0A95E28F95310
330
35A
 94
        0
  0
ACAD_PROXY_OBJECT
  5
3A7
330
35A
100
AcDbProxyObject
 90
      499
 91
      538
 95
       25
 70
     0
 93
       32
310
00010000
330
35A
340
3A4
330
3A9
330
3A4
 94
        0
  0
ACAD_PROXY_OBJECT
  5
3A8
330
35A
100
AcDbProxyObject
 90
      499
 91
      539
 95
       25
 70
     0
 93
       18
310
000180
330
35A
 94
        0
  0
ACAD_PROXY_OBJECT
  5
3A9
330
35A
100
AcDbProxyObject
 90
      499
 91
      540
 95
       25
 70
     0
 93
      186
310
000101431494CC4E560B54D0D3130C0D9050055401550000
330
35A
330
3A7
330
3A8
 94
        0
  0
ACAD_PROXY_OBJECT
  5
3AA
330
35A
100
AcDbProxyObject
 90
      499
 91
      541
 95
       25
 70
     0
 93
      178
310
000100AAAAAAB1CD8D6EBAC70550E2303257E7C65AED40
330
35A
330
3A9
 94
        0
  0
ACAD_PROXY_OBJECT
  5
3AB
330
35A
100
AcDbProxyObject
 90
      499
 91
      542
 95
       25
 70
     0
 93
      108
310
000190140A000000000000AAAAA0
330
35A
330
3AC
330
3AC
330
3AC
330
3AC
330
3AC
330
0
 94
        0
  0
ACAD_PROXY_OBJECT
  5
3AC
330
35A
100
AcDbProxyObject
 90
      499
 91
      543
 95
       25
 70
     0
 93
       51
310
00010000AAAA80
330
35A
330
3AB
330
3A9
 94
        0
  0
ACAD_PROXY_OBJECT
  5
3BA
330
35A
100
AcDbProxyObject
 90
      499
 91
      536
 95
       25
 70
     0
 93
      148
310
00010142105350D55494D51100504414E53490
330
35A
 94
        0
  0
DICTIONARY
  5
391
102
{ACAD_REACTORS
330
390
102
}
330
390
100
AcDbDictionary
281
     1
  3
DWGSETTINGS
350
392
  3
Shaft
350
7DA
  3
TRANSSETTINGS
350
393
  0
ACAD_PROXY_OBJECT
  5
3BD
102
{ACAD_REACTORS
330
390
102
}
330
390
100
AcDbProxyObject
 90
      499
 91
      551
 95
       25
 70
     0
 93
    17920
310
41503491013041105357CC201C00030C011E441013141105357CC603800030C011E441013241105357CCA01400030C011E441013341105357CCE01800030C010F9013441105357CD200C00030C010F9013541105357CD600C00030C010F9013641105357CDA00800030C011E9013741105357CDE01000030C010F901384110
310
5357CE200400030C010F9013941105357CE63F400030C0241102324141505357CC4C201C00030C011E902344141505357CC4C600C00030C010F902495041505357CC4CA01C00030C011E40902304E41505357CC13A01C00030C011E902314E41505357CC53A03800030C011E902324E41505357CC93A01400030C011E90233
310
4E41505357CCD3A01800030C010F902344E41505357CD13A00C00030C010F902354E41505357CD53A00C00030C010F902364E41505357CD93A00800030C011E902374E41505357CDD3A01000030C010F902384E41505357CE13A00400030C010F902394E41505357CE53A3F400030C024110332414E41905357CC4C13A01C0
310
0030C011E90334414E41905357CC4C53A00C00030C010F90349504E41905357CC4C93A01C00030C011E409044B4C494E41505357D0D3200400030C010F42504494E464F42105357D410549151A01000030C010F42D055241484D3541905357D093D4A01C00030C011E425045649455742105357D5925155D4E00400030C010
310
F42D06424548494E4441905357D25395A3F400030C0243505545241494C41505357D514A00C00030C010F4250348494441905357D21251201C00030C010F4250356495341905357D59254E01C00030C011E4250650415244494D42505357D41054911253600C00030C010F4250652454644494D42505357D49151911253601
310
000030C010F425534110921395901398000000C0003FFFFFFFE415092139594D06424548494E448000000C0003FFFFFFFE411093D48C9055241484D358010000C30043E411093D48CD055241484D358020000C30047A411093D48D5055241484D358000000C0003FFFFFFFE4110D0530C901348000000C0003FFFFFFFE4110
310
D0530CD01348020000C30047A4110D0530D501348070000C30047A4110D0530DD013481E0000C3004F24110D15393901378000000C0003FFFFFFFE4110D15395D01378000000C0003FFFFFFFE4110D312539044B4C494E8000000C0003FFFFFFFE4110D3D38C501308000000C0003FFFFFFFD034110D3D38C901318000000C
310
0003FFFFFFFD034110D3D38CD01328000000C0003FFFFFFFD034110D3D38D101328000000C0003FFFFFFFD034111115510501348000000C0003FFFFFFFE4111125051D01358000000C0003FFFFFFFE4111125312501358000000C0003FFFFFFFE411112535410650415244494D8000000C0003FFFFFFFE4111125354906524
310
54644494D8000000C0003FFFFFFFE4111915353901388000000C0003FFFFFFFE415191535413901388030000C3003FFFFFFFE4151915354D410234418000000C0003FFFFFFFE4151915354D510234418030000C30043E415191535593901328000000C0003FFFFFFFE415191535595101328030000C30043E4112105510D01
310
388000000C0003FFFFFFFD014112125113901338000000C0003FFFFFFFD034112125115D01338000000C0003FFFFFFFD034112131253901348000000C0003FFFFFFFD01411213D0D3901378000000C0003FFFFFFFE411213D0D5D01378000000C0003FFFFFFFE4112539193D04494E464F8000000C0003FFFFFFFE41131150
310
51101358000000C0003FFFFFFFE419397D0921395902394E8000000C0003FFFFFFFE419397D0D3D38C502304E8000000C0003FFFFFFFD03419397D0D3D38C902314E8000000C0003FFFFFFFD03419397D0D3D38CD02324E8000000C0003FFFFFFFD03419397D0D3D38D102324E8000000C0003FFFFFFFD03419397D0D15393
310
902374E8000000C0003FFFFFFFE419397D0D15395D02374E8000000C0003FFFFFFFE419397D1125312502354E8000000C0003FFFFFFFE419397D2105510D02384E8000000C0003FFFFFFFD01419397D2125113902334E8000000C0003FFFFFFFD03419397D2125115D02334E8000000C0003FFFFFFFD03419397D311505110
310
2354E8000000C0003FFFFFFFE419397D391D25410349504E8000000C0003FFFFFFFE419397D412105390334414E8000000C0003FFFFFFFE419397D510D3D3902304E8000000C0003FFFFFFFD03419397D5121312502344E8000000C0003FFFFFFFD01419397D5131153902304E8000000C0003FFFFFFFD03419397D5941312
310
50332414E8000000C0003FFFFFFFE411391D25410249508000000C0003FFFFFFFE411410530C9055241484D358010000C30043E411410530CD055241484D358020000C30047A411410530D5055241484D358000000C0003FFFFFFFE411412105390234418000000C0003FFFFFFFE411413D4D3901358000000C0003FFFFFFF
310
E411490D1D3901378000000C0003FFFFFFFE411490D1D5D01378000000C0003FFFFFFFE4114D09492D01348070000C300479014114D150D5101348000000C0003FFFFFFFD014114D6508CD01358020000C30047A411354D653501358020000C30047A411510D3D3901308000000C0003FFFFFFFD0341151213125013480000
310
00C0003FFFFFFFD01411512550C9055241484D358010000C30043E411512550CD055241484D358020000C30047A411512550D5055241484D358000000C0003FFFFFFFE4115131153901308000000C0003FFFFFFFD03415514905253105545241494C8000000C0003FFFFFFFE4115149312501348000000C0003FFFFFFFD014
310
11516150C501368030000C30043E411516150C901368030000C30043E411516150CD01368000000C0003FFFFFFFE411516150D501368070000C30047A411516150DD013681E0000C3004F24115925155D04564945578000000C0003FFFFFFFE41159151121034849448000000C0003FFFFFFFD024115915115903564953800
310
0000C0003FFFFFFFD02411594131250232418000000C0003FFFFFFFE4116925690501348000000C0003FFFFFFFD01AAA3F400030C01013F90A4050F4091E40D0F4110F4151E4190F41D1E4391E4793C7F6
340
15
340
15
340
15
340
385
340
15
340
15
340
15
340
27
340
15
340
15
340
27
340
386
340
15
340
15
340
15
340
15
340
385
340
15
340
15
340
15
340
27
340
15
340
15
340
27
340
386
340
15
340
3C1
340
15
340
15
340
15
340
15
340
15
340
385
340
15
340
15
340
15
340
14
340
14
340
14
340
14
340
14
340
14
340
14
340
14
340
14
340
3C7
340
14
340
14
340
14
340
14
340
14
340
14
340
14
340
14
340
14
340
14
340
14
340
14
340
14
340
15
340
14
340
14
340
14
340
14
340
3C8
340
14
340
14
340
3C7
340
14
340
14
340
14
340
14
340
14
340
14
340
14
340
14
340
3C7
340
14
340
14
340
14
340
3C8
340
14
340
14
340
14
340
14
340
14
340
3C8
340
14
340
386
340
14
340
14
340
14
340
14
340
14
340
14
340
3C7
340
14
340
14
340
14
340
14
340
14
340
14
340
3C8
340
14
340
14
340
14
340
14
340
14
340
14
340
14
340
14
340
14
340
14
340
14
340
14
340
14
340
14
340
386
340
3C9
 94
        0
  0
ACAD_PROXY_OBJECT
  5
3F5
102
{ACAD_REACTORS
330
3F0
102
}
330
3F0
100
AcDbProxyObject
 90
      499
 91
      568
 95
       25
 70
     0
 93
      253
310
43D1444494D454E53494F4E2C414D44545F2A5F44494D404A9012A404A9012A8
  0
ACAD_PROXY_OBJECT
  5
3F4
102
{ACAD_REACTORS
330
3F0
102
}
330
3F0
100
AcDbProxyObject
 90
      499
 91
      568
 95
       25
 70
     0
 93
      181
310
43D012A42D05357D191504B505357CA9012A404A9012A8
  0
ACAD_PROXY_OBJECT
  5
3F1
102
{ACAD_REACTORS
330
3F0
102
}
330
3F0
100
AcDbProxyObject
 90
      499
 91
      568
 95
       25
 70
     0
 93
      133
310
43D054841544348404A9012A404A9012A8
  0
ACAD_PROXY_OBJECT
  5
3F2
102
{ACAD_REACTORS
330
3F0
102
}
330
3F0
100
AcDbProxyObject
 90
      499
 91
      568
 95
       25
 70
     0
 93
      549
310
43D044C494E4549CE0B0E138B0A8B4E0B0A8B4E138B105357CE0B105357CE138B0A8B505357CE0B0A8B505357CE139012A404A910494E534552542C5354445041525432448
  0
ACAD_PROXY_OBJECT
  5
3F6
102
{ACAD_REACTORS
330
3F0
102
}
330
3F0
100
AcDbProxyObject
 90
      499
 91
      568
 95
       25
 70
     0
 93
      181
310
43D0341524341105357CD5012A404C906494E534552540
  0
ACAD_PROXY_OBJECT
  5
3F3
102
{ACAD_REACTORS
330
3F0
102
}
330
3F0
100
AcDbProxyObject
 90
      499
 91
      568
 95
       25
 70
     0
 93
     1053
310
43D7841434D46434652414D452C41434D444154554D5441524745542C41434D444154554D49442C41434D57454C4453594D2C41434D5355524653594D2C41434D4645415449442C41434D504152545245462C41434D42414C4C4F4F4E2C414D44544544474553594D2C414D47534352455743414C435441424C45404A9012A
310
404A9012A8
  0
ACAD_PROXY_OBJECT
  5
3BC
102
{ACAD_REACTORS
330
3BB
102
}
330
3BB
100
AcDbProxyObject
 90
      499
 91
      550
 95
       25
 70
     0
 93
     2395
310
5DCB81E85EB51B8BE3F8030000C30041105394D2501640600800030C0200800030C00B81E85EB51B8BE3F48821E8720B1B6A9BAB9332A32BC3A29BA3220480A1282C6DA8C868CA6E8C88120286A0B1B6ABB2B63234B733A9BA3220480A1082C6DA92C8A6E8C88120285A0B1B6A230BA3AB6A9BA3220480A1282C6DA849E9AA
310
6E8C8812028820B6B23A2232BA30B4B629BCB6A9BA3220480A2282DAC8E8A6CAC6E8D2DEDCA6F2DAA6E8C88120288A0B6B23A21B2B73A32B92634B732A9BA3220480A2282DAC8E8A8D0E4CAC2C898D2DCCAA6E8C88120285A0B6B23A2737BA32A9BA3220480A1682C682DACE98C2F2A6E8C88120285A0B1A0B6B3A234B6A9B
310
A3220480A2282C682DACE90DED8CA86D0C2E4E8A6E8C88120286A0B1A0B6B3AA34BA3632A9BA3220480A02812020
340
3CA
360
3CB
360
3CC
360
3CD
360
3CE
360
3CF
360
3D0
360
3D1
360
3D2
360
3D3
360
3D4
360
3D5
360
3E1
360
3E2
360
3ED
360
3EE
340
0
340
0
 94
        0
  0
ACAD_PROXY_OBJECT
  5
760
102
{ACAD_REACTORS
330
3BB
102
}
330
3BB
100
AcDbProxyObject
 90
      499
 91
      571
 95
       25
 70
     0
 93
     2387
310
5DC33333333333309408030000C30040D29254D01640600800030C0200800030C003333333333330940C8121E8720B1B6A9BAB9332A32BC3A29BA3220480A1282C6DA8C868CA6E8C88120286A0B1B6ABB2B63234B733A9BA3220480A1082C6DA92C8A6E8C88120285A0B1B6A230BA3AB6A9BA3220480A1282C6DA849E9AA6E
310
8C8812028820B6B23A2232BA30B4B629BCB6A9BA3220480A2282DAC8E8A6CAC6E8D2DEDCA6F2DAA6E8C88120288A0B6B23A21B2B73A32B92634B732A9BA3220480A2282DAC8E8A8D0E4CAC2C898D2DCCAA6E8C88120285A0B6B23A2737BA32A9BA3220480A1682C682DACE98C2F2A6E8C88120285A0B1A0B6B3A234B6A9BA3
310
220480A2282C682DACE90DED8CA86D0C2E4E8A6E8C88120286A0B1A0B6B3AA34BA3632A9BA3220480A02812020
340
74D
360
761
360
762
360
763
360
764
360
765
360
766
360
767
360
768
360
769
360
76A
360
76B
360
771
360
772
360
773
360
774
340
0
340
0
 94
        0
  0
ACAD_PROXY_OBJECT
  5
392
102
{ACAD_REACTORS
330
391
102
}
330
391
100
AcDbProxyObject
 90
      499
 91
      526
 95
       25
 70
     0
 93
     2420
310
4050B44574753455454494E4753A1286829C8E82A4A482B282A0472608321A2A720A723A0A849A1ABE1C983E18999AA0C868A9C889282940000000000001C07E83A1A2A72224A0A9A0A8598171ABE1897183E18971AA0E868A9C8892A6A8940000000000001807E8321A2A72622A7250000000000000701FA0C868A9C9E8C8
310
C940000000000001C07E84A1A624A720A92920ACA0A87181718991ABE1817191ABE18171AA108698929C8AA8B2A082A0AB098929C8A84A22BA3AAA9A1A0A622A50A0E9882A6A89E849482A02608426A0A5A2AB24A2ABA7E8120CA0A68682988A0C00800010652455649534941501304154D0D0531150540CC4E8C50954494D
310
455354414D504A065557C51722B734141D5915494D253D3905414C4D4B8C0C1107B44574753455454494E4753454E447D0
  0
ACAD_PROXY_OBJECT
  5
7DA
102
{ACAD_REACTORS
330
391
102
}
330
391
100
AcDbProxyObject
 90
      499
 91
      526
 95
       25
 70
     0
 93
      199
310
405055368616674220F688AE8EA68AA8A8929C8EA68A9C88FA
  0
ACAD_PROXY_OBJECT
  5
393
102
{ACAD_REACTORS
330
391
102
}
330
391
100
AcDbProxyObject
 90
      499
 91
      526
 95
       25
 70
     0
 93
      852
310
4050D5452414E5353455454494E4753A2488A482AE929C8EA8A4829CA69882A8929E9C0C00800050D4F524947494E414C4C595F4F4E0600400008529A7AAA921A2A620A723A0A81A52827212AAA0A48AA68AA4AC8A0C0080001107B44574753455454494E4753454E447D0
  0
ACAD_PROXY_OBJECT
  5
3CB
330
3BC
100
AcDbProxyObject
 90
      499
 91
      552
 95
       25
 70
     0
 93
       96
310
5DC20E80A0280A0280A02808
  0
ACAD_PROXY_OBJECT
  5
3CC
330
3BC
100
AcDbProxyObject
 90
      499
 91
      553
 95
       25
 70
     0
 93
      332
310
5DD0E4050140501405014050140501405014050142501405014050140501405012000000000000000400
340
3D6
 94
        0
  0
ACAD_PROXY_OBJECT
  5
3CD
330
3BC
100
AcDbProxyObject
 90
      499
 91
      554
 95
       25
 70
     0
 93
      403
310
5DCC199999999999E99F91F4050140501405014050140501405014050140501405014050140501405014050140501405014040
340
0
 94
        0
  0
ACAD_PROXY_OBJECT
  5
3CE
330
3BC
100
AcDbProxyObject
 90
      499
 91
      555
 95
       25
 70
     0
 93
       10
310
5DC0
  0
ACAD_PROXY_OBJECT
  5
3CF
330
3BC
100
AcDbProxyObject
 90
      499
 91
      556
 95
       25
 70
     0
 93
      257
310
5DE290EA22A7D90F49F9353333333333727F44D4CCCCCCCCCDC9FC010000618000
340
3D7
340
3D8
 94
        0
  0
ACAD_PROXY_OBJECT
  5
3D0
330
3BC
100
AcDbProxyObject
 90
      499
 91
      557
 95
       25
 70
     0
 93
    13023
310
5DD0E411255115350141236025B6901405014069011309A4F2590CB64FD3347454E545241434F2C4A504E2C302C8D8096DA2C47454E54524154582C25732C2847454E4D53472067656E647767203232322940690120281A8AA2CA0282484A4BE52028120280A03202261349E4B2196C9FA668E8A9CA8A482869E5894A09C58
310
605921292F94588E8A9CA8A482A8B0584AE658508E8A9C9AA68E40CECADCC8EECE406464665280D202405044E414D454050496BC914F4051C40640A8B95C2E97CBE502404CD1D15395149050D3CB1294138B0C0B25AF2453CB11D15395149055160B095CCB0A11D1539354D1C819D95B991DD9C80C8C8D8A50192C3D494628
310
4953424C414E4B28504152543A4E414D45292C424C4F434B3A4E414D452C504152543A4E414D452940480A0A888AA686A480A09251B1DBE80A3A80C81D10782C06030180C8099A3A2A72A2920A1A7962528271618164946C76F9623A2A72A2920AA2C1612B9961423A2A726A9A39033B2B7323BB39019189B94A0248090142
310
14D51053911054911014122D2E29A50147501904A383BFDFEFF5FBFCFD3347454E545241434F2C4A504E2C302C8B4B8A692C47454E54524154582C25732C2847454E4D53472067656E64776720323138294049012028426A0AA22A924A0A62028246EF4BDFA028EA0320B41396D838E9017D9FA668E8A9CA8A482869E5894A
310
09C5860591BBD2F7E588E8A9CA8A482A8B0584AE658508E8A9C9AA68E40CECADCC8EECE406464625280D202405044E4F544540504928D8B4C4051D40641A8B95C2E97CBE5F23F4CD1D15395149050D3CB1294138B0C0B24A362D30B11D15395149055160B095CCB0A11D1539354D1C819D95B991DD9C80C8C8D4A501A40480
310
A0CAC8A9C889EA480A1106F1072706BF02B680A3A80C83D172B85D2F97CBE47E9BA3A2A72A2920A1A79625282716181641BC41C9C1AFC0AD9623A2A72A2920AA2C1612B9961423A2A726A9A39033B2B7323BB39019191A14A0348090141911154D0D48C90141A43825AF880C90147501908A20F0580C0603019013447454E5
310
45241434F2C4A504E2C302C90E096BE20322C47454E54524154582C25732C2847454E4D53472067656E6477672033362940490120284A9AA20A72220A922192028345A5C53490192028EA0321347077FBFDFEBF7F9FA6A8E8A9CA8A482869E5894A09C586059169714D24064588E8A9CA8A482A8B0584AE658508E8A9C9AA6
310
8E40CECADCC8EECE4064646052809202405094D4154455249414C32405068DDE97BF20324051D40642A8272DB071D202FB3F4D11D15395149050D3CB1294138B0C0B2377A5EFC80C8B11D15395149055160B095CCB0A11D1539354D1C819D95B991DD9C80D0C0A501240480A089A82A6A680A091D7F2F9480A3A80A0485A06
310
81172B85D2F97CBE47E9923A2A72A2920A1A796252827161816475FCBE51623A2A72A2920AA2C1612B9961423A2A726A9A39033B2B7323BB3901A1914A024809014154149250D150141226FE29A501475014090C409022E570BA5F2F97C8FD3247454E545241434F2C4A504E2C302C89BF8A692C47454E54524154582C2573
310
2C2847454E4D53472067656E6477672034332940490120281A224A6A02824850CB202028EA028121A81A045CAE174BE5F2F91FA648E8A9CA8A482869E5894A09C58605921432C80588E8A9CA8A482A8B0584AE658508E8A9C9AA68E40CECADCC8EECE406868528092024050E441022E07A17AD46E338FE07800030C0001018
310
ACD56AB55AADF63F2B355AAD56AB7D8FD073D3C4954454D3E405018ACD56AB55AADF63F2B355AAD56AB7D8FD073D3C4954454D3E40501890C7E3F1783CEE3F2431F8FC5E0F3B8FD073D3C4954454D3E40501890C7E3F1783CEE3F2431F8FC5E0F3B8FD073D3C4954454D3E405029012B355AAD56AB7D8FCACD56AB55AADF63
310
F41CF4F125511534F901418F4F1455164F9014062B355AAD56AB7D8FCACD56AB55AADF63F41CF4F125511534F9014061309A4F2590CBA4FC4C2693C96432E93F41CF4F125511534F901901002B355AAD56AB7D8FCACD56AB55AADF63FA2000000000000008204018000618048220681A048120280C88214844882034852034
310
8452028521485214814000000000000F0BF0000000000003C2FD018020000C3008070000C3000EF7D3E365DBA88FC3BDF4F8D976EA23F2E07A17AD46E2F8FF20341A405024150741A4069703D0BD6A3717C7F0040001860100400018601002000186002026280A02
340
0
340
0
 94
        0
  0
ACAD_PROXY_OBJECT
  5
3D1
330
3BC
100
AcDbProxyObject
 90
      499
 91
      558
 95
       25
 70
     0
 93
      994
310
5DC0B81E85EB51B8CE3F4BCF511155105253080F11115510525317D3105091530F971414D0D05311480F11115510525317D05094D4D0D053114F92341C9A9999999999B93F26A666666666724FC000000000000E03F4000000000000004000000000000005100000000000000244081E0000C3002E07A17AD46E338FC0
340
386
340
3CA
 94
        0
  0
ACAD_PROXY_OBJECT
  5
3D2
330
3BC
100
AcDbProxyObject
 90
      499
 91
      559
 95
       25
 70
     0
 93
      823
310
5DC031703D0BD6A3719C7E999EA9A2A1AA24A7A7101E29A2A1AA24A7A72FA620A122A62FA324A929AA1F169E29A2A1AA24A7A72FA620A122A62FA620A9AA1F1353333333333B27E3FFFE01C00030C008840F000061801353333333333B27F1703D0BD6A3719C7E
340
386
340
3CA
 94
        0
  0
ACAD_PROXY_OBJECT
  5
3D3
330
3BC
100
AcDbProxyObject
 90
      499
 91
      560
 95
       25
 70
     0
 93
      280
310
5DC2B8716D9CEF7C33F0A5723F0BD4A2F0FC295C8FC2F528BC3FA199999999999F99FC
  0
ACAD_PROXY_OBJECT
  5
3D4
330
3BC
100
AcDbProxyObject
 90
      499
 91
      561
 95
       25
 70
     0
 93
       14
310
5DE4
340
0
 94
        0
  0
ACAD_PROXY_OBJECT
  5
3D5
330
3BC
100
AcDbProxyObject
 90
      499
 91
      562
 95
       25
 70
     0
 93
     7123
310
5DD084050BA4050AA405024050E836583938376838C815B8367203140405013D3C696628657175616C28486F6C653A7461707065642C223022292C22252563222C486F6C653A6E6F6D696E616C2022202220696628657175616C28486F6C653A756E6974732C223122292C2278222C222D222920222022293E3C6966286571
310
75616C28486F6C653A7461707065642C223022292C486F6C653A6469612C486F6C653A706974636864657363293E207B5C46414D4744543B787D203C696628657175616C28486F6C653A7465726D696E6174696F6E2C223022292C486F6C653A64657074682C228AD192CA22293E5C507B5C46414D4744543B767D2525633C
310
486F6C653A63746469613E207B5C46414D4744543B787D203C486F6C653A637464657074683E406901405034050E836583938376838C815B83672031405FE3D3C696628657175616C28486F6C653A7461707065642C223022292C22252563222C486F6C653A6E6F6D696E616C2022202220696628657175616C28486F6C653
310
A756E6974732C223122292C2278222C222D222920222022293E3C696628657175616C28486F6C653A7461707065642C223022292C486F6C653A6469612C486F6C653A706974636864657363293E207B5C46414D4744543B787D203C696628657175616C28486F6C653A7465726D696E6174696F6E2C223022292C486F6C653
310
A64657074682C228AD192CA22293E5C507B5C46414D4744543B777D2525633C486F6C653A63746469613E2058203C486F6C653A6374616E676C653E252564406901405014050E836583938376838C815B83672031405CF3D3C696628657175616C28486F6C653A7461707065642C223022292C22252563222C486F6C653A6E
310
6F6D696E616C2022202220696628657175616C28486F6C653A756E6974732C223122292C2278222C222D222920222022293E3C696628657175616C28486F6C653A7461707065642C223022292C486F6C653A6469612C486F6C653A706974636864657363293E5C507B5C46414D4744543B787D203C696628657175616C2848
310
6F6C653A7465726D696E6174696F6E2C223022292C486F6C653A64657074682C228AD192CA22293E4069014051E4090E836583938376838C815B83672032405173D3C535444503A444553433E203C535444503A5354443E40690E836583938376838C815B836720314050C3D3C535444503A444553433E40690240515AAABB
310
A060
360
3DF
330
3DF
360
3E0
330
3E0
360
3DE
330
3DE
360
3DD
360
3DC
330
3DD
330
3DC
 94
        0
  0
ACAD_PROXY_OBJECT
  5
3E1
330
3BC
100
AcDbProxyObject
 90
      499
 91
      564
 95
       25
 70
     0
 93
       26
310
5DD02A80
340
3BD
 94
        0
  0
ACAD_PROXY_OBJECT
  5
3E2
330
3BC
100
AcDbProxyObject
 90
      499
 91
      565
 95
       25
 70
     0
 93
      258
310
5DD02000000000000380FC000000000000E03F408F0F9023C3E40DB18CCCFFFF80
340
3E3
340
510
340
5F1
340
550
340
53E
340
0
340
3E6
340
3E7
340
3EC
340
0
 94
        0
  0
ACAD_PROXY_OBJECT
  5
3ED
330
3BC
100
AcDbProxyObject
 90
      499
 91
      566
 95
       25
 70
     0
 93
    13993
310
5DD1D023FFFFFFFD010300002E07A17AD46E2F8FE00800030C01010300002E07A17AD46E2F8FE00800030C00050C8DC0955782CC838A83588367014ED1D15395149050D3CB1294138B0C0B23702555E0B320E2A0D620D9CB11D15395149055160B095CCB0A11D1539354D1C819D95B991A5B5E880CCC0A78000C0000000000
310
00000000000000000000007B14AE47E17AA43F2E07A17AD46E2F8FE00800030C007B14AE47E17AA43F2E07A17AD46E2F8FE00800030C020143CF4F111959985D5B1D151A5D1B194F8050A8C8A8365815B8375838B014E51D15395149050D3CB1294138B0C0B2322A0D96056E0DD60E2CB11D15395149055160B095CCB0A11D
310
1539354D1C819D95B991A5B5E880CCC4A78000C000000000000000000000000000000007B14AE47E17AA43F2E07A17AD46E2F8FE00800030C007B14AE47E17AA43F2E07A17AD46E2F8FE00800030C020143CF4F111959985D5B1D151A5D1B194F90D4410F4450240D0441507431014391244D05449074510C4350F00014123
310
2D24D7C053247454E545241434F2C4A504E2C302C8CB4935F2C47454E54524154582C25732C2847454E4D53472067656E64696D7A20312900010104002214000282465A49AF80A648E8A9CA8A482869E5894A09C586059196926BE588E8A9CA8A482A8B0584AE658508E8A9C9AA68E40CECADCC8D2DAF44062520002020800
310
43E80005028C8A014C11D15395149050D3CB1294138B0C0B23228B11D15395149055160B095CCB0A11D1539354D1C819D95B991A5B5E880C8A4054E3D3C4946284953424C414E4B28486F6C654974656D292C4F726967696E2C20486F6C654974656D293E3C4946284953424C414E4B28486F6C654974656D292C22222C204
310
86F6C65496E646578293E010104002234000280AC00A5E8E8A9CA8A482869E5894A09C586058B0588E8A9CA8A482A8B0584AE658508E8A9C9AA68E40CECADCC8D2DAF4406652000202000040A800050159014BD1D15395149050D3CB1294138B0C0B164B11D15395149055160B095CCB0A11D1539354D1C819D95B991A5B5E
310
880D0A4000404000081D0000A02A40297A3A2A72A2920A1A796252827161816291623A2A72A2920AA2C1612B9961423A2A726A9A39033B2B73234B6BD101B148000808000104A000140A0F4C053047454E545241434F2C4A504E2C302C83D32C47454E54524154582C25732C2847454E4D53472067656E64696D7A20372900
310
0101030020B400028141E980A608E8A9CA8A482869E5894A09C58605907A6588E8A9CA8A482A8B0584AE658508E8A9C9AA68E40CECADCC8D2DAF4407052000202020041E800050490E096BE014CD1D15395149050D3CB1294138B0C0B243825AF8B11D15395149055160B095CCB0A11D1539354D1C819D95B991A5B5E880C8
310
C0A400040010008650000A091B012DB40299A3A2A72A2920A1A79625282716181646C04B6D1623A2A72A2920AA2C1612B9961423A2A726A9A39033B2B73234B6BD10189A148000808280501A00014320D0E0E4E0D9A0D8A0D3A0D60053B47454E545241434F2C4A504E2C302C8343839383668362834E83582C47454E54524
310
154582C25732C2847454E4D53472067656E64696D7A203135290001010500A1D4000281464500A628E8A9CA8A482869E5894A09C5860591914588E8A9CA8A482A8B0584AE658508E8A9C9AA68E40CECADCC8D2DAF440626C52000202080044A800050E8C8A8343839383668362834E8358014F51D15395149050D3CB129413
310
8B0C0B2322A0D0E0E4E0D9A0D8A0D3A0D60B11D15395149055160B095CCB0A11D1539354D1C819D95B991A5B5E880C4DCA4000404140089D0000A0921292F940299A3A2A72A2920A1A796252827161816484A4BE51623A2A72A2920AA2C1612B9961423A2A726A9A39033B2B73234B6BD10189C948000808300114A0001412
310
2D2E29A4053347454E545241434F2C4A504E2C302C8B4B8A692C47454E54524154582C25732C2847454E4D53472067656E64696D7A20323129000100040021B4878030026A6666666667A4FE064D4CCCCCCCCCF49FC049A9999999999E93F809353333333333D27F0226A6666666667A4FE044D4CCCCCCCCCF49FC0D818000
310
00000000000810026A666666666764FE004D4CCCCCCCCCF49FC009A9999999999E93F801353333333333D27F032E07A17AD46E378FE0633B333333333032050F006004D4CCCCCCCCCF49FC0C9A9999999999E93F819353333333333D27F0326A6666666667A4FE064D4CCCCCCCCCF49FC0C9A9999999999E93F81B03000000
310
00000000102004D4CCCCCCCCCEC9FC009A9999999999E93F819353333333333D27F0026A6666666667A4FE065C0F42F5A8DC6F1FC0C6766666666660640A088800000021E000000890000002260000008220E000200890000002060002008100008000
340
0
340
0
340
0
340
0
340
3CA
340
3CA
 94
        0
  0
ACAD_PROXY_OBJECT
  5
3EE
330
3BC
100
AcDbProxyObject
 90
      499
 91
      567
 95
       25
 70
     0
 93
     5214
310
5DD9741105394D2506414E53495F4342905394D257D512551554D15414E53495F54525F5265766973696F6E6C697374614191143202831372E307832322E30696E63682941905394D257D0D1146202832382E307834302E30696E63682941905394D257D191142202831312E307831372E30696E63682941905394D257D091
310
144202832322E307833342E30696E63682941905394D257D111145202833342E307834342E30696E63682941905394D257D1510412028382E357831312E30696E63682941905394D257D050543905B9CDA482557247A25E4C81110D0C414E53495F5449544C45444343505B9CDA482557247A25E4C81050B414E53495F5449
310
544C454143905B9CDA482557247A25E4C81050D0C414E53495F5449544C454143425554C82557247A25E4D0A414E53495F544954555343505B9CDA482557247A25E4C81110B414E53495F5449544C454442110979A97F0838A8358836720415F42525F45505394D257D09497D4995D9A5CDA5BDB9B1A5CDD18510979A97F08
310
38A8358836720415F54525F45505394D257D51497D4995D9A5CDA5BDB9B1A5CDD18510979A97F0838A8358836720445F42525F45505394D257D09497D4995D9A5CDA5BDB9B1A5CDD19110979A97F0838A8358836720445F54525F45505394D257D51497D4995D9A5CDA5BDB9B1A5CDD19110979A97F0838A8358836720415F
310
424C5F45505394D257D09317D4995D9A5CDA5BDB9B1A5CDD18510979A97F0838A8358836720415F544C5F45505394D257D51317D4995D9A5CDA5BDB9B1A5CDD18510979A97F0838A8358836720445F424C5F45505394D257D09317D4995D9A5CDA5BDB9B1A5CDD19110979A97F0838A8358836720445F544C5F45505394D25
310
7D51317D4995D9A5CDA5BDB9B1A5CDD190
  0
ACAD_PROXY_OBJECT
  5
761
330
760
100
AcDbProxyObject
 90
      499
 91
      572
 95
       25
 70
     0
 93
       86
310
5DEA0C80A0280A0280A034
  0
ACAD_PROXY_OBJECT
  5
762
330
760
100
AcDbProxyObject
 90
      499
 91
      573
 95
       25
 70
     0
 93
      282
310
5DD0E4050140501405014050140501405014050141101405014048000000000000001000
340
74E
 94
        0
  0
ACAD_PROXY_OBJECT
  5
763
330
760
100
AcDbProxyObject
 90
      499
 91
      574
 95
       25
 70
     0
 93
      387
310
5DC8666666666667A67E6DDB36EDDB36ED9F91740501405014050140501405014050140501405014050140501405014040
340
749
 94
        0
  0
ACAD_PROXY_OBJECT
  5
764
330
760
100
AcDbProxyObject
 90
      499
 91
      575
 95
       25
 70
     0
 93
       10
310
5DC0
  0
ACAD_PROXY_OBJECT
  5
765
330
760
100
AcDbProxyObject
 90
      499
 91
      576
 95
       25
 70
     0
 93
      257
310
5DE0C16A22A7D90F49F80000000000001081400000000000004204010000618000
340
74A
340
74B
 94
        0
  0
ACAD_PROXY_OBJECT
  5
766
330
760
100
AcDbProxyObject
 90
      499
 91
      577
 95
       25
 70
     0
 93
    13013
310
5DD0E411255115350141236025B690140501406901000000000000091013347454E545241434F2C4A504E2C302C8D8096DA2C47454E54524154582C25732C2847454E4D53472067656E647767203232322940690120281A8AA2CA0282484A4BE52028120280A0320200000000000012202668E8A9CA8A482869E5894A09C58
310
605921292F94588E8A9CA8A482A8B0584AE658508E8A9C9AA68E40CECADCC8EECE406464665280D202405044E414D454050496BC914F4051C40640A80000000000004E404CD1D15395149050D3CB1294138B0C0B25AF2453CB11D15395149055160B095CCB0A11D1539354D1C819D95B991DD9C80C8C8D8A50192C3D494628
310
4953424C414E4B28504152543A4E414D45292C424C4F434B3A4E414D452C504152543A4E414D452940480A0A888AA686A480A09251B1DBE80A3A80C81D0000000000100A28099A3A2A72A2920A1A7962528271618164946C76F9623A2A72A2920AA2C1612B9961423A2A726A9A39033B2B7323BB39019189B94A0348090142
310
14D51053911054911014122D2E29A50147501904A000000000000125013347454E545241434F2C4A504E2C302C8B4B8A692C47454E54524154582C25732C2847454E4D53472067656E64776720323138294069012028426A0AA22A924A0A62028246EF4BDFA028EA0320B40000000000001CA02668E8A9CA8A482869E5894A
310
09C5860591BBD2F7E588E8A9CA8A482A8B0584AE658508E8A9C9AA68E40CECADCC8EECE406464625280D202405044E4F544540504928D8B4C4051D40641A80000000000003E404CD1D15395149050D3CB1294138B0C0B24A362D30B11D15395149055160B095CCB0A11D1539354D1C819D95B991DD9C80C8C8D4A501240480
310
A0CAC8A9C889EA480A1106F1072706BF02B680A3A80C83D00000000000007C809BA3A2A72A2920A1A79625282716181641BC41C9C1AFC0AD9623A2A72A2920AA2C1612B9961423A2A726A9A39033B2B7323BB39019191A14A0248090141911154D0D48C90141A43825AF880C90147501908A000000000020145013447454E5
310
45241434F2C4A504E2C302C90E096BE20322C47454E54524154582C25732C2847454E4D53472067656E6477672033362940490120284A9AA20A72220A922192028345A5C53490192028EA03213400000000000024A026A8E8A9CA8A482869E5894A09C586059169714D24064588E8A9CA8A482A8B0584AE658508E8A9C9AA6
310
8E40CECADCC8EECE4064646052809202405094D4154455249414C32405068DDE97BF20324051D40642A8713D0AD7A37045404D11D15395149050D3CB1294138B0C0B2377A5EFC80C8B11D15395149055160B095CCB0A11D1539354D1C819D95B991DD9C80D0C0A501240480A089A82A6A680A091D7F2F9480A3A80A0485A06
310
8100000000000007C809923A2A72A2920A1A796252827161816475FCBE51623A2A72A2920AA2C1612B9961423A2A726A9A39033B2B7323BB3901A1914A024809014154149250D150141226FE29A501475014090C409020000000000000F9013247454E545241434F2C4A504E2C302C89BF8A692C47454E54524154582C2573
310
2C2847454E4D53472067656E6477672034332940490120281A224A6A02824850CB202028EA028121A81A040000000000001F202648E8A9CA8A482869E5894A09C58605921432C80588E8A9CA8A482A8B0584AE658508E8A9C9AA68E40CECADCC8EECE406868528092024050E445020000000000000490201C00030C0001018
310
0000000000003B400000000000000ED01073D3C4954454D3E4050180000000000003B400000000000000ED01073D3C4954454D3E40501800000000000032400000000000000C901073D3C4954454D3E40501800000000000032400000000000000C901073D3C4954454D3E405029010000000000000ED000000000000003B4
310
041CF4F125511534F901418F4F1455164F9014060000000000000ED000000000000003B4041CF4F125511534F9014060000000000000D100000000000000344041CF4F125511534F901901000000000000000ED000000000000003B40A2200000000000008204018000618048220681A048120280C88214844882034852034
310
8452028521485214814000000000000F0BF0000000000003C2FD018020000C3008070000C3003373333333333B0FCCDCCCCCCCCCCEC3F0CCCCCCCCCCCC25012034164050341105901A19999999999984A040100006180401000061804008000618008098A02808
340
0
340
0
 94
        0
  0
ACAD_PROXY_OBJECT
  5
767
330
760
100
AcDbProxyObject
 90
      499
 91
      578
 95
       25
 70
     0
 93
      898
310
5DC4000000000000124048CF4F11115510525317D3105091530F880A0F11115510525317D05094D4D0D053114F8A50241C9A9999999999B93F26A666666666724FC000000000000E03F400000000000000400000000000000510000000000000024408070000C300000000000000049000
340
15
340
74D
 94
        0
  0
ACAD_PROXY_OBJECT
  5
768
330
760
100
AcDbProxyObject
 90
      499
 91
      579
 95
       25
 70
     0
 93
      823
310
5DC0B00000000000002480959E9E29A2A1AA24A7A72FA620A122A62FA324A929AA1F169E29A2A1AA24A7A72FA620A122A62FA620A9AA1F000000000000048803FFFE01C00030C008140380006180000000000000048800000000000000A2000000000000002480
340
3BF
340
74D
 94
        0
  0
ACAD_PROXY_OBJECT
  5
769
330
760
100
AcDbProxyObject
 90
      499
 91
      580
 95
       25
 70
     0
 93
      152
310
5DE8273108AC1C5A0640A3D0A5723F0BD1F200
  0
ACAD_PROXY_OBJECT
  5
76A
330
760
100
AcDbProxyObject
 90
      499
 91
      581
 95
       25
 70
     0
 93
       14
310
5DE0
340
0
 94
        0
  0
ACAD_PROXY_OBJECT
  5
76B
330
760
100
AcDbProxyObject
 90
      499
 91
      582
 95
       25
 70
     0
 93
     6059
310
5DD084050BA4050AA405024050E836583938376838C815B83672031405983D3C486F6C653A6469613E3C696628657175616C28486F6C653A7465726D696E6174696F6E2C223022292C2220905B82B320222C22208368838A838B22293E3C696628657175616C28486F6C653A7465726D696E6174696F6E2C223022292C486F
310
6C653A64657074682C2222293E2C203C486F6C653A63746469613E2082B482AE82E882CC905B82B3203C486F6C653A637464657074683E406901405034050E836583938376838C815B83672031405EF3D3C486F6C653A6374616E676C653E252564202525633C486F6C653A63746469613E208E4D8C8A2C203C69662865717
310
5616C28486F6C653A7461707065642C223022292C22252563222C486F6C653A6E6F6D696E616C202220782022293E3C696628657175616C28486F6C653A7461707065642C223022292C486F6C653A6469612C486F6C653A706974636864657363293E203C696628657175616C28486F6C653A7465726D696E6174696F6E2C2
310
23022292C22905B82B320222C222022293E3C696628657175616C28486F6C653A7465726D696E6174696F6E2C223022292C486F6C653A64657074682C2222293E406901405014050E836583938376838C815B83672031405C73D3C696628657175616C28486F6C653A7461707065642C223022292C22252563222C486F6C65
310
3A6E6F6D696E616C202220782022293E3C696628657175616C28486F6C653A7461707065642C223022292C486F6C653A6469612C486F6C653A706974636864657363293E203C696628657175616C28486F6C653A7465726D696E6174696F6E2C223022292C22905B82B320222C222022293E3C696628657175616C28486F6C
310
653A7465726D696E6174696F6E2C223022292C486F6C653A64657074682C2222293E4069014051E4090E836583938376838C815B83672032405173D3C535444503A444553433E203C535444503A5354443E40690E836583938376838C815B836720314050C3D3C535444503A444553433E40690240515AAABBA120
360
76C
330
76C
360
76D
330
76D
360
76E
330
76E
360
76F
360
770
330
76F
330
770
 94
        0
  0
ACAD_PROXY_OBJECT
  5
771
330
760
100
AcDbProxyObject
 90
      499
 91
      564
 95
       25
 70
     0
 93
       26
310
5DD02A80
340
0
 94
        0
  0
ACAD_PROXY_OBJECT
  5
772
330
760
100
AcDbProxyObject
 90
      499
 91
      565
 95
       25
 70
     0
 93
      250
310
5DD020000000000000A1000000000000002440408F0F9023C3E409A0DCFFFF80
340
74F
340
0
340
756
340
750
340
751
340
752
340
753
340
754
340
755
340
0
 94
        0
  0
ACAD_PROXY_OBJECT
  5
773
330
760
100
AcDbProxyObject
 90
      499
 91
      583
 95
       25
 70
     0
 93
    13889
310
5DD1D003FFFFFFFD030300030CCCCCCCCCCCC250200800030C01030300030CCCCCCCCCCCC250200800030C00050C8DC0955782CC838A83588367014ED1D15395149050D3CB1294138B0C0B23702555E0B320E2A0D620D9CB11D15395149055160B095CCB0A11D1539354D1C819D95B991A5B5E880CCC0A78000C0000000000
310
00000000000000000000010CCCCCCCCCCCC250200800030C010CCCCCCCCCCCC250200800030C020143CF4F111959985D5B1D151A5D1B194F8050A8C8A8365815B8375838B014E51D15395149050D3CB1294138B0C0B2322A0D96056E0DD60E2CB11D15395149055160B095CCB0A11D1539354D1C819D95B991A5B5E880CCC4
310
A78000C000000000000000000000000000000010CCCCCCCCCCCC250200800030C010CCCCCCCCCCCC250200800030C020143CF4F111959985D5B1D151A5D1B194F90D44111409034110541D0C4350F4050E44D03449074510F000141232D24D7C053247454E545241434F2C4A504E2C302C8CB4935F2C47454E54524154582C
310
25732C2847454E4D53472067656E64696D7A20312900010104002214000281464500A608E8A9CA8A482869E5894A09C5860591914588E8A9CA8A482A8B0584AE658508E8A9C9AA68E40CECADCC8D2DAF4406452029E9E9E27B934B3B4B71F1E24A31427A91424A9A12620A7259427B934B3B4B7149624A9A12620A7259424B
310
A32B6949496111116111711149F1E24BA32B69F00808200111A000140560052F47454E545241434F2C4A504E2C302C582C47454E54524154582C25732C2847454E4D53472067656E64696D7A20332900010100002054000280AC80A5E8E8A9CA8A482869E5894A09C586058B2588E8A9CA8A482A8B0584AE658508E8A9C9AA
310
68E40CECADCC8D2DAF4406852000202000040E800050152014BD1D15395149050D3CB1294138B0C0B148B11D15395149055160B095CCB0A11D1539354D1C819D95B991A5B5E880D8A400040400008250000A0507A6029823A2A72A2920A1A79625282716181641E99623A2A72A2920AA2C1612B9961423A2A726A9A39033B2
310
B73234B6BD101B948000808180105A000140A0F4C053047454E545241434F2C4A504E2C302C83D32C47454E54524154582C25732C2847454E4D53472067656E64696D7A203829000101010020F400028248704B5F00A668E8A9CA8A482869E5894A09C58605921C12D7C588E8A9CA8A482A8B0584AE658508E8A9C9AA68E40
310
CECADCC8D2DAF440646052000200080043280005048B4B8A69014CD1D15395149050D3CB1294138B0C0B22D2E29A4B11D15395149055160B095CCB0A11D1539354D1C819D95B991A5B5E880C8C4A4000400100086D0000A09196926BE029923A2A72A2920A1A796252827161816465A49AF9623A2A72A2920AA2C1612B9961
310
423A2A726A9A39033B2B73234B6BD10189480A02620202080043E80005048D8096DA014CD1D15395149050D3CB1294138B0C0B236025B68B11D15395149055160B095CCB0A11D1539354D1C819D95B991A5B5E880C4D0A4000404140280D0000A190687072706CD06C5069D06B0029DA3A2A72A2920A1A7962528271618164
310
1A1C1C9C1B341B141A741AC1623A2A72A2920AA2C1612B9961423A2A726A9A39033B2B73234B6BD10189A94800080820050EA000143A322A0D0E0E4E0D9A0D8A0D3A0D60053D47454E545241434F2C4A504E2C302C8C8A8343839383668362834E83582C47454E54524154582C25732C2847454E4D53472067656E64696D7A
310
2031372900010105002274000281464500A628E8A9CA8A482869E5894A09C5860591914588E8A9CA8A482A8B0584AE658508E8A9C9AA68E40CECADCC8D2DAF440626C52000202080044A8000504909497CA014CD1D15395149050D3CB1294138B0C0B242525F28B11D15395149055160B095CCB0A11D1539354D1C819D95B9
310
91A5B5E880C4E4A400040418008A521E000000000000001CA040C00000000000034408080000000000006881010000000000000D102040000000000001A204080000000000003440818000000000000728103000000000000125020600000000004028A040000000000000034408000000000000004881000000000000000D
310
102000000000000001A204000000000000003440818000000000000508143C0000000000000039408180000000000006881030000000000000D102060000000000001A2040C00000000000034408180000000000006881030000000000000E5020600000000000024A040C0000000000805140800000000000000688100000
310
00000000009102000000000000001A2040000000000000034408180000000000006881030000000000000A10284220000000878000002020000008380000020400000081800000208000000828000002028900000000
340
0
340
0
340
0
340
0
340
74D
340
74D
 94
        0
  0
ACAD_PROXY_OBJECT
  5
774
330
760
100
AcDbProxyObject
 90
      499
 91
      567
 95
       25
 70
     0
 93
     2290
310
5DD9740D29254D0A53484D323030355F413440DE184D1134A49535F42525F5265766973696F6E6C6973744050A53484D323030355F41344B10CE971058D8591B4C8C0C0D571058D8591B5711D95B97111DD9D7199BDC9B585D1714D2134C8C0C0D57D04D10140DE184D124433A5C416361646D323030355C416361646D5C47
310
656E5C4477675C5469746C655C7861344110E979A97F0838A835883675F42525F44D29254D7D09497D4995D9A5CDA5BDB9B1A5CDD10E979A97F0838A835883675F54525F44D29254D7D51497D4995D9A5CDA5BDB9B1A5CDD10E979A97F0838A835883675F424C5F44D29254D7D09317D4995D9A5CDA5BDB9B1A5CDD10E979A
310
97F0838A835883675F544C5F44D29254D7D51317D4995D9A5CDA5BDB9B1A5CDD00
  0
ACAD_PROXY_OBJECT
  5
3DF
330
3D5
100
AcDbProxyObject
 90
      499
 91
      563
 95
       25
 70
     0
 93
     2256
310
5DE0143A0D960E4E0DDA0E32056E0D9C80C40405013D3C696628657175616C28486F6C653A7461707065642C223022292C22252563222C486F6C653A6E6F6D696E616C2022202220696628657175616C28486F6C653A756E6974732C223122292C2278222C222D222920222022293E3C696628657175616C28486F6C653A74
310
61707065642C223022292C486F6C653A6469612C486F6C653A706974636864657363293E207B5C46414D4744543B787D203C696628657175616C28486F6C653A7465726D696E6174696F6E2C223022292C486F6C653A64657074682C228AD192CA22293E5C507B5C46414D4744543B767D2525633C486F6C653A6374646961
310
3E207B5C46414D4744543B787D203C486F6C653A637464657074683E
  0
ACAD_PROXY_OBJECT
  5
3E0
330
3D5
100
AcDbProxyObject
 90
      499
 91
      563
 95
       25
 70
     0
 93
     2192
310
5DE0143A0D960E4E0DDA0E32056E0D9C80C405FE3D3C696628657175616C28486F6C653A7461707065642C223022292C22252563222C486F6C653A6E6F6D696E616C2022202220696628657175616C28486F6C653A756E6974732C223122292C2278222C222D222920222022293E3C696628657175616C28486F6C653A7461
310
707065642C223022292C486F6C653A6469612C486F6C653A706974636864657363293E207B5C46414D4744543B787D203C696628657175616C28486F6C653A7465726D696E6174696F6E2C223022292C486F6C653A64657074682C228AD192CA22293E5C507B5C46414D4744543B777D2525633C486F6C653A63746469613E
310
2058203C486F6C653A6374616E676C653E252564
  0
ACAD_PROXY_OBJECT
  5
3DE
330
3D5
100
AcDbProxyObject
 90
      499
 91
      563
 95
       25
 70
     0
 93
     1816
310
5DE0143A0D960E4E0DDA0E32056E0D9C80C405CF3D3C696628657175616C28486F6C653A7461707065642C223022292C22252563222C486F6C653A6E6F6D696E616C2022202220696628657175616C28486F6C653A756E6974732C223122292C2278222C222D222920222022293E3C696628657175616C28486F6C653A7461
310
707065642C223022292C486F6C653A6469612C486F6C653A706974636864657363293E5C507B5C46414D4744543B787D203C696628657175616C28486F6C653A7465726D696E6174696F6E2C223022292C486F6C653A64657074682C228AD192CA22293E
  0
ACAD_PROXY_OBJECT
  5
3DD
330
3D5
100
AcDbProxyObject
 90
      499
 91
      563
 95
       25
 70
     0
 93
      344
310
5DE0143A0D960E4E0DDA0E32056E0D9C80C805173D3C535444503A444553433E203C535444503A5354443E
  0
ACAD_PROXY_OBJECT
  5
3DC
330
3D5
100
AcDbProxyObject
 90
      499
 91
      563
 95
       25
 70
     0
 93
      256
310
5DE0143A0D960E4E0DDA0E32056E0D9C80C4050C3D3C535444503A444553433E
  0
ACAD_PROXY_OBJECT
  5
76C
330
76B
100
AcDbProxyObject
 90
      499
 91
      563
 95
       25
 70
     0
 93
     1376
310
5DE0143A0D960E4E0DDA0E32056E0D9C80C405983D3C486F6C653A6469613E3C696628657175616C28486F6C653A7465726D696E6174696F6E2C223022292C2220905B82B320222C22208368838A838B22293E3C696628657175616C28486F6C653A7465726D696E6174696F6E2C223022292C486F6C653A64657074682C22
310
22293E2C203C486F6C653A63746469613E2082B482AE82E882CC905B82B3203C486F6C653A637464657074683E
  0
ACAD_PROXY_OBJECT
  5
76D
330
76B
100
AcDbProxyObject
 90
      499
 91
      563
 95
       25
 70
     0
 93
     2072
310
5DE0143A0D960E4E0DDA0E32056E0D9C80C405EF3D3C486F6C653A6374616E676C653E252564202525633C486F6C653A63746469613E208E4D8C8A2C203C696628657175616C28486F6C653A7461707065642C223022292C22252563222C486F6C653A6E6F6D696E616C202220782022293E3C696628657175616C28486F6C
310
653A7461707065642C223022292C486F6C653A6469612C486F6C653A706974636864657363293E203C696628657175616C28486F6C653A7465726D696E6174696F6E2C223022292C22905B82B320222C222022293E3C696628657175616C28486F6C653A7465726D696E6174696F6E2C223022292C486F6C653A6465707468
310
2C2222293E
  0
ACAD_PROXY_OBJECT
  5
76E
330
76B
100
AcDbProxyObject
 90
      499
 91
      563
 95
       25
 70
     0
 93
     1752
310
5DE0143A0D960E4E0DDA0E32056E0D9C80C405C73D3C696628657175616C28486F6C653A7461707065642C223022292C22252563222C486F6C653A6E6F6D696E616C202220782022293E3C696628657175616C28486F6C653A7461707065642C223022292C486F6C653A6469612C486F6C653A706974636864657363293E20
310
3C696628657175616C28486F6C653A7465726D696E6174696F6E2C223022292C22905B82B320222C222022293E3C696628657175616C28486F6C653A7465726D696E6174696F6E2C223022292C486F6C653A64657074682C2222293E
  0
ACAD_PROXY_OBJECT
  5
76F
330
76B
100
AcDbProxyObject
 90
      499
 91
      563
 95
       25
 70
     0
 93
      344
310
5DE0143A0D960E4E0DDA0E32056E0D9C80C805173D3C535444503A444553433E203C535444503A5354443E
  0
ACAD_PROXY_OBJECT
  5
770
330
76B
100
AcDbProxyObject
 90
      499
 91
      563
 95
       25
 70
     0
 93
      256
310
5DE0143A0D960E4E0DDA0E32056E0D9C80C4050C3D3C535444503A444553433E
  0
ENDSEC
  0
EOF
