  0
SECTION
  2
HEADER
  9
$ACADVER
  1
AC1015
  9
$ACADMAINTVER
 70
     6
  9
$DWGCODEPAGE
  3
ANSI_932
  9
$INSBASE
 10
0.0
 20
0.0
 30
0.0
  9
$EXTMIN
 10
-62.38348770141602
 20
-67.92835141029042
 30
0.0
  9
$EXTMAX
 10
121.9901609458351
 20
79.78075027465818
 30
0.0
  9
$LIMMIN
 10
0.0
 20
0.0
  9
$LIMMAX
 10
400.0
 20
273.0
  9
$ORTHOMODE
 70
     0
  9
$REGENMODE
 70
     1
  9
$FILLMODE
 70
     1
  9
$QTEXTMODE
 70
     0
  9
$MIRRTEXT
 70
     1
  9
$LTSCALE
 40
1.0
  9
$ATTMODE
 70
     1
  9
$TEXTSIZE
 40
3.0
  9
$TRACEWID
 40
0.5
  9
$TEXTSTYLE
  7
STANDARD
  9
$CLAYER
  8
0
  9
$CELTYPE
  6
ByLayer
  9
$CECOLOR
 62
   256
  9
$CELTSCALE
 40
1.0
  9
$DISPSILH
 70
     0
  9
$DIMSCALE
 40
1.0
  9
$DIMASZ
 40
3.0
  9
$DIMEXO
 40
1.0
  9
$DIMDLI
 40
5.0
  9
$DIMRND
 40
0.0
  9
$DIMDLE
 40
3.0
  9
$DIMEXE
 40
2.0
  9
$DIMTP
 40
0.0
  9
$DIMTM
 40
0.0
  9
$DIMTXT
 40
5.0
  9
$DIMCEN
 40
2.0
  9
$DIMTSZ
 40
0.0
  9
$DIMTOL
 70
     0
  9
$DIMLIM
 70
     0
  9
$DIMTIH
 70
     0
  9
$DIMTOH
 70
     0
  9
$DIMSE1
 70
     0
  9
$DIMSE2
 70
     0
  9
$DIMTAD
 70
     1
  9
$DIMZIN
 70
     8
  9
$DIMBLK
  1

  9
$DIMASO
 70
     1
  9
$DIMSHO
 70
     0
  9
$DIMPOST
  1

  9
$DIMAPOST
  1

  9
$DIMALT
 70
     0
  9
$DIMALTD
 70
     4
  9
$DIMALTF
 40
25.4
  9
$DIMLFAC
 40
1.0
  9
$DIMTOFL
 70
     1
  9
$DIMTVP
 40
1.0
  9
$DIMTIX
 70
     0
  9
$DIMSOXD
 70
     0
  9
$DIMSAH
 70
     0
  9
$DIMBLK1
  1

  9
$DIMBLK2
  1

  9
$DIMSTYLE
  2
Standard
  9
$DIMCLRD
 70
     0
  9
$DIMCLRE
 70
     0
  9
$DIMCLRT
 70
     0
  9
$DIMTFAC
 40
1.0
  9
$DIMGAP
 40
0.09
  9
$DIMJUST
 70
     0
  9
$DIMSD1
 70
     0
  9
$DIMSD2
 70
     0
  9
$DIMTOLJ
 70
     1
  9
$DIMTZIN
 70
     0
  9
$DIMALTZ
 70
     0
  9
$DIMALTTZ
 70
     0
  9
$DIMUPT
 70
     0
  9
$DIMDEC
 70
     4
  9
$DIMTDEC
 70
     4
  9
$DIMALTU
 70
     2
  9
$DIMALTTD
 70
     2
  9
$DIMTXSTY
  7
STANDARD
  9
$DIMAUNIT
 70
     0
  9
$DIMADEC
 70
     0
  9
$DIMALTRND
 40
0.0
  9
$DIMAZIN
 70
     0
  9
$DIMDSEP
 70
    46
  9
$DIMATFIT
 70
     3
  9
$DIMFRAC
 70
     0
  9
$DIMLDRBLK
  1

  9
$DIMLUNIT
 70
     2
  9
$DIMLWD
 70
    -2
  9
$DIMLWE
 70
    -2
  9
$DIMTMOVE
 70
     0
  9
$LUNITS
 70
     2
  9
$LUPREC
 70
     4
  9
$SKETCHINC
 40
1.0
  9
$FILLETRAD
 40
0.0
  9
$AUNITS
 70
     0
  9
$AUPREC
 70
     0
  9
$MENU
  1
acad
  9
$ELEVATION
 40
0.0
  9
$PELEVATION
 40
0.0
  9
$THICKNESS
 40
0.0
  9
$LIMCHECK
 70
     0
  9
$CHAMFERA
 40
0.0
  9
$CHAMFERB
 40
0.0
  9
$CHAMFERC
 40
0.0
  9
$CHAMFERD
 40
0.0
  9
$SKPOLY
 70
     0
  9
$TDCREATE
 40
2453969.548796296
  9
$TDUCREATE
 40
2453969.173796296
  9
$TDUPDATE
 40
2455482.466579317
  9
$TDUUPDATE
 40
2455482.091579317
  9
$TDINDWG
 40
0.0131176157
  9
$TDUSRTIMER
 40
0.0131170718
  9
$USRTIMER
 70
     1
  9
$ANGBASE
 50
0.0
  9
$ANGDIR
 70
     0
  9
$PDMODE
 70
     0
  9
$PDSIZE
 40
0.0
  9
$PLINEWID
 40
0.0
  9
$SPLFRAME
 70
     0
  9
$SPLINETYPE
 70
     6
  9
$SPLINESEGS
 70
    16
  9
$HANDSEED
  5
919
  9
$SURFTAB1
 70
     6
  9
$SURFTAB2
 70
     6
  9
$SURFTYPE
 70
     6
  9
$SURFU
 70
     6
  9
$SURFV
 70
     6
  9
$UCSBASE
  2

  9
$UCSNAME
  2

  9
$UCSORG
 10
0.0
 20
0.0
 30
0.0
  9
$UCSXDIR
 10
1.0
 20
0.0
 30
0.0
  9
$UCSYDIR
 10
0.0
 20
1.0
 30
0.0
  9
$UCSORTHOREF
  2

  9
$UCSORTHOVIEW
 70
     0
  9
$UCSORGTOP
 10
0.0
 20
0.0
 30
0.0
  9
$UCSORGBOTTOM
 10
0.0
 20
0.0
 30
0.0
  9
$UCSORGLEFT
 10
0.0
 20
0.0
 30
0.0
  9
$UCSORGRIGHT
 10
0.0
 20
0.0
 30
0.0
  9
$UCSORGFRONT
 10
0.0
 20
0.0
 30
0.0
  9
$UCSORGBACK
 10
0.0
 20
0.0
 30
0.0
  9
$PUCSBASE
  2

  9
$PUCSNAME
  2

  9
$PUCSORG
 10
0.0
 20
0.0
 30
0.0
  9
$PUCSXDIR
 10
1.0
 20
0.0
 30
0.0
  9
$PUCSYDIR
 10
0.0
 20
1.0
 30
0.0
  9
$PUCSORTHOREF
  2

  9
$PUCSORTHOVIEW
 70
     0
  9
$PUCSORGTOP
 10
0.0
 20
0.0
 30
0.0
  9
$PUCSORGBOTTOM
 10
0.0
 20
0.0
 30
0.0
  9
$PUCSORGLEFT
 10
0.0
 20
0.0
 30
0.0
  9
$PUCSORGRIGHT
 10
0.0
 20
0.0
 30
0.0
  9
$PUCSORGFRONT
 10
0.0
 20
0.0
 30
0.0
  9
$PUCSORGBACK
 10
0.0
 20
0.0
 30
0.0
  9
$USERI1
 70
     0
  9
$USERI2
 70
     0
  9
$USERI3
 70
     0
  9
$USERI4
 70
     0
  9
$USERI5
 70
     0
  9
$USERR1
 40
0.0
  9
$USERR2
 40
0.0
  9
$USERR3
 40
0.0
  9
$USERR4
 40
0.0
  9
$USERR5
 40
0.0
  9
$WORLDVIEW
 70
     1
  9
$SHADEDGE
 70
     3
  9
$SHADEDIF
 70
    70
  9
$TILEMODE
 70
     1
  9
$MAXACTVP
 70
    64
  9
$PINSBASE
 10
0.0
 20
0.0
 30
0.0
  9
$PLIMCHECK
 70
     0
  9
$PEXTMIN
 10
1.000000000000000E+20
 20
1.000000000000000E+20
 30
1.000000000000000E+20
  9
$PEXTMAX
 10
-1.000000000000000E+20
 20
-1.000000000000000E+20
 30
-1.000000000000000E+20
  9
$PLIMMIN
 10
0.0
 20
0.0
  9
$PLIMMAX
 10
12.0
 20
9.0
  9
$UNITMODE
 70
     0
  9
$VISRETAIN
 70
     1
  9
$PLINEGEN
 70
     0
  9
$PSLTSCALE
 70
     1
  9
$TREEDEPTH
 70
  3020
  9
$CMLSTYLE
  2
Standard
  9
$CMLJUST
 70
     0
  9
$CMLSCALE
 40
1.0
  9
$PROXYGRAPHICS
 70
     1
  9
$MEASUREMENT
 70
     0
  9
$CELWEIGHT
370
    -1
  9
$ENDCAPS
280
     0
  9
$JOINSTYLE
280
     0
  9
$LWDISPLAY
290
     0
  9
$INSUNITS
 70
     0
  9
$HYPERLINKBASE
  1

  9
$STYLESHEET
  1
sei_cad.ctb
  9
$XEDIT
290
     1
  9
$CEPSNTYPE
380
     0
  9
$PSTYLEMODE
290
     1
  9
$FINGERPRINTGUID
  2
{E1128E28-5AFC-47D1-8B7A-19C737CA7058}
  9
$VERSIONGUID
  2
{03A38EED-FB3E-456D-BBE4-7A42CA8C4C3F}
  9
$EXTNAMES
290
     1
  9
$PSVPSCALE
 40
0.0
  9
$OLESTARTUP
290
     0
  0
ENDSEC
  0
SECTION
  2
CLASSES
  0
CLASS
  1
ACDBDICTIONARYWDFLT
  2
AcDbDictionaryWithDefault
  3
ObjectDBX Classes
 90
        0
280
     0
281
     0
  0
CLASS
  1
TABLESTYLE
  2
AcDbTableStyle
  3
ObjectDBX Classes
 90
     2047
280
     0
281
     0
  0
CLASS
  1
ACME_DOCUMENT
  2
AcMeDbDoc
  3
AcMeServices
 90
        0
280
     1
281
     0
  0
CLASS
  1
ACMESCOPE
  2
AcMeScope
  3
AcMeServices
 90
        0
280
     1
281
     0
  0
CLASS
  1
ACMECOMMANDHISTORY
  2
AcMeCommandHistory
  3
AcMeServices
 90
        0
280
     1
281
     0
  0
CLASS
  1
ACIMSYSVARMAN
  2
AcImSysVarManager
  3
AcMeServices
 90
        0
280
     1
281
     0
  0
CLASS
  1
ACIMINTSYSVAR
  2
AcImIntSysVar
  3
AcMeServices
 90
        0
280
     1
281
     0
  0
CLASS
  1
ACMEDRAWINGMAN
  2
AcMeDrawingMan
  3
AcMeServices
 90
        0
280
     1
281
     0
  0
CLASS
  1
ACMEVIEW
  2
AcMeView
  3
AcMeServices
 90
        0
280
     1
281
     0
  0
CLASS
  1
ACDBENTITYCACHE
  2
AcMeEntityCache
  3
AcMeServices
 90
        0
280
     1
281
     0
  0
CLASS
  1
GSMANAGER
  2
AcMeGSManager
  3
AcMeServices
 90
        0
280
     1
281
     0
  0
CLASS
  1
AMDTINTERNALREACTOR
  2
AmdtInternalReactor
  3
AcMeServices
 90
        0
280
     1
281
     0
  0
CLASS
  1
ACMESTATEMGR
  2
AcMeStateMgr
  3
AcMeServices
 90
        0
280
     1
281
     0
  0
CLASS
  1
ACGREFMASTER
  2
AcGrefMaster
  3
AcAttribServices
 90
        0
280
     1
281
     0
  0
CLASS
  1
AM_DRAWING_MGR
  2
AcDmDwgMgr
  3
AcMechDwgViewMgmt
 90
        0
280
     1
281
     0
  0
CLASS
  1
AM_DWG_DOCUMENT
  2
AcDmDwgDocument
  3
AcMechDwgViewMgmt
 90
        0
280
     1
281
     0
  0
CLASS
  1
AM_DWG_SHEET
  2
AcDmSheet
  3
AcMechDwgViewMgmt
 90
        0
280
     1
281
     0
  0
CLASS
  1
AM_VIEWDIMPARMAP
  2
AcDmViewDimParMap
  3
AcMechDwgViewMgmt
 90
        0
280
     1
281
     0
  0
CLASS
  1
ACIMREALSYSVAR
  2
AcImRealSysVar
  3
AcMeServices
 90
        0
280
     1
281
     0
  0
CLASS
  1
AM_DWGMGR_NAME
  2
AcDmDwgMgrName
  3
AcMechDwgViewMgmt
 90
        0
280
     1
281
     0
  0
CLASS
  1
ACME_DATABASE
  2
AcMeDbDatabase
  3
AcMeServices
 90
        0
280
     1
281
     0
  0
CLASS
  1
ACRFINSADJUSTERMGR
  2
AcRfInsAdjusterMgr
  3
AcMeServices
 90
        0
280
     1
281
     0
  0
CLASS
  1
ACGREFACADMASTER
  2
AcGrefacadMaster
  3
AcGrefServices
 90
        0
280
     1
281
     0
  0
CLASS
  1
AMDTMENUSTATEMGR
  2
AmdtMenuStateMgr
  3
McadcomServices
 90
        0
280
     1
281
     0
  0
CLASS
  1
AMDTMCOMMENUSTATE
  2
AmdtMcomMenuState
  3
McadcomServices
 90
        0
280
     1
281
     0
  0
CLASS
  1
AMIMASTER
  2
AmiMaster
  3
AmiServices
 90
        0
280
     1
281
     0
  0
CLASS
  1
AMGSETTINGSOBJ
  2
AmgSettingsObj
  3
"AcadM|Product Description: AutoCAD Mechanical 2000|Company: Autodesk"
 90
        0
280
     1
281
     0
  0
CLASS
  1
MAPIAMMOUDLE
  2
MApiAmModule
  3
MApiAmServices
 90
        0
280
     1
281
     0
  0
CLASS
  1
AMDTADMENUSTATE
  2
AmdtAdMenuState
  3
DesignerServices
 90
        0
280
     1
281
     0
  0
CLASS
  1
ADAPPL
  2
AcAdAppl
  3
DesignerServices
 90
        0
280
     1
281
     0
  0
CLASS
  1
DEPMGR
  2
AcAdDepMgr
  3
DesignerServices
 90
        0
280
     1
281
     0
  0
CLASS
  1
PARAMMGR
  2
AcAdParamMgr
  3
DesignerServices
 90
        0
280
     1
281
     0
  0
CLASS
  1
PARAMSCOPE
  2
AcAdParamScope
  3
DesignerServices
 90
        0
280
     1
281
     0
  0
CLASS
  1
NAMEDAPPL
  2
AcAdNamedAppl
  3
DesignerServices
 90
        0
280
     1
281
     0
  0
CLASS
  1
AMDTDMMENUSTATE
  2
AmdtDmMenuState
  3
AcMechDwgViewMgmt
 90
        0
280
     1
281
     0
  0
CLASS
  1
AMDTAMMENUSTATE
  2
AmdtAmMenuState
  3
DesignerAssemblies
 90
        0
280
     1
281
     0
  0
CLASS
  1
ACIMSTRSYSVAR
  2
AcImStrSysVar
  3
AcMeServices
 90
        0
280
     1
281
     0
  0
CLASS
  1
ACAMPROJECT
  2
AcAmProject
  3
DesignerAssemblies
 90
        0
280
     1
281
     0
  0
CLASS
  1
ACAMGRCOMPDEF
  2
AcAmGrCompDef
  3
DesignerAssemblies
 90
        0
280
     1
281
     0
  0
CLASS
  1
ACCMCONTEXT
  2
AcCmContext
  3
DesignerAssemblies
 90
        0
280
     1
281
     0
  0
CLASS
  1
ACAMCOMPDEF
  2
AcAmCompDef
  3
DesignerAssemblies
 90
        0
280
     1
281
     0
  0
CLASS
  1
ACAMCOMPDEFMGR
  2
AcAmCompDefMgr
  3
DesignerAssemblies
 90
        0
280
     1
281
     0
  0
CLASS
  1
AMCONTEXTMGR
  2
AcAmContextMgr
  3
DesignerAssemblies
 90
        0
280
     1
281
     0
  0
CLASS
  1
ACAMCONTEXTMODELER
  2
AcAmContextModeler
  3
DesignerAssemblies
 90
        0
280
     1
281
     0
  0
CLASS
  1
ACMDATADICTIONARY
  2
AcmDataDictionary
  3
"AcmSymBB|Product Description: AutoCAD Mechanical 2004 DX|Company: Autodesk"
 90
        0
280
     1
281
     0
  0
CLASS
  1
CATALOGSTATE
  2
AcAmCatalogState
  3
DesignerAssemblies
 90
        0
280
     1
281
     0
  0
CLASS
  1
ACAMGRCOMPDEFSET
  2
AcAmGrCompDefSet
  3
DesignerAssemblies
 90
        0
280
     1
281
     0
  0
CLASS
  1
AMDTBROWSERDBTAB
  2
AmdtBrowserDbTab
  3
McadcomServices
 90
        0
280
     1
281
     0
  0
CLASS
  1
CBROWSERAPPOBJECT
  2
CBrowserAppObject
  3
McadcomServices
 90
        0
280
     1
281
     0
  0
CLASS
  1
DM_PLACEHOLDER
  2
AcDmSelsetPlaceholder
  3
AcMechDwgViewMgmt
 90
        0
280
     1
281
     0
  0
CLASS
  1
ACMSTANDARDANSI
  2
AcmStandardANSI
  3
"Amdt_StdImp|Product Description: AutoCAD Mechanical 2004 DX|Company: Autodesk"
 90
        0
280
     1
281
     0
  0
CLASS
  1
AMGOBJPROPCFG
  2
AmgObjPropCfg
  3
"AmgLay|Product Description: AutoCAD Mechanical 2000|Company: Autodesk"
 90
        1
280
     1
281
     0
  0
CLASS
  1
ACMSURFSTANDARDANSI
  2
AcmSurfTextStdANSI
  3
"Amdt_StdImp|Product Description: AutoCAD Mechanical 2004 DX|Company: Autodesk"
 90
        0
280
     1
281
     0
  0
CLASS
  1
ACMFCFSTANDARDANSI
  2
AcmFCFStdANSI
  3
"Amdt_StdImp|Product Description: AutoCAD Mechanical 2004 DX|Company: Autodesk"
 90
        0
280
     1
281
     0
  0
CLASS
  1
ACMWELDSTANDARDANSI
  2
AcmWeldingStdANSI
  3
"Amdt_StdImp|Product Description: AutoCAD Mechanical 2004 DX|Company: Autodesk"
 90
        0
280
     1
281
     0
  0
CLASS
  1
ACMIDSTANDARDANSI
  2
AcmIdStdANSI
  3
"Amdt_StdImp|Product Description: AutoCAD Mechanical 2004 DX|Company: Autodesk"
 90
        0
280
     1
281
     0
  0
CLASS
  1
ACMDATUMSTANDARDANSI
  2
AcmDatumStdANSI
  3
"Amdt_StdImp|Product Description: AutoCAD Mechanical 2004 DX|Company: Autodesk"
 90
        0
280
     1
281
     0
  0
CLASS
  1
ACMBOMSTANDARDANSI
  2
AcmBOMStdANSI
  3
"Amdt_StdImp|Product Description: AutoCAD Mechanical 2004 DX|Company: Autodesk"
 90
        0
280
     1
281
     0
  0
CLASS
  1
ACMDETAILSTANDARDANSI
  2
AmdtDetailSymStdANSI
  3
"Amdt_StdImp|Product Description: AutoCAD Mechanical 2004 DX|Company: Autodesk"
 90
        0
280
     1
281
     0
  0
CLASS
  1
ACMSECTIONSTANDARDANSI
  2
AmdtSectionSymStdANSI
  3
"Amdt_StdImp|Product Description: AutoCAD Mechanical 2004 DX|Company: Autodesk"
 90
        0
280
     1
281
     0
  0
CLASS
  1
ACMCENTERLINESTANDARDANSI
  2
AmdtCenterLineStdANSI
  3
"Amdt_StdImp|Product Description: AutoCAD Mechanical 2004 DX|Company: Autodesk"
 90
        0
280
     1
281
     0
  0
CLASS
  1
ACMTHREADLINESTANDARDANSI
  2
AmdtThreadLineStdANSI
  3
"Amdt_StdImp|Product Description: AutoCAD Mechanical 2004 DX|Company: Autodesk"
 90
        0
280
     1
281
     0
  0
CLASS
  1
ACMNOTESTANDARDANSI
  2
AmdtNoteStdANSI
  3
"Amdt_StdImp|Product Description: AutoCAD Mechanical 2004 DX|Company: Autodesk"
 90
        0
280
     1
281
     0
  0
CLASS
  1
AMDTNOTETEMPLATEDB
  2
AmdtNoteTemplateDB
  3
AMDT_STDIMP_MODULE_NAME
 90
        0
280
     1
281
     0
  0
CLASS
  1
ACAMGLAYSTD
  2
AcAmgLayStd
  3
"AcAmgLayStd|Product Description: AutoCAD Mechanical 2000|Company: Autodesk"
 90
        0
280
     1
281
     0
  0
CLASS
  1
ACAMGDIMSTD
  2
AcAmgDimStd
  3
"AcAmgDimStd|Product Description: AutoCAD Mechanical 2000|Company: Autodesk"
 90
        0
280
     1
281
     0
  0
CLASS
  1
ACAMGHOLECHARTSTDANSI
  2
AcAmgHoleChartStdANSI
  3
ACMSYMBB_MODULE_NAME
 90
        0
280
     1
281
     0
  0
CLASS
  1
ACAMGTITLESTD
  2
AcAmgTitleStd
  3
"TITLEAPP"
 90
        0
280
     1
281
     0
  0
CLASS
  1
ACAMGFILTERDAT
  2
AcAmgFilterDat
  3
"AcadM|Product Description: AutoCAD Mechanical 2000|Company: Autodesk"
 90
        0
280
     1
281
     0
  0
CLASS
  1
DICTIONARYVAR
  2
AcDbDictionaryVar
  3
ObjectDBX Classes
 90
        0
280
     0
281
     0
  0
CLASS
  1
AMDTNOTE
  2
AmdtNote
  3
"AcmSymBB|Product Description: AutoCAD Mechanical 2004 DX|Company: Autodesk"
 90
     1023
280
     1
281
     1
  0
CLASS
  1
ACMSTANDARDJIS
  2
AcmStandardJIS
  3
"Amdt_StdImp|Product Description: AutoCAD Mechanical 2004 DX|Company: Autodesk"
 90
        0
280
     1
281
     0
  0
CLASS
  1
ACMSURFSTANDARDJIS
  2
AcmSurfTextStdJIS
  3
"Amdt_StdImp|Product Description: AutoCAD Mechanical 2004 DX|Company: Autodesk"
 90
        0
280
     1
281
     0
  0
CLASS
  1
ACMFCFSTANDARDJIS
  2
AcmFCFStdJIS
  3
"Amdt_StdImp|Product Description: AutoCAD Mechanical 2004 DX|Company: Autodesk"
 90
        0
280
     1
281
     0
  0
CLASS
  1
ACMWELDSTANDARDJIS
  2
AcmWeldingStdJIS
  3
"Amdt_StdImp|Product Description: AutoCAD Mechanical 2004 DX|Company: Autodesk"
 90
        0
280
     1
281
     0
  0
CLASS
  1
ACMIDSTANDARDJIS
  2
AcmIdStdJIS
  3
"Amdt_StdImp|Product Description: AutoCAD Mechanical 2004 DX|Company: Autodesk"
 90
        0
280
     1
281
     0
  0
CLASS
  1
ACMDATUMSTANDARDJIS
  2
AcmDatumStdJIS
  3
"Amdt_StdImp|Product Description: AutoCAD Mechanical 2004 DX|Company: Autodesk"
 90
        0
280
     1
281
     0
  0
CLASS
  1
ACMBOMSTANDARDJIS
  2
AcmBOMStdJIS
  3
"Amdt_StdImp|Product Description: AutoCAD Mechanical 2004 DX|Company: Autodesk"
 90
        0
280
     1
281
     0
  0
CLASS
  1
ACMDETAILSTANDARDJIS
  2
AmdtDetailSymStdJIS
  3
"Amdt_StdImp|Product Description: AutoCAD Mechanical 2004 DX|Company: Autodesk"
 90
        0
280
     1
281
     0
  0
CLASS
  1
ACMSECTIONSTANDARDJIS
  2
AmdtSectionSymStdJIS
  3
"Amdt_StdImp|Product Description: AutoCAD Mechanical 2004 DX|Company: Autodesk"
 90
        0
280
     1
281
     0
  0
CLASS
  1
ACMCENTERLINESTANDARDJIS
  2
AmdtCenterLineStdJIS
  3
"Amdt_StdImp|Product Description: AutoCAD Mechanical 2004 DX|Company: Autodesk"
 90
        0
280
     1
281
     0
  0
CLASS
  1
ACMTHREADLINESTANDARDJIS
  2
AmdtThreadLineStdJIS
  3
"Amdt_StdImp|Product Description: AutoCAD Mechanical 2004 DX|Company: Autodesk"
 90
        0
280
     1
281
     0
  0
CLASS
  1
ACMNOTESTANDARDJIS
  2
AmdtNoteStdJIS
  3
"Amdt_StdImp|Product Description: AutoCAD Mechanical 2004 DX|Company: Autodesk"
 90
        0
280
     1
281
     0
  0
CLASS
  1
ACAMGHOLECHARTSTDJIS
  2
AcAmgHoleChartStdJIS
  3
ACMSYMBB_MODULE_NAME
 90
        0
280
     1
281
     0
  0
CLASS
  1
ACMDATAENTRYBLOCK
  2
AcmDataEntryBlock
  3
"AcmSymBB|Product Description: AutoCAD Mechanical 2004 DX|Company: Autodesk"
 90
        0
280
     1
281
     0
  0
CLASS
  1
ACDBPLACEHOLDER
  2
AcDbPlaceHolder
  3
ObjectDBX Classes
 90
        0
280
     0
281
     0
  0
CLASS
  1
LAYOUT
  2
AcDbLayout
  3
ObjectDBX Classes
 90
        0
280
     0
281
     0
  0
ENDSEC
  0
SECTION
  2
TABLES
  0
TABLE
  2
VPORT
  5
8
330
0
100
AcDbSymbolTable
 70
     3
  0
VPORT
  5
913
330
8
100
AcDbSymbolTableRecord
100
AcDbViewportTableRecord
  2
*Active
 70
     0
 10
0.0
 20
0.0
 11
1.0
 21
1.0
 12
47.49308645748064
 22
5.930431921143679
 13
0.0
 23
0.0
 14
0.5
 24
0.5
 15
0.0
 25
0.0
 16
0.0
 26
0.0
 36
1.0
 17
0.0
 27
0.0
 37
0.0
 40
148.9771257031406
 41
1.610603290676417
 42
50.0
 43
0.0
 44
0.0
 50
0.0
 51
0.0
 71
     0
 72
 10000
 73
     1
 74
     1
 75
     0
 76
     0
 77
     0
 78
     0
281
     0
 65
     0
110
0.0
120
0.0
130
0.0
111
1.0
121
0.0
131
0.0
112
0.0
122
1.0
132
0.0
 79
     0
146
0.0
  0
ENDTAB
  0
TABLE
  2
LTYPE
  5
5
330
0
100
AcDbSymbolTable
 70
    13
  0
LTYPE
  5
13
330
5
100
AcDbSymbolTableRecord
100
AcDbLinetypeTableRecord
  2
ByBlock
 70
     0
  3

 72
    65
 73
     0
 40
0.0
  0
LTYPE
  5
14
330
5
100
AcDbSymbolTableRecord
100
AcDbLinetypeTableRecord
  2
ByLayer
 70
     0
  3

 72
    65
 73
     0
 40
0.0
  0
LTYPE
  5
15
330
5
100
AcDbSymbolTableRecord
100
AcDbLinetypeTableRecord
  2
CONTINUOUS
 70
     0
  3
solid line
 72
    65
 73
     0
 40
0.0
  0
LTYPE
  5
27
330
5
100
AcDbSymbolTableRecord
100
AcDbLinetypeTableRecord
  2
CENTER
 70
     0
  3
--- - --- - --- - --- - --- - 
 72
    65
 73
     4
 40
6.0
 49
3.0
 74
     0
 49
-1.0
 74
     0
 49
1.0
 74
     0
 49
-1.0
 74
     0
  0
LTYPE
  5
28
330
5
100
AcDbSymbolTableRecord
100
AcDbLinetypeTableRecord
  2
PHANTOM
 70
     0
  3
----- - - ----- - - ----- - - 
 72
    65
 73
     6
 40
8.0
 49
3.0
 74
     0
 49
-1.0
 74
     0
 49
1.0
 74
     0
 49
-1.0
 74
     0
 49
1.0
 74
     0
 49
-1.0
 74
     0
  0
LTYPE
  5
3A6
330
5
100
AcDbSymbolTableRecord
100
AcDbLinetypeTableRecord
  2
HIDDEN
 70
     0
  3
Hidden __ __ __ __ __ __ __ __ __ __ __ __ __ _
 72
    65
 73
     2
 40
0.375
 49
0.25
 74
     0
 49
-0.125
 74
     0
  0
LTYPE
  5
3A7
330
5
100
AcDbSymbolTableRecord
100
AcDbLinetypeTableRecord
  2
PHANTOM2
 70
     0
  3
Phantom (.5x) ___ _ _ ___ _ _ ___ _ _ ___ _ _
 72
    65
 73
     6
 40
1.25
 49
0.625
 74
     0
 49
-0.125
 74
     0
 49
0.125
 74
     0
 49
-0.125
 74
     0
 49
0.125
 74
     0
 49
-0.125
 74
     0
  0
LTYPE
  5
3E2
330
5
100
AcDbSymbolTableRecord
100
AcDbLinetypeTableRecord
  2
Amconstr
 70
     0
  3
_______________________
 72
    65
 73
     2
 40
9999.0
 49
9999.0
 74
     0
 49
0.0
 74
     0
  0
LTYPE
  5
3E8
330
5
100
AcDbSymbolTableRecord
100
AcDbLinetypeTableRecord
  2
CENTER2
 70
     0
  3
Center (.5x) ___ _ ___ _ ___ _ ___ _ ___ _ ___
 72
    65
 73
     4
 40
1.125
 49
0.75
 74
     0
 49
-0.125
 74
     0
 49
0.125
 74
     0
 49
-0.125
 74
     0
  0
LTYPE
  5
3E9
330
5
100
AcDbSymbolTableRecord
100
AcDbLinetypeTableRecord
  2
HIDDEN2
 70
     0
  3
Hidden (.5x) _ _ _ _ _ _ _ _ _ _ _ _ _ _ _ _ _
 72
    65
 73
     2
 40
0.1875
 49
0.125
 74
     0
 49
-0.0625
 74
     0
  0
LTYPE
  5
3EA
330
5
100
AcDbSymbolTableRecord
100
AcDbLinetypeTableRecord
  2
Amzigzag2
 70
     0
  3
/\/-/\/-/\/-/\/-/\/-/\/
 72
    65
 73
     2
 40
0.4401
 49
0.0001
 74
     4
 75
   135
340
3E6
 46
0.0016
 50
0.0
 44
0.0
 45
0.0
 49
-0.44
 74
     0
  0
LTYPE
  5
3F8
330
5
100
AcDbSymbolTableRecord
100
AcDbLinetypeTableRecord
  2
ACANSTGB
 70
     0
  3
__ . . __ . .
 72
    65
 73
     6
 40
0.35433070866
 49
0.15748031496
 74
     0
 49
-0.03937007874
 74
     0
 49
0.03937007874
 74
     0
 49
-0.03937007874
 74
     0
 49
0.03937007874
 74
     0
 49
-0.03937007874
 74
     0
  0
LTYPE
  5
3F9
330
5
100
AcDbSymbolTableRecord
100
AcDbLinetypeTableRecord
  2
ACANSTGL
 70
     0
  3
_ _ _ _ _
 72
    65
 73
     2
 40
0.11811023622
 49
0.07874015748
 74
     0
 49
-0.03937007874
 74
     0
  0
LTYPE
  5
653
330
5
100
AcDbSymbolTableRecord
100
AcDbLinetypeTableRecord
  2
ACJISTGB
 70
     0
  3
__ . . __ . .
 72
    65
 73
     6
 40
9.0
 49
4.0
 74
     0
 49
-1.0
 74
     0
 49
1.0
 74
     0
 49
-1.0
 74
     0
 49
1.0
 74
     0
 49
-1.0
 74
     0
  0
LTYPE
  5
654
330
5
100
AcDbSymbolTableRecord
100
AcDbLinetypeTableRecord
  2
ACJISTGL
 70
     0
  3
_ _ _ _ _
 72
    65
 73
     2
 40
3.0
 49
2.0
 74
     0
 49
-1.0
 74
     0
  0
ENDTAB
  0
TABLE
  2
LAYER
  5
2
102
{ACAD_XDICTIONARY
360
662
102
}
330
0
100
AcDbSymbolTable
 70
     7
  0
LAYER
  5
10
330
2
100
AcDbSymbolTableRecord
100
AcDbLayerTableRecord
  2
0
 70
     0
 62
     7
  6
CONTINUOUS
370
    -3
390
F
  0
LAYER
  5
29
330
2
100
AcDbSymbolTableRecord
100
AcDbLayerTableRecord
  2
1
 70
     0
 62
     7
  6
CONTINUOUS
370
    -3
390
F
  0
LAYER
  5
2A
330
2
100
AcDbSymbolTableRecord
100
AcDbLayerTableRecord
  2
2
 70
     0
 62
     7
  6
CONTINUOUS
370
    -3
390
F
  0
LAYER
  5
2C
330
2
100
AcDbSymbolTableRecord
100
AcDbLayerTableRecord
  2
6
 70
     0
 62
     7
  6
CONTINUOUS
370
    -3
390
F
  0
LAYER
  5
30
330
2
100
AcDbSymbolTableRecord
100
AcDbLayerTableRecord
  2
DEFPOINTS
 70
     0
 62
    -7
  6
CONTINUOUS
290
     0
370
    -3
390
F
  0
LAYER
  5
51C
330
2
100
AcDbSymbolTableRecord
100
AcDbLayerTableRecord
  2
AM_5
 70
     0
 62
     3
  6
CONTINUOUS
370
    15
390
F
  0
LAYER
  5
656
330
2
100
AcDbSymbolTableRecord
100
AcDbLayerTableRecord
  2
AM_6
 70
     0
 62
     2
  6
CONTINUOUS
370
    30
390
F
  0
ENDTAB
  0
TABLE
  2
STYLE
  5
3
330
0
100
AcDbSymbolTable
 70
     6
  0
STYLE
  5
11
330
3
100
AcDbSymbolTableRecord
100
AcDbTextStyleTableRecord
  2
STANDARD
 70
     0
 40
0.0
 41
1.0
 50
0.0
 71
     0
 42
3.0
  3
txt
  4

  0
STYLE
  5
3E6
330
3
100
AcDbSymbolTableRecord
100
AcDbTextStyleTableRecord
  2

 70
     1
 40
0.0
 41
1.0
 50
0.0
 71
     0
 42
3.0
  3
ltypeshp.shx
  4

  0
STYLE
  5
3EB
330
3
100
AcDbSymbolTableRecord
100
AcDbTextStyleTableRecord
  2
ACANSTS
 70
     0
 40
1.0
 41
1.0
 50
0.0
 71
     0
 42
3.0
  3
romans.shx
  4
extfont.shx
  0
STYLE
  5
3F7
330
3
100
AcDbSymbolTableRecord
100
AcDbTextStyleTableRecord
  2
ACANSGDT
 70
     0
 40
0.0
 41
1.0
 50
0.0
 71
     0
 42
3.0
  3
amgdtans.shx
  4

  0
STYLE
  5
657
330
3
100
AcDbSymbolTableRecord
100
AcDbTextStyleTableRecord
  2
ACJISTS
 70
     0
 40
1.0
 41
1.0
 50
0.0
 71
     0
 42
2.5
  3
isocp.shx
  4
bigfont.shx
  0
STYLE
  5
658
330
3
100
AcDbSymbolTableRecord
100
AcDbTextStyleTableRecord
  2
ACJISGDT
 70
     0
 40
0.0
 41
1.0
 50
0.0
 71
     0
 42
2.5
  3
amgdt.shx
  4

  0
ENDTAB
  0
TABLE
  2
VIEW
  5
6
330
0
100
AcDbSymbolTable
 70
     0
  0
ENDTAB
  0
TABLE
  2
UCS
  5
7
330
0
100
AcDbSymbolTable
 70
     0
  0
ENDTAB
  0
TABLE
  2
APPID
  5
9
330
0
100
AcDbSymbolTable
 70
     9
  0
APPID
  5
12
330
9
100
AcDbSymbolTableRecord
100
AcDbRegAppTableRecord
  2
ACAD
 70
     0
  0
APPID
  5
379
330
9
100
AcDbSymbolTableRecord
100
AcDbRegAppTableRecord
  2
MCAD_NO_VIS
 70
     0
  0
APPID
  5
37A
330
9
100
AcDbSymbolTableRecord
100
AcDbRegAppTableRecord
  2
ACAD_TEMP_GRAPHIC
 70
     0
  0
APPID
  5
3A9
330
9
100
AcDbSymbolTableRecord
100
AcDbRegAppTableRecord
  2
AD_DRAW
 70
     0
  0
APPID
  5
3AC
330
9
100
AcDbSymbolTableRecord
100
AcDbRegAppTableRecord
  2
ACATTRIBSERVICES
 70
     0
  0
APPID
  5
3CE
330
9
100
AcDbSymbolTableRecord
100
AcDbRegAppTableRecord
  2
DESIGNERASSEMBLIES
 70
     0
  0
APPID
  5
3D4
330
9
100
AcDbSymbolTableRecord
100
AcDbRegAppTableRecord
  2
ACADM_DIM_EDIT
 70
     0
  0
APPID
  5
3D5
330
9
100
AcDbSymbolTableRecord
100
AcDbRegAppTableRecord
  2
AMDT_DM_ADJ
 70
     0
  0
APPID
  5
418
330
9
100
AcDbSymbolTableRecord
100
AcDbRegAppTableRecord
  2
ACAD_PSEXT
 70
     0
  0
ENDTAB
  0
TABLE
  2
DIMSTYLE
  5
A
330
0
100
AcDbSymbolTable
 70
    18
100
AcDbDimStyleTable
  0
DIMSTYLE
105
376
330
A
100
AcDbSymbolTableRecord
100
AcDbDimStyleTableRecord
  2
Standard
 70
     0
340
11
  0
DIMSTYLE
105
404
330
A
100
AcDbSymbolTableRecord
100
AcDbDimStyleTableRecord
  2
AM_ANSI
 70
     0
  4
mm
 41
0.1
 42
0.05
 43
0.5
 44
0.1
 47
0.1
 48
0.1
 78
     7
 79
     2
140
0.12
141
0.0
146
0.71
147
0.06
176
   256
177
   256
178
     2
274
     4
284
     7
340
11
371
    -1
372
    -1
  0
DIMSTYLE
105
407
330
A
100
AcDbSymbolTableRecord
100
AcDbDimStyleTableRecord
  2
AM_ANSI$7
 70
     0
  4
mm
 41
0.1
 42
0.05
 43
0.5
 44
0.1
 47
0.1
 48
0.1
 78
     7
 79
     2
140
0.24
141
0.0
146
0.71
147
0.06
176
   256
177
   256
178
     2
274
     4
284
     7
340
11
371
    -1
372
    -1
  0
DIMSTYLE
105
408
330
A
100
AcDbSymbolTableRecord
100
AcDbDimStyleTableRecord
  2
AM_ANSI$SF
 70
     0
  4
mm
 41
0.1
 42
0.05
 43
0.5
 44
0.1
 47
0.1
 48
0.1
 75
     1
 76
     1
 78
     7
 79
     2
140
0.12
141
0.0
146
0.71
147
0.06
176
   256
177
   256
178
     2
274
     4
284
     7
340
11
371
    -1
372
    -1
  0
DIMSTYLE
105
40D
330
A
100
AcDbSymbolTableRecord
100
AcDbDimStyleTableRecord
  2
AM_ANSI$SH
 70
     0
  4
mm
 41
0.1
 42
0.05
 43
0.5
 44
0.1
 47
0.1
 48
0.1
 75
     1
 76
     1
 78
     7
 79
     2
140
0.12
141
0.0
146
0.71
147
0.06
173
     1
176
   256
177
   256
178
     2
274
     4
284
     7
340
11
343
409
371
    -1
372
    -1
  0
DIMSTYLE
105
528
102
{ACAD_REACTORS
330
52C
330
554
330
578
330
5E6
330
691
330
6BB
102
}
330
A
100
AcDbSymbolTableRecord
100
AcDbDimStyleTableRecord
  2
Standard$0
 70
     0
340
11
  0
DIMSTYLE
105
5A4
102
{ACAD_REACTORS
330
5A5
330
618
102
}
330
A
100
AcDbSymbolTableRecord
100
AcDbDimStyleTableRecord
  2
Standard$2
 70
     0
340
11
  0
DIMSTYLE
105
659
330
A
100
AcDbSymbolTableRecord
100
AcDbDimStyleTableRecord
  2
AM_JIS
 70
     0
  4
"
 41
2.5
 42
0.0
 43
10.0
 44
1.0
 47
0.1
 48
0.1000000001
 73
     0
 74
     0
 77
     3
 78
     1
 79
     2
140
3.8
141
0.0
143
0.0393701
146
0.71
147
1.5
172
     1
176
   256
177
   256
178
     2
179
     1
271
     2
272
     2
275
     1
283
     0
284
     8
340
11
341
64D
342
64D
371
    -1
372
    -1
  0
DIMSTYLE
105
65A
330
A
100
AcDbSymbolTableRecord
100
AcDbDimStyleTableRecord
  2
AM_JIS$3
 70
     0
  4
"
 41
2.5
 42
0.0
 43
10.0
 44
1.0
 47
0.1
 48
0.1000000001
 73
     0
 77
     3
 78
     1
 79
     2
140
3.8
141
0.0
143
0.0393701
146
0.71
147
1.5
172
     1
176
   256
177
   256
178
     2
179
     1
271
     2
272
     2
275
     1
283
     0
284
     8
288
     1
289
     0
340
11
341
64D
342
64D
371
    -1
372
    -1
  0
DIMSTYLE
105
65B
330
A
100
AcDbSymbolTableRecord
100
AcDbDimStyleTableRecord
  2
AM_JIS$4
 70
     0
  4
"
 41
2.5
 42
0.0
 43
10.0
 44
1.0
 47
0.1
 48
0.1000000001
 73
     0
 77
     3
 78
     1
 79
     2
140
3.8
141
0.0
143
0.0393701
146
0.71
147
1.5
172
     1
176
   256
177
   256
178
     2
179
     1
271
     2
272
     2
275
     1
283
     0
284
     8
288
     1
289
     0
340
11
341
64D
342
64D
371
    -1
372
    -1
  0
DIMSTYLE
105
65C
330
A
100
AcDbSymbolTableRecord
100
AcDbDimStyleTableRecord
  2
AM_JIS$6
 70
     0
  4
"
 41
2.5
 42
0.0
 43
10.0
 44
1.0
 47
0.1
 48
0.1000000001
 73
     0
 74
     0
 78
     1
 79
     2
140
3.8
141
0.0
143
0.0393701
146
0.71
147
1.5
172
     1
176
   256
177
   256
178
     2
179
     1
271
     2
272
     2
275
     1
283
     0
284
     8
340
11
341
64D
342
64D
371
    -1
372
    -1
  0
DIMSTYLE
105
65D
330
A
100
AcDbSymbolTableRecord
100
AcDbDimStyleTableRecord
  2
AM_JIS$7
 70
     0
  4
"
 41
2.5
 42
0.0
 43
10.0
 44
1.0
 47
0.1
 48
0.1000000001
 73
     0
 74
     0
 77
     3
 78
     1
 79
     2
140
5.0
141
0.0
143
0.0393701
146
0.71
147
1.5
172
     1
176
   256
177
   256
178
     2
179
     1
271
     2
272
     2
275
     1
283
     0
284
     8
340
11
341
64D
342
64D
371
    -1
372
    -1
  0
DIMSTYLE
105
65E
330
A
100
AcDbSymbolTableRecord
100
AcDbDimStyleTableRecord
  2
AM_JIS$SF
 70
     0
  4
"
 41
2.5
 42
1.0
 43
10.0
 44
1.0
 47
0.1
 48
0.1
 73
     0
 74
     0
 75
     1
 76
     1
 77
     3
 78
     8
 79
     2
140
3.5
141
0.0
143
0.0393701
146
0.71
147
1.5
176
   256
177
   256
178
     2
271
     2
272
     3
274
     4
340
11
341
64D
342
64D
343
64D
344
64D
371
    -1
372
    -1
  0
DIMSTYLE
105
65F
330
A
100
AcDbSymbolTableRecord
100
AcDbDimStyleTableRecord
  2
AM_JIS$SH
 70
     0
  4
"
 41
2.5
 42
1.0
 43
10.0
 44
1.0
 47
0.1
 48
0.1
 73
     0
 74
     0
 75
     1
 76
     1
 77
     3
 78
     8
 79
     2
140
3.5
141
0.0
143
0.0393701
144
2.0
146
0.71
147
1.5
173
     1
176
   256
177
   256
178
     2
271
     2
272
     3
274
     4
340
11
341
64D
342
64D
343
409
344
64D
371
    -1
372
    -1
  0
DIMSTYLE
105
660
330
A
100
AcDbSymbolTableRecord
100
AcDbDimStyleTableRecord
  2
AM_JIS$0
 70
     0
  4
"
 41
2.5
 42
0.0
 43
10.0
 44
1.0
 47
0.1
 48
0.1000000001
 73
     0
 74
     0
 77
     3
 78
     1
 79
     2
140
3.8
141
0.0
143
0.0393701
146
0.71
147
1.5
172
     1
176
     3
177
     3
178
     2
271
     2
272
     2
275
     1
283
     0
284
     8
289
     0
340
11
341
64D
342
64D
371
    13
372
    13
  0
DIMSTYLE
105
661
330
A
100
AcDbSymbolTableRecord
100
AcDbDimStyleTableRecord
  2
AM_JIS$2
 70
     0
  4
"
 41
2.5
 42
0.0
 43
10.0
 44
1.0
 47
0.1
 48
0.1000000001
 73
     0
 74
     0
 77
     3
 78
     1
 79
     2
140
3.8
141
0.0
143
0.0393701
146
0.71
147
1.5
172
     1
176
     3
177
     3
178
     2
271
     2
272
     2
275
     1
283
     0
284
     8
289
     0
340
11
341
64D
342
64D
371
    13
372
    13
  0
DIMSTYLE
105
6D8
330
A
100
AcDbSymbolTableRecord
100
AcDbDimStyleTableRecord
  2
Standard$4
 70
     0
340
11
  0
DIMSTYLE
105
6EC
102
{ACAD_REACTORS
330
6ED
102
}
330
A
100
AcDbSymbolTableRecord
100
AcDbDimStyleTableRecord
  2
Standard$3
 70
     0
340
11
  0
ENDTAB
  0
TABLE
  2
BLOCK_RECORD
  5
1
330
0
100
AcDbSymbolTable
 70
    13
  0
BLOCK_RECORD
  5
22
330
1
100
AcDbSymbolTableRecord
100
AcDbBlockTableRecord
  2
*Model_Space
340
25
  0
BLOCK_RECORD
  5
1E
330
1
100
AcDbSymbolTableRecord
100
AcDbBlockTableRecord
  2
*Paper_Space
340
21
  0
BLOCK_RECORD
  5
111
330
1
100
AcDbSymbolTableRecord
100
AcDbBlockTableRecord
  2
LRIS-4-1_0001
340
0
102
{BLKREFS
331
231
102
}
  0
BLOCK_RECORD
  5
3C5
330
1
100
AcDbSymbolTableRecord
100
AcDbBlockTableRecord
  2
*U1
340
0
  0
BLOCK_RECORD
  5
409
330
1
100
AcDbSymbolTableRecord
100
AcDbBlockTableRecord
  2
GENAXEH
340
0
  0
BLOCK_RECORD
  5
52D
330
1
100
AcDbSymbolTableRecord
100
AcDbBlockTableRecord
  2
*D3
340
0
  0
BLOCK_RECORD
  5
555
330
1
100
AcDbSymbolTableRecord
100
AcDbBlockTableRecord
  2
*D4
340
0
  0
BLOCK_RECORD
  5
579
330
1
100
AcDbSymbolTableRecord
100
AcDbBlockTableRecord
  2
*D5
340
0
  0
BLOCK_RECORD
  5
5A6
330
1
100
AcDbSymbolTableRecord
100
AcDbBlockTableRecord
  2
*D6
340
0
  0
BLOCK_RECORD
  5
5E7
330
1
100
AcDbSymbolTableRecord
100
AcDbBlockTableRecord
  2
*D7
340
0
  0
BLOCK_RECORD
  5
619
330
1
100
AcDbSymbolTableRecord
100
AcDbBlockTableRecord
  2
*D8
340
0
  0
BLOCK_RECORD
  5
64D
330
1
100
AcDbSymbolTableRecord
100
AcDbBlockTableRecord
  2
_Open30
340
0
  0
BLOCK_RECORD
  5
692
330
1
100
AcDbSymbolTableRecord
100
AcDbBlockTableRecord
  2
*D10
340
0
  0
BLOCK_RECORD
  5
6BC
330
1
100
AcDbSymbolTableRecord
100
AcDbBlockTableRecord
  2
*D11
340
0
  0
BLOCK_RECORD
  5
6EE
330
1
100
AcDbSymbolTableRecord
100
AcDbBlockTableRecord
  2
*D12
340
0
  0
ENDTAB
  0
ENDSEC
  0
SECTION
  2
BLOCKS
  0
BLOCK
  5
23
330
22
100
AcDbEntity
  8
0
100
AcDbBlockBegin
  2
*Model_Space
 70
     0
 71
     0
 10
0.0
 20
0.0
 30
0.0
  3
*Model_Space
  1

  0
ENDBLK
  5
24
330
22
100
AcDbEntity
  8
0
100
AcDbBlockEnd
  0
BLOCK
  5
1F
330
1E
100
AcDbEntity
 67
     1
  8
0
100
AcDbBlockBegin
  2
*Paper_Space
 70
     0
 71
     0
 10
0.0
 20
0.0
 30
0.0
  3
*Paper_Space
  1

  0
ENDBLK
  5
20
330
1E
100
AcDbEntity
 67
     1
  8
0
100
AcDbBlockEnd
  0
BLOCK
  5
112
330
111
100
AcDbEntity
  8
1
100
AcDbBlockBegin
  2
LRIS-4-1_0001
 70
     0
 71
     0
 10
0.0
 20
0.0
 30
0.0
  3
LRIS-4-1_0001
  1

  0
CIRCLE
  5
113
330
111
100
AcDbEntity
  8
1
  6
Continuous
100
AcDbCircle
 10
0.000000016353054
 20
-0.0000000163530576
 30
0.0
 40
2.900000095367432
  0
LINE
  5
114
330
111
100
AcDbEntity
  8
1
  6
CENTER
100
AcDbLine
 10
-2.757716400959569
 20
-2.757716195247101
 30
0.0
 11
2.757716195247097
 21
2.757716162540985
 31
0.0
  0
LINE
  5
115
330
111
100
AcDbEntity
  8
1
  6
CENTER
100
AcDbLine
 10
2.757716195247097
 20
-2.757716195247101
 30
0.0
 11
-2.757716400959569
 21
2.757716162540985
 31
0.0
  0
LINE
  5
116
330
111
100
AcDbEntity
  8
1
  6
Continuous
100
AcDbLine
 10
-1.060660345890598
 20
1.484924300053192
 30
0.0
 11
-1.484924061634617
 21
1.060660345890595
 31
0.0
  0
LINE
  5
117
330
111
100
AcDbEntity
  8
1
  6
Continuous
100
AcDbLine
 10
1.060659901759548
 20
-1.484924332759308
 30
0.0
 11
1.484923855922146
 21
-1.060659424922394
 31
0.0
  0
LINE
  5
118
330
111
100
AcDbEntity
  8
1
  6
Continuous
100
AcDbLine
 10
1.484923855922146
 20
-1.060659424922394
 30
0.0
 11
0.5795555278276634
 21
-0.1552906199907529
 31
0.0
  0
LINE
  5
119
330
111
100
AcDbEntity
  8
1
  6
Continuous
100
AcDbLine
 10
-0.1552915409589577
 20
0.5795554951215518
 30
0.0
 11
-1.060660345890598
 21
1.484924300053192
 31
0.0
  0
LINE
  5
11A
330
111
100
AcDbEntity
  8
1
  6
Continuous
100
AcDbLine
 10
-1.484924061634617
 20
1.060660345890595
 30
0.0
 11
-0.5795554951215554
 21
0.1552915409589541
 31
0.0
  0
LINE
  5
11B
330
111
100
AcDbEntity
  8
1
  6
Continuous
100
AcDbLine
 10
0.1552910968279075
 20
-0.579555527827667
 30
0.0
 11
1.060659901759548
 21
-1.484924332759308
 31
0.0
  0
LINE
  5
11C
330
111
100
AcDbEntity
  8
1
  6
Continuous
100
AcDbLine
 10
-0.1760968998456765
 20
-1.816311852595733
 30
0.0
 11
0.1552910968279075
 21
-0.579555527827667
 31
0.0
  0
LINE
  5
11D
330
111
100
AcDbEntity
  8
1
  6
Continuous
100
AcDbLine
 10
0.4242639705156517
 20
0.4242648914838565
 30
0.0
 11
0.7556519671892357
 21
1.661020739414765
 31
0.0
  0
LINE
  5
11E
330
111
100
AcDbEntity
  8
1
  6
Continuous
100
AcDbLine
 10
-0.7556524113202858
 20
-1.661020295283722
 30
0.0
 11
-0.1760968998456765
 21
-1.816311852595733
 31
0.0
  0
LINE
  5
11F
330
111
100
AcDbEntity
  8
1
  6
Continuous
100
AcDbLine
 10
0.7556519671892357
 20
1.661020739414765
 30
0.0
 11
0.1760964557146263
 21
1.816311819889618
 31
0.0
  0
LINE
  5
120
330
111
100
AcDbEntity
  8
1
  6
Continuous
100
AcDbLine
 10
0.1760964557146263
 20
1.816311819889618
 30
0.0
 11
-0.1552915409589577
 21
0.5795554951215518
 31
0.0
  0
LINE
  5
121
330
111
100
AcDbEntity
  8
1
  6
Continuous
100
AcDbLine
 10
-0.4242644146467018
 20
-0.4242639705156552
 30
0.0
 11
-0.7556524113202858
 21
-1.661020295283722
 31
0.0
  0
LINE
  5
122
330
111
100
AcDbEntity
  8
1
  6
Continuous
100
AcDbLine
 10
1.661020772120876
 20
0.7556524113202823
 30
0.0
 11
0.4242639705156517
 21
0.4242648914838565
 31
0.0
  0
LINE
  5
123
330
111
100
AcDbEntity
  8
1
  6
Continuous
100
AcDbLine
 10
-0.5795554951215554
 20
0.1552915409589541
 30
0.0
 11
-1.816312058308201
 21
-0.1760959788774716
 31
0.0
  0
LINE
  5
124
330
111
100
AcDbEntity
  8
1
  6
Continuous
100
AcDbLine
 10
1.81631185259573
 20
0.1760968998456729
 30
0.0
 11
1.661020772120876
 21
0.7556524113202823
 31
0.0
  0
LINE
  5
125
330
111
100
AcDbEntity
  8
1
  6
Continuous
100
AcDbLine
 10
-1.816312058308201
 20
-0.1760959788774716
 30
0.0
 11
-1.661020739414768
 21
-0.7556514903520809
 31
0.0
  0
LINE
  5
126
330
111
100
AcDbEntity
  8
1
  6
Continuous
100
AcDbLine
 10
-1.661020739414768
 20
-0.7556514903520809
 30
0.0
 11
-0.4242644146467018
 21
-0.4242639705156552
 31
0.0
  0
LINE
  5
127
330
111
100
AcDbEntity
  8
1
  6
Continuous
100
AcDbLine
 10
0.5795555278276634
 20
-0.1552906199907529
 30
0.0
 11
1.81631185259573
 21
0.1760968998456729
 31
0.0
  0
ENDBLK
  5
128
330
111
100
AcDbEntity
  8
1
100
AcDbBlockEnd
  0
BLOCK
  5
3C6
330
3C5
100
AcDbEntity
  8
0
100
AcDbBlockBegin
  2
*U1
 70
     1
 71
     0
 10
0.0
 20
0.0
 30
0.0
  3
*U1
  1

  0
ENDBLK
  5
3C7
330
3C5
100
AcDbEntity
  8
0
100
AcDbBlockEnd
  0
BLOCK
  5
40B
330
409
100
AcDbEntity
  8
0
100
AcDbBlockBegin
  2
GENAXEH
 70
     0
 71
     0
 10
0.0
 20
0.0
 30
0.0
  3
GENAXEH
  1

  0
LINE
  5
40A
330
409
100
AcDbEntity
  8
0
100
AcDbLine
 10
-1.0
 20
0.0
 30
0.0
 11
1.0
 21
0.0
 31
0.0
  0
ENDBLK
  5
40C
330
409
100
AcDbEntity
  8
0
100
AcDbBlockEnd
  0
BLOCK
  5
537
330
52D
100
AcDbEntity
  8
0
100
AcDbBlockBegin
  2
*D3
 70
     1
 71
     0
 10
0.0
 20
0.0
 30
0.0
  3
*D3
  1

  0
LINE
  5
867
330
52D
100
AcDbEntity
  8
AM_5
 62
     0
370
    -2
100
AcDbLine
 10
20.0
 20
0.9999999999999858
 30
0.0
 11
20.0
 21
22.73265929416875
 31
0.0
  0
LINE
  5
868
330
52D
100
AcDbEntity
  8
AM_5
 62
     0
370
    -2
100
AcDbLine
 10
0.0000000000000001
 20
1.0
 30
0.0
 11
0.0000000000000014
 21
22.73265929416875
 31
0.0
  0
LINE
  5
869
330
52D
100
AcDbEntity
  8
AM_5
 62
     0
370
    -2
100
AcDbLine
 10
17.0
 20
20.73265929416875
 30
0.0
 11
3.000000000000001
 21
20.73265929416875
 31
0.0
  0
SOLID
  5
86A
330
52D
100
AcDbEntity
  8
AM_5
 62
     0
100
AcDbTrace
 10
17.0
 20
21.23265929416875
 30
0.0
 11
17.0
 21
20.23265929416875
 31
0.0
 12
20.0
 22
20.73265929416875
 32
0.0
 13
20.0
 23
20.73265929416875
 33
0.0
  0
SOLID
  5
86B
330
52D
100
AcDbEntity
  8
AM_5
 62
     0
100
AcDbTrace
 10
3.000000000000001
 20
21.23265929416875
 30
0.0
 11
3.000000000000001
 21
20.23265929416875
 31
0.0
 12
0.0000000000000013
 22
20.73265929416875
 32
0.0
 13
0.0000000000000013
 23
20.73265929416875
 33
0.0
  0
MTEXT
  5
86C
330
52D
100
AcDbEntity
  8
AM_5
 62
     0
100
AcDbMText
 10
10.0
 20
23.32265929416875
 30
0.0
 40
5.0
 41
0.0
 71
     5
 72
     1
  1
\A1;20
 73
     1
 44
1.0
  0
POINT
  5
86D
330
52D
100
AcDbEntity
  8
DEFPOINTS
 62
     0
100
AcDbPoint
 10
20.0
 20
-0.0000000000000142
 30
0.0
  0
POINT
  5
86E
330
52D
100
AcDbEntity
  8
DEFPOINTS
 62
     0
100
AcDbPoint
 10
0.0
 20
0.0
 30
0.0
  0
POINT
  5
86F
330
52D
100
AcDbEntity
  8
DEFPOINTS
 62
     0
100
AcDbPoint
 10
0.0000000000000013
 20
20.73265929416875
 30
0.0
  0
ENDBLK
  5
538
330
52D
100
AcDbEntity
  8
0
100
AcDbBlockEnd
  0
BLOCK
  5
55F
330
555
100
AcDbEntity
  8
0
100
AcDbBlockBegin
  2
*D4
 70
     1
 71
     0
 10
0.0
 20
0.0
 30
0.0
  3
*D4
  1

  0
LINE
  5
870
330
555
100
AcDbEntity
  8
AM_5
 62
     0
370
    -2
100
AcDbLine
 10
82.29016399756068
 20
-5.000000000000028
 30
0.0
 11
82.29016399756068
 21
17.88315161408872
 31
0.0
  0
LINE
  5
871
330
555
100
AcDbEntity
  8
AM_5
 62
     0
370
    -2
100
AcDbLine
 10
64.29016399756063
 20
-5.000000000000028
 30
0.0
 11
64.29016399756063
 21
17.88315161408872
 31
0.0
  0
LINE
  5
872
330
555
100
AcDbEntity
  8
AM_5
 62
     0
370
    -2
100
AcDbLine
 10
79.29016399756068
 20
15.88315161408872
 30
0.0
 11
67.29016399756063
 21
15.88315161408872
 31
0.0
  0
SOLID
  5
873
330
555
100
AcDbEntity
  8
AM_5
 62
     0
100
AcDbTrace
 10
79.29016399756068
 20
16.38315161408872
 30
0.0
 11
79.29016399756068
 21
15.38315161408872
 31
0.0
 12
82.29016399756068
 22
15.88315161408872
 32
0.0
 13
82.29016399756068
 23
15.88315161408872
 33
0.0
  0
SOLID
  5
874
330
555
100
AcDbEntity
  8
AM_5
 62
     0
100
AcDbTrace
 10
67.29016399756063
 20
16.38315161408872
 30
0.0
 11
67.29016399756063
 21
15.38315161408872
 31
0.0
 12
64.29016399756063
 22
15.88315161408872
 32
0.0
 13
64.29016399756063
 23
15.88315161408872
 33
0.0
  0
MTEXT
  5
875
330
555
100
AcDbEntity
  8
AM_5
 62
     0
100
AcDbMText
 10
73.29016399756065
 20
18.47315161408872
 30
0.0
 40
5.0
 41
0.0
 71
     5
 72
     1
  1
\A1;18
 73
     1
 44
1.0
  0
POINT
  5
876
330
555
100
AcDbEntity
  8
DEFPOINTS
 62
     0
100
AcDbPoint
 10
82.29016399756068
 20
-6.000000000000028
 30
0.0
  0
POINT
  5
877
330
555
100
AcDbEntity
  8
DEFPOINTS
 62
     0
100
AcDbPoint
 10
64.29016399756063
 20
-6.000000000000028
 30
0.0
  0
POINT
  5
878
330
555
100
AcDbEntity
  8
DEFPOINTS
 62
     0
100
AcDbPoint
 10
64.29016399756063
 20
15.88315161408872
 30
0.0
  0
ENDBLK
  5
560
330
555
100
AcDbEntity
  8
0
100
AcDbBlockEnd
  0
BLOCK
  5
583
330
579
100
AcDbEntity
  8
0
100
AcDbBlockBegin
  2
*D5
 70
     1
 71
     0
 10
0.0
 20
0.0
 30
0.0
  3
*D5
  1

  0
LINE
  5
879
330
579
100
AcDbEntity
  8
AM_5
 62
     0
370
    -2
100
AcDbLine
 10
74.2901611328125
 20
-15.00000002980234
 30
0.0
 11
92.28965701841707
 21
-15.00000002980234
 31
0.0
  0
LINE
  5
87A
330
579
100
AcDbEntity
  8
AM_5
 62
     0
370
    -2
100
AcDbLine
 10
74.2901611328125
 20
2.999999970197678
 30
0.0
 11
92.28965701841707
 21
2.999999970197672
 31
0.0
  0
LINE
  5
87B
330
579
100
AcDbEntity
  8
AM_5
 62
     0
370
    -2
100
AcDbLine
 10
90.28965701841707
 20
-0.0000000298023269
 30
0.0
 11
90.28965701841707
 21
-12.00000002980234
 31
0.0
  0
LINE
  5
87C
330
579
100
AcDbEntity
  8
AM_5
 62
     0
370
    -2
100
AcDbLine
 10
90.28965701841707
 20
-15.00000002980234
 30
0.0
 11
90.28965701841707
 21
-25.4547435323326
 31
0.0
  0
SOLID
  5
87D
330
579
100
AcDbEntity
  8
AM_5
 62
     0
100
AcDbTrace
 10
89.78965701841707
 20
-0.0000000298023268
 30
0.0
 11
90.78965701841707
 21
-0.000000029802327
 31
0.0
 12
90.28965701841707
 22
2.999999970197673
 32
0.0
 13
90.28965701841707
 23
2.999999970197673
 33
0.0
  0
SOLID
  5
87E
330
579
100
AcDbEntity
  8
AM_5
 62
     0
100
AcDbTrace
 10
89.78965701841707
 20
-12.00000002980234
 30
0.0
 11
90.78965701841707
 21
-12.00000002980234
 31
0.0
 12
90.28965701841707
 22
-15.00000002980234
 32
0.0
 13
90.28965701841707
 23
-15.00000002980234
 33
0.0
  0
MTEXT
  5
87F
330
579
100
AcDbEntity
  8
AM_5
 62
     0
100
AcDbMText
 10
87.69965701841707
 20
-22.03141019899925
 30
0.0
 40
5.0
 41
0.0
 71
     5
 72
     1
  1
\A1;18
 11
6.123031769111886E-17
 21
1.0
 31
0.0
 73
     1
 44
1.0
  0
POINT
  5
880
330
579
100
AcDbEntity
  8
DEFPOINTS
 62
     0
100
AcDbPoint
 10
73.2901611328125
 20
-15.00000002980234
 30
0.0
  0
POINT
  5
881
330
579
100
AcDbEntity
  8
DEFPOINTS
 62
     0
100
AcDbPoint
 10
73.2901611328125
 20
2.999999970197678
 30
0.0
  0
POINT
  5
882
330
579
100
AcDbEntity
  8
DEFPOINTS
 62
     0
100
AcDbPoint
 10
90.28965701841707
 20
2.999999970197673
 30
0.0
  0
ENDBLK
  5
584
330
579
100
AcDbEntity
  8
0
100
AcDbBlockEnd
  0
BLOCK
  5
5B5
330
5A6
100
AcDbEntity
  8
0
100
AcDbBlockBegin
  2
*D6
 70
     1
 71
     0
 10
0.0
 20
0.0
 30
0.0
  3
*D6
  1

  0
LINE
  5
883
330
5A6
100
AcDbEntity
  8
AM_5
 62
     0
370
    -2
100
AcDbLine
 10
-0.0000000000000002
 20
-1.208732188581066
 30
0.0
 11
-0.0000000000000044
 21
-26.22878545557314
 31
0.0
  0
LINE
  5
884
330
5A6
100
AcDbEntity
  8
AM_5
 62
     0
370
    -2
100
AcDbLine
 10
0.895481680781576
 20
-10.44413463608057
 30
0.0
 11
2.267797068817993
 21
-26.1297712972234
 31
0.0
  0
ARC
  5
885
330
5A6
100
AcDbEntity
  8
AM_5
 62
     0
370
    -2
100
AcDbCircle
 10
0.0
 20
-0.2087321885810661
 30
0.0
 40
24.02005326699208
100
AcDbArc
 50
255.6505413119178
 51
270.0
  0
LINE
  5
886
330
5A6
100
AcDbEntity
  8
AM_5
 62
     0
370
    -2
100
AcDbLine
 10
-5.953019302847594
 20
-23.47941159699243
 30
0.0
 11
-14.20075499663903
 21
-21.36950629821639
 31
0.0
  0
ARC
  5
887
330
5A6
100
AcDbEntity
  8
AM_5
 62
     0
370
    -2
100
AcDbCircle
 10
0.0
 20
-0.2087321885810661
 30
0.0
 40
24.02005326699208
100
AcDbArc
 50
255.678695031678
 51
262.839347515839
  0
ARC
  5
888
330
5A6
100
AcDbEntity
  8
AM_5
 62
     0
370
    -2
100
AcDbCircle
 10
0.0
 20
-0.2087321885810661
 30
0.0
 40
24.02005326699208
100
AcDbArc
 50
282.1606524841603
 51
289.3213049683213
  0
ARC
  5
889
330
5A6
100
AcDbEntity
  8
AM_5
 62
     0
370
    -2
100
AcDbCircle
 10
0.0
 20
-0.2087321885810661
 30
0.0
 40
24.02005326699208
100
AcDbArc
 50
270.0
 51
274.9999999999993
  0
SOLID
  5
88A
330
5A6
100
AcDbEntity
  8
AM_5
 62
     0
100
AcDbTrace
 10
-2.96292077949292
 20
-23.54241787588344
 30
0.0
 11
-3.025368601041313
 21
-24.54046610597248
 31
0.0
 12
-0.0000000000000044
 22
-24.22878545557314
 32
0.0
 13
-0.0000000000000044
 23
-24.22878545557314
 33
0.0
  0
SOLID
  5
88B
330
5A6
100
AcDbEntity
  8
AM_5
 62
     0
100
AcDbTrace
 10
5.134506502038922
 20
-24.18419826495635
 30
0.0
 11
4.985310678513652
 21
-23.19539059597183
 31
0.0
 12
2.093485583322703
 22
-24.13738190103991
 32
0.0
 13
2.093485583322703
 23
-24.13738190103991
 33
0.0
  0
MTEXT
  5
88C
330
5A6
100
AcDbEntity
  8
AM_5
 62
     0
100
AcDbMText
 10
-9.43499348602014
 20
-19.91526136182683
 30
0.0
 40
5.0
 41
0.0
 71
     5
 72
     1
  1
\A1;5°
 11
0.968802156670881
 21
-0.2478353913989078
 31
0.0
 73
     1
 44
1.0
  0
POINT
  5
88D
330
5A6
100
AcDbEntity
  8
DEFPOINTS
 62
     0
100
AcDbPoint
 10
1.396641887629558
 20
-24.1881473271297
 30
0.0
  0
POINT
  5
88E
330
5A6
100
AcDbEntity
  8
DEFPOINTS
 62
     0
100
AcDbPoint
 10
0.0007610603817056
 20
-0.2174311485495224
 30
0.0
  0
POINT
  5
88F
330
5A6
100
AcDbEntity
  8
DEFPOINTS
 62
     0
100
AcDbPoint
 10
0.0
 20
0.0
 30
0.0
  0
POINT
  5
890
330
5A6
100
AcDbEntity
  8
DEFPOINTS
 62
     0
100
AcDbPoint
 10
0.0
 20
-0.2000000000000028
 30
0.0
  0
POINT
  5
891
330
5A6
100
AcDbEntity
  8
DEFPOINTS
 62
     0
100
AcDbPoint
 10
0.8083259380339314
 20
-9.447939937988823
 30
0.0
  0
ENDBLK
  5
5B6
330
5A6
100
AcDbEntity
  8
0
100
AcDbBlockEnd
  0
BLOCK
  5
5F3
330
5E7
100
AcDbEntity
  8
0
100
AcDbBlockBegin
  2
*D7
 70
     1
 71
     0
 10
0.0
 20
0.0
 30
0.0
  3
*D7
  1

  0
LINE
  5
892
330
5E7
100
AcDbEntity
  8
AM_5
 62
     0
370
    -2
100
AcDbLine
 10
23.70451309318128
 20
-6.000000000000028
 30
0.0
 11
-25.93545871501397
 21
-6.000000000000015
 31
0.0
  0
LINE
  5
893
330
5E7
100
AcDbEntity
  8
AM_5
 62
     0
370
    -2
100
AcDbLine
 10
-1.0
 20
0.0000000000000003
 30
0.0
 11
-25.93545871501397
 21
0.0000000000000073
 31
0.0
  0
LINE
  5
894
330
5E7
100
AcDbEntity
  8
AM_5
 62
     0
370
    -2
100
AcDbLine
 10
-23.93545871501397
 20
-9.000000000000016
 30
0.0
 11
-23.93545871501397
 21
-12.00000000000002
 31
0.0
  0
LINE
  5
895
330
5E7
100
AcDbEntity
  8
AM_5
 62
     0
370
    -2
100
AcDbLine
 10
-23.93545871501397
 20
3.000000000000007
 30
0.0
 11
-23.93545871501397
 21
6.000000000000007
 31
0.0
  0
LINE
  5
896
330
5E7
100
AcDbEntity
  8
AM_5
 62
     0
370
    -2
100
AcDbLine
 10
-23.93545871501397
 20
-6.000000000000015
 30
0.0
 11
-23.93545871501397
 21
0.0000000000000068
 31
0.0
  0
SOLID
  5
897
330
5E7
100
AcDbEntity
  8
AM_5
 62
     0
100
AcDbTrace
 10
-24.43545871501397
 20
-9.000000000000016
 30
0.0
 11
-23.43545871501397
 21
-9.000000000000016
 31
0.0
 12
-23.93545871501397
 22
-6.000000000000015
 32
0.0
 13
-23.93545871501397
 23
-6.000000000000015
 33
0.0
  0
SOLID
  5
898
330
5E7
100
AcDbEntity
  8
AM_5
 62
     0
100
AcDbTrace
 10
-24.43545871501397
 20
3.000000000000007
 30
0.0
 11
-23.43545871501397
 21
3.000000000000007
 31
0.0
 12
-23.93545871501397
 22
0.0000000000000068
 32
0.0
 13
-23.93545871501397
 23
0.0000000000000068
 33
0.0
  0
MTEXT
  5
899
330
5E7
100
AcDbEntity
  8
AM_5
 62
     0
100
AcDbMText
 10
-26.52545871501397
 20
-3.000000000000008
 30
0.0
 40
5.0
 41
0.0
 71
     5
 72
     1
  1
\A1;6
 11
6.123031769111886E-17
 21
1.0
 31
0.0
 73
     1
 44
1.0
  0
POINT
  5
89A
330
5E7
100
AcDbEntity
  8
DEFPOINTS
 62
     0
100
AcDbPoint
 10
24.70451309318128
 20
-6.000000000000028
 30
0.0
  0
POINT
  5
89B
330
5E7
100
AcDbEntity
  8
DEFPOINTS
 62
     0
100
AcDbPoint
 10
0.0
 20
0.0
 30
0.0
  0
POINT
  5
89C
330
5E7
100
AcDbEntity
  8
DEFPOINTS
 62
     0
100
AcDbPoint
 10
-23.93545871501397
 20
0.0000000000000068
 30
0.0
  0
ENDBLK
  5
5F4
330
5E7
100
AcDbEntity
  8
0
100
AcDbBlockEnd
  0
BLOCK
  5
628
330
619
100
AcDbEntity
  8
0
100
AcDbBlockBegin
  2
*D8
 70
     1
 71
     0
 10
0.0
 20
0.0
 30
0.0
  3
*D8
  1

  0
LINE
  5
89D
330
619
100
AcDbEntity
  8
AM_5
 62
     0
370
    -2
100
AcDbLine
 10
-0.1071683162728878
 20
1.016207271617083
 30
0.0
 11
-2.020585860245745
 21
22.88666987625109
 31
0.0
  0
LINE
  5
89E
330
619
100
AcDbEntity
  8
AM_5
 62
     0
370
    -2
100
AcDbLine
 10
-1.016207271616987
 20
0.1071683162730022
 30
0.0
 11
-22.88666987625096
 21
2.020585860246296
 31
0.0
  0
ARC
  5
89F
330
619
100
AcDbEntity
  8
AM_5
 62
     0
370
    -2
100
AcDbCircle
 10
-0.0200125735252419
 20
0.0200125735253365
 30
0.0
 40
20.95400421878154
100
AcDbArc
 50
103.210100627964
 51
166.7898993720349
  0
SOLID
  5
8A0
330
619
100
AcDbEntity
  8
AM_5
 62
     0
100
AcDbTrace
 10
-4.887596512074632
 20
20.91324510560834
 30
0.0
 11
-4.729351410232481
 21
19.92584524347397
 31
0.0
 12
-1.846274374750452
 22
20.8942804800676
 32
0.0
 13
-1.846274374750452
 23
20.8942804800676
 33
0.0
  0
SOLID
  5
8A1
330
619
100
AcDbEntity
  8
AM_5
 62
     0
100
AcDbTrace
 10
-19.92584524347378
 20
4.729351410232973
 30
0.0
 11
-20.91324510560815
 21
4.887596512075142
 31
0.0
 12
-20.89428048006747
 22
1.846274374750962
 32
0.0
 13
-20.89428048006747
 23
1.846274374750962
 33
0.0
  0
MTEXT
  5
8A2
330
619
100
AcDbEntity
  8
AM_5
 62
     0
100
AcDbMText
 10
-16.66813761291018
 20
16.66813761291061
 30
0.0
 40
5.0
 41
0.0
 71
     5
 72
     1
  1
\A1;80°
 11
0.7071067811865545
 21
0.7071067811865406
 31
0.0
 73
     1
 44
1.0
  0
POINT
  5
8A3
330
619
100
AcDbEntity
  8
DEFPOINTS
 62
     0
100
AcDbPoint
 10
-11.02037405261693
 20
17.85431491844565
 30
0.0
  0
POINT
  5
8A4
330
619
100
AcDbEntity
  8
DEFPOINTS
 62
     0
100
AcDbPoint
 10
9.447939937988849
 20
-0.8083259380340166
 30
0.0
  0
POINT
  5
8A5
330
619
100
AcDbEntity
  8
DEFPOINTS
 62
     0
100
AcDbPoint
 10
0.0007610603817056
 20
-0.2174311485495224
 30
0.0
  0
POINT
  5
8A6
330
619
100
AcDbEntity
  8
DEFPOINTS
 62
     0
100
AcDbPoint
 10
0.8083259380339314
 20
-9.447939937988821
 30
0.0
  0
POINT
  5
8A7
330
619
100
AcDbEntity
  8
DEFPOINTS
 62
     0
100
AcDbPoint
 10
0.2174311485495082
 20
-0.0007610603816062
 30
0.0
  0
ENDBLK
  5
629
330
619
100
AcDbEntity
  8
0
100
AcDbBlockEnd
  0
BLOCK
  5
64E
330
64D
100
AcDbEntity
  8
0
100
AcDbBlockBegin
  2
_Open30
 70
     0
 71
     0
 10
0.0
 20
0.0
 30
0.0
  3
_Open30
  1

  0
LINE
  5
64F
330
64D
100
AcDbEntity
  8
0
 62
     0
370
    -2
100
AcDbLine
 10
-1.0
 20
0.26794919
 30
0.0
 11
0.0
 21
0.0
 31
0.0
  0
LINE
  5
650
330
64D
100
AcDbEntity
  8
0
 62
     0
370
    -2
100
AcDbLine
 10
0.0
 20
0.0
 30
0.0
 11
-1.0
 21
-0.26794919
 31
0.0
  0
LINE
  5
651
330
64D
100
AcDbEntity
  8
0
 62
     0
370
    -2
100
AcDbLine
 10
0.0
 20
0.0
 30
0.0
 11
-1.0
 21
0.0
 31
0.0
  0
ENDBLK
  5
652
330
64D
100
AcDbEntity
  8
0
100
AcDbBlockEnd
  0
BLOCK
  5
69D
330
692
100
AcDbEntity
  8
0
100
AcDbBlockBegin
  2
*D10
 70
     1
 71
     0
 10
0.0
 20
0.0
 30
0.0
  3
*D10
  1

  0
LINE
  5
8A8
330
692
100
AcDbEntity
  8
AM_5
 62
     0
370
    -2
100
AcDbLine
 10
-0.9999999999678266
 20
69.99999999999997
 30
0.0
 11
-17.07316258742799
 21
69.99999999999997
 31
0.0
  0
LINE
  5
8A9
330
692
100
AcDbEntity
  8
AM_5
 62
     0
370
    -2
100
AcDbLine
 10
0.9438498904403332
 20
69.99999999999997
 30
0.0
 11
-17.07316258742799
 21
69.99999999999997
 31
0.0
  0
LINE
  5
8AA
330
692
100
AcDbEntity
  8
AM_5
 62
     0
370
    -2
100
AcDbLine
 10
-15.07316258742799
 20
66.99999999999997
 30
0.0
 11
-15.07316258742799
 21
63.99999999999997
 31
0.0
  0
LINE
  5
8AB
330
692
100
AcDbEntity
  8
AM_5
 62
     0
370
    -2
100
AcDbLine
 10
-15.07316258742799
 20
72.99999999999997
 30
0.0
 11
-15.07316258742799
 21
78.67999999999998
 31
0.0
  0
SOLID
  5
8AC
330
692
100
AcDbEntity
  8
AM_5
 62
     0
100
AcDbTrace
 10
-15.57316258742799
 20
66.99999999999997
 30
0.0
 11
-14.57316258742799
 21
66.99999999999997
 31
0.0
 12
-15.07316258742799
 22
69.99999999999997
 32
0.0
 13
-15.07316258742799
 23
69.99999999999997
 33
0.0
  0
SOLID
  5
8AD
330
692
100
AcDbEntity
  8
AM_5
 62
     0
100
AcDbTrace
 10
-15.57316258742799
 20
72.99999999999997
 30
0.0
 11
-14.57316258742799
 21
72.99999999999997
 31
0.0
 12
-15.07316258742799
 22
69.99999999999997
 32
0.0
 13
-15.07316258742799
 23
69.99999999999997
 33
0.0
  0
MTEXT
  5
8AE
330
692
100
AcDbEntity
  8
AM_5
 62
     0
100
AcDbMText
 10
-17.663162587428
 20
77.33999999999998
 30
0.0
 40
5.0
 41
0.0
 71
     5
 72
     1
  1
\A1;0
 11
6.123031769111886E-17
 21
1.0
 31
0.0
 73
     1
 44
1.0
  0
POINT
  5
8AF
330
692
100
AcDbEntity
  8
DEFPOINTS
 62
     0
100
AcDbPoint
 10
0.0000000000321734
 20
69.99999999999997
 30
0.0
  0
POINT
  5
8B0
330
692
100
AcDbEntity
  8
DEFPOINTS
 62
     0
100
AcDbPoint
 10
1.943849890440333
 20
69.99999999999997
 30
0.0
  0
POINT
  5
8B1
330
692
100
AcDbEntity
  8
DEFPOINTS
 62
     0
100
AcDbPoint
 10
-15.07316258742799
 20
69.99999999999997
 30
0.0
  0
ENDBLK
  5
69E
330
692
100
AcDbEntity
  8
0
100
AcDbBlockEnd
  0
BLOCK
  5
6C6
330
6BC
100
AcDbEntity
  8
0
100
AcDbBlockBegin
  2
*D11
 70
     1
 71
     0
 10
0.0
 20
0.0
 30
0.0
  3
*D11
  1

  0
LINE
  5
8B2
330
6BC
100
AcDbEntity
  8
AM_5
 62
     0
370
    -2
100
AcDbLine
 10
120.0000028647804
 20
62.27620060483588
 30
0.0
 11
120.0000028647804
 21
41.46131274931197
 31
0.0
  0
LINE
  5
8B3
330
6BC
100
AcDbEntity
  8
AM_5
 62
     0
370
    -2
100
AcDbLine
 10
-0.0000000000000001
 20
68.99999999999997
 30
0.0
 11
-0.0000000000000017
 21
41.46131274931197
 31
0.0
  0
LINE
  5
8B4
330
6BC
100
AcDbEntity
  8
AM_5
 62
     0
370
    -2
100
AcDbLine
 10
117.0000028647804
 20
43.46131274931197
 30
0.0
 11
2.999999999999998
 21
43.46131274931197
 31
0.0
  0
SOLID
  5
8B5
330
6BC
100
AcDbEntity
  8
AM_5
 62
     0
100
AcDbTrace
 10
117.0000028647804
 20
43.96131274931197
 30
0.0
 11
117.0000028647804
 21
42.96131274931197
 31
0.0
 12
120.0000028647804
 22
43.46131274931197
 32
0.0
 13
120.0000028647804
 23
43.46131274931197
 33
0.0
  0
SOLID
  5
8B6
330
6BC
100
AcDbEntity
  8
AM_5
 62
     0
100
AcDbTrace
 10
2.999999999999998
 20
43.96131274931197
 30
0.0
 11
2.999999999999998
 21
42.96131274931197
 31
0.0
 12
-0.0000000000000016
 22
43.46131274931197
 32
0.0
 13
-0.0000000000000016
 23
43.46131274931197
 33
0.0
  0
MTEXT
  5
8B7
330
6BC
100
AcDbEntity
  8
AM_5
 62
     0
100
AcDbMText
 10
60.00000143239021
 20
46.05131274931198
 30
0.0
 40
5.0
 41
0.0
 71
     5
 72
     1
  1
\A1;120
 73
     1
 44
1.0
  0
POINT
  5
8B8
330
6BC
100
AcDbEntity
  8
DEFPOINTS
 62
     0
100
AcDbPoint
 10
120.0000028647804
 20
63.27620060483588
 30
0.0
  0
POINT
  5
8B9
330
6BC
100
AcDbEntity
  8
DEFPOINTS
 62
     0
100
AcDbPoint
 10
0.0
 20
69.99999999999997
 30
0.0
  0
POINT
  5
8BA
330
6BC
100
AcDbEntity
  8
DEFPOINTS
 62
     0
100
AcDbPoint
 10
-0.0000000000000016
 20
43.46131274931197
 30
0.0
  0
ENDBLK
  5
6C7
330
6BC
100
AcDbEntity
  8
0
100
AcDbBlockEnd
  0
BLOCK
  5
6F7
330
6EE
100
AcDbEntity
  8
0
100
AcDbBlockBegin
  2
*D12
 70
     1
 71
     0
 10
0.0
 20
0.0
 30
0.0
  3
*D12
  1

  0
LINE
  5
8BB
330
6EE
100
AcDbEntity
  8
AM_5
 62
     0
370
    -2
100
AcDbLine
 10
50.80102708691861
 20
-36.88463611336994
 30
0.0
 11
65.91740022826885
 21
-16.12511629591112
 31
0.0
  0
LINE
  5
8BC
330
6EE
100
AcDbEntity
  8
AM_5
 62
     0
370
    -2
100
AcDbLine
 10
80.66292776685241
 20
4.125116236306425
 30
0.0
 11
82.42885920859892
 21
6.550293785074977
 31
0.0
  0
MTEXT
  5
8BD
330
6EE
100
AcDbEntity
  8
AM_5
 62
     0
100
AcDbMText
 10
55.38251131961695
 20
-26.19287750098364
 30
0.0
 40
5.0
 41
0.0
 71
     5
 72
     1
  1
\A1;\U+220519.05
 11
0.5886438139155077
 21
0.8083925162561843
 31
0.0
 73
     1
 44
1.0
  0
LINE
  5
8BE
330
6EE
100
AcDbEntity
  8
AM_5
 62
     0
370
    -2
100
AcDbLine
 10
78.89699632510587
 20
1.699938687537873
 30
0.0
 11
67.68333167001538
 21
-13.69993874714257
 31
0.0
  0
SOLID
  5
8BF
330
6EE
100
AcDbEntity
  8
AM_5
 62
     0
100
AcDbTrace
 10
80.25873150872431
 20
4.419438143264181
 30
0.0
 11
81.06712402498049
 21
3.83079432934867
 31
0.0
 12
78.89699632510587
 22
1.699938687537873
 32
0.0
 13
78.89699632510587
 23
1.699938687537873
 33
0.0
  0
SOLID
  5
8C0
330
6EE
100
AcDbEntity
  8
AM_5
 62
     0
100
AcDbTrace
 10
65.51320397014077
 20
-15.83079438895337
 30
0.0
 11
66.32159648639694
 21
-16.41943820286888
 31
0.0
 12
67.68333167001538
 22
-13.69993874714257
 32
0.0
 13
67.68333167001538
 23
-13.69993874714257
 33
0.0
  0
POINT
  5
8C1
330
6EE
100
AcDbEntity
  8
DEFPOINTS
 62
     0
100
AcDbPoint
 10
67.68333167001538
 20
-13.69993874714257
 30
0.0
  0
POINT
  5
8C2
330
6EE
100
AcDbEntity
  8
DEFPOINTS
 62
     0
100
AcDbPoint
 10
78.89699632510587
 20
1.699938687537873
 30
0.0
  0
ENDBLK
  5
6F8
330
6EE
100
AcDbEntity
  8
0
100
AcDbBlockEnd
  0
ENDSEC
  0
SECTION
  2
ENTITIES
  0
LINE
  5
1E5
330
22
100
AcDbEntity
  8
1
  6
CENTER
100
AcDbLine
 10
22.49016189575195
 20
-6.000000000000028
 30
0.0
 11
121.9901580810547
 21
-6.000000000000028
 31
0.0
  0
LINE
  5
1E6
330
22
100
AcDbEntity
  8
1
  6
CENTER
100
AcDbLine
 10
73.2901611328125
 20
5.432118892669678
 30
0.0
 11
73.2901611328125
 21
-17.56896209716804
 31
0.0
  0
LINE
  5
1E7
330
22
100
AcDbEntity
  8
1
  6
Continuous
100
AcDbLine
 10
120.0
 20
2.524999970197655
 30
0.0
 11
120.0
 21
-14.52500002980233
 31
0.0
  0
LINE
  5
1E8
330
22
100
AcDbEntity
  8
1
  6
Continuous
100
AcDbLine
 10
119.0
 20
2.999999970197678
 30
0.0
 11
119.0
 21
-2.87750056385994
 31
0.0
  0
LINE
  5
1E9
330
22
100
AcDbEntity
  8
1
  6
Continuous
100
AcDbLine
 10
119.0
 20
-9.122499018907547
 30
0.0
 11
119.0
 21
-15.00000002980235
 31
0.0
  0
ARC
  5
1EA
330
22
100
AcDbEntity
  8
1
  6
Continuous
100
AcDbCircle
 10
73.29016399756068
 20
-6.000000029802322
 30
0.0
 40
9.525
100
AcDbArc
 50
19.11173213719897
 51
70.88826786280094
  0
ARC
  5
1EB
330
22
100
AcDbEntity
  8
1
  6
Continuous
100
AcDbCircle
 10
73.29016399756068
 20
-6.000000029802322
 30
0.0
 40
9.525000000000006
100
AcDbArc
 50
109.111732137199
 51
160.888267862801
  0
ARC
  5
1EC
330
22
100
AcDbEntity
  8
1
  6
Continuous
100
AcDbCircle
 10
73.29016399756068
 20
-6.000000029802322
 30
0.0
 40
9.525
100
AcDbArc
 50
199.111732137199
 51
250.8882678628009
  0
ARC
  5
1ED
330
22
100
AcDbEntity
  8
1
  6
Continuous
100
AcDbCircle
 10
73.29016399756068
 20
-6.000000029802322
 30
0.0
 40
9.525000000000006
100
AcDbArc
 50
289.1117321371991
 51
340.8882678628009
  0
LINE
  5
1EE
330
22
100
AcDbEntity
  8
1
  6
Continuous
100
AcDbLine
 10
64.29016399756068
 20
-2.88140659685854
 30
0.0
 11
64.29016399756068
 21
-9.118593462746119
 31
0.0
  0
LINE
  5
1EF
330
22
100
AcDbEntity
  8
1
  6
Continuous
100
AcDbLine
 10
82.29016399756068
 20
-2.88140659685854
 30
0.0
 11
82.29016399756068
 21
-9.118593462746119
 31
0.0
  0
LINE
  5
1F0
330
22
100
AcDbEntity
  8
1
  6
Continuous
100
AcDbLine
 10
23.00000058820274
 20
2.999999970197678
 30
0.0
 11
119.525
 21
2.999999970197678
 31
0.0
  0
LINE
  5
1F1
330
22
100
AcDbEntity
  8
1
  6
Continuous
100
AcDbLine
 10
23.00000064951883
 20
-15.00000002980232
 30
0.0
 11
119.525
 21
-15.00000002980235
 31
0.0
  0
LINE
  5
1F3
330
22
100
AcDbEntity
  8
1
  6
Continuous
100
AcDbLine
 10
23.52500064951892
 20
-2.88140659685854
 30
0.0
 11
119.0
 21
-2.88140659685854
 31
0.0
  0
LINE
  5
1F4
330
22
100
AcDbEntity
  8
1
  6
Continuous
100
AcDbLine
 10
23.52500064951892
 20
-9.118593462746105
 30
0.0
 11
119.0
 21
-9.118593462746134
 31
0.0
  0
LINE
  5
1F5
330
22
100
AcDbEntity
  8
1
  6
PHANTOM
100
AcDbLine
 10
22.49016094580293
 20
3.524999970197655
 30
0.0
 11
119.0
 21
3.524999970197655
 31
0.0
  0
LINE
  5
1F6
330
22
100
AcDbEntity
  8
1
  6
PHANTOM
100
AcDbLine
 10
22.49016094580293
 20
-15.52500002980233
 30
0.0
 11
119.0
 21
-15.52500002980233
 31
0.0
  0
LINE
  5
1F7
330
22
100
AcDbEntity
  8
1
  6
Continuous
100
AcDbLine
 10
119.525
 20
2.999999970197678
 30
0.0
 11
120.0
 21
2.524999970197655
 31
0.0
  0
LINE
  5
1F8
330
22
100
AcDbEntity
  8
1
  6
Continuous
100
AcDbLine
 10
120.0
 20
-14.52500002980233
 30
0.0
 11
119.525
 21
-15.00000002980235
 31
0.0
  0
ARC
  5
1F9
330
22
100
AcDbEntity
  8
1
  6
Continuous
100
AcDbCircle
 10
110.0000000000001
 20
-6.000000029802322
 30
0.0
 40
9.524999999999906
100
AcDbArc
 50
340.8882678628008
 51
19.11173213719913
  0
LINE
  5
1FC
330
22
100
AcDbEntity
  8
1
  6
Continuous
100
AcDbLine
 10
23.52500064951892
 20
-15.00000002980232
 30
0.0
 11
23.52500064951892
 21
-9.118593462746105
 31
0.0
  0
LINE
  5
1FD
330
22
100
AcDbEntity
  8
1
  6
Continuous
100
AcDbLine
 10
23.52500064951892
 20
-2.88140659685854
 30
0.0
 11
23.52500064951892
 21
2.999999970197678
 31
0.0
  0
ARC
  5
1FE
330
22
100
AcDbEntity
  8
1
  6
Continuous
100
AcDbCircle
 10
32.52500064951903
 20
-6.000000029802308
 30
0.0
 40
9.525000000000034
100
AcDbArc
 50
160.8882678628011
 51
199.1117321371989
  0
LINE
  5
1FF
330
22
100
AcDbEntity
  8
1
  6
Continuous
100
AcDbLine
 10
22.50000190734863
 20
-14.50000000000003
 30
0.0
 11
22.50000190734863
 21
2.499999999999972
 31
0.0
  0
LINE
  5
200
330
22
100
AcDbEntity
  8
1
  6
Continuous
100
AcDbLine
 10
22.50000095739961
 20
2.499999970197678
 30
0.0
 11
23.00000095739961
 21
2.999999970197678
 31
0.0
  0
LINE
  5
201
330
22
100
AcDbEntity
  8
1
  6
Continuous
100
AcDbLine
 10
23.00000143423677
 20
-15.00000002980232
 30
0.0
 11
22.50000095739961
 21
-14.49999955296522
 31
0.0
  0
LINE
  5
202
330
22
100
AcDbEntity
  8
1
  6
Continuous
100
AcDbLine
 10
2.664745137047248
 20
-14.49999955296522
 30
0.0
 11
22.50000095739961
 21
-14.49999955296522
 31
0.0
  0
LINE
  5
203
330
22
100
AcDbEntity
  8
1
  6
Continuous
100
AcDbLine
 10
21.47986793084181
 20
2.500000447034779
 30
0.0
 11
22.50000095739961
 21
2.500000447034779
 31
0.0
  0
LINE
  5
204
330
22
100
AcDbEntity
  8
1
  6
Continuous
100
AcDbLine
 10
14.99999999996783
 20
-13.25013402104381
 30
0.0
 11
14.99999999996783
 21
-1.999999552965221
 31
0.0
  0
POLYLINE
  5
205
330
22
100
AcDbEntity
  8
1
  6
Continuous
100
AcDb2dPolyline
 66
     1
 10
0.0
 20
0.0
 30
0.0
  0
VERTEX
  5
206
330
205
100
AcDbEntity
  8
1
  6
Continuous
100
AcDbVertex
100
AcDb2dVertex
 10
15.13855020469293
 20
-14.49999955296522
 30
0.0
  0
VERTEX
  5
207
330
205
100
AcDbEntity
  8
1
  6
Continuous
100
AcDbVertex
100
AcDb2dVertex
 10
15.13871796129502
 20
-14.49999966472153
 30
0.0
  0
VERTEX
  5
208
330
205
100
AcDbEntity
  8
1
  6
Continuous
100
AcDbVertex
100
AcDb2dVertex
 10
15.13888571952111
 20
-14.49999976157793
 30
0.0
  0
VERTEX
  5
209
330
205
100
AcDbEntity
  8
1
  6
Continuous
100
AcDbVertex
100
AcDb2dVertex
 10
15.13905347937111
 20
-14.49999984353421
 30
0.0
  0
VERTEX
  5
20A
330
205
100
AcDbEntity
  8
1
  6
Continuous
100
AcDbVertex
100
AcDb2dVertex
 10
15.13922124084468
 20
-14.49999991058992
 30
0.0
  0
VERTEX
  5
20B
330
205
100
AcDbEntity
  8
1
  6
Continuous
100
AcDbVertex
100
AcDb2dVertex
 10
15.1393890039418
 20
-14.49999996274492
 30
0.0
  0
VERTEX
  5
20C
330
205
100
AcDbEntity
  8
1
  6
Continuous
100
AcDbVertex
100
AcDb2dVertex
 10
15.13955676866237
 20
-14.49999999999881
 30
0.0
  0
VERTEX
  5
20D
330
205
100
AcDbEntity
  8
1
  6
Continuous
100
AcDbVertex
100
AcDb2dVertex
 10
15.13972453500617
 20
-14.50000002235142
 30
0.0
  0
VERTEX
  5
20E
330
205
100
AcDbEntity
  8
1
  6
Continuous
100
AcDbVertex
100
AcDb2dVertex
 10
15.13989230297318
 20
-14.50000002980232
 30
0.0
  0
VERTEX
  5
20F
330
205
100
AcDbEntity
  8
1
  6
Continuous
100
AcDbVertex
100
AcDb2dVertex
 10
15.91415826513844
 20
-14.3379054763905
 30
0.0
  0
VERTEX
  5
210
330
205
100
AcDbEntity
  8
1
  6
Continuous
100
AcDbVertex
100
AcDb2dVertex
 10
16.65565700697391
 20
-13.8563122390145
 30
0.0
  0
VERTEX
  5
211
330
205
100
AcDbEntity
  8
1
  6
Continuous
100
AcDbVertex
100
AcDb2dVertex
 10
17.3406833869891
 20
-13.0703948864391
 30
0.0
  0
VERTEX
  5
212
330
205
100
AcDbEntity
  8
1
  6
Continuous
100
AcDbVertex
100
AcDb2dVertex
 10
17.94259141417842
 20
-12.01040766988793
 30
0.0
  0
VERTEX
  5
213
330
205
100
AcDbEntity
  8
1
  6
Continuous
100
AcDbVertex
100
AcDb2dVertex
 10
18.43687157080262
 20
-10.71961174007022
 30
0.0
  0
VERTEX
  5
214
330
205
100
AcDbEntity
  8
1
  6
Continuous
100
AcDbVertex
100
AcDb2dVertex
 10
18.80335085098545
 20
-9.250567927396105
 30
0.0
  0
VERTEX
  5
215
330
205
100
AcDbEntity
  8
1
  6
Continuous
100
AcDbVertex
100
AcDb2dVertex
 10
19.10350739729063
 20
-6.000000029802308
 30
0.0
  0
VERTEX
  5
216
330
205
100
AcDbEntity
  8
1
  6
Continuous
100
AcDbVertex
100
AcDb2dVertex
 10
19.05722052978354
 20
-4.696902459752792
 30
0.0
  0
VERTEX
  5
217
330
205
100
AcDbEntity
  8
1
  6
Continuous
100
AcDbVertex
100
AcDb2dVertex
 10
18.91915167086245
 20
-3.43028027466481
 30
0.0
  0
VERTEX
  5
218
330
205
100
AcDbEntity
  8
1
  6
Continuous
100
AcDbVertex
100
AcDb2dVertex
 10
18.69182370534179
 20
-2.223606609023406
 30
0.0
  0
VERTEX
  5
219
330
205
100
AcDbEntity
  8
1
  6
Continuous
100
AcDbVertex
100
AcDb2dVertex
 10
18.38024115156316
 20
-1.103669532071237
 30
0.0
  0
SEQEND
  5
21A
330
205
100
AcDbEntity
  8
1
  0
LINE
  5
228
330
22
100
AcDbEntity
  8
1
  6
Continuous
100
AcDbLine
 10
10.22064251854215
 20
-10.43731260671004
 30
0.0
 11
0.9901337291028085
 21
-9.629747729057726
 31
0.0
  0
LINE
  5
229
330
22
100
AcDbEntity
  8
1
  6
Continuous
100
AcDbLine
 10
10.43731260671007
 20
-10.22064251854212
 30
0.0
 11
9.629747729057726
 21
-0.9901337291028369
 31
0.0
  0
LINE
  5
22A
330
22
100
AcDbEntity
  8
1
  6
Continuous
100
AcDbLine
 10
9.447939937988849
 20
-0.8083259380340166
 30
0.0
 11
0.2174311485495082
 21
-0.0007610603816062
 31
0.0
  0
LINE
  5
22B
330
22
100
AcDbEntity
  8
1
  6
Continuous
100
AcDbLine
 10
0.0007610603817056
 20
-0.2174311485495224
 30
0.0
 11
0.8083259380339314
 21
-9.447939937988821
 31
0.0
  0
CIRCLE
  5
22C
330
22
100
AcDbEntity
  8
1
  6
Continuous
100
AcDbCircle
 10
5.219036833545829
 20
-5.219036833545815
 30
0.0
 40
3.0
  0
ARC
  5
22D
330
22
100
AcDbEntity
  8
1
  6
Continuous
100
AcDbCircle
 10
0.2000000000000455
 20
-0.2000000000000028
 30
0.0
 40
0.2000000000000005
100
AcDbArc
 50
84.99999999999939
 51
184.9999999999998
  0
ARC
  5
22E
330
22
100
AcDbEntity
  8
1
  6
Continuous
100
AcDbCircle
 10
9.430508789439273
 20
-1.007564877652314
 30
0.0
 40
0.1999999999999995
100
AcDbArc
 50
5.000000000000062
 51
84.99999999999994
  0
ARC
  5
22F
330
22
100
AcDbEntity
  8
1
  6
Continuous
100
AcDbCircle
 10
10.23807366709161
 20
-10.23807366709171
 30
0.0
 40
0.1999999999999995
100
AcDbArc
 50
265.0000000000004
 51
5.000000000000062
  0
ARC
  5
230
330
22
100
AcDbEntity
  8
1
  6
Continuous
100
AcDbCircle
 10
1.007564877652385
 20
-9.430508789439315
 30
0.0
 40
0.1999999999999995
100
AcDbArc
 50
185.0000000000006
 51
264.9999999999997
  0
INSERT
  5
231
330
22
100
AcDbEntity
  8
1
  6
Continuous
100
AcDbBlockReference
  2
LRIS-4-1_0001
 10
5.289747221806124
 20
-5.28974722180611
 30
0.0
  0
LINE
  5
232
330
22
100
AcDbEntity
  8
1
  6
Continuous
100
AcDbLine
 10
11.39948002069309
 20
-1.480973490458723
 30
0.0
 11
9.659371389021089
 21
-1.328733711883814
 31
0.0
  0
LINE
  5
233
330
22
100
AcDbEntity
  8
1
  6
Continuous
100
AcDbLine
 10
1.328733711883842
 20
-9.659371389021118
 30
0.0
 11
1.664745137047248
 21
-13.49999955296522
 31
0.0
  0
ARC
  5
234
330
22
100
AcDbEntity
  8
1
  6
Continuous
100
AcDbCircle
 10
9.356904847986925
 20
-9.356904847987011
 30
0.0
 40
1.999999999999546
100
AcDbArc
 50
225.0000000000004
 51
44.99999999999952
  0
LINE
  5
235
330
22
100
AcDbEntity
  8
1
  6
Continuous
100
AcDbLine
 10
10.7711184103598
 20
-7.942691285614217
 30
0.0
 11
10.18690570933654
 21
-7.35847858459104
 31
0.0
  0
LINE
  5
236
330
22
100
AcDbEntity
  8
1
  6
Continuous
100
AcDbLine
 10
7.942691285614274
 20
-10.77111841035983
 30
0.0
 11
7.358478584591012
 21
-10.18690570933651
 31
0.0
  0
LINE
  5
237
330
22
100
AcDbEntity
  8
1
  6
Continuous
100
AcDbLine
 10
11.83525873443136
 20
-1.500000000000028
 30
0.0
 11
16.42928578572855
 21
-1.500000000000028
 31
0.0
  0
ARC
  5
238
330
22
100
AcDbEntity
  8
1
  6
Continuous
100
AcDbCircle
 10
11.83525873443136
 20
3.499999999999986
 30
0.0
 40
5.000000000000001
100
AcDbArc
 50
265.0
 51
270.0
  0
ARC
  5
23A
330
22
100
AcDbEntity
  8
1
  6
Continuous
100
AcDbCircle
 10
16.42928578572855
 20
3.499999999999986
 30
0.0
 40
5.0
100
AcDbArc
 50
270.0
 51
335.0000000000001
  0
LINE
  5
23B
330
22
100
AcDbEntity
  8
1
  6
Continuous
100
AcDbLine
 10
21.47986793084181
 20
2.500000447034779
 30
0.0
 11
20.96082472091189
 21
1.386908691296469
 31
0.0
  0
LINE
  5
23C
330
22
100
AcDbEntity
  8
1
  6
Continuous
100
AcDbLine
 10
1.664745137047248
 20
-13.49999955296522
 30
0.0
 11
2.664745137047248
 21
-14.49999955296522
 31
0.0
  0
LINE
  5
240
330
22
100
AcDbEntity
  8
2
  6
Continuous
100
AcDbLine
 10
9.622110366821289
 20
70.30000001192087
 30
0.0
 11
14.36292934417736
 21
70.30000001192087
 31
0.0
  0
LINE
  5
241
330
22
100
AcDbEntity
  8
2
  6
Continuous
100
AcDbLine
 10
0.0000000000321734
 20
69.99999999999997
 30
0.0
 11
10.43807411193848
 21
69.99999999999997
 31
0.0
  0
LINE
  5
242
330
22
100
AcDbEntity
  8
2
  6
Continuous
100
AcDbLine
 10
0.8140226602554321
 20
73.97000002861017
 30
0.0
 11
0.8374323844909668
 21
73.97000002861017
 31
0.0
  0
LINE
  5
243
330
22
100
AcDbEntity
  8
2
  6
CENTER
100
AcDbLine
 10
5.28974723815918
 20
68.75899302959439
 30
0.0
 11
5.28974723815918
 21
79.78075027465818
 31
0.0
  0
LINE
  5
244
330
22
100
AcDbEntity
  8
2
  6
Continuous
100
AcDbLine
 10
22.50000095743189
 20
61.49999999999997
 30
0.0
 11
19.10350739735497
 21
61.49999999999997
 31
0.0
  0
LINE
  5
245
330
22
100
AcDbEntity
  8
2
  6
CENTER
100
AcDbLine
 10
121.9901609458351
 20
69.99999999999997
 30
0.0
 11
19.9901609458351
 21
69.99999999999997
 31
0.0
  0
LINE
  5
246
330
22
100
AcDbEntity
  8
2
  6
Continuous
100
AcDbLine
 10
22.50000095743189
 20
78.49999999999997
 30
0.0
 11
0.5397439033770297
 21
78.49999999999997
 31
0.0
  0
LINE
  5
251
330
22
100
AcDbEntity
  8
2
  6
Continuous
100
AcDbLine
 10
19.10350739735497
 20
61.49999999999997
 30
0.0
 11
15.26923752626135
 21
69.72261827366154
 31
0.0
  0
ARC
  5
252
330
22
100
AcDbEntity
  8
2
  6
Continuous
100
AcDbCircle
 10
14.36292973922468
 20
69.30000001192089
 30
0.0
 40
1.0
100
AcDbArc
 50
25.00000000000015
 51
90.0
  0
LINE
  5
253
330
22
100
AcDbEntity
  8
2
  6
Continuous
100
AcDbLine
 10
22.50000059794138
 20
78.49999999999997
 30
0.0
 11
23.00000059794138
 21
78.99999999999997
 31
0.0
  0
LINE
  5
254
330
22
100
AcDbEntity
  8
2
  6
Continuous
100
AcDbLine
 10
22.50000095743189
 20
78.49999999999997
 30
0.0
 11
22.50000095743189
 21
61.49999999999997
 31
0.0
  0
LINE
  5
255
330
22
100
AcDbEntity
  8
2
  6
Continuous
100
AcDbLine
 10
23.00000059794138
 20
60.99999999999997
 30
0.0
 11
22.50000059794138
 21
61.49999999999997
 31
0.0
  0
LINE
  5
256
330
22
100
AcDbEntity
  8
2
  6
Continuous
100
AcDbLine
 10
0.0
 20
69.99999999999997
 30
0.0
 11
0.550044801326635
 21
73.96999999999997
 31
0.0
  0
LINE
  5
257
330
22
100
AcDbEntity
  8
2
  6
Continuous
100
AcDbLine
 10
120.0000028647804
 20
78.52499999999998
 30
0.0
 11
120.0000028647804
 21
61.47499999999997
 31
0.0
  0
LINE
  5
258
330
22
100
AcDbEntity
  8
2
  6
Continuous
100
AcDbLine
 10
119.0000028647804
 20
78.99999999999997
 30
0.0
 11
119.0000028647804
 21
73.12249898910517
 31
0.0
  0
LINE
  5
259
330
22
100
AcDbEntity
  8
2
  6
Continuous
100
AcDbLine
 10
119.0000028647804
 20
66.87750101089478
 30
0.0
 11
119.0000028647804
 21
60.99999999999997
 31
0.0
  0
LINE
  5
25A
330
22
100
AcDbEntity
  8
2
  6
Continuous
100
AcDbLine
 10
119.0000028647804
 20
66.88140656705616
 30
0.0
 11
23.52500059794136
 21
66.88140656705616
 31
0.0
  0
LINE
  5
25B
330
22
100
AcDbEntity
  8
2
  6
Continuous
100
AcDbLine
 10
119.0000028647804
 20
73.11859343294378
 30
0.0
 11
23.52500059794136
 21
73.11859343294378
 31
0.0
  0
LINE
  5
25C
330
22
100
AcDbEntity
  8
2
  6
Continuous
100
AcDbLine
 10
23.52500059794136
 20
60.99999999999997
 30
0.0
 11
23.52500059794136
 21
66.88140656705616
 31
0.0
  0
LINE
  5
25D
330
22
100
AcDbEntity
  8
2
  6
Continuous
100
AcDbLine
 10
23.52500059794136
 20
73.11859343294378
 30
0.0
 11
23.52500059794136
 21
78.99999999999997
 31
0.0
  0
LINE
  5
25E
330
22
100
AcDbEntity
  8
2
  6
Continuous
100
AcDbLine
 10
119.5250028647803
 20
78.99999999999997
 30
0.0
 11
120.0000028647804
 21
78.52499999999998
 31
0.0
  0
LINE
  5
25F
330
22
100
AcDbEntity
  8
2
  6
Continuous
100
AcDbLine
 10
120.0000028647804
 20
61.47499999999997
 30
0.0
 11
119.5250028647803
 21
60.99999999999997
 31
0.0
  0
LINE
  5
260
330
22
100
AcDbEntity
  8
2
  6
Continuous
100
AcDbLine
 10
119.5250028647803
 20
78.99999999999997
 30
0.0
 11
23.00000059794138
 21
78.99999999999997
 31
0.0
  0
LINE
  5
261
330
22
100
AcDbEntity
  8
2
  6
Continuous
100
AcDbLine
 10
119.5250028647803
 20
60.99999999999997
 30
0.0
 11
23.00000059794138
 21
60.99999999999997
 31
0.0
  0
ARC
  5
262
330
22
100
AcDbEntity
  8
2
  6
Continuous
100
AcDbCircle
 10
110.0000028647805
 20
69.99999999999997
 30
0.0
 40
9.524999999999906
100
AcDbArc
 50
340.8882678628008
 51
19.11173213719913
  0
ARC
  5
263
330
22
100
AcDbEntity
  8
2
  6
Continuous
100
AcDbCircle
 10
32.5250005979413
 20
69.99999999999999
 30
0.0
 40
9.525000000000034
100
AcDbArc
 50
160.8882678628011
 51
199.1117321371989
  0
LINE
  5
264
330
22
100
AcDbEntity
  8
2
  6
Continuous
100
AcDbLine
 10
0.5397439033770297
 20
73.96999999999997
 30
0.0
 11
9.363705346411393
 21
73.96999999999997
 31
0.0
  0
LINE
  5
265
330
22
100
AcDbEntity
  8
2
  6
Continuous
100
AcDbLine
 10
0.5397439033770297
 20
78.49999999999997
 30
0.0
 11
0.5397439033770297
 21
73.96999999999997
 31
0.0
  0
LINE
  5
266
330
22
100
AcDbEntity
  8
2
  6
Continuous
100
AcDbLine
 10
10.40123829735717
 20
70.30000001192087
 30
0.0
 11
10.43807366709166
 21
69.99999999999997
 31
0.0
  0
LINE
  5
267
330
22
100
AcDbEntity
  8
2
  6
Continuous
100
AcDbLine
 10
9.35258684080236
 20
73.96999999999997
 30
0.0
 11
9.35258684080236
 21
72.46999999999997
 31
0.0
  0
LINE
  5
268
330
22
100
AcDbEntity
  8
2
  6
Continuous
100
AcDbLine
 10
9.622110107860863
 20
70.30000001192087
 30
0.0
 11
9.35258684080236
 21
72.46999999999997
 31
0.0
  0
LINE
  5
269
330
22
100
AcDbEntity
  8
2
  6
Continuous
100
AcDbLine
 10
11.61695401988879
 20
76.07243828132738
 30
0.0
 11
11.61695401988879
 21
72.09675428964869
 31
0.0
  0
POLYLINE
  5
26A
330
22
100
AcDbEntity
  8
2
  6
Continuous
100
AcDb2dPolyline
 66
     1
 10
0.0
 20
0.0
 30
0.0
  0
VERTEX
  5
26B
330
26A
100
AcDbEntity
  8
2
  6
Continuous
100
AcDbVertex
100
AcDb2dVertex
 10
0.5397439033770297
 20
76.50706521336058
 30
0.0
  0
VERTEX
  5
26C
330
26A
100
AcDbEntity
  8
2
  6
Continuous
100
AcDbVertex
100
AcDb2dVertex
 10
5.938793230624356
 20
76.87694993528639
 30
0.0
  0
VERTEX
  5
26D
330
26A
100
AcDbEntity
  8
2
  6
Continuous
100
AcDbVertex
100
AcDb2dVertex
 10
11.61695401988879
 20
77.2124464890472
 30
0.0
  0
SEQEND
  5
26E
330
26A
100
AcDbEntity
  8
2
  0
POLYLINE
  5
26F
330
22
100
AcDbEntity
  8
2
  6
Continuous
100
AcDb2dPolyline
 66
     1
 10
0.0
 20
0.0
 30
0.0
  0
VERTEX
  5
270
330
26F
100
AcDbEntity
  8
2
  6
Continuous
100
AcDbVertex
100
AcDb2dVertex
 10
20.96082472091189
 20
65.79481516060106
 30
0.0
  0
VERTEX
  5
271
330
26F
100
AcDbEntity
  8
2
  6
Continuous
100
AcDbVertex
100
AcDb2dVertex
 10
20.49690335246442
 20
64.93643628587007
 30
0.0
  0
VERTEX
  5
272
330
26F
100
AcDbEntity
  8
2
  6
Continuous
100
AcDbVertex
100
AcDb2dVertex
 10
20.05111296509108
 20
64.26601204949789
 30
0.0
  0
VERTEX
  5
273
330
26F
100
AcDbEntity
  8
2
  6
Continuous
100
AcDbVertex
100
AcDb2dVertex
 10
19.58898184408406
 20
63.73122816398909
 30
0.0
  0
VERTEX
  5
274
330
26F
100
AcDbEntity
  8
2
  6
Continuous
100
AcDbVertex
100
AcDb2dVertex
 10
19.11578382746279
 20
63.34121191533107
 30
0.0
  0
VERTEX
  5
275
330
26F
100
AcDbEntity
  8
2
  6
Continuous
100
AcDbVertex
100
AcDb2dVertex
 10
18.77994846965805
 20
63.15153859260467
 30
0.0
  0
VERTEX
  5
276
330
26F
100
AcDbEntity
  8
2
  6
Continuous
100
AcDbVertex
100
AcDb2dVertex
 10
18.40353033445445
 20
63.00110565558809
 30
0.0
  0
SEQEND
  5
277
330
26F
100
AcDbEntity
  8
2
  0
POLYLINE
  5
278
330
22
100
AcDbEntity
  8
2
  6
Continuous
100
AcDb2dPolyline
 66
     1
 10
0.0
 20
0.0
 30
0.0
  0
VERTEX
  5
279
330
278
100
AcDbEntity
  8
2
  6
Continuous
100
AcDbVertex
100
AcDb2dVertex
 10
20.96161047981855
 20
65.79481516060106
 30
0.0
  0
VERTEX
  5
27A
330
278
100
AcDbEntity
  8
2
  6
Continuous
100
AcDbVertex
100
AcDb2dVertex
 10
21.18598307864511
 20
66.78209674542406
 30
0.0
  0
VERTEX
  5
27B
330
278
100
AcDbEntity
  8
2
  6
Continuous
100
AcDbVertex
100
AcDb2dVertex
 10
21.34857049577158
 20
67.82216731963131
 30
0.0
  0
VERTEX
  5
27C
330
278
100
AcDbEntity
  8
2
  6
Continuous
100
AcDbVertex
100
AcDb2dVertex
 10
21.44694529479091
 20
68.8993856545486
 30
0.0
  0
VERTEX
  5
27D
330
278
100
AcDbEntity
  8
2
  6
Continuous
100
AcDbVertex
100
AcDb2dVertex
 10
21.47986770808984
 20
69.99999999999999
 30
0.0
  0
SEQEND
  5
27E
330
278
100
AcDbEntity
  8
2
  0
LINE
  5
27F
330
22
100
AcDbEntity
  8
2
  6
Continuous
100
AcDbLine
 10
17.13762178273214
 20
77.21110253179609
 30
0.0
 11
11.59239323586826
 21
77.21110253179609
 31
0.0
  0
POLYLINE
  5
280
330
22
100
AcDbEntity
  8
2
  6
Continuous
100
AcDb2dPolyline
 66
     1
 10
0.0
 20
0.0
 30
0.0
  0
VERTEX
  5
281
330
280
100
AcDbEntity
  8
2
  6
Continuous
100
AcDbVertex
100
AcDb2dVertex
 10
20.96161047981855
 20
74.20518483939891
 30
0.0
  0
VERTEX
  5
282
330
280
100
AcDbEntity
  8
2
  6
Continuous
100
AcDbVertex
100
AcDb2dVertex
 10
21.18598307864511
 20
73.21790325457592
 30
0.0
  0
VERTEX
  5
283
330
280
100
AcDbEntity
  8
2
  6
Continuous
100
AcDbVertex
100
AcDb2dVertex
 10
21.34857049577158
 20
72.17783268036867
 30
0.0
  0
VERTEX
  5
284
330
280
100
AcDbEntity
  8
2
  6
Continuous
100
AcDbVertex
100
AcDb2dVertex
 10
21.44694529479091
 20
71.10061434545138
 30
0.0
  0
VERTEX
  5
285
330
280
100
AcDbEntity
  8
2
  6
Continuous
100
AcDbVertex
100
AcDb2dVertex
 10
21.47986770808984
 20
69.99999999999999
 30
0.0
  0
SEQEND
  5
286
330
280
100
AcDbEntity
  8
2
  0
POLYLINE
  5
287
330
22
100
AcDbEntity
  8
2
  6
Continuous
100
AcDb2dPolyline
 66
     1
 10
0.0
 20
0.0
 30
0.0
  0
VERTEX
  5
288
330
287
100
AcDbEntity
  8
2
  6
Continuous
100
AcDbVertex
100
AcDb2dVertex
 10
20.96082472091189
 20
74.20518483939891
 30
0.0
  0
VERTEX
  5
289
330
287
100
AcDbEntity
  8
2
  6
Continuous
100
AcDbVertex
100
AcDb2dVertex
 10
20.49690335246442
 20
75.0635637141299
 30
0.0
  0
VERTEX
  5
28A
330
287
100
AcDbEntity
  8
2
  6
Continuous
100
AcDbVertex
100
AcDb2dVertex
 10
20.05111296509108
 20
75.73398795050208
 30
0.0
  0
VERTEX
  5
28B
330
287
100
AcDbEntity
  8
2
  6
Continuous
100
AcDbVertex
100
AcDb2dVertex
 10
19.58898184408406
 20
76.26877183601089
 30
0.0
  0
VERTEX
  5
28C
330
287
100
AcDbEntity
  8
2
  6
Continuous
100
AcDbVertex
100
AcDb2dVertex
 10
19.11578382746279
 20
76.6587880846689
 30
0.0
  0
VERTEX
  5
28D
330
287
100
AcDbEntity
  8
2
  6
Continuous
100
AcDbVertex
100
AcDb2dVertex
 10
18.59049384330899
 20
76.931101519173
 30
0.0
  0
VERTEX
  5
28E
330
287
100
AcDbEntity
  8
2
  6
Continuous
100
AcDbVertex
100
AcDb2dVertex
 10
17.97218839626396
 20
77.1130064764334
 30
0.0
  0
VERTEX
  5
28F
330
287
100
AcDbEntity
  8
2
  6
Continuous
100
AcDbVertex
100
AcDb2dVertex
 10
17.26999302596914
 20
77.2040786652169
 30
0.0
  0
VERTEX
  5
290
330
287
100
AcDbEntity
  8
2
  6
Continuous
100
AcDbVertex
100
AcDb2dVertex
 10
16.42928578572855
 20
77.2111025317961
 30
0.0
  0
SEQEND
  5
291
330
287
100
AcDbEntity
  8
2
  0
LINE
  5
318
330
22
100
AcDbEntity
  8
6
  6
Continuous
100
AcDbLine
 10
-50.0
 20
-10.43807411193851
 30
0.0
 11
-50.0
 21
-0.0000000000000142
 31
0.0
  0
LINE
  5
319
330
22
100
AcDbEntity
  8
6
  6
Continuous
100
AcDbLine
 10
-50.30000001192093
 20
-9.622110366821303
 30
0.0
 11
-50.30000001192093
 21
-14.49470424652101
 31
0.0
  0
LINE
  5
31A
330
22
100
AcDbEntity
  8
6
  6
CENTER
100
AcDbLine
 10
-49.42242020368576
 20
-5.289747238159222
 30
0.0
 11
-60.0
 21
-5.289747238159222
 31
0.0
  0
LINE
  5
31B
330
22
100
AcDbEntity
  8
6
  6
CENTER
100
AcDbLine
 10
-50.0
 20
5.085924625396686
 30
0.0
 11
-50.0
 21
-17.0000019073486
 31
0.0
  0
CIRCLE
  5
31C
330
22
100
AcDbEntity
  8
6
  6
Continuous
100
AcDbCircle
 10
-50.0
 20
-6.000000030658114
 30
0.0
 40
8.5
  0
LINE
  5
31D
330
22
100
AcDbEntity
  8
6
  6
CENTER
100
AcDbLine
 10
-62.38348770141602
 20
-6.000000030658114
 30
0.0
 11
-39.0
 21
-6.000000030658114
 31
0.0
  0
ARC
  5
31E
330
22
100
AcDbEntity
  8
6
  6
Continuous
100
AcDbCircle
 10
-50.0
 20
-6.000000030658114
 30
0.0
 40
9.525
100
AcDbArc
 50
19.11173213719897
 51
70.88826786280104
  0
ARC
  5
31F
330
22
100
AcDbEntity
  8
6
  6
Continuous
100
AcDbCircle
 10
-50.0
 20
-6.000000030658114
 30
0.0
 40
9.525
100
AcDbArc
 50
109.111732137199
 51
160.888267862801
  0
ARC
  5
320
330
22
100
AcDbEntity
  8
6
  6
Continuous
100
AcDbCircle
 10
-50.0
 20
-6.000000030658114
 30
0.0
 40
9.525
100
AcDbArc
 50
199.111732137199
 51
250.888267862801
  0
ARC
  5
321
330
22
100
AcDbEntity
  8
6
  6
Continuous
100
AcDbCircle
 10
-50.0
 20
-6.000000030658114
 30
0.0
 40
9.525
100
AcDbArc
 50
289.1117321371989
 51
340.8882678628009
  0
LINE
  5
322
330
22
100
AcDbEntity
  8
6
  6
Continuous
100
AcDbLine
 10
-53.11859343294384
 20
2.999999969341886
 30
0.0
 11
-46.88140656705616
 21
2.999999969341886
 31
0.0
  0
LINE
  5
323
330
22
100
AcDbEntity
  8
6
  6
Continuous
100
AcDbLine
 10
-53.11859343294384
 20
-15.0000000306581
 30
0.0
 11
-46.88140656705616
 21
-15.0000000306581
 31
0.0
  0
LINE
  5
324
330
22
100
AcDbEntity
  8
6
  6
Continuous
100
AcDbLine
 10
-41.0
 20
-2.881406597714303
 30
0.0
 11
-41.0
 21
-9.118593463601926
 31
0.0
  0
LINE
  5
325
330
22
100
AcDbEntity
  8
6
  6
Continuous
100
AcDbLine
 10
-53.97000000000003
 20
-9.352586840802417
 30
0.0
 11
-53.97000000000003
 21
-0.4874547067845043
 31
0.0
  0
LINE
  5
326
330
22
100
AcDbEntity
  8
6
  6
Continuous
100
AcDbLine
 10
-50.0
 20
-0.0000000000000142
 30
0.0
 11
-53.97000000000003
 21
-0.4874547067845043
 31
0.0
  0
LINE
  5
327
330
22
100
AcDbEntity
  8
6
  6
Continuous
100
AcDbLine
 10
-50.0
 20
-10.43807366709171
 30
0.0
 11
-50.30000001192093
 21
-10.40123829735711
 31
0.0
  0
LINE
  5
328
330
22
100
AcDbEntity
  8
6
  6
Continuous
100
AcDbLine
 10
-50.0
 20
-9.615121258738824
 30
0.0
 11
-53.97000000000003
 21
-9.127666551954221
 31
0.0
  0
LINE
  5
329
330
22
100
AcDbEntity
  8
6
  6
Continuous
100
AcDbLine
 10
-53.97000000000003
 20
-9.352586840802417
 30
0.0
 11
-52.47000000000003
 21
-9.352586840802417
 31
0.0
  0
LINE
  5
32A
330
22
100
AcDbEntity
  8
6
  6
Continuous
100
AcDbLine
 10
-50.30000001192093
 20
-9.62211010786092
 30
0.0
 11
-52.47000000000003
 21
-9.352586840802417
 31
0.0
  0
LINE
  5
32B
330
22
100
AcDbEntity
  8
6
  6
Continuous
100
AcDbLine
 10
-59.0
 20
-2.881406597714303
 30
0.0
 11
-59.0
 21
-9.118593463601926
 31
0.0
  0
LINE
  5
32C
330
22
100
AcDbEntity
  8
6
  6
Continuous
100
AcDbLine
 10
-56.5060976011581
 20
-0.5300188602879388
 30
0.0
 11
-53.97000000000003
 21
-0.5300188602879388
 31
0.0
  0
POLYLINE
  5
32D
330
22
100
AcDbEntity
  8
6
  6
Continuous
100
AcDb2dPolyline
 66
     1
 10
0.0
 20
0.0
 30
0.0
  0
VERTEX
  5
32E
330
32D
100
AcDbEntity
  8
6
  6
Continuous
100
AcDbVertex
100
AcDb2dVertex
 10
-43.05174114402939
 20
-1.103909869067238
 30
0.0
  0
VERTEX
  5
32F
330
32D
100
AcDbEntity
  8
6
  6
Continuous
100
AcDbVertex
100
AcDb2dVertex
 10
-44.06019469749299
 20
-1.276005336799798
 30
0.0
  0
VERTEX
  5
330
330
32D
100
AcDbEntity
  8
6
  6
Continuous
100
AcDbVertex
100
AcDb2dVertex
 10
-45.10007828278219
 20
-1.400087277482314
 30
0.0
  0
VERTEX
  5
331
330
32D
100
AcDbEntity
  8
6
  6
Continuous
100
AcDbVertex
100
AcDb2dVertex
 10
-46.16140582690684
 20
-1.474969248306209
 30
0.0
  0
VERTEX
  5
332
330
32D
100
AcDbEntity
  8
6
  6
Continuous
100
AcDbVertex
100
AcDb2dVertex
 10
-47.23488675311046
 20
-1.500000000000014
 30
0.0
  0
SEQEND
  5
333
330
32D
100
AcDbEntity
  8
6
  0
LINE
  5
334
330
22
100
AcDbEntity
  8
6
  6
Continuous
100
AcDbLine
 10
-50.0
 20
-1.500000000000014
 30
0.0
 11
-47.2348867531091
 21
-1.500000000000014
 31
0.0
  0
LINE
  5
335
330
22
100
AcDbEntity
  8
6
  6
Continuous
100
AcDbLine
 10
-54.00000089567425
 20
-13.49999955296522
 30
0.0
 11
-50.30000001192093
 21
-13.49999955296522
 31
0.0
  0
LINE
  5
50D
330
22
100
AcDbEntity
  8
0
100
AcDbLine
 10
0.2000000000000455
 20
0.0
 30
0.0
 11
0.0
 21
0.0
 31
0.0
  0
LINE
  5
50E
330
22
100
AcDbEntity
  8
0
100
AcDbLine
 10
0.0
 20
0.0
 30
0.0
 11
0.0
 21
-0.2000000000000028
 31
0.0
  0
LINE
  5
519
330
22
100
AcDbEntity
  8
0
 62
     3
100
AcDbLine
 10
20.0
 20
-0.0000000000000142
 30
0.0
 11
0.0
 21
0.0
 31
0.0
  0
DIMENSION
  5
52C
330
22
100
AcDbEntity
  8
AM_5
100
AcDbDimension
  2
*D3
 10
0.0000000000000013
 20
20.73265929416875
 30
0.0
 11
10.0
 21
23.32265929416875
 31
0.0
 70
    32
 71
     5
 42
20.0
  3
Standard$0
100
AcDbAlignedDimension
 13
20.0
 23
-0.0000000000000142
 33
0.0
 14
0.0
 24
0.0
 34
0.0
 50
180.0
100
AcDbRotatedDimension
1001
ACAD
1000
DSTYLE
1002
{
1070
    41
1040
3.0
1070
    42
1040
1.0
1070
    43
1040
5.0
1070
    44
1040
2.0
1070
    46
1040
3.0
1070
    73
1070
     0
1070
    74
1070
     0
1070
    77
1070
     1
1070
    78
1070
     8
1070
   140
1040
5.0
1070
   141
1040
2.0
1070
   145
1040
1.0
1070
   171
1070
     4
1070
   172
1070
     1
1002
}
  0
DIMENSION
  5
554
330
22
100
AcDbEntity
  8
AM_5
100
AcDbDimension
  2
*D4
 10
64.29016399756063
 20
15.88315161408872
 30
0.0
 11
73.29016399756065
 21
18.47315161408872
 31
0.0
 70
    32
 71
     5
 42
18.00000000000006
  3
Standard$0
100
AcDbAlignedDimension
 13
82.29016399756068
 23
-6.000000000000028
 33
0.0
 14
64.29016399756063
 24
-6.000000000000028
 34
0.0
 50
180.0
100
AcDbRotatedDimension
1001
ACAD
1000
DSTYLE
1002
{
1070
    41
1040
3.0
1070
    42
1040
1.0
1070
    43
1040
5.0
1070
    44
1040
2.0
1070
    46
1040
3.0
1070
    73
1070
     0
1070
    74
1070
     0
1070
    77
1070
     1
1070
    78
1070
     8
1070
   140
1040
5.0
1070
   141
1040
2.0
1070
   145
1040
1.0
1070
   171
1070
     4
1070
   172
1070
     1
1002
}
  0
DIMENSION
  5
578
330
22
100
AcDbEntity
  8
AM_5
100
AcDbDimension
  2
*D5
 10
90.28965701841707
 20
2.999999970197673
 30
0.0
 11
90.28965701841707
 21
-22.03141019899925
 31
0.0
 70
   160
 71
     5
 42
18.00000000000001
  3
Standard$0
100
AcDbAlignedDimension
 13
73.2901611328125
 23
-15.00000002980234
 33
0.0
 14
73.2901611328125
 24
2.999999970197678
 34
0.0
 50
270.0
100
AcDbRotatedDimension
1001
ACAD
1000
DSTYLE
1002
{
1070
    41
1040
3.0
1070
    42
1040
1.0
1070
    43
1040
5.0
1070
    44
1040
2.0
1070
    46
1040
3.0
1070
    73
1070
     0
1070
    74
1070
     0
1070
    77
1070
     1
1070
    78
1070
     8
1070
   140
1040
5.0
1070
   141
1040
2.0
1070
   145
1040
1.0
1070
   171
1070
     4
1070
   172
1070
     1
1002
}
  0
DIMENSION
  5
5A5
330
22
100
AcDbEntity
  8
AM_5
100
AcDbDimension
  2
*D6
 10
0.8083259380339314
 20
-9.447939937988821
 30
0.0
 11
-9.43499348602014
 21
-19.91526136182682
 31
0.0
 70
    34
 71
     5
 42
0.0872664625997039
  3
Standard$2
100
AcDb2LineAngularDimension
 13
0.0
 23
0.0
 33
0.0
 14
0.0
 24
-0.2000000000000028
 34
0.0
 15
0.0007610603817056
 25
-0.2174311485495224
 35
0.0
 16
1.396641887629558
 26
-24.1881473271297
 36
0.0
1001
ACAD
1000
DSTYLE
1002
{
1070
    41
1040
3.0
1070
    42
1040
1.0
1070
    43
1040
5.0
1070
    44
1040
2.0
1070
    46
1040
3.0
1070
    73
1070
     0
1070
    74
1070
     0
1070
    77
1070
     1
1070
    78
1070
     8
1070
   140
1040
5.0
1070
   141
1040
2.0
1070
   145
1040
1.0
1070
   171
1070
     4
1070
   172
1070
     1
1002
}
  0
DIMENSION
  5
5E6
330
22
100
AcDbEntity
  8
AM_5
100
AcDbDimension
  2
*D7
 10
-23.93545871501397
 20
0.0000000000000068
 30
0.0
 11
-26.52545871501397
 21
-3.000000000000008
 31
0.0
 70
    32
 71
     5
 42
6.000000000000023
  3
Standard$0
100
AcDbAlignedDimension
 13
24.70451309318128
 23
-6.000000000000028
 33
0.0
 14
0.0
 24
0.0
 34
0.0
 50
270.0
100
AcDbRotatedDimension
1001
ACAD
1000
DSTYLE
1002
{
1070
    41
1040
3.0
1070
    42
1040
1.0
1070
    43
1040
5.0
1070
    44
1040
2.0
1070
    46
1040
3.0
1070
    73
1070
     0
1070
    74
1070
     0
1070
    77
1070
     1
1070
    78
1070
     8
1070
   140
1040
5.0
1070
   141
1040
2.0
1070
   145
1040
1.0
1070
   171
1070
     4
1070
   172
1070
     1
1002
}
  0
DIMENSION
  5
618
330
22
100
AcDbEntity
  8
AM_5
100
AcDbDimension
  2
*D8
 10
0.2174311485495082
 20
-0.0007610603816062
 30
0.0
 11
-16.66813761291018
 21
16.66813761291061
 31
0.0
 70
    34
 71
     5
 42
1.396263401595468
  3
Standard$2
100
AcDb2LineAngularDimension
 13
0.0007610603817056
 23
-0.2174311485495224
 33
0.0
 14
0.8083259380339314
 24
-9.447939937988821
 34
0.0
 15
9.447939937988849
 25
-0.8083259380340166
 35
0.0
 16
-11.02037405261693
 26
17.85431491844565
 36
0.0
1001
ACAD
1000
DSTYLE
1002
{
1070
    41
1040
3.0
1070
    42
1040
1.0
1070
    43
1040
5.0
1070
    44
1040
2.0
1070
    46
1040
3.0
1070
    73
1070
     0
1070
    74
1070
     0
1070
    77
1070
     1
1070
    78
1070
     8
1070
   140
1040
5.0
1070
   141
1040
2.0
1070
   145
1040
1.0
1070
   171
1070
     4
1070
   172
1070
     1
1002
}
  0
DIMENSION
  5
691
330
22
100
AcDbEntity
  8
AM_5
100
AcDbDimension
  2
*D10
 10
-15.07316258742799
 20
69.99999999999997
 30
0.0
 11
-17.663162587428
 21
77.33999999999998
 31
0.0
 70
    32
 71
     5
 42
-1.0
  3
Standard$0
100
AcDbAlignedDimension
 13
0.0000000000321734
 23
69.99999999999997
 33
0.0
 14
1.943849890440333
 24
69.99999999999997
 34
0.0
 50
270.0
100
AcDbRotatedDimension
1001
ACAD
1000
DSTYLE
1002
{
1070
    41
1040
3.0
1070
    42
1040
1.0
1070
    43
1040
5.0
1070
    44
1040
2.0
1070
    46
1040
3.0
1070
    73
1070
     0
1070
    74
1070
     0
1070
    77
1070
     1
1070
    78
1070
     8
1070
   140
1040
5.0
1070
   141
1040
2.0
1070
   145
1040
1.0
1070
   171
1070
     4
1070
   172
1070
     1
1002
}
  0
DIMENSION
  5
6BB
330
22
100
AcDbEntity
  8
AM_5
100
AcDbDimension
  2
*D11
 10
-0.0000000000000016
 20
43.46131274931197
 30
0.0
 11
60.00000143239021
 21
46.05131274931198
 31
0.0
 70
    32
 71
     5
 42
120.0000028647804
  3
Standard$0
100
AcDbAlignedDimension
 13
120.0000028647804
 23
63.27620060483588
 33
0.0
 14
0.0
 24
69.99999999999997
 34
0.0
 50
180.0
100
AcDbRotatedDimension
1001
ACAD
1000
DSTYLE
1002
{
1070
    41
1040
3.0
1070
    42
1040
1.0
1070
    43
1040
5.0
1070
    44
1040
2.0
1070
    46
1040
3.0
1070
    73
1070
     0
1070
    74
1070
     0
1070
    77
1070
     1
1070
    78
1070
     8
1070
   140
1040
5.0
1070
   141
1040
2.0
1070
   145
1040
1.0
1070
   171
1070
     4
1070
   172
1070
     1
1002
}
  0
DIMENSION
  5
6ED
330
22
100
AcDbEntity
  8
AM_5
100
AcDbDimension
  2
*D12
 10
78.89699632510587
 20
1.699938687537873
 30
0.0
 11
55.38251131961695
 21
-26.19287750098364
 31
0.0
 70
    35
 71
     5
 42
19.05000000000015
  3
Standard$3
100
AcDbDiametricDimension
 15
67.68333167001538
 25
-13.69993874714257
 35
0.0
 40
0.0
1001
ACAD
1000
DSTYLE
1002
{
1070
    41
1040
3.0
1070
    42
1040
1.0
1070
    43
1040
5.0
1070
    44
1040
2.0
1070
    46
1040
3.0
1070
    73
1070
     0
1070
    74
1070
     0
1070
    77
1070
     1
1070
    78
1070
     8
1070
   140
1040
5.0
1070
   141
1040
2.0
1070
   145
1040
1.0
1070
   171
1070
     4
1070
   172
1070
     1
1070
   271
1070
     3
1002
}
  0
TEXT
  5
729
330
22
100
AcDbEntity
  8
0
100
AcDbText
 10
13.65660150417301
 20
-66.92835141029042
 30
0.0
 40
5.0
  1
%%uRS19X-SCLL09
100
AcDbText
  0
ACAD_PROXY_ENTITY
  5
8EF
330
22
100
AcDbEntity
  8
AM_5
100
AcDbProxyEntity
 90
      498
 91
      570
 95
       25
 70
     0
 92
      668
310
9C020000270000000C00000016000000000000C00C00000013000000010000000C00000016000000000000C00C00000017000000FFFFFFFF3C0000000600000002000000402DEEA5505546C0B8C599CCEDDB40400000000000000000736021D983E842C0B9C599CCEDDB404000000000000000000C00000016000000000000
310
C00C00000010000000FFFFFFFF0C00000012000000FFFFFFFF0C00000017000000000000000C00000014000000010000000C00000013000000020000000C00000016000000000000C00C00000017000000FFFFFFFF3C0000000600000002000000736021D983E842C0B9C599CCEDDB40400000000000000000402DEEA55055
310
41C0BAC599CCEDDB404000000000000000000C00000016000000000000C00C00000010000000FFFFFFFF0C00000012000000FFFFFFFF0C00000017000000000000000C00000014000000010000000C00000013000000030000000C00000016000000000000C00C00000017000000FFFFFFFF3C000000060000000200000073
310
6021D983E842C01084DABBD8A640400000000000000000402DEEA5505541C0BAC599CCEDDB404000000000000000000C00000016000000000000C00C00000010000000FFFFFFFF0C00000012000000FFFFFFFF0C00000017000000000000000C00000014000000010000000C00000013000000040000000C00000016000000
310
000000C00C00000017000000FFFFFFFF3C0000000600000002000000402DEEA5505541C0BAC599CCEDDB40400000000000000000736021D983E842C0630759DD0211414000000000000000000C00000016000000000000C00C00000010000000FFFFFFFF0C00000012000000FFFFFFFF0C00000017000000000000000C0000
310
0014000000010000000C00000013000000050000000C00000016000000000000C0
 93
     1473
310
5DC405B5BA5A4CC40C02EB166733B76D010219FD35022281B66F19197D35022281B64F2A54051F8000000C800AA100B7BA9541551B00B8C599CCEDDB40409018FFFFFFFF100B7BA9541550700BAC599CCEDDB4040A8FFFFFFFF1FFFFFFFF0805BDD4AA0AA8D805C62CCE676EDA02045409C870B093540CB78B45C01217CCD9
310
A1E950502A0000000000003C2FC65F4D4088A86D9BC68333333333333094041D050000000000003C2FC000000000000F0BF40401015213500500
340
668
340
674
330
0
330
0
340
0
340
0
340
657
330
0
330
0
 94
        0
  0
ACAD_PROXY_ENTITY
  5
8F0
330
22
100
AcDbEntity
  8
AM_5
100
AcDbProxyEntity
 90
      498
 91
      570
 95
       25
 70
     0
 92
      668
310
9C020000270000000C00000016000000000000C00C00000013000000010000000C00000016000000000000C00C00000017000000FFFFFFFF3C0000000600000002000000402DEEA5505546C0B8C599CCEDDB40400000000000000000352DEEA5505546C0DAF199FF41DE3A4000000000000000000C00000016000000000000
310
C00C00000010000000FFFFFFFF0C00000012000000FFFFFFFF0C00000017000000000000000C00000014000000010000000C00000013000000020000000C00000016000000000000C00C00000017000000FFFFFFFF3C0000000600000002000000352DEEA5505546C0DAF199FF41DE3A400000000000000000302DEEA55055
310
46C0748B3399DBB7374000000000000000000C00000016000000000000C00C00000010000000FFFFFFFF0C00000012000000FFFFFFFF0C00000017000000000000000C00000014000000010000000C00000013000000030000000C00000016000000000000C00C00000017000000FFFFFFFF3C0000000600000002000000DE
310
6EADB6658A46C0D9F199FF41DE3A400000000000000000302DEEA5505546C0748B3399DBB7374000000000000000000C00000016000000000000C00C00000010000000FFFFFFFF0C00000012000000FFFFFFFF0C00000017000000000000000C00000014000000010000000C00000013000000040000000C00000016000000
310
000000C00C00000017000000FFFFFFFF3C0000000600000002000000302DEEA5505546C0748B3399DBB7374000000000000000008CEB2E953B2046C0DCF199FF41DE3A4000000000000000000C00000016000000000000C00C00000010000000FFFFFFFF0C00000012000000FFFFFFFF0C00000017000000000000000C0000
310
0014000000010000000C00000013000000050000000C00000016000000000000C0
 93
     1537
310
5DC302DEEA5505546C01F39C36620E98D902465F4D4088A06D13C866F4D4088A06D13C0000000000003C2FEA54051F8000000C800AA100B7BA9541551B00B8C599CCEDDB40409018FFFFFFFF0C0B7BA9541551B00748B3399DBB73740A8FFFFFFFF1FFFFFFFF0805BDD4AA0AA8D805C62CCE676EDA02045409C870B093540C
310
B78B45C00A0B000CD50490102A0000000000003C2FD197D35022281B44F28333333333333094041D050000000000003C2FC000000000000F0BF40401015213500500
340
668
340
674
330
0
330
0
340
0
340
0
340
657
330
0
330
0
 94
        0
  0
TEXT
  5
8F1
330
22
100
AcDbEntity
  8
AM_6
100
AcDbText
 10
-45.52712120541861
 20
16.09071256018618
 30
0.0
 40
4.0
  1
0%%D
100
AcDbText
  0
TEXT
  5
8F2
330
22
100
AcDbEntity
  8
AM_6
100
AcDbText
 10
-32.9422185942251
 20
31.82577530957326
 30
0.0
 40
4.0
  1
0%%D
100
AcDbText
  0
ENDSEC
  0
SECTION
  2
OBJECTS
  0
DICTIONARY
  5
C
330
0
100
AcDbDictionary
281
     1
  3
ACAD_COLOR
350
1B
  3
ACAD_GROUP
350
D
  3
ACAD_LAYOUT
350
19
  3
ACAD_MATERIAL
350
1A
  3
ACAD_MLINESTYLE
350
16
  3
ACAD_PLOTSETTINGS
350
18
  3
ACAD_PLOTSTYLENAME
350
E
  3
ACAD_TABLESTYLE
350
1C
  3
AcAmCatalogState
350
3D1
  3
ACDBHEADERROUNDTRIPXREC
350
916
  3
AcDbVariableDictionary
350
422
  3
ACDMSYSVARMGR
350
38B
  3
ACGREF_MASTER
350
385
  3
ACGREFACAD_MASTER
350
3AD
  3
AcmDictionary
350
3CF
  3
ACME_BOM_MANAGER_NAME
350
37F
  3
ACME_COMMAND_HISTORY
350
37C
  3
ACME_SCOPE_NAME
350
37B
  3
ACMESTATEMGR
350
384
  3
AcmeSysVarManager
350
37D
  3
AcmSystemVariableManager
350
3DA
  3
AD_APPL
350
3BC
  3
ADSYSVARMGR
350
3BB
  3
AmdtNamedDwgMgr
350
3A8
  3
AMG
350
3B1
  3
AMGSNAPSETTINGS
350
411
  3
AMI_MASTER
350
3B0
  3
AUTOCAD_ASSEMBLIES_PROJECT
350
3C4
  3
Designer_Assemblies_SysVars
350
3BF
  3
GREFAM_MODULE
350
3B5
  0
DICTIONARY
  5
662
330
2
100
AcDbDictionary
280
     1
281
     1
  3
ACAD_LAYERSTATES
360
663
  0
DICTIONARY
  5
1B
102
{ACAD_REACTORS
330
C
102
}
330
C
100
AcDbDictionary
281
     1
  0
DICTIONARY
  5
D
102
{ACAD_REACTORS
330
C
102
}
330
C
100
AcDbDictionary
281
     1
  0
DICTIONARY
  5
19
102
{ACAD_REACTORS
330
C
102
}
330
C
100
AcDbDictionary
281
     1
  3
Model
350
25
  3
レイアウト1
350
21
  0
DICTIONARY
  5
1A
102
{ACAD_REACTORS
330
C
102
}
330
C
100
AcDbDictionary
281
     1
  0
DICTIONARY
  5
16
102
{ACAD_REACTORS
330
C
102
}
330
C
100
AcDbDictionary
281
     1
  3
Standard
350
17
  0
DICTIONARY
  5
18
102
{ACAD_REACTORS
330
C
102
}
330
C
100
AcDbDictionary
281
     1
  0
ACDBDICTIONARYWDFLT
  5
E
102
{ACAD_REACTORS
330
C
102
}
330
C
100
AcDbDictionary
281
     1
  3
Normal
350
F
100
AcDbDictionaryWithDefault
340
F
  0
DICTIONARY
  5
1C
102
{ACAD_REACTORS
330
C
102
}
330
C
100
AcDbDictionary
281
     1
  3
Standard
350
1D
  0
ACAD_PROXY_OBJECT
  5
3D1
102
{ACAD_REACTORS
330
C
102
}
330
C
100
AcDbProxyObject
 90
      499
 91
      545
 95
       25
 70
     0
 93
      504
310
3FFFFFFFE00A0281402992E2E21BA3239AE483ECB654563CBCEAE4AABC7C0483ECB652E487CC6F6CBB846A445F7AE41BDC1B341A12E272A25C83ECB65400AA
  0
DICTIONARY
  5
916
102
{ACAD_REACTORS
330
C
102
}
330
C
100
AcDbDictionary
281
     1
  3
COLORDICT
350
917
  3
MATERIALDICT
350
918
  0
DICTIONARY
  5
422
102
{ACAD_REACTORS
330
C
102
}
330
C
100
AcDbDictionary
281
     1
  3
CTABLESTYLE
350
423
  3
DIMASSOC
350
914
  3
HIDETEXT
350
915
  0
ACAD_PROXY_OBJECT
  5
38B
102
{ACAD_REACTORS
330
C
102
}
330
C
100
AcDbProxyObject
 90
      499
 91
      505
 95
       25
 70
     0
 93
      240
310
4C51A47A0000000000000000000000000000000000000000000000000000
330
38C
330
38D
330
38E
330
38F
330
390
330
391
330
392
330
393
330
394
330
395
330
396
330
397
330
398
330
399
330
39A
330
39B
330
39C
330
39D
330
39E
330
39F
330
3A0
330
3A1
330
3A2
330
3A3
330
3A4
330
3A5
 94
        0
  0
ACAD_PROXY_OBJECT
  5
385
102
{ACAD_REACTORS
330
C
102
}
330
C
100
AcDbProxyObject
 90
      499
 91
      513
 95
       25
 70
     0
 93
       34
310
0400004280
  0
ACAD_PROXY_OBJECT
  5
3AD
102
{ACAD_REACTORS
330
C
102
}
330
C
100
AcDbProxyObject
 90
      499
 91
      522
 95
       25
 70
     0
 93
      114
310
04000041C080000000000000000000
  0
DICTIONARY
  5
3CF
102
{ACAD_REACTORS
330
C
102
}
330
C
100
AcDbDictionary
281
     1
  3
AcmBOMDATA
350
3D0
  3
AcmStdDictionary
350
3DC
  3
AMDTSECTSYM_ARROWCOLOR
350
3FC
  0
ACAD_PROXY_OBJECT
  5
37F
102
{ACAD_REACTORS
330
C
102
}
330
C
100
AcDbProxyObject
 90
      499
 91
      507
 95
       25
 70
     0
 93
       50
310
00010040400000
330
0
330
0
330
380
 94
        0
  0
ACAD_PROXY_OBJECT
  5
37C
102
{ACAD_REACTORS
330
C
102
}
330
C
100
AcDbProxyObject
 90
      499
 91
      504
 95
       25
 70
     0
 93
     5474
310
4780504554E444F805055055524745805055153415645404052D4D5347202D205050413A2020206465736B746F702E6172782046696C6556657273696F6E3A20392E322E302E34014390535115149154D15511109353D1102014213880B4815539113C05084E202D20554E444F014115539113E014115539113E01411353D5
310
9150101461354D1C80B4810DBDB5B585B990810D05390D1531311510B80506524F544154458050844524F5047454F4D805045A4F4F4D404052D4D5347202D205050413A2020206465736B746F702E6172782046696C6556657273696F6E3A20392E322E302E3401411353D591601411693D3D3601415454D05591501014B53
310
54D1C80B481414104E88080819195CDADD1BDC0B985C9E08119A5B1955995C9CDA5BDB8E880E4B8C8B8C0B8D0050E414D4454524553455444424D4F4440805084E202D20554E444F014213880B4815539113C0504554E444F80504554E444F805044D4F5645805045A4F4F4D805044C494E4540405184D5347202D20436F6D
310
6D616E642043414E43454C4C45442E01415454D05591501014B5354D1C80B481414104E88080819195CDADD1BDC0B985C9E08119A5B1955995C9CDA5BDB8E880E4B8C8B8C0B8D0050E414D4454524553455444424D4F4440805084E202D20554E444F014213880B4815539113C0504554E444F80504554E444F80505455241
310
5345805095041535445434C4950805055153415645404052D4D5347202D205050413A2020206465736B746F702E6172782046696C6556657273696F6E3A20392E322E302E34014390535115149154D15511109353D1102014213880B4815539113C05084E202D20554E444F014115539113E014115539113E014154155491D
310
1501014B5354D1C80B481414104E88080819195CDADD1BDC0B985C9E08119A5B1955995C9CDA5BDB8E880E4B8C8B8C0B8D00
  0
ACAD_PROXY_OBJECT
  5
37B
102
{ACAD_REACTORS
330
C
102
}
330
C
100
AcDbProxyObject
 90
      499
 91
      503
 95
       25
 70
     0
 93
      546
310
090000464080000000000000000012F4CE0000000000000000000000000000000000000000000000000000000000000000000000000000000000000000000000AAA406AA80
360
37E
360
380
360
386
360
387
360
388
360
389
360
38C
360
38D
360
38E
360
38F
360
390
360
391
360
392
360
393
360
394
360
395
360
396
360
397
360
398
360
399
360
39A
360
39B
360
39C
360
39D
360
39E
360
39F
360
3A0
360
3A1
360
3A2
360
3A3
360
3A4
360
3A5
360
3B7
360
3B8
360
3B9
360
3BA
360
3C0
360
3C1
360
3C2
360
3C3
360
3C8
360
3C9
360
3CA
360
3CB
360
3CC
360
3CD
360
3DB
 94
        0
  0
ACAD_PROXY_OBJECT
  5
384
102
{ACAD_REACTORS
330
C
102
}
330
C
100
AcDbProxyObject
 90
      499
 91
      512
 95
       25
 70
     0
 93
       50
310
09000042641280
  0
ACAD_PROXY_OBJECT
  5
37D
102
{ACAD_REACTORS
330
C
102
}
330
C
100
AcDbProxyObject
 90
      499
 91
      505
 95
       25
 70
     0
 93
       32
310
90140A00
330
37E
 94
        0
  0
ACAD_PROXY_OBJECT
  5
3DA
102
{ACAD_REACTORS
330
C
102
}
330
C
100
AcDbProxyObject
 90
      499
 91
      505
 95
       25
 70
     0
 93
       32
310
90140A00
330
3DB
 94
        0
  0
ACAD_PROXY_OBJECT
  5
3BC
102
{ACAD_REACTORS
330
C
102
}
330
C
100
AcDbProxyObject
 90
      499
 91
      533
 95
       25
 70
     0
 93
       42
310
000900004040
330
3B7
 94
        0
  0
ACAD_PROXY_OBJECT
  5
3BB
102
{ACAD_REACTORS
330
C
102
}
330
C
100
AcDbProxyObject
 90
      499
 91
      505
 95
       25
 70
     0
 93
        8
310
AA
  0
ACAD_PROXY_OBJECT
  5
3A8
102
{ACAD_REACTORS
330
C
102
}
330
C
100
AcDbProxyObject
 90
      499
 91
      519
 95
       25
 70
     0
 93
       42
310
000100005E80
330
386
 94
        0
  0
DICTIONARY
  5
3B1
102
{ACAD_REACTORS
330
C
102
}
330
C
100
AcDbDictionary
281
     1
  3
AcMgSettings
350
3B2
  3
AMGLAYCFG
350
3DE
  0
DICTIONARY
  5
411
102
{ACAD_REACTORS
330
C
102
}
330
C
100
AcDbDictionary
281
     1
  3
DIMENSION
350
416
  3
FEA
350
415
  3
HATCH (1)
350
412
  3
HATCH (2)
350
413
  3
SIMPLE WELD
350
417
  3
SYMBOLS
350
414
  0
ACAD_PROXY_OBJECT
  5
3B0
102
{ACAD_REACTORS
330
C
102
}
330
C
100
AcDbProxyObject
 90
      499
 91
      525
 95
       25
 70
     0
 93
       34
310
0500004280
  0
ACAD_PROXY_OBJECT
  5
3C4
102
{ACAD_REACTORS
330
C
102
}
330
C
100
AcDbProxyObject
 90
      499
 91
      537
 95
       25
 70
     0
 93
       98
310
0900004E400000000000000000
330
3CB
330
0
330
3CC
330
0
330
0
330
0
330
0
330
0
 94
        0
  0
ACAD_PROXY_OBJECT
  5
3BF
102
{ACAD_REACTORS
330
C
102
}
330
C
100
AcDbProxyObject
 90
      499
 91
      505
 95
       25
 70
     0
 93
       56
310
90441600000000
330
3C0
330
3C1
330
3C2
330
3C3
 94
        0
  0
ACAD_PROXY_OBJECT
  5
3B5
102
{ACAD_REACTORS
330
C
102
}
330
C
100
AcDbProxyObject
 90
      499
 91
      527
 95
       25
 70
     0
 93
        8
310
05
  0
DICTIONARY
  5
663
102
{ACAD_REACTORS
330
662
102
}
330
662
100
AcDbDictionary
281
     1
  0
LAYOUT
  5
25
102
{ACAD_REACTORS
330
19
102
}
330
19
100
AcDbPlotSettings
  1

  2
Canon LBP-1420
  4
A4
  6

 40
5.873749732971191
 41
5.873747825622559
 42
5.873748779296875
 43
5.873748779296875
 44
209.9733276367188
 45
296.9259948730469
 46
0.0
 47
0.0
 48
0.0
 49
0.0
140
400.0
141
273.0
142
1.0
143
1.402630290955233
 70
 11952
 72
     1
 73
     1
 74
     4
  7
sei_cad.ctb
 75
     0
147
0.7129462456703186
148
0.0
149
0.0
100
AcDbLayout
  1
Model
 70
     1
 71
     0
 10
0.0
 20
0.0
 11
12.0
 21
9.0
 12
0.0
 22
0.0
 32
0.0
 14
0.0
 24
0.0
 34
0.0
 15
0.0
 25
0.0
 35
0.0
146
0.0
 13
0.0
 23
0.0
 33
0.0
 16
1.0
 26
0.0
 36
0.0
 17
0.0
 27
1.0
 37
0.0
 76
     0
330
22
1001
ACAD_PSEXT
1000
Canon LBP-1420
1000
Canon LASER SHOT LBP-1420
1000
10.254.89.243:lp
1000

1070
     0
  0
LAYOUT
  5
21
102
{ACAD_REACTORS
330
19
102
}
330
19
100
AcDbPlotSettings
  1

  2
Canon LBP-1420
  4

  6

 40
0.0
 41
0.0
 42
0.0
 43
0.0
 44
0.0
 45
0.0
 46
0.0
 47
0.0
 48
0.0
 49
0.0
140
0.0
141
0.0
142
1.0
143
1.0
 70
   688
 72
     0
 73
     0
 74
     5
  7
sei_cad.ctb
 75
    16
147
1.0
148
0.0
149
0.0
100
AcDbLayout
  1
レイアウト1
 70
     1
 71
     1
 10
0.0
 20
0.0
 11
12.0
 21
9.0
 12
0.0
 22
0.0
 32
0.0
 14
1.000000000000000E+20
 24
1.000000000000000E+20
 34
1.000000000000000E+20
 15
-1.000000000000000E+20
 25
-1.000000000000000E+20
 35
-1.000000000000000E+20
146
0.0
 13
0.0
 23
0.0
 33
0.0
 16
1.0
 26
0.0
 36
0.0
 17
0.0
 27
1.0
 37
0.0
 76
     0
330
1E
  0
MLINESTYLE
  5
17
102
{ACAD_REACTORS
330
16
102
}
330
16
100
AcDbMlineStyle
  2
STANDARD
 70
     0
  3

 62
   256
 51
90.0
 52
90.0
 71
     2
 49
0.5
 62
   256
  6
BYLAYER
 49
-0.5
 62
   256
  6
BYLAYER
  0
ACDBPLACEHOLDER
  5
F
102
{ACAD_REACTORS
330
E
102
}
330
E
  0
TABLESTYLE
  5
1D
102
{ACAD_REACTORS
330
1C
102
}
330
1C
100
AcDbTableStyle
  3
Standard
 70
     0
 71
     0
 40
0.06
 41
0.06
280
     0
281
     0
  7
STANDARD
140
0.18
170
     2
 62
     0
 63
     7
283
     0
274
    -2
284
     1
 64
     0
275
    -2
285
     1
 65
     0
276
    -2
286
     1
 66
     0
277
    -2
287
     1
 67
     0
278
    -2
288
     1
 68
     0
279
    -2
289
     1
 69
     0
  7
STANDARD
140
0.25
170
     5
 62
     0
 63
     7
283
     0
274
    -2
284
     1
 64
     0
275
    -2
285
     1
 65
     0
276
    -2
286
     1
 66
     0
277
    -2
287
     1
 67
     0
278
    -2
288
     1
 68
     0
279
    -2
289
     1
 69
     0
  7
STANDARD
140
0.18
170
     5
 62
     0
 63
     7
283
     0
274
    -2
284
     1
 64
     0
275
    -2
285
     1
 65
     0
276
    -2
286
     1
 66
     0
277
    -2
287
     1
 67
     0
278
    -2
288
     1
 68
     0
279
    -2
289
     1
 69
     0
  0
XRECORD
  5
917
102
{ACAD_REACTORS
330
916
102
}
330
916
100
AcDbXrecord
280
     1
340
1B
  0
XRECORD
  5
918
102
{ACAD_REACTORS
330
916
102
}
330
916
100
AcDbXrecord
280
     1
340
1A
  0
DICTIONARYVAR
  5
423
102
{ACAD_REACTORS
330
422
102
}
330
422
100
DictionaryVariables
280
     0
  1
STANDARD
  0
DICTIONARYVAR
  5
914
102
{ACAD_REACTORS
330
422
102
}
330
422
100
DictionaryVariables
280
     0
  1
1
  0
DICTIONARYVAR
  5
915
102
{ACAD_REACTORS
330
422
102
}
330
422
100
DictionaryVariables
280
     0
  1
0
  0
ACAD_PROXY_OBJECT
  5
3D0
102
{ACAD_REACTORS
330
3CF
102
}
330
3CF
100
AcDbProxyObject
 90
      499
 91
      544
 95
       25
 70
     0
 93
       76
310
90100057356C1D774120
  0
DICTIONARY
  5
3DC
102
{ACAD_REACTORS
330
3CF
102
}
330
3CF
100
AcDbDictionary
281
     1
  3
ANSI
350
3DD
  3
JIS
350
668
  0
XRECORD
  5
3FC
102
{ACAD_REACTORS
330
3CF
102
}
330
3CF
100
AcDbXrecord
280
     1
 90
-1023410169
  0
ACAD_PROXY_OBJECT
  5
37E
330
37B
100
AcDbProxyObject
 90
      499
 91
      506
 95
       25
 70
     0
 93
      156
310
000101439050D35154D6535093D314D256915080
330
37B
 94
        0
  0
ACAD_PROXY_OBJECT
  5
380
330
37B
100
AcDbProxyObject
 90
      499
 91
      508
 95
       25
 70
     0
 93
      120
310
000101422565255A6557080C402B00
330
37B
330
0
330
0
 94
        0
  0
ACAD_PROXY_OBJECT
  5
386
330
37B
100
AcDbProxyObject
 90
      499
 91
      514
 95
       25
 70
     0
 93
      366
310
0001014124FEA55D00507392E322E302E32014124FEA55D00507392E322E302E3240501000041905394D24CCC658
330
37B
330
387
330
38B
 94
        0
  0
ACAD_PROXY_OBJECT
  5
387
330
37B
100
AcDbProxyObject
 90
      499
 91
      515
 95
       25
 70
     0
 93
       48
310
000190140A00
330
37B
330
388
 94
        0
  0
ACAD_PROXY_OBJECT
  5
388
330
37B
100
AcDbProxyObject
 90
      499
 91
      516
 95
       25
 70
     0
 93
       48
310
0001AA000000
330
37B
330
21
330
389
330
0
 94
        0
  0
ACAD_PROXY_OBJECT
  5
389
330
37B
100
AcDbProxyObject
 90
      499
 91
      517
 95
       25
 70
     0
 93
       28
310
0001AAA0
330
37B
 94
        0
  0
ACAD_PROXY_OBJECT
  5
38C
330
37B
100
AcDbProxyObject
 90
      499
 91
      506
 95
       25
 70
     0
 93
      108
310
000101421053521310D05310D010
330
37B
 94
        0
  0
ACAD_PROXY_OBJECT
  5
38D
330
37B
100
AcDbProxyObject
 90
      499
 91
      506
 95
       25
 70
     0
 93
      124
310
00010142905354915554D15112535010
330
37B
 94
        0
  0
ACAD_PROXY_OBJECT
  5
38E
330
37B
100
AcDbProxyObject
 90
      499
 91
      506
 95
       25
 70
     0
 93
      132
310
00010143105354D150D51253D391125360
330
37B
 94
        0
  0
ACAD_PROXY_OBJECT
  5
38F
330
37B
100
AcDbProxyObject
 90
      499
 91
      506
 95
       25
 70
     0
 93
      124
310
00010142905355941093D49111549010
330
37B
 94
        0
  0
ACAD_PROXY_OBJECT
  5
390
330
37B
100
AcDbProxyObject
 90
      499
 91
      506
 95
       25
 70
     0
 93
      116
310
0001014290535115D1D0D3D313D4A0
330
37B
 94
        0
  0
ACAD_PROXY_OBJECT
  5
391
330
37B
100
AcDbProxyObject
 90
      499
 91
      506
 95
       25
 70
     0
 93
      148
310
00010143505355925155D49151949154D21010
330
37B
 94
        0
  0
ACAD_PROXY_OBJECT
  5
392
330
37B
100
AcDbProxyObject
 90
      499
 91
      506
 95
       25
 70
     0
 93
      172
310
00010144105350539393D51154149154D15495915010
330
37B
 94
        0
  0
ACAD_PROXY_OBJECT
  5
393
330
37B
100
AcDbProxyObject
 90
      499
 91
      506
 95
       25
 70
     0
 93
      172
310
00010144105350555513D11253505494905391D15010
330
37B
 94
        0
  0
ACAD_PROXY_OBJECT
  5
394
330
37B
100
AcDbProxyObject
 90
      499
 91
      506
 95
       25
 70
     0
 93
      124
310
00010142D05351561514915191125360
330
37B
 94
        0
  0
ACAD_PROXY_OBJECT
  5
395
330
37B
100
AcDbProxyObject
 90
      499
 91
      506
 95
       25
 70
     0
 93
      132
310
00010142D05355105410539393D5115010
330
37B
 94
        0
  0
ACAD_PROXY_OBJECT
  5
396
330
37B
100
AcDbProxyObject
 90
      499
 91
      506
 95
       25
 70
     0
 93
      108
310
00010142105350555513D0D31010
330
37B
 94
        0
  0
ACAD_PROXY_OBJECT
  5
397
330
37B
100
AcDbProxyObject
 90
      499
 91
      506
 95
       25
 70
     0
 93
      108
310
00010142105350D3119150551050
330
37B
 94
        0
  0
ACAD_PROXY_OBJECT
  5
398
330
37B
100
AcDbProxyObject
 90
      499
 91
      506
 95
       25
 70
     0
 93
      108
310
00010142105350D315925155D3F0
330
37B
 94
        0
  0
ACAD_PROXY_OBJECT
  5
399
330
37B
100
AcDbProxyObject
 90
      499
 91
      506
 95
       25
 70
     0
 93
      148
310
0001014350535212511156915493D112535010
330
37B
 94
        0
  0
ACAD_PROXY_OBJECT
  5
39A
330
37B
100
AcDbProxyObject
 90
      499
 91
      506
 95
       25
 70
     0
 93
      124
310
00010142905352105510D21254D3D010
330
37B
 94
        0
  0
ACAD_PROXY_OBJECT
  5
39B
330
37B
100
AcDbProxyObject
 90
      499
 91
      506
 95
       25
 70
     0
 93
      148
310
00010143905354D25391D31152105513105660
330
37B
 94
        0
  0
ACAD_PROXY_OBJECT
  5
39C
330
37B
100
AcDbProxyObject
 90
      499
 91
      506
 95
       25
 70
     0
 93
      124
310
00010142D0535115D1D193111254D420
330
37B
 94
        0
  0
ACAD_PROXY_OBJECT
  5
39D
330
37B
100
AcDbProxyObject
 90
      499
 91
      506
 95
       25
 70
     0
 93
      100
310
00010142105350555513D213A0
330
37B
 94
        0
  0
ACAD_PROXY_OBJECT
  5
39E
330
37B
100
AcDbProxyObject
 90
      499
 91
      506
 95
       25
 70
     0
 93
      116
310
000101425053521390D3D553951010
330
37B
 94
        0
  0
ACAD_PROXY_OBJECT
  5
39F
330
37B
100
AcDbProxyObject
 90
      499
 91
      506
 95
       25
 70
     0
 93
      108
310
0001014210535213941493D29010
330
37B
 94
        0
  0
ACAD_PROXY_OBJECT
  5
3A0
330
37B
100
AcDbProxyObject
 90
      499
 91
      506
 95
       25
 70
     0
 93
      108
310
0001014210535213951654115070
330
37B
 94
        0
  0
ACAD_PROXY_OBJECT
  5
3A1
330
37B
100
AcDbProxyObject
 90
      499
 91
      506
 95
       25
 70
     0
 93
      108
310
000101421053521395925155D0F0
330
37B
 94
        0
  0
ACAD_PROXY_OBJECT
  5
3A2
330
37B
100
AcDbProxyObject
 90
      499
 91
      506
 95
       25
 70
     0
 93
      140
310
00010143505354D150D51253D390D3D41660
330
37B
 94
        0
  0
ACAD_PROXY_OBJECT
  5
3A3
330
37B
100
AcDbProxyObject
 90
      499
 91
      506
 95
       25
 70
     0
 93
      108
310
00010142105350D3141493D29030
330
37B
 94
        0
  0
ACAD_PROXY_OBJECT
  5
3A4
330
37B
100
AcDbProxyObject
 90
      499
 91
      518
 95
       25
 70
     0
 93
      212
310
00010143905350555513D2105510D21493D500000000000002E400
330
37B
 94
        0
  0
ACAD_PROXY_OBJECT
  5
3A5
330
37B
100
AcDbProxyObject
 90
      499
 91
      506
 95
       25
 70
     0
 93
      156
310
00010143905350555513D2105510D21111551010
330
37B
 94
        0
  0
ACAD_PROXY_OBJECT
  5
3B7
330
37B
100
AcDbProxyObject
 90
      499
 91
      529
 95
       25
 70
     0
 93
      698
310
0001000000009AA6A9AA4051E546875204175672032342030303A31373A343520323030362028555443290141CE4B8C8B8C0B8C80518547565204F63742031322031313A31313A353220323031300141CE4B8C8B8C0B8C80
330
37B
330
3B8
330
3B9
330
3BB
330
0
 94
        0
  0
ACAD_PROXY_OBJECT
  5
3B8
330
37B
100
AcDbProxyObject
 90
      499
 91
      530
 95
       25
 70
     0
 93
       70
310
0001AAA80820000000
330
37B
330
3B8
330
3B8
 94
        0
  0
ACAD_PROXY_OBJECT
  5
3B9
330
37B
100
AcDbProxyObject
 90
      499
 91
      531
 95
       25
 70
     0
 93
       48
310
000100000000
330
37B
330
0
330
3BA
330
0
330
0
 94
        0
  0
ACAD_PROXY_OBJECT
  5
3BA
330
37B
100
AcDbProxyObject
 90
      499
 91
      532
 95
       25
 70
     0
 93
       40
310
000100AAAA
330
37B
330
0
 94
        0
  0
ACAD_PROXY_OBJECT
  5
3C0
330
37B
100
AcDbProxyObject
 90
      499
 91
      536
 95
       25
 70
     0
 93
      180
310
00010143105050D3D35411119390535140504434F4D500
330
37B
 94
        0
  0
ACAD_PROXY_OBJECT
  5
3C1
330
37B
100
AcDbProxyObject
 90
      499
 91
      536
 95
       25
 70
     0
 93
      212
310
0001014390505193D311115491119390535140506466F6C6465720
330
37B
 94
        0
  0
ACAD_PROXY_OBJECT
  5
3C2
330
37B
100
AcDbProxyObject
 90
      499
 91
      536
 95
       25
 70
     0
 93
      180
310
00010143105050539393D1119390535140504284156290
330
37B
 94
        0
  0
ACAD_PROXY_OBJECT
  5
3C3
330
37B
100
AcDbProxyObject
 90
      499
 91
      536
 95
       25
 70
     0
 93
      436
310
00010143905050D3D35415925155D31254D50052295BD96CA0A90B396CA0A894591A496CA0A8DB691A496CA0A89BA96CA0A95E28F95310
330
37B
 94
        0
  0
ACAD_PROXY_OBJECT
  5
3C8
330
37B
100
AcDbProxyObject
 90
      499
 91
      538
 95
       25
 70
     0
 93
       32
310
00010000
330
37B
340
3C5
330
3CA
330
3C5
 94
        0
  0
ACAD_PROXY_OBJECT
  5
3C9
330
37B
100
AcDbProxyObject
 90
      499
 91
      539
 95
       25
 70
     0
 93
       18
310
000180
330
37B
 94
        0
  0
ACAD_PROXY_OBJECT
  5
3CA
330
37B
100
AcDbProxyObject
 90
      499
 91
      540
 95
       25
 70
     0
 93
      186
310
000101431494CC4E560B54D0D3130C0E5050055401550000
330
37B
330
3C8
330
3C9
 94
        0
  0
ACAD_PROXY_OBJECT
  5
3CB
330
37B
100
AcDbProxyObject
 90
      499
 91
      541
 95
       25
 70
     0
 93
      178
310
000100AAAAAA916C45974DA73992EA23460CC0CDD80D40
330
37B
330
3CA
 94
        0
  0
ACAD_PROXY_OBJECT
  5
3CC
330
37B
100
AcDbProxyObject
 90
      499
 91
      542
 95
       25
 70
     0
 93
      108
310
000190140A000000000000AAAAA0
330
37B
330
3CD
330
3CD
330
3CD
330
3CD
330
3CD
330
0
 94
        0
  0
ACAD_PROXY_OBJECT
  5
3CD
330
37B
100
AcDbProxyObject
 90
      499
 91
      543
 95
       25
 70
     0
 93
       51
310
00010000AAAA80
330
37B
330
3CC
330
3CA
 94
        0
  0
ACAD_PROXY_OBJECT
  5
3DB
330
37B
100
AcDbProxyObject
 90
      499
 91
      536
 95
       25
 70
     0
 93
      148
310
00010142105350D55494D51100504414E53490
330
37B
 94
        0
  0
DICTIONARY
  5
3B2
102
{ACAD_REACTORS
330
3B1
102
}
330
3B1
100
AcDbDictionary
281
     1
  3
DWGSETTINGS
350
3B3
  3
Shaft
350
441
  3
TRANSSETTINGS
350
3B4
  0
ACAD_PROXY_OBJECT
  5
3DE
102
{ACAD_REACTORS
330
3B1
102
}
330
3B1
100
AcDbProxyObject
 90
      499
 91
      551
 95
       25
 70
     0
 93
    17920
310
41503491013041105357CC201C00030C011E441013141105357CC603800030C011E441013241105357CCA01400030C011E441013341105357CCE01800030C010F9013441105357CD200C00030C010F9013541105357CD600C00030C010F9013641105357CDA00800030C011E9013741105357CDE01000030C010F901384110
310
5357CE200400030C010F9013941105357CE63F400030C0241102324141505357CC4C201C00030C011E902344141505357CC4C600C00030C010F902495041505357CC4CA01C00030C011E40902304E41505357CC13A01C00030C011E902314E41505357CC53A03800030C011E902324E41505357CC93A01400030C011E90233
310
4E41505357CCD3A01800030C010F902344E41505357CD13A00C00030C010F902354E41505357CD53A00C00030C010F902364E41505357CD93A00800030C011E902374E41505357CDD3A01000030C010F902384E41505357CE13A00400030C010F902394E41505357CE53A3F400030C024110332414E41905357CC4C13A01C0
310
0030C011E90334414E41905357CC4C53A00C00030C010F90349504E41905357CC4C93A01C00030C011E409044B4C494E41505357D0D3200400030C010F42504494E464F42105357D410549151A01000030C010F42D055241484D3541905357D093D4A01C00030C011E425045649455742105357D5925155D4E00400030C010
310
F42D06424548494E4441905357D25395A3F400030C0243505545241494C41505357D514A00C00030C010F4250348494441905357D21251201C00030C010F4250356495341905357D59254E01C00030C011E4250650415244494D42505357D41054911253600C00030C010F4250652454644494D42505357D49151911253601
310
000030C010F425534110921395901398000000C0003FFFFFFFE415092139594D06424548494E448000000C0003FFFFFFFE411093D48C9055241484D358010000C30043E411093D48CD055241484D358020000C30047A411093D48D5055241484D358000000C0003FFFFFFFE4110D0530C901348000000C0003FFFFFFFE4110
310
D0530CD01348020000C30047A4110D0530D501348070000C30047A4110D0530DD013481E0000C3004F24110D15393901378000000C0003FFFFFFFE4110D15395D01378000000C0003FFFFFFFE4110D312539044B4C494E8000000C0003FFFFFFFE4110D3D38C501308000000C0003FFFFFFFD034110D3D38C901318000000C
310
0003FFFFFFFD034110D3D38CD01328000000C0003FFFFFFFD034110D3D38D101328000000C0003FFFFFFFD034111115510501348000000C0003FFFFFFFE4111125051D01358000000C0003FFFFFFFE4111125312501358000000C0003FFFFFFFE411112535410650415244494D8000000C0003FFFFFFFE4111125354906524
310
54644494D8000000C0003FFFFFFFE4111915353901388000000C0003FFFFFFFE415191535413901388030000C3003FFFFFFFE4151915354D410234418000000C0003FFFFFFFE4151915354D510234418030000C30043E415191535593901328000000C0003FFFFFFFE415191535595101328030000C30043E4112105510D01
310
388000000C0003FFFFFFFD014112125113901338000000C0003FFFFFFFD034112125115D01338000000C0003FFFFFFFD034112131253901348000000C0003FFFFFFFD01411213D0D3901378000000C0003FFFFFFFE411213D0D5D01378000000C0003FFFFFFFE4112539193D04494E464F8000000C0003FFFFFFFE41131150
310
51101358000000C0003FFFFFFFE419397D0921395902394E8000000C0003FFFFFFFE419397D0D3D38C502304E8000000C0003FFFFFFFD03419397D0D3D38C902314E8000000C0003FFFFFFFD03419397D0D3D38CD02324E8000000C0003FFFFFFFD03419397D0D3D38D102324E8000000C0003FFFFFFFD03419397D0D15393
310
902374E8000000C0003FFFFFFFE419397D0D15395D02374E8000000C0003FFFFFFFE419397D1125312502354E8000000C0003FFFFFFFE419397D2105510D02384E8000000C0003FFFFFFFD01419397D2125113902334E8000000C0003FFFFFFFD03419397D2125115D02334E8000000C0003FFFFFFFD03419397D311505110
310
2354E8000000C0003FFFFFFFE419397D391D25410349504E8000000C0003FFFFFFFE419397D412105390334414E8000000C0003FFFFFFFE419397D510D3D3902304E8000000C0003FFFFFFFD03419397D5121312502344E8000000C0003FFFFFFFD01419397D5131153902304E8000000C0003FFFFFFFD03419397D5941312
310
50332414E8000000C0003FFFFFFFE411391D25410249508000000C0003FFFFFFFE411410530C9055241484D358010000C30043E411410530CD055241484D358020000C30047A411410530D5055241484D358000000C0003FFFFFFFE411412105390234418000000C0003FFFFFFFE411413D4D3901358000000C0003FFFFFFF
310
E411490D1D3901378000000C0003FFFFFFFE411490D1D5D01378000000C0003FFFFFFFE4114D09492D01348070000C300479014114D150D5101348000000C0003FFFFFFFD014114D6508CD01358020000C30047A411354D653501358020000C30047A411510D3D3901308000000C0003FFFFFFFD0341151213125013480000
310
00C0003FFFFFFFD01411512550C9055241484D358010000C30043E411512550CD055241484D358020000C30047A411512550D5055241484D358000000C0003FFFFFFFE4115131153901308000000C0003FFFFFFFD03415514905253105545241494C8000000C0003FFFFFFFE4115149312501348000000C0003FFFFFFFD014
310
11516150C501368030000C30043E411516150C901368030000C30043E411516150CD01368000000C0003FFFFFFFE411516150D501368070000C30047A411516150DD013681E0000C3004F24115925155D04564945578000000C0003FFFFFFFE41159151121034849448000000C0003FFFFFFFD024115915115903564953800
310
0000C0003FFFFFFFD02411594131250232418000000C0003FFFFFFFE4116925690501348000000C0003FFFFFFFD01AAA3F400030C01013F90A4050F4091E40D0F4110F4151E4190F41D1E4391E4793C7F6
340
15
340
15
340
15
340
3A6
340
15
340
15
340
15
340
27
340
15
340
15
340
27
340
3A7
340
15
340
15
340
15
340
15
340
3A6
340
15
340
15
340
15
340
27
340
15
340
15
340
27
340
3A7
340
15
340
3E2
340
15
340
15
340
15
340
15
340
15
340
3A6
340
15
340
15
340
15
340
14
340
14
340
14
340
14
340
14
340
14
340
14
340
14
340
14
340
3E8
340
14
340
14
340
14
340
14
340
14
340
14
340
14
340
14
340
14
340
14
340
14
340
14
340
14
340
15
340
14
340
14
340
14
340
14
340
3E9
340
14
340
14
340
3E8
340
14
340
14
340
14
340
14
340
14
340
14
340
14
340
14
340
3E8
340
14
340
14
340
14
340
3E9
340
14
340
14
340
14
340
14
340
14
340
3E9
340
14
340
3A7
340
14
340
14
340
14
340
14
340
14
340
14
340
3E8
340
14
340
14
340
14
340
14
340
14
340
14
340
3E9
340
14
340
14
340
14
340
14
340
14
340
14
340
14
340
14
340
14
340
14
340
14
340
14
340
14
340
14
340
3A7
340
3EA
 94
        0
  0
ACAD_PROXY_OBJECT
  5
416
102
{ACAD_REACTORS
330
411
102
}
330
411
100
AcDbProxyObject
 90
      499
 91
      568
 95
       25
 70
     0
 93
      253
310
43D1444494D454E53494F4E2C414D44545F2A5F44494D404A9012A404A9012A8
  0
ACAD_PROXY_OBJECT
  5
415
102
{ACAD_REACTORS
330
411
102
}
330
411
100
AcDbProxyObject
 90
      499
 91
      568
 95
       25
 70
     0
 93
      181
310
43D012A42D05357D191504B505357CA9012A404A9012A8
  0
ACAD_PROXY_OBJECT
  5
412
102
{ACAD_REACTORS
330
411
102
}
330
411
100
AcDbProxyObject
 90
      499
 91
      568
 95
       25
 70
     0
 93
      133
310
43D054841544348404A9012A404A9012A8
  0
ACAD_PROXY_OBJECT
  5
413
102
{ACAD_REACTORS
330
411
102
}
330
411
100
AcDbProxyObject
 90
      499
 91
      568
 95
       25
 70
     0
 93
      549
310
43D044C494E4549CE0B0E138B0A8B4E0B0A8B4E138B105357CE0B105357CE138B0A8B505357CE0B0A8B505357CE139012A404A910494E534552542C5354445041525432448
  0
ACAD_PROXY_OBJECT
  5
417
102
{ACAD_REACTORS
330
411
102
}
330
411
100
AcDbProxyObject
 90
      499
 91
      568
 95
       25
 70
     0
 93
      181
310
43D0341524341105357CD5012A404C906494E534552540
  0
ACAD_PROXY_OBJECT
  5
414
102
{ACAD_REACTORS
330
411
102
}
330
411
100
AcDbProxyObject
 90
      499
 91
      568
 95
       25
 70
     0
 93
     1053
310
43D7841434D46434652414D452C41434D444154554D5441524745542C41434D444154554D49442C41434D57454C4453594D2C41434D5355524653594D2C41434D4645415449442C41434D504152545245462C41434D42414C4C4F4F4E2C414D44544544474553594D2C414D47534352455743414C435441424C45404A9012A
310
404A9012A8
  0
ACAD_PROXY_OBJECT
  5
3DD
102
{ACAD_REACTORS
330
3DC
102
}
330
3DC
100
AcDbProxyObject
 90
      499
 91
      550
 95
       25
 70
     0
 93
     2395
310
5DCB81E85EB51B8BE3F8030000C30041105394D2501640600800030C0200800030C00B81E85EB51B8BE3F48821E8720B1B6A9BAB9332A32BC3A29BA3220480A1282C6DA8C868CA6E8C88120286A0B1B6ABB2B63234B733A9BA3220480A1082C6DA92C8A6E8C88120285A0B1B6A230BA3AB6A9BA3220480A1282C6DA849E9AA
310
6E8C8812028820B6B23A2232BA30B4B629BCB6A9BA3220480A2282DAC8E8A6CAC6E8D2DEDCA6F2DAA6E8C88120288A0B6B23A21B2B73A32B92634B732A9BA3220480A2282DAC8E8A8D0E4CAC2C898D2DCCAA6E8C88120285A0B6B23A2737BA32A9BA3220480A1682C682DACE98C2F2A6E8C88120285A0B1A0B6B3A234B6A9B
310
A3220480A2282C682DACE90DED8CA86D0C2E4E8A6E8C88120286A0B1A0B6B3AA34BA3632A9BA3220480A02812020
340
3EB
360
3EC
360
3ED
360
3EE
360
3EF
360
3F0
360
3F1
360
3F2
360
3F3
360
3F4
360
3F5
360
3F6
360
402
360
403
360
40E
360
40F
340
0
340
0
 94
        0
  0
ACAD_PROXY_OBJECT
  5
668
102
{ACAD_REACTORS
330
3DC
102
}
330
3DC
100
AcDbProxyObject
 90
      499
 91
      571
 95
       25
 70
     0
 93
     2379
310
5DC33333333333309408000000C00040D29254D01640600800030C0200800030C003333333333330940C8121E8720B1B6A9BAB9332A32BC3A29BA3220480A1282C6DA8C868CA6E8C88120286A0B1B6ABB2B63234B733A9BA3220480A1082C6DA92C8A6E8C88120285A0B1B6A230BA3AB6A9BA3220480A1282C6DA849E9AA6E
310
8C88120286A0B1A0B6B3AA34BA3632A9BA3220480A2082DAC8E888CAE8C2D2D8A6F2DAA6E8C88120288A0B6B23A29B2B1BA34B7B729BCB6A9BA3220480A2282DAC8E886CADCE8CAE498D2DCCAA6E8C88120288A0B6B23A2A343932B0B22634B732A9BA3220480A1682DAC8E89CDEE8CAA6E8C88120285A0B1A0B6B3A630BCA
310
9BA3220480A1682C682DACE88D2DAA6E8C88120288A0B1A0B6B3A437B632A1B430B93A29BA3220480C812020
340
657
360
669
360
66A
360
66B
360
66C
360
66D
360
66E
360
66F
360
670
360
671
360
672
360
673
360
674
360
67A
360
67B
360
67C
340
0
340
0
 94
        0
  0
ACAD_PROXY_OBJECT
  5
3B3
102
{ACAD_REACTORS
330
3B2
102
}
330
3B2
100
AcDbProxyObject
 90
      499
 91
      526
 95
       25
 70
     0
 93
     2412
310
4050B44574753455454494E4753A1286829C8E82A4A482B282A02608321A2A720A723A0A849A1ABE1C983E18999AA0C868A9C889282940000000000001C07E83A1A2A72224A0A9A0A8598171ABE1897183E18971AA0E868A9C8892A6A8940000000000001807E8321A2A72622A7250000000000000701FA0C868A9C9E8C8C9
310
40000000000001C07E84A1A624A720A92920ACA0A87181718991ABE1817191ABE18171AA108698929C8AA8B2A082A0AB098929C8A84A22BA3AAA9A1A0A622A50A0E9882A6A89E849482A02608426A0A5A2AB24A2ABA7E8120CA0A68682988A0C00800010652455649534941501304154D0D0531150540CC4E8C50954494D45
310
5354414D504A0531FC741792B734141D5915494D253D3905414C4D4B8C0C1107B44574753455454494E4753454E447D0
  0
ACAD_PROXY_OBJECT
  5
441
102
{ACAD_REACTORS
330
3B2
102
}
330
3B2
100
AcDbProxyObject
 90
      499
 91
      526
 95
       25
 70
     0
 93
      199
310
405055368616674220F688AE8EA68AA8A8929C8EA68A9C88FA
  0
ACAD_PROXY_OBJECT
  5
3B4
102
{ACAD_REACTORS
330
3B2
102
}
330
3B2
100
AcDbProxyObject
 90
      499
 91
      526
 95
       25
 70
     0
 93
      852
310
4050D5452414E5353455454494E4753A2488A482AE929C8EA8A4829CA69882A8929E9C0C00800050D4F524947494E414C4C595F4F4E0600400008529A7AAA921A2A620A723A0A81A52827212AAA0A48AA68AA4AC8A0C0080001107B44574753455454494E4753454E447D0
  0
ACAD_PROXY_OBJECT
  5
3EC
330
3DD
100
AcDbProxyObject
 90
      499
 91
      552
 95
       25
 70
     0
 93
       96
310
5DC20E80A0280A0280A02808
  0
ACAD_PROXY_OBJECT
  5
3ED
330
3DD
100
AcDbProxyObject
 90
      499
 91
      553
 95
       25
 70
     0
 93
      332
310
5DD0E4050140501405014050140501405014050142501405014050140501405012000000000000000400
340
3F7
 94
        0
  0
ACAD_PROXY_OBJECT
  5
3EE
330
3DD
100
AcDbProxyObject
 90
      499
 91
      554
 95
       25
 70
     0
 93
      403
310
5DCC199999999999E99F91F4050140501405014050140501405014050140501405014050140501405014050140501405014040
340
0
 94
        0
  0
ACAD_PROXY_OBJECT
  5
3EF
330
3DD
100
AcDbProxyObject
 90
      499
 91
      555
 95
       25
 70
     0
 93
       10
310
5DC0
  0
ACAD_PROXY_OBJECT
  5
3F0
330
3DD
100
AcDbProxyObject
 90
      499
 91
      556
 95
       25
 70
     0
 93
      257
310
5DE290EA22A7D90F49F9353333333333727F44D4CCCCCCCCCDC9FC010000618000
340
3F8
340
3F9
 94
        0
  0
ACAD_PROXY_OBJECT
  5
3F1
330
3DD
100
AcDbProxyObject
 90
      499
 91
      557
 95
       25
 70
     0
 93
    13023
310
5DD0E411255115350141236025B6901405014069011309A4F2590CB64FD3347454E545241434F2C4A504E2C302C8D8096DA2C47454E54524154582C25732C2847454E4D53472067656E647767203232322940690120281A8AA2CA0282484A4BE52028120280A03202261349E4B2196C9FA668E8A9CA8A482869E5894A09C58
310
605921292F94588E8A9CA8A482A8B0584AE658508E8A9C9AA68E40CECADCC8EECE406464665280D202405044E414D454050496BC914F4051C40640A8B95C2E97CBE502404CD1D15395149050D3CB1294138B0C0B25AF2453CB11D15395149055160B095CCB0A11D1539354D1C819D95B991DD9C80C8C8D8A50192C3D494628
310
4953424C414E4B28504152543A4E414D45292C424C4F434B3A4E414D452C504152543A4E414D452940480A0A888AA686A480A09251B1DBE80A3A80C81D10782C06030180C8099A3A2A72A2920A1A7962528271618164946C76F9623A2A72A2920AA2C1612B9961423A2A726A9A39033B2B7323BB39019189B94A0248090142
310
14D51053911054911014122D2E29A50147501904A383BFDFEFF5FBFCFD3347454E545241434F2C4A504E2C302C8B4B8A692C47454E54524154582C25732C2847454E4D53472067656E64776720323138294049012028426A0AA22A924A0A62028246EF4BDFA028EA0320B41396D838E9017D9FA668E8A9CA8A482869E5894A
310
09C5860591BBD2F7E588E8A9CA8A482A8B0584AE658508E8A9C9AA68E40CECADCC8EECE406464625280D202405044E4F544540504928D8B4C4051D40641A8B95C2E97CBE5F23F4CD1D15395149050D3CB1294138B0C0B24A362D30B11D15395149055160B095CCB0A11D1539354D1C819D95B991DD9C80C8C8D4A501A40480
310
A0CAC8A9C889EA480A1106F1072706BF02B680A3A80C83D172B85D2F97CBE47E9BA3A2A72A2920A1A79625282716181641BC41C9C1AFC0AD9623A2A72A2920AA2C1612B9961423A2A726A9A39033B2B7323BB39019191A14A0348090141911154D0D48C90141A43825AF880C90147501908A20F0580C0603019013447454E5
310
45241434F2C4A504E2C302C90E096BE20322C47454E54524154582C25732C2847454E4D53472067656E6477672033362940490120284A9AA20A72220A922192028345A5C53490192028EA0321347077FBFDFEBF7F9FA6A8E8A9CA8A482869E5894A09C586059169714D24064588E8A9CA8A482A8B0584AE658508E8A9C9AA6
310
8E40CECADCC8EECE4064646052809202405094D4154455249414C32405068DDE97BF20324051D40642A8272DB071D202FB3F4D11D15395149050D3CB1294138B0C0B2377A5EFC80C8B11D15395149055160B095CCB0A11D1539354D1C819D95B991DD9C80D0C0A501240480A089A82A6A680A091D7F2F9480A3A80A0485A06
310
81172B85D2F97CBE47E9923A2A72A2920A1A796252827161816475FCBE51623A2A72A2920AA2C1612B9961423A2A726A9A39033B2B7323BB3901A1914A024809014154149250D150141226FE29A501475014090C409022E570BA5F2F97C8FD3247454E545241434F2C4A504E2C302C89BF8A692C47454E54524154582C2573
310
2C2847454E4D53472067656E6477672034332940490120281A224A6A02824850CB202028EA028121A81A045CAE174BE5F2F91FA648E8A9CA8A482869E5894A09C58605921432C80588E8A9CA8A482A8B0584AE658508E8A9C9AA68E40CECADCC8EECE406868528092024050E441022E07A17AD46E338FE07800030C0001018
310
ACD56AB55AADF63F2B355AAD56AB7D8FD073D3C4954454D3E405018ACD56AB55AADF63F2B355AAD56AB7D8FD073D3C4954454D3E40501890C7E3F1783CEE3F2431F8FC5E0F3B8FD073D3C4954454D3E40501890C7E3F1783CEE3F2431F8FC5E0F3B8FD073D3C4954454D3E405029012B355AAD56AB7D8FCACD56AB55AADF63
310
F41CF4F125511534F901418F4F1455164F9014062B355AAD56AB7D8FCACD56AB55AADF63F41CF4F125511534F9014061309A4F2590CBA4FC4C2693C96432E93F41CF4F125511534F901901002B355AAD56AB7D8FCACD56AB55AADF63FA2000000000000008204018000618048220681A048120280C88214844882034852034
310
8452028521485214814000000000000F0BF0000000000003C2FD018020000C3008070000C3000EF7D3E365DBA88FC3BDF4F8D976EA23F2E07A17AD46E2F8FF20341A405024150741A4069703D0BD6A3717C7F0040001860100400018601002000186002026280A02
340
0
340
0
 94
        0
  0
ACAD_PROXY_OBJECT
  5
3F2
330
3DD
100
AcDbProxyObject
 90
      499
 91
      558
 95
       25
 70
     0
 93
      994
310
5DC0B81E85EB51B8CE3F4BCF511155105253080F11115510525317D3105091530F971414D0D05311480F11115510525317D05094D4D0D053114F92341C9A9999999999B93F26A666666666724FC000000000000E03F4000000000000004000000000000005100000000000000244081E0000C3002E07A17AD46E338FC0
340
3A7
340
3EB
 94
        0
  0
ACAD_PROXY_OBJECT
  5
3F3
330
3DD
100
AcDbProxyObject
 90
      499
 91
      559
 95
       25
 70
     0
 93
      823
310
5DC031703D0BD6A3719C7E999EA9A2A1AA24A7A7101E29A2A1AA24A7A72FA620A122A62FA324A929AA1F169E29A2A1AA24A7A72FA620A122A62FA620A9AA1F1353333333333B27E3FFFE01C00030C008840F000061801353333333333B27F1703D0BD6A3719C7E
340
3A7
340
3EB
 94
        0
  0
ACAD_PROXY_OBJECT
  5
3F4
330
3DD
100
AcDbProxyObject
 90
      499
 91
      560
 95
       25
 70
     0
 93
      280
310
5DC2B8716D9CEF7C33F0A5723F0BD4A2F0FC295C8FC2F528BC3FA199999999999F99FC
  0
ACAD_PROXY_OBJECT
  5
3F5
330
3DD
100
AcDbProxyObject
 90
      499
 91
      561
 95
       25
 70
     0
 93
       14
310
5DE4
340
0
 94
        0
  0
ACAD_PROXY_OBJECT
  5
3F6
330
3DD
100
AcDbProxyObject
 90
      499
 91
      562
 95
       25
 70
     0
 93
     7123
310
5DD084050BA4050AA405024050E836583938376838C815B8367203140405013D3C696628657175616C28486F6C653A7461707065642C223022292C22252563222C486F6C653A6E6F6D696E616C2022202220696628657175616C28486F6C653A756E6974732C223122292C2278222C222D222920222022293E3C6966286571
310
75616C28486F6C653A7461707065642C223022292C486F6C653A6469612C486F6C653A706974636864657363293E207B5C46414D4744543B787D203C696628657175616C28486F6C653A7465726D696E6174696F6E2C223022292C486F6C653A64657074682C228AD192CA22293E5C507B5C46414D4744543B767D2525633C
310
486F6C653A63746469613E207B5C46414D4744543B787D203C486F6C653A637464657074683E406901405034050E836583938376838C815B83672031405FE3D3C696628657175616C28486F6C653A7461707065642C223022292C22252563222C486F6C653A6E6F6D696E616C2022202220696628657175616C28486F6C653
310
A756E6974732C223122292C2278222C222D222920222022293E3C696628657175616C28486F6C653A7461707065642C223022292C486F6C653A6469612C486F6C653A706974636864657363293E207B5C46414D4744543B787D203C696628657175616C28486F6C653A7465726D696E6174696F6E2C223022292C486F6C653
310
A64657074682C228AD192CA22293E5C507B5C46414D4744543B777D2525633C486F6C653A63746469613E2058203C486F6C653A6374616E676C653E252564406901405014050E836583938376838C815B83672031405CF3D3C696628657175616C28486F6C653A7461707065642C223022292C22252563222C486F6C653A6E
310
6F6D696E616C2022202220696628657175616C28486F6C653A756E6974732C223122292C2278222C222D222920222022293E3C696628657175616C28486F6C653A7461707065642C223022292C486F6C653A6469612C486F6C653A706974636864657363293E5C507B5C46414D4744543B787D203C696628657175616C2848
310
6F6C653A7465726D696E6174696F6E2C223022292C486F6C653A64657074682C228AD192CA22293E4069014051E4090E836583938376838C815B83672032405173D3C535444503A444553433E203C535444503A5354443E40690E836583938376838C815B836720314050C3D3C535444503A444553433E40690240515AAABB
310
A060
360
400
330
400
360
401
330
401
360
3FF
330
3FF
360
3FE
360
3FD
330
3FE
330
3FD
 94
        0
  0
ACAD_PROXY_OBJECT
  5
402
330
3DD
100
AcDbProxyObject
 90
      499
 91
      564
 95
       25
 70
     0
 93
       26
310
5DD02A80
340
3DE
 94
        0
  0
ACAD_PROXY_OBJECT
  5
403
330
3DD
100
AcDbProxyObject
 90
      499
 91
      565
 95
       25
 70
     0
 93
      258
310
5DD02000000000000380FC000000000000E03F408F0F9023C3E40DB18CCCFFFF80
340
404
340
528
340
5A4
340
6EC
340
6D8
340
0
340
407
340
408
340
40D
340
0
 94
        0
  0
ACAD_PROXY_OBJECT
  5
40E
330
3DD
100
AcDbProxyObject
 90
      499
 91
      566
 95
       25
 70
     0
 93
    13993
310
5DD1D023FFFFFFFD010300002E07A17AD46E2F8FE00800030C01010300002E07A17AD46E2F8FE00800030C00050C8DC0955782CC838A83588367014ED1D15395149050D3CB1294138B0C0B23702555E0B320E2A0D620D9CB11D15395149055160B095CCB0A11D1539354D1C819D95B991A5B5E880CCC0A78000C0000000000
310
00000000000000000000007B14AE47E17AA43F2E07A17AD46E2F8FE00800030C007B14AE47E17AA43F2E07A17AD46E2F8FE00800030C020143CF4F111959985D5B1D151A5D1B194F8050A8C8A8365815B8375838B014E51D15395149050D3CB1294138B0C0B2322A0D96056E0DD60E2CB11D15395149055160B095CCB0A11D
310
1539354D1C819D95B991A5B5E880CCC4A78000C000000000000000000000000000000007B14AE47E17AA43F2E07A17AD46E2F8FE00800030C007B14AE47E17AA43F2E07A17AD46E2F8FE00800030C020143CF4F111959985D5B1D151A5D1B194F90D4410F4450240D0441507431014391244D05449074510C4350F00014123
310
2D24D7C053247454E545241434F2C4A504E2C302C8CB4935F2C47454E54524154582C25732C2847454E4D53472067656E64696D7A20312900010104002214000282465A49AF80A648E8A9CA8A482869E5894A09C586059196926BE588E8A9CA8A482A8B0584AE658508E8A9C9AA68E40CECADCC8D2DAF44062520002020800
310
43E80005028C8A014C11D15395149050D3CB1294138B0C0B23228B11D15395149055160B095CCB0A11D1539354D1C819D95B991A5B5E880C8A4054E3D3C4946284953424C414E4B28486F6C654974656D292C4F726967696E2C20486F6C654974656D293E3C4946284953424C414E4B28486F6C654974656D292C22222C204
310
86F6C65496E646578293E010104002234000280AC00A5E8E8A9CA8A482869E5894A09C586058B0588E8A9CA8A482A8B0584AE658508E8A9C9AA68E40CECADCC8D2DAF4406652000202000040A800050159014BD1D15395149050D3CB1294138B0C0B164B11D15395149055160B095CCB0A11D1539354D1C819D95B991A5B5E
310
880D0A4000404000081D0000A02A40297A3A2A72A2920A1A796252827161816291623A2A72A2920AA2C1612B9961423A2A726A9A39033B2B73234B6BD101B148000808000104A000140A0F4C053047454E545241434F2C4A504E2C302C83D32C47454E54524154582C25732C2847454E4D53472067656E64696D7A20372900
310
0101030020B400028141E980A608E8A9CA8A482869E5894A09C58605907A6588E8A9CA8A482A8B0584AE658508E8A9C9AA68E40CECADCC8D2DAF4407052000202020041E800050490E096BE014CD1D15395149050D3CB1294138B0C0B243825AF8B11D15395149055160B095CCB0A11D1539354D1C819D95B991A5B5E880C8
310
C0A400040010008650000A091B012DB40299A3A2A72A2920A1A79625282716181646C04B6D1623A2A72A2920AA2C1612B9961423A2A726A9A39033B2B73234B6BD10189A148000808280501A00014320D0E0E4E0D9A0D8A0D3A0D60053B47454E545241434F2C4A504E2C302C8343839383668362834E83582C47454E54524
310
154582C25732C2847454E4D53472067656E64696D7A203135290001010500A1D4000281464500A628E8A9CA8A482869E5894A09C5860591914588E8A9CA8A482A8B0584AE658508E8A9C9AA68E40CECADCC8D2DAF440626C52000202080044A800050E8C8A8343839383668362834E8358014F51D15395149050D3CB129413
310
8B0C0B2322A0D0E0E4E0D9A0D8A0D3A0D60B11D15395149055160B095CCB0A11D1539354D1C819D95B991A5B5E880C4DCA4000404140089D0000A0921292F940299A3A2A72A2920A1A796252827161816484A4BE51623A2A72A2920AA2C1612B9961423A2A726A9A39033B2B73234B6BD10189C948000808300114A0001412
310
2D2E29A4053347454E545241434F2C4A504E2C302C8B4B8A692C47454E54524154582C25732C2847454E4D53472067656E64696D7A20323129000100040021B4878030026A6666666667A4FE064D4CCCCCCCCCF49FC049A9999999999E93F809353333333333D27F0226A6666666667A4FE044D4CCCCCCCCCF49FC0D818000
310
00000000000810026A666666666764FE004D4CCCCCCCCCF49FC009A9999999999E93F801353333333333D27F032E07A17AD46E378FE0633B333333333032050F006004D4CCCCCCCCCF49FC0C9A9999999999E93F819353333333333D27F0326A6666666667A4FE064D4CCCCCCCCCF49FC0C9A9999999999E93F81B03000000
310
00000000102004D4CCCCCCCCCEC9FC009A9999999999E93F819353333333333D27F0026A6666666667A4FE065C0F42F5A8DC6F1FC0C6766666666660640A088800000021E000000890000002260000008220E000200890000002060002008100008000
340
0
340
0
340
0
340
0
340
3EB
340
3EB
 94
        0
  0
ACAD_PROXY_OBJECT
  5
40F
330
3DD
100
AcDbProxyObject
 90
      499
 91
      567
 95
       25
 70
     0
 93
     5214
310
5DD9741105394D2506414E53495F4342905394D257D512551554D15414E53495F54525F5265766973696F6E6C697374614191143202831372E307832322E30696E63682941905394D257D0D1146202832382E307834302E30696E63682941905394D257D191142202831312E307831372E30696E63682941905394D257D091
310
144202832322E307833342E30696E63682941905394D257D111145202833342E307834342E30696E63682941905394D257D1510412028382E357831312E30696E63682941905394D257D050543905B9CDA482557247A25E4C81110D0C414E53495F5449544C45444343505B9CDA482557247A25E4C81050B414E53495F5449
310
544C454143905B9CDA482557247A25E4C81050D0C414E53495F5449544C454143425554C82557247A25E4D0A414E53495F544954555343505B9CDA482557247A25E4C81110B414E53495F5449544C454442110979A97F0838A8358836720415F42525F45505394D257D09497D4995D9A5CDA5BDB9B1A5CDD18510979A97F08
310
38A8358836720415F54525F45505394D257D51497D4995D9A5CDA5BDB9B1A5CDD18510979A97F0838A8358836720445F42525F45505394D257D09497D4995D9A5CDA5BDB9B1A5CDD19110979A97F0838A8358836720445F54525F45505394D257D51497D4995D9A5CDA5BDB9B1A5CDD19110979A97F0838A8358836720415F
310
424C5F45505394D257D09317D4995D9A5CDA5BDB9B1A5CDD18510979A97F0838A8358836720415F544C5F45505394D257D51317D4995D9A5CDA5BDB9B1A5CDD18510979A97F0838A8358836720445F424C5F45505394D257D09317D4995D9A5CDA5BDB9B1A5CDD19110979A97F0838A8358836720445F544C5F45505394D25
310
7D51317D4995D9A5CDA5BDB9B1A5CDD190
  0
ACAD_PROXY_OBJECT
  5
669
330
668
100
AcDbProxyObject
 90
      499
 91
      572
 95
       25
 70
     0
 93
       86
310
5DEA0C80A0280A0280A034
  0
ACAD_PROXY_OBJECT
  5
66A
330
668
100
AcDbProxyObject
 90
      499
 91
      573
 95
       25
 70
     0
 93
      282
310
5DD0E4050140501405014050140501405014050141101405014041000000000000001000
340
658
 94
        0
  0
ACAD_PROXY_OBJECT
  5
66B
330
668
100
AcDbProxyObject
 90
      499
 91
      574
 95
       25
 70
     0
 93
      323
310
5DCC199999999999E99F91740501405014050140501405014050140501405014050140501405014040
340
0
 94
        0
  0
ACAD_PROXY_OBJECT
  5
66C
330
668
100
AcDbProxyObject
 90
      499
 91
      575
 95
       25
 70
     0
 93
       10
310
5DC0
  0
ACAD_PROXY_OBJECT
  5
66D
330
668
100
AcDbProxyObject
 90
      499
 91
      576
 95
       25
 70
     0
 93
      257
310
5DE0C16A22A7D90F49F80000000000001081400000000000004204010000618000
340
653
340
654
 94
        0
  0
ACAD_PROXY_OBJECT
  5
66E
330
668
100
AcDbProxyObject
 90
      499
 91
      577
 95
       25
 70
     0
 93
     5277
310
5DD06411255115350141236025B6901405014069010000000000000910240690120281A8AA2CA0282484A4BE52028120280A032020000000000001220480D202405044E414D454050496BC914F4051C40640A80000000000004E4090193C3D3C4946284953424C414E4B28504152543A4E414D45292C424C4F434B3A4E414D
310
452C504152543A4E414D45293E3C41435F44455343524950544E3E40480A109A82A88AA492829880A091BBD2F7E80A3A80C81D0E27A15AF46E08A81203480901411393D5115014124A363B7D0147501904A0000000000000F902406428F4F1050D7D393D5114F901202832B22A72227A92028366EF6EE06F582028EA0320B4
310
0000000000001F20480C879E9E20A1AFAB27222FA620A122A61F20240506445020000000000000490201C00030C00010180000000000003E400000000000000F901073D3C4954454D3E4050180000000000003E400000000000000F901073D3C4954454D3E40501800000000000034400000000000000D101073D3C4954454
310
D3E40501800000000000034400000000000000D101073D3C4954454D3E405029010000000000000F9000000000000003E4041CF4F125511534F901418F4F1455164F9014060000000000000F9000000000000003E4041CF4F125511534F901800000000000034400000000000000D101073D3C4954454D3E40640400000000
310
0000003E400000000000000F90288800000000000020810000001800120881A068120480A032208521122080D21480D211480A1485214852050000000000003C2FC000000000000F0BF40600800030C0200400030C00CDCCCCCCCCCCEC3F3373333333333B0FC3333333333330940C80D069014090341504901A1999999999
310
9984A040100006180400800061804010000618008098A02808
340
0
340
0
 94
        0
  0
ACAD_PROXY_OBJECT
  5
66F
330
668
100
AcDbProxyObject
 90
      499
 91
      567
 95
       25
 70
     0
 93
     3042
310
5DD9740D29254D064A49535F413342929254D7D512551311505134A49535F42525F5265766973696F6E6C6973744190F4134522028323937783231306D6D2941D29254D7D04D1490E41312028353934783834316D6D2941929254D7D04C50F41344C2028323130783239376D6D2941D29254D7D04D1310E413320283239377
310
83432306D6D2941929254D7D04CD0E41322028343230783539346D6D2941929254D7D04C90F4130202838343178313138396D6D2941929254D7D04C10243129254C82557247A25E4C81050A4A49535F5449544C454143129254C82557247A25E4C81090A4A49535F5449544C45424110E979A97F0838A835883675F42525F4
310
4D29254D7D09497D4995D9A5CDA5BDB9B1A5CDD10E979A97F0838A835883675F54525F44D29254D7D51497D4995D9A5CDA5BDB9B1A5CDD10E979A97F0838A835883675F424C5F44D29254D7D09317D4995D9A5CDA5BDB9B1A5CDD10E979A97F0838A835883675F544C5F44D29254D7D51317D4995D9A5CDA5BDB9B1A5CDD00
  0
ACAD_PROXY_OBJECT
  5
670
330
668
100
AcDbProxyObject
 90
      499
 91
      578
 95
       25
 70
     0
 93
      898
310
5DC4000000000000124048CF4F11115510525317D3105091530F880A0F11115510525317D05094D4D0D053114F8A50241C9A9999999999B93F26A666666666724FC000000000000E03F400000000000000400000000000000510000000000000024408070000C300000000000000049000
340
15
340
657
 94
        0
  0
ACAD_PROXY_OBJECT
  5
671
330
668
100
AcDbProxyObject
 90
      499
 91
      579
 95
       25
 70
     0
 93
      823
310
5DC0B00000000000002480959E9E29A2A1AA24A7A72FA620A122A62FA324A929AA1F169E29A2A1AA24A7A72FA620A122A62FA620A9AA1F000000000000048803FFFE01C00030C008140380006180000000000000048800000000000000A2000000000000002480
340
27
340
657
 94
        0
  0
ACAD_PROXY_OBJECT
  5
672
330
668
100
AcDbProxyObject
 90
      499
 91
      580
 95
       25
 70
     0
 93
      152
310
5DE8273108AC1C5A0640A3D0A5723F0BD1F200
  0
ACAD_PROXY_OBJECT
  5
673
330
668
100
AcDbProxyObject
 90
      499
 91
      581
 95
       25
 70
     0
 93
       14
310
5DE0
340
0
 94
        0
  0
ACAD_PROXY_OBJECT
  5
674
330
668
100
AcDbProxyObject
 90
      499
 91
      582
 95
       25
 70
     0
 93
     6059
310
5DD084050BA4050AA405024050E836583938376838C815B83672031405983D3C486F6C653A6469613E3C696628657175616C28486F6C653A7465726D696E6174696F6E2C223022292C2220905B82B320222C22208368838A838B22293E3C696628657175616C28486F6C653A7465726D696E6174696F6E2C223022292C486F
310
6C653A64657074682C2222293E2C203C486F6C653A63746469613E2082B482AE82E882CC905B82B3203C486F6C653A637464657074683E406901405034050E836583938376838C815B83672031405EF3D3C486F6C653A6374616E676C653E252564202525633C486F6C653A63746469613E208E4D8C8A2C203C69662865717
310
5616C28486F6C653A7461707065642C223022292C22252563222C486F6C653A6E6F6D696E616C202220782022293E3C696628657175616C28486F6C653A7461707065642C223022292C486F6C653A6469612C486F6C653A706974636864657363293E203C696628657175616C28486F6C653A7465726D696E6174696F6E2C2
310
23022292C22905B82B320222C222022293E3C696628657175616C28486F6C653A7465726D696E6174696F6E2C223022292C486F6C653A64657074682C2222293E406901405014050E836583938376838C815B83672031405C73D3C696628657175616C28486F6C653A7461707065642C223022292C22252563222C486F6C65
310
3A6E6F6D696E616C202220782022293E3C696628657175616C28486F6C653A7461707065642C223022292C486F6C653A6469612C486F6C653A706974636864657363293E203C696628657175616C28486F6C653A7465726D696E6174696F6E2C223022292C22905B82B320222C222022293E3C696628657175616C28486F6C
310
653A7465726D696E6174696F6E2C223022292C486F6C653A64657074682C2222293E4069014051E4090E836583938376838C815B83672032405173D3C535444503A444553433E203C535444503A5354443E40690E836583938376838C815B836720314050C3D3C535444503A444553433E40690240515AAABBA120
360
675
330
675
360
676
330
676
360
677
330
677
360
678
360
679
330
678
330
679
 94
        0
  0
ACAD_PROXY_OBJECT
  5
67A
330
668
100
AcDbProxyObject
 90
      499
 91
      564
 95
       25
 70
     0
 93
       26
310
5DD02A80
340
0
 94
        0
  0
ACAD_PROXY_OBJECT
  5
67B
330
668
100
AcDbProxyObject
 90
      499
 91
      565
 95
       25
 70
     0
 93
      250
310
5DD020000000000000A1000000000000002440408F0F9023C3E409A0DCFFFF80
340
659
340
660
340
661
340
65A
340
65B
340
65C
340
65D
340
65E
340
65F
340
0
 94
        0
  0
ACAD_PROXY_OBJECT
  5
67C
330
668
100
AcDbProxyObject
 90
      499
 91
      583
 95
       25
 70
     0
 93
    13889
310
5DD1D003FFFFFFFD030300030CCCCCCCCCCCC250200800030C01030300030CCCCCCCCCCCC250200800030C00050C8DC0955782CC838A83588367014ED1D15395149050D3CB1294138B0C0B23702555E0B320E2A0D620D9CB11D15395149055160B095CCB0A11D1539354D1C819D95B991A5B5E880CCC0A78000C0000000000
310
00000000000000000000010CCCCCCCCCCCC250200800030C010CCCCCCCCCCCC250200800030C020143CF4F111959985D5B1D151A5D1B194F8050A8C8A8365815B8375838B014E51D15395149050D3CB1294138B0C0B2322A0D96056E0DD60E2CB11D15395149055160B095CCB0A11D1539354D1C819D95B991A5B5E880CCC4
310
A78000C000000000000000000000000000000010CCCCCCCCCCCC250200800030C010CCCCCCCCCCCC250200800030C020143CF4F111959985D5B1D151A5D1B194F90D44111409034110541D0C4350F4050E44D03449074510F000141232D24D7C053247454E545241434F2C4A504E2C302C8CB4935F2C47454E54524154582C
310
25732C2847454E4D53472067656E64696D7A20312900010104002214000281464500A608E8A9CA8A482869E5894A09C5860591914588E8A9CA8A482A8B0584AE658508E8A9C9AA68E40CECADCC8D2DAF4406452029E9E9E27B934B3B4B71F1E24A31427A91424A9A12620A7259427B934B3B4B7149624A9A12620A7259424B
310
A32B6949496111116111711149F1E24BA32B69F00808200111A000140560052F47454E545241434F2C4A504E2C302C582C47454E54524154582C25732C2847454E4D53472067656E64696D7A20332900010100002054000280AC80A5E8E8A9CA8A482869E5894A09C586058B2588E8A9CA8A482A8B0584AE658508E8A9C9AA
310
68E40CECADCC8D2DAF4406852000202000040E800050152014BD1D15395149050D3CB1294138B0C0B148B11D15395149055160B095CCB0A11D1539354D1C819D95B991A5B5E880D8A400040400008250000A0507A6029823A2A72A2920A1A79625282716181641E99623A2A72A2920AA2C1612B9961423A2A726A9A39033B2
310
B73234B6BD101B948000808180105A000140A0F4C053047454E545241434F2C4A504E2C302C83D32C47454E54524154582C25732C2847454E4D53472067656E64696D7A203829000101010020F400028248704B5F00A668E8A9CA8A482869E5894A09C58605921C12D7C588E8A9CA8A482A8B0584AE658508E8A9C9AA68E40
310
CECADCC8D2DAF440646052000200080043280005048B4B8A69014CD1D15395149050D3CB1294138B0C0B22D2E29A4B11D15395149055160B095CCB0A11D1539354D1C819D95B991A5B5E880C8C4A4000400100086D0000A09196926BE029923A2A72A2920A1A796252827161816465A49AF9623A2A72A2920AA2C1612B9961
310
423A2A726A9A39033B2B73234B6BD10189480A02620202080043E80005048D8096DA014CD1D15395149050D3CB1294138B0C0B236025B68B11D15395149055160B095CCB0A11D1539354D1C819D95B991A5B5E880C4D0A4000404140280D0000A190687072706CD06C5069D06B0029DA3A2A72A2920A1A7962528271618164
310
1A1C1C9C1B341B141A741AC1623A2A72A2920AA2C1612B9961423A2A726A9A39033B2B73234B6BD10189A94800080820050EA000143A322A0D0E0E4E0D9A0D8A0D3A0D60053D47454E545241434F2C4A504E2C302C8C8A8343839383668362834E83582C47454E54524154582C25732C2847454E4D53472067656E64696D7A
310
2031372900010105002274000281464500A628E8A9CA8A482869E5894A09C5860591914588E8A9CA8A482A8B0584AE658508E8A9C9AA68E40CECADCC8D2DAF440626C52000202080044A8000504909497CA014CD1D15395149050D3CB1294138B0C0B242525F28B11D15395149055160B095CCB0A11D1539354D1C819D95B9
310
91A5B5E880C4E4A400040418008A521E000000000000001CA040C00000000000034408080000000000006881010000000000000D102040000000000001A204080000000000003440818000000000000728103000000000000125020600000000004028A040000000000000034408000000000000004881000000000000000D
310
102000000000000001A204000000000000003440818000000000000508143C0000000000000039408180000000000006881030000000000000D102060000000000001A2040C00000000000034408180000000000006881030000000000000E5020600000000000024A040C0000000000805140800000000000000688100000
310
00000000009102000000000000001A2040000000000000034408180000000000006881030000000000000A10284220000000878000002020000008380000020400000081800000208000000828000002028900000000
340
0
340
0
340
0
340
0
340
657
340
657
 94
        0
  0
ACAD_PROXY_OBJECT
  5
400
330
3F6
100
AcDbProxyObject
 90
      499
 91
      563
 95
       25
 70
     0
 93
     2256
310
5DE0143A0D960E4E0DDA0E32056E0D9C80C40405013D3C696628657175616C28486F6C653A7461707065642C223022292C22252563222C486F6C653A6E6F6D696E616C2022202220696628657175616C28486F6C653A756E6974732C223122292C2278222C222D222920222022293E3C696628657175616C28486F6C653A74
310
61707065642C223022292C486F6C653A6469612C486F6C653A706974636864657363293E207B5C46414D4744543B787D203C696628657175616C28486F6C653A7465726D696E6174696F6E2C223022292C486F6C653A64657074682C228AD192CA22293E5C507B5C46414D4744543B767D2525633C486F6C653A6374646961
310
3E207B5C46414D4744543B787D203C486F6C653A637464657074683E
  0
ACAD_PROXY_OBJECT
  5
401
330
3F6
100
AcDbProxyObject
 90
      499
 91
      563
 95
       25
 70
     0
 93
     2192
310
5DE0143A0D960E4E0DDA0E32056E0D9C80C405FE3D3C696628657175616C28486F6C653A7461707065642C223022292C22252563222C486F6C653A6E6F6D696E616C2022202220696628657175616C28486F6C653A756E6974732C223122292C2278222C222D222920222022293E3C696628657175616C28486F6C653A7461
310
707065642C223022292C486F6C653A6469612C486F6C653A706974636864657363293E207B5C46414D4744543B787D203C696628657175616C28486F6C653A7465726D696E6174696F6E2C223022292C486F6C653A64657074682C228AD192CA22293E5C507B5C46414D4744543B777D2525633C486F6C653A63746469613E
310
2058203C486F6C653A6374616E676C653E252564
  0
ACAD_PROXY_OBJECT
  5
3FF
330
3F6
100
AcDbProxyObject
 90
      499
 91
      563
 95
       25
 70
     0
 93
     1816
310
5DE0143A0D960E4E0DDA0E32056E0D9C80C405CF3D3C696628657175616C28486F6C653A7461707065642C223022292C22252563222C486F6C653A6E6F6D696E616C2022202220696628657175616C28486F6C653A756E6974732C223122292C2278222C222D222920222022293E3C696628657175616C28486F6C653A7461
310
707065642C223022292C486F6C653A6469612C486F6C653A706974636864657363293E5C507B5C46414D4744543B787D203C696628657175616C28486F6C653A7465726D696E6174696F6E2C223022292C486F6C653A64657074682C228AD192CA22293E
  0
ACAD_PROXY_OBJECT
  5
3FE
330
3F6
100
AcDbProxyObject
 90
      499
 91
      563
 95
       25
 70
     0
 93
      344
310
5DE0143A0D960E4E0DDA0E32056E0D9C80C805173D3C535444503A444553433E203C535444503A5354443E
  0
ACAD_PROXY_OBJECT
  5
3FD
330
3F6
100
AcDbProxyObject
 90
      499
 91
      563
 95
       25
 70
     0
 93
      256
310
5DE0143A0D960E4E0DDA0E32056E0D9C80C4050C3D3C535444503A444553433E
  0
ACAD_PROXY_OBJECT
  5
675
330
674
100
AcDbProxyObject
 90
      499
 91
      563
 95
       25
 70
     0
 93
     1376
310
5DE0143A0D960E4E0DDA0E32056E0D9C80C405983D3C486F6C653A6469613E3C696628657175616C28486F6C653A7465726D696E6174696F6E2C223022292C2220905B82B320222C22208368838A838B22293E3C696628657175616C28486F6C653A7465726D696E6174696F6E2C223022292C486F6C653A64657074682C22
310
22293E2C203C486F6C653A63746469613E2082B482AE82E882CC905B82B3203C486F6C653A637464657074683E
  0
ACAD_PROXY_OBJECT
  5
676
330
674
100
AcDbProxyObject
 90
      499
 91
      563
 95
       25
 70
     0
 93
     2072
310
5DE0143A0D960E4E0DDA0E32056E0D9C80C405EF3D3C486F6C653A6374616E676C653E252564202525633C486F6C653A63746469613E208E4D8C8A2C203C696628657175616C28486F6C653A7461707065642C223022292C22252563222C486F6C653A6E6F6D696E616C202220782022293E3C696628657175616C28486F6C
310
653A7461707065642C223022292C486F6C653A6469612C486F6C653A706974636864657363293E203C696628657175616C28486F6C653A7465726D696E6174696F6E2C223022292C22905B82B320222C222022293E3C696628657175616C28486F6C653A7465726D696E6174696F6E2C223022292C486F6C653A6465707468
310
2C2222293E
  0
ACAD_PROXY_OBJECT
  5
677
330
674
100
AcDbProxyObject
 90
      499
 91
      563
 95
       25
 70
     0
 93
     1752
310
5DE0143A0D960E4E0DDA0E32056E0D9C80C405C73D3C696628657175616C28486F6C653A7461707065642C223022292C22252563222C486F6C653A6E6F6D696E616C202220782022293E3C696628657175616C28486F6C653A7461707065642C223022292C486F6C653A6469612C486F6C653A706974636864657363293E20
310
3C696628657175616C28486F6C653A7465726D696E6174696F6E2C223022292C22905B82B320222C222022293E3C696628657175616C28486F6C653A7465726D696E6174696F6E2C223022292C486F6C653A64657074682C2222293E
  0
ACAD_PROXY_OBJECT
  5
678
330
674
100
AcDbProxyObject
 90
      499
 91
      563
 95
       25
 70
     0
 93
      344
310
5DE0143A0D960E4E0DDA0E32056E0D9C80C805173D3C535444503A444553433E203C535444503A5354443E
  0
ACAD_PROXY_OBJECT
  5
679
330
674
100
AcDbProxyObject
 90
      499
 91
      563
 95
       25
 70
     0
 93
      256
310
5DE0143A0D960E4E0DDA0E32056E0D9C80C4050C3D3C535444503A444553433E
  0
ENDSEC
  0
EOF
