  0
SECTION
  2
HEADER
  9
$ACADVER
  1
AC1015
  9
$ACADMAINTVER
 70
     6
  9
$DWGCODEPAGE
  3
ANSI_932
  9
$INSBASE
 10
0.0
 20
0.0
 30
0.0
  9
$EXTMIN
 10
-62.38348770141596
 20
-69.04845021230429
 30
0.0
  9
$EXTMAX
 10
121.9901609458351
 20
80.49999999999997
 30
0.0
  9
$LIMMIN
 10
0.0
 20
0.0
  9
$LIMMAX
 10
400.0
 20
273.0
  9
$ORTHOMODE
 70
     0
  9
$REGENMODE
 70
     1
  9
$FILLMODE
 70
     1
  9
$QTEXTMODE
 70
     0
  9
$MIRRTEXT
 70
     1
  9
$LTSCALE
 40
1.0
  9
$ATTMODE
 70
     1
  9
$TEXTSIZE
 40
3.0
  9
$TRACEWID
 40
0.5
  9
$TEXTSTYLE
  7
STANDARD
  9
$CLAYER
  8
0
  9
$CELTYPE
  6
ByLayer
  9
$CECOLOR
 62
   256
  9
$CELTSCALE
 40
1.0
  9
$DISPSILH
 70
     0
  9
$DIMSCALE
 40
1.0
  9
$DIMASZ
 40
3.0
  9
$DIMEXO
 40
1.0
  9
$DIMDLI
 40
5.0
  9
$DIMRND
 40
0.0
  9
$DIMDLE
 40
3.0
  9
$DIMEXE
 40
2.0
  9
$DIMTP
 40
0.0
  9
$DIMTM
 40
0.0
  9
$DIMTXT
 40
5.0
  9
$DIMCEN
 40
2.0
  9
$DIMTSZ
 40
0.0
  9
$DIMTOL
 70
     0
  9
$DIMLIM
 70
     0
  9
$DIMTIH
 70
     0
  9
$DIMTOH
 70
     0
  9
$DIMSE1
 70
     0
  9
$DIMSE2
 70
     0
  9
$DIMTAD
 70
     1
  9
$DIMZIN
 70
     8
  9
$DIMBLK
  1

  9
$DIMASO
 70
     1
  9
$DIMSHO
 70
     0
  9
$DIMPOST
  1

  9
$DIMAPOST
  1

  9
$DIMALT
 70
     0
  9
$DIMALTD
 70
     4
  9
$DIMALTF
 40
25.4
  9
$DIMLFAC
 40
1.0
  9
$DIMTOFL
 70
     1
  9
$DIMTVP
 40
1.0
  9
$DIMTIX
 70
     0
  9
$DIMSOXD
 70
     0
  9
$DIMSAH
 70
     0
  9
$DIMBLK1
  1

  9
$DIMBLK2
  1

  9
$DIMSTYLE
  2
Standard
  9
$DIMCLRD
 70
     0
  9
$DIMCLRE
 70
     0
  9
$DIMCLRT
 70
     0
  9
$DIMTFAC
 40
1.0
  9
$DIMGAP
 40
0.09
  9
$DIMJUST
 70
     0
  9
$DIMSD1
 70
     0
  9
$DIMSD2
 70
     0
  9
$DIMTOLJ
 70
     1
  9
$DIMTZIN
 70
     0
  9
$DIMALTZ
 70
     0
  9
$DIMALTTZ
 70
     0
  9
$DIMUPT
 70
     0
  9
$DIMDEC
 70
     4
  9
$DIMTDEC
 70
     4
  9
$DIMALTU
 70
     2
  9
$DIMALTTD
 70
     2
  9
$DIMTXSTY
  7
STANDARD
  9
$DIMAUNIT
 70
     0
  9
$DIMADEC
 70
     0
  9
$DIMALTRND
 40
0.0
  9
$DIMAZIN
 70
     0
  9
$DIMDSEP
 70
    46
  9
$DIMATFIT
 70
     3
  9
$DIMFRAC
 70
     0
  9
$DIMLDRBLK
  1

  9
$DIMLUNIT
 70
     2
  9
$DIMLWD
 70
    -2
  9
$DIMLWE
 70
    -2
  9
$DIMTMOVE
 70
     0
  9
$LUNITS
 70
     2
  9
$LUPREC
 70
     4
  9
$SKETCHINC
 40
1.0
  9
$FILLETRAD
 40
0.0
  9
$AUNITS
 70
     0
  9
$AUPREC
 70
     0
  9
$MENU
  1
acad
  9
$ELEVATION
 40
0.0
  9
$PELEVATION
 40
0.0
  9
$THICKNESS
 40
0.0
  9
$LIMCHECK
 70
     0
  9
$CHAMFERA
 40
0.0
  9
$CHAMFERB
 40
0.0
  9
$CHAMFERC
 40
0.0
  9
$CHAMFERD
 40
0.0
  9
$SKPOLY
 70
     0
  9
$TDCREATE
 40
2453969.5528125
  9
$TDUCREATE
 40
2453969.1778125
  9
$TDUPDATE
 40
2455482.467618993
  9
$TDUUPDATE
 40
2455482.092618993
  9
$TDINDWG
 40
0.01488875
  9
$TDUSRTIMER
 40
0.0148883912
  9
$USRTIMER
 70
     1
  9
$ANGBASE
 50
0.0
  9
$ANGDIR
 70
     0
  9
$PDMODE
 70
     0
  9
$PDSIZE
 40
0.0
  9
$PLINEWID
 40
0.0
  9
$SPLFRAME
 70
     0
  9
$SPLINETYPE
 70
     6
  9
$SPLINESEGS
 70
    16
  9
$HANDSEED
  5
7F1
  9
$SURFTAB1
 70
     6
  9
$SURFTAB2
 70
     6
  9
$SURFTYPE
 70
     6
  9
$SURFU
 70
     6
  9
$SURFV
 70
     6
  9
$UCSBASE
  2

  9
$UCSNAME
  2

  9
$UCSORG
 10
0.0
 20
0.0
 30
0.0
  9
$UCSXDIR
 10
1.0
 20
0.0
 30
0.0
  9
$UCSYDIR
 10
0.0
 20
1.0
 30
0.0
  9
$UCSORTHOREF
  2

  9
$UCSORTHOVIEW
 70
     0
  9
$UCSORGTOP
 10
0.0
 20
0.0
 30
0.0
  9
$UCSORGBOTTOM
 10
0.0
 20
0.0
 30
0.0
  9
$UCSORGLEFT
 10
0.0
 20
0.0
 30
0.0
  9
$UCSORGRIGHT
 10
0.0
 20
0.0
 30
0.0
  9
$UCSORGFRONT
 10
0.0
 20
0.0
 30
0.0
  9
$UCSORGBACK
 10
0.0
 20
0.0
 30
0.0
  9
$PUCSBASE
  2

  9
$PUCSNAME
  2

  9
$PUCSORG
 10
0.0
 20
0.0
 30
0.0
  9
$PUCSXDIR
 10
1.0
 20
0.0
 30
0.0
  9
$PUCSYDIR
 10
0.0
 20
1.0
 30
0.0
  9
$PUCSORTHOREF
  2

  9
$PUCSORTHOVIEW
 70
     0
  9
$PUCSORGTOP
 10
0.0
 20
0.0
 30
0.0
  9
$PUCSORGBOTTOM
 10
0.0
 20
0.0
 30
0.0
  9
$PUCSORGLEFT
 10
0.0
 20
0.0
 30
0.0
  9
$PUCSORGRIGHT
 10
0.0
 20
0.0
 30
0.0
  9
$PUCSORGFRONT
 10
0.0
 20
0.0
 30
0.0
  9
$PUCSORGBACK
 10
0.0
 20
0.0
 30
0.0
  9
$USERI1
 70
     0
  9
$USERI2
 70
     0
  9
$USERI3
 70
     0
  9
$USERI4
 70
     0
  9
$USERI5
 70
     0
  9
$USERR1
 40
0.0
  9
$USERR2
 40
0.0
  9
$USERR3
 40
0.0
  9
$USERR4
 40
0.0
  9
$USERR5
 40
0.0
  9
$WORLDVIEW
 70
     1
  9
$SHADEDGE
 70
     3
  9
$SHADEDIF
 70
    70
  9
$TILEMODE
 70
     1
  9
$MAXACTVP
 70
    64
  9
$PINSBASE
 10
0.0
 20
0.0
 30
0.0
  9
$PLIMCHECK
 70
     0
  9
$PEXTMIN
 10
1.000000000000000E+20
 20
1.000000000000000E+20
 30
1.000000000000000E+20
  9
$PEXTMAX
 10
-1.000000000000000E+20
 20
-1.000000000000000E+20
 30
-1.000000000000000E+20
  9
$PLIMMIN
 10
0.0
 20
0.0
  9
$PLIMMAX
 10
12.0
 20
9.0
  9
$UNITMODE
 70
     0
  9
$VISRETAIN
 70
     1
  9
$PLINEGEN
 70
     0
  9
$PSLTSCALE
 70
     1
  9
$TREEDEPTH
 70
  3020
  9
$CMLSTYLE
  2
Standard
  9
$CMLJUST
 70
     0
  9
$CMLSCALE
 40
1.0
  9
$PROXYGRAPHICS
 70
     1
  9
$MEASUREMENT
 70
     0
  9
$CELWEIGHT
370
    -1
  9
$ENDCAPS
280
     0
  9
$JOINSTYLE
280
     0
  9
$LWDISPLAY
290
     0
  9
$INSUNITS
 70
     0
  9
$HYPERLINKBASE
  1

  9
$STYLESHEET
  1
sei_cad.ctb
  9
$XEDIT
290
     1
  9
$CEPSNTYPE
380
     0
  9
$PSTYLEMODE
290
     1
  9
$FINGERPRINTGUID
  2
{62420353-B39D-45C5-BB09-7C9DA31FC5CF}
  9
$VERSIONGUID
  2
{34829C6E-091C-4BC3-93AB-0FE7431ACBB5}
  9
$EXTNAMES
290
     1
  9
$PSVPSCALE
 40
0.0
  9
$OLESTARTUP
290
     0
  0
ENDSEC
  0
SECTION
  2
CLASSES
  0
CLASS
  1
ACDBDICTIONARYWDFLT
  2
AcDbDictionaryWithDefault
  3
ObjectDBX Classes
 90
        0
280
     0
281
     0
  0
CLASS
  1
TABLESTYLE
  2
AcDbTableStyle
  3
ObjectDBX Classes
 90
     2047
280
     0
281
     0
  0
CLASS
  1
ACME_DOCUMENT
  2
AcMeDbDoc
  3
AcMeServices
 90
        0
280
     1
281
     0
  0
CLASS
  1
ACMESCOPE
  2
AcMeScope
  3
AcMeServices
 90
        0
280
     1
281
     0
  0
CLASS
  1
ACMECOMMANDHISTORY
  2
AcMeCommandHistory
  3
AcMeServices
 90
        0
280
     1
281
     0
  0
CLASS
  1
ACIMSYSVARMAN
  2
AcImSysVarManager
  3
AcMeServices
 90
        0
280
     1
281
     0
  0
CLASS
  1
ACIMINTSYSVAR
  2
AcImIntSysVar
  3
AcMeServices
 90
        0
280
     1
281
     0
  0
CLASS
  1
ACMEDRAWINGMAN
  2
AcMeDrawingMan
  3
AcMeServices
 90
        0
280
     1
281
     0
  0
CLASS
  1
ACMEVIEW
  2
AcMeView
  3
AcMeServices
 90
        0
280
     1
281
     0
  0
CLASS
  1
ACDBENTITYCACHE
  2
AcMeEntityCache
  3
AcMeServices
 90
        0
280
     1
281
     0
  0
CLASS
  1
GSMANAGER
  2
AcMeGSManager
  3
AcMeServices
 90
        0
280
     1
281
     0
  0
CLASS
  1
AMDTINTERNALREACTOR
  2
AmdtInternalReactor
  3
AcMeServices
 90
        0
280
     1
281
     0
  0
CLASS
  1
ACMESTATEMGR
  2
AcMeStateMgr
  3
AcMeServices
 90
        0
280
     1
281
     0
  0
CLASS
  1
ACGREFMASTER
  2
AcGrefMaster
  3
AcAttribServices
 90
        0
280
     1
281
     0
  0
CLASS
  1
AM_DRAWING_MGR
  2
AcDmDwgMgr
  3
AcMechDwgViewMgmt
 90
        0
280
     1
281
     0
  0
CLASS
  1
AM_DWG_DOCUMENT
  2
AcDmDwgDocument
  3
AcMechDwgViewMgmt
 90
        0
280
     1
281
     0
  0
CLASS
  1
AM_DWG_SHEET
  2
AcDmSheet
  3
AcMechDwgViewMgmt
 90
        0
280
     1
281
     0
  0
CLASS
  1
AM_VIEWDIMPARMAP
  2
AcDmViewDimParMap
  3
AcMechDwgViewMgmt
 90
        0
280
     1
281
     0
  0
CLASS
  1
ACIMREALSYSVAR
  2
AcImRealSysVar
  3
AcMeServices
 90
        0
280
     1
281
     0
  0
CLASS
  1
AM_DWGMGR_NAME
  2
AcDmDwgMgrName
  3
AcMechDwgViewMgmt
 90
        0
280
     1
281
     0
  0
CLASS
  1
ACME_DATABASE
  2
AcMeDbDatabase
  3
AcMeServices
 90
        0
280
     1
281
     0
  0
CLASS
  1
ACRFINSADJUSTERMGR
  2
AcRfInsAdjusterMgr
  3
AcMeServices
 90
        0
280
     1
281
     0
  0
CLASS
  1
ACGREFACADMASTER
  2
AcGrefacadMaster
  3
AcGrefServices
 90
        0
280
     1
281
     0
  0
CLASS
  1
AMDTMENUSTATEMGR
  2
AmdtMenuStateMgr
  3
McadcomServices
 90
        0
280
     1
281
     0
  0
CLASS
  1
AMDTMCOMMENUSTATE
  2
AmdtMcomMenuState
  3
McadcomServices
 90
        0
280
     1
281
     0
  0
CLASS
  1
AMIMASTER
  2
AmiMaster
  3
AmiServices
 90
        0
280
     1
281
     0
  0
CLASS
  1
AMGSETTINGSOBJ
  2
AmgSettingsObj
  3
"AcadM|Product Description: AutoCAD Mechanical 2000|Company: Autodesk"
 90
        0
280
     1
281
     0
  0
CLASS
  1
MAPIAMMOUDLE
  2
MApiAmModule
  3
MApiAmServices
 90
        0
280
     1
281
     0
  0
CLASS
  1
AMDTADMENUSTATE
  2
AmdtAdMenuState
  3
DesignerServices
 90
        0
280
     1
281
     0
  0
CLASS
  1
ADAPPL
  2
AcAdAppl
  3
DesignerServices
 90
        0
280
     1
281
     0
  0
CLASS
  1
DEPMGR
  2
AcAdDepMgr
  3
DesignerServices
 90
        0
280
     1
281
     0
  0
CLASS
  1
PARAMMGR
  2
AcAdParamMgr
  3
DesignerServices
 90
        0
280
     1
281
     0
  0
CLASS
  1
PARAMSCOPE
  2
AcAdParamScope
  3
DesignerServices
 90
        0
280
     1
281
     0
  0
CLASS
  1
NAMEDAPPL
  2
AcAdNamedAppl
  3
DesignerServices
 90
        0
280
     1
281
     0
  0
CLASS
  1
AMDTDMMENUSTATE
  2
AmdtDmMenuState
  3
AcMechDwgViewMgmt
 90
        0
280
     1
281
     0
  0
CLASS
  1
AMDTAMMENUSTATE
  2
AmdtAmMenuState
  3
DesignerAssemblies
 90
        0
280
     1
281
     0
  0
CLASS
  1
ACIMSTRSYSVAR
  2
AcImStrSysVar
  3
AcMeServices
 90
        0
280
     1
281
     0
  0
CLASS
  1
ACAMPROJECT
  2
AcAmProject
  3
DesignerAssemblies
 90
        0
280
     1
281
     0
  0
CLASS
  1
ACAMGRCOMPDEF
  2
AcAmGrCompDef
  3
DesignerAssemblies
 90
        0
280
     1
281
     0
  0
CLASS
  1
ACCMCONTEXT
  2
AcCmContext
  3
DesignerAssemblies
 90
        0
280
     1
281
     0
  0
CLASS
  1
ACAMCOMPDEF
  2
AcAmCompDef
  3
DesignerAssemblies
 90
        0
280
     1
281
     0
  0
CLASS
  1
ACAMCOMPDEFMGR
  2
AcAmCompDefMgr
  3
DesignerAssemblies
 90
        0
280
     1
281
     0
  0
CLASS
  1
AMCONTEXTMGR
  2
AcAmContextMgr
  3
DesignerAssemblies
 90
        0
280
     1
281
     0
  0
CLASS
  1
ACAMCONTEXTMODELER
  2
AcAmContextModeler
  3
DesignerAssemblies
 90
        0
280
     1
281
     0
  0
CLASS
  1
ACMDATADICTIONARY
  2
AcmDataDictionary
  3
"AcmSymBB|Product Description: AutoCAD Mechanical 2004 DX|Company: Autodesk"
 90
        0
280
     1
281
     0
  0
CLASS
  1
CATALOGSTATE
  2
AcAmCatalogState
  3
DesignerAssemblies
 90
        0
280
     1
281
     0
  0
CLASS
  1
ACAMGRCOMPDEFSET
  2
AcAmGrCompDefSet
  3
DesignerAssemblies
 90
        0
280
     1
281
     0
  0
CLASS
  1
AMDTBROWSERDBTAB
  2
AmdtBrowserDbTab
  3
McadcomServices
 90
        0
280
     1
281
     0
  0
CLASS
  1
CBROWSERAPPOBJECT
  2
CBrowserAppObject
  3
McadcomServices
 90
        0
280
     1
281
     0
  0
CLASS
  1
DM_PLACEHOLDER
  2
AcDmSelsetPlaceholder
  3
AcMechDwgViewMgmt
 90
        0
280
     1
281
     0
  0
CLASS
  1
ACMSTANDARDANSI
  2
AcmStandardANSI
  3
"Amdt_StdImp|Product Description: AutoCAD Mechanical 2004 DX|Company: Autodesk"
 90
        0
280
     1
281
     0
  0
CLASS
  1
AMGOBJPROPCFG
  2
AmgObjPropCfg
  3
"AmgLay|Product Description: AutoCAD Mechanical 2000|Company: Autodesk"
 90
        1
280
     1
281
     0
  0
CLASS
  1
ACMSURFSTANDARDANSI
  2
AcmSurfTextStdANSI
  3
"Amdt_StdImp|Product Description: AutoCAD Mechanical 2004 DX|Company: Autodesk"
 90
        0
280
     1
281
     0
  0
CLASS
  1
ACMFCFSTANDARDANSI
  2
AcmFCFStdANSI
  3
"Amdt_StdImp|Product Description: AutoCAD Mechanical 2004 DX|Company: Autodesk"
 90
        0
280
     1
281
     0
  0
CLASS
  1
ACMWELDSTANDARDANSI
  2
AcmWeldingStdANSI
  3
"Amdt_StdImp|Product Description: AutoCAD Mechanical 2004 DX|Company: Autodesk"
 90
        0
280
     1
281
     0
  0
CLASS
  1
ACMIDSTANDARDANSI
  2
AcmIdStdANSI
  3
"Amdt_StdImp|Product Description: AutoCAD Mechanical 2004 DX|Company: Autodesk"
 90
        0
280
     1
281
     0
  0
CLASS
  1
ACMDATUMSTANDARDANSI
  2
AcmDatumStdANSI
  3
"Amdt_StdImp|Product Description: AutoCAD Mechanical 2004 DX|Company: Autodesk"
 90
        0
280
     1
281
     0
  0
CLASS
  1
ACMBOMSTANDARDANSI
  2
AcmBOMStdANSI
  3
"Amdt_StdImp|Product Description: AutoCAD Mechanical 2004 DX|Company: Autodesk"
 90
        0
280
     1
281
     0
  0
CLASS
  1
ACMDETAILSTANDARDANSI
  2
AmdtDetailSymStdANSI
  3
"Amdt_StdImp|Product Description: AutoCAD Mechanical 2004 DX|Company: Autodesk"
 90
        0
280
     1
281
     0
  0
CLASS
  1
ACMSECTIONSTANDARDANSI
  2
AmdtSectionSymStdANSI
  3
"Amdt_StdImp|Product Description: AutoCAD Mechanical 2004 DX|Company: Autodesk"
 90
        0
280
     1
281
     0
  0
CLASS
  1
ACMCENTERLINESTANDARDANSI
  2
AmdtCenterLineStdANSI
  3
"Amdt_StdImp|Product Description: AutoCAD Mechanical 2004 DX|Company: Autodesk"
 90
        0
280
     1
281
     0
  0
CLASS
  1
ACMTHREADLINESTANDARDANSI
  2
AmdtThreadLineStdANSI
  3
"Amdt_StdImp|Product Description: AutoCAD Mechanical 2004 DX|Company: Autodesk"
 90
        0
280
     1
281
     0
  0
CLASS
  1
ACMNOTESTANDARDANSI
  2
AmdtNoteStdANSI
  3
"Amdt_StdImp|Product Description: AutoCAD Mechanical 2004 DX|Company: Autodesk"
 90
        0
280
     1
281
     0
  0
CLASS
  1
AMDTNOTETEMPLATEDB
  2
AmdtNoteTemplateDB
  3
AMDT_STDIMP_MODULE_NAME
 90
        0
280
     1
281
     0
  0
CLASS
  1
ACAMGLAYSTD
  2
AcAmgLayStd
  3
"AcAmgLayStd|Product Description: AutoCAD Mechanical 2000|Company: Autodesk"
 90
        0
280
     1
281
     0
  0
CLASS
  1
ACAMGDIMSTD
  2
AcAmgDimStd
  3
"AcAmgDimStd|Product Description: AutoCAD Mechanical 2000|Company: Autodesk"
 90
        0
280
     1
281
     0
  0
CLASS
  1
ACAMGHOLECHARTSTDANSI
  2
AcAmgHoleChartStdANSI
  3
ACMSYMBB_MODULE_NAME
 90
        0
280
     1
281
     0
  0
CLASS
  1
ACAMGTITLESTD
  2
AcAmgTitleStd
  3
"TITLEAPP"
 90
        0
280
     1
281
     0
  0
CLASS
  1
ACAMGFILTERDAT
  2
AcAmgFilterDat
  3
"AcadM|Product Description: AutoCAD Mechanical 2000|Company: Autodesk"
 90
        0
280
     1
281
     0
  0
CLASS
  1
DICTIONARYVAR
  2
AcDbDictionaryVar
  3
ObjectDBX Classes
 90
        0
280
     0
281
     0
  0
CLASS
  1
ACMDATAENTRYBLOCK
  2
AcmDataEntryBlock
  3
"AcmSymBB|Product Description: AutoCAD Mechanical 2004 DX|Company: Autodesk"
 90
        0
280
     1
281
     0
  0
CLASS
  1
AMDTNOTE
  2
AmdtNote
  3
"AcmSymBB|Product Description: AutoCAD Mechanical 2004 DX|Company: Autodesk"
 90
     1023
280
     1
281
     1
  0
CLASS
  1
ACMSTANDARDJIS
  2
AcmStandardJIS
  3
"Amdt_StdImp|Product Description: AutoCAD Mechanical 2004 DX|Company: Autodesk"
 90
        0
280
     1
281
     0
  0
CLASS
  1
ACMSURFSTANDARDJIS
  2
AcmSurfTextStdJIS
  3
"Amdt_StdImp|Product Description: AutoCAD Mechanical 2004 DX|Company: Autodesk"
 90
        0
280
     1
281
     0
  0
CLASS
  1
ACMFCFSTANDARDJIS
  2
AcmFCFStdJIS
  3
"Amdt_StdImp|Product Description: AutoCAD Mechanical 2004 DX|Company: Autodesk"
 90
        0
280
     1
281
     0
  0
CLASS
  1
ACMWELDSTANDARDJIS
  2
AcmWeldingStdJIS
  3
"Amdt_StdImp|Product Description: AutoCAD Mechanical 2004 DX|Company: Autodesk"
 90
        0
280
     1
281
     0
  0
CLASS
  1
ACMIDSTANDARDJIS
  2
AcmIdStdJIS
  3
"Amdt_StdImp|Product Description: AutoCAD Mechanical 2004 DX|Company: Autodesk"
 90
        0
280
     1
281
     0
  0
CLASS
  1
ACMDATUMSTANDARDJIS
  2
AcmDatumStdJIS
  3
"Amdt_StdImp|Product Description: AutoCAD Mechanical 2004 DX|Company: Autodesk"
 90
        0
280
     1
281
     0
  0
CLASS
  1
ACMBOMSTANDARDJIS
  2
AcmBOMStdJIS
  3
"Amdt_StdImp|Product Description: AutoCAD Mechanical 2004 DX|Company: Autodesk"
 90
        0
280
     1
281
     0
  0
CLASS
  1
ACMDETAILSTANDARDJIS
  2
AmdtDetailSymStdJIS
  3
"Amdt_StdImp|Product Description: AutoCAD Mechanical 2004 DX|Company: Autodesk"
 90
        0
280
     1
281
     0
  0
CLASS
  1
ACMSECTIONSTANDARDJIS
  2
AmdtSectionSymStdJIS
  3
"Amdt_StdImp|Product Description: AutoCAD Mechanical 2004 DX|Company: Autodesk"
 90
        0
280
     1
281
     0
  0
CLASS
  1
ACMCENTERLINESTANDARDJIS
  2
AmdtCenterLineStdJIS
  3
"Amdt_StdImp|Product Description: AutoCAD Mechanical 2004 DX|Company: Autodesk"
 90
        0
280
     1
281
     0
  0
CLASS
  1
ACMTHREADLINESTANDARDJIS
  2
AmdtThreadLineStdJIS
  3
"Amdt_StdImp|Product Description: AutoCAD Mechanical 2004 DX|Company: Autodesk"
 90
        0
280
     1
281
     0
  0
CLASS
  1
ACMNOTESTANDARDJIS
  2
AmdtNoteStdJIS
  3
"Amdt_StdImp|Product Description: AutoCAD Mechanical 2004 DX|Company: Autodesk"
 90
        0
280
     1
281
     0
  0
CLASS
  1
ACAMGHOLECHARTSTDJIS
  2
AcAmgHoleChartStdJIS
  3
ACMSYMBB_MODULE_NAME
 90
        0
280
     1
281
     0
  0
CLASS
  1
ACDBPLACEHOLDER
  2
AcDbPlaceHolder
  3
ObjectDBX Classes
 90
        0
280
     0
281
     0
  0
CLASS
  1
LAYOUT
  2
AcDbLayout
  3
ObjectDBX Classes
 90
        0
280
     0
281
     0
  0
ENDSEC
  0
SECTION
  2
TABLES
  0
TABLE
  2
VPORT
  5
8
330
0
100
AcDbSymbolTable
 70
     3
  0
VPORT
  5
7EB
330
8
100
AcDbSymbolTableRecord
100
AcDbViewportTableRecord
  2
*Active
 70
     0
 10
0.0
 20
0.0
 11
1.0
 21
1.0
 12
10.24443442050014
 22
3.643255757349095
 13
0.0
 23
0.0
 14
0.5
 24
0.5
 15
0.0
 25
0.0
 16
0.0
 26
0.0
 36
1.0
 17
0.0
 27
0.0
 37
0.0
 40
132.8891311265241
 41
1.610603290676417
 42
50.0
 43
0.0
 44
0.0
 50
0.0
 51
0.0
 71
     0
 72
 10000
 73
     1
 74
     1
 75
     0
 76
     0
 77
     0
 78
     0
281
     0
 65
     0
110
0.0
120
0.0
130
0.0
111
1.0
121
0.0
131
0.0
112
0.0
122
1.0
132
0.0
 79
     0
146
0.0
  0
ENDTAB
  0
TABLE
  2
LTYPE
  5
5
330
0
100
AcDbSymbolTable
 70
    13
  0
LTYPE
  5
13
330
5
100
AcDbSymbolTableRecord
100
AcDbLinetypeTableRecord
  2
ByBlock
 70
     0
  3

 72
    65
 73
     0
 40
0.0
  0
LTYPE
  5
14
330
5
100
AcDbSymbolTableRecord
100
AcDbLinetypeTableRecord
  2
ByLayer
 70
     0
  3

 72
    65
 73
     0
 40
0.0
  0
LTYPE
  5
15
330
5
100
AcDbSymbolTableRecord
100
AcDbLinetypeTableRecord
  2
CONTINUOUS
 70
     0
  3
solid line
 72
    65
 73
     0
 40
0.0
  0
LTYPE
  5
27
330
5
100
AcDbSymbolTableRecord
100
AcDbLinetypeTableRecord
  2
CENTER
 70
     0
  3
--- - --- - --- - --- - --- - 
 72
    65
 73
     4
 40
6.0
 49
3.0
 74
     0
 49
-1.0
 74
     0
 49
1.0
 74
     0
 49
-1.0
 74
     0
  0
LTYPE
  5
28
330
5
100
AcDbSymbolTableRecord
100
AcDbLinetypeTableRecord
  2
PHANTOM
 70
     0
  3
----- - - ----- - - ----- - - 
 72
    65
 73
     6
 40
8.0
 49
3.0
 74
     0
 49
-1.0
 74
     0
 49
1.0
 74
     0
 49
-1.0
 74
     0
 49
1.0
 74
     0
 49
-1.0
 74
     0
  0
LTYPE
  5
393
330
5
100
AcDbSymbolTableRecord
100
AcDbLinetypeTableRecord
  2
HIDDEN
 70
     0
  3
Hidden __ __ __ __ __ __ __ __ __ __ __ __ __ _
 72
    65
 73
     2
 40
0.375
 49
0.25
 74
     0
 49
-0.125
 74
     0
  0
LTYPE
  5
394
330
5
100
AcDbSymbolTableRecord
100
AcDbLinetypeTableRecord
  2
PHANTOM2
 70
     0
  3
Phantom (.5x) ___ _ _ ___ _ _ ___ _ _ ___ _ _
 72
    65
 73
     6
 40
1.25
 49
0.625
 74
     0
 49
-0.125
 74
     0
 49
0.125
 74
     0
 49
-0.125
 74
     0
 49
0.125
 74
     0
 49
-0.125
 74
     0
  0
LTYPE
  5
3CF
330
5
100
AcDbSymbolTableRecord
100
AcDbLinetypeTableRecord
  2
Amconstr
 70
     0
  3
_______________________
 72
    65
 73
     2
 40
9999.0
 49
9999.0
 74
     0
 49
0.0
 74
     0
  0
LTYPE
  5
3D5
330
5
100
AcDbSymbolTableRecord
100
AcDbLinetypeTableRecord
  2
CENTER2
 70
     0
  3
Center (.5x) ___ _ ___ _ ___ _ ___ _ ___ _ ___
 72
    65
 73
     4
 40
1.125
 49
0.75
 74
     0
 49
-0.125
 74
     0
 49
0.125
 74
     0
 49
-0.125
 74
     0
  0
LTYPE
  5
3D6
330
5
100
AcDbSymbolTableRecord
100
AcDbLinetypeTableRecord
  2
HIDDEN2
 70
     0
  3
Hidden (.5x) _ _ _ _ _ _ _ _ _ _ _ _ _ _ _ _ _
 72
    65
 73
     2
 40
0.1875
 49
0.125
 74
     0
 49
-0.0625
 74
     0
  0
LTYPE
  5
3D7
330
5
100
AcDbSymbolTableRecord
100
AcDbLinetypeTableRecord
  2
Amzigzag2
 70
     0
  3
/\/-/\/-/\/-/\/-/\/-/\/
 72
    65
 73
     2
 40
0.4401
 49
0.0001
 74
     4
 75
   135
340
3D3
 46
0.0016
 50
0.0
 44
0.0
 45
0.0
 49
-0.44
 74
     0
  0
LTYPE
  5
3E5
330
5
100
AcDbSymbolTableRecord
100
AcDbLinetypeTableRecord
  2
ACANSTGB
 70
     0
  3
__ . . __ . .
 72
    65
 73
     6
 40
0.35433070866
 49
0.15748031496
 74
     0
 49
-0.03937007874
 74
     0
 49
0.03937007874
 74
     0
 49
-0.03937007874
 74
     0
 49
0.03937007874
 74
     0
 49
-0.03937007874
 74
     0
  0
LTYPE
  5
3E6
330
5
100
AcDbSymbolTableRecord
100
AcDbLinetypeTableRecord
  2
ACANSTGL
 70
     0
  3
_ _ _ _ _
 72
    65
 73
     2
 40
0.11811023622
 49
0.07874015748
 74
     0
 49
-0.03937007874
 74
     0
  0
LTYPE
  5
668
330
5
100
AcDbSymbolTableRecord
100
AcDbLinetypeTableRecord
  2
ACJISTGB
 70
     0
  3
__ . . __ . .
 72
    65
 73
     6
 40
9.0
 49
4.0
 74
     0
 49
-1.0
 74
     0
 49
1.0
 74
     0
 49
-1.0
 74
     0
 49
1.0
 74
     0
 49
-1.0
 74
     0
  0
LTYPE
  5
669
330
5
100
AcDbSymbolTableRecord
100
AcDbLinetypeTableRecord
  2
ACJISTGL
 70
     0
  3
_ _ _ _ _
 72
    65
 73
     2
 40
3.0
 49
2.0
 74
     0
 49
-1.0
 74
     0
  0
ENDTAB
  0
TABLE
  2
LAYER
  5
2
102
{ACAD_XDICTIONARY
360
677
102
}
330
0
100
AcDbSymbolTable
 70
     7
  0
LAYER
  5
10
330
2
100
AcDbSymbolTableRecord
100
AcDbLayerTableRecord
  2
0
 70
     0
 62
     7
  6
CONTINUOUS
370
    -3
390
F
  0
LAYER
  5
29
330
2
100
AcDbSymbolTableRecord
100
AcDbLayerTableRecord
  2
1
 70
     0
 62
     7
  6
CONTINUOUS
370
    -3
390
F
  0
LAYER
  5
2A
330
2
100
AcDbSymbolTableRecord
100
AcDbLayerTableRecord
  2
2
 70
     0
 62
     7
  6
CONTINUOUS
370
    -3
390
F
  0
LAYER
  5
2C
330
2
100
AcDbSymbolTableRecord
100
AcDbLayerTableRecord
  2
6
 70
     0
 62
     7
  6
CONTINUOUS
370
    -3
390
F
  0
LAYER
  5
30
330
2
100
AcDbSymbolTableRecord
100
AcDbLayerTableRecord
  2
DEFPOINTS
 70
     0
 62
    -7
  6
CONTINUOUS
290
     0
370
    -3
390
F
  0
LAYER
  5
4C9
330
2
100
AcDbSymbolTableRecord
100
AcDbLayerTableRecord
  2
AM_5
 70
     0
 62
     3
  6
CONTINUOUS
370
    15
390
F
  0
LAYER
  5
66B
330
2
100
AcDbSymbolTableRecord
100
AcDbLayerTableRecord
  2
AM_6
 70
     0
 62
     2
  6
CONTINUOUS
370
    30
390
F
  0
ENDTAB
  0
TABLE
  2
STYLE
  5
3
330
0
100
AcDbSymbolTable
 70
     6
  0
STYLE
  5
11
330
3
100
AcDbSymbolTableRecord
100
AcDbTextStyleTableRecord
  2
STANDARD
 70
     0
 40
0.0
 41
1.0
 50
0.0
 71
     0
 42
3.0
  3
txt
  4

  0
STYLE
  5
3D3
330
3
100
AcDbSymbolTableRecord
100
AcDbTextStyleTableRecord
  2

 70
     1
 40
0.0
 41
1.0
 50
0.0
 71
     0
 42
3.0
  3
ltypeshp.shx
  4

  0
STYLE
  5
3D8
330
3
100
AcDbSymbolTableRecord
100
AcDbTextStyleTableRecord
  2
ACANSTS
 70
     0
 40
1.0
 41
1.0
 50
0.0
 71
     0
 42
3.0
  3
romans.shx
  4
extfont.shx
  0
STYLE
  5
3E4
330
3
100
AcDbSymbolTableRecord
100
AcDbTextStyleTableRecord
  2
ACANSGDT
 70
     0
 40
0.0
 41
1.0
 50
0.0
 71
     0
 42
3.0
  3
amgdtans.shx
  4

  0
STYLE
  5
66C
330
3
100
AcDbSymbolTableRecord
100
AcDbTextStyleTableRecord
  2
ACJISTS
 70
     0
 40
1.0
 41
1.0
 50
0.0
 71
     0
 42
2.5
  3
isocp.shx
  4
bigfont.shx
  0
STYLE
  5
66D
330
3
100
AcDbSymbolTableRecord
100
AcDbTextStyleTableRecord
  2
ACJISGDT
 70
     0
 40
0.0
 41
1.0
 50
0.0
 71
     0
 42
2.5
  3
amgdt.shx
  4

  0
ENDTAB
  0
TABLE
  2
VIEW
  5
6
330
0
100
AcDbSymbolTable
 70
     0
  0
ENDTAB
  0
TABLE
  2
UCS
  5
7
330
0
100
AcDbSymbolTable
 70
     0
  0
ENDTAB
  0
TABLE
  2
APPID
  5
9
330
0
100
AcDbSymbolTable
 70
     9
  0
APPID
  5
12
330
9
100
AcDbSymbolTableRecord
100
AcDbRegAppTableRecord
  2
ACAD
 70
     0
  0
APPID
  5
366
330
9
100
AcDbSymbolTableRecord
100
AcDbRegAppTableRecord
  2
MCAD_NO_VIS
 70
     0
  0
APPID
  5
367
330
9
100
AcDbSymbolTableRecord
100
AcDbRegAppTableRecord
  2
ACAD_TEMP_GRAPHIC
 70
     0
  0
APPID
  5
396
330
9
100
AcDbSymbolTableRecord
100
AcDbRegAppTableRecord
  2
AD_DRAW
 70
     0
  0
APPID
  5
399
330
9
100
AcDbSymbolTableRecord
100
AcDbRegAppTableRecord
  2
ACATTRIBSERVICES
 70
     0
  0
APPID
  5
3BB
330
9
100
AcDbSymbolTableRecord
100
AcDbRegAppTableRecord
  2
DESIGNERASSEMBLIES
 70
     0
  0
APPID
  5
3C1
330
9
100
AcDbSymbolTableRecord
100
AcDbRegAppTableRecord
  2
ACADM_DIM_EDIT
 70
     0
  0
APPID
  5
3C2
330
9
100
AcDbSymbolTableRecord
100
AcDbRegAppTableRecord
  2
AMDT_DM_ADJ
 70
     0
  0
APPID
  5
405
330
9
100
AcDbSymbolTableRecord
100
AcDbRegAppTableRecord
  2
ACAD_PSEXT
 70
     0
  0
ENDTAB
  0
TABLE
  2
DIMSTYLE
  5
A
330
0
100
AcDbSymbolTable
 70
    18
100
AcDbDimStyleTable
  0
DIMSTYLE
105
363
330
A
100
AcDbSymbolTableRecord
100
AcDbDimStyleTableRecord
  2
Standard
 70
     0
340
11
  0
DIMSTYLE
105
3F1
330
A
100
AcDbSymbolTableRecord
100
AcDbDimStyleTableRecord
  2
AM_ANSI
 70
     0
  4
mm
 41
0.1
 42
0.05
 43
0.5
 44
0.1
 47
0.1
 48
0.1
 78
     7
 79
     2
140
0.12
141
0.0
146
0.71
147
0.06
176
   256
177
   256
178
     2
274
     4
284
     7
340
11
371
    -1
372
    -1
  0
DIMSTYLE
105
3F4
330
A
100
AcDbSymbolTableRecord
100
AcDbDimStyleTableRecord
  2
AM_ANSI$7
 70
     0
  4
mm
 41
0.1
 42
0.05
 43
0.5
 44
0.1
 47
0.1
 48
0.1
 78
     7
 79
     2
140
0.24
141
0.0
146
0.71
147
0.06
176
   256
177
   256
178
     2
274
     4
284
     7
340
11
371
    -1
372
    -1
  0
DIMSTYLE
105
3F5
330
A
100
AcDbSymbolTableRecord
100
AcDbDimStyleTableRecord
  2
AM_ANSI$SF
 70
     0
  4
mm
 41
0.1
 42
0.05
 43
0.5
 44
0.1
 47
0.1
 48
0.1
 75
     1
 76
     1
 78
     7
 79
     2
140
0.12
141
0.0
146
0.71
147
0.06
176
   256
177
   256
178
     2
274
     4
284
     7
340
11
371
    -1
372
    -1
  0
DIMSTYLE
105
3FA
330
A
100
AcDbSymbolTableRecord
100
AcDbDimStyleTableRecord
  2
AM_ANSI$SH
 70
     0
  4
mm
 41
0.1
 42
0.05
 43
0.5
 44
0.1
 47
0.1
 48
0.1
 75
     1
 76
     1
 78
     7
 79
     2
140
0.12
141
0.0
146
0.71
147
0.06
173
     1
176
   256
177
   256
178
     2
274
     4
284
     7
340
11
343
3F6
371
    -1
372
    -1
  0
DIMSTYLE
105
4E9
102
{ACAD_REACTORS
330
4ED
330
55E
330
586
330
5AA
330
610
330
634
102
}
330
A
100
AcDbSymbolTableRecord
100
AcDbDimStyleTableRecord
  2
Standard$0
 70
     0
340
11
  0
DIMSTYLE
105
516
102
{ACAD_REACTORS
330
517
102
}
330
A
100
AcDbSymbolTableRecord
100
AcDbDimStyleTableRecord
  2
Standard$2
 70
     0
340
11
  0
DIMSTYLE
105
5D2
330
A
100
AcDbSymbolTableRecord
100
AcDbDimStyleTableRecord
  2
Standard$4
 70
     0
340
11
  0
DIMSTYLE
105
5E4
102
{ACAD_REACTORS
330
5E5
102
}
330
A
100
AcDbSymbolTableRecord
100
AcDbDimStyleTableRecord
  2
Standard$3
 70
     0
340
11
  0
DIMSTYLE
105
66E
330
A
100
AcDbSymbolTableRecord
100
AcDbDimStyleTableRecord
  2
AM_JIS
 70
     0
  4
"
 41
2.5
 42
0.0
 43
10.0
 44
1.0
 47
0.1
 48
0.1000000001
 73
     0
 74
     0
 77
     3
 78
     1
 79
     2
140
3.8
141
0.0
143
0.0393701
146
0.71
147
1.5
172
     1
176
   256
177
   256
178
     2
179
     1
271
     2
272
     2
275
     1
283
     0
284
     8
340
11
341
662
342
662
371
    -1
372
    -1
  0
DIMSTYLE
105
66F
330
A
100
AcDbSymbolTableRecord
100
AcDbDimStyleTableRecord
  2
AM_JIS$3
 70
     0
  4
"
 41
2.5
 42
0.0
 43
10.0
 44
1.0
 47
0.1
 48
0.1000000001
 73
     0
 77
     3
 78
     1
 79
     2
140
3.8
141
0.0
143
0.0393701
146
0.71
147
1.5
172
     1
176
   256
177
   256
178
     2
179
     1
271
     2
272
     2
275
     1
283
     0
284
     8
288
     1
289
     0
340
11
341
662
342
662
371
    -1
372
    -1
  0
DIMSTYLE
105
670
330
A
100
AcDbSymbolTableRecord
100
AcDbDimStyleTableRecord
  2
AM_JIS$4
 70
     0
  4
"
 41
2.5
 42
0.0
 43
10.0
 44
1.0
 47
0.1
 48
0.1000000001
 73
     0
 77
     3
 78
     1
 79
     2
140
3.8
141
0.0
143
0.0393701
146
0.71
147
1.5
172
     1
176
   256
177
   256
178
     2
179
     1
271
     2
272
     2
275
     1
283
     0
284
     8
288
     1
289
     0
340
11
341
662
342
662
371
    -1
372
    -1
  0
DIMSTYLE
105
671
330
A
100
AcDbSymbolTableRecord
100
AcDbDimStyleTableRecord
  2
AM_JIS$6
 70
     0
  4
"
 41
2.5
 42
0.0
 43
10.0
 44
1.0
 47
0.1
 48
0.1000000001
 73
     0
 74
     0
 78
     1
 79
     2
140
3.8
141
0.0
143
0.0393701
146
0.71
147
1.5
172
     1
176
   256
177
   256
178
     2
179
     1
271
     2
272
     2
275
     1
283
     0
284
     8
340
11
341
662
342
662
371
    -1
372
    -1
  0
DIMSTYLE
105
672
330
A
100
AcDbSymbolTableRecord
100
AcDbDimStyleTableRecord
  2
AM_JIS$7
 70
     0
  4
"
 41
2.5
 42
0.0
 43
10.0
 44
1.0
 47
0.1
 48
0.1000000001
 73
     0
 74
     0
 77
     3
 78
     1
 79
     2
140
5.0
141
0.0
143
0.0393701
146
0.71
147
1.5
172
     1
176
   256
177
   256
178
     2
179
     1
271
     2
272
     2
275
     1
283
     0
284
     8
340
11
341
662
342
662
371
    -1
372
    -1
  0
DIMSTYLE
105
673
330
A
100
AcDbSymbolTableRecord
100
AcDbDimStyleTableRecord
  2
AM_JIS$SF
 70
     0
  4
"
 41
2.5
 42
1.0
 43
10.0
 44
1.0
 47
0.1
 48
0.1
 73
     0
 74
     0
 75
     1
 76
     1
 77
     3
 78
     8
 79
     2
140
3.5
141
0.0
143
0.0393701
146
0.71
147
1.5
176
   256
177
   256
178
     2
271
     2
272
     3
274
     4
340
11
341
662
342
662
343
662
344
662
371
    -1
372
    -1
  0
DIMSTYLE
105
674
330
A
100
AcDbSymbolTableRecord
100
AcDbDimStyleTableRecord
  2
AM_JIS$SH
 70
     0
  4
"
 41
2.5
 42
1.0
 43
10.0
 44
1.0
 47
0.1
 48
0.1
 73
     0
 74
     0
 75
     1
 76
     1
 77
     3
 78
     8
 79
     2
140
3.5
141
0.0
143
0.0393701
144
2.0
146
0.71
147
1.5
173
     1
176
   256
177
   256
178
     2
271
     2
272
     3
274
     4
340
11
341
662
342
662
343
3F6
344
662
371
    -1
372
    -1
  0
DIMSTYLE
105
675
330
A
100
AcDbSymbolTableRecord
100
AcDbDimStyleTableRecord
  2
AM_JIS$0
 70
     0
  4
"
 41
2.5
 42
0.0
 43
10.0
 44
1.0
 47
0.1
 48
0.1000000001
 73
     0
 74
     0
 77
     3
 78
     1
 79
     2
140
3.8
141
0.0
143
0.0393701
146
0.71
147
1.5
172
     1
176
     3
177
     3
178
     2
271
     2
272
     2
275
     1
283
     0
284
     8
289
     0
340
11
341
662
342
662
371
    13
372
    13
  0
DIMSTYLE
105
676
330
A
100
AcDbSymbolTableRecord
100
AcDbDimStyleTableRecord
  2
AM_JIS$2
 70
     0
  4
"
 41
2.5
 42
0.0
 43
10.0
 44
1.0
 47
0.1
 48
0.1000000001
 73
     0
 74
     0
 77
     3
 78
     1
 79
     2
140
3.8
141
0.0
143
0.0393701
146
0.71
147
1.5
172
     1
176
     3
177
     3
178
     2
271
     2
272
     2
275
     1
283
     0
284
     8
289
     0
340
11
341
662
342
662
371
    13
372
    13
  0
ENDTAB
  0
TABLE
  2
BLOCK_RECORD
  5
1
330
0
100
AcDbSymbolTable
 70
    12
  0
BLOCK_RECORD
  5
22
330
1
100
AcDbSymbolTableRecord
100
AcDbBlockTableRecord
  2
*Model_Space
340
25
  0
BLOCK_RECORD
  5
1E
330
1
100
AcDbSymbolTableRecord
100
AcDbBlockTableRecord
  2
*Paper_Space
340
21
  0
BLOCK_RECORD
  5
112
330
1
100
AcDbSymbolTableRecord
100
AcDbBlockTableRecord
  2
LRIS-4-1_0001
340
0
102
{BLKREFS
331
206
102
}
  0
BLOCK_RECORD
  5
3B2
330
1
100
AcDbSymbolTableRecord
100
AcDbBlockTableRecord
  2
*U1
340
0
  0
BLOCK_RECORD
  5
3F6
330
1
100
AcDbSymbolTableRecord
100
AcDbBlockTableRecord
  2
GENAXEH
340
0
  0
BLOCK_RECORD
  5
4EE
330
1
100
AcDbSymbolTableRecord
100
AcDbBlockTableRecord
  2
*D3
340
0
  0
BLOCK_RECORD
  5
518
330
1
100
AcDbSymbolTableRecord
100
AcDbBlockTableRecord
  2
*D4
340
0
  0
BLOCK_RECORD
  5
55F
330
1
100
AcDbSymbolTableRecord
100
AcDbBlockTableRecord
  2
*D5
340
0
  0
BLOCK_RECORD
  5
587
330
1
100
AcDbSymbolTableRecord
100
AcDbBlockTableRecord
  2
*D6
340
0
  0
BLOCK_RECORD
  5
5AB
330
1
100
AcDbSymbolTableRecord
100
AcDbBlockTableRecord
  2
*D7
340
0
  0
BLOCK_RECORD
  5
5E6
330
1
100
AcDbSymbolTableRecord
100
AcDbBlockTableRecord
  2
*D8
340
0
  0
BLOCK_RECORD
  5
611
330
1
100
AcDbSymbolTableRecord
100
AcDbBlockTableRecord
  2
*D9
340
0
  0
BLOCK_RECORD
  5
635
330
1
100
AcDbSymbolTableRecord
100
AcDbBlockTableRecord
  2
*D10
340
0
  0
BLOCK_RECORD
  5
662
330
1
100
AcDbSymbolTableRecord
100
AcDbBlockTableRecord
  2
_Open30
340
0
  0
ENDTAB
  0
ENDSEC
  0
SECTION
  2
BLOCKS
  0
BLOCK
  5
23
330
22
100
AcDbEntity
  8
0
100
AcDbBlockBegin
  2
*Model_Space
 70
     0
 71
     0
 10
0.0
 20
0.0
 30
0.0
  3
*Model_Space
  1

  0
ENDBLK
  5
24
330
22
100
AcDbEntity
  8
0
100
AcDbBlockEnd
  0
BLOCK
  5
1F
330
1E
100
AcDbEntity
 67
     1
  8
0
100
AcDbBlockBegin
  2
*Paper_Space
 70
     0
 71
     0
 10
0.0
 20
0.0
 30
0.0
  3
*Paper_Space
  1

  0
ENDBLK
  5
20
330
1E
100
AcDbEntity
 67
     1
  8
0
100
AcDbBlockEnd
  0
BLOCK
  5
113
330
112
100
AcDbEntity
  8
1
100
AcDbBlockBegin
  2
LRIS-4-1_0001
 70
     0
 71
     0
 10
0.0
 20
0.0
 30
0.0
  3
LRIS-4-1_0001
  1

  0
CIRCLE
  5
114
330
112
100
AcDbEntity
  8
1
  6
Continuous
100
AcDbCircle
 10
0.000000016353054
 20
-0.0000000163530576
 30
0.0
 40
2.900000095367432
  0
LINE
  5
115
330
112
100
AcDbEntity
  8
1
  6
CENTER
100
AcDbLine
 10
-2.757716400959569
 20
-2.757716195247101
 30
0.0
 11
2.757716195247097
 21
2.757716162540985
 31
0.0
  0
LINE
  5
116
330
112
100
AcDbEntity
  8
1
  6
CENTER
100
AcDbLine
 10
2.757716195247097
 20
-2.757716195247101
 30
0.0
 11
-2.757716400959569
 21
2.757716162540985
 31
0.0
  0
LINE
  5
117
330
112
100
AcDbEntity
  8
1
  6
Continuous
100
AcDbLine
 10
-1.060660345890598
 20
1.484924300053192
 30
0.0
 11
-1.484924061634617
 21
1.060660345890595
 31
0.0
  0
LINE
  5
118
330
112
100
AcDbEntity
  8
1
  6
Continuous
100
AcDbLine
 10
1.060659901759548
 20
-1.484924332759308
 30
0.0
 11
1.484923855922146
 21
-1.060659424922394
 31
0.0
  0
LINE
  5
119
330
112
100
AcDbEntity
  8
1
  6
Continuous
100
AcDbLine
 10
1.484923855922146
 20
-1.060659424922394
 30
0.0
 11
0.5795555278276634
 21
-0.1552906199907529
 31
0.0
  0
LINE
  5
11A
330
112
100
AcDbEntity
  8
1
  6
Continuous
100
AcDbLine
 10
-0.1552915409589577
 20
0.5795554951215518
 30
0.0
 11
-1.060660345890598
 21
1.484924300053192
 31
0.0
  0
LINE
  5
11B
330
112
100
AcDbEntity
  8
1
  6
Continuous
100
AcDbLine
 10
-1.484924061634617
 20
1.060660345890595
 30
0.0
 11
-0.5795554951215554
 21
0.1552915409589541
 31
0.0
  0
LINE
  5
11C
330
112
100
AcDbEntity
  8
1
  6
Continuous
100
AcDbLine
 10
0.1552910968279075
 20
-0.579555527827667
 30
0.0
 11
1.060659901759548
 21
-1.484924332759308
 31
0.0
  0
LINE
  5
11D
330
112
100
AcDbEntity
  8
1
  6
Continuous
100
AcDbLine
 10
-0.1760968998456765
 20
-1.816311852595733
 30
0.0
 11
0.1552910968279075
 21
-0.579555527827667
 31
0.0
  0
LINE
  5
11E
330
112
100
AcDbEntity
  8
1
  6
Continuous
100
AcDbLine
 10
0.4242639705156517
 20
0.4242648914838565
 30
0.0
 11
0.7556519671892357
 21
1.661020739414765
 31
0.0
  0
LINE
  5
11F
330
112
100
AcDbEntity
  8
1
  6
Continuous
100
AcDbLine
 10
-0.7556524113202858
 20
-1.661020295283722
 30
0.0
 11
-0.1760968998456765
 21
-1.816311852595733
 31
0.0
  0
LINE
  5
120
330
112
100
AcDbEntity
  8
1
  6
Continuous
100
AcDbLine
 10
0.7556519671892357
 20
1.661020739414765
 30
0.0
 11
0.1760964557146263
 21
1.816311819889618
 31
0.0
  0
LINE
  5
121
330
112
100
AcDbEntity
  8
1
  6
Continuous
100
AcDbLine
 10
0.1760964557146263
 20
1.816311819889618
 30
0.0
 11
-0.1552915409589577
 21
0.5795554951215518
 31
0.0
  0
LINE
  5
122
330
112
100
AcDbEntity
  8
1
  6
Continuous
100
AcDbLine
 10
-0.4242644146467018
 20
-0.4242639705156552
 30
0.0
 11
-0.7556524113202858
 21
-1.661020295283722
 31
0.0
  0
LINE
  5
123
330
112
100
AcDbEntity
  8
1
  6
Continuous
100
AcDbLine
 10
1.661020772120876
 20
0.7556524113202823
 30
0.0
 11
0.4242639705156517
 21
0.4242648914838565
 31
0.0
  0
LINE
  5
124
330
112
100
AcDbEntity
  8
1
  6
Continuous
100
AcDbLine
 10
-0.5795554951215554
 20
0.1552915409589541
 30
0.0
 11
-1.816312058308201
 21
-0.1760959788774716
 31
0.0
  0
LINE
  5
125
330
112
100
AcDbEntity
  8
1
  6
Continuous
100
AcDbLine
 10
1.81631185259573
 20
0.1760968998456729
 30
0.0
 11
1.661020772120876
 21
0.7556524113202823
 31
0.0
  0
LINE
  5
126
330
112
100
AcDbEntity
  8
1
  6
Continuous
100
AcDbLine
 10
-1.816312058308201
 20
-0.1760959788774716
 30
0.0
 11
-1.661020739414768
 21
-0.7556514903520809
 31
0.0
  0
LINE
  5
127
330
112
100
AcDbEntity
  8
1
  6
Continuous
100
AcDbLine
 10
-1.661020739414768
 20
-0.7556514903520809
 30
0.0
 11
-0.4242644146467018
 21
-0.4242639705156552
 31
0.0
  0
LINE
  5
128
330
112
100
AcDbEntity
  8
1
  6
Continuous
100
AcDbLine
 10
0.5795555278276634
 20
-0.1552906199907529
 30
0.0
 11
1.81631185259573
 21
0.1760968998456729
 31
0.0
  0
ENDBLK
  5
129
330
112
100
AcDbEntity
  8
1
100
AcDbBlockEnd
  0
BLOCK
  5
3B3
330
3B2
100
AcDbEntity
  8
0
100
AcDbBlockBegin
  2
*U1
 70
     1
 71
     0
 10
0.0
 20
0.0
 30
0.0
  3
*U1
  1

  0
ENDBLK
  5
3B4
330
3B2
100
AcDbEntity
  8
0
100
AcDbBlockEnd
  0
BLOCK
  5
3F8
330
3F6
100
AcDbEntity
  8
0
100
AcDbBlockBegin
  2
GENAXEH
 70
     0
 71
     0
 10
0.0
 20
0.0
 30
0.0
  3
GENAXEH
  1

  0
LINE
  5
3F7
330
3F6
100
AcDbEntity
  8
0
100
AcDbLine
 10
-1.0
 20
0.0
 30
0.0
 11
1.0
 21
0.0
 31
0.0
  0
ENDBLK
  5
3F9
330
3F6
100
AcDbEntity
  8
0
100
AcDbBlockEnd
  0
BLOCK
  5
4FA
330
4EE
100
AcDbEntity
  8
0
100
AcDbBlockBegin
  2
*D3
 70
     1
 71
     0
 10
0.0
 20
0.0
 30
0.0
  3
*D3
  1

  0
LINE
  5
74A
330
4EE
100
AcDbEntity
  8
AM_5
 62
     0
370
    -2
100
AcDbLine
 10
-1.0
 20
0.0000000000000003
 30
0.0
 11
-28.30743391017603
 21
0.000000000000008
 31
0.0
  0
LINE
  5
74B
330
4EE
100
AcDbEntity
  8
AM_5
 62
     0
370
    -2
100
AcDbLine
 10
23.66153284028684
 20
-6.000000000000028
 30
0.0
 11
-28.30743391017603
 21
-6.000000000000013
 31
0.0
  0
LINE
  5
74C
330
4EE
100
AcDbEntity
  8
AM_5
 62
     0
370
    -2
100
AcDbLine
 10
-26.30743391017603
 20
3.000000000000008
 30
0.0
 11
-26.30743391017603
 21
6.000000000000008
 31
0.0
  0
LINE
  5
74D
330
4EE
100
AcDbEntity
  8
AM_5
 62
     0
370
    -2
100
AcDbLine
 10
-26.30743391017603
 20
-9.000000000000014
 30
0.0
 11
-26.30743391017603
 21
-12.00000000000001
 31
0.0
  0
LINE
  5
74E
330
4EE
100
AcDbEntity
  8
AM_5
 62
     0
370
    -2
100
AcDbLine
 10
-26.30743391017603
 20
0.0000000000000075
 30
0.0
 11
-26.30743391017603
 21
-6.000000000000013
 31
0.0
  0
SOLID
  5
74F
330
4EE
100
AcDbEntity
  8
AM_5
 62
     0
100
AcDbTrace
 10
-26.80743391017603
 20
3.000000000000008
 30
0.0
 11
-25.80743391017603
 21
3.000000000000008
 31
0.0
 12
-26.30743391017603
 22
0.0000000000000075
 32
0.0
 13
-26.30743391017603
 23
0.0000000000000075
 33
0.0
  0
SOLID
  5
750
330
4EE
100
AcDbEntity
  8
AM_5
 62
     0
100
AcDbTrace
 10
-26.80743391017603
 20
-9.000000000000014
 30
0.0
 11
-25.80743391017603
 21
-9.000000000000014
 31
0.0
 12
-26.30743391017603
 22
-6.000000000000013
 32
0.0
 13
-26.30743391017603
 23
-6.000000000000013
 33
0.0
  0
MTEXT
  5
751
330
4EE
100
AcDbEntity
  8
AM_5
 62
     0
100
AcDbMText
 10
-28.89743391017603
 20
-3.000000000000007
 30
0.0
 40
5.0
 41
0.0
 71
     5
 72
     1
  1
\A1;6
 11
6.123031769111886E-17
 21
1.0
 31
0.0
 73
     1
 44
1.0
  0
POINT
  5
752
330
4EE
100
AcDbEntity
  8
DEFPOINTS
 62
     0
100
AcDbPoint
 10
0.0
 20
0.0
 30
0.0
  0
POINT
  5
753
330
4EE
100
AcDbEntity
  8
DEFPOINTS
 62
     0
100
AcDbPoint
 10
24.66153284028684
 20
-6.000000000000028
 30
0.0
  0
POINT
  5
754
330
4EE
100
AcDbEntity
  8
DEFPOINTS
 62
     0
100
AcDbPoint
 10
-26.30743391017603
 20
-6.000000000000013
 30
0.0
  0
ENDBLK
  5
4FB
330
4EE
100
AcDbEntity
  8
0
100
AcDbBlockEnd
  0
BLOCK
  5
527
330
518
100
AcDbEntity
  8
0
100
AcDbBlockBegin
  2
*D4
 70
     1
 71
     0
 10
0.0
 20
0.0
 30
0.0
  3
*D4
  1

  0
LINE
  5
755
330
518
100
AcDbEntity
  8
AM_5
 62
     0
370
    -2
100
AcDbLine
 10
-0.1071683162728949
 20
1.016207271617068
 30
0.0
 11
-2.227829983193187
 21
25.25548104097873
 31
0.0
  0
LINE
  5
756
330
518
100
AcDbEntity
  8
AM_5
 62
     0
370
    -2
100
AcDbLine
 10
-1.016207271616988
 20
0.1071683162729852
 30
0.0
 11
-25.25548104097863
 21
2.22782998319355
 31
0.0
  0
ARC
  5
757
330
518
100
AcDbEntity
  8
AM_5
 62
     0
370
    -2
100
AcDbCircle
 10
-0.0200125735252426
 20
0.0200125735253219
 30
0.0
 40
23.33186385732934
100
AcDbArc
 50
102.3721485375143
 51
167.6278514624851
  0
SOLID
  5
758
330
518
100
AcDbEntity
  8
AM_5
 62
     0
100
AcDbTrace
 10
-5.094620643536592
 20
23.30429526812131
 30
0.0
 11
-4.94360008105647
 21
22.31576464658843
 31
0.0
 12
-2.053518497697885
 22
23.26309164479524
 32
0.0
 13
-2.053518497697885
 23
23.26309164479524
 33
0.0
  0
SOLID
  5
759
330
518
100
AcDbEntity
  8
AM_5
 62
     0
100
AcDbTrace
 10
-22.31576464658829
 20
4.943600081056799
 30
0.0
 11
-23.30429526812117
 21
5.094620643536933
 31
0.0
 12
-23.26309164479514
 22
2.053518497698223
 32
0.0
 13
-23.26309164479514
 23
2.053518497698223
 33
0.0
  0
MTEXT
  5
75A
330
518
100
AcDbEntity
  8
AM_5
 62
     0
100
AcDbMText
 10
-18.34953828803719
 20
18.34953828803747
 30
0.0
 40
5.0
 41
0.0
 71
     5
 72
     1
  1
\A1;80°
 11
0.7071067811865515
 21
0.7071067811865436
 31
0.0
 73
     1
 44
1.0
  0
POINT
  5
75B
330
518
100
AcDbEntity
  8
DEFPOINTS
 62
     0
100
AcDbPoint
 10
-12.2686946741774
 20
19.87815090152864
 30
0.0
  0
POINT
  5
75C
330
518
100
AcDbEntity
  8
DEFPOINTS
 62
     0
100
AcDbPoint
 10
9.447939937988906
 20
-0.8083259380340166
 30
0.0
  0
POINT
  5
75D
330
518
100
AcDbEntity
  8
DEFPOINTS
 62
     0
100
AcDbPoint
 10
0.0007610603817057
 20
-0.2174311485495366
 30
0.0
  0
POINT
  5
75E
330
518
100
AcDbEntity
  8
DEFPOINTS
 62
     0
100
AcDbPoint
 10
0.8083259380339882
 20
-9.447939937988821
 30
0.0
  0
POINT
  5
75F
330
518
100
AcDbEntity
  8
DEFPOINTS
 62
     0
100
AcDbPoint
 10
0.2174311485495082
 20
-0.0007610603816204
 30
0.0
  0
ENDBLK
  5
528
330
518
100
AcDbEntity
  8
0
100
AcDbBlockEnd
  0
BLOCK
  5
569
330
55F
100
AcDbEntity
  8
0
100
AcDbBlockBegin
  2
*D5
 70
     1
 71
     0
 10
0.0
 20
0.0
 30
0.0
  3
*D5
  1

  0
LINE
  5
760
330
55F
100
AcDbEntity
  8
AM_5
 62
     0
370
    -2
100
AcDbLine
 10
19.99999982702457
 20
0.9999998235297198
 30
0.0
 11
19.99999982702457
 21
25.54388146697596
 31
0.0
  0
LINE
  5
761
330
55F
100
AcDbEntity
  8
AM_5
 62
     0
370
    -2
100
AcDbLine
 10
0.0000000000000001
 20
1.0
 30
0.0
 11
0.0000000000000016
 21
25.54388146697596
 31
0.0
  0
LINE
  5
762
330
55F
100
AcDbEntity
  8
AM_5
 62
     0
370
    -2
100
AcDbLine
 10
16.99999982702457
 20
23.54388146697596
 30
0.0
 11
3.000000000000001
 21
23.54388146697596
 31
0.0
  0
SOLID
  5
763
330
55F
100
AcDbEntity
  8
AM_5
 62
     0
100
AcDbTrace
 10
16.99999982702457
 20
24.04388146697596
 30
0.0
 11
16.99999982702457
 21
23.04388146697596
 31
0.0
 12
19.99999982702457
 22
23.54388146697596
 32
0.0
 13
19.99999982702457
 23
23.54388146697596
 33
0.0
  0
SOLID
  5
764
330
55F
100
AcDbEntity
  8
AM_5
 62
     0
100
AcDbTrace
 10
3.000000000000001
 20
24.04388146697596
 30
0.0
 11
3.000000000000001
 21
23.04388146697596
 31
0.0
 12
0.0000000000000014
 22
23.54388146697596
 32
0.0
 13
0.0000000000000014
 23
23.54388146697596
 33
0.0
  0
MTEXT
  5
765
330
55F
100
AcDbEntity
  8
AM_5
 62
     0
100
AcDbMText
 10
9.999999913512284
 20
26.13388146697596
 30
0.0
 40
5.0
 41
0.0
 71
     5
 72
     1
  1
\A1;20
 73
     1
 44
1.0
  0
POINT
  5
766
330
55F
100
AcDbEntity
  8
DEFPOINTS
 62
     0
100
AcDbPoint
 10
19.99999982702457
 20
-0.0000001764702802
 30
0.0
  0
POINT
  5
767
330
55F
100
AcDbEntity
  8
DEFPOINTS
 62
     0
100
AcDbPoint
 10
0.0
 20
0.0
 30
0.0
  0
POINT
  5
768
330
55F
100
AcDbEntity
  8
DEFPOINTS
 62
     0
100
AcDbPoint
 10
0.0000000000000014
 20
23.54388146697596
 30
0.0
  0
ENDBLK
  5
56A
330
55F
100
AcDbEntity
  8
0
100
AcDbBlockEnd
  0
BLOCK
  5
591
330
587
100
AcDbEntity
  8
0
100
AcDbBlockBegin
  2
*D6
 70
     1
 71
     0
 10
0.0
 20
0.0
 30
0.0
  3
*D6
  1

  0
LINE
  5
769
330
587
100
AcDbEntity
  8
AM_5
 62
     0
370
    -2
100
AcDbLine
 10
83.7901611328125
 20
-5.000000000000028
 30
0.0
 11
83.7901611328125
 21
23.22405805951092
 31
0.0
  0
LINE
  5
76A
330
587
100
AcDbEntity
  8
AM_5
 62
     0
370
    -2
100
AcDbLine
 10
62.79016113281256
 20
-5.000000000000028
 30
0.0
 11
62.79016113281256
 21
23.22405805951092
 31
0.0
  0
LINE
  5
76B
330
587
100
AcDbEntity
  8
AM_5
 62
     0
370
    -2
100
AcDbLine
 10
80.7901611328125
 20
21.22405805951092
 30
0.0
 11
65.79016113281256
 21
21.22405805951092
 31
0.0
  0
SOLID
  5
76C
330
587
100
AcDbEntity
  8
AM_5
 62
     0
100
AcDbTrace
 10
80.7901611328125
 20
21.72405805951092
 30
0.0
 11
80.7901611328125
 21
20.72405805951092
 31
0.0
 12
83.7901611328125
 22
21.22405805951092
 32
0.0
 13
83.7901611328125
 23
21.22405805951092
 33
0.0
  0
SOLID
  5
76D
330
587
100
AcDbEntity
  8
AM_5
 62
     0
100
AcDbTrace
 10
65.79016113281256
 20
21.72405805951092
 30
0.0
 11
65.79016113281256
 21
20.72405805951092
 31
0.0
 12
62.79016113281256
 22
21.22405805951092
 32
0.0
 13
62.79016113281256
 23
21.22405805951092
 33
0.0
  0
MTEXT
  5
76E
330
587
100
AcDbEntity
  8
AM_5
 62
     0
100
AcDbMText
 10
73.29016113281253
 20
23.81405805951092
 30
0.0
 40
5.0
 41
0.0
 71
     5
 72
     1
  1
\A1;21
 73
     1
 44
1.0
  0
POINT
  5
76F
330
587
100
AcDbEntity
  8
DEFPOINTS
 62
     0
100
AcDbPoint
 10
83.7901611328125
 20
-6.000000000000028
 30
0.0
  0
POINT
  5
770
330
587
100
AcDbEntity
  8
DEFPOINTS
 62
     0
100
AcDbPoint
 10
62.79016113281256
 20
-6.000000000000028
 30
0.0
  0
POINT
  5
771
330
587
100
AcDbEntity
  8
DEFPOINTS
 62
     0
100
AcDbPoint
 10
62.79016113281256
 20
21.22405805951092
 30
0.0
  0
ENDBLK
  5
592
330
587
100
AcDbEntity
  8
0
100
AcDbBlockEnd
  0
BLOCK
  5
5B5
330
5AB
100
AcDbEntity
  8
0
100
AcDbBlockBegin
  2
*D7
 70
     1
 71
     0
 10
0.0
 20
0.0
 30
0.0
  3
*D7
  1

  0
LINE
  5
772
330
5AB
100
AcDbEntity
  8
AM_5
 62
     0
370
    -2
100
AcDbLine
 10
74.2901611328125
 20
-16.50000000000003
 30
0.0
 11
95.13867185981286
 21
-16.50000000000003
 31
0.0
  0
LINE
  5
773
330
5AB
100
AcDbEntity
  8
AM_5
 62
     0
370
    -2
100
AcDbLine
 10
74.2901611328125
 20
4.499999999999971
 30
0.0
 11
95.13867185981286
 21
4.499999999999965
 31
0.0
  0
LINE
  5
774
330
5AB
100
AcDbEntity
  8
AM_5
 62
     0
370
    -2
100
AcDbLine
 10
93.13867185981286
 20
1.499999999999966
 30
0.0
 11
93.13867185981286
 21
-13.50000000000003
 31
0.0
  0
LINE
  5
775
330
5AB
100
AcDbEntity
  8
AM_5
 62
     0
370
    -2
100
AcDbLine
 10
93.13867185981286
 20
-16.50000000000003
 30
0.0
 11
93.13867185981286
 21
-29.84133569900882
 31
0.0
  0
SOLID
  5
776
330
5AB
100
AcDbEntity
  8
AM_5
 62
     0
100
AcDbTrace
 10
92.63867185981286
 20
1.499999999999966
 30
0.0
 11
93.63867185981286
 21
1.499999999999966
 31
0.0
 12
93.13867185981286
 22
4.499999999999966
 32
0.0
 13
93.13867185981286
 23
4.499999999999966
 33
0.0
  0
SOLID
  5
777
330
5AB
100
AcDbEntity
  8
AM_5
 62
     0
100
AcDbTrace
 10
92.63867185981286
 20
-13.50000000000003
 30
0.0
 11
93.63867185981286
 21
-13.50000000000003
 31
0.0
 12
93.13867185981286
 22
-16.50000000000003
 32
0.0
 13
93.13867185981286
 23
-16.50000000000003
 33
0.0
  0
MTEXT
  5
778
330
5AB
100
AcDbEntity
  8
AM_5
 62
     0
100
AcDbMText
 10
90.54867185981286
 20
-26.41800236567548
 30
0.0
 40
5.0
 41
0.0
 71
     5
 72
     1
  1
\A1;21
 11
6.123031769111886E-17
 21
1.0
 31
0.0
 73
     1
 44
1.0
  0
POINT
  5
779
330
5AB
100
AcDbEntity
  8
DEFPOINTS
 62
     0
100
AcDbPoint
 10
73.2901611328125
 20
-16.50000000000003
 30
0.0
  0
POINT
  5
77A
330
5AB
100
AcDbEntity
  8
DEFPOINTS
 62
     0
100
AcDbPoint
 10
73.2901611328125
 20
4.499999999999972
 30
0.0
  0
POINT
  5
77B
330
5AB
100
AcDbEntity
  8
DEFPOINTS
 62
     0
100
AcDbPoint
 10
93.13867185981286
 20
4.499999999999966
 30
0.0
  0
ENDBLK
  5
5B6
330
5AB
100
AcDbEntity
  8
0
100
AcDbBlockEnd
  0
BLOCK
  5
5EC
330
5E6
100
AcDbEntity
  8
0
100
AcDbBlockBegin
  2
*D8
 70
     1
 71
     0
 10
0.0
 20
0.0
 30
0.0
  3
*D8
  1

  0
LINE
  5
77C
330
5E6
100
AcDbEntity
  8
AM_5
 62
     0
370
    -2
100
AcDbLine
 10
56.11340882121996
 20
-34.8637822380996
 30
0.0
 11
66.13063989436778
 21
-18.03084600667206
 31
0.0
  0
LINE
  5
77D
330
5E6
100
AcDbEntity
  8
AM_5
 62
     0
370
    -2
100
AcDbLine
 10
80.44968237125731
 20
6.030846006672135
 30
0.0
 11
81.9838654937812
 21
8.6088844366733
 31
0.0
  0
MTEXT
  5
77E
330
5E6
100
AcDbEntity
  8
AM_5
 62
     0
100
AcDbMText
 10
57.34302363149219
 20
-27.73295536719581
 30
0.0
 40
5.0
 41
0.0
 71
     5
 72
     1
  1
\A1;\U+220522
 11
0.5113943741746273
 21
0.8593461433337217
 31
0.0
 73
     1
 44
1.0
  0
LINE
  5
77F
330
5E6
100
AcDbEntity
  8
AM_5
 62
     0
370
    -2
100
AcDbLine
 10
78.91549924873343
 20
3.452807576670971
 30
0.0
 11
67.66482301689166
 21
-15.45280757667089
 31
0.0
  0
SOLID
  5
780
330
5E6
100
AcDbEntity
  8
AM_5
 62
     0
100
AcDbTrace
 10
80.02000929959046
 20
6.286543193759442
 30
0.0
 11
80.87935544292418
 21
5.775148819584821
 31
0.0
 12
78.91549924873343
 22
3.452807576670971
 32
0.0
 13
78.91549924873343
 23
3.452807576670971
 33
0.0
  0
SOLID
  5
781
330
5E6
100
AcDbEntity
  8
AM_5
 62
     0
100
AcDbTrace
 10
65.70096682270092
 20
-17.77514881958475
 30
0.0
 11
66.56031296603463
 21
-18.28654319375937
 31
0.0
 12
67.66482301689166
 22
-15.45280757667089
 32
0.0
 13
67.66482301689166
 23
-15.45280757667089
 33
0.0
  0
POINT
  5
782
330
5E6
100
AcDbEntity
  8
DEFPOINTS
 62
     0
100
AcDbPoint
 10
67.66482301689166
 20
-15.45280757667089
 30
0.0
  0
POINT
  5
783
330
5E6
100
AcDbEntity
  8
DEFPOINTS
 62
     0
100
AcDbPoint
 10
78.91549924873343
 20
3.452807576670971
 30
0.0
  0
ENDBLK
  5
5ED
330
5E6
100
AcDbEntity
  8
0
100
AcDbBlockEnd
  0
BLOCK
  5
61B
330
611
100
AcDbEntity
  8
0
100
AcDbBlockBegin
  2
*D9
 70
     1
 71
     0
 10
0.0
 20
0.0
 30
0.0
  3
*D9
  1

  0
LINE
  5
784
330
611
100
AcDbEntity
  8
AM_5
 62
     0
370
    -2
100
AcDbLine
 10
120.0000028647804
 20
60.65286696090577
 30
0.0
 11
120.0000028647804
 21
40.81250498175376
 31
0.0
  0
LINE
  5
785
330
611
100
AcDbEntity
  8
AM_5
 62
     0
370
    -2
100
AcDbLine
 10
-0.0000000000000001
 20
68.99999999999997
 30
0.0
 11
-0.0000000000000018
 21
40.81250498175376
 31
0.0
  0
LINE
  5
786
330
611
100
AcDbEntity
  8
AM_5
 62
     0
370
    -2
100
AcDbLine
 10
117.0000028647804
 20
42.81250498175376
 30
0.0
 11
2.999999999999998
 21
42.81250498175376
 31
0.0
  0
SOLID
  5
787
330
611
100
AcDbEntity
  8
AM_5
 62
     0
100
AcDbTrace
 10
117.0000028647804
 20
43.31250498175376
 30
0.0
 11
117.0000028647804
 21
42.31250498175376
 31
0.0
 12
120.0000028647804
 22
42.81250498175376
 32
0.0
 13
120.0000028647804
 23
42.81250498175376
 33
0.0
  0
SOLID
  5
788
330
611
100
AcDbEntity
  8
AM_5
 62
     0
100
AcDbTrace
 10
2.999999999999998
 20
43.31250498175376
 30
0.0
 11
2.999999999999998
 21
42.31250498175376
 31
0.0
 12
-0.0000000000000017
 22
42.81250498175376
 32
0.0
 13
-0.0000000000000017
 23
42.81250498175376
 33
0.0
  0
MTEXT
  5
789
330
611
100
AcDbEntity
  8
AM_5
 62
     0
100
AcDbMText
 10
60.00000143239018
 20
45.40250498175377
 30
0.0
 40
5.0
 41
0.0
 71
     5
 72
     1
  1
\A1;120
 73
     1
 44
1.0
  0
POINT
  5
78A
330
611
100
AcDbEntity
  8
DEFPOINTS
 62
     0
100
AcDbPoint
 10
120.0000028647804
 20
61.65286696090577
 30
0.0
  0
POINT
  5
78B
330
611
100
AcDbEntity
  8
DEFPOINTS
 62
     0
100
AcDbPoint
 10
0.0
 20
69.99999999999997
 30
0.0
  0
POINT
  5
78C
330
611
100
AcDbEntity
  8
DEFPOINTS
 62
     0
100
AcDbPoint
 10
-0.0000000000000017
 20
42.81250498175376
 30
0.0
  0
ENDBLK
  5
61C
330
611
100
AcDbEntity
  8
0
100
AcDbBlockEnd
  0
BLOCK
  5
640
330
635
100
AcDbEntity
  8
0
100
AcDbBlockBegin
  2
*D10
 70
     1
 71
     0
 10
0.0
 20
0.0
 30
0.0
  3
*D10
  1

  0
LINE
  5
78D
330
635
100
AcDbEntity
  8
AM_5
 62
     0
370
    -2
100
AcDbLine
 10
0.2842580263352943
 20
69.99999999999997
 30
0.0
 11
-16.74496912479611
 21
69.99999999999997
 31
0.0
  0
LINE
  5
78E
330
635
100
AcDbEntity
  8
AM_5
 62
     0
370
    -2
100
AcDbLine
 10
0.2842580263352943
 20
69.99999999999997
 30
0.0
 11
-16.74496912479611
 21
69.99999999999997
 31
0.0
  0
LINE
  5
78F
330
635
100
AcDbEntity
  8
AM_5
 62
     0
370
    -2
100
AcDbLine
 10
-14.74496912479612
 20
66.99999999999997
 30
0.0
 11
-14.74496912479612
 21
63.99999999999997
 31
0.0
  0
LINE
  5
790
330
635
100
AcDbEntity
  8
AM_5
 62
     0
370
    -2
100
AcDbLine
 10
-14.74496912479611
 20
72.99999999999997
 30
0.0
 11
-14.74496912479611
 21
78.67999999999998
 31
0.0
  0
SOLID
  5
791
330
635
100
AcDbEntity
  8
AM_5
 62
     0
100
AcDbTrace
 10
-15.24496912479612
 20
66.99999999999997
 30
0.0
 11
-14.24496912479612
 21
66.99999999999997
 31
0.0
 12
-14.74496912479611
 22
69.99999999999997
 32
0.0
 13
-14.74496912479611
 23
69.99999999999997
 33
0.0
  0
SOLID
  5
792
330
635
100
AcDbEntity
  8
AM_5
 62
     0
100
AcDbTrace
 10
-15.24496912479611
 20
72.99999999999997
 30
0.0
 11
-14.24496912479611
 21
72.99999999999997
 31
0.0
 12
-14.74496912479611
 22
69.99999999999997
 32
0.0
 13
-14.74496912479611
 23
69.99999999999997
 33
0.0
  0
MTEXT
  5
793
330
635
100
AcDbEntity
  8
AM_5
 62
     0
100
AcDbMText
 10
-17.33496912479613
 20
77.33999999999998
 30
0.0
 40
5.0
 41
0.0
 71
     5
 72
     1
  1
\A1;0
 11
6.123031769111886E-17
 21
1.0
 31
0.0
 73
     1
 44
1.0
  0
POINT
  5
794
330
635
100
AcDbEntity
  8
DEFPOINTS
 62
     0
100
AcDbPoint
 10
1.284258026335294
 20
69.99999999999997
 30
0.0
  0
POINT
  5
795
330
635
100
AcDbEntity
  8
DEFPOINTS
 62
     0
100
AcDbPoint
 10
1.284258026335294
 20
69.99999999999997
 30
0.0
  0
POINT
  5
796
330
635
100
AcDbEntity
  8
DEFPOINTS
 62
     0
100
AcDbPoint
 10
-14.74496912479611
 20
69.99999999999997
 30
0.0
  0
ENDBLK
  5
641
330
635
100
AcDbEntity
  8
0
100
AcDbBlockEnd
  0
BLOCK
  5
663
330
662
100
AcDbEntity
  8
0
100
AcDbBlockBegin
  2
_Open30
 70
     0
 71
     0
 10
0.0
 20
0.0
 30
0.0
  3
_Open30
  1

  0
LINE
  5
664
330
662
100
AcDbEntity
  8
0
 62
     0
370
    -2
100
AcDbLine
 10
-1.0
 20
0.26794919
 30
0.0
 11
0.0
 21
0.0
 31
0.0
  0
LINE
  5
665
330
662
100
AcDbEntity
  8
0
 62
     0
370
    -2
100
AcDbLine
 10
0.0
 20
0.0
 30
0.0
 11
-1.0
 21
-0.26794919
 31
0.0
  0
LINE
  5
666
330
662
100
AcDbEntity
  8
0
 62
     0
370
    -2
100
AcDbLine
 10
0.0
 20
0.0
 30
0.0
 11
-1.0
 21
0.0
 31
0.0
  0
ENDBLK
  5
667
330
662
100
AcDbEntity
  8
0
100
AcDbBlockEnd
  0
ENDSEC
  0
SECTION
  2
ENTITIES
  0
LINE
  5
1E6
330
22
100
AcDbEntity
  8
1
  6
CENTER
100
AcDbLine
 10
22.49016189575201
 20
-6.000000000000028
 30
0.0
 11
121.9901580810547
 21
-6.000000000000028
 31
0.0
  0
LINE
  5
1E7
330
22
100
AcDbEntity
  8
1
  6
CENTER
100
AcDbLine
 10
73.2901611328125
 20
5.432118892669678
 30
0.0
 11
73.2901611328125
 21
-17.56896209716805
 31
0.0
  0
LINE
  5
1E8
330
22
100
AcDbEntity
  8
1
  6
Continuous
100
AcDbLine
 10
120.0
 20
4.024999999999977
 30
0.0
 11
120.0
 21
-16.02500000000003
 31
0.0
  0
LINE
  5
1E9
330
22
100
AcDbEntity
  8
1
  6
Continuous
100
AcDbLine
 10
119.0
 20
4.499999999999972
 30
0.0
 11
119.0
 21
-2.721280737849043
 31
0.0
  0
LINE
  5
1EA
330
22
100
AcDbEntity
  8
1
  6
Continuous
100
AcDbLine
 10
119.0
 20
-9.278719262151043
 30
0.0
 11
119.0
 21
-16.50000000000003
 31
0.0
  0
LINE
  5
1EB
330
22
100
AcDbEntity
  8
1
  6
PHANTOM
100
AcDbLine
 10
22.49016094580293
 20
-17.00000000000003
 30
0.0
 11
119.0
 21
-17.00000000000003
 31
0.0
  0
LINE
  5
1EC
330
22
100
AcDbEntity
  8
1
  6
Continuous
100
AcDbLine
 10
23.52500064951886
 20
-16.50000000000003
 30
0.0
 11
23.52500064951886
 21
-9.278719262151014
 31
0.0
  0
LINE
  5
1ED
330
22
100
AcDbEntity
  8
1
  6
Continuous
100
AcDbLine
 10
23.52500064951886
 20
-2.721280737849043
 30
0.0
 11
23.52500064951886
 21
4.499999999999972
 31
0.0
  0
LINE
  5
1EE
330
22
100
AcDbEntity
  8
1
  6
Continuous
100
AcDbLine
 10
22.50000190734858
 20
-16.00000000000003
 30
0.0
 11
22.50000190734858
 21
3.999999999999972
 31
0.0
  0
LINE
  5
1EF
330
22
100
AcDbEntity
  8
1
  6
Continuous
100
AcDbLine
 10
14.99999999996777
 20
-15.01310759635982
 30
0.0
 11
14.99999999996777
 21
-1.999999552965221
 31
0.0
  0
LINE
  5
1FD
330
22
100
AcDbEntity
  8
1
  6
Continuous
100
AcDbLine
 10
10.22064251854221
 20
-10.43731260671004
 30
0.0
 11
0.9901337291028085
 21
-9.629747729057726
 31
0.0
  0
LINE
  5
1FE
330
22
100
AcDbEntity
  8
1
  6
Continuous
100
AcDbLine
 10
10.43731260671001
 20
-10.22064251854212
 30
0.0
 11
9.629747729057669
 21
-0.9901337291028369
 31
0.0
  0
LINE
  5
1FF
330
22
100
AcDbEntity
  8
1
  6
Continuous
100
AcDbLine
 10
9.447939937988906
 20
-0.8083259380340166
 30
0.0
 11
0.2174311485495082
 21
-0.0007610603816204
 31
0.0
  0
LINE
  5
200
330
22
100
AcDbEntity
  8
1
  6
Continuous
100
AcDbLine
 10
0.0007610603817056
 20
-0.2174311485495366
 30
0.0
 11
0.8083259380339882
 21
-9.447939937988821
 31
0.0
  0
CIRCLE
  5
201
330
22
100
AcDbEntity
  8
1
  6
Continuous
100
AcDbCircle
 10
5.219036833545772
 20
-5.2190368335458
 30
0.0
 40
3.0
  0
ARC
  5
202
330
22
100
AcDbEntity
  8
1
  6
Continuous
100
AcDbCircle
 10
0.1999999999999886
 20
-0.1999999999999886
 30
0.0
 40
0.2000000000000005
100
AcDbArc
 50
84.99999999999939
 51
184.9999999999998
  0
ARC
  5
203
330
22
100
AcDbEntity
  8
1
  6
Continuous
100
AcDbCircle
 10
9.43050878943933
 20
-1.0075648776523
 30
0.0
 40
0.1999999999999995
100
AcDbArc
 50
5.000000000000062
 51
84.99999999999994
  0
ARC
  5
204
330
22
100
AcDbEntity
  8
1
  6
Continuous
100
AcDbCircle
 10
10.23807366709167
 20
-10.2380736670917
 30
0.0
 40
0.1999999999999995
100
AcDbArc
 50
265.0000000000004
 51
5.000000000000062
  0
ARC
  5
205
330
22
100
AcDbEntity
  8
1
  6
Continuous
100
AcDbCircle
 10
1.007564877652385
 20
-9.430508789439301
 30
0.0
 40
0.1999999999999995
100
AcDbArc
 50
185.0000000000006
 51
264.9999999999997
  0
INSERT
  5
206
330
22
100
AcDbEntity
  8
1
  6
Continuous
100
AcDbBlockReference
  2
LRIS-4-1_0001
 10
5.289747221806067
 20
-5.289747221806096
 30
0.0
  0
LINE
  5
207
330
22
100
AcDbEntity
  8
1
  6
Continuous
100
AcDbLine
 10
11.39948002069309
 20
-1.480973490458723
 30
0.0
 11
9.659371389021146
 21
-1.328733711883814
 31
0.0
  0
LINE
  5
208
330
22
100
AcDbEntity
  8
1
  6
Continuous
100
AcDbLine
 10
1.328733711883785
 20
-9.659371389021118
 30
0.0
 11
1.796311092225039
 21
-15.00380530190833
 31
0.0
  0
ARC
  5
209
330
22
100
AcDbEntity
  8
1
  6
Continuous
100
AcDbCircle
 10
9.356904847986982
 20
-9.356904847987011
 30
0.0
 40
1.999999999999546
100
AcDbArc
 50
225.0000000000004
 51
44.99999999999952
  0
LINE
  5
20A
330
22
100
AcDbEntity
  8
1
  6
Continuous
100
AcDbLine
 10
10.7711184103598
 20
-7.942691285614217
 30
0.0
 11
10.18690570933649
 21
-7.35847858459104
 31
0.0
  0
LINE
  5
20B
330
22
100
AcDbEntity
  8
1
  6
Continuous
100
AcDbLine
 10
7.94269128561433
 20
-10.77111841035983
 30
0.0
 11
7.358478584590955
 21
-10.18690570933651
 31
0.0
  0
LINE
  5
20C
330
22
100
AcDbEntity
  8
1
  6
Continuous
100
AcDbLine
 10
11.83525873443142
 20
-1.500000000000028
 30
0.0
 11
16.42928578572861
 21
-1.500000000000028
 31
0.0
  0
ARC
  5
20D
330
22
100
AcDbEntity
  8
1
  6
Continuous
100
AcDbCircle
 10
11.83525873443142
 20
3.5
 30
0.0
 40
5.000000000000001
100
AcDbArc
 50
265.0
 51
270.0
  0
ARC
  5
20F
330
22
100
AcDbEntity
  8
1
  6
Continuous
100
AcDbCircle
 10
16.42928578572861
 20
3.5
 30
0.0
 40
5.0
100
AcDbArc
 50
270.0
 51
335.0000000000001
  0
LINE
  5
210
330
22
100
AcDbEntity
  8
1
  6
Continuous
100
AcDbLine
 10
22.17932920961852
 20
3.999999999999972
 30
0.0
 11
20.96082472091183
 21
1.386908691296469
 31
0.0
  0
ARC
  5
214
330
22
100
AcDbEntity
  8
1
  6
Continuous
100
AcDbCircle
 10
73.2901611328125
 20
-6.000000000000028
 30
0.0
 40
11.0
100
AcDbArc
 50
17.34144280275975
 51
72.65855719724024
  0
ARC
  5
215
330
22
100
AcDbEntity
  8
1
  6
Continuous
100
AcDbCircle
 10
73.2901611328125
 20
-6.000000000000028
 30
0.0
 40
11.0
100
AcDbArc
 50
107.3414428027598
 51
162.6585571972402
  0
ARC
  5
216
330
22
100
AcDbEntity
  8
1
  6
Continuous
100
AcDbCircle
 10
73.2901611328125
 20
-6.000000000000028
 30
0.0
 40
11.0
100
AcDbArc
 50
197.3414428027598
 51
252.6585571972402
  0
ARC
  5
217
330
22
100
AcDbEntity
  8
1
  6
Continuous
100
AcDbCircle
 10
73.2901611328125
 20
-6.000000000000028
 30
0.0
 40
11.0
100
AcDbArc
 50
287.3414428027597
 51
342.6585571972401
  0
LINE
  5
218
330
22
100
AcDbEntity
  8
1
  6
Continuous
100
AcDbLine
 10
23.00000190734858
 20
-16.50000000000003
 30
0.0
 11
119.525
 21
-16.50000000000003
 31
0.0
  0
LINE
  5
219
330
22
100
AcDbEntity
  8
1
  6
Continuous
100
AcDbLine
 10
23.00000190734858
 20
4.499999999999972
 30
0.0
 11
119.525
 21
4.499999999999972
 31
0.0
  0
LINE
  5
21A
330
22
100
AcDbEntity
  8
1
  6
PHANTOM
100
AcDbLine
 10
22.49016094580293
 20
4.999999999999972
 30
0.0
 11
119.0
 21
4.999999999999972
 31
0.0
  0
LINE
  5
21B
330
22
100
AcDbEntity
  8
1
  6
Continuous
100
AcDbLine
 10
62.7901611328125
 20
-2.721280737849043
 30
0.0
 11
62.7901611328125
 21
-9.278719262151014
 31
0.0
  0
LINE
  5
21C
330
22
100
AcDbEntity
  8
1
  6
Continuous
100
AcDbLine
 10
83.7901611328125
 20
-2.721280737849043
 30
0.0
 11
83.7901611328125
 21
-9.278719262151043
 31
0.0
  0
LINE
  5
21D
330
22
100
AcDbEntity
  8
1
  6
Continuous
100
AcDbLine
 10
23.52500064951886
 20
-2.721280737849043
 30
0.0
 11
119.0
 21
-2.721280737849043
 31
0.0
  0
LINE
  5
21E
330
22
100
AcDbEntity
  8
1
  6
Continuous
100
AcDbLine
 10
23.52500064951886
 20
-9.278719262151014
 30
0.0
 11
119.0
 21
-9.278719262151043
 31
0.0
  0
ARC
  5
21F
330
22
100
AcDbEntity
  8
1
  6
Continuous
100
AcDbCircle
 10
108.5
 20
-6.000000000000028
 30
0.0
 40
11.0
100
AcDbArc
 50
342.6585571972401
 51
17.34144280275975
  0
LINE
  5
220
330
22
100
AcDbEntity
  8
1
  6
Continuous
100
AcDbLine
 10
22.17932920961852
 20
3.999999999999972
 30
0.0
 11
22.50000190734858
 21
3.999999999999972
 31
0.0
  0
LINE
  5
221
330
22
100
AcDbEntity
  8
1
  6
Continuous
100
AcDbLine
 10
23.00000190734858
 20
4.499999999999972
 30
0.0
 11
22.50000190734858
 21
3.999999999999972
 31
0.0
  0
ARC
  5
222
330
22
100
AcDbEntity
  8
1
  6
Continuous
100
AcDbCircle
 10
34.02500064951903
 20
-6.000000000000028
 30
0.0
 40
11.0
100
AcDbArc
 50
162.6585571972402
 51
197.3414428027598
  0
LINE
  5
223
330
22
100
AcDbEntity
  8
1
  6
Continuous
100
AcDbLine
 10
2.88346683497258
 20
-16.00000000000003
 30
0.0
 11
22.50000190734858
 21
-16.00000000000003
 31
0.0
  0
LINE
  5
224
330
22
100
AcDbEntity
  8
1
  6
Continuous
100
AcDbLine
 10
1.796311092225039
 20
-15.00380530190833
 30
0.0
 11
2.88346683497258
 21
-16.00000000000003
 31
0.0
  0
LINE
  5
225
330
22
100
AcDbEntity
  8
1
  6
Continuous
100
AcDbLine
 10
23.00000190734858
 20
-16.50000000000003
 30
0.0
 11
22.50000190734858
 21
-16.00000000000003
 31
0.0
  0
LINE
  5
228
330
22
100
AcDbEntity
  8
1
  6
Continuous
100
AcDbLine
 10
119.525
 20
-16.50000000000003
 30
0.0
 11
120.0
 21
-16.02500000000003
 31
0.0
  0
LINE
  5
229
330
22
100
AcDbEntity
  8
1
  6
Continuous
100
AcDbLine
 10
120.0
 20
4.024999999999977
 30
0.0
 11
119.525
 21
4.499999999999972
 31
0.0
  0
POLYLINE
  5
22B
330
22
100
AcDbEntity
  8
1
  6
Continuous
100
AcDb2dPolyline
 66
     1
 10
0.0
 20
0.0
 30
0.0
  0
VERTEX
  5
22C
330
22B
100
AcDbEntity
  8
1
  6
Continuous
100
AcDbVertex
100
AcDb2dVertex
 10
19.80296888458753
 20
-6.0000000306581
 30
0.0
  0
VERTEX
  5
22D
330
22B
100
AcDbEntity
  8
1
  6
Continuous
100
AcDbVertex
100
AcDb2dVertex
 10
19.75833842646836
 20
-4.610855769712799
 30
0.0
  0
VERTEX
  5
22E
330
22B
100
AcDbEntity
  8
1
  6
Continuous
100
AcDbVertex
100
AcDb2dVertex
 10
19.62506507183679
 20
-3.254783939187092
 30
0.0
  0
VERTEX
  5
22F
330
22B
100
AcDbEntity
  8
1
  6
Continuous
100
AcDbVertex
100
AcDb2dVertex
 10
19.40510791266939
 20
-1.951988251649397
 30
0.0
  0
VERTEX
  5
230
330
22B
100
AcDbEntity
  8
1
  6
Continuous
100
AcDbVertex
100
AcDb2dVertex
 10
19.10232574708238
 20
-0.7255008419128046
 30
0.0
  0
SEQEND
  5
231
330
22B
100
AcDbEntity
  8
1
  0
POLYLINE
  5
232
330
22
100
AcDbEntity
  8
1
  6
Continuous
100
AcDb2dPolyline
 66
     1
 10
0.0
 20
0.0
 30
0.0
  0
VERTEX
  5
233
330
232
100
AcDbEntity
  8
1
  6
Continuous
100
AcDbVertex
100
AcDb2dVertex
 10
15.13952318370713
 20
-16.00000000000003
 30
0.0
  0
VERTEX
  5
234
330
232
100
AcDbEntity
  8
1
  6
Continuous
100
AcDbVertex
100
AcDb2dVertex
 10
15.13956932325806
 20
-16.00000000718549
 30
0.0
  0
VERTEX
  5
235
330
232
100
AcDbEntity
  8
1
  6
Continuous
100
AcDbVertex
100
AcDb2dVertex
 10
15.13961546291358
 20
-16.00000001341292
 30
0.0
  0
VERTEX
  5
236
330
232
100
AcDbEntity
  8
1
  6
Continuous
100
AcDbVertex
100
AcDb2dVertex
 10
15.1396616026733
 20
-16.00000001868222
 30
0.0
  0
VERTEX
  5
237
330
232
100
AcDbEntity
  8
1
  6
Continuous
100
AcDbVertex
100
AcDb2dVertex
 10
15.1397077425375
 20
-16.00000002299362
 30
0.0
  0
VERTEX
  5
238
330
232
100
AcDbEntity
  8
1
  6
Continuous
100
AcDbVertex
100
AcDb2dVertex
 10
15.13975388250589
 20
-16.00000002634681
 30
0.0
  0
VERTEX
  5
239
330
232
100
AcDbEntity
  8
1
  6
Continuous
100
AcDbVertex
100
AcDb2dVertex
 10
15.13980002257881
 20
-16.00000002874202
 30
0.0
  0
VERTEX
  5
23A
330
232
100
AcDbEntity
  8
1
  6
Continuous
100
AcDbVertex
100
AcDb2dVertex
 10
15.13984616275599
 20
-16.00000003017911
 30
0.0
  0
VERTEX
  5
23B
330
232
100
AcDbEntity
  8
1
  6
Continuous
100
AcDbVertex
100
AcDb2dVertex
 10
15.13989230303747
 20
-16.0000000306581
 30
0.0
  0
VERTEX
  5
23C
330
232
100
AcDbEntity
  8
1
  6
Continuous
100
AcDbVertex
100
AcDb2dVertex
 10
16.05079343499648
 20
-15.809300556056
 30
0.0
  0
VERTEX
  5
23D
330
232
100
AcDbEntity
  8
1
  6
Continuous
100
AcDbVertex
100
AcDb2dVertex
 10
16.92314489597959
 20
-15.2427202767901
 30
0.0
  0
VERTEX
  5
23E
330
232
100
AcDbEntity
  8
1
  6
Continuous
100
AcDbVertex
100
AcDb2dVertex
 10
18.43718537504367
 20
-13.0710678425236
 30
0.0
  0
VERTEX
  5
23F
330
232
100
AcDbEntity
  8
1
  6
Continuous
100
AcDbVertex
100
AcDb2dVertex
 10
19.44984353599307
 20
-9.824197557239103
 30
0.0
  0
VERTEX
  5
240
330
232
100
AcDbEntity
  8
1
  6
Continuous
100
AcDbVertex
100
AcDb2dVertex
 10
19.80296888458753
 20
-6.0000000306581
 30
0.0
  0
SEQEND
  5
241
330
232
100
AcDbEntity
  8
1
  0
LINE
  5
242
330
22
100
AcDbEntity
  8
2
  6
Continuous
100
AcDbLine
 10
9.622110366821346
 20
70.30000001192087
 30
0.0
 11
14.3629293441773
 21
70.30000001192087
 31
0.0
  0
LINE
  5
243
330
22
100
AcDbEntity
  8
2
  6
Continuous
100
AcDbLine
 10
0.0000000000322302
 20
69.99999999999997
 30
0.0
 11
10.43807411193853
 21
69.99999999999997
 31
0.0
  0
LINE
  5
244
330
22
100
AcDbEntity
  8
2
  6
Continuous
100
AcDbLine
 10
0.8140226602553753
 20
73.97000002861017
 30
0.0
 11
0.8374323844910236
 21
73.97000002861017
 31
0.0
  0
LINE
  5
245
330
22
100
AcDbEntity
  8
2
  6
CENTER
100
AcDbLine
 10
5.28974723815918
 20
68.75899302959439
 30
0.0
 11
5.28974723815918
 21
79.78075027465818
 31
0.0
  0
LINE
  5
246
330
22
100
AcDbEntity
  8
2
  6
CENTER
100
AcDbLine
 10
121.9901609458351
 20
69.99999999999996
 30
0.0
 11
19.99016094583504
 21
69.99999999999997
 31
0.0
  0
LINE
  5
251
330
22
100
AcDbEntity
  8
2
  6
Continuous
100
AcDbLine
 10
19.80296888458753
 20
59.99999999999997
 30
0.0
 11
15.26923752626141
 21
69.72261827366154
 31
0.0
  0
ARC
  5
252
330
22
100
AcDbEntity
  8
2
  6
Continuous
100
AcDbCircle
 10
14.36292973922474
 20
69.30000001192087
 30
0.0
 40
1.0
100
AcDbArc
 50
25.00000000000015
 51
90.0
  0
LINE
  5
253
330
22
100
AcDbEntity
  8
2
  6
Continuous
100
AcDbLine
 10
22.50000095743184
 20
79.99999999999997
 30
0.0
 11
22.50000095743184
 21
59.99999999999997
 31
0.0
  0
LINE
  5
254
330
22
100
AcDbEntity
  8
2
  6
Continuous
100
AcDbLine
 10
0.0
 20
69.99999999999997
 30
0.0
 11
0.5500448013265782
 21
73.96999999999997
 31
0.0
  0
LINE
  5
255
330
22
100
AcDbEntity
  8
2
  6
Continuous
100
AcDbLine
 10
120.0000028647804
 20
80.02499999999998
 30
0.0
 11
120.0000028647804
 21
59.97499999999995
 31
0.0
  0
LINE
  5
256
330
22
100
AcDbEntity
  8
2
  6
Continuous
100
AcDbLine
 10
119.0000028647804
 20
80.49999999999997
 30
0.0
 11
119.0000028647804
 21
73.27849999999997
 31
0.0
  0
LINE
  5
257
330
22
100
AcDbEntity
  8
2
  6
Continuous
100
AcDbLine
 10
119.0000028647804
 20
66.72149999999995
 30
0.0
 11
119.0000028647804
 21
59.49999999999996
 31
0.0
  0
LINE
  5
258
330
22
100
AcDbEntity
  8
2
  6
Continuous
100
AcDbLine
 10
0.5397439033770866
 20
73.96999999999997
 30
0.0
 11
9.363705346411393
 21
73.96999999999997
 31
0.0
  0
LINE
  5
259
330
22
100
AcDbEntity
  8
2
  6
Continuous
100
AcDbLine
 10
0.5397439033770866
 20
79.99999999999997
 30
0.0
 11
0.5397439033770866
 21
73.96999999999997
 31
0.0
  0
LINE
  5
25A
330
22
100
AcDbEntity
  8
2
  6
Continuous
100
AcDbLine
 10
10.40123829735711
 20
70.30000001192087
 30
0.0
 11
10.43807366709171
 21
69.99999999999997
 31
0.0
  0
LINE
  5
25B
330
22
100
AcDbEntity
  8
2
  6
Continuous
100
AcDbLine
 10
9.352586840802417
 20
73.96999999999997
 30
0.0
 11
9.352586840802417
 21
72.46999999999997
 31
0.0
  0
LINE
  5
25C
330
22
100
AcDbEntity
  8
2
  6
Continuous
100
AcDbLine
 10
9.62211010786092
 20
70.30000001192087
 30
0.0
 11
9.352586840802417
 21
72.46999999999997
 31
0.0
  0
LINE
  5
25D
330
22
100
AcDbEntity
  8
2
  6
Continuous
100
AcDbLine
 10
11.61695401988879
 20
77.60636065794867
 30
0.0
 11
11.61695401988879
 21
71.15604236940916
 31
0.0
  0
LINE
  5
25E
330
22
100
AcDbEntity
  8
2
  6
Continuous
100
AcDbLine
 10
119.5250028647803
 20
80.49999999999997
 30
0.0
 11
23.00000095743184
 21
80.49999999999997
 31
0.0
  0
LINE
  5
25F
330
22
100
AcDbEntity
  8
2
  6
Continuous
100
AcDbLine
 10
119.5250028647803
 20
59.49999999999996
 30
0.0
 11
23.00000095743184
 21
59.49999999999997
 31
0.0
  0
LINE
  5
260
330
22
100
AcDbEntity
  8
2
  6
Continuous
100
AcDbLine
 10
120.0000028647804
 20
59.97499999999995
 30
0.0
 11
119.5250028647803
 21
59.49999999999996
 31
0.0
  0
LINE
  5
261
330
22
100
AcDbEntity
  8
2
  6
Continuous
100
AcDbLine
 10
120.0000028647804
 20
80.02499999999998
 30
0.0
 11
119.5250028647803
 21
80.49999999999997
 31
0.0
  0
LINE
  5
262
330
22
100
AcDbEntity
  8
2
  6
Continuous
100
AcDbLine
 10
119.0000028647804
 20
73.27849999999997
 30
0.0
 11
23.5250005979413
 21
73.27849999999998
 31
0.0
  0
LINE
  5
263
330
22
100
AcDbEntity
  8
2
  6
Continuous
100
AcDbLine
 10
119.0000028647804
 20
66.72149999999995
 30
0.0
 11
23.5250005979413
 21
66.72149999999996
 31
0.0
  0
ARC
  5
264
330
22
100
AcDbEntity
  8
2
  6
Continuous
100
AcDbCircle
 10
109.0257769123999
 20
69.99999999999997
 30
0.0
 40
10.49922595238057
100
AcDbArc
 50
341.804451277854
 51
18.19554872214614
  0
ARC
  5
265
330
22
100
AcDbEntity
  8
2
  6
Continuous
100
AcDbCircle
 10
33.49922655032242
 20
69.99999999999997
 30
0.0
 40
10.49922595238111
100
AcDbArc
 50
161.8044512778548
 51
198.1955487221451
  0
LINE
  5
266
330
22
100
AcDbEntity
  8
2
  6
Continuous
100
AcDbLine
 10
22.50000095743184
 20
59.99999999999997
 30
0.0
 11
19.80296888458753
 21
59.99999999999997
 31
0.0
  0
LINE
  5
267
330
22
100
AcDbEntity
  8
2
  6
Continuous
100
AcDbLine
 10
22.50000095743184
 20
79.99999999999997
 30
0.0
 11
0.5397439033770866
 21
79.99999999999997
 31
0.0
  0
LINE
  5
268
330
22
100
AcDbEntity
  8
2
  6
Continuous
100
AcDbLine
 10
23.00000095743184
 20
59.49999999999997
 30
0.0
 11
22.50000095743184
 21
59.99999999999997
 31
0.0
  0
LINE
  5
269
330
22
100
AcDbEntity
  8
2
  6
Continuous
100
AcDbLine
 10
23.5250005979413
 20
59.49999999999997
 30
0.0
 11
23.5250005979413
 21
66.72149999999996
 31
0.0
  0
LINE
  5
26A
330
22
100
AcDbEntity
  8
2
  6
Continuous
100
AcDbLine
 10
23.5250005979413
 20
73.27849999999998
 30
0.0
 11
23.5250005979413
 21
80.49999999999997
 31
0.0
  0
LINE
  5
26B
330
22
100
AcDbEntity
  8
2
  6
Continuous
100
AcDbLine
 10
23.00000095743184
 20
80.49999999999997
 30
0.0
 11
22.50000095743184
 21
79.99999999999997
 31
0.0
  0
POLYLINE
  5
26C
330
22
100
AcDbEntity
  8
2
  6
Continuous
100
AcDb2dPolyline
 66
     1
 10
0.0
 20
0.0
 30
0.0
  0
VERTEX
  5
26D
330
26C
100
AcDbEntity
  8
2
  6
Continuous
100
AcDbVertex
100
AcDb2dVertex
 10
22.1793291953224
 20
69.99999999999997
 30
0.0
  0
VERTEX
  5
26E
330
26C
100
AcDbEntity
  8
2
  6
Continuous
100
AcDbVertex
100
AcDb2dVertex
 10
22.1289626936844
 20
71.47492642771329
 30
0.0
  0
VERTEX
  5
26F
330
26C
100
AcDbEntity
  8
2
  6
Continuous
100
AcDbVertex
100
AcDb2dVertex
 10
21.9786560859946
 20
72.91112339653526
 30
0.0
  0
VERTEX
  5
270
330
26C
100
AcDbEntity
  8
2
  6
Continuous
100
AcDbVertex
100
AcDb2dVertex
 10
21.73093063157262
 20
74.28416375940915
 30
0.0
  0
VERTEX
  5
271
330
26C
100
AcDbEntity
  8
2
  6
Continuous
100
AcDbVertex
100
AcDb2dVertex
 10
21.39077489675651
 20
75.56617280872479
 30
0.0
  0
SEQEND
  5
272
330
26C
100
AcDbEntity
  8
2
  0
POLYLINE
  5
273
330
22
100
AcDbEntity
  8
2
  6
Continuous
100
AcDb2dPolyline
 66
     1
 10
0.0
 20
0.0
 30
0.0
  0
VERTEX
  5
274
330
273
100
AcDbEntity
  8
2
  6
Continuous
100
AcDbVertex
100
AcDb2dVertex
 10
21.11124206164982
 20
63.63059106051416
 30
0.0
  0
VERTEX
  5
275
330
273
100
AcDbEntity
  8
2
  6
Continuous
100
AcDbVertex
100
AcDb2dVertex
 10
21.35463276894609
 20
64.32005345476549
 30
0.0
  0
VERTEX
  5
276
330
273
100
AcDbEntity
  8
2
  6
Continuous
100
AcDbVertex
100
AcDb2dVertex
 10
21.56918460992341
 20
65.05110659068336
 30
0.0
  0
VERTEX
  5
277
330
273
100
AcDbEntity
  8
2
  6
Continuous
100
AcDbVertex
100
AcDb2dVertex
 10
21.90549320528538
 20
66.61555104939507
 30
0.0
  0
VERTEX
  5
278
330
273
100
AcDbEntity
  8
2
  6
Continuous
100
AcDbVertex
100
AcDb2dVertex
 10
22.11049210161724
 20
68.27849489004308
 30
0.0
  0
VERTEX
  5
279
330
273
100
AcDbEntity
  8
2
  6
Continuous
100
AcDbVertex
100
AcDb2dVertex
 10
22.1793291953224
 20
69.99999999999997
 30
0.0
  0
SEQEND
  5
27A
330
273
100
AcDbEntity
  8
2
  0
LINE
  5
27B
330
22
100
AcDbEntity
  8
2
  6
Continuous
100
AcDbLine
 10
17.57339743985693
 20
78.37133836347547
 30
0.0
 11
11.61695401988879
 21
78.37133836347547
 31
0.0
  0
ARC
  5
27C
330
22
100
AcDbEntity
  8
2
  6
Continuous
100
AcDbCircle
 10
17.57339743985693
 20
74.37133836347547
 30
0.0
 40
4.0
100
AcDbArc
 50
17.38005250578287
 51
90.0
  0
ARC
  5
27D
330
22
100
AcDbEntity
  8
2
  6
Continuous
100
AcDbCircle
 10
17.37920482912813
 20
65.06999999999997
 30
0.0
 40
4.0
100
AcDbArc
 50
295.7735401622688
 51
338.908872829159
  0
LINE
  5
27E
330
22
100
AcDbEntity
  8
2
  6
Continuous
100
AcDbLine
 10
11.61695401988879
 20
78.37133836347547
 30
0.0
 11
0.5397439033770866
 21
77.76539830418756
 31
0.0
  0
LINE
  5
305
330
22
100
AcDbEntity
  8
6
  6
Continuous
100
AcDbLine
 10
-49.99999999999994
 20
-10.43807411193851
 30
0.0
 11
-49.99999999999994
 21
0.0
 31
0.0
  0
LINE
  5
306
330
22
100
AcDbEntity
  8
6
  6
Continuous
100
AcDbLine
 10
-50.30000001192087
 20
-9.622110366821289
 30
0.0
 11
-50.30000001192087
 21
-15.99549865722662
 31
0.0
  0
LINE
  5
307
330
22
100
AcDbEntity
  8
6
  6
CENTER
100
AcDbLine
 10
-49.4224202036857
 20
-5.289747238159208
 30
0.0
 11
-59.99999999999994
 21
-5.289747238159208
 31
0.0
  0
LINE
  5
308
330
22
100
AcDbEntity
  8
6
  6
CENTER
100
AcDbLine
 10
-49.99999999999994
 20
5.0859246253967
 30
0.0
 11
-49.99999999999994
 21
-17.0000019073486
 31
0.0
  0
LINE
  5
309
330
22
100
AcDbEntity
  8
6
  6
CENTER
100
AcDbLine
 10
-62.38348770141596
 20
-6.0000000306581
 30
0.0
 11
-38.99999999999994
 21
-6.000000030658129
 31
0.0
  0
LINE
  5
30A
330
22
100
AcDbEntity
  8
6
  6
Continuous
100
AcDbLine
 10
-53.96999999999997
 20
-9.352586840802417
 30
0.0
 11
-53.96999999999997
 21
-0.4874547067844901
 31
0.0
  0
LINE
  5
30B
330
22
100
AcDbEntity
  8
6
  6
Continuous
100
AcDbLine
 10
-49.99999999999994
 20
0.0
 30
0.0
 11
-53.96999999999997
 21
-0.4874547067844901
 31
0.0
  0
LINE
  5
30C
330
22
100
AcDbEntity
  8
6
  6
Continuous
100
AcDbLine
 10
-49.99999999999994
 20
-10.43807366709171
 30
0.0
 11
-50.30000001192087
 21
-10.40123829735711
 31
0.0
  0
LINE
  5
30D
330
22
100
AcDbEntity
  8
6
  6
Continuous
100
AcDbLine
 10
-49.99999999999994
 20
-9.61512125873881
 30
0.0
 11
-53.96999999999997
 21
-9.127666551954206
 31
0.0
  0
LINE
  5
30E
330
22
100
AcDbEntity
  8
6
  6
Continuous
100
AcDbLine
 10
-53.96999999999997
 20
-9.352586840802417
 30
0.0
 11
-52.46999999999997
 21
-9.352586840802417
 31
0.0
  0
LINE
  5
30F
330
22
100
AcDbEntity
  8
6
  6
Continuous
100
AcDbLine
 10
-50.30000001192087
 20
-9.62211010786092
 30
0.0
 11
-52.46999999999997
 21
-9.352586840802417
 31
0.0
  0
LINE
  5
310
330
22
100
AcDbEntity
  8
6
  6
Continuous
100
AcDbLine
 10
-58.37133836347533
 20
-0.5300188602879246
 30
0.0
 11
-53.96999999999997
 21
-0.5300188602879246
 31
0.0
  0
POLYLINE
  5
311
330
22
100
AcDbEntity
  8
6
  6
Continuous
100
AcDb2dPolyline
 66
     1
 10
0.0
 20
0.0
 30
0.0
  0
VERTEX
  5
312
330
311
100
AcDbEntity
  8
6
  6
Continuous
100
AcDbVertex
100
AcDb2dVertex
 10
-41.50389038248792
 20
-0.7259009258611968
 30
0.0
  0
VERTEX
  5
313
330
311
100
AcDbEntity
  8
6
  6
Continuous
100
AcDbVertex
100
AcDb2dVertex
 10
-42.83487662499383
 20
-1.059719366558994
 30
0.0
  0
VERTEX
  5
314
330
311
100
AcDbEntity
  8
6
  6
Continuous
100
AcDbVertex
100
AcDb2dVertex
 10
-44.25229306978937
 20
-1.302864536319106
 30
0.0
  0
VERTEX
  5
315
330
311
100
AcDbEntity
  8
6
  6
Continuous
100
AcDbVertex
100
AcDb2dVertex
 10
-45.72782041737102
 20
-1.450505160855414
 30
0.0
  0
VERTEX
  5
316
330
311
100
AcDbEntity
  8
6
  6
Continuous
100
AcDbVertex
100
AcDb2dVertex
 10
-47.23488675311054
 20
-1.5
 30
0.0
  0
SEQEND
  5
317
330
311
100
AcDbEntity
  8
6
  0
LINE
  5
318
330
22
100
AcDbEntity
  8
6
  6
Continuous
100
AcDbLine
 10
-49.99999999999994
 20
-1.5
 30
0.0
 11
-47.23488675310904
 21
-1.5
 31
0.0
  0
LINE
  5
319
330
22
100
AcDbEntity
  8
6
  6
Continuous
100
AcDbLine
 10
-56.61437881931425
 20
-13.49999955296522
 30
0.0
 11
-50.30000001192087
 21
-13.49999955296522
 31
0.0
  0
ARC
  5
31A
330
22
100
AcDbEntity
  8
6
  6
Continuous
100
AcDbCircle
 10
-49.99999999999997
 20
-6.0000000306581
 30
0.0
 40
11.0
100
AcDbArc
 50
17.34144280275975
 51
72.65855719724024
  0
ARC
  5
31B
330
22
100
AcDbEntity
  8
6
  6
Continuous
100
AcDbCircle
 10
-49.99999999999997
 20
-6.0000000306581
 30
0.0
 40
11.0
100
AcDbArc
 50
107.3414428027598
 51
162.6585571972402
  0
ARC
  5
31C
330
22
100
AcDbEntity
  8
6
  6
Continuous
100
AcDbCircle
 10
-49.99999999999997
 20
-6.0000000306581
 30
0.0
 40
11.0
100
AcDbArc
 50
197.3414428027598
 51
252.6585571972402
  0
ARC
  5
31D
330
22
100
AcDbEntity
  8
6
  6
Continuous
100
AcDbCircle
 10
-49.99999999999997
 20
-6.0000000306581
 30
0.0
 40
11.0
100
AcDbArc
 50
287.3414428027597
 51
342.6585571972401
  0
LINE
  5
31E
330
22
100
AcDbEntity
  8
6
  6
Continuous
100
AcDbLine
 10
-53.27871926215101
 20
-16.5000000306581
 30
0.0
 11
-46.72128073784899
 21
-16.5000000306581
 31
0.0
  0
LINE
  5
31F
330
22
100
AcDbEntity
  8
6
  6
Continuous
100
AcDbLine
 10
-39.49999999999994
 20
-9.278719292809114
 30
0.0
 11
-39.49999999999994
 21
-2.721280768507114
 31
0.0
  0
LINE
  5
320
330
22
100
AcDbEntity
  8
6
  6
Continuous
100
AcDbLine
 10
-46.72128073784899
 20
4.4999999693419
 30
0.0
 11
-53.27871926215101
 21
4.4999999693419
 31
0.0
  0
LINE
  5
321
330
22
100
AcDbEntity
  8
6
  6
Continuous
100
AcDbLine
 10
-60.49999999999994
 20
-2.721280768507086
 30
0.0
 11
-60.49999999999994
 21
-9.278719292809086
 31
0.0
  0
CIRCLE
  5
322
330
22
100
AcDbEntity
  8
6
  6
Continuous
100
AcDbCircle
 10
-49.99999999999997
 20
-6.0000000306581
 30
0.0
 40
10.0
  0
LINE
  5
4DA
330
22
100
AcDbEntity
  8
0
100
AcDbLine
 10
0.3999999999999773
 20
0.0
 30
0.0
 11
0.0
 21
0.0
 31
0.0
  0
LINE
  5
4DB
330
22
100
AcDbEntity
  8
0
100
AcDbLine
 10
0.0
 20
0.0
 30
0.0
 11
0.0
 21
-0.4000000000000057
 31
0.0
  0
DIMENSION
  5
4ED
330
22
100
AcDbEntity
  8
AM_5
100
AcDbDimension
  2
*D3
 10
-26.30743391017603
 20
-6.000000000000013
 30
0.0
 11
-28.89743391017603
 21
-3.000000000000007
 31
0.0
 70
    32
 71
     5
 42
6.000000000000023
  3
Standard$0
100
AcDbAlignedDimension
 13
0.0
 23
0.0
 33
0.0
 14
24.66153284028684
 24
-6.000000000000028
 34
0.0
 50
270.0
100
AcDbRotatedDimension
1001
ACAD
1000
DSTYLE
1002
{
1070
    41
1040
3.0
1070
    42
1040
1.0
1070
    43
1040
5.0
1070
    44
1040
2.0
1070
    46
1040
3.0
1070
    73
1070
     0
1070
    74
1070
     0
1070
    77
1070
     1
1070
    78
1070
     8
1070
   140
1040
5.0
1070
   141
1040
2.0
1070
   145
1040
1.0
1070
   171
1070
     4
1070
   172
1070
     1
1002
}
  0
DIMENSION
  5
517
330
22
100
AcDbEntity
  8
AM_5
100
AcDbDimension
  2
*D4
 10
0.2174311485495082
 20
-0.0007610603816204
 30
0.0
 11
-18.34953828803719
 21
18.34953828803747
 31
0.0
 70
    34
 71
     5
 42
1.396263401595465
  3
Standard$2
100
AcDb2LineAngularDimension
 13
0.0007610603817056
 23
-0.2174311485495366
 33
0.0
 14
0.8083259380339882
 24
-9.447939937988821
 34
0.0
 15
9.447939937988906
 25
-0.8083259380340166
 35
0.0
 16
-12.2686946741774
 26
19.87815090152864
 36
0.0
1001
ACAD
1000
DSTYLE
1002
{
1070
    41
1040
3.0
1070
    42
1040
1.0
1070
    43
1040
5.0
1070
    44
1040
2.0
1070
    46
1040
3.0
1070
    73
1070
     0
1070
    74
1070
     0
1070
    77
1070
     1
1070
    78
1070
     8
1070
   140
1040
5.0
1070
   141
1040
2.0
1070
   145
1040
1.0
1070
   171
1070
     4
1070
   172
1070
     1
1002
}
  0
LINE
  5
54D
330
22
100
AcDbEntity
  8
0
 62
     3
100
AcDbLine
 10
0.0
 20
0.0
 30
0.0
 11
20.00000000000006
 21
0.0
 31
0.0
  0
DIMENSION
  5
55E
330
22
100
AcDbEntity
  8
AM_5
100
AcDbDimension
  2
*D5
 10
0.0000000000000014
 20
23.54388146697596
 30
0.0
 11
9.999999913512284
 21
26.13388146697596
 31
0.0
 70
    32
 71
     5
 42
19.99999982702457
  3
Standard$0
100
AcDbAlignedDimension
 13
19.99999982702457
 23
-0.0000001764702802
 33
0.0
 14
0.0
 24
0.0
 34
0.0
 50
180.0
100
AcDbRotatedDimension
1001
ACAD
1000
DSTYLE
1002
{
1070
    41
1040
3.0
1070
    42
1040
1.0
1070
    43
1040
5.0
1070
    44
1040
2.0
1070
    46
1040
3.0
1070
    73
1070
     0
1070
    74
1070
     0
1070
    77
1070
     1
1070
    78
1070
     8
1070
   140
1040
5.0
1070
   141
1040
2.0
1070
   145
1040
1.0
1070
   171
1070
     4
1070
   172
1070
     1
1002
}
  0
DIMENSION
  5
586
330
22
100
AcDbEntity
  8
AM_5
100
AcDbDimension
  2
*D6
 10
62.79016113281256
 20
21.22405805951092
 30
0.0
 11
73.29016113281253
 21
23.81405805951092
 31
0.0
 70
    32
 71
     5
 42
20.99999999999994
  3
Standard$0
100
AcDbAlignedDimension
 13
83.7901611328125
 23
-6.000000000000028
 33
0.0
 14
62.79016113281256
 24
-6.000000000000028
 34
0.0
 50
180.0
100
AcDbRotatedDimension
1001
ACAD
1000
DSTYLE
1002
{
1070
    41
1040
3.0
1070
    42
1040
1.0
1070
    43
1040
5.0
1070
    44
1040
2.0
1070
    46
1040
3.0
1070
    73
1070
     0
1070
    74
1070
     0
1070
    77
1070
     1
1070
    78
1070
     8
1070
   140
1040
5.0
1070
   141
1040
2.0
1070
   145
1040
1.0
1070
   171
1070
     4
1070
   172
1070
     1
1002
}
  0
DIMENSION
  5
5AA
330
22
100
AcDbEntity
  8
AM_5
100
AcDbDimension
  2
*D7
 10
93.13867185981286
 20
4.499999999999966
 30
0.0
 11
93.13867185981286
 21
-26.41800236567548
 31
0.0
 70
   160
 71
     5
 42
21.0
  3
Standard$0
100
AcDbAlignedDimension
 13
73.2901611328125
 23
-16.50000000000003
 33
0.0
 14
73.2901611328125
 24
4.499999999999972
 34
0.0
 50
270.0
100
AcDbRotatedDimension
1001
ACAD
1000
DSTYLE
1002
{
1070
    41
1040
3.0
1070
    42
1040
1.0
1070
    43
1040
5.0
1070
    44
1040
2.0
1070
    46
1040
3.0
1070
    73
1070
     0
1070
    74
1070
     0
1070
    77
1070
     1
1070
    78
1070
     8
1070
   140
1040
5.0
1070
   141
1040
2.0
1070
   145
1040
1.0
1070
   171
1070
     4
1070
   172
1070
     1
1002
}
  0
DIMENSION
  5
5E5
330
22
100
AcDbEntity
  8
AM_5
100
AcDbDimension
  2
*D8
 10
78.91549924873343
 20
3.452807576670971
 30
0.0
 11
59.56873014272653
 21
-29.05746679630809
 31
0.0
 70
   163
 71
     5
 42
21.99999999999997
  3
Standard$3
100
AcDbDiametricDimension
 15
67.66482301689166
 25
-15.45280757667089
 35
0.0
 40
0.0
1001
ACAD
1000
DSTYLE
1002
{
1070
    41
1040
3.0
1070
    42
1040
1.0
1070
    43
1040
5.0
1070
    44
1040
2.0
1070
    46
1040
3.0
1070
    73
1070
     0
1070
    74
1070
     0
1070
    77
1070
     1
1070
    78
1070
     8
1070
   140
1040
5.0
1070
   141
1040
2.0
1070
   145
1040
1.0
1070
   171
1070
     4
1070
   172
1070
     1
1002
}
  0
DIMENSION
  5
610
330
22
100
AcDbEntity
  8
AM_5
100
AcDbDimension
  2
*D9
 10
-0.0000000000000017
 20
42.81250498175376
 30
0.0
 11
60.00000143239018
 21
45.40250498175377
 31
0.0
 70
    32
 71
     5
 42
120.0000028647804
  3
Standard$0
100
AcDbAlignedDimension
 13
120.0000028647804
 23
61.65286696090577
 33
0.0
 14
0.0
 24
69.99999999999997
 34
0.0
 50
180.0
100
AcDbRotatedDimension
1001
ACAD
1000
DSTYLE
1002
{
1070
    41
1040
3.0
1070
    42
1040
1.0
1070
    43
1040
5.0
1070
    44
1040
2.0
1070
    46
1040
3.0
1070
    73
1070
     0
1070
    74
1070
     0
1070
    77
1070
     1
1070
    78
1070
     8
1070
   140
1040
5.0
1070
   141
1040
2.0
1070
   145
1040
1.0
1070
   171
1070
     4
1070
   172
1070
     1
1002
}
  0
DIMENSION
  5
634
330
22
100
AcDbEntity
  8
AM_5
100
AcDbDimension
  2
*D10
 10
-14.74496912479611
 20
69.99999999999997
 30
0.0
 11
-17.33496912479613
 21
77.33999999999998
 31
0.0
 70
    32
 71
     5
 42
-1.0
  3
Standard$0
100
AcDbAlignedDimension
 13
1.284258026335294
 23
69.99999999999997
 33
0.0
 14
1.284258026335294
 24
69.99999999999997
 34
0.0
 50
270.0
100
AcDbRotatedDimension
1001
ACAD
1000
DSTYLE
1002
{
1070
    41
1040
3.0
1070
    42
1040
1.0
1070
    43
1040
5.0
1070
    44
1040
2.0
1070
    46
1040
3.0
1070
    73
1070
     0
1070
    74
1070
     0
1070
    77
1070
     1
1070
    78
1070
     8
1070
   140
1040
5.0
1070
   141
1040
2.0
1070
   145
1040
1.0
1070
   171
1070
     4
1070
   172
1070
     1
1002
}
  0
TEXT
  5
657
330
22
100
AcDbEntity
  8
0
100
AcDbText
 10
18.44503863492423
 20
-68.04845021230429
 30
0.0
 40
5.0
  1
%%uRS22X-SCLL09
100
AcDbText
  0
ACAD_PROXY_ENTITY
  5
7C7
330
22
100
AcDbEntity
  8
AM_5
100
AcDbProxyEntity
 90
      498
 91
      571
 95
       25
 70
     0
 92
      668
310
9C020000270000000C00000016000000000000C00C00000013000000010000000C00000016000000000000C00C00000017000000FFFFFFFF3C00000006000000020000008828CB6E0D3F48C06028A5E47DB541400000000000000000BB5BFEA140D244C06128A5E47DB5414000000000000000000C00000016000000000000
310
C00C00000010000000FFFFFFFF0C00000012000000FFFFFFFF0C00000017000000000000000C00000014000000010000000C00000013000000020000000C00000016000000000000C00C00000017000000FFFFFFFF3C0000000600000002000000BB5BFEA140D244C06128A5E47DB5414000000000000000008828CB6E0D3F
310
43C06228A5E47DB5414000000000000000000C00000016000000000000C00C00000010000000FFFFFFFF0C00000012000000FFFFFFFF0C00000017000000000000000C00000014000000010000000C00000013000000030000000C00000016000000000000C00C00000017000000FFFFFFFF3C0000000600000002000000BB
310
5BFEA140D244C0B8E6E5D36880414000000000000000008828CB6E0D3F43C06228A5E47DB5414000000000000000000C00000016000000000000C00C00000010000000FFFFFFFF0C00000012000000FFFFFFFF0C00000017000000000000000C00000014000000010000000C00000013000000040000000C00000016000000
310
000000C00C00000017000000FFFFFFFF3C00000006000000020000008828CB6E0D3F43C06228A5E47DB541400000000000000000BB5BFEA140D244C00B6A64F592EA414000000000000000000C00000016000000000000C00C00000010000000FFFFFFFF0C00000012000000FFFFFFFF0C00000017000000000000000C0000
310
0014000000010000000C00000013000000050000000C00000016000000000000C0
 93
     1473
310
5DC8856386E61B642C0188A29791F6D5050219FD35022281B66F19197D35022281B64F2A54051F8000000C800AA220A32DB834FD23006028A5E47DB541409018FFFFFFFF220A32DB834FD0F006228A5E47DB54140A8FFFFFFFF1FFFFFFFF1105196DC1A7E9180301452F23EDAA0A045409C870F88E31D5737547C03C304F9F
310
85DFD0902A0000000000003C2FC65F4D4088A86D9BC68333333333333094041D050000000000003C2FC000000000000F0BF40401015213500500
340
67D
340
689
330
0
330
0
340
0
340
0
340
66C
330
0
330
0
 94
        0
  0
ACAD_PROXY_ENTITY
  5
7C8
330
22
100
AcDbEntity
  8
AM_5
100
AcDbProxyEntity
 90
      498
 91
      571
 95
       25
 70
     0
 92
      668
310
9C020000270000000C00000016000000000000C00C00000013000000010000000C00000016000000000000C00C00000017000000FFFFFFFF3C00000006000000020000008828CB6E0D3F48C06028A5E47DB5414000000000000000007D28CB6E0D3F48C02AB7B02F62913C4000000000000000000C00000016000000000000
310
C00C00000010000000FFFFFFFF0C00000012000000FFFFFFFF0C00000017000000000000000C00000014000000010000000C00000013000000020000000C00000016000000000000C00C00000017000000FFFFFFFF3C00000006000000020000007D28CB6E0D3F48C02AB7B02F62913C4000000000000000007828CB6E0D3F
310
48C0C4504AC9FB6A394000000000000000000C00000016000000000000C00C00000010000000FFFFFFFF0C00000012000000FFFFFFFF0C00000017000000000000000C00000014000000010000000C00000013000000030000000C00000016000000000000C00C00000017000000FFFFFFFF3C000000060000000200000026
310
6A8A7F227448C029B7B02F62913C4000000000000000007828CB6E0D3F48C0C4504AC9FB6A394000000000000000000C00000016000000000000C00C00000010000000FFFFFFFF0C00000012000000FFFFFFFF0C00000017000000000000000C00000014000000010000000C00000013000000040000000C00000016000000
310
000000C00C00000017000000FFFFFFFF3C00000006000000020000007828CB6E0D3F48C0C4504AC9FB6A39400000000000000000D4E60B5EF80948C02CB7B02F62913C4000000000000000000C00000016000000000000C00C00000010000000FFFFFFFF0C00000012000000FFFFFFFF0C00000017000000000000000C0000
310
0014000000010000000C00000013000000050000000C00000016000000000000C0
 93
     1537
310
5DC7828CB6E0D3F48C0332B093228D64E102465F4D4088A06D13C866F4D4088A06D13C0000000000003C2FEA54051F8000000C800AA220A32DB834FD23006028A5E47DB541409018FFFFFFFF1E0A32DB834FD2300C4504AC9FB6A3940A8FFFFFFFF1FFFFFFFF1105196DC1A7E9180301452F23EDAA0A045409C870F88E31D5
310
737547C0342382D2F93AD0102A0000000000003C2FD197D35022281B44F28333333333333094041D050000000000003C2FC000000000000F0BF40401015213500500
340
67D
340
689
330
0
330
0
340
0
340
0
340
66C
330
0
330
0
 94
        0
  0
TEXT
  5
7C9
330
22
100
AcDbEntity
  8
AM_6
100
AcDbText
 10
-49.35319495486658
 20
17.79042245776086
 30
0.0
 40
4.0
  1
0%%D
100
AcDbText
  0
TEXT
  5
7CA
330
22
100
AcDbEntity
  8
AM_6
100
AcDbText
 10
-36.76829234367307
 20
33.52548520714794
 30
0.0
 40
4.0
  1
0%%D
100
AcDbText
  0
ENDSEC
  0
SECTION
  2
OBJECTS
  0
DICTIONARY
  5
C
330
0
100
AcDbDictionary
281
     1
  3
ACAD_COLOR
350
1B
  3
ACAD_GROUP
350
D
  3
ACAD_LAYOUT
350
19
  3
ACAD_MATERIAL
350
1A
  3
ACAD_MLINESTYLE
350
16
  3
ACAD_PLOTSETTINGS
350
18
  3
ACAD_PLOTSTYLENAME
350
E
  3
ACAD_TABLESTYLE
350
1C
  3
AcAmCatalogState
350
3BE
  3
ACDBHEADERROUNDTRIPXREC
350
7EE
  3
AcDbVariableDictionary
350
40F
  3
ACDMSYSVARMGR
350
378
  3
ACGREF_MASTER
350
372
  3
ACGREFACAD_MASTER
350
39A
  3
AcmDictionary
350
3BC
  3
ACME_BOM_MANAGER_NAME
350
36C
  3
ACME_COMMAND_HISTORY
350
369
  3
ACME_SCOPE_NAME
350
368
  3
ACMESTATEMGR
350
371
  3
AcmeSysVarManager
350
36A
  3
AcmSystemVariableManager
350
3C7
  3
AD_APPL
350
3A9
  3
ADSYSVARMGR
350
3A8
  3
AmdtNamedDwgMgr
350
395
  3
AMG
350
39E
  3
AMGSNAPSETTINGS
350
3FE
  3
AMI_MASTER
350
39D
  3
AUTOCAD_ASSEMBLIES_PROJECT
350
3B1
  3
Designer_Assemblies_SysVars
350
3AC
  3
GREFAM_MODULE
350
3A2
  0
DICTIONARY
  5
677
330
2
100
AcDbDictionary
280
     1
281
     1
  3
ACAD_LAYERSTATES
360
678
  0
DICTIONARY
  5
1B
102
{ACAD_REACTORS
330
C
102
}
330
C
100
AcDbDictionary
281
     1
  0
DICTIONARY
  5
D
102
{ACAD_REACTORS
330
C
102
}
330
C
100
AcDbDictionary
281
     1
  0
DICTIONARY
  5
19
102
{ACAD_REACTORS
330
C
102
}
330
C
100
AcDbDictionary
281
     1
  3
Model
350
25
  3
レイアウト1
350
21
  0
DICTIONARY
  5
1A
102
{ACAD_REACTORS
330
C
102
}
330
C
100
AcDbDictionary
281
     1
  0
DICTIONARY
  5
16
102
{ACAD_REACTORS
330
C
102
}
330
C
100
AcDbDictionary
281
     1
  3
Standard
350
17
  0
DICTIONARY
  5
18
102
{ACAD_REACTORS
330
C
102
}
330
C
100
AcDbDictionary
281
     1
  0
ACDBDICTIONARYWDFLT
  5
E
102
{ACAD_REACTORS
330
C
102
}
330
C
100
AcDbDictionary
281
     1
  3
Normal
350
F
100
AcDbDictionaryWithDefault
340
F
  0
DICTIONARY
  5
1C
102
{ACAD_REACTORS
330
C
102
}
330
C
100
AcDbDictionary
281
     1
  3
Standard
350
1D
  0
ACAD_PROXY_OBJECT
  5
3BE
102
{ACAD_REACTORS
330
C
102
}
330
C
100
AcDbProxyObject
 90
      499
 91
      545
 95
       25
 70
     0
 93
      504
310
3FFFFFFFE00A0281402992E2E21BA3239AE483ECB654563CBCEAE4AABC7C0483ECB652E487CC6F6CBB846A445F7AE41BDC1B341A12E272A25C83ECB65400AA
  0
DICTIONARY
  5
7EE
102
{ACAD_REACTORS
330
C
102
}
330
C
100
AcDbDictionary
281
     1
  3
COLORDICT
350
7EF
  3
MATERIALDICT
350
7F0
  0
DICTIONARY
  5
40F
102
{ACAD_REACTORS
330
C
102
}
330
C
100
AcDbDictionary
281
     1
  3
CTABLESTYLE
350
410
  3
DIMASSOC
350
7EC
  3
HIDETEXT
350
7ED
  0
ACAD_PROXY_OBJECT
  5
378
102
{ACAD_REACTORS
330
C
102
}
330
C
100
AcDbProxyObject
 90
      499
 91
      505
 95
       25
 70
     0
 93
      240
310
4C51A47A0000000000000000000000000000000000000000000000000000
330
379
330
37A
330
37B
330
37C
330
37D
330
37E
330
37F
330
380
330
381
330
382
330
383
330
384
330
385
330
386
330
387
330
388
330
389
330
38A
330
38B
330
38C
330
38D
330
38E
330
38F
330
390
330
391
330
392
 94
        0
  0
ACAD_PROXY_OBJECT
  5
372
102
{ACAD_REACTORS
330
C
102
}
330
C
100
AcDbProxyObject
 90
      499
 91
      513
 95
       25
 70
     0
 93
       34
310
0400004280
  0
ACAD_PROXY_OBJECT
  5
39A
102
{ACAD_REACTORS
330
C
102
}
330
C
100
AcDbProxyObject
 90
      499
 91
      522
 95
       25
 70
     0
 93
      114
310
04000041C080000000000000000000
  0
DICTIONARY
  5
3BC
102
{ACAD_REACTORS
330
C
102
}
330
C
100
AcDbDictionary
281
     1
  3
AcmBOMDATA
350
3BD
  3
AcmStdDictionary
350
3C9
  3
AMDTSECTSYM_ARROWCOLOR
350
3E9
  0
ACAD_PROXY_OBJECT
  5
36C
102
{ACAD_REACTORS
330
C
102
}
330
C
100
AcDbProxyObject
 90
      499
 91
      507
 95
       25
 70
     0
 93
       50
310
00010040400000
330
0
330
0
330
36D
 94
        0
  0
ACAD_PROXY_OBJECT
  5
369
102
{ACAD_REACTORS
330
C
102
}
330
C
100
AcDbProxyObject
 90
      499
 91
      504
 95
       25
 70
     0
 93
     7050
310
478050E414D4454524553455444424D4F4440805084E202D20554E444F014213880B4815539113C0504554E444F80504554E444F805055055524745805055153415645404052D4D5347202D205050413A2020206465736B746F702E6172782046696C6556657273696F6E3A20392E322E302E3401415454D05591501014B53
310
54D1C80B481414104E88080819195CDADD1BDC0B985C9E08119A5B1955995C9CDA5BDB8E880E4B8C8B8C0B8D0050E414D4454524553455444424D4F4440805084E202D20554E444F014213880B4815539113C0504554E444F80504554E444F80506524F544154458050844524F5047454F4D404052D4D5347202D205050413
310
A2020206465736B746F702E6172782046696C6556657273696F6E3A20392E322E302E3401411693D3D350101461354D1C80B4810DBDB5B585B990810D05390D1531311510B805044D4F5645805045A4F4F4D805055153415645404052D4D5347202D205050413A2020206465736B746F702E6172782046696C655665727369
310
6F6E3A20392E322E302E3401415454D05591501014B5354D1C80B481414104E88080819195CDADD1BDC0B985C9E08119A5B1955995C9CDA5BDB8E880E4B8C8B8C0B8D005055153415645404052D4D5347202D205050413A2020206465736B746F702E6172782046696C6556657273696F6E3A20392E322E302E34014113125
310
39150101461354D1C80B4810DBDB5B585B990810D05390D1531311510B805055153415645404052D4D5347202D205050413A2020206465736B746F702E6172782046696C6556657273696F6E3A20392E322E302E3401415454D05591501014B5354D1C80B481414104E88080819195CDADD1BDC0B985C9E08119A5B1955995
310
C9CDA5BDB8E880E4B8C8B8C0B8D0050E414D4454524553455444424D4F4440805084E202D20554E444F014213880B4815539113C0504554E444F80504554E444F805054552415345805095041535445434C4950805055153415645404052D4D5347202D205050413A2020206465736B746F702E6172782046696C655665727
310
3696F6E3A20392E322E302E34014390535115149154D15511109353D1102014213880B4815539113C05084E202D20554E444F014115539113E014115539113E014154155491D1501014B5354D1C80B481414104E88080819195CDADD1BDC0B985C9E08119A5B1955995C9CDA5BDB8E880E4B8C8B8C0B8D00
  0
ACAD_PROXY_OBJECT
  5
368
102
{ACAD_REACTORS
330
C
102
}
330
C
100
AcDbProxyObject
 90
      499
 91
      503
 95
       25
 70
     0
 93
      546
310
090000464080000000000000000012F4CE0000000000000000000000000000000000000000000000000000000000000000000000000000000000000000000000AAA406AA80
360
36B
360
36D
360
373
360
374
360
375
360
376
360
379
360
37A
360
37B
360
37C
360
37D
360
37E
360
37F
360
380
360
381
360
382
360
383
360
384
360
385
360
386
360
387
360
388
360
389
360
38A
360
38B
360
38C
360
38D
360
38E
360
38F
360
390
360
391
360
392
360
3A4
360
3A5
360
3A6
360
3A7
360
3AD
360
3AE
360
3AF
360
3B0
360
3B5
360
3B6
360
3B7
360
3B8
360
3B9
360
3BA
360
3C8
 94
        0
  0
ACAD_PROXY_OBJECT
  5
371
102
{ACAD_REACTORS
330
C
102
}
330
C
100
AcDbProxyObject
 90
      499
 91
      512
 95
       25
 70
     0
 93
       50
310
09000042641280
  0
ACAD_PROXY_OBJECT
  5
36A
102
{ACAD_REACTORS
330
C
102
}
330
C
100
AcDbProxyObject
 90
      499
 91
      505
 95
       25
 70
     0
 93
       32
310
90140A00
330
36B
 94
        0
  0
ACAD_PROXY_OBJECT
  5
3C7
102
{ACAD_REACTORS
330
C
102
}
330
C
100
AcDbProxyObject
 90
      499
 91
      505
 95
       25
 70
     0
 93
       32
310
90140A00
330
3C8
 94
        0
  0
ACAD_PROXY_OBJECT
  5
3A9
102
{ACAD_REACTORS
330
C
102
}
330
C
100
AcDbProxyObject
 90
      499
 91
      533
 95
       25
 70
     0
 93
       42
310
000900004040
330
3A4
 94
        0
  0
ACAD_PROXY_OBJECT
  5
3A8
102
{ACAD_REACTORS
330
C
102
}
330
C
100
AcDbProxyObject
 90
      499
 91
      505
 95
       25
 70
     0
 93
        8
310
AA
  0
ACAD_PROXY_OBJECT
  5
395
102
{ACAD_REACTORS
330
C
102
}
330
C
100
AcDbProxyObject
 90
      499
 91
      519
 95
       25
 70
     0
 93
       42
310
000100005E80
330
373
 94
        0
  0
DICTIONARY
  5
39E
102
{ACAD_REACTORS
330
C
102
}
330
C
100
AcDbDictionary
281
     1
  3
AcMgSettings
350
39F
  3
AMGLAYCFG
350
3CB
  0
DICTIONARY
  5
3FE
102
{ACAD_REACTORS
330
C
102
}
330
C
100
AcDbDictionary
281
     1
  3
DIMENSION
350
403
  3
FEA
350
402
  3
HATCH (1)
350
3FF
  3
HATCH (2)
350
400
  3
SIMPLE WELD
350
404
  3
SYMBOLS
350
401
  0
ACAD_PROXY_OBJECT
  5
39D
102
{ACAD_REACTORS
330
C
102
}
330
C
100
AcDbProxyObject
 90
      499
 91
      525
 95
       25
 70
     0
 93
       34
310
0500004280
  0
ACAD_PROXY_OBJECT
  5
3B1
102
{ACAD_REACTORS
330
C
102
}
330
C
100
AcDbProxyObject
 90
      499
 91
      537
 95
       25
 70
     0
 93
       98
310
0900004E400000000000000000
330
3B8
330
0
330
3B9
330
0
330
0
330
0
330
0
330
0
 94
        0
  0
ACAD_PROXY_OBJECT
  5
3AC
102
{ACAD_REACTORS
330
C
102
}
330
C
100
AcDbProxyObject
 90
      499
 91
      505
 95
       25
 70
     0
 93
       56
310
90441600000000
330
3AD
330
3AE
330
3AF
330
3B0
 94
        0
  0
ACAD_PROXY_OBJECT
  5
3A2
102
{ACAD_REACTORS
330
C
102
}
330
C
100
AcDbProxyObject
 90
      499
 91
      527
 95
       25
 70
     0
 93
        8
310
05
  0
DICTIONARY
  5
678
102
{ACAD_REACTORS
330
677
102
}
330
677
100
AcDbDictionary
281
     1
  0
LAYOUT
  5
25
102
{ACAD_REACTORS
330
19
102
}
330
19
100
AcDbPlotSettings
  1

  2
Canon LBP-1420
  4
A4
  6

 40
5.873749732971191
 41
5.873747825622559
 42
5.873748779296875
 43
5.873748779296875
 44
209.9733276367188
 45
296.9259948730469
 46
0.0
 47
0.0
 48
0.0
 49
0.0
140
400.0
141
273.0
142
1.0
143
1.402630290955233
 70
 11952
 72
     1
 73
     1
 74
     4
  7
sei_cad.ctb
 75
     0
147
0.7129462456703186
148
0.0
149
0.0
100
AcDbLayout
  1
Model
 70
     1
 71
     0
 10
0.0
 20
0.0
 11
12.0
 21
9.0
 12
0.0
 22
0.0
 32
0.0
 14
0.0
 24
0.0
 34
0.0
 15
0.0
 25
0.0
 35
0.0
146
0.0
 13
0.0
 23
0.0
 33
0.0
 16
1.0
 26
0.0
 36
0.0
 17
0.0
 27
1.0
 37
0.0
 76
     0
330
22
1001
ACAD_PSEXT
1000
Canon LBP-1420
1000
Canon LASER SHOT LBP-1420
1000
10.254.89.243:lp
1000

1070
     0
  0
LAYOUT
  5
21
102
{ACAD_REACTORS
330
19
102
}
330
19
100
AcDbPlotSettings
  1

  2
Canon LBP-1420
  4

  6

 40
0.0
 41
0.0
 42
0.0
 43
0.0
 44
0.0
 45
0.0
 46
0.0
 47
0.0
 48
0.0
 49
0.0
140
0.0
141
0.0
142
1.0
143
1.0
 70
   688
 72
     0
 73
     0
 74
     5
  7
sei_cad.ctb
 75
    16
147
1.0
148
0.0
149
0.0
100
AcDbLayout
  1
レイアウト1
 70
     1
 71
     1
 10
0.0
 20
0.0
 11
12.0
 21
9.0
 12
0.0
 22
0.0
 32
0.0
 14
1.000000000000000E+20
 24
1.000000000000000E+20
 34
1.000000000000000E+20
 15
-1.000000000000000E+20
 25
-1.000000000000000E+20
 35
-1.000000000000000E+20
146
0.0
 13
0.0
 23
0.0
 33
0.0
 16
1.0
 26
0.0
 36
0.0
 17
0.0
 27
1.0
 37
0.0
 76
     0
330
1E
  0
MLINESTYLE
  5
17
102
{ACAD_REACTORS
330
16
102
}
330
16
100
AcDbMlineStyle
  2
STANDARD
 70
     0
  3

 62
   256
 51
90.0
 52
90.0
 71
     2
 49
0.5
 62
   256
  6
BYLAYER
 49
-0.5
 62
   256
  6
BYLAYER
  0
ACDBPLACEHOLDER
  5
F
102
{ACAD_REACTORS
330
E
102
}
330
E
  0
TABLESTYLE
  5
1D
102
{ACAD_REACTORS
330
1C
102
}
330
1C
100
AcDbTableStyle
  3
Standard
 70
     0
 71
     0
 40
0.06
 41
0.06
280
     0
281
     0
  7
STANDARD
140
0.18
170
     2
 62
     0
 63
     7
283
     0
274
    -2
284
     1
 64
     0
275
    -2
285
     1
 65
     0
276
    -2
286
     1
 66
     0
277
    -2
287
     1
 67
     0
278
    -2
288
     1
 68
     0
279
    -2
289
     1
 69
     0
  7
STANDARD
140
0.25
170
     5
 62
     0
 63
     7
283
     0
274
    -2
284
     1
 64
     0
275
    -2
285
     1
 65
     0
276
    -2
286
     1
 66
     0
277
    -2
287
     1
 67
     0
278
    -2
288
     1
 68
     0
279
    -2
289
     1
 69
     0
  7
STANDARD
140
0.18
170
     5
 62
     0
 63
     7
283
     0
274
    -2
284
     1
 64
     0
275
    -2
285
     1
 65
     0
276
    -2
286
     1
 66
     0
277
    -2
287
     1
 67
     0
278
    -2
288
     1
 68
     0
279
    -2
289
     1
 69
     0
  0
XRECORD
  5
7EF
102
{ACAD_REACTORS
330
7EE
102
}
330
7EE
100
AcDbXrecord
280
     1
340
1B
  0
XRECORD
  5
7F0
102
{ACAD_REACTORS
330
7EE
102
}
330
7EE
100
AcDbXrecord
280
     1
340
1A
  0
DICTIONARYVAR
  5
410
102
{ACAD_REACTORS
330
40F
102
}
330
40F
100
DictionaryVariables
280
     0
  1
STANDARD
  0
DICTIONARYVAR
  5
7EC
102
{ACAD_REACTORS
330
40F
102
}
330
40F
100
DictionaryVariables
280
     0
  1
1
  0
DICTIONARYVAR
  5
7ED
102
{ACAD_REACTORS
330
40F
102
}
330
40F
100
DictionaryVariables
280
     0
  1
0
  0
ACAD_PROXY_OBJECT
  5
3BD
102
{ACAD_REACTORS
330
3BC
102
}
330
3BC
100
AcDbProxyObject
 90
      499
 91
      544
 95
       25
 70
     0
 93
       76
310
90100057356C1D774120
  0
DICTIONARY
  5
3C9
102
{ACAD_REACTORS
330
3BC
102
}
330
3BC
100
AcDbDictionary
281
     1
  3
ANSI
350
3CA
  3
JIS
350
67D
  0
XRECORD
  5
3E9
102
{ACAD_REACTORS
330
3BC
102
}
330
3BC
100
AcDbXrecord
280
     1
 90
-1023410169
  0
ACAD_PROXY_OBJECT
  5
36B
330
368
100
AcDbProxyObject
 90
      499
 91
      506
 95
       25
 70
     0
 93
      156
310
000101439050D35154D6535093D314D256915080
330
368
 94
        0
  0
ACAD_PROXY_OBJECT
  5
36D
330
368
100
AcDbProxyObject
 90
      499
 91
      508
 95
       25
 70
     0
 93
      120
310
000101422565255A6557080C402B00
330
368
330
0
330
0
 94
        0
  0
ACAD_PROXY_OBJECT
  5
373
330
368
100
AcDbProxyObject
 90
      499
 91
      514
 95
       25
 70
     0
 93
      366
310
0001014124FEA55D00507392E322E302E32014124FEA55D00507392E322E302E3240501000041905394D24CCC658
330
368
330
374
330
378
 94
        0
  0
ACAD_PROXY_OBJECT
  5
374
330
368
100
AcDbProxyObject
 90
      499
 91
      515
 95
       25
 70
     0
 93
       48
310
000190140A00
330
368
330
375
 94
        0
  0
ACAD_PROXY_OBJECT
  5
375
330
368
100
AcDbProxyObject
 90
      499
 91
      516
 95
       25
 70
     0
 93
       48
310
0001AA000000
330
368
330
21
330
376
330
0
 94
        0
  0
ACAD_PROXY_OBJECT
  5
376
330
368
100
AcDbProxyObject
 90
      499
 91
      517
 95
       25
 70
     0
 93
       28
310
0001AAA0
330
368
 94
        0
  0
ACAD_PROXY_OBJECT
  5
379
330
368
100
AcDbProxyObject
 90
      499
 91
      506
 95
       25
 70
     0
 93
      108
310
000101421053521310D05310D010
330
368
 94
        0
  0
ACAD_PROXY_OBJECT
  5
37A
330
368
100
AcDbProxyObject
 90
      499
 91
      506
 95
       25
 70
     0
 93
      124
310
00010142905354915554D15112535010
330
368
 94
        0
  0
ACAD_PROXY_OBJECT
  5
37B
330
368
100
AcDbProxyObject
 90
      499
 91
      506
 95
       25
 70
     0
 93
      132
310
00010143105354D150D51253D391125360
330
368
 94
        0
  0
ACAD_PROXY_OBJECT
  5
37C
330
368
100
AcDbProxyObject
 90
      499
 91
      506
 95
       25
 70
     0
 93
      124
310
00010142905355941093D49111549010
330
368
 94
        0
  0
ACAD_PROXY_OBJECT
  5
37D
330
368
100
AcDbProxyObject
 90
      499
 91
      506
 95
       25
 70
     0
 93
      116
310
0001014290535115D1D0D3D313D4A0
330
368
 94
        0
  0
ACAD_PROXY_OBJECT
  5
37E
330
368
100
AcDbProxyObject
 90
      499
 91
      506
 95
       25
 70
     0
 93
      148
310
00010143505355925155D49151949154D21010
330
368
 94
        0
  0
ACAD_PROXY_OBJECT
  5
37F
330
368
100
AcDbProxyObject
 90
      499
 91
      506
 95
       25
 70
     0
 93
      172
310
00010144105350539393D51154149154D15495915010
330
368
 94
        0
  0
ACAD_PROXY_OBJECT
  5
380
330
368
100
AcDbProxyObject
 90
      499
 91
      506
 95
       25
 70
     0
 93
      172
310
00010144105350555513D11253505494905391D15010
330
368
 94
        0
  0
ACAD_PROXY_OBJECT
  5
381
330
368
100
AcDbProxyObject
 90
      499
 91
      506
 95
       25
 70
     0
 93
      124
310
00010142D05351561514915191125360
330
368
 94
        0
  0
ACAD_PROXY_OBJECT
  5
382
330
368
100
AcDbProxyObject
 90
      499
 91
      506
 95
       25
 70
     0
 93
      132
310
00010142D05355105410539393D5115010
330
368
 94
        0
  0
ACAD_PROXY_OBJECT
  5
383
330
368
100
AcDbProxyObject
 90
      499
 91
      506
 95
       25
 70
     0
 93
      108
310
00010142105350555513D0D31010
330
368
 94
        0
  0
ACAD_PROXY_OBJECT
  5
384
330
368
100
AcDbProxyObject
 90
      499
 91
      506
 95
       25
 70
     0
 93
      108
310
00010142105350D3119150551050
330
368
 94
        0
  0
ACAD_PROXY_OBJECT
  5
385
330
368
100
AcDbProxyObject
 90
      499
 91
      506
 95
       25
 70
     0
 93
      108
310
00010142105350D315925155D3F0
330
368
 94
        0
  0
ACAD_PROXY_OBJECT
  5
386
330
368
100
AcDbProxyObject
 90
      499
 91
      506
 95
       25
 70
     0
 93
      148
310
0001014350535212511156915493D112535010
330
368
 94
        0
  0
ACAD_PROXY_OBJECT
  5
387
330
368
100
AcDbProxyObject
 90
      499
 91
      506
 95
       25
 70
     0
 93
      124
310
00010142905352105510D21254D3D010
330
368
 94
        0
  0
ACAD_PROXY_OBJECT
  5
388
330
368
100
AcDbProxyObject
 90
      499
 91
      506
 95
       25
 70
     0
 93
      148
310
00010143905354D25391D31152105513105660
330
368
 94
        0
  0
ACAD_PROXY_OBJECT
  5
389
330
368
100
AcDbProxyObject
 90
      499
 91
      506
 95
       25
 70
     0
 93
      124
310
00010142D0535115D1D193111254D420
330
368
 94
        0
  0
ACAD_PROXY_OBJECT
  5
38A
330
368
100
AcDbProxyObject
 90
      499
 91
      506
 95
       25
 70
     0
 93
      100
310
00010142105350555513D213A0
330
368
 94
        0
  0
ACAD_PROXY_OBJECT
  5
38B
330
368
100
AcDbProxyObject
 90
      499
 91
      506
 95
       25
 70
     0
 93
      116
310
000101425053521390D3D553951010
330
368
 94
        0
  0
ACAD_PROXY_OBJECT
  5
38C
330
368
100
AcDbProxyObject
 90
      499
 91
      506
 95
       25
 70
     0
 93
      108
310
0001014210535213941493D29010
330
368
 94
        0
  0
ACAD_PROXY_OBJECT
  5
38D
330
368
100
AcDbProxyObject
 90
      499
 91
      506
 95
       25
 70
     0
 93
      108
310
0001014210535213951654115070
330
368
 94
        0
  0
ACAD_PROXY_OBJECT
  5
38E
330
368
100
AcDbProxyObject
 90
      499
 91
      506
 95
       25
 70
     0
 93
      108
310
000101421053521395925155D0F0
330
368
 94
        0
  0
ACAD_PROXY_OBJECT
  5
38F
330
368
100
AcDbProxyObject
 90
      499
 91
      506
 95
       25
 70
     0
 93
      140
310
00010143505354D150D51253D390D3D41660
330
368
 94
        0
  0
ACAD_PROXY_OBJECT
  5
390
330
368
100
AcDbProxyObject
 90
      499
 91
      506
 95
       25
 70
     0
 93
      108
310
00010142105350D3141493D29030
330
368
 94
        0
  0
ACAD_PROXY_OBJECT
  5
391
330
368
100
AcDbProxyObject
 90
      499
 91
      518
 95
       25
 70
     0
 93
      212
310
00010143905350555513D2105510D21493D500000000000002E400
330
368
 94
        0
  0
ACAD_PROXY_OBJECT
  5
392
330
368
100
AcDbProxyObject
 90
      499
 91
      506
 95
       25
 70
     0
 93
      156
310
00010143905350555513D2105510D21111551010
330
368
 94
        0
  0
ACAD_PROXY_OBJECT
  5
3A4
330
368
100
AcDbProxyObject
 90
      499
 91
      529
 95
       25
 70
     0
 93
      698
310
0001000000009AA6A9AA4051E546875204175672032342030303A34323A323820323030362028555443290141CE4B8C8B8C0B8C80518547565204F63742031322031313A31333A323220323031300141CE4B8C8B8C0B8C80
330
368
330
3A5
330
3A6
330
3A8
330
0
 94
        0
  0
ACAD_PROXY_OBJECT
  5
3A5
330
368
100
AcDbProxyObject
 90
      499
 91
      530
 95
       25
 70
     0
 93
       70
310
0001AAA80820000000
330
368
330
3A5
330
3A5
 94
        0
  0
ACAD_PROXY_OBJECT
  5
3A6
330
368
100
AcDbProxyObject
 90
      499
 91
      531
 95
       25
 70
     0
 93
       48
310
000100000000
330
368
330
0
330
3A7
330
0
330
0
 94
        0
  0
ACAD_PROXY_OBJECT
  5
3A7
330
368
100
AcDbProxyObject
 90
      499
 91
      532
 95
       25
 70
     0
 93
       40
310
000100AAAA
330
368
330
0
 94
        0
  0
ACAD_PROXY_OBJECT
  5
3AD
330
368
100
AcDbProxyObject
 90
      499
 91
      536
 95
       25
 70
     0
 93
      180
310
00010143105050D3D35411119390535140504434F4D500
330
368
 94
        0
  0
ACAD_PROXY_OBJECT
  5
3AE
330
368
100
AcDbProxyObject
 90
      499
 91
      536
 95
       25
 70
     0
 93
      212
310
0001014390505193D311115491119390535140506466F6C6465720
330
368
 94
        0
  0
ACAD_PROXY_OBJECT
  5
3AF
330
368
100
AcDbProxyObject
 90
      499
 91
      536
 95
       25
 70
     0
 93
      180
310
00010143105050539393D1119390535140504284156290
330
368
 94
        0
  0
ACAD_PROXY_OBJECT
  5
3B0
330
368
100
AcDbProxyObject
 90
      499
 91
      536
 95
       25
 70
     0
 93
      436
310
00010143905050D3D35415925155D31254D50052295BD96CA0A90B396CA0A894591A496CA0A8DB691A496CA0A89BA96CA0A95E28F95310
330
368
 94
        0
  0
ACAD_PROXY_OBJECT
  5
3B5
330
368
100
AcDbProxyObject
 90
      499
 91
      538
 95
       25
 70
     0
 93
       32
310
00010000
330
368
340
3B2
330
3B7
330
3B2
 94
        0
  0
ACAD_PROXY_OBJECT
  5
3B6
330
368
100
AcDbProxyObject
 90
      499
 91
      539
 95
       25
 70
     0
 93
       18
310
000180
330
368
 94
        0
  0
ACAD_PROXY_OBJECT
  5
3B7
330
368
100
AcDbProxyObject
 90
      499
 91
      540
 95
       25
 70
     0
 93
      186
310
000101431494CC8C960B54D0D3130C0E5050055401550000
330
368
330
3B5
330
3B6
 94
        0
  0
ACAD_PROXY_OBJECT
  5
3B8
330
368
100
AcDbProxyObject
 90
      499
 91
      541
 95
       25
 70
     0
 93
      178
310
000100AAAAAAAB91A3BA8115205065DC77285D59B2C240
330
368
330
3B7
 94
        0
  0
ACAD_PROXY_OBJECT
  5
3B9
330
368
100
AcDbProxyObject
 90
      499
 91
      542
 95
       25
 70
     0
 93
      108
310
000190140A000000000000AAAAA0
330
368
330
3BA
330
3BA
330
3BA
330
3BA
330
3BA
330
0
 94
        0
  0
ACAD_PROXY_OBJECT
  5
3BA
330
368
100
AcDbProxyObject
 90
      499
 91
      543
 95
       25
 70
     0
 93
       51
310
00010000AAAA80
330
368
330
3B9
330
3B7
 94
        0
  0
ACAD_PROXY_OBJECT
  5
3C8
330
368
100
AcDbProxyObject
 90
      499
 91
      536
 95
       25
 70
     0
 93
      148
310
00010142105350D55494D51100504414E53490
330
368
 94
        0
  0
DICTIONARY
  5
39F
102
{ACAD_REACTORS
330
39E
102
}
330
39E
100
AcDbDictionary
281
     1
  3
DWGSETTINGS
350
3A0
  3
Shaft
350
4C7
  3
TRANSSETTINGS
350
3A1
  0
ACAD_PROXY_OBJECT
  5
3CB
102
{ACAD_REACTORS
330
39E
102
}
330
39E
100
AcDbProxyObject
 90
      499
 91
      551
 95
       25
 70
     0
 93
    17920
310
41503491013041105357CC201C00030C011E441013141105357CC603800030C011E441013241105357CCA01400030C011E441013341105357CCE01800030C010F9013441105357CD200C00030C010F9013541105357CD600C00030C010F9013641105357CDA00800030C011E9013741105357CDE01000030C010F901384110
310
5357CE200400030C010F9013941105357CE63F400030C0241102324141505357CC4C201C00030C011E902344141505357CC4C600C00030C010F902495041505357CC4CA01C00030C011E40902304E41505357CC13A01C00030C011E902314E41505357CC53A03800030C011E902324E41505357CC93A01400030C011E90233
310
4E41505357CCD3A01800030C010F902344E41505357CD13A00C00030C010F902354E41505357CD53A00C00030C010F902364E41505357CD93A00800030C011E902374E41505357CDD3A01000030C010F902384E41505357CE13A00400030C010F902394E41505357CE53A3F400030C024110332414E41905357CC4C13A01C0
310
0030C011E90334414E41905357CC4C53A00C00030C010F90349504E41905357CC4C93A01C00030C011E409044B4C494E41505357D0D3200400030C010F42504494E464F42105357D410549151A01000030C010F42D055241484D3541905357D093D4A01C00030C011E425045649455742105357D5925155D4E00400030C010
310
F42D06424548494E4441905357D25395A3F400030C0243505545241494C41505357D514A00C00030C010F4250348494441905357D21251201C00030C010F4250356495341905357D59254E01C00030C011E4250650415244494D42505357D41054911253600C00030C010F4250652454644494D42505357D49151911253601
310
000030C010F425534110921395901398000000C0003FFFFFFFE415092139594D06424548494E448000000C0003FFFFFFFE411093D48C9055241484D358010000C30043E411093D48CD055241484D358020000C30047A411093D48D5055241484D358000000C0003FFFFFFFE4110D0530C901348000000C0003FFFFFFFE4110
310
D0530CD01348020000C30047A4110D0530D501348070000C30047A4110D0530DD013481E0000C3004F24110D15393901378000000C0003FFFFFFFE4110D15395D01378000000C0003FFFFFFFE4110D312539044B4C494E8000000C0003FFFFFFFE4110D3D38C501308000000C0003FFFFFFFD034110D3D38C901318000000C
310
0003FFFFFFFD034110D3D38CD01328000000C0003FFFFFFFD034110D3D38D101328000000C0003FFFFFFFD034111115510501348000000C0003FFFFFFFE4111125051D01358000000C0003FFFFFFFE4111125312501358000000C0003FFFFFFFE411112535410650415244494D8000000C0003FFFFFFFE4111125354906524
310
54644494D8000000C0003FFFFFFFE4111915353901388000000C0003FFFFFFFE415191535413901388030000C3003FFFFFFFE4151915354D410234418000000C0003FFFFFFFE4151915354D510234418030000C30043E415191535593901328000000C0003FFFFFFFE415191535595101328030000C30043E4112105510D01
310
388000000C0003FFFFFFFD014112125113901338000000C0003FFFFFFFD034112125115D01338000000C0003FFFFFFFD034112131253901348000000C0003FFFFFFFD01411213D0D3901378000000C0003FFFFFFFE411213D0D5D01378000000C0003FFFFFFFE4112539193D04494E464F8000000C0003FFFFFFFE41131150
310
51101358000000C0003FFFFFFFE419397D0921395902394E8000000C0003FFFFFFFE419397D0D3D38C502304E8000000C0003FFFFFFFD03419397D0D3D38C902314E8000000C0003FFFFFFFD03419397D0D3D38CD02324E8000000C0003FFFFFFFD03419397D0D3D38D102324E8000000C0003FFFFFFFD03419397D0D15393
310
902374E8000000C0003FFFFFFFE419397D0D15395D02374E8000000C0003FFFFFFFE419397D1125312502354E8000000C0003FFFFFFFE419397D2105510D02384E8000000C0003FFFFFFFD01419397D2125113902334E8000000C0003FFFFFFFD03419397D2125115D02334E8000000C0003FFFFFFFD03419397D311505110
310
2354E8000000C0003FFFFFFFE419397D391D25410349504E8000000C0003FFFFFFFE419397D412105390334414E8000000C0003FFFFFFFE419397D510D3D3902304E8000000C0003FFFFFFFD03419397D5121312502344E8000000C0003FFFFFFFD01419397D5131153902304E8000000C0003FFFFFFFD03419397D5941312
310
50332414E8000000C0003FFFFFFFE411391D25410249508000000C0003FFFFFFFE411410530C9055241484D358010000C30043E411410530CD055241484D358020000C30047A411410530D5055241484D358000000C0003FFFFFFFE411412105390234418000000C0003FFFFFFFE411413D4D3901358000000C0003FFFFFFF
310
E411490D1D3901378000000C0003FFFFFFFE411490D1D5D01378000000C0003FFFFFFFE4114D09492D01348070000C300479014114D150D5101348000000C0003FFFFFFFD014114D6508CD01358020000C30047A411354D653501358020000C30047A411510D3D3901308000000C0003FFFFFFFD0341151213125013480000
310
00C0003FFFFFFFD01411512550C9055241484D358010000C30043E411512550CD055241484D358020000C30047A411512550D5055241484D358000000C0003FFFFFFFE4115131153901308000000C0003FFFFFFFD03415514905253105545241494C8000000C0003FFFFFFFE4115149312501348000000C0003FFFFFFFD014
310
11516150C501368030000C30043E411516150C901368030000C30043E411516150CD01368000000C0003FFFFFFFE411516150D501368070000C30047A411516150DD013681E0000C3004F24115925155D04564945578000000C0003FFFFFFFE41159151121034849448000000C0003FFFFFFFD024115915115903564953800
310
0000C0003FFFFFFFD02411594131250232418000000C0003FFFFFFFE4116925690501348000000C0003FFFFFFFD01AAA3F400030C01013F90A4391E41D1E4190F4151E4110F40D0F4091E4050F4793C7F6
340
15
340
15
340
15
340
393
340
15
340
15
340
15
340
27
340
15
340
15
340
27
340
394
340
15
340
15
340
15
340
15
340
393
340
15
340
15
340
15
340
27
340
15
340
15
340
27
340
394
340
15
340
3CF
340
15
340
15
340
15
340
15
340
15
340
393
340
15
340
15
340
15
340
14
340
14
340
14
340
14
340
14
340
14
340
14
340
14
340
14
340
3D5
340
14
340
14
340
14
340
14
340
14
340
14
340
14
340
14
340
14
340
14
340
14
340
14
340
14
340
15
340
14
340
14
340
14
340
14
340
3D6
340
14
340
14
340
3D5
340
14
340
14
340
14
340
14
340
14
340
14
340
14
340
14
340
3D5
340
14
340
14
340
14
340
3D6
340
14
340
14
340
14
340
14
340
14
340
3D6
340
14
340
394
340
14
340
14
340
14
340
14
340
14
340
14
340
3D5
340
14
340
14
340
14
340
14
340
14
340
14
340
3D6
340
14
340
14
340
14
340
14
340
14
340
14
340
14
340
14
340
14
340
14
340
14
340
14
340
14
340
14
340
394
340
3D7
 94
        0
  0
ACAD_PROXY_OBJECT
  5
403
102
{ACAD_REACTORS
330
3FE
102
}
330
3FE
100
AcDbProxyObject
 90
      499
 91
      568
 95
       25
 70
     0
 93
      253
310
43D1444494D454E53494F4E2C414D44545F2A5F44494D404A9012A404A9012A8
  0
ACAD_PROXY_OBJECT
  5
402
102
{ACAD_REACTORS
330
3FE
102
}
330
3FE
100
AcDbProxyObject
 90
      499
 91
      568
 95
       25
 70
     0
 93
      181
310
43D012A42D05357D191504B505357CA9012A404A9012A8
  0
ACAD_PROXY_OBJECT
  5
3FF
102
{ACAD_REACTORS
330
3FE
102
}
330
3FE
100
AcDbProxyObject
 90
      499
 91
      568
 95
       25
 70
     0
 93
      133
310
43D054841544348404A9012A404A9012A8
  0
ACAD_PROXY_OBJECT
  5
400
102
{ACAD_REACTORS
330
3FE
102
}
330
3FE
100
AcDbProxyObject
 90
      499
 91
      568
 95
       25
 70
     0
 93
      549
310
43D044C494E4549CE0B0E138B0A8B4E0B0A8B4E138B105357CE0B105357CE138B0A8B505357CE0B0A8B505357CE139012A404A910494E534552542C5354445041525432448
  0
ACAD_PROXY_OBJECT
  5
404
102
{ACAD_REACTORS
330
3FE
102
}
330
3FE
100
AcDbProxyObject
 90
      499
 91
      568
 95
       25
 70
     0
 93
      181
310
43D0341524341105357CD5012A404C906494E534552540
  0
ACAD_PROXY_OBJECT
  5
401
102
{ACAD_REACTORS
330
3FE
102
}
330
3FE
100
AcDbProxyObject
 90
      499
 91
      568
 95
       25
 70
     0
 93
     1053
310
43D7841434D46434652414D452C41434D444154554D5441524745542C41434D444154554D49442C41434D57454C4453594D2C41434D5355524653594D2C41434D4645415449442C41434D504152545245462C41434D42414C4C4F4F4E2C414D44544544474553594D2C414D47534352455743414C435441424C45404A9012A
310
404A9012A8
  0
ACAD_PROXY_OBJECT
  5
3CA
102
{ACAD_REACTORS
330
3C9
102
}
330
3C9
100
AcDbProxyObject
 90
      499
 91
      550
 95
       25
 70
     0
 93
     2395
310
5DCB81E85EB51B8BE3F8030000C30041105394D2501640600800030C0200800030C00B81E85EB51B8BE3F48821E8720B1B6A9BAB9332A32BC3A29BA3220480A1282C6DA8C868CA6E8C88120286A0B1B6ABB2B63234B733A9BA3220480A1082C6DA92C8A6E8C88120285A0B1B6A230BA3AB6A9BA3220480A1282C6DA849E9AA
310
6E8C8812028820B6B23A2232BA30B4B629BCB6A9BA3220480A2282DAC8E8A6CAC6E8D2DEDCA6F2DAA6E8C88120288A0B6B23A21B2B73A32B92634B732A9BA3220480A2282DAC8E8A8D0E4CAC2C898D2DCCAA6E8C88120285A0B6B23A2737BA32A9BA3220480A1682C682DACE98C2F2A6E8C88120285A0B1A0B6B3A234B6A9B
310
A3220480A2282C682DACE90DED8CA86D0C2E4E8A6E8C88120286A0B1A0B6B3AA34BA3632A9BA3220480A02812020
340
3D8
360
3D9
360
3DA
360
3DB
360
3DC
360
3DD
360
3DE
360
3DF
360
3E0
360
3E1
360
3E2
360
3E3
360
3EF
360
3F0
360
3FB
360
3FC
340
0
340
0
 94
        0
  0
ACAD_PROXY_OBJECT
  5
67D
102
{ACAD_REACTORS
330
3C9
102
}
330
3C9
100
AcDbProxyObject
 90
      499
 91
      572
 95
       25
 70
     0
 93
     2379
310
5DC33333333333309408000000C00040D29254D01640600800030C0200800030C003333333333330940C8121E8720B1B6A9BAB9332A32BC3A29BA3220480A1282C6DA8C868CA6E8C88120286A0B1B6ABB2B63234B733A9BA3220480A1082C6DA92C8A6E8C88120285A0B1B6A230BA3AB6A9BA3220480A1282C6DA849E9AA6E
310
8C88120286A0B1A0B6B3AA34BA3632A9BA3220480A2082DAC8E888CAE8C2D2D8A6F2DAA6E8C88120288A0B6B23A29B2B1BA34B7B729BCB6A9BA3220480A2282DAC8E886CADCE8CAE498D2DCCAA6E8C88120288A0B6B23A2A343932B0B22634B732A9BA3220480A1682DAC8E89CDEE8CAA6E8C88120285A0B1A0B6B3A630BCA
310
9BA3220480A1682C682DACE88D2DAA6E8C88120288A0B1A0B6B3A437B632A1B430B93A29BA3220480C812020
340
66C
360
67E
360
67F
360
680
360
681
360
682
360
683
360
684
360
685
360
686
360
687
360
688
360
689
360
68F
360
690
360
691
340
0
340
0
 94
        0
  0
ACAD_PROXY_OBJECT
  5
3A0
102
{ACAD_REACTORS
330
39F
102
}
330
39F
100
AcDbProxyObject
 90
      499
 91
      526
 95
       25
 70
     0
 93
     2412
310
4050B44574753455454494E4753A1286829C8E82A4A482B282A02608321A2A720A723A0A849A1ABE1C983E18999AA0C868A9C889282940000000000001C07E83A1A2A72224A0A9A0A8598171ABE1897183E18971AA0E868A9C8892A6A8940000000000001807E8321A2A72622A7250000000000000701FA0C868A9C9E8C8C9
310
40000000000001C07E84A1A624A720A92920ACA0A87181718991ABE1817191ABE18171AA108698929C8AA8B2A082A0AB098929C8A84A22BA3AAA9A1A0A622A50A0E9882A6A89E849482A02608426A0A5A2AB24A2ABA7E8120CA0A68682988A0C00800010652455649534941501304154D0D0531150540CC4E8C50954494D45
310
5354414D504A0849FC741792B734141D5915494D253D3905414C4D4B8C0C1107B44574753455454494E4753454E447D0
  0
ACAD_PROXY_OBJECT
  5
4C7
102
{ACAD_REACTORS
330
39F
102
}
330
39F
100
AcDbProxyObject
 90
      499
 91
      526
 95
       25
 70
     0
 93
      199
310
405055368616674220F688AE8EA68AA8A8929C8EA68A9C88FA
  0
ACAD_PROXY_OBJECT
  5
3A1
102
{ACAD_REACTORS
330
39F
102
}
330
39F
100
AcDbProxyObject
 90
      499
 91
      526
 95
       25
 70
     0
 93
      852
310
4050D5452414E5353455454494E4753A2488A482AE929C8EA8A4829CA69882A8929E9C0C00800050D4F524947494E414C4C595F4F4E0600400008529A7AAA921A2A620A723A0A81A52827212AAA0A48AA68AA4AC8A0C0080001107B44574753455454494E4753454E447D0
  0
ACAD_PROXY_OBJECT
  5
3D9
330
3CA
100
AcDbProxyObject
 90
      499
 91
      552
 95
       25
 70
     0
 93
       96
310
5DC20E80A0280A0280A02808
  0
ACAD_PROXY_OBJECT
  5
3DA
330
3CA
100
AcDbProxyObject
 90
      499
 91
      553
 95
       25
 70
     0
 93
      332
310
5DD0E4050140501405014050140501405014050142501405014050140501405012000000000000000400
340
3E4
 94
        0
  0
ACAD_PROXY_OBJECT
  5
3DB
330
3CA
100
AcDbProxyObject
 90
      499
 91
      554
 95
       25
 70
     0
 93
      403
310
5DCC199999999999E99F91F4050140501405014050140501405014050140501405014050140501405014050140501405014040
340
0
 94
        0
  0
ACAD_PROXY_OBJECT
  5
3DC
330
3CA
100
AcDbProxyObject
 90
      499
 91
      555
 95
       25
 70
     0
 93
       10
310
5DC0
  0
ACAD_PROXY_OBJECT
  5
3DD
330
3CA
100
AcDbProxyObject
 90
      499
 91
      556
 95
       25
 70
     0
 93
      257
310
5DE290EA22A7D90F49F9353333333333727F44D4CCCCCCCCCDC9FC010000618000
340
3E5
340
3E6
 94
        0
  0
ACAD_PROXY_OBJECT
  5
3DE
330
3CA
100
AcDbProxyObject
 90
      499
 91
      557
 95
       25
 70
     0
 93
    13023
310
5DD0E411255115350141236025B6901405014069011309A4F2590CB64FD3347454E545241434F2C4A504E2C302C8D8096DA2C47454E54524154582C25732C2847454E4D53472067656E647767203232322940690120281A8AA2CA0282484A4BE52028120280A03202261349E4B2196C9FA668E8A9CA8A482869E5894A09C58
310
605921292F94588E8A9CA8A482A8B0584AE658508E8A9C9AA68E40CECADCC8EECE406464665280D202405044E414D454050496BC914F4051C40640A8B95C2E97CBE502404CD1D15395149050D3CB1294138B0C0B25AF2453CB11D15395149055160B095CCB0A11D1539354D1C819D95B991DD9C80C8C8D8A50192C3D494628
310
4953424C414E4B28504152543A4E414D45292C424C4F434B3A4E414D452C504152543A4E414D452940480A0A888AA686A480A09251B1DBE80A3A80C81D10782C06030180C8099A3A2A72A2920A1A7962528271618164946C76F9623A2A72A2920AA2C1612B9961423A2A726A9A39033B2B7323BB39019189B94A0248090142
310
14D51053911054911014122D2E29A50147501904A383BFDFEFF5FBFCFD3347454E545241434F2C4A504E2C302C8B4B8A692C47454E54524154582C25732C2847454E4D53472067656E64776720323138294049012028426A0AA22A924A0A62028246EF4BDFA028EA0320B41396D838E9017D9FA668E8A9CA8A482869E5894A
310
09C5860591BBD2F7E588E8A9CA8A482A8B0584AE658508E8A9C9AA68E40CECADCC8EECE406464625280D202405044E4F544540504928D8B4C4051D40641A8B95C2E97CBE5F23F4CD1D15395149050D3CB1294138B0C0B24A362D30B11D15395149055160B095CCB0A11D1539354D1C819D95B991DD9C80C8C8D4A501A40480
310
A0CAC8A9C889EA480A1106F1072706BF02B680A3A80C83D172B85D2F97CBE47E9BA3A2A72A2920A1A79625282716181641BC41C9C1AFC0AD9623A2A72A2920AA2C1612B9961423A2A726A9A39033B2B7323BB39019191A14A0348090141911154D0D48C90141A43825AF880C90147501908A20F0580C0603019013447454E5
310
45241434F2C4A504E2C302C90E096BE20322C47454E54524154582C25732C2847454E4D53472067656E6477672033362940490120284A9AA20A72220A922192028345A5C53490192028EA0321347077FBFDFEBF7F9FA6A8E8A9CA8A482869E5894A09C586059169714D24064588E8A9CA8A482A8B0584AE658508E8A9C9AA6
310
8E40CECADCC8EECE4064646052809202405094D4154455249414C32405068DDE97BF20324051D40642A8272DB071D202FB3F4D11D15395149050D3CB1294138B0C0B2377A5EFC80C8B11D15395149055160B095CCB0A11D1539354D1C819D95B991DD9C80D0C0A501240480A089A82A6A680A091D7F2F9480A3A80A0485A06
310
81172B85D2F97CBE47E9923A2A72A2920A1A796252827161816475FCBE51623A2A72A2920AA2C1612B9961423A2A726A9A39033B2B7323BB3901A1914A024809014154149250D150141226FE29A501475014090C409022E570BA5F2F97C8FD3247454E545241434F2C4A504E2C302C89BF8A692C47454E54524154582C2573
310
2C2847454E4D53472067656E6477672034332940490120281A224A6A02824850CB202028EA028121A81A045CAE174BE5F2F91FA648E8A9CA8A482869E5894A09C58605921432C80588E8A9CA8A482A8B0584AE658508E8A9C9AA68E40CECADCC8EECE406868528092024050E441022E07A17AD46E338FE07800030C0001018
310
ACD56AB55AADF63F2B355AAD56AB7D8FD073D3C4954454D3E405018ACD56AB55AADF63F2B355AAD56AB7D8FD073D3C4954454D3E40501890C7E3F1783CEE3F2431F8FC5E0F3B8FD073D3C4954454D3E40501890C7E3F1783CEE3F2431F8FC5E0F3B8FD073D3C4954454D3E405029012B355AAD56AB7D8FCACD56AB55AADF63
310
F41CF4F125511534F901418F4F1455164F9014062B355AAD56AB7D8FCACD56AB55AADF63F41CF4F125511534F9014061309A4F2590CBA4FC4C2693C96432E93F41CF4F125511534F901901002B355AAD56AB7D8FCACD56AB55AADF63FA2000000000000008204018000618048220681A048120280C88214844882034852034
310
8452028521485214814000000000000F0BF0000000000003C2FD018020000C3008070000C3000EF7D3E365DBA88FC3BDF4F8D976EA23F2E07A17AD46E2F8FF20341A405024150741A4069703D0BD6A3717C7F0040001860100400018601002000186002026280A02
340
0
340
0
 94
        0
  0
ACAD_PROXY_OBJECT
  5
3DF
330
3CA
100
AcDbProxyObject
 90
      499
 91
      558
 95
       25
 70
     0
 93
      994
310
5DC0B81E85EB51B8CE3F4BCF511155105253080F11115510525317D3105091530F971414D0D05311480F11115510525317D05094D4D0D053114F92341C9A9999999999B93F26A666666666724FC000000000000E03F4000000000000004000000000000005100000000000000244081E0000C3002E07A17AD46E338FC0
340
394
340
3D8
 94
        0
  0
ACAD_PROXY_OBJECT
  5
3E0
330
3CA
100
AcDbProxyObject
 90
      499
 91
      559
 95
       25
 70
     0
 93
      823
310
5DC031703D0BD6A3719C7E999EA9A2A1AA24A7A7101E29A2A1AA24A7A72FA620A122A62FA324A929AA1F169E29A2A1AA24A7A72FA620A122A62FA620A9AA1F1353333333333B27E3FFFE01C00030C008840F000061801353333333333B27F1703D0BD6A3719C7E
340
394
340
3D8
 94
        0
  0
ACAD_PROXY_OBJECT
  5
3E1
330
3CA
100
AcDbProxyObject
 90
      499
 91
      560
 95
       25
 70
     0
 93
      280
310
5DC2B8716D9CEF7C33F0A5723F0BD4A2F0FC295C8FC2F528BC3FA199999999999F99FC
  0
ACAD_PROXY_OBJECT
  5
3E2
330
3CA
100
AcDbProxyObject
 90
      499
 91
      561
 95
       25
 70
     0
 93
       14
310
5DE4
340
0
 94
        0
  0
ACAD_PROXY_OBJECT
  5
3E3
330
3CA
100
AcDbProxyObject
 90
      499
 91
      562
 95
       25
 70
     0
 93
     7123
310
5DD084050BA4050AA405024050E836583938376838C815B8367203140405013D3C696628657175616C28486F6C653A7461707065642C223022292C22252563222C486F6C653A6E6F6D696E616C2022202220696628657175616C28486F6C653A756E6974732C223122292C2278222C222D222920222022293E3C6966286571
310
75616C28486F6C653A7461707065642C223022292C486F6C653A6469612C486F6C653A706974636864657363293E207B5C46414D4744543B787D203C696628657175616C28486F6C653A7465726D696E6174696F6E2C223022292C486F6C653A64657074682C228AD192CA22293E5C507B5C46414D4744543B767D2525633C
310
486F6C653A63746469613E207B5C46414D4744543B787D203C486F6C653A637464657074683E406901405034050E836583938376838C815B83672031405FE3D3C696628657175616C28486F6C653A7461707065642C223022292C22252563222C486F6C653A6E6F6D696E616C2022202220696628657175616C28486F6C653
310
A756E6974732C223122292C2278222C222D222920222022293E3C696628657175616C28486F6C653A7461707065642C223022292C486F6C653A6469612C486F6C653A706974636864657363293E207B5C46414D4744543B787D203C696628657175616C28486F6C653A7465726D696E6174696F6E2C223022292C486F6C653
310
A64657074682C228AD192CA22293E5C507B5C46414D4744543B777D2525633C486F6C653A63746469613E2058203C486F6C653A6374616E676C653E252564406901405014050E836583938376838C815B83672031405CF3D3C696628657175616C28486F6C653A7461707065642C223022292C22252563222C486F6C653A6E
310
6F6D696E616C2022202220696628657175616C28486F6C653A756E6974732C223122292C2278222C222D222920222022293E3C696628657175616C28486F6C653A7461707065642C223022292C486F6C653A6469612C486F6C653A706974636864657363293E5C507B5C46414D4744543B787D203C696628657175616C2848
310
6F6C653A7465726D696E6174696F6E2C223022292C486F6C653A64657074682C228AD192CA22293E4069014051E4090E836583938376838C815B83672032405173D3C535444503A444553433E203C535444503A5354443E40690E836583938376838C815B836720314050C3D3C535444503A444553433E40690240515AAABB
310
A060
360
3ED
330
3ED
360
3EE
330
3EE
360
3EC
330
3EC
360
3EB
360
3EA
330
3EB
330
3EA
 94
        0
  0
ACAD_PROXY_OBJECT
  5
3EF
330
3CA
100
AcDbProxyObject
 90
      499
 91
      564
 95
       25
 70
     0
 93
       26
310
5DD02A80
340
3CB
 94
        0
  0
ACAD_PROXY_OBJECT
  5
3F0
330
3CA
100
AcDbProxyObject
 90
      499
 91
      565
 95
       25
 70
     0
 93
      258
310
5DD02000000000000380FC000000000000E03F408F0F9023C3E40DB18CCCFFFF80
340
3F1
340
4E9
340
516
340
5E4
340
5D2
340
0
340
3F4
340
3F5
340
3FA
340
0
 94
        0
  0
ACAD_PROXY_OBJECT
  5
3FB
330
3CA
100
AcDbProxyObject
 90
      499
 91
      566
 95
       25
 70
     0
 93
    13993
310
5DD1D023FFFFFFFD010300002E07A17AD46E2F8FE00800030C01010300002E07A17AD46E2F8FE00800030C00050C8DC0955782CC838A83588367014ED1D15395149050D3CB1294138B0C0B23702555E0B320E2A0D620D9CB11D15395149055160B095CCB0A11D1539354D1C819D95B991A5B5E880CCC0A78000C0000000000
310
00000000000000000000007B14AE47E17AA43F2E07A17AD46E2F8FE00800030C007B14AE47E17AA43F2E07A17AD46E2F8FE00800030C020143CF4F111959985D5B1D151A5D1B194F8050A8C8A8365815B8375838B014E51D15395149050D3CB1294138B0C0B2322A0D96056E0DD60E2CB11D15395149055160B095CCB0A11D
310
1539354D1C819D95B991A5B5E880CCC4A78000C000000000000000000000000000000007B14AE47E17AA43F2E07A17AD46E2F8FE00800030C007B14AE47E17AA43F2E07A17AD46E2F8FE00800030C020143CF4F111959985D5B1D151A5D1B194F90D4410F4450240D0441507431014391244D05449074510C4350F00014123
310
2D24D7C053247454E545241434F2C4A504E2C302C8CB4935F2C47454E54524154582C25732C2847454E4D53472067656E64696D7A20312900010104002214000282465A49AF80A648E8A9CA8A482869E5894A09C586059196926BE588E8A9CA8A482A8B0584AE658508E8A9C9AA68E40CECADCC8D2DAF44062520002020800
310
43E80005028C8A014C11D15395149050D3CB1294138B0C0B23228B11D15395149055160B095CCB0A11D1539354D1C819D95B991A5B5E880C8A4054E3D3C4946284953424C414E4B28486F6C654974656D292C4F726967696E2C20486F6C654974656D293E3C4946284953424C414E4B28486F6C654974656D292C22222C204
310
86F6C65496E646578293E010104002234000280AC00A5E8E8A9CA8A482869E5894A09C586058B0588E8A9CA8A482A8B0584AE658508E8A9C9AA68E40CECADCC8D2DAF4406652000202000040A800050159014BD1D15395149050D3CB1294138B0C0B164B11D15395149055160B095CCB0A11D1539354D1C819D95B991A5B5E
310
880D0A4000404000081D0000A02A40297A3A2A72A2920A1A796252827161816291623A2A72A2920AA2C1612B9961423A2A726A9A39033B2B73234B6BD101B148000808000104A000140A0F4C053047454E545241434F2C4A504E2C302C83D32C47454E54524154582C25732C2847454E4D53472067656E64696D7A20372900
310
0101030020B400028141E980A608E8A9CA8A482869E5894A09C58605907A6588E8A9CA8A482A8B0584AE658508E8A9C9AA68E40CECADCC8D2DAF4407052000202020041E800050490E096BE014CD1D15395149050D3CB1294138B0C0B243825AF8B11D15395149055160B095CCB0A11D1539354D1C819D95B991A5B5E880C8
310
C0A400040010008650000A091B012DB40299A3A2A72A2920A1A79625282716181646C04B6D1623A2A72A2920AA2C1612B9961423A2A726A9A39033B2B73234B6BD10189A148000808280501A00014320D0E0E4E0D9A0D8A0D3A0D60053B47454E545241434F2C4A504E2C302C8343839383668362834E83582C47454E54524
310
154582C25732C2847454E4D53472067656E64696D7A203135290001010500A1D4000281464500A628E8A9CA8A482869E5894A09C5860591914588E8A9CA8A482A8B0584AE658508E8A9C9AA68E40CECADCC8D2DAF440626C52000202080044A800050E8C8A8343839383668362834E8358014F51D15395149050D3CB129413
310
8B0C0B2322A0D0E0E4E0D9A0D8A0D3A0D60B11D15395149055160B095CCB0A11D1539354D1C819D95B991A5B5E880C4DCA4000404140089D0000A0921292F940299A3A2A72A2920A1A796252827161816484A4BE51623A2A72A2920AA2C1612B9961423A2A726A9A39033B2B73234B6BD10189C948000808300114A0001412
310
2D2E29A4053347454E545241434F2C4A504E2C302C8B4B8A692C47454E54524154582C25732C2847454E4D53472067656E64696D7A20323129000100040021B4878030026A6666666667A4FE064D4CCCCCCCCCF49FC049A9999999999E93F809353333333333D27F0226A6666666667A4FE044D4CCCCCCCCCF49FC0D818000
310
00000000000810026A666666666764FE004D4CCCCCCCCCF49FC009A9999999999E93F801353333333333D27F032E07A17AD46E378FE0633B333333333032050F006004D4CCCCCCCCCF49FC0C9A9999999999E93F819353333333333D27F0326A6666666667A4FE064D4CCCCCCCCCF49FC0C9A9999999999E93F81B03000000
310
00000000102004D4CCCCCCCCCEC9FC009A9999999999E93F819353333333333D27F0026A6666666667A4FE065C0F42F5A8DC6F1FC0C6766666666660640A088800000021E000000890000002260000008220E000200890000002060002008100008000
340
0
340
0
340
0
340
0
340
3D8
340
3D8
 94
        0
  0
ACAD_PROXY_OBJECT
  5
3FC
330
3CA
100
AcDbProxyObject
 90
      499
 91
      567
 95
       25
 70
     0
 93
     5214
310
5DD9741105394D2506414E53495F4342905394D257D512551554D15414E53495F54525F5265766973696F6E6C697374614191143202831372E307832322E30696E63682941905394D257D0D1146202832382E307834302E30696E63682941905394D257D191142202831312E307831372E30696E63682941905394D257D091
310
144202832322E307833342E30696E63682941905394D257D111145202833342E307834342E30696E63682941905394D257D1510412028382E357831312E30696E63682941905394D257D050543905B9CDA482557247A25E4C81110D0C414E53495F5449544C45444343505B9CDA482557247A25E4C81050B414E53495F5449
310
544C454143905B9CDA482557247A25E4C81050D0C414E53495F5449544C45414343505B9CDA482557247A25E4C81110B414E53495F5449544C4544425554C82557247A25E4D0A414E53495F544954555342110979A97F0838A8358836720415F42525F45505394D257D09497D4995D9A5CDA5BDB9B1A5CDD18510979A97F08
310
38A8358836720415F54525F45505394D257D51497D4995D9A5CDA5BDB9B1A5CDD18510979A97F0838A8358836720445F42525F45505394D257D09497D4995D9A5CDA5BDB9B1A5CDD19110979A97F0838A8358836720445F54525F45505394D257D51497D4995D9A5CDA5BDB9B1A5CDD19110979A97F0838A8358836720415F
310
424C5F45505394D257D09317D4995D9A5CDA5BDB9B1A5CDD18510979A97F0838A8358836720415F544C5F45505394D257D51317D4995D9A5CDA5BDB9B1A5CDD18510979A97F0838A8358836720445F424C5F45505394D257D09317D4995D9A5CDA5BDB9B1A5CDD19110979A97F0838A8358836720445F544C5F45505394D25
310
7D51317D4995D9A5CDA5BDB9B1A5CDD190
  0
ACAD_PROXY_OBJECT
  5
67E
330
67D
100
AcDbProxyObject
 90
      499
 91
      573
 95
       25
 70
     0
 93
       86
310
5DEA0C80A0280A0280A034
  0
ACAD_PROXY_OBJECT
  5
67F
330
67D
100
AcDbProxyObject
 90
      499
 91
      574
 95
       25
 70
     0
 93
      282
310
5DD0E4050140501405014050140501405014050141101405014041000000000000001000
340
66D
 94
        0
  0
ACAD_PROXY_OBJECT
  5
680
330
67D
100
AcDbProxyObject
 90
      499
 91
      575
 95
       25
 70
     0
 93
      323
310
5DCC199999999999E99F91740501405014050140501405014050140501405014050140501405014040
340
0
 94
        0
  0
ACAD_PROXY_OBJECT
  5
681
330
67D
100
AcDbProxyObject
 90
      499
 91
      576
 95
       25
 70
     0
 93
       10
310
5DC0
  0
ACAD_PROXY_OBJECT
  5
682
330
67D
100
AcDbProxyObject
 90
      499
 91
      577
 95
       25
 70
     0
 93
      257
310
5DE0C16A22A7D90F49F80000000000001081400000000000004204010000618000
340
668
340
669
 94
        0
  0
ACAD_PROXY_OBJECT
  5
683
330
67D
100
AcDbProxyObject
 90
      499
 91
      578
 95
       25
 70
     0
 93
     5277
310
5DD06411255115350141236025B6901405014069010000000000000910240690120281A8AA2CA0282484A4BE52028120280A032020000000000001220480D202405044E414D454050496BC914F4051C40640A80000000000004E4090193C3D3C4946284953424C414E4B28504152543A4E414D45292C424C4F434B3A4E414D
310
452C504152543A4E414D45293E3C41435F44455343524950544E3E40480A109A82A88AA492829880A091BBD2F7E80A3A80C81D0E27A15AF46E08A81203480901411393D5115014124A363B7D0147501904A0000000000000F902406428F4F1050D7D393D5114F901202832B22A72227A92028366EF6EE06F582028EA0320B4
310
0000000000001F20480C879E9E20A1AFAB27222FA620A122A61F20240506445020000000000000490201C00030C00010180000000000003E400000000000000F901073D3C4954454D3E4050180000000000003E400000000000000F901073D3C4954454D3E40501800000000000034400000000000000D101073D3C4954454
310
D3E40501800000000000034400000000000000D101073D3C4954454D3E405029010000000000000F9000000000000003E4041CF4F125511534F901418F4F1455164F9014060000000000000F9000000000000003E4041CF4F125511534F901800000000000034400000000000000D101073D3C4954454D3E40640400000000
310
0000003E400000000000000F90288800000000000020810000001800120881A068120480A032208521122080D21480D211480A1485214852050000000000003C2FC000000000000F0BF40600800030C0200400030C00CDCCCCCCCCCCEC3F3373333333333B0FC3333333333330940C80D069014090341504901A1999999999
310
9984A040100006180400800061804010000618008098A02808
340
0
340
0
 94
        0
  0
ACAD_PROXY_OBJECT
  5
684
330
67D
100
AcDbProxyObject
 90
      499
 91
      567
 95
       25
 70
     0
 93
     3042
310
5DD9740D29254D064A49535F413342929254D7D512551311505134A49535F42525F5265766973696F6E6C6973744190F4134522028323937783231306D6D2941D29254D7D04D1490E41312028353934783834316D6D2941929254D7D04C50E41332028323937783432306D6D2941929254D7D04CD0F41344C2028323130783
310
239376D6D2941D29254D7D04D1310E41322028343230783539346D6D2941929254D7D04C90F4130202838343178313138396D6D2941929254D7D04C10243129254C82557247A25E4C81050A4A49535F5449544C454143129254C82557247A25E4C81090A4A49535F5449544C45424110E979A97F0838A835883675F42525F4
310
4D29254D7D09497D4995D9A5CDA5BDB9B1A5CDD10E979A97F0838A835883675F54525F44D29254D7D51497D4995D9A5CDA5BDB9B1A5CDD10E979A97F0838A835883675F424C5F44D29254D7D09317D4995D9A5CDA5BDB9B1A5CDD10E979A97F0838A835883675F544C5F44D29254D7D51317D4995D9A5CDA5BDB9B1A5CDD00
  0
ACAD_PROXY_OBJECT
  5
685
330
67D
100
AcDbProxyObject
 90
      499
 91
      579
 95
       25
 70
     0
 93
      898
310
5DC4000000000000124048CF4F11115510525317D3105091530F880A0F11115510525317D05094D4D0D053114F8A50241C9A9999999999B93F26A666666666724FC000000000000E03F400000000000000400000000000000510000000000000024408070000C300000000000000049000
340
15
340
66C
 94
        0
  0
ACAD_PROXY_OBJECT
  5
686
330
67D
100
AcDbProxyObject
 90
      499
 91
      580
 95
       25
 70
     0
 93
      823
310
5DC0B00000000000002480959E9E29A2A1AA24A7A72FA620A122A62FA324A929AA1F169E29A2A1AA24A7A72FA620A122A62FA620A9AA1F000000000000048803FFFE01C00030C008140380006180000000000000048800000000000000A2000000000000002480
340
27
340
66C
 94
        0
  0
ACAD_PROXY_OBJECT
  5
687
330
67D
100
AcDbProxyObject
 90
      499
 91
      581
 95
       25
 70
     0
 93
      152
310
5DE8273108AC1C5A0640A3D0A5723F0BD1F200
  0
ACAD_PROXY_OBJECT
  5
688
330
67D
100
AcDbProxyObject
 90
      499
 91
      582
 95
       25
 70
     0
 93
       14
310
5DE0
340
0
 94
        0
  0
ACAD_PROXY_OBJECT
  5
689
330
67D
100
AcDbProxyObject
 90
      499
 91
      583
 95
       25
 70
     0
 93
     6059
310
5DD084050BA4050AA405024050E836583938376838C815B83672031405983D3C486F6C653A6469613E3C696628657175616C28486F6C653A7465726D696E6174696F6E2C223022292C2220905B82B320222C22208368838A838B22293E3C696628657175616C28486F6C653A7465726D696E6174696F6E2C223022292C486F
310
6C653A64657074682C2222293E2C203C486F6C653A63746469613E2082B482AE82E882CC905B82B3203C486F6C653A637464657074683E406901405034050E836583938376838C815B83672031405EF3D3C486F6C653A6374616E676C653E252564202525633C486F6C653A63746469613E208E4D8C8A2C203C69662865717
310
5616C28486F6C653A7461707065642C223022292C22252563222C486F6C653A6E6F6D696E616C202220782022293E3C696628657175616C28486F6C653A7461707065642C223022292C486F6C653A6469612C486F6C653A706974636864657363293E203C696628657175616C28486F6C653A7465726D696E6174696F6E2C2
310
23022292C22905B82B320222C222022293E3C696628657175616C28486F6C653A7465726D696E6174696F6E2C223022292C486F6C653A64657074682C2222293E406901405014050E836583938376838C815B83672031405C73D3C696628657175616C28486F6C653A7461707065642C223022292C22252563222C486F6C65
310
3A6E6F6D696E616C202220782022293E3C696628657175616C28486F6C653A7461707065642C223022292C486F6C653A6469612C486F6C653A706974636864657363293E203C696628657175616C28486F6C653A7465726D696E6174696F6E2C223022292C22905B82B320222C222022293E3C696628657175616C28486F6C
310
653A7465726D696E6174696F6E2C223022292C486F6C653A64657074682C2222293E4069014051E4090E836583938376838C815B83672032405173D3C535444503A444553433E203C535444503A5354443E40690E836583938376838C815B836720314050C3D3C535444503A444553433E40690240515AAABBA120
360
68A
330
68A
360
68B
330
68B
360
68C
330
68C
360
68D
360
68E
330
68D
330
68E
 94
        0
  0
ACAD_PROXY_OBJECT
  5
68F
330
67D
100
AcDbProxyObject
 90
      499
 91
      564
 95
       25
 70
     0
 93
       26
310
5DD02A80
340
0
 94
        0
  0
ACAD_PROXY_OBJECT
  5
690
330
67D
100
AcDbProxyObject
 90
      499
 91
      565
 95
       25
 70
     0
 93
      250
310
5DD020000000000000A1000000000000002440408F0F9023C3E409A0DCFFFF80
340
66E
340
675
340
676
340
66F
340
670
340
671
340
672
340
673
340
674
340
0
 94
        0
  0
ACAD_PROXY_OBJECT
  5
691
330
67D
100
AcDbProxyObject
 90
      499
 91
      584
 95
       25
 70
     0
 93
    13889
310
5DD1D003FFFFFFFD030300030CCCCCCCCCCCC250200800030C01030300030CCCCCCCCCCCC250200800030C00050C8DC0955782CC838A83588367014ED1D15395149050D3CB1294138B0C0B23702555E0B320E2A0D620D9CB11D15395149055160B095CCB0A11D1539354D1C819D95B991A5B5E880CCC0A78000C0000000000
310
00000000000000000000010CCCCCCCCCCCC250200800030C010CCCCCCCCCCCC250200800030C020143CF4F111959985D5B1D151A5D1B194F8050A8C8A8365815B8375838B014E51D15395149050D3CB1294138B0C0B2322A0D96056E0DD60E2CB11D15395149055160B095CCB0A11D1539354D1C819D95B991A5B5E880CCC4
310
A78000C000000000000000000000000000000010CCCCCCCCCCCC250200800030C010CCCCCCCCCCCC250200800030C020143CF4F111959985D5B1D151A5D1B194F90D44111409034110541D0C4350F4050E44D03449074510F000141232D24D7C053247454E545241434F2C4A504E2C302C8CB4935F2C47454E54524154582C
310
25732C2847454E4D53472067656E64696D7A20312900010104002214000281464500A608E8A9CA8A482869E5894A09C5860591914588E8A9CA8A482A8B0584AE658508E8A9C9AA68E40CECADCC8D2DAF4406452029E9E9E27B934B3B4B71F1E24A31427A91424A9A12620A7259427B934B3B4B7149624A9A12620A7259424B
310
A32B6949496111116111711149F1E24BA32B69F00808200111A000140560052F47454E545241434F2C4A504E2C302C582C47454E54524154582C25732C2847454E4D53472067656E64696D7A20332900010100002054000280AC80A5E8E8A9CA8A482869E5894A09C586058B2588E8A9CA8A482A8B0584AE658508E8A9C9AA
310
68E40CECADCC8D2DAF4406852000202000040E800050152014BD1D15395149050D3CB1294138B0C0B148B11D15395149055160B095CCB0A11D1539354D1C819D95B991A5B5E880D8A400040400008250000A0507A6029823A2A72A2920A1A79625282716181641E99623A2A72A2920AA2C1612B9961423A2A726A9A39033B2
310
B73234B6BD101B948000808180105A000140A0F4C053047454E545241434F2C4A504E2C302C83D32C47454E54524154582C25732C2847454E4D53472067656E64696D7A203829000101010020F400028248704B5F00A668E8A9CA8A482869E5894A09C58605921C12D7C588E8A9CA8A482A8B0584AE658508E8A9C9AA68E40
310
CECADCC8D2DAF440646052000200080043280005048B4B8A69014CD1D15395149050D3CB1294138B0C0B22D2E29A4B11D15395149055160B095CCB0A11D1539354D1C819D95B991A5B5E880C8C4A4000400100086D0000A09196926BE029923A2A72A2920A1A796252827161816465A49AF9623A2A72A2920AA2C1612B9961
310
423A2A726A9A39033B2B73234B6BD10189480A02620202080043E80005048D8096DA014CD1D15395149050D3CB1294138B0C0B236025B68B11D15395149055160B095CCB0A11D1539354D1C819D95B991A5B5E880C4D0A4000404140280D0000A190687072706CD06C5069D06B0029DA3A2A72A2920A1A7962528271618164
310
1A1C1C9C1B341B141A741AC1623A2A72A2920AA2C1612B9961423A2A726A9A39033B2B73234B6BD10189A94800080820050EA000143A322A0D0E0E4E0D9A0D8A0D3A0D60053D47454E545241434F2C4A504E2C302C8C8A8343839383668362834E83582C47454E54524154582C25732C2847454E4D53472067656E64696D7A
310
2031372900010105002274000281464500A628E8A9CA8A482869E5894A09C5860591914588E8A9CA8A482A8B0584AE658508E8A9C9AA68E40CECADCC8D2DAF440626C52000202080044A8000504909497CA014CD1D15395149050D3CB1294138B0C0B242525F28B11D15395149055160B095CCB0A11D1539354D1C819D95B9
310
91A5B5E880C4E4A400040418008A521E000000000000001CA040C00000000000034408080000000000006881010000000000000D102040000000000001A204080000000000003440818000000000000728103000000000000125020600000000004028A040000000000000034408000000000000004881000000000000000D
310
102000000000000001A204000000000000003440818000000000000508143C0000000000000039408180000000000006881030000000000000D102060000000000001A2040C00000000000034408180000000000006881030000000000000E5020600000000000024A040C0000000000805140800000000000000688100000
310
00000000009102000000000000001A2040000000000000034408180000000000006881030000000000000A10284220000000878000002020000008380000020400000081800000208000000828000002028900000000
340
0
340
0
340
0
340
0
340
66C
340
66C
 94
        0
  0
ACAD_PROXY_OBJECT
  5
3ED
330
3E3
100
AcDbProxyObject
 90
      499
 91
      563
 95
       25
 70
     0
 93
     2256
310
5DE0143A0D960E4E0DDA0E32056E0D9C80C40405013D3C696628657175616C28486F6C653A7461707065642C223022292C22252563222C486F6C653A6E6F6D696E616C2022202220696628657175616C28486F6C653A756E6974732C223122292C2278222C222D222920222022293E3C696628657175616C28486F6C653A74
310
61707065642C223022292C486F6C653A6469612C486F6C653A706974636864657363293E207B5C46414D4744543B787D203C696628657175616C28486F6C653A7465726D696E6174696F6E2C223022292C486F6C653A64657074682C228AD192CA22293E5C507B5C46414D4744543B767D2525633C486F6C653A6374646961
310
3E207B5C46414D4744543B787D203C486F6C653A637464657074683E
  0
ACAD_PROXY_OBJECT
  5
3EE
330
3E3
100
AcDbProxyObject
 90
      499
 91
      563
 95
       25
 70
     0
 93
     2192
310
5DE0143A0D960E4E0DDA0E32056E0D9C80C405FE3D3C696628657175616C28486F6C653A7461707065642C223022292C22252563222C486F6C653A6E6F6D696E616C2022202220696628657175616C28486F6C653A756E6974732C223122292C2278222C222D222920222022293E3C696628657175616C28486F6C653A7461
310
707065642C223022292C486F6C653A6469612C486F6C653A706974636864657363293E207B5C46414D4744543B787D203C696628657175616C28486F6C653A7465726D696E6174696F6E2C223022292C486F6C653A64657074682C228AD192CA22293E5C507B5C46414D4744543B777D2525633C486F6C653A63746469613E
310
2058203C486F6C653A6374616E676C653E252564
  0
ACAD_PROXY_OBJECT
  5
3EC
330
3E3
100
AcDbProxyObject
 90
      499
 91
      563
 95
       25
 70
     0
 93
     1816
310
5DE0143A0D960E4E0DDA0E32056E0D9C80C405CF3D3C696628657175616C28486F6C653A7461707065642C223022292C22252563222C486F6C653A6E6F6D696E616C2022202220696628657175616C28486F6C653A756E6974732C223122292C2278222C222D222920222022293E3C696628657175616C28486F6C653A7461
310
707065642C223022292C486F6C653A6469612C486F6C653A706974636864657363293E5C507B5C46414D4744543B787D203C696628657175616C28486F6C653A7465726D696E6174696F6E2C223022292C486F6C653A64657074682C228AD192CA22293E
  0
ACAD_PROXY_OBJECT
  5
3EB
330
3E3
100
AcDbProxyObject
 90
      499
 91
      563
 95
       25
 70
     0
 93
      344
310
5DE0143A0D960E4E0DDA0E32056E0D9C80C805173D3C535444503A444553433E203C535444503A5354443E
  0
ACAD_PROXY_OBJECT
  5
3EA
330
3E3
100
AcDbProxyObject
 90
      499
 91
      563
 95
       25
 70
     0
 93
      256
310
5DE0143A0D960E4E0DDA0E32056E0D9C80C4050C3D3C535444503A444553433E
  0
ACAD_PROXY_OBJECT
  5
68A
330
689
100
AcDbProxyObject
 90
      499
 91
      563
 95
       25
 70
     0
 93
     1376
310
5DE0143A0D960E4E0DDA0E32056E0D9C80C405983D3C486F6C653A6469613E3C696628657175616C28486F6C653A7465726D696E6174696F6E2C223022292C2220905B82B320222C22208368838A838B22293E3C696628657175616C28486F6C653A7465726D696E6174696F6E2C223022292C486F6C653A64657074682C22
310
22293E2C203C486F6C653A63746469613E2082B482AE82E882CC905B82B3203C486F6C653A637464657074683E
  0
ACAD_PROXY_OBJECT
  5
68B
330
689
100
AcDbProxyObject
 90
      499
 91
      563
 95
       25
 70
     0
 93
     2072
310
5DE0143A0D960E4E0DDA0E32056E0D9C80C405EF3D3C486F6C653A6374616E676C653E252564202525633C486F6C653A63746469613E208E4D8C8A2C203C696628657175616C28486F6C653A7461707065642C223022292C22252563222C486F6C653A6E6F6D696E616C202220782022293E3C696628657175616C28486F6C
310
653A7461707065642C223022292C486F6C653A6469612C486F6C653A706974636864657363293E203C696628657175616C28486F6C653A7465726D696E6174696F6E2C223022292C22905B82B320222C222022293E3C696628657175616C28486F6C653A7465726D696E6174696F6E2C223022292C486F6C653A6465707468
310
2C2222293E
  0
ACAD_PROXY_OBJECT
  5
68C
330
689
100
AcDbProxyObject
 90
      499
 91
      563
 95
       25
 70
     0
 93
     1752
310
5DE0143A0D960E4E0DDA0E32056E0D9C80C405C73D3C696628657175616C28486F6C653A7461707065642C223022292C22252563222C486F6C653A6E6F6D696E616C202220782022293E3C696628657175616C28486F6C653A7461707065642C223022292C486F6C653A6469612C486F6C653A706974636864657363293E20
310
3C696628657175616C28486F6C653A7465726D696E6174696F6E2C223022292C22905B82B320222C222022293E3C696628657175616C28486F6C653A7465726D696E6174696F6E2C223022292C486F6C653A64657074682C2222293E
  0
ACAD_PROXY_OBJECT
  5
68D
330
689
100
AcDbProxyObject
 90
      499
 91
      563
 95
       25
 70
     0
 93
      344
310
5DE0143A0D960E4E0DDA0E32056E0D9C80C805173D3C535444503A444553433E203C535444503A5354443E
  0
ACAD_PROXY_OBJECT
  5
68E
330
689
100
AcDbProxyObject
 90
      499
 91
      563
 95
       25
 70
     0
 93
      256
310
5DE0143A0D960E4E0DDA0E32056E0D9C80C4050C3D3C535444503A444553433E
  0
ENDSEC
  0
EOF
