  0
SECTION
  2
HEADER
  9
$ACADVER
  1
AC1015
  9
$ACADMAINTVER
 70
     6
  9
$DWGCODEPAGE
  3
ANSI_932
  9
$INSBASE
 10
0.0
 20
0.0
 30
0.0
  9
$EXTMIN
 10
-62.39330513030291
 20
-71.27219682448214
 30
0.0
  9
$EXTMAX
 10
127.3943867668893
 20
80.58573534339664
 30
0.0
  9
$LIMMIN
 10
0.0
 20
0.0
  9
$LIMMAX
 10
400.0
 20
273.0
  9
$ORTHOMODE
 70
     0
  9
$REGENMODE
 70
     1
  9
$FILLMODE
 70
     1
  9
$QTEXTMODE
 70
     0
  9
$MIRRTEXT
 70
     1
  9
$LTSCALE
 40
1.0
  9
$ATTMODE
 70
     1
  9
$TEXTSIZE
 40
3.0
  9
$TRACEWID
 40
0.5
  9
$TEXTSTYLE
  7
STANDARD
  9
$CLAYER
  8
AM_0
  9
$CELTYPE
  6
ByLayer
  9
$CECOLOR
 62
   256
  9
$CELTSCALE
 40
1.0
  9
$DISPSILH
 70
     0
  9
$DIMSCALE
 40
1.0
  9
$DIMASZ
 40
3.0
  9
$DIMEXO
 40
1.0
  9
$DIMDLI
 40
5.0
  9
$DIMRND
 40
0.0
  9
$DIMDLE
 40
3.0
  9
$DIMEXE
 40
2.0
  9
$DIMTP
 40
0.0
  9
$DIMTM
 40
0.0
  9
$DIMTXT
 40
5.0
  9
$DIMCEN
 40
2.0
  9
$DIMTSZ
 40
0.0
  9
$DIMTOL
 70
     0
  9
$DIMLIM
 70
     0
  9
$DIMTIH
 70
     0
  9
$DIMTOH
 70
     0
  9
$DIMSE1
 70
     0
  9
$DIMSE2
 70
     0
  9
$DIMTAD
 70
     1
  9
$DIMZIN
 70
     8
  9
$DIMBLK
  1

  9
$DIMASO
 70
     1
  9
$DIMSHO
 70
     0
  9
$DIMPOST
  1

  9
$DIMAPOST
  1

  9
$DIMALT
 70
     0
  9
$DIMALTD
 70
     4
  9
$DIMALTF
 40
25.4
  9
$DIMLFAC
 40
1.0
  9
$DIMTOFL
 70
     1
  9
$DIMTVP
 40
1.0
  9
$DIMTIX
 70
     0
  9
$DIMSOXD
 70
     0
  9
$DIMSAH
 70
     0
  9
$DIMBLK1
  1

  9
$DIMBLK2
  1

  9
$DIMSTYLE
  2
Standard
  9
$DIMCLRD
 70
     0
  9
$DIMCLRE
 70
     0
  9
$DIMCLRT
 70
     0
  9
$DIMTFAC
 40
1.0
  9
$DIMGAP
 40
0.09
  9
$DIMJUST
 70
     0
  9
$DIMSD1
 70
     0
  9
$DIMSD2
 70
     0
  9
$DIMTOLJ
 70
     1
  9
$DIMTZIN
 70
     0
  9
$DIMALTZ
 70
     0
  9
$DIMALTTZ
 70
     0
  9
$DIMUPT
 70
     0
  9
$DIMDEC
 70
     0
  9
$DIMTDEC
 70
     4
  9
$DIMALTU
 70
     2
  9
$DIMALTTD
 70
     2
  9
$DIMTXSTY
  7
STANDARD
  9
$DIMAUNIT
 70
     0
  9
$DIMADEC
 70
     0
  9
$DIMALTRND
 40
0.0
  9
$DIMAZIN
 70
     0
  9
$DIMDSEP
 70
    46
  9
$DIMATFIT
 70
     3
  9
$DIMFRAC
 70
     0
  9
$DIMLDRBLK
  1

  9
$DIMLUNIT
 70
     2
  9
$DIMLWD
 70
    -2
  9
$DIMLWE
 70
    -2
  9
$DIMTMOVE
 70
     0
  9
$LUNITS
 70
     2
  9
$LUPREC
 70
     4
  9
$SKETCHINC
 40
1.0
  9
$FILLETRAD
 40
0.0
  9
$AUNITS
 70
     0
  9
$AUPREC
 70
     0
  9
$MENU
  1
acad
  9
$ELEVATION
 40
0.0
  9
$PELEVATION
 40
0.0
  9
$THICKNESS
 40
0.0
  9
$LIMCHECK
 70
     0
  9
$CHAMFERA
 40
0.0
  9
$CHAMFERB
 40
0.0
  9
$CHAMFERC
 40
0.0
  9
$CHAMFERD
 40
0.0
  9
$SKPOLY
 70
     0
  9
$TDCREATE
 40
2453969.575659722
  9
$TDUCREATE
 40
2453969.200659722
  9
$TDUPDATE
 40
2455441.399612628
  9
$TDUUPDATE
 40
2455441.024612628
  9
$TDINDWG
 40
0.020136713
  9
$TDUSRTIMER
 40
0.0201363426
  9
$USRTIMER
 70
     1
  9
$ANGBASE
 50
0.0
  9
$ANGDIR
 70
     0
  9
$PDMODE
 70
     0
  9
$PDSIZE
 40
0.0
  9
$PLINEWID
 40
0.0
  9
$SPLFRAME
 70
     0
  9
$SPLINETYPE
 70
     6
  9
$SPLINESEGS
 70
    16
  9
$HANDSEED
  5
836
  9
$SURFTAB1
 70
     6
  9
$SURFTAB2
 70
     6
  9
$SURFTYPE
 70
     6
  9
$SURFU
 70
     6
  9
$SURFV
 70
     6
  9
$UCSBASE
  2

  9
$UCSNAME
  2

  9
$UCSORG
 10
0.0
 20
0.0
 30
0.0
  9
$UCSXDIR
 10
1.0
 20
0.0
 30
0.0
  9
$UCSYDIR
 10
0.0
 20
1.0
 30
0.0
  9
$UCSORTHOREF
  2

  9
$UCSORTHOVIEW
 70
     0
  9
$UCSORGTOP
 10
0.0
 20
0.0
 30
0.0
  9
$UCSORGBOTTOM
 10
0.0
 20
0.0
 30
0.0
  9
$UCSORGLEFT
 10
0.0
 20
0.0
 30
0.0
  9
$UCSORGRIGHT
 10
0.0
 20
0.0
 30
0.0
  9
$UCSORGFRONT
 10
0.0
 20
0.0
 30
0.0
  9
$UCSORGBACK
 10
0.0
 20
0.0
 30
0.0
  9
$PUCSBASE
  2

  9
$PUCSNAME
  2

  9
$PUCSORG
 10
0.0
 20
0.0
 30
0.0
  9
$PUCSXDIR
 10
1.0
 20
0.0
 30
0.0
  9
$PUCSYDIR
 10
0.0
 20
1.0
 30
0.0
  9
$PUCSORTHOREF
  2

  9
$PUCSORTHOVIEW
 70
     0
  9
$PUCSORGTOP
 10
0.0
 20
0.0
 30
0.0
  9
$PUCSORGBOTTOM
 10
0.0
 20
0.0
 30
0.0
  9
$PUCSORGLEFT
 10
0.0
 20
0.0
 30
0.0
  9
$PUCSORGRIGHT
 10
0.0
 20
0.0
 30
0.0
  9
$PUCSORGFRONT
 10
0.0
 20
0.0
 30
0.0
  9
$PUCSORGBACK
 10
0.0
 20
0.0
 30
0.0
  9
$USERI1
 70
     0
  9
$USERI2
 70
     0
  9
$USERI3
 70
     0
  9
$USERI4
 70
     0
  9
$USERI5
 70
     0
  9
$USERR1
 40
0.0
  9
$USERR2
 40
0.0
  9
$USERR3
 40
0.0
  9
$USERR4
 40
0.0
  9
$USERR5
 40
0.0
  9
$WORLDVIEW
 70
     1
  9
$SHADEDGE
 70
     3
  9
$SHADEDIF
 70
    70
  9
$TILEMODE
 70
     1
  9
$MAXACTVP
 70
    64
  9
$PINSBASE
 10
0.0
 20
0.0
 30
0.0
  9
$PLIMCHECK
 70
     0
  9
$PEXTMIN
 10
1.000000000000000E+20
 20
1.000000000000000E+20
 30
1.000000000000000E+20
  9
$PEXTMAX
 10
-1.000000000000000E+20
 20
-1.000000000000000E+20
 30
-1.000000000000000E+20
  9
$PLIMMIN
 10
0.0
 20
0.0
  9
$PLIMMAX
 10
12.0
 20
9.0
  9
$UNITMODE
 70
     0
  9
$VISRETAIN
 70
     1
  9
$PLINEGEN
 70
     0
  9
$PSLTSCALE
 70
     1
  9
$TREEDEPTH
 70
  3020
  9
$CMLSTYLE
  2
Standard
  9
$CMLJUST
 70
     0
  9
$CMLSCALE
 40
1.0
  9
$PROXYGRAPHICS
 70
     1
  9
$MEASUREMENT
 70
     0
  9
$CELWEIGHT
370
    -1
  9
$ENDCAPS
280
     0
  9
$JOINSTYLE
280
     0
  9
$LWDISPLAY
290
     0
  9
$INSUNITS
 70
     0
  9
$HYPERLINKBASE
  1

  9
$STYLESHEET
  1
sei_cad.ctb
  9
$XEDIT
290
     1
  9
$CEPSNTYPE
380
     0
  9
$PSTYLEMODE
290
     1
  9
$FINGERPRINTGUID
  2
{055B80A3-2771-42BF-9A6B-6CC92142C913}
  9
$VERSIONGUID
  2
{65B2BB8A-FBEC-4CF9-9865-F5A1FDDE9806}
  9
$EXTNAMES
290
     1
  9
$PSVPSCALE
 40
0.0
  9
$OLESTARTUP
290
     0
  0
ENDSEC
  0
SECTION
  2
CLASSES
  0
CLASS
  1
ACDBDICTIONARYWDFLT
  2
AcDbDictionaryWithDefault
  3
ObjectDBX Classes
 90
        0
280
     0
281
     0
  0
CLASS
  1
TABLESTYLE
  2
AcDbTableStyle
  3
ObjectDBX Classes
 90
     2047
280
     0
281
     0
  0
CLASS
  1
ACME_DOCUMENT
  2
AcMeDbDoc
  3
AcMeServices
 90
        0
280
     1
281
     0
  0
CLASS
  1
ACMESCOPE
  2
AcMeScope
  3
AcMeServices
 90
        0
280
     1
281
     0
  0
CLASS
  1
ACMECOMMANDHISTORY
  2
AcMeCommandHistory
  3
AcMeServices
 90
        0
280
     1
281
     0
  0
CLASS
  1
ACIMSYSVARMAN
  2
AcImSysVarManager
  3
AcMeServices
 90
        0
280
     1
281
     0
  0
CLASS
  1
ACIMINTSYSVAR
  2
AcImIntSysVar
  3
AcMeServices
 90
        0
280
     1
281
     0
  0
CLASS
  1
ACMEDRAWINGMAN
  2
AcMeDrawingMan
  3
AcMeServices
 90
        0
280
     1
281
     0
  0
CLASS
  1
ACMEVIEW
  2
AcMeView
  3
AcMeServices
 90
        0
280
     1
281
     0
  0
CLASS
  1
ACDBENTITYCACHE
  2
AcMeEntityCache
  3
AcMeServices
 90
        0
280
     1
281
     0
  0
CLASS
  1
GSMANAGER
  2
AcMeGSManager
  3
AcMeServices
 90
        0
280
     1
281
     0
  0
CLASS
  1
AMDTINTERNALREACTOR
  2
AmdtInternalReactor
  3
AcMeServices
 90
        0
280
     1
281
     0
  0
CLASS
  1
ACMESTATEMGR
  2
AcMeStateMgr
  3
AcMeServices
 90
        0
280
     1
281
     0
  0
CLASS
  1
ACGREFMASTER
  2
AcGrefMaster
  3
AcAttribServices
 90
        0
280
     1
281
     0
  0
CLASS
  1
AM_DRAWING_MGR
  2
AcDmDwgMgr
  3
AcMechDwgViewMgmt
 90
        0
280
     1
281
     0
  0
CLASS
  1
AM_DWG_DOCUMENT
  2
AcDmDwgDocument
  3
AcMechDwgViewMgmt
 90
        0
280
     1
281
     0
  0
CLASS
  1
AM_DWG_SHEET
  2
AcDmSheet
  3
AcMechDwgViewMgmt
 90
        0
280
     1
281
     0
  0
CLASS
  1
AM_VIEWDIMPARMAP
  2
AcDmViewDimParMap
  3
AcMechDwgViewMgmt
 90
        0
280
     1
281
     0
  0
CLASS
  1
ACIMREALSYSVAR
  2
AcImRealSysVar
  3
AcMeServices
 90
        0
280
     1
281
     0
  0
CLASS
  1
AM_DWGMGR_NAME
  2
AcDmDwgMgrName
  3
AcMechDwgViewMgmt
 90
        0
280
     1
281
     0
  0
CLASS
  1
ACME_DATABASE
  2
AcMeDbDatabase
  3
AcMeServices
 90
        0
280
     1
281
     0
  0
CLASS
  1
ACRFINSADJUSTERMGR
  2
AcRfInsAdjusterMgr
  3
AcMeServices
 90
        0
280
     1
281
     0
  0
CLASS
  1
ACGREFACADMASTER
  2
AcGrefacadMaster
  3
AcGrefServices
 90
        0
280
     1
281
     0
  0
CLASS
  1
AMDTMENUSTATEMGR
  2
AmdtMenuStateMgr
  3
McadcomServices
 90
        0
280
     1
281
     0
  0
CLASS
  1
AMDTMCOMMENUSTATE
  2
AmdtMcomMenuState
  3
McadcomServices
 90
        0
280
     1
281
     0
  0
CLASS
  1
AMIMASTER
  2
AmiMaster
  3
AmiServices
 90
        0
280
     1
281
     0
  0
CLASS
  1
AMGSETTINGSOBJ
  2
AmgSettingsObj
  3
"AcadM|Product Description: AutoCAD Mechanical 2000|Company: Autodesk"
 90
        0
280
     1
281
     0
  0
CLASS
  1
MAPIAMMOUDLE
  2
MApiAmModule
  3
MApiAmServices
 90
        0
280
     1
281
     0
  0
CLASS
  1
AMDTADMENUSTATE
  2
AmdtAdMenuState
  3
DesignerServices
 90
        0
280
     1
281
     0
  0
CLASS
  1
ADAPPL
  2
AcAdAppl
  3
DesignerServices
 90
        0
280
     1
281
     0
  0
CLASS
  1
DEPMGR
  2
AcAdDepMgr
  3
DesignerServices
 90
        0
280
     1
281
     0
  0
CLASS
  1
PARAMMGR
  2
AcAdParamMgr
  3
DesignerServices
 90
        0
280
     1
281
     0
  0
CLASS
  1
PARAMSCOPE
  2
AcAdParamScope
  3
DesignerServices
 90
        0
280
     1
281
     0
  0
CLASS
  1
NAMEDAPPL
  2
AcAdNamedAppl
  3
DesignerServices
 90
        0
280
     1
281
     0
  0
CLASS
  1
AMDTDMMENUSTATE
  2
AmdtDmMenuState
  3
AcMechDwgViewMgmt
 90
        0
280
     1
281
     0
  0
CLASS
  1
AMDTAMMENUSTATE
  2
AmdtAmMenuState
  3
DesignerAssemblies
 90
        0
280
     1
281
     0
  0
CLASS
  1
ACIMSTRSYSVAR
  2
AcImStrSysVar
  3
AcMeServices
 90
        0
280
     1
281
     0
  0
CLASS
  1
ACAMPROJECT
  2
AcAmProject
  3
DesignerAssemblies
 90
        0
280
     1
281
     0
  0
CLASS
  1
ACAMGRCOMPDEF
  2
AcAmGrCompDef
  3
DesignerAssemblies
 90
        0
280
     1
281
     0
  0
CLASS
  1
ACCMCONTEXT
  2
AcCmContext
  3
DesignerAssemblies
 90
        0
280
     1
281
     0
  0
CLASS
  1
ACAMCOMPDEF
  2
AcAmCompDef
  3
DesignerAssemblies
 90
        0
280
     1
281
     0
  0
CLASS
  1
ACAMCOMPDEFMGR
  2
AcAmCompDefMgr
  3
DesignerAssemblies
 90
        0
280
     1
281
     0
  0
CLASS
  1
AMCONTEXTMGR
  2
AcAmContextMgr
  3
DesignerAssemblies
 90
        0
280
     1
281
     0
  0
CLASS
  1
ACAMCONTEXTMODELER
  2
AcAmContextModeler
  3
DesignerAssemblies
 90
        0
280
     1
281
     0
  0
CLASS
  1
ACMDATADICTIONARY
  2
AcmDataDictionary
  3
"AcmSymBB|Product Description: AutoCAD Mechanical 2004 DX|Company: Autodesk"
 90
        0
280
     1
281
     0
  0
CLASS
  1
CATALOGSTATE
  2
AcAmCatalogState
  3
DesignerAssemblies
 90
        0
280
     1
281
     0
  0
CLASS
  1
ACAMGRCOMPDEFSET
  2
AcAmGrCompDefSet
  3
DesignerAssemblies
 90
        0
280
     1
281
     0
  0
CLASS
  1
AMDTBROWSERDBTAB
  2
AmdtBrowserDbTab
  3
McadcomServices
 90
        0
280
     1
281
     0
  0
CLASS
  1
CBROWSERAPPOBJECT
  2
CBrowserAppObject
  3
McadcomServices
 90
        0
280
     1
281
     0
  0
CLASS
  1
DM_PLACEHOLDER
  2
AcDmSelsetPlaceholder
  3
AcMechDwgViewMgmt
 90
        0
280
     1
281
     0
  0
CLASS
  1
ACMSTANDARDANSI
  2
AcmStandardANSI
  3
"Amdt_StdImp|Product Description: AutoCAD Mechanical 2004 DX|Company: Autodesk"
 90
        0
280
     1
281
     0
  0
CLASS
  1
AMGOBJPROPCFG
  2
AmgObjPropCfg
  3
"AmgLay|Product Description: AutoCAD Mechanical 2000|Company: Autodesk"
 90
        1
280
     1
281
     0
  0
CLASS
  1
ACMSURFSTANDARDANSI
  2
AcmSurfTextStdANSI
  3
"Amdt_StdImp|Product Description: AutoCAD Mechanical 2004 DX|Company: Autodesk"
 90
        0
280
     1
281
     0
  0
CLASS
  1
ACMFCFSTANDARDANSI
  2
AcmFCFStdANSI
  3
"Amdt_StdImp|Product Description: AutoCAD Mechanical 2004 DX|Company: Autodesk"
 90
        0
280
     1
281
     0
  0
CLASS
  1
ACMWELDSTANDARDANSI
  2
AcmWeldingStdANSI
  3
"Amdt_StdImp|Product Description: AutoCAD Mechanical 2004 DX|Company: Autodesk"
 90
        0
280
     1
281
     0
  0
CLASS
  1
ACMIDSTANDARDANSI
  2
AcmIdStdANSI
  3
"Amdt_StdImp|Product Description: AutoCAD Mechanical 2004 DX|Company: Autodesk"
 90
        0
280
     1
281
     0
  0
CLASS
  1
ACMDATUMSTANDARDANSI
  2
AcmDatumStdANSI
  3
"Amdt_StdImp|Product Description: AutoCAD Mechanical 2004 DX|Company: Autodesk"
 90
        0
280
     1
281
     0
  0
CLASS
  1
ACMBOMSTANDARDANSI
  2
AcmBOMStdANSI
  3
"Amdt_StdImp|Product Description: AutoCAD Mechanical 2004 DX|Company: Autodesk"
 90
        0
280
     1
281
     0
  0
CLASS
  1
ACMDETAILSTANDARDANSI
  2
AmdtDetailSymStdANSI
  3
"Amdt_StdImp|Product Description: AutoCAD Mechanical 2004 DX|Company: Autodesk"
 90
        0
280
     1
281
     0
  0
CLASS
  1
ACMSECTIONSTANDARDANSI
  2
AmdtSectionSymStdANSI
  3
"Amdt_StdImp|Product Description: AutoCAD Mechanical 2004 DX|Company: Autodesk"
 90
        0
280
     1
281
     0
  0
CLASS
  1
ACMCENTERLINESTANDARDANSI
  2
AmdtCenterLineStdANSI
  3
"Amdt_StdImp|Product Description: AutoCAD Mechanical 2004 DX|Company: Autodesk"
 90
        0
280
     1
281
     0
  0
CLASS
  1
ACMTHREADLINESTANDARDANSI
  2
AmdtThreadLineStdANSI
  3
"Amdt_StdImp|Product Description: AutoCAD Mechanical 2004 DX|Company: Autodesk"
 90
        0
280
     1
281
     0
  0
CLASS
  1
ACMNOTESTANDARDANSI
  2
AmdtNoteStdANSI
  3
"Amdt_StdImp|Product Description: AutoCAD Mechanical 2004 DX|Company: Autodesk"
 90
        0
280
     1
281
     0
  0
CLASS
  1
AMDTNOTETEMPLATEDB
  2
AmdtNoteTemplateDB
  3
AMDT_STDIMP_MODULE_NAME
 90
        0
280
     1
281
     0
  0
CLASS
  1
ACAMGLAYSTD
  2
AcAmgLayStd
  3
"AcAmgLayStd|Product Description: AutoCAD Mechanical 2000|Company: Autodesk"
 90
        0
280
     1
281
     0
  0
CLASS
  1
ACAMGDIMSTD
  2
AcAmgDimStd
  3
"AcAmgDimStd|Product Description: AutoCAD Mechanical 2000|Company: Autodesk"
 90
        0
280
     1
281
     0
  0
CLASS
  1
ACAMGHOLECHARTSTDANSI
  2
AcAmgHoleChartStdANSI
  3
ACMSYMBB_MODULE_NAME
 90
        0
280
     1
281
     0
  0
CLASS
  1
ACAMGTITLESTD
  2
AcAmgTitleStd
  3
"TITLEAPP"
 90
        0
280
     1
281
     0
  0
CLASS
  1
ACAMGFILTERDAT
  2
AcAmgFilterDat
  3
"AcadM|Product Description: AutoCAD Mechanical 2000|Company: Autodesk"
 90
        0
280
     1
281
     0
  0
CLASS
  1
DICTIONARYVAR
  2
AcDbDictionaryVar
  3
ObjectDBX Classes
 90
        0
280
     0
281
     0
  0
CLASS
  1
ACMDATAENTRYBLOCK
  2
AcmDataEntryBlock
  3
"AcmSymBB|Product Description: AutoCAD Mechanical 2004 DX|Company: Autodesk"
 90
        0
280
     1
281
     0
  0
CLASS
  1
AMDTNOTE
  2
AmdtNote
  3
"AcmSymBB|Product Description: AutoCAD Mechanical 2004 DX|Company: Autodesk"
 90
     1023
280
     1
281
     1
  0
CLASS
  1
ACMSTANDARDJIS
  2
AcmStandardJIS
  3
"Amdt_StdImp|Product Description: AutoCAD Mechanical 2004 DX|Company: Autodesk"
 90
        0
280
     1
281
     0
  0
CLASS
  1
ACMSURFSTANDARDJIS
  2
AcmSurfTextStdJIS
  3
"Amdt_StdImp|Product Description: AutoCAD Mechanical 2004 DX|Company: Autodesk"
 90
        0
280
     1
281
     0
  0
CLASS
  1
ACMFCFSTANDARDJIS
  2
AcmFCFStdJIS
  3
"Amdt_StdImp|Product Description: AutoCAD Mechanical 2004 DX|Company: Autodesk"
 90
        0
280
     1
281
     0
  0
CLASS
  1
ACMWELDSTANDARDJIS
  2
AcmWeldingStdJIS
  3
"Amdt_StdImp|Product Description: AutoCAD Mechanical 2004 DX|Company: Autodesk"
 90
        0
280
     1
281
     0
  0
CLASS
  1
ACMIDSTANDARDJIS
  2
AcmIdStdJIS
  3
"Amdt_StdImp|Product Description: AutoCAD Mechanical 2004 DX|Company: Autodesk"
 90
        0
280
     1
281
     0
  0
CLASS
  1
ACMDATUMSTANDARDJIS
  2
AcmDatumStdJIS
  3
"Amdt_StdImp|Product Description: AutoCAD Mechanical 2004 DX|Company: Autodesk"
 90
        0
280
     1
281
     0
  0
CLASS
  1
ACMBOMSTANDARDJIS
  2
AcmBOMStdJIS
  3
"Amdt_StdImp|Product Description: AutoCAD Mechanical 2004 DX|Company: Autodesk"
 90
        0
280
     1
281
     0
  0
CLASS
  1
ACMDETAILSTANDARDJIS
  2
AmdtDetailSymStdJIS
  3
"Amdt_StdImp|Product Description: AutoCAD Mechanical 2004 DX|Company: Autodesk"
 90
        0
280
     1
281
     0
  0
CLASS
  1
ACMSECTIONSTANDARDJIS
  2
AmdtSectionSymStdJIS
  3
"Amdt_StdImp|Product Description: AutoCAD Mechanical 2004 DX|Company: Autodesk"
 90
        0
280
     1
281
     0
  0
CLASS
  1
ACMCENTERLINESTANDARDJIS
  2
AmdtCenterLineStdJIS
  3
"Amdt_StdImp|Product Description: AutoCAD Mechanical 2004 DX|Company: Autodesk"
 90
        0
280
     1
281
     0
  0
CLASS
  1
ACMTHREADLINESTANDARDJIS
  2
AmdtThreadLineStdJIS
  3
"Amdt_StdImp|Product Description: AutoCAD Mechanical 2004 DX|Company: Autodesk"
 90
        0
280
     1
281
     0
  0
CLASS
  1
ACMNOTESTANDARDJIS
  2
AmdtNoteStdJIS
  3
"Amdt_StdImp|Product Description: AutoCAD Mechanical 2004 DX|Company: Autodesk"
 90
        0
280
     1
281
     0
  0
CLASS
  1
ACAMGHOLECHARTSTDJIS
  2
AcAmgHoleChartStdJIS
  3
ACMSYMBB_MODULE_NAME
 90
        0
280
     1
281
     0
  0
CLASS
  1
ACDBPLACEHOLDER
  2
AcDbPlaceHolder
  3
ObjectDBX Classes
 90
        0
280
     0
281
     0
  0
CLASS
  1
LAYOUT
  2
AcDbLayout
  3
ObjectDBX Classes
 90
        0
280
     0
281
     0
  0
ENDSEC
  0
SECTION
  2
TABLES
  0
TABLE
  2
VPORT
  5
8
330
0
100
AcDbSymbolTable
 70
     3
  0
VPORT
  5
830
330
8
100
AcDbSymbolTableRecord
100
AcDbViewportTableRecord
  2
*Active
 70
     0
 10
0.0
 20
0.0
 11
1.0
 21
1.0
 12
48.65208120668831
 22
2.190070843423897
 13
0.0
 23
0.0
 14
0.5
 24
0.5
 15
0.0
 25
0.0
 16
0.0
 26
0.0
 36
1.0
 17
0.0
 27
0.0
 37
0.0
 40
244.8170512343807
 41
1.372924648786718
 42
50.0
 43
0.0
 44
0.0
 50
0.0
 51
0.0
 71
     0
 72
 10000
 73
     1
 74
     1
 75
     0
 76
     0
 77
     0
 78
     0
281
     0
 65
     0
110
0.0
120
0.0
130
0.0
111
1.0
121
0.0
131
0.0
112
0.0
122
1.0
132
0.0
 79
     0
146
0.0
  0
ENDTAB
  0
TABLE
  2
LTYPE
  5
5
330
0
100
AcDbSymbolTable
 70
    13
  0
LTYPE
  5
13
330
5
100
AcDbSymbolTableRecord
100
AcDbLinetypeTableRecord
  2
ByBlock
 70
     0
  3

 72
    65
 73
     0
 40
0.0
  0
LTYPE
  5
14
330
5
100
AcDbSymbolTableRecord
100
AcDbLinetypeTableRecord
  2
ByLayer
 70
     0
  3

 72
    65
 73
     0
 40
0.0
  0
LTYPE
  5
15
330
5
100
AcDbSymbolTableRecord
100
AcDbLinetypeTableRecord
  2
CONTINUOUS
 70
     0
  3
solid line
 72
    65
 73
     0
 40
0.0
  0
LTYPE
  5
27
330
5
100
AcDbSymbolTableRecord
100
AcDbLinetypeTableRecord
  2
CENTER
 70
     0
  3
--- - --- - --- - --- - --- - 
 72
    65
 73
     4
 40
6.0
 49
3.0
 74
     0
 49
-1.0
 74
     0
 49
1.0
 74
     0
 49
-1.0
 74
     0
  0
LTYPE
  5
28
330
5
100
AcDbSymbolTableRecord
100
AcDbLinetypeTableRecord
  2
PHANTOM
 70
     0
  3
----- - - ----- - - ----- - - 
 72
    65
 73
     6
 40
8.0
 49
3.0
 74
     0
 49
-1.0
 74
     0
 49
1.0
 74
     0
 49
-1.0
 74
     0
 49
1.0
 74
     0
 49
-1.0
 74
     0
  0
LTYPE
  5
354
330
5
100
AcDbSymbolTableRecord
100
AcDbLinetypeTableRecord
  2
HIDDEN
 70
     0
  3
Hidden __ __ __ __ __ __ __ __ __ __ __ __ __ _
 72
    65
 73
     2
 40
0.375
 49
0.25
 74
     0
 49
-0.125
 74
     0
  0
LTYPE
  5
355
330
5
100
AcDbSymbolTableRecord
100
AcDbLinetypeTableRecord
  2
PHANTOM2
 70
     0
  3
Phantom (.5x) ___ _ _ ___ _ _ ___ _ _ ___ _ _
 72
    65
 73
     6
 40
1.25
 49
0.625
 74
     0
 49
-0.125
 74
     0
 49
0.125
 74
     0
 49
-0.125
 74
     0
 49
0.125
 74
     0
 49
-0.125
 74
     0
  0
LTYPE
  5
390
330
5
100
AcDbSymbolTableRecord
100
AcDbLinetypeTableRecord
  2
Amconstr
 70
     0
  3
_______________________
 72
    65
 73
     2
 40
9999.0
 49
9999.0
 74
     0
 49
0.0
 74
     0
  0
LTYPE
  5
396
330
5
100
AcDbSymbolTableRecord
100
AcDbLinetypeTableRecord
  2
CENTER2
 70
     0
  3
Center (.5x) ___ _ ___ _ ___ _ ___ _ ___ _ ___
 72
    65
 73
     4
 40
1.125
 49
0.75
 74
     0
 49
-0.125
 74
     0
 49
0.125
 74
     0
 49
-0.125
 74
     0
  0
LTYPE
  5
397
330
5
100
AcDbSymbolTableRecord
100
AcDbLinetypeTableRecord
  2
HIDDEN2
 70
     0
  3
Hidden (.5x) _ _ _ _ _ _ _ _ _ _ _ _ _ _ _ _ _
 72
    65
 73
     2
 40
0.1875
 49
0.125
 74
     0
 49
-0.0625
 74
     0
  0
LTYPE
  5
398
330
5
100
AcDbSymbolTableRecord
100
AcDbLinetypeTableRecord
  2
Amzigzag2
 70
     0
  3
/\/-/\/-/\/-/\/-/\/-/\/
 72
    65
 73
     2
 40
0.4401
 49
0.0001
 74
     4
 75
   135
340
394
 46
0.0016
 50
0.0
 44
0.0
 45
0.0
 49
-0.44
 74
     0
  0
LTYPE
  5
3A6
330
5
100
AcDbSymbolTableRecord
100
AcDbLinetypeTableRecord
  2
ACANSTGB
 70
     0
  3
__ . . __ . .
 72
    65
 73
     6
 40
0.35433070866
 49
0.15748031496
 74
     0
 49
-0.03937007874
 74
     0
 49
0.03937007874
 74
     0
 49
-0.03937007874
 74
     0
 49
0.03937007874
 74
     0
 49
-0.03937007874
 74
     0
  0
LTYPE
  5
3A7
330
5
100
AcDbSymbolTableRecord
100
AcDbLinetypeTableRecord
  2
ACANSTGL
 70
     0
  3
_ _ _ _ _
 72
    65
 73
     2
 40
0.11811023622
 49
0.07874015748
 74
     0
 49
-0.03937007874
 74
     0
  0
LTYPE
  5
4D5
330
5
100
AcDbSymbolTableRecord
100
AcDbLinetypeTableRecord
  2
ACJISTGB
 70
     0
  3
__ . . __ . .
 72
    65
 73
     6
 40
9.0
 49
4.0
 74
     0
 49
-1.0
 74
     0
 49
1.0
 74
     0
 49
-1.0
 74
     0
 49
1.0
 74
     0
 49
-1.0
 74
     0
  0
LTYPE
  5
4D6
330
5
100
AcDbSymbolTableRecord
100
AcDbLinetypeTableRecord
  2
ACJISTGL
 70
     0
  3
_ _ _ _ _
 72
    65
 73
     2
 40
3.0
 49
2.0
 74
     0
 49
-1.0
 74
     0
  0
ENDTAB
  0
TABLE
  2
LAYER
  5
2
102
{ACAD_XDICTIONARY
360
4E4
102
}
330
0
100
AcDbSymbolTable
 70
     8
  0
LAYER
  5
10
330
2
100
AcDbSymbolTableRecord
100
AcDbLayerTableRecord
  2
0
 70
     0
 62
     7
  6
CONTINUOUS
370
    -3
390
F
  0
LAYER
  5
29
330
2
100
AcDbSymbolTableRecord
100
AcDbLayerTableRecord
  2
1
 70
     0
 62
     7
  6
CONTINUOUS
370
    -3
390
F
  0
LAYER
  5
2A
330
2
100
AcDbSymbolTableRecord
100
AcDbLayerTableRecord
  2
2
 70
     0
 62
     7
  6
CONTINUOUS
370
    -3
390
F
  0
LAYER
  5
2C
330
2
100
AcDbSymbolTableRecord
100
AcDbLayerTableRecord
  2
6
 70
     0
 62
     7
  6
CONTINUOUS
370
    -3
390
F
  0
LAYER
  5
30
330
2
100
AcDbSymbolTableRecord
100
AcDbLayerTableRecord
  2
DEFPOINTS
 70
     0
 62
    -7
  6
CONTINUOUS
290
     0
370
    -3
390
F
  0
LAYER
  5
420
330
2
100
AcDbSymbolTableRecord
100
AcDbLayerTableRecord
  2
AM_5
 70
     0
 62
     3
  6
CONTINUOUS
370
    15
390
F
  0
LAYER
  5
4D7
330
2
100
AcDbSymbolTableRecord
100
AcDbLayerTableRecord
  2
AM_0
 70
     0
 62
     7
  6
CONTINUOUS
370
    30
390
F
  0
LAYER
  5
4D8
330
2
100
AcDbSymbolTableRecord
100
AcDbLayerTableRecord
  2
AM_6
 70
     0
 62
     2
  6
CONTINUOUS
370
    30
390
F
  0
ENDTAB
  0
TABLE
  2
STYLE
  5
3
330
0
100
AcDbSymbolTable
 70
     6
  0
STYLE
  5
11
330
3
100
AcDbSymbolTableRecord
100
AcDbTextStyleTableRecord
  2
STANDARD
 70
     0
 40
0.0
 41
1.0
 50
0.0
 71
     0
 42
3.0
  3
txt
  4

  0
STYLE
  5
394
330
3
100
AcDbSymbolTableRecord
100
AcDbTextStyleTableRecord
  2

 70
     1
 40
0.0
 41
1.0
 50
0.0
 71
     0
 42
3.0
  3
ltypeshp.shx
  4

  0
STYLE
  5
399
330
3
100
AcDbSymbolTableRecord
100
AcDbTextStyleTableRecord
  2
ACANSTS
 70
     0
 40
1.0
 41
1.0
 50
0.0
 71
     0
 42
3.0
  3
romans.shx
  4
extfont.shx
  0
STYLE
  5
3A5
330
3
100
AcDbSymbolTableRecord
100
AcDbTextStyleTableRecord
  2
ACANSGDT
 70
     0
 40
0.0
 41
1.0
 50
0.0
 71
     0
 42
3.0
  3
amgdtans.shx
  4

  0
STYLE
  5
4D9
330
3
100
AcDbSymbolTableRecord
100
AcDbTextStyleTableRecord
  2
ACJISTS
 70
     0
 40
1.0
 41
1.0
 50
0.0
 71
     0
 42
2.5
  3
isocp.shx
  4
bigfont.shx
  0
STYLE
  5
4DA
330
3
100
AcDbSymbolTableRecord
100
AcDbTextStyleTableRecord
  2
ACJISGDT
 70
     0
 40
0.0
 41
1.0
 50
0.0
 71
     0
 42
2.5
  3
amgdt.shx
  4

  0
ENDTAB
  0
TABLE
  2
VIEW
  5
6
330
0
100
AcDbSymbolTable
 70
     0
  0
ENDTAB
  0
TABLE
  2
UCS
  5
7
330
0
100
AcDbSymbolTable
 70
     0
  0
ENDTAB
  0
TABLE
  2
APPID
  5
9
330
0
100
AcDbSymbolTable
 70
    10
  0
APPID
  5
12
330
9
100
AcDbSymbolTableRecord
100
AcDbRegAppTableRecord
  2
ACAD
 70
     0
  0
APPID
  5
327
330
9
100
AcDbSymbolTableRecord
100
AcDbRegAppTableRecord
  2
MCAD_NO_VIS
 70
     0
  0
APPID
  5
328
330
9
100
AcDbSymbolTableRecord
100
AcDbRegAppTableRecord
  2
ACAD_TEMP_GRAPHIC
 70
     0
  0
APPID
  5
357
330
9
100
AcDbSymbolTableRecord
100
AcDbRegAppTableRecord
  2
AD_DRAW
 70
     0
  0
APPID
  5
35A
330
9
100
AcDbSymbolTableRecord
100
AcDbRegAppTableRecord
  2
ACATTRIBSERVICES
 70
     0
  0
APPID
  5
37C
330
9
100
AcDbSymbolTableRecord
100
AcDbRegAppTableRecord
  2
DESIGNERASSEMBLIES
 70
     0
  0
APPID
  5
382
330
9
100
AcDbSymbolTableRecord
100
AcDbRegAppTableRecord
  2
ACADM_DIM_EDIT
 70
     0
  0
APPID
  5
383
330
9
100
AcDbSymbolTableRecord
100
AcDbRegAppTableRecord
  2
AMDT_DM_ADJ
 70
     0
  0
APPID
  5
3C6
330
9
100
AcDbSymbolTableRecord
100
AcDbRegAppTableRecord
  2
ACAD_PSEXT
 70
     0
  0
APPID
  5
643
330
9
100
AcDbSymbolTableRecord
100
AcDbRegAppTableRecord
  2
GENIUS_GENDTOL_13
 70
     0
  0
ENDTAB
  0
TABLE
  2
DIMSTYLE
  5
A
330
0
100
AcDbSymbolTable
 70
    19
100
AcDbDimStyleTable
  0
DIMSTYLE
105
324
330
A
100
AcDbSymbolTableRecord
100
AcDbDimStyleTableRecord
  2
Standard
 70
     0
340
11
  0
DIMSTYLE
105
3B2
330
A
100
AcDbSymbolTableRecord
100
AcDbDimStyleTableRecord
  2
AM_ANSI
 70
     0
  4
mm
 41
0.1
 42
0.05
 43
0.5
 44
0.1
 47
0.1
 48
0.1
 78
     7
 79
     2
140
0.12
141
0.0
146
0.71
147
0.06
176
   256
177
   256
178
     2
274
     4
284
     7
340
11
371
    -1
372
    -1
  0
DIMSTYLE
105
3B3
330
A
100
AcDbSymbolTableRecord
100
AcDbDimStyleTableRecord
  2
AM_ANSI$3
 70
     0
  4
mm
 41
0.1
 42
0.05
 43
0.5
 44
0.1
 47
0.1
 48
0.1
 78
     7
 79
     2
140
0.12
141
0.0
146
0.71
147
0.06
176
   256
177
   256
178
     2
274
     4
284
     7
288
     1
289
     0
340
11
371
    -1
372
    -1
  0
DIMSTYLE
105
3B4
330
A
100
AcDbSymbolTableRecord
100
AcDbDimStyleTableRecord
  2
AM_ANSI$4
 70
     0
  4
mm
 41
0.1
 42
0.05
 43
0.5
 44
0.1
 47
0.1
 48
0.1
 78
     7
 79
     2
140
0.12
141
0.0
146
0.71
147
0.06
176
   256
177
   256
178
     2
274
     4
284
     7
288
     1
289
     0
340
11
371
    -1
372
    -1
  0
DIMSTYLE
105
3B5
330
A
100
AcDbSymbolTableRecord
100
AcDbDimStyleTableRecord
  2
AM_ANSI$7
 70
     0
  4
mm
 41
0.1
 42
0.05
 43
0.5
 44
0.1
 47
0.1
 48
0.1
 78
     7
 79
     2
140
0.24
141
0.0
146
0.71
147
0.06
176
   256
177
   256
178
     2
274
     4
284
     7
340
11
371
    -1
372
    -1
  0
DIMSTYLE
105
3B6
330
A
100
AcDbSymbolTableRecord
100
AcDbDimStyleTableRecord
  2
AM_ANSI$SF
 70
     0
  4
mm
 41
0.1
 42
0.05
 43
0.5
 44
0.1
 47
0.1
 48
0.1
 75
     1
 76
     1
 78
     7
 79
     2
140
0.12
141
0.0
146
0.71
147
0.06
176
   256
177
   256
178
     2
274
     4
284
     7
340
11
371
    -1
372
    -1
  0
DIMSTYLE
105
3BB
330
A
100
AcDbSymbolTableRecord
100
AcDbDimStyleTableRecord
  2
AM_ANSI$SH
 70
     0
  4
mm
 41
0.1
 42
0.05
 43
0.5
 44
0.1
 47
0.1
 48
0.1
 75
     1
 76
     1
 78
     7
 79
     2
140
0.12
141
0.0
146
0.71
147
0.06
173
     1
176
   256
177
   256
178
     2
274
     4
284
     7
340
11
343
3B7
371
    -1
372
    -1
  0
DIMSTYLE
105
3F6
102
{ACAD_REACTORS
330
45B
330
512
330
56F
330
593
330
62B
330
6BE
102
}
330
A
100
AcDbSymbolTableRecord
100
AcDbDimStyleTableRecord
  2
Standard$0
 70
     0
340
11
  0
DIMSTYLE
105
3F7
102
{ACAD_REACTORS
330
493
330
653
102
}
330
A
100
AcDbSymbolTableRecord
100
AcDbDimStyleTableRecord
  2
Standard$2
 70
     0
340
11
  0
DIMSTYLE
105
3F9
102
{ACAD_REACTORS
330
544
102
}
330
A
100
AcDbSymbolTableRecord
100
AcDbDimStyleTableRecord
  2
Standard$3
 70
     0
340
11
  0
DIMSTYLE
105
4DB
330
A
100
AcDbSymbolTableRecord
100
AcDbDimStyleTableRecord
  2
AM_JIS
 70
     0
  4
"
 41
2.5
 42
0.0
 43
10.0
 44
1.0
 47
0.1
 48
0.1000000001
 73
     0
 74
     0
 77
     3
 78
     1
 79
     2
140
3.8
141
0.0
143
0.0393701
146
0.71
147
1.5
172
     1
176
   256
177
   256
178
     2
179
     1
271
     2
272
     2
275
     1
283
     0
284
     8
340
11
341
4CF
342
4CF
371
    -1
372
    -1
  0
DIMSTYLE
105
4DC
330
A
100
AcDbSymbolTableRecord
100
AcDbDimStyleTableRecord
  2
AM_JIS$3
 70
     0
  4
"
 41
2.5
 42
0.0
 43
10.0
 44
1.0
 47
0.1
 48
0.1000000001
 73
     0
 77
     3
 78
     1
 79
     2
140
3.8
141
0.0
143
0.0393701
146
0.71
147
1.5
172
     1
176
   256
177
   256
178
     2
179
     1
271
     2
272
     2
275
     1
283
     0
284
     8
288
     1
289
     0
340
11
341
4CF
342
4CF
371
    -1
372
    -1
  0
DIMSTYLE
105
4DD
330
A
100
AcDbSymbolTableRecord
100
AcDbDimStyleTableRecord
  2
AM_JIS$4
 70
     0
  4
"
 41
2.5
 42
0.0
 43
10.0
 44
1.0
 47
0.1
 48
0.1000000001
 73
     0
 77
     3
 78
     1
 79
     2
140
3.8
141
0.0
143
0.0393701
146
0.71
147
1.5
172
     1
176
   256
177
   256
178
     2
179
     1
271
     2
272
     2
275
     1
283
     0
284
     8
288
     1
289
     0
340
11
341
4CF
342
4CF
371
    -1
372
    -1
  0
DIMSTYLE
105
4DE
330
A
100
AcDbSymbolTableRecord
100
AcDbDimStyleTableRecord
  2
AM_JIS$6
 70
     0
  4
"
 41
2.5
 42
0.0
 43
10.0
 44
1.0
 47
0.1
 48
0.1000000001
 73
     0
 74
     0
 78
     1
 79
     2
140
3.8
141
0.0
143
0.0393701
146
0.71
147
1.5
172
     1
176
   256
177
   256
178
     2
179
     1
271
     2
272
     2
275
     1
283
     0
284
     8
340
11
341
4CF
342
4CF
371
    -1
372
    -1
  0
DIMSTYLE
105
4DF
330
A
100
AcDbSymbolTableRecord
100
AcDbDimStyleTableRecord
  2
AM_JIS$7
 70
     0
  4
"
 41
2.5
 42
0.0
 43
10.0
 44
1.0
 47
0.1
 48
0.1000000001
 73
     0
 74
     0
 77
     3
 78
     1
 79
     2
140
5.0
141
0.0
143
0.0393701
146
0.71
147
1.5
172
     1
176
   256
177
   256
178
     2
179
     1
271
     2
272
     2
275
     1
283
     0
284
     8
340
11
341
4CF
342
4CF
371
    -1
372
    -1
  0
DIMSTYLE
105
4E0
330
A
100
AcDbSymbolTableRecord
100
AcDbDimStyleTableRecord
  2
AM_JIS$SF
 70
     0
  4
"
 41
2.5
 42
1.0
 43
10.0
 44
1.0
 47
0.1
 48
0.1
 73
     0
 74
     0
 75
     1
 76
     1
 77
     3
 78
     8
 79
     2
140
3.5
141
0.0
143
0.0393701
146
0.71
147
1.5
176
   256
177
   256
178
     2
271
     2
272
     3
274
     4
340
11
341
4CF
342
4CF
343
4CF
344
4CF
371
    -1
372
    -1
  0
DIMSTYLE
105
4E1
330
A
100
AcDbSymbolTableRecord
100
AcDbDimStyleTableRecord
  2
AM_JIS$SH
 70
     0
  4
"
 41
2.5
 42
1.0
 43
10.0
 44
1.0
 47
0.1
 48
0.1
 73
     0
 74
     0
 75
     1
 76
     1
 77
     3
 78
     8
 79
     2
140
3.5
141
0.0
143
0.0393701
144
2.0
146
0.71
147
1.5
173
     1
176
   256
177
   256
178
     2
271
     2
272
     3
274
     4
340
11
341
4CF
342
4CF
343
3B7
344
4CF
371
    -1
372
    -1
  0
DIMSTYLE
105
4E2
330
A
100
AcDbSymbolTableRecord
100
AcDbDimStyleTableRecord
  2
AM_JIS$0
 70
     0
  4
"
 41
2.5
 42
0.0
 43
10.0
 44
1.0
 47
0.1
 48
0.1000000001
 73
     0
 74
     0
 77
     3
 78
     1
 79
     2
140
3.8
141
0.0
143
0.0393701
146
0.71
147
1.5
172
     1
176
     3
177
     3
178
     2
271
     2
272
     2
275
     1
283
     0
284
     8
289
     0
340
11
341
4CF
342
4CF
371
    13
372
    13
  0
DIMSTYLE
105
4E3
330
A
100
AcDbSymbolTableRecord
100
AcDbDimStyleTableRecord
  2
AM_JIS$2
 70
     0
  4
"
 41
2.5
 42
0.0
 43
10.0
 44
1.0
 47
0.1
 48
0.1000000001
 73
     0
 74
     0
 77
     3
 78
     1
 79
     2
140
3.8
141
0.0
143
0.0393701
146
0.71
147
1.5
172
     1
176
     3
177
     3
178
     2
271
     2
272
     2
275
     1
283
     0
284
     8
289
     0
340
11
341
4CF
342
4CF
371
    13
372
    13
  0
ENDTAB
  0
TABLE
  2
BLOCK_RECORD
  5
1
330
0
100
AcDbSymbolTable
 70
    12
  0
BLOCK_RECORD
  5
22
330
1
100
AcDbSymbolTableRecord
100
AcDbBlockTableRecord
  2
*Model_Space
340
25
  0
BLOCK_RECORD
  5
1E
330
1
100
AcDbSymbolTableRecord
100
AcDbBlockTableRecord
  2
*Paper_Space
340
21
  0
BLOCK_RECORD
  5
373
330
1
100
AcDbSymbolTableRecord
100
AcDbBlockTableRecord
  2
*U0
340
0
  0
BLOCK_RECORD
  5
3B7
330
1
100
AcDbSymbolTableRecord
100
AcDbBlockTableRecord
  2
GENAXEH
340
0
  0
BLOCK_RECORD
  5
45C
330
1
100
AcDbSymbolTableRecord
100
AcDbBlockTableRecord
  2
*D2
340
0
  0
BLOCK_RECORD
  5
494
330
1
100
AcDbSymbolTableRecord
100
AcDbBlockTableRecord
  2
*D3
340
0
  0
BLOCK_RECORD
  5
4CF
330
1
100
AcDbSymbolTableRecord
100
AcDbBlockTableRecord
  2
_Open30
340
0
  0
BLOCK_RECORD
  5
513
330
1
100
AcDbSymbolTableRecord
100
AcDbBlockTableRecord
  2
*D5
340
0
  0
BLOCK_RECORD
  5
545
330
1
100
AcDbSymbolTableRecord
100
AcDbBlockTableRecord
  2
*D6
340
0
  0
BLOCK_RECORD
  5
570
330
1
100
AcDbSymbolTableRecord
100
AcDbBlockTableRecord
  2
*D7
340
0
  0
BLOCK_RECORD
  5
594
330
1
100
AcDbSymbolTableRecord
100
AcDbBlockTableRecord
  2
*D8
340
0
  0
BLOCK_RECORD
  5
62C
330
1
100
AcDbSymbolTableRecord
100
AcDbBlockTableRecord
  2
*D9
340
0
  0
BLOCK_RECORD
  5
654
330
1
100
AcDbSymbolTableRecord
100
AcDbBlockTableRecord
  2
*D10
340
0
  0
BLOCK_RECORD
  5
6BF
330
1
100
AcDbSymbolTableRecord
100
AcDbBlockTableRecord
  2
*D11
340
0
  0
ENDTAB
  0
ENDSEC
  0
SECTION
  2
BLOCKS
  0
BLOCK
  5
23
330
22
100
AcDbEntity
  8
0
100
AcDbBlockBegin
  2
*Model_Space
 70
     0
 71
     0
 10
0.0
 20
0.0
 30
0.0
  3
*Model_Space
  1

  0
ENDBLK
  5
24
330
22
100
AcDbEntity
  8
0
100
AcDbBlockEnd
  0
BLOCK
  5
1F
330
1E
100
AcDbEntity
 67
     1
  8
0
100
AcDbBlockBegin
  2
*Paper_Space
 70
     0
 71
     0
 10
0.0
 20
0.0
 30
0.0
  3
*Paper_Space
  1

  0
ENDBLK
  5
20
330
1E
100
AcDbEntity
 67
     1
  8
0
100
AcDbBlockEnd
  0
BLOCK
  5
374
330
373
100
AcDbEntity
  8
0
100
AcDbBlockBegin
  2
*U0
 70
     1
 71
     0
 10
0.0
 20
0.0
 30
0.0
  3
*U0
  1

  0
ENDBLK
  5
375
330
373
100
AcDbEntity
  8
0
100
AcDbBlockEnd
  0
BLOCK
  5
3B9
330
3B7
100
AcDbEntity
  8
0
100
AcDbBlockBegin
  2
GENAXEH
 70
     0
 71
     0
 10
0.0
 20
0.0
 30
0.0
  3
GENAXEH
  1

  0
LINE
  5
3B8
330
3B7
100
AcDbEntity
  8
0
100
AcDbLine
 10
-1.0
 20
0.0
 30
0.0
 11
1.0
 21
0.0
 31
0.0
  0
ENDBLK
  5
3BA
330
3B7
100
AcDbEntity
  8
0
100
AcDbBlockEnd
  0
BLOCK
  5
466
330
45C
100
AcDbEntity
  8
0
100
AcDbBlockBegin
  2
*D2
 70
     1
 71
     0
 10
0.0
 20
0.0
 30
0.0
  3
*D2
  1

  0
LINE
  5
7A7
330
45C
100
AcDbEntity
  8
AM_5
 62
     0
370
    -2
100
AcDbLine
 10
120.0000244900584
 20
59.08573534339659
 30
0.0
 11
120.0000244900584
 21
39.92644794402639
 31
0.0
  0
LINE
  5
7A8
330
45C
100
AcDbEntity
  8
AM_5
 62
     0
370
    -2
100
AcDbLine
 10
0.0000216253102394
 20
69.08573534339664
 30
0.0
 11
0.0000216253102376
 21
39.92644794402639
 31
0.0
  0
LINE
  5
7A9
330
45C
100
AcDbEntity
  8
AM_5
 62
     0
370
    -2
100
AcDbLine
 10
117.0000244900584
 20
41.92644794402639
 30
0.0
 11
3.000021625310238
 21
41.92644794402639
 31
0.0
  0
SOLID
  5
7AA
330
45C
100
AcDbEntity
  8
AM_5
 62
     0
100
AcDbTrace
 10
117.0000244900584
 20
42.42644794402639
 30
0.0
 11
117.0000244900584
 21
41.42644794402639
 31
0.0
 12
120.0000244900584
 22
41.92644794402639
 32
0.0
 13
120.0000244900584
 23
41.92644794402639
 33
0.0
  0
SOLID
  5
7AB
330
45C
100
AcDbEntity
  8
AM_5
 62
     0
100
AcDbTrace
 10
3.000021625310238
 20
42.42644794402639
 30
0.0
 11
3.000021625310238
 21
41.42644794402639
 31
0.0
 12
0.0000216253102377
 22
41.92644794402639
 32
0.0
 13
0.0000216253102377
 23
41.92644794402639
 33
0.0
  0
MTEXT
  5
7AC
330
45C
100
AcDbEntity
  8
AM_5
 62
     0
100
AcDbMText
 10
60.00002305768433
 20
44.5164479440264
 30
0.0
 40
5.0
 41
0.0
 71
     5
 72
     1
  1
\A1;120
 73
     1
 44
1.0
  0
POINT
  5
7AD
330
45C
100
AcDbEntity
  8
DEFPOINTS
 62
     0
100
AcDbPoint
 10
120.0000244900584
 20
60.08573534339659
 30
0.0
  0
POINT
  5
7AE
330
45C
100
AcDbEntity
  8
DEFPOINTS
 62
     0
100
AcDbPoint
 10
0.0000216253102394
 20
70.08573534339664
 30
0.0
  0
POINT
  5
7AF
330
45C
100
AcDbEntity
  8
DEFPOINTS
 62
     0
100
AcDbPoint
 10
0.0000216253102377
 20
41.92644794402639
 30
0.0
  0
ENDBLK
  5
467
330
45C
100
AcDbEntity
  8
0
100
AcDbBlockEnd
  0
BLOCK
  5
4A3
330
494
100
AcDbEntity
  8
0
100
AcDbBlockBegin
  2
*D3
 70
     1
 71
     0
 10
0.0
 20
0.0
 30
0.0
  3
*D3
  1

  0
LINE
  5
7B0
330
494
100
AcDbEntity
  8
AM_5
 62
     0
370
    -2
100
AcDbLine
 10
-0.0000000000000002
 20
-1.197999998927116
 30
0.0
 11
-0.0000000000000071
 21
-39.03194816888858
 31
0.0
  0
LINE
  5
7B1
330
494
100
AcDbEntity
  8
AM_5
 62
     0
370
    -2
100
AcDbLine
 10
0.6510746177639424
 20
-12.52483648268995
 30
0.0
 11
2.037457343496195
 21
-38.97859547209745
 31
0.0
  0
ARC
  5
7B2
330
494
100
AcDbEntity
  8
AM_5
 62
     0
370
    -2
100
AcDbCircle
 10
0.0
 20
-0.1015923793340236
 30
0.0
 40
36.93035578955455
100
AcDbArc
 50
260.6810024032469
 51
270.0
  0
LINE
  5
7B3
330
494
100
AcDbEntity
  8
AM_5
 62
     0
370
    -2
100
AcDbLine
 10
-5.980170350708166
 20
-36.54454425373076
 30
0.0
 11
-14.38114538396566
 21
-35.16597146456486
 31
0.0
  0
ARC
  5
7B4
330
494
100
AcDbEntity
  8
AM_5
 62
     0
370
    -2
100
AcDbCircle
 10
0.0
 20
-0.1015923793340236
 30
0.0
 40
36.93035578955455
100
AcDbArc
 50
260.6887095151413
 51
265.3443547575707
  0
ARC
  5
7B5
330
494
100
AcDbEntity
  8
AM_5
 62
     0
370
    -2
100
AcDbCircle
 10
0.0
 20
-0.1015923793340236
 30
0.0
 40
36.93035578955455
100
AcDbArc
 50
277.6556451633937
 51
282.3112904058231
  0
ARC
  5
7B6
330
494
100
AcDbEntity
  8
AM_5
 62
     0
370
    -2
100
AcDbCircle
 10
0.0
 20
-0.1015923793340236
 30
0.0
 40
36.93035578955455
100
AcDbArc
 50
270.0
 51
272.9999999209644
  0
SOLID
  5
7B7
330
494
100
AcDbEntity
  8
AM_5
 62
     0
100
AcDbTrace
 10
-2.977215871904445
 20
-36.4105097953709
 30
0.0
 11
-3.017832864834263
 21
-37.40968458482735
 31
0.0
 12
-0.0000000000000068
 22
-37.03194816888858
 32
0.0
 13
-0.0000000000000068
 23
-37.03194816888858
 33
0.0
  0
SOLID
  5
7B8
330
494
100
AcDbEntity
  8
AM_5
 62
     0
100
AcDbTrace
 10
4.966251659775347
 20
-37.20061397917469
 30
0.0
 11
4.873397564336139
 21
-36.20493425307791
 31
0.0
 12
1.932785433765391
 22
-36.98133640244392
 32
0.0
 13
1.932785433765391
 23
-36.98133640244392
 33
0.0
  0
MTEXT
  5
7B9
330
494
100
AcDbEntity
  8
AM_5
 62
     0
100
AcDbMText
 10
-9.76125651370265
 20
-33.29944047432358
 30
0.0
 40
5.0
 41
0.0
 71
     5
 72
     1
  1
\A1;3°
 11
0.9868020790827129
 21
-0.1619310245692139
 31
0.0
 73
     1
 44
1.0
  0
POINT
  5
7BA
330
494
100
AcDbEntity
  8
DEFPOINTS
 62
     0
100
AcDbPoint
 10
1.28885079615849
 20
-37.00945119515166
 30
0.0
  0
POINT
  5
7BB
330
494
100
AcDbEntity
  8
DEFPOINTS
 62
     0
100
AcDbPoint
 10
0.0001356778666377
 20
-0.1041812673211666
 30
0.0
  0
POINT
  5
7BC
330
494
100
AcDbEntity
  8
DEFPOINTS
 62
     0
100
AcDbPoint
 10
0.0
 20
0.0
 30
0.0
  0
POINT
  5
7BD
330
494
100
AcDbEntity
  8
DEFPOINTS
 62
     0
100
AcDbPoint
 10
0.0
 20
-0.1979999989271164
 30
0.0
  0
POINT
  5
7BE
330
494
100
AcDbEntity
  8
DEFPOINTS
 62
     0
100
AcDbPoint
 10
0.5987386628985405
 20
-11.52620694786319
 30
0.0
  0
ENDBLK
  5
4A4
330
494
100
AcDbEntity
  8
0
100
AcDbBlockEnd
  0
BLOCK
  5
4D0
330
4CF
100
AcDbEntity
  8
0
100
AcDbBlockBegin
  2
_Open30
 70
     0
 71
     0
 10
0.0
 20
0.0
 30
0.0
  3
_Open30
  1

  0
LINE
  5
4D1
330
4CF
100
AcDbEntity
  8
0
 62
     0
370
    -2
100
AcDbLine
 10
-1.0
 20
0.26794919
 30
0.0
 11
0.0
 21
0.0
 31
0.0
  0
LINE
  5
4D2
330
4CF
100
AcDbEntity
  8
0
 62
     0
370
    -2
100
AcDbLine
 10
0.0
 20
0.0
 30
0.0
 11
-1.0
 21
-0.26794919
 31
0.0
  0
LINE
  5
4D3
330
4CF
100
AcDbEntity
  8
0
 62
     0
370
    -2
100
AcDbLine
 10
0.0
 20
0.0
 30
0.0
 11
-1.0
 21
0.0
 31
0.0
  0
ENDBLK
  5
4D4
330
4CF
100
AcDbEntity
  8
0
100
AcDbBlockEnd
  0
BLOCK
  5
51E
330
513
100
AcDbEntity
  8
0
100
AcDbBlockBegin
  2
*D5
 70
     1
 71
     0
 10
0.0
 20
0.0
 30
0.0
  3
*D5
  1

  0
LINE
  5
7BF
330
513
100
AcDbEntity
  8
AM_5
 62
     0
370
    -2
100
AcDbLine
 10
-0.9999783746897606
 20
70.08573534339664
 30
0.0
 11
-13.43578697150133
 21
70.08573534339664
 31
0.0
  0
LINE
  5
7C0
330
513
100
AcDbEntity
  8
AM_5
 62
     0
370
    -2
100
AcDbLine
 10
0.5177030346139873
 20
70.08573534339664
 30
0.0
 11
-13.43578697150133
 21
70.08573534339664
 31
0.0
  0
LINE
  5
7C1
330
513
100
AcDbEntity
  8
AM_5
 62
     0
370
    -2
100
AcDbLine
 10
-11.43578697150133
 20
67.08573534339664
 30
0.0
 11
-11.43578697150133
 21
64.08573534339664
 31
0.0
  0
LINE
  5
7C2
330
513
100
AcDbEntity
  8
AM_5
 62
     0
370
    -2
100
AcDbLine
 10
-11.43578697150133
 20
73.08573534339664
 30
0.0
 11
-11.43578697150133
 21
78.76573534339664
 31
0.0
  0
SOLID
  5
7C3
330
513
100
AcDbEntity
  8
AM_5
 62
     0
100
AcDbTrace
 10
-11.93578697150133
 20
67.08573534339664
 30
0.0
 11
-10.93578697150133
 21
67.08573534339664
 31
0.0
 12
-11.43578697150133
 22
70.08573534339664
 32
0.0
 13
-11.43578697150133
 23
70.08573534339664
 33
0.0
  0
SOLID
  5
7C4
330
513
100
AcDbEntity
  8
AM_5
 62
     0
100
AcDbTrace
 10
-11.93578697150133
 20
73.08573534339664
 30
0.0
 11
-10.93578697150133
 21
73.08573534339664
 31
0.0
 12
-11.43578697150133
 22
70.08573534339664
 32
0.0
 13
-11.43578697150133
 23
70.08573534339664
 33
0.0
  0
MTEXT
  5
7C5
330
513
100
AcDbEntity
  8
AM_5
 62
     0
100
AcDbMText
 10
-14.02578697150134
 20
77.42573534339664
 30
0.0
 40
5.0
 41
0.0
 71
     5
 72
     1
  1
\A1;0
 11
6.123031769111886E-17
 21
1.0
 31
0.0
 73
     1
 44
1.0
  0
POINT
  5
7C6
330
513
100
AcDbEntity
  8
DEFPOINTS
 62
     0
100
AcDbPoint
 10
0.0000216253102394
 20
70.08573534339664
 30
0.0
  0
POINT
  5
7C7
330
513
100
AcDbEntity
  8
DEFPOINTS
 62
     0
100
AcDbPoint
 10
1.517703034613987
 20
70.08573534339664
 30
0.0
  0
POINT
  5
7C8
330
513
100
AcDbEntity
  8
DEFPOINTS
 62
     0
100
AcDbPoint
 10
-11.43578697150133
 20
70.08573534339664
 30
0.0
  0
ENDBLK
  5
51F
330
513
100
AcDbEntity
  8
0
100
AcDbBlockEnd
  0
BLOCK
  5
54B
330
545
100
AcDbEntity
  8
0
100
AcDbBlockBegin
  2
*D6
 70
     1
 71
     0
 10
0.0
 20
0.0
 30
0.0
  3
*D6
  1

  0
LINE
  5
7C9
330
545
100
AcDbEntity
  8
AM_5
 62
     0
370
    -2
100
AcDbLine
 10
49.8436125414577
 20
-36.85655436146288
 30
0.0
 11
61.59625252717859
 21
-21.19735884030659
 31
0.0
  0
LINE
  5
7CA
330
545
100
AcDbEntity
  8
AM_5
 62
     0
370
    -2
100
AcDbLine
 10
78.40379645293797
 20
1.196981229980622
 30
0.0
 11
80.2046047306979
 21
3.596374808939963
 31
0.0
  0
MTEXT
  5
7CB
330
545
100
AcDbEntity
  8
AM_5
 62
     0
100
AcDbMText
 10
51.82795650608877
 20
-29.89788900994061
 30
0.0
 40
5.0
 41
0.0
 71
     5
 72
     1
  1
\A1;\U+220522
 11
0.600269425919977
 21
0.7997978596531133
 31
0.0
 73
     1
 44
1.0
  0
LINE
  5
7CC
330
545
100
AcDbEntity
  8
AM_5
 62
     0
370
    -2
100
AcDbLine
 10
76.60298817517804
 20
-1.202412348978719
 30
0.0
 11
63.39706080493852
 21
-18.79796526134726
 31
0.0
  0
SOLID
  5
7CD
330
545
100
AcDbEntity
  8
AM_5
 62
     0
100
AcDbTrace
 10
78.00389752311142
 20
1.49711594294061
 30
0.0
 11
78.80369538276453
 21
0.8968465170206343
 31
0.0
 12
76.60298817517804
 22
-1.202412348978719
 32
0.0
 13
76.60298817517804
 23
-1.202412348978719
 33
0.0
  0
SOLID
  5
7CE
330
545
100
AcDbEntity
  8
AM_5
 62
     0
100
AcDbTrace
 10
61.19635359735203
 20
-20.8972241273466
 30
0.0
 11
61.99615145700514
 21
-21.49749355326658
 31
0.0
 12
63.39706080493852
 22
-18.79796526134726
 32
0.0
 13
63.39706080493852
 23
-18.79796526134726
 33
0.0
  0
POINT
  5
7CF
330
545
100
AcDbEntity
  8
DEFPOINTS
 62
     0
100
AcDbPoint
 10
63.39706080493852
 20
-18.79796526134726
 30
0.0
  0
POINT
  5
7D0
330
545
100
AcDbEntity
  8
DEFPOINTS
 62
     0
100
AcDbPoint
 10
76.60298817517804
 20
-1.202412348978719
 30
0.0
  0
ENDBLK
  5
54C
330
545
100
AcDbEntity
  8
0
100
AcDbBlockEnd
  0
BLOCK
  5
57A
330
570
100
AcDbEntity
  8
0
100
AcDbBlockBegin
  2
*D7
 70
     1
 71
     0
 10
0.0
 20
0.0
 30
0.0
  3
*D7
  1

  0
LINE
  5
7D1
330
570
100
AcDbEntity
  8
AM_5
 62
     0
370
    -2
100
AcDbLine
 10
80.50002449005842
 20
-9.000188805162964
 30
0.0
 11
80.50002449005842
 21
23.24163917547554
 31
0.0
  0
LINE
  5
7D2
330
570
100
AcDbEntity
  8
AM_5
 62
     0
370
    -2
100
AcDbLine
 10
59.50002449005848
 20
-9.000188805162964
 30
0.0
 11
59.50002449005848
 21
23.24163917547554
 31
0.0
  0
LINE
  5
7D3
330
570
100
AcDbEntity
  8
AM_5
 62
     0
370
    -2
100
AcDbLine
 10
77.50002449005842
 20
21.24163917547554
 30
0.0
 11
62.50002449005848
 21
21.24163917547554
 31
0.0
  0
SOLID
  5
7D4
330
570
100
AcDbEntity
  8
AM_5
 62
     0
100
AcDbTrace
 10
77.50002449005842
 20
21.74163917547554
 30
0.0
 11
77.50002449005842
 21
20.74163917547554
 31
0.0
 12
80.50002449005842
 22
21.24163917547554
 32
0.0
 13
80.50002449005842
 23
21.24163917547554
 33
0.0
  0
SOLID
  5
7D5
330
570
100
AcDbEntity
  8
AM_5
 62
     0
100
AcDbTrace
 10
62.50002449005848
 20
21.74163917547554
 30
0.0
 11
62.50002449005848
 21
20.74163917547554
 31
0.0
 12
59.50002449005848
 22
21.24163917547554
 32
0.0
 13
59.50002449005848
 23
21.24163917547554
 33
0.0
  0
MTEXT
  5
7D6
330
570
100
AcDbEntity
  8
AM_5
 62
     0
100
AcDbMText
 10
70.00002449005845
 20
23.83163917547554
 30
0.0
 40
5.0
 41
0.0
 71
     5
 72
     1
  1
\A1;21
 73
     1
 44
1.0
  0
POINT
  5
7D7
330
570
100
AcDbEntity
  8
DEFPOINTS
 62
     0
100
AcDbPoint
 10
80.50002449005842
 20
-10.00018880516296
 30
0.0
  0
POINT
  5
7D8
330
570
100
AcDbEntity
  8
DEFPOINTS
 62
     0
100
AcDbPoint
 10
59.50002449005848
 20
-10.00018880516296
 30
0.0
  0
POINT
  5
7D9
330
570
100
AcDbEntity
  8
DEFPOINTS
 62
     0
100
AcDbPoint
 10
59.50002449005848
 20
21.24163917547554
 30
0.0
  0
ENDBLK
  5
57B
330
570
100
AcDbEntity
  8
0
100
AcDbBlockEnd
  0
BLOCK
  5
59E
330
594
100
AcDbEntity
  8
0
100
AcDbBlockBegin
  2
*D8
 70
     1
 71
     0
 10
0.0
 20
0.0
 30
0.0
  3
*D8
  1

  0
LINE
  5
7DA
330
594
100
AcDbEntity
  8
AM_5
 62
     0
370
    -2
100
AcDbLine
 10
71.00002449005842
 20
-20.50018880516296
 30
0.0
 11
91.83324603682354
 21
-20.50018880516297
 31
0.0
  0
LINE
  5
7DB
330
594
100
AcDbEntity
  8
AM_5
 62
     0
370
    -2
100
AcDbLine
 10
71.00002449005842
 20
0.4998111948370078
 30
0.0
 11
91.83324603682354
 21
0.4998111948370019
 31
0.0
  0
LINE
  5
7DC
330
594
100
AcDbEntity
  8
AM_5
 62
     0
370
    -2
100
AcDbLine
 10
89.83324603682354
 20
-2.500188805162998
 30
0.0
 11
89.83324603682354
 21
-17.50018880516297
 31
0.0
  0
LINE
  5
7DD
330
594
100
AcDbEntity
  8
AM_5
 62
     0
370
    -2
100
AcDbLine
 10
89.83324603682354
 20
-20.50018880516297
 30
0.0
 11
89.83324603682353
 21
-34.57238549114322
 31
0.0
  0
SOLID
  5
7DE
330
594
100
AcDbEntity
  8
AM_5
 62
     0
100
AcDbTrace
 10
89.33324603682354
 20
-2.500188805162998
 30
0.0
 11
90.33324603682354
 21
-2.500188805162998
 31
0.0
 12
89.83324603682354
 22
0.4998111948370025
 32
0.0
 13
89.83324603682354
 23
0.4998111948370025
 33
0.0
  0
SOLID
  5
7DF
330
594
100
AcDbEntity
  8
AM_5
 62
     0
100
AcDbTrace
 10
89.33324603682354
 20
-17.50018880516297
 30
0.0
 11
90.33324603682354
 21
-17.50018880516297
 31
0.0
 12
89.83324603682354
 22
-20.50018880516297
 32
0.0
 13
89.83324603682354
 23
-20.50018880516297
 33
0.0
  0
MTEXT
  5
7E0
330
594
100
AcDbEntity
  8
AM_5
 62
     0
100
AcDbMText
 10
87.24324603682354
 20
-31.14905215780988
 30
0.0
 40
5.0
 41
0.0
 71
     5
 72
     1
  1
\A1;21
 11
6.123031769111886E-17
 21
1.0
 31
0.0
 73
     1
 44
1.0
  0
POINT
  5
7E1
330
594
100
AcDbEntity
  8
DEFPOINTS
 62
     0
100
AcDbPoint
 10
70.00002449005842
 20
-20.50018880516296
 30
0.0
  0
POINT
  5
7E2
330
594
100
AcDbEntity
  8
DEFPOINTS
 62
     0
100
AcDbPoint
 10
70.00002449005842
 20
0.4998111948370081
 30
0.0
  0
POINT
  5
7E3
330
594
100
AcDbEntity
  8
DEFPOINTS
 62
     0
100
AcDbPoint
 10
89.83324603682354
 20
0.4998111948370025
 30
0.0
  0
ENDBLK
  5
59F
330
594
100
AcDbEntity
  8
0
100
AcDbBlockEnd
  0
BLOCK
  5
637
330
62C
100
AcDbEntity
  8
0
100
AcDbBlockBegin
  2
*D9
 70
     1
 71
     0
 10
0.0
 20
0.0
 30
0.0
  3
*D9
  1

  0
LINE
  5
7E4
330
62C
100
AcDbEntity
  8
AM_5
 62
     0
370
    -2
100
AcDbLine
 10
0.0000000000000001
 20
1.0
 30
0.0
 11
0.0000000000000014
 21
23.24163917547554
 31
0.0
  0
LINE
  5
7E5
330
62C
100
AcDbEntity
  8
AM_5
 62
     0
370
    -2
100
AcDbLine
 10
21.42342444148403
 20
1.0
 30
0.0
 11
21.42342444148403
 21
23.24163917547554
 31
0.0
  0
LINE
  5
7E6
330
62C
100
AcDbEntity
  8
AM_5
 62
     0
370
    -2
100
AcDbLine
 10
3.000000000000001
 20
21.24163917547554
 30
0.0
 11
18.42342444148403
 21
21.24163917547554
 31
0.0
  0
SOLID
  5
7E7
330
62C
100
AcDbEntity
  8
AM_5
 62
     0
100
AcDbTrace
 10
3.000000000000001
 20
21.74163917547554
 30
0.0
 11
3.000000000000001
 21
20.74163917547554
 31
0.0
 12
0.0000000000000013
 22
21.24163917547554
 32
0.0
 13
0.0000000000000013
 23
21.24163917547554
 33
0.0
  0
SOLID
  5
7E8
330
62C
100
AcDbEntity
  8
AM_5
 62
     0
100
AcDbTrace
 10
18.42342444148403
 20
21.74163917547554
 30
0.0
 11
18.42342444148403
 21
20.74163917547554
 31
0.0
 12
21.42342444148403
 22
21.24163917547554
 32
0.0
 13
21.42342444148403
 23
21.24163917547554
 33
0.0
  0
MTEXT
  5
7E9
330
62C
100
AcDbEntity
  8
AM_5
 62
     0
100
AcDbMText
 10
10.71171222074202
 20
23.83163917547554
 30
0.0
 40
5.0
 41
0.0
 71
     5
 72
     1
  1
\A1;20
 73
     1
 44
1.0
  0
POINT
  5
7EA
330
62C
100
AcDbEntity
  8
DEFPOINTS
 62
     0
100
AcDbPoint
 10
0.0
 20
0.0
 30
0.0
  0
POINT
  5
7EB
330
62C
100
AcDbEntity
  8
DEFPOINTS
 62
     0
100
AcDbPoint
 10
21.42342444148403
 20
0.0
 30
0.0
  0
POINT
  5
7EC
330
62C
100
AcDbEntity
  8
DEFPOINTS
 62
     0
100
AcDbPoint
 10
21.42342444148403
 20
21.24163917547554
 30
0.0
  0
ENDBLK
  5
638
330
62C
100
AcDbEntity
  8
0
100
AcDbBlockEnd
  0
BLOCK
  5
663
330
654
100
AcDbEntity
  8
0
100
AcDbBlockBegin
  2
*D10
 70
     1
 71
     0
 10
0.0
 20
0.0
 30
0.0
  3
*D10
  1

  0
LINE
  5
7ED
330
654
100
AcDbEntity
  8
AM_5
 62
     0
370
    -2
100
AcDbLine
 10
-0.0621533845696535
 20
1.084364878545923
 30
0.0
 11
-1.203011751173372
 21
22.85323988760464
 31
0.0
  0
LINE
  5
7EE
330
654
100
AcDbEntity
  8
AM_5
 62
     0
370
    -2
100
AcDbLine
 10
-0.8578655248664483
 20
0.6156546095434576
 30
0.0
 11
-19.34425346096796
 21
12.1672319065463
 31
0.0
  0
ARC
  5
7EF
330
654
100
AcDbEntity
  8
AM_5
 62
     0
370
    -2
100
AcDbCircle
 10
-0.0098174297042503
 20
0.0857353437191556
 30
0.0
 40
20.79874943598074
100
AcDbArc
 50
101.2714921018981
 51
139.7285077115687
  0
SOLID
  5
7F0
330
654
100
AcDbEntity
  8
AM_5
 62
     0
100
AcDbTrace
 10
-4.137214013321961
 20
20.97944647100622
 30
0.0
 11
-4.012993459076085
 21
19.98719183942074
 31
0.0
 12
-1.098339841442568
 22
20.8559808179511
 32
0.0
 13
-1.098339841442568
 23
20.8559808179511
 33
0.0
  0
SOLID
  5
7F1
330
654
100
AcDbEntity
  8
AM_5
 62
     0
100
AcDbTrace
 10
-15.47524518823287
 20
13.23540960653542
 30
0.0
 11
-16.28286732186731
 21
13.82510994506658
 31
0.0
 12
-17.64815727064356
 22
11.10739337489769
 32
0.0
 13
-17.64815727064356
 23
11.10739337489769
 33
0.0
  0
MTEXT
  5
7F2
330
654
100
AcDbEntity
  8
AM_5
 62
     0
100
AcDbMText
 10
-15.29072171458492
 20
17.79244493120054
 30
0.0
 40
5.0
 41
0.0
 71
     5
 72
     1
  1
\A1;55°
 11
0.7570609807911222
 21
0.6533442211909309
 31
0.0
 73
     1
 44
1.0
  0
POINT
  5
7F3
330
654
100
AcDbEntity
  8
DEFPOINTS
 62
     0
100
AcDbPoint
 10
-7.576261116104684
 20
19.45934905002703
 30
0.0
  0
POINT
  5
7F4
330
654
100
AcDbEntity
  8
DEFPOINTS
 62
     0
100
AcDbPoint
 10
0.0001356778666377
 20
-0.1041812673211666
 30
0.0
  0
POINT
  5
7F5
330
654
100
AcDbEntity
  8
DEFPOINTS
 62
     0
100
AcDbPoint
 10
9.851181678473949
 20
-6.076100803911658
 30
0.0
  0
POINT
  5
7F6
330
654
100
AcDbEntity
  8
DEFPOINTS
 62
     0
100
AcDbPoint
 10
0.1514620110392571
 20
-0.0150432363152788
 30
0.0
  0
POINT
  5
7F7
330
654
100
AcDbEntity
  8
DEFPOINTS
 62
     0
100
AcDbPoint
 10
0.5987386628985396
 20
-11.52620694786319
 30
0.0
  0
ENDBLK
  5
664
330
654
100
AcDbEntity
  8
0
100
AcDbBlockEnd
  0
BLOCK
  5
6CA
330
6BF
100
AcDbEntity
  8
0
100
AcDbBlockBegin
  2
*D11
 70
     1
 71
     0
 10
0.0
 20
0.0
 30
0.0
  3
*D11
  1

  0
LINE
  5
7F8
330
6BF
100
AcDbEntity
  8
AM_5
 62
     0
370
    -2
100
AcDbLine
 10
-1.0
 20
0.0000000000000003
 30
0.0
 11
-20.71300594599734
 21
0.0000000000000059
 31
0.0
  0
LINE
  5
7F9
330
6BF
100
AcDbEntity
  8
AM_5
 62
     0
370
    -2
100
AcDbLine
 10
24.18107703755595
 20
-10.00018880516296
 30
0.0
 11
-20.71300594599734
 21
-10.00018880516295
 31
0.0
  0
LINE
  5
7FA
330
6BF
100
AcDbEntity
  8
AM_5
 62
     0
370
    -2
100
AcDbLine
 10
-18.71300594599734
 20
-2.999999999999995
 30
0.0
 11
-18.71300594599734
 21
-7.00018880516295
 31
0.0
  0
SOLID
  5
7FB
330
6BF
100
AcDbEntity
  8
AM_5
 62
     0
100
AcDbTrace
 10
-19.21300594599734
 20
-2.999999999999994
 30
0.0
 11
-18.21300594599734
 21
-2.999999999999995
 31
0.0
 12
-18.71300594599734
 22
0.0000000000000053
 32
0.0
 13
-18.71300594599734
 23
0.0000000000000053
 33
0.0
  0
SOLID
  5
7FC
330
6BF
100
AcDbEntity
  8
AM_5
 62
     0
100
AcDbTrace
 10
-19.21300594599734
 20
-7.00018880516295
 30
0.0
 11
-18.21300594599734
 21
-7.00018880516295
 31
0.0
 12
-18.71300594599734
 22
-10.00018880516295
 32
0.0
 13
-18.71300594599734
 23
-10.00018880516295
 33
0.0
  0
MTEXT
  5
7FD
330
6BF
100
AcDbEntity
  8
AM_5
 62
     0
100
AcDbMText
 10
-21.30300594599733
 20
-5.000094402581476
 30
0.0
 40
5.0
 41
0.0
 71
     5
 72
     1
  1
\A1;10
 11
6.123031769111886E-17
 21
1.0
 31
0.0
 73
     1
 44
1.0
  0
POINT
  5
7FE
330
6BF
100
AcDbEntity
  8
DEFPOINTS
 62
     0
100
AcDbPoint
 10
0.0
 20
0.0
 30
0.0
  0
POINT
  5
7FF
330
6BF
100
AcDbEntity
  8
DEFPOINTS
 62
     0
100
AcDbPoint
 10
25.18107703755595
 20
-10.00018880516296
 30
0.0
  0
POINT
  5
800
330
6BF
100
AcDbEntity
  8
DEFPOINTS
 62
     0
100
AcDbPoint
 10
-18.71300594599734
 20
-10.00018880516295
 30
0.0
  0
ENDBLK
  5
6CB
330
6BF
100
AcDbEntity
  8
0
100
AcDbBlockEnd
  0
ENDSEC
  0
SECTION
  2
ENTITIES
  0
ARC
  5
188
330
22
100
AcDbEntity
  8
1
  6
Continuous
100
AcDbCircle
 10
0.0992403700947762
 20
-0.0994080975651457
 30
0.0
 40
0.0992187485098839
100
AcDbArc
 50
57.99995819301272
 51
183.0000300666401
  0
LINE
  5
18F
330
22
100
AcDbEntity
  8
1
  6
CENTER
100
AcDbLine
 10
22.49018257111311
 20
-10.00018880516296
 30
0.0
 11
121.9901825711131
 21
-10.00018880516299
 31
0.0
  0
LINE
  5
190
330
22
100
AcDbEntity
  8
1
  6
Continuous
100
AcDbLine
 10
9.851181678473949
 20
-6.076100803911658
 30
0.0
 11
0.1514620110392571
 21
-0.0150432363152788
 31
0.0
  0
ARC
  5
191
330
22
100
AcDbEntity
  8
1
  6
Continuous
100
AcDbCircle
 10
0.0989999994635582
 20
-0.0989999994635298
 30
0.0
 40
0.0989999994635582
100
AcDbArc
 50
57.99999833185082
 51
183.0000048041301
  0
LINE
  5
192
330
22
100
AcDbEntity
  8
1
  6
Continuous
100
AcDbLine
 10
0.0001356778666377
 20
-0.1041812673211666
 30
0.0
 11
0.5987386628985405
 21
-11.52620694786319
 31
0.0
  0
LINE
  5
193
330
22
100
AcDbEntity
  8
1
  6
Continuous
100
AcDbLine
 10
0.5987386628985405
 20
-11.52620694786319
 30
0.0
 11
10.29845874756575
 21
-17.58726499229678
 31
0.0
  0
ARC
  5
194
330
22
100
AcDbEntity
  8
1
  6
Continuous
100
AcDbCircle
 10
10.35092037171125
 20
-17.50330732017758
 30
0.0
 40
0.0989999994635582
100
AcDbArc
 50
238.0004672520553
 51
2.999472383051538
  0
LINE
  5
195
330
22
100
AcDbEntity
  8
1
  6
Continuous
100
AcDbLine
 10
10.44978492707014
 20
-17.49812696129087
 30
0.0
 11
9.851181678473949
 21
-6.076100803911658
 31
0.0
  0
CIRCLE
  5
196
330
22
100
AcDbEntity
  8
1
  6
Continuous
100
AcDbCircle
 10
5.224961929023266
 20
-8.801153160631685
 30
0.0
 40
3.0
  0
CIRCLE
  5
197
330
22
100
AcDbEntity
  8
1
  6
Continuous
100
AcDbCircle
 10
5.224961452186108
 20
-8.801155067980261
 30
0.0
 40
2.900000095367432
  0
LINE
  5
198
330
22
100
AcDbEntity
  8
1
  6
CENTER
100
AcDbLine
 10
3.24556153267622
 20
-5.44080350548029
 30
0.0
 11
7.204361133277416
 21
-12.16150663048029
 31
0.0
  0
LINE
  5
199
330
22
100
AcDbEntity
  8
1
  6
CENTER
100
AcDbLine
 10
1.864607863128185
 20
-10.78055570274597
 30
0.0
 11
8.585314445197582
 21
-6.821754433214665
 31
0.0
  0
LINE
  5
19A
330
22
100
AcDbEntity
  8
1
  6
Continuous
100
AcDbLine
 10
6.928155116736889
 20
-8.146072365343571
 30
0.0
 11
6.623632602393627
 21
-7.629096962511568
 31
0.0
  0
LINE
  5
19B
330
22
100
AcDbEntity
  8
1
  6
Continuous
100
AcDbLine
 10
3.521767549216747
 20
-9.456237770617094
 30
0.0
 11
3.826290063560009
 21
-9.973213173449068
 31
0.0
  0
LINE
  5
19C
330
22
100
AcDbEntity
  8
1
  6
Continuous
100
AcDbLine
 10
3.826290063560009
 20
-9.973213173449068
 30
0.0
 11
4.929507426917553
 21
-9.32337186485529
 31
0.0
  0
LINE
  5
19D
330
22
100
AcDbEntity
  8
1
  6
Continuous
100
AcDbLine
 10
5.82493894547224
 20
-8.79592130333188
 30
0.0
 11
6.928155116736889
 21
-8.146072365343571
 31
0.0
  0
LINE
  5
19E
330
22
100
AcDbEntity
  8
1
  6
Continuous
100
AcDbLine
 10
6.623632602393627
 20
-7.629096962511568
 30
0.0
 11
5.520415477454662
 21
-8.27893827110529
 31
0.0
  0
LINE
  5
19F
330
22
100
AcDbEntity
  8
1
  6
Continuous
100
AcDbLine
 10
4.624983958899975
 20
-8.806388832628784
 30
0.0
 11
3.521767549216747
 21
-9.456237770617094
 31
0.0
  0
LINE
  5
1A0
330
22
100
AcDbEntity
  8
1
  6
Continuous
100
AcDbLine
 10
3.510594300925732
 20
-8.175895668566284
 30
0.0
 11
4.624983958899975
 21
-8.806388832628784
 31
0.0
  0
LINE
  5
1A1
330
22
100
AcDbEntity
  8
1
  6
Continuous
100
AcDbLine
 10
5.529484920203686
 20
-9.318130470812378
 30
0.0
 11
6.64387433975935
 21
-9.948623634874878
 31
0.0
  0
LINE
  5
1A2
330
22
100
AcDbEntity
  8
1
  6
Continuous
100
AcDbLine
 10
3.806048326194286
 20
-7.653686501085787
 30
0.0
 11
3.510594300925732
 21
-8.175895668566284
 31
0.0
  0
LINE
  5
1A3
330
22
100
AcDbEntity
  8
1
  6
Continuous
100
AcDbLine
 10
6.64387433975935
 20
-9.948623634874878
 30
0.0
 11
6.939328365027905
 21
-9.42641446739438
 31
0.0
  0
LINE
  5
1A4
330
22
100
AcDbEntity
  8
1
  6
Continuous
100
AcDbLine
 10
6.939328365027905
 20
-9.42641446739438
 30
0.0
 11
5.82493894547224
 21
-8.79592130333188
 31
0.0
  0
LINE
  5
1A5
330
22
100
AcDbEntity
  8
1
  6
Continuous
100
AcDbLine
 10
4.92043798416853
 20
-8.284179665148287
 30
0.0
 11
3.806048326194286
 21
-7.653686501085787
 31
0.0
  0
LINE
  5
1A6
330
22
100
AcDbEntity
  8
1
  6
Continuous
100
AcDbLine
 10
5.540658168494701
 20
-10.59846494346857
 30
0.0
 11
5.529484920203686
 21
-9.318130470812378
 31
0.0
  0
LINE
  5
1A7
330
22
100
AcDbEntity
  8
1
  6
Continuous
100
AcDbLine
 10
5.520415477454662
 20
-8.27893827110529
 30
0.0
 11
5.509242229163647
 21
-6.998603798449068
 31
0.0
  0
LINE
  5
1A8
330
22
100
AcDbEntity
  8
1
  6
Continuous
100
AcDbLine
 10
4.940680675208569
 20
-10.60370633751157
 30
0.0
 11
5.540658168494701
 21
-10.59846494346857
 31
0.0
  0
LINE
  5
1A9
330
22
100
AcDbEntity
  8
1
  6
Continuous
100
AcDbLine
 10
5.509242229163647
 20
-6.998603798449068
 30
0.0
 11
4.909264735877514
 21
-7.003845192492094
 31
0.0
  0
LINE
  5
1AA
330
22
100
AcDbEntity
  8
1
  6
Continuous
100
AcDbLine
 10
4.909264735877514
 20
-7.003845192492094
 30
0.0
 11
4.92043798416853
 21
-8.284179665148287
 31
0.0
  0
LINE
  5
1AB
330
22
100
AcDbEntity
  8
1
  6
Continuous
100
AcDbLine
 10
4.929507426917553
 20
-9.32337186485529
 30
0.0
 11
4.940680675208569
 21
-10.60370633751157
 31
0.0
  0
LINE
  5
1AC
330
22
100
AcDbEntity
  8
1
  6
Continuous
100
AcDbLine
 10
6.786535911262035
 20
-15.39277169853446
 30
0.0
 11
7.934683971107006
 21
-17.34193990379578
 31
0.0
  0
ARC
  5
1AD
330
22
100
AcDbEntity
  8
1
  6
Continuous
100
AcDbCircle
 10
9.6579415127635
 20
-16.32686422020194
 30
0.0
 40
2.0
100
AcDbArc
 50
210.4999856012029
 51
30.50001188242869
  0
LINE
  5
1AE
330
22
100
AcDbEntity
  8
1
  6
Continuous
100
AcDbLine
 10
10.23305194824934
 20
-13.36261842399838
 30
0.0
 11
11.38120048493147
 21
-15.31178662925959
 31
0.0
  0
LINE
  5
1AF
330
22
100
AcDbEntity
  8
1
  6
Continuous
100
AcDbLine
 10
1.517395450912602
 20
-19.50155927105797
 30
0.0
 11
2.569731419550124
 21
-20.50018880516296
 31
0.0
  0
LINE
  5
1B0
330
22
100
AcDbEntity
  8
1
  6
Continuous
100
AcDbLine
 10
2.569731419550124
 20
-20.50018880516296
 30
0.0
 11
14.53371396712305
 21
-20.50018880516296
 31
0.0
  0
ARC
  5
1B1
330
22
100
AcDbEntity
  8
1
  6
Continuous
100
AcDbCircle
 10
10.21988406551822
 20
-1.000188805162964
 30
0.0
 40
5.0
100
AcDbArc
 50
263.8419326556693
 51
270.0
  0
LINE
  5
1B2
330
22
100
AcDbEntity
  8
1
  6
Continuous
100
AcDbLine
 10
1.116376452147961
 20
-11.84966275840998
 30
0.0
 11
1.517395429313183
 21
-19.50156018882998
 31
0.0
  0
LINE
  5
1C3
330
22
100
AcDbEntity
  8
1
  6
Continuous
100
AcDbLine
 10
22.50002258270979
 20
-20.50018880516296
 30
0.0
 11
22.50002258270979
 21
0.4998111948370081
 31
0.0
  0
LINE
  5
1C4
330
22
100
AcDbEntity
  8
1
  6
Continuous
100
AcDbLine
 10
14.53371398895979
 20
-20.50018880516296
 30
0.0
 11
119.5000244900584
 21
-20.50018880516299
 31
0.0
  0
LINE
  5
1C5
330
22
100
AcDbEntity
  8
1
  6
Continuous
100
AcDbLine
 10
21.65649002045393
 20
0.4998111948370081
 30
0.0
 11
119.5000244900584
 21
0.4998111948370081
 31
0.0
  0
LINE
  5
1C6
330
22
100
AcDbEntity
  8
1
  6
PHANTOM
100
AcDbLine
 10
23.00002258270979
 20
0.9998111948370081
 30
0.0
 11
119.0000244900584
 21
0.9998111948370081
 31
0.0
  0
ARC
  5
1C8
330
22
100
AcDbEntity
  8
1
  6
Continuous
100
AcDbCircle
 10
70.00002449005842
 20
-10.00018880516296
 30
0.0
 40
11.0
100
AcDbArc
 50
17.34144361343792
 51
72.65856833314837
  0
ARC
  5
1C9
330
22
100
AcDbEntity
  8
1
  6
Continuous
100
AcDbCircle
 10
70.00002449005842
 20
-10.00018880516296
 30
0.0
 40
11.0
100
AcDbArc
 50
107.3414317593899
 51
162.6585563865622
  0
LINE
  5
1CA
330
22
100
AcDbEntity
  8
1
  6
CENTER
100
AcDbLine
 10
70.00002449005842
 20
2.575144551694308
 30
0.0
 11
70.00002449005842
 21
-22.72604749351751
 31
0.0
  0
ARC
  5
1CC
330
22
100
AcDbEntity
  8
1
  6
Continuous
100
AcDbCircle
 10
70.00002449005842
 20
-10.00018880516296
 30
0.0
 40
11.0
100
AcDbArc
 50
287.3414317593899
 51
342.6585587573716
  0
ARC
  5
1CD
330
22
100
AcDbEntity
  8
1
  6
Continuous
100
AcDbCircle
 10
70.00002449005842
 20
-10.00018880516296
 30
0.0
 40
11.0
100
AcDbArc
 50
197.3414412426284
 51
252.6585682406101
  0
LINE
  5
1CE
330
22
100
AcDbEntity
  8
1
  6
PHANTOM
100
AcDbLine
 10
23.00002258270979
 20
-21.00018880516296
 30
0.0
 11
119.0000244900584
 21
-21.00018880516299
 31
0.0
  0
LINE
  5
1CF
330
22
100
AcDbEntity
  8
1
  6
Continuous
100
AcDbLine
 10
119.0000244900584
 20
0.4998111948370081
 30
0.0
 11
119.0000244900584
 21
-6.721469543011978
 31
0.0
  0
LINE
  5
1D0
330
22
100
AcDbEntity
  8
1
  6
Continuous
100
AcDbLine
 10
119.0000244900584
 20
-13.27890806731401
 30
0.0
 11
119.0000244900584
 21
-20.50018880516299
 31
0.0
  0
LINE
  5
1D1
330
22
100
AcDbEntity
  8
1
  6
Continuous
100
AcDbLine
 10
120.0000244900584
 20
-0.0001888051629919
 30
0.0
 11
120.0000244900584
 21
-20.00018880516299
 31
0.0
  0
LINE
  5
1D2
330
22
100
AcDbEntity
  8
1
  6
Continuous
100
AcDbLine
 10
119.5000244900584
 20
0.4998111948370081
 30
0.0
 11
120.0000244900584
 21
-0.0001888051629919
 31
0.0
  0
LINE
  5
1D3
330
22
100
AcDbEntity
  8
1
  6
Continuous
100
AcDbLine
 10
120.0000244900584
 20
-20.00018880516299
 30
0.0
 11
119.5000244900584
 21
-20.50018880516299
 31
0.0
  0
LINE
  5
1D5
330
22
100
AcDbEntity
  8
1
  6
Continuous
100
AcDbLine
 10
80.50002449005842
 20
-6.721469543011978
 30
0.0
 11
80.50002449005842
 21
-13.27890806731401
 31
0.0
  0
LINE
  5
1D6
330
22
100
AcDbEntity
  8
1
  6
Continuous
100
AcDbLine
 10
59.50002449005842
 20
-6.721469543011978
 30
0.0
 11
59.50002449005842
 21
-13.27890806731398
 31
0.0
  0
LINE
  5
1D7
330
22
100
AcDbEntity
  8
1
  6
Continuous
100
AcDbLine
 10
23.00002258270979
 20
-6.721469543011978
 30
0.0
 11
119.0000244900584
 21
-6.721469543011978
 31
0.0
  0
LINE
  5
1D8
330
22
100
AcDbEntity
  8
1
  6
Continuous
100
AcDbLine
 10
23.00002258270979
 20
-13.27890806731398
 30
0.0
 11
119.0000244900584
 21
-13.27890806731401
 31
0.0
  0
ARC
  5
1D9
330
22
100
AcDbEntity
  8
1
  6
Continuous
100
AcDbCircle
 10
108.5000244900581
 20
-10.00018880516299
 30
0.0
 40
11.0000000000003
100
AcDbArc
 50
342.6585571972406
 51
17.34144280275928
  0
LINE
  5
1DA
330
22
100
AcDbEntity
  8
1
  6
Continuous
100
AcDbLine
 10
19.97167808240641
 20
-3.113280113866495
 30
0.0
 11
21.65649022926812
 21
0.4998111948370081
 31
0.0
  0
ARC
  5
1DB
330
22
100
AcDbEntity
  8
1
  6
Continuous
100
AcDbCircle
 10
15.44013914722319
 20
-1.000188805162964
 30
0.0
 40
5.0
100
AcDbArc
 50
270.0
 51
335.0000000000001
  0
LINE
  5
1DC
330
22
100
AcDbEntity
  8
1
  6
Continuous
100
AcDbLine
 10
10.21988406551822
 20
-6.000188805162992
 30
0.0
 11
15.44013914722319
 21
-6.000188805162992
 31
0.0
  0
LINE
  5
1DD
330
22
100
AcDbEntity
  8
1
  6
Continuous
100
AcDbLine
 10
23.00002258270979
 20
-20.50018880516296
 30
0.0
 11
23.00002258270979
 21
-13.27890806731398
 31
0.0
  0
LINE
  5
1DE
330
22
100
AcDbEntity
  8
1
  6
Continuous
100
AcDbLine
 10
23.00002258270979
 20
-6.721469543011978
 30
0.0
 11
23.00002258270979
 21
0.4998111948370081
 31
0.0
  0
ARC
  5
1DF
330
22
100
AcDbEntity
  8
1
  6
Continuous
100
AcDbCircle
 10
33.50004618619857
 20
-10.00018880516294
 30
0.0
 40
11.00002253060522
100
AcDbArc
 50
162.6585938424157
 51
197.3414061575843
  0
LINE
  5
1E0
330
22
100
AcDbEntity
  8
1
  6
Continuous
100
AcDbLine
 10
15.00002162527801
 20
-19.70570277975648
 30
0.0
 11
15.00002162527801
 21
-6.000188805162992
 31
0.0
  0
POLYLINE
  5
1E1
330
22
100
AcDbEntity
  8
1
  6
Continuous
100
AcDb2dPolyline
 66
     1
 10
0.0
 20
0.0
 30
0.0
  0
VERTEX
  5
1E2
330
1E1
100
AcDbEntity
  8
1
  6
Continuous
100
AcDbVertex
100
AcDb2dVertex
 10
18.90089692200934
 20
-4.608949759321064
 30
0.0
  0
VERTEX
  5
1E3
330
1E1
100
AcDbEntity
  8
1
  6
Continuous
100
AcDbVertex
100
AcDb2dVertex
 10
19.35755797929522
 20
-6.247413721553784
 30
0.0
  0
VERTEX
  5
1E4
330
1E1
100
AcDbEntity
  8
1
  6
Continuous
100
AcDbVertex
100
AcDb2dVertex
 10
19.68687680792868
 20
-7.640934213532063
 30
0.0
  0
VERTEX
  5
1E5
330
1E1
100
AcDbEntity
  8
1
  6
Continuous
100
AcDbVertex
100
AcDb2dVertex
 10
19.91465360612267
 20
-8.897821576488951
 30
0.0
  0
VERTEX
  5
1E6
330
1E1
100
AcDbEntity
  8
1
  6
Continuous
100
AcDbVertex
100
AcDb2dVertex
 10
20.03614433894302
 20
-10.00018880516294
 30
0.0
  0
VERTEX
  5
1E7
330
1E1
100
AcDbEntity
  8
1
  6
Continuous
100
AcDbVertex
100
AcDb2dVertex
 10
20.05946913143208
 20
-10.67484408117568
 30
0.0
  0
VERTEX
  5
1E8
330
1E1
100
AcDbEntity
  8
1
  6
Continuous
100
AcDbVertex
100
AcDb2dVertex
 10
20.0380148299804
 20
-11.33053761476677
 30
0.0
  0
VERTEX
  5
1E9
330
1E1
100
AcDbEntity
  8
1
  6
Continuous
100
AcDbVertex
100
AcDb2dVertex
 10
19.97152212038554
 20
-11.97546825109956
 30
0.0
  0
VERTEX
  5
1EA
330
1E1
100
AcDbEntity
  8
1
  6
Continuous
100
AcDbVertex
100
AcDb2dVertex
 10
19.85906364170705
 20
-12.61868843679835
 30
0.0
  0
VERTEX
  5
1EB
330
1E1
100
AcDbEntity
  8
1
  6
Continuous
100
AcDbVertex
100
AcDb2dVertex
 10
19.69975704342664
 20
-13.26703920573229
 30
0.0
  0
VERTEX
  5
1EC
330
1E1
100
AcDbEntity
  8
1
  6
Continuous
100
AcDbVertex
100
AcDb2dVertex
 10
19.49032791420859
 20
-13.93507850063529
 30
0.0
  0
VERTEX
  5
1ED
330
1E1
100
AcDbEntity
  8
1
  6
Continuous
100
AcDbVertex
100
AcDb2dVertex
 10
18.90089692200934
 20
-15.39118880516284
 30
0.0
  0
VERTEX
  5
1EE
330
1E1
100
AcDbEntity
  8
1
  6
Continuous
100
AcDbVertex
100
AcDb2dVertex
 10
17.98787749360628
 20
-17.22092202343387
 30
0.0
  0
VERTEX
  5
1EF
330
1E1
100
AcDbEntity
  8
1
  6
Continuous
100
AcDbVertex
100
AcDb2dVertex
 10
16.74104568540781
 20
-19.43624503013987
 30
0.0
  0
SEQEND
  5
1F0
330
1E1
100
AcDbEntity
  8
1
  0
LINE
  5
1F1
330
22
100
AcDbEntity
  8
2
  6
Continuous
100
AcDbLine
 10
9.814346008002815
 20
70.38573535531754
 30
0.0
 11
14.36295097321278
 21
70.38573535531751
 31
0.0
  0
LINE
  5
1F2
330
22
100
AcDbEntity
  8
2
  6
Continuous
100
AcDbLine
 10
0.0000216253102394
 20
70.08573534339664
 30
0.0
 11
9.851181678474006
 21
70.08573534339664
 31
0.0
  0
LINE
  5
1F3
330
22
100
AcDbEntity
  8
2
  6
Continuous
100
AcDbLine
 10
0.8140442892909618
 20
74.05573537200684
 30
0.0
 11
0.8374540135264965
 21
74.05573537200684
 31
0.0
  0
LINE
  5
1F4
330
22
100
AcDbEntity
  8
2
  6
CENTER
100
AcDbLine
 10
3.480034522712288
 20
68.84472837299106
 30
0.0
 11
3.480034522712288
 21
80.53894522041082
 31
0.0
  0
LINE
  5
1F5
330
22
100
AcDbEntity
  8
2
  6
CENTER
100
AcDbLine
 10
127.3943867668893
 20
70.08573534339661
 30
0.0
 11
19.99018257111317
 21
70.08573534339661
 31
0.0
  0
LINE
  5
200
330
22
100
AcDbEntity
  8
2
  6
Continuous
100
AcDbLine
 10
20.03614433894302
 20
59.58573534339661
 30
0.0
 11
15.2692591515393
 21
69.80835361705817
 31
0.0
  0
ARC
  5
201
330
22
100
AcDbEntity
  8
2
  6
Continuous
100
AcDbCircle
 10
14.36295136450275
 20
69.38573535531751
 30
0.0
 40
1.0
100
AcDbArc
 50
25.00000000000015
 51
90.0
  0
LINE
  5
202
330
22
100
AcDbEntity
  8
2
  6
Continuous
100
AcDbLine
 10
0.000021625278066
 20
70.08573534339664
 30
0.0
 11
0.5500664266046442
 21
74.05573534339663
 31
0.0
  0
LINE
  5
203
330
22
100
AcDbEntity
  8
2
  6
Continuous
100
AcDbLine
 10
0.5397655286551526
 20
74.05573534339663
 30
0.0
 11
9.363726971689459
 21
74.05573534339663
 31
0.0
  0
LINE
  5
204
330
22
100
AcDbEntity
  8
2
  6
Continuous
100
AcDbLine
 10
9.851181678474006
 20
70.08573534339664
 30
0.0
 11
9.363726971689459
 21
74.05573534339663
 31
0.0
  0
LINE
  5
205
330
22
100
AcDbEntity
  8
2
  6
Continuous
100
AcDbLine
 10
22.50002341717487
 20
80.58573534339661
 30
0.0
 11
22.50002341717482
 21
59.58573534339661
 31
0.0
  0
LINE
  5
206
330
22
100
AcDbEntity
  8
2
  6
Continuous
100
AcDbLine
 10
119.5000244900585
 20
80.58573534339661
 30
0.0
 11
14.53371396712311
 21
80.58573534339661
 31
0.0
  0
LINE
  5
207
330
22
100
AcDbEntity
  8
2
  6
Continuous
100
AcDbLine
 10
119.5000244900584
 20
59.58573534339659
 30
0.0
 11
20.03614433894302
 21
59.58573534339661
 31
0.0
  0
LINE
  5
208
330
22
100
AcDbEntity
  8
2
  6
Continuous
100
AcDbLine
 10
119.0000244900584
 20
59.58573534339659
 30
0.0
 11
119.0000244900585
 21
66.8072353433966
 31
0.0
  0
LINE
  5
209
330
22
100
AcDbEntity
  8
2
  6
Continuous
100
AcDbLine
 10
119.0000244900585
 20
73.36423534339662
 30
0.0
 11
119.0000244900585
 21
80.58573534339661
 31
0.0
  0
LINE
  5
20A
330
22
100
AcDbEntity
  8
2
  6
Continuous
100
AcDbLine
 10
120.0000244900584
 20
60.08573534339659
 30
0.0
 11
119.5000244900584
 21
59.58573534339659
 31
0.0
  0
LINE
  5
20B
330
22
100
AcDbEntity
  8
2
  6
Continuous
100
AcDbLine
 10
120.0000244900585
 20
80.08573534339661
 30
0.0
 11
120.0000244900584
 21
60.08573534339659
 31
0.0
  0
LINE
  5
20C
330
22
100
AcDbEntity
  8
2
  6
Continuous
100
AcDbLine
 10
119.5000244900585
 20
80.58573534339661
 30
0.0
 11
120.0000244900585
 21
80.08573534339661
 31
0.0
  0
LINE
  5
20D
330
22
100
AcDbEntity
  8
2
  6
Continuous
100
AcDbLine
 10
119.0000244900585
 20
73.36423534339662
 30
0.0
 11
23.00002258270985
 21
73.36423534339662
 31
0.0
  0
LINE
  5
20E
330
22
100
AcDbEntity
  8
2
  6
Continuous
100
AcDbLine
 10
119.0000244900585
 20
66.8072353433966
 30
0.0
 11
23.00002258270985
 21
66.8072353433966
 31
0.0
  0
ARC
  5
20F
330
22
100
AcDbEntity
  8
2
  6
Continuous
100
AcDbCircle
 10
108.5014622400585
 20
70.08573534339661
 30
0.0
 40
10.99856225000001
100
AcDbArc
 50
342.6574150502451
 51
17.3425849497549
  0
LINE
  5
210
330
22
100
AcDbEntity
  8
2
  6
Continuous
100
AcDbLine
 10
0.5397655286551526
 20
80.58573534339664
 30
0.0
 11
0.5397655286551526
 21
74.05573534339663
 31
0.0
  0
LINE
  5
211
330
22
100
AcDbEntity
  8
2
  6
Continuous
100
AcDbLine
 10
0.5397655286551526
 20
80.58573534339664
 30
0.0
 11
14.53371396712311
 21
80.58573534339661
 31
0.0
  0
LINE
  5
212
330
22
100
AcDbEntity
  8
2
  6
Continuous
100
AcDbLine
 10
8.785945400974356
 20
78.94913411970265
 30
0.0
 11
8.785945400974356
 21
74.05618940129165
 31
0.0
  0
POLYLINE
  5
213
330
22
100
AcDbEntity
  8
2
  6
Continuous
100
AcDb2dPolyline
 66
     1
 10
0.0
 20
0.0
 30
0.0
  0
VERTEX
  5
214
330
213
100
AcDbEntity
  8
2
  6
Continuous
100
AcDbVertex
100
AcDb2dVertex
 10
0.5395537979814549
 20
75.64790738178604
 30
0.0
  0
VERTEX
  5
215
330
213
100
AcDbEntity
  8
2
  6
Continuous
100
AcDbVertex
100
AcDb2dVertex
 10
1.975433473653027
 20
76.81423089314853
 30
0.0
  0
VERTEX
  5
216
330
213
100
AcDbEntity
  8
2
  6
Continuous
100
AcDbVertex
100
AcDb2dVertex
 10
3.647622912515033
 20
77.85178053430545
 30
0.0
  0
VERTEX
  5
217
330
213
100
AcDbEntity
  8
2
  6
Continuous
100
AcDbVertex
100
AcDb2dVertex
 10
5.523956953698757
 20
78.74062727213246
 30
0.0
  0
VERTEX
  5
218
330
213
100
AcDbEntity
  8
2
  6
Continuous
100
AcDbVertex
100
AcDb2dVertex
 10
7.569299790271998
 20
79.46412768505195
 30
0.0
  0
SEQEND
  5
219
330
213
100
AcDbEntity
  8
2
  0
LINE
  5
21A
330
22
100
AcDbEntity
  8
2
  6
Continuous
100
AcDbLine
 10
10.21967233484457
 20
79.79418940129162
 30
0.0
 11
15.43992741654955
 21
79.79418940129162
 31
0.0
  0
POLYLINE
  5
21B
330
22
100
AcDbEntity
  8
2
  6
Continuous
100
AcDb2dPolyline
 66
     1
 10
0.0
 20
0.0
 30
0.0
  0
VERTEX
  5
21C
330
21B
100
AcDbEntity
  8
2
  6
Continuous
100
AcDbVertex
100
AcDb2dVertex
 10
7.570076005723081
 20
79.46412768505195
 30
0.0
  0
VERTEX
  5
21D
330
21B
100
AcDbEntity
  8
2
  6
Continuous
100
AcDbVertex
100
AcDb2dVertex
 10
8.24692473044621
 20
79.61913730207104
 30
0.0
  0
VERTEX
  5
21E
330
21B
100
AcDbEntity
  8
2
  6
Continuous
100
AcDbVertex
100
AcDb2dVertex
 10
8.841485551250742
 20
79.71645449536732
 30
0.0
  0
VERTEX
  5
21F
330
21B
100
AcDbEntity
  8
2
  6
Continuous
100
AcDbVertex
100
AcDb2dVertex
 10
9.041251896350047
 20
79.73858716030679
 30
0.0
  0
VERTEX
  5
220
330
21B
100
AcDbEntity
  8
2
  6
Continuous
100
AcDbVertex
100
AcDb2dVertex
 10
9.240624386561478
 20
79.75590003660022
 30
0.0
  0
VERTEX
  5
221
330
21B
100
AcDbEntity
  8
2
  6
Continuous
100
AcDbVertex
100
AcDb2dVertex
 10
9.435872378307465
 20
79.76902933261354
 30
0.0
  0
VERTEX
  5
222
330
21B
100
AcDbEntity
  8
2
  6
Continuous
100
AcDbVertex
100
AcDb2dVertex
 10
9.623265228010553
 20
79.77861125671294
 30
0.0
  0
VERTEX
  5
223
330
21B
100
AcDbEntity
  8
2
  6
Continuous
100
AcDbVertex
100
AcDb2dVertex
 10
9.799072292093342
 20
79.78528201726431
 30
0.0
  0
VERTEX
  5
224
330
21B
100
AcDbEntity
  8
2
  6
Continuous
100
AcDbVertex
100
AcDb2dVertex
 10
9.959562926978265
 20
79.78967782263379
 30
0.0
  0
VERTEX
  5
225
330
21B
100
AcDbEntity
  8
2
  6
Continuous
100
AcDbVertex
100
AcDb2dVertex
 10
10.10100648908775
 20
79.79243488118752
 30
0.0
  0
VERTEX
  5
226
330
21B
100
AcDbEntity
  8
2
  6
Continuous
100
AcDbVertex
100
AcDb2dVertex
 10
10.21967233484457
 20
79.79418940129162
 30
0.0
  0
SEQEND
  5
227
330
21B
100
AcDbEntity
  8
2
  0
POLYLINE
  5
228
330
22
100
AcDbEntity
  8
2
  6
Continuous
100
AcDb2dPolyline
 66
     1
 10
0.0
 20
0.0
 30
0.0
  0
VERTEX
  5
229
330
228
100
AcDbEntity
  8
2
  6
Continuous
100
AcDbVertex
100
AcDb2dVertex
 10
18.90068519133558
 20
62.02073534339662
 30
0.0
  0
VERTEX
  5
22A
330
228
100
AcDbEntity
  8
2
  6
Continuous
100
AcDbVertex
100
AcDb2dVertex
 10
20.0524622656551
 20
63.57828656330151
 30
0.0
  0
VERTEX
  5
22B
330
228
100
AcDbEntity
  8
2
  6
Continuous
100
AcDbVertex
100
AcDb2dVertex
 10
20.92782663632846
 20
65.52299815993609
 30
0.0
  0
VERTEX
  5
22C
330
228
100
AcDbEntity
  8
2
  6
Continuous
100
AcDbVertex
100
AcDb2dVertex
 10
21.47175121441808
 20
67.7310548635418
 30
0.0
  0
VERTEX
  5
22D
330
228
100
AcDbEntity
  8
2
  6
Continuous
100
AcDbVertex
100
AcDb2dVertex
 10
21.65592741654956
 20
70.08618940129162
 30
0.0
  0
VERTEX
  5
22E
330
228
100
AcDbEntity
  8
2
  6
Continuous
100
AcDbVertex
100
AcDb2dVertex
 10
21.18520232154521
 20
73.79872036009644
 30
0.0
  0
VERTEX
  5
22F
330
228
100
AcDbEntity
  8
2
  6
Continuous
100
AcDbVertex
100
AcDb2dVertex
 10
19.83530316840512
 20
76.95078203305062
 30
0.0
  0
VERTEX
  5
230
330
228
100
AcDbEntity
  8
2
  6
Continuous
100
AcDbVertex
100
AcDb2dVertex
 10
17.81704859907228
 20
79.0590222162366
 30
0.0
  0
VERTEX
  5
231
330
228
100
AcDbEntity
  8
2
  6
Continuous
100
AcDbVertex
100
AcDb2dVertex
 10
16.65418185505916
 20
79.60905835134801
 30
0.0
  0
VERTEX
  5
232
330
228
100
AcDbEntity
  8
2
  6
Continuous
100
AcDbVertex
100
AcDb2dVertex
 10
15.43992741654955
 20
79.79418940129162
 30
0.0
  0
SEQEND
  5
233
330
228
100
AcDbEntity
  8
2
  0
LINE
  5
234
330
22
100
AcDbEntity
  8
2
  6
Continuous
100
AcDbLine
 10
15.43992741654955
 20
70.29392252173852
 30
0.0
 11
15.43992741654955
 21
79.04738340679691
 31
0.0
  0
LINE
  5
235
330
22
100
AcDbEntity
  8
2
  6
Continuous
100
AcDbLine
 10
23.00002258270985
 20
80.58573534339661
 30
0.0
 11
23.00002258270985
 21
73.36423534339662
 31
0.0
  0
LINE
  5
236
330
22
100
AcDbEntity
  8
2
  6
Continuous
100
AcDbLine
 10
23.00002258270985
 20
66.8072353433966
 30
0.0
 11
23.00002258270979
 21
59.58573534339661
 31
0.0
  0
ARC
  5
237
330
22
100
AcDbEntity
  8
2
  6
Continuous
100
AcDbCircle
 10
33.49860843311353
 20
70.08573534339661
 30
0.0
 40
10.99858477752014
100
AcDbArc
 50
162.65745169776
 51
197.3425483022402
  0
LINE
  5
238
330
22
100
AcDbEntity
  8
2
  6
Continuous
100
AcDbLine
 10
119.5000244900585
 20
80.58573534339661
 30
0.0
 11
14.53371396712311
 21
80.58573534339661
 31
0.0
  0
LINE
  5
2CE
330
22
100
AcDbEntity
  8
6
  6
Continuous
100
AcDbLine
 10
-50.00981742888689
 20
-17.60211751610044
 30
0.0
 11
-50.00981742888689
 21
-0.0001892521977425
 31
0.0
  0
LINE
  5
2CF
330
22
100
AcDbEntity
  8
6
  6
Continuous
100
AcDbLine
 10
-50.30981744080782
 20
-11.63392160087824
 30
0.0
 11
-50.30981744080782
 21
-20.49590299278495
 31
0.0
  0
LINE
  5
2D0
330
22
100
AcDbEntity
  8
6
  6
CENTER
100
AcDbLine
 10
-49.43223763257265
 20
-8.801153160631657
 30
0.0
 11
-60.00981742888689
 21
-8.801153160631657
 31
0.0
  0
LINE
  5
2D1
330
22
100
AcDbEntity
  8
6
  6
CENTER
100
AcDbLine
 10
-50.00981742888689
 20
1.085735343396664
 30
0.0
 11
-50.00981742888689
 21
-0.0001892521977425
 31
0.0
  0
LINE
  5
2D2
330
22
100
AcDbEntity
  8
6
  6
CENTER
100
AcDbLine
 10
-50.00981742888689
 20
-17.60211751610044
 30
0.0
 11
-50.00981742888689
 21
-21.00019071251154
 31
0.0
  0
LINE
  5
2D3
330
22
100
AcDbEntity
  8
6
  6
Continuous
100
AcDbLine
 10
-53.97981742888692
 20
-11.23987069916916
 30
0.0
 11
-50.00981742888689
 21
-11.52620694786316
 31
0.0
  0
LINE
  5
2D4
330
22
100
AcDbEntity
  8
6
  6
Continuous
100
AcDbLine
 10
-53.97981742888692
 20
-0.7906518712494233
 30
0.0
 11
-50.00981742888689
 21
-0.0001892513419364
 31
0.0
  0
LINE
  5
2D5
330
22
100
AcDbEntity
  8
6
  6
CENTER
100
AcDbLine
 10
-62.39330513030291
 20
-10.00018928200007
 30
0.0
 11
-39.00981742888689
 21
-10.00018928200009
 31
0.0
  0
LINE
  5
2D6
330
22
100
AcDbEntity
  8
6
  6
Continuous
100
AcDbLine
 10
-53.97981742888692
 20
-11.23987069916916
 30
0.0
 11
-53.97981742888692
 21
-0.7906518712494233
 31
0.0
  0
LINE
  5
2D7
330
22
100
AcDbEntity
  8
6
  6
Continuous
100
AcDbLine
 10
-50.30981744080782
 20
-17.54238437586716
 30
0.0
 11
-50.00981742888689
 21
-17.60211706992135
 31
0.0
  0
LINE
  5
2D8
330
22
100
AcDbEntity
  8
6
  6
Continuous
100
AcDbLine
 10
-56.11097259617156
 20
-0.8472714070972529
 30
0.0
 11
-53.97981742888692
 21
-0.8472714070972529
 31
0.0
  0
LINE
  5
2D9
330
22
100
AcDbEntity
  8
6
  6
Continuous
100
AcDbLine
 10
-50.00981742888689
 20
-6.000188805162964
 30
0.0
 11
-40.30157370587995
 21
-6.000188805162964
 31
0.0
  0
LINE
  5
2DA
330
22
100
AcDbEntity
  8
6
  6
Continuous
100
AcDbLine
 10
-55.55273798857661
 20
-19.50155927105794
 30
0.0
 11
-50.30981744080782
 21
-19.50155927105794
 31
0.0
  0
ARC
  5
2DB
330
22
100
AcDbEntity
  8
6
  6
Continuous
100
AcDbCircle
 10
-50.00981742888692
 20
-10.00018928200007
 30
0.0
 40
11.0
100
AcDbArc
 50
287.3414428027597
 51
342.6585571972402
  0
ARC
  5
2DC
330
22
100
AcDbEntity
  8
6
  6
Continuous
100
AcDbCircle
 10
-50.00981742888692
 20
-10.00018928200007
 30
0.0
 40
11.0
100
AcDbArc
 50
17.34144280275975
 51
72.65855719724024
  0
ARC
  5
2DD
330
22
100
AcDbEntity
  8
6
  6
Continuous
100
AcDbCircle
 10
-50.00981742888692
 20
-10.00018928200007
 30
0.0
 40
11.0
100
AcDbArc
 50
107.3414428027598
 51
162.6585571972402
  0
ARC
  5
2DE
330
22
100
AcDbEntity
  8
6
  6
Continuous
100
AcDbCircle
 10
-50.00981742888692
 20
-10.00018928200007
 30
0.0
 40
11.0
100
AcDbArc
 50
197.3414428027598
 51
252.6585571972402
  0
LINE
  5
2DF
330
22
100
AcDbEntity
  8
6
  6
Continuous
100
AcDbLine
 10
-53.28853669103785
 20
0.4998107179999636
 30
0.0
 11
-46.73109816673593
 21
0.4998107179999636
 31
0.0
  0
LINE
  5
2E0
330
22
100
AcDbEntity
  8
6
  6
Continuous
100
AcDbLine
 10
-53.28853669103785
 20
-20.50018928200007
 30
0.0
 11
-46.73109816673593
 21
-20.50018928200007
 31
0.0
  0
LINE
  5
2E1
330
22
100
AcDbEntity
  8
6
  6
Continuous
100
AcDbLine
 10
-39.50981742888689
 20
-13.27890854415108
 30
0.0
 11
-39.50981742888689
 21
-6.721470019849051
 31
0.0
  0
LINE
  5
2E2
330
22
100
AcDbEntity
  8
6
  6
Continuous
100
AcDbLine
 10
-60.50981742888689
 20
-13.27890854415105
 30
0.0
 11
-60.50981742888689
 21
-6.721470019849051
 31
0.0
  0
ARC
  5
2E3
330
22
100
AcDbEntity
  8
6
  6
Continuous
100
AcDbCircle
 10
-50.00981742888692
 20
-10.00018928200007
 30
0.0
 40
10.5
100
AcDbArc
 50
268.3627548571462
 51
119.342448733227
  0
TEXT
  5
3FA
330
22
100
AcDbEntity
  8
0
100
AcDbText
 10
6.868354660479213
 20
-70.27219682448214
 30
0.0
 40
5.0
  1
%%uRS22X-SDUL11
100
AcDbText
  0
LINE
  5
41C
330
22
100
AcDbEntity
  8
0
100
AcDbLine
 10
0.1979999989271164
 20
0.0
 30
0.0
 11
0.0
 21
0.0
 31
0.0
  0
LINE
  5
41D
330
22
100
AcDbEntity
  8
0
100
AcDbLine
 10
0.0
 20
0.0
 30
0.0
 11
0.0
 21
-0.1979999989271164
 31
0.0
  0
DIMENSION
  5
45B
330
22
100
AcDbEntity
  8
AM_5
100
AcDbDimension
  2
*D2
 10
0.0000216253102377
 20
41.92644794402639
 30
0.0
 11
60.00002305768433
 21
44.5164479440264
 31
0.0
 70
    32
 71
     5
 42
120.0000028647482
  3
Standard$0
100
AcDbAlignedDimension
 13
120.0000244900584
 23
60.08573534339659
 33
0.0
 14
0.0000216253102394
 24
70.08573534339664
 34
0.0
 50
180.0
100
AcDbRotatedDimension
1001
ACAD
1000
DSTYLE
1002
{
1070
    41
1040
3.0
1070
    42
1040
1.0
1070
    43
1040
5.0
1070
    44
1040
2.0
1070
    46
1040
3.0
1070
    73
1070
     0
1070
    74
1070
     0
1070
    77
1070
     1
1070
    78
1070
     8
1070
   140
1040
5.0
1070
   141
1040
2.0
1070
   145
1040
1.0
1070
   171
1070
     4
1070
   172
1070
     1
1002
}
  0
DIMENSION
  5
493
330
22
100
AcDbEntity
  8
AM_5
100
AcDbDimension
  2
*D3
 10
0.5987386628985405
 20
-11.52620694786319
 30
0.0
 11
-9.761256513702652
 21
-33.29944047432358
 31
0.0
 70
    34
 71
     5
 42
0.0523598761803985
  3
Standard$2
100
AcDb2LineAngularDimension
 13
0.0
 23
0.0
 33
0.0
 14
0.0
 24
-0.1979999989271164
 34
0.0
 15
0.0001356778666377
 25
-0.1041812673211666
 35
0.0
 16
1.28885079615849
 26
-37.00945119515166
 36
0.0
1001
ACAD
1000
DSTYLE
1002
{
1070
    41
1040
3.0
1070
    42
1040
1.0
1070
    43
1040
5.0
1070
    44
1040
2.0
1070
    46
1040
3.0
1070
    73
1070
     0
1070
    74
1070
     0
1070
    77
1070
     1
1070
    78
1070
     8
1070
   140
1040
5.0
1070
   141
1040
2.0
1070
   145
1040
1.0
1070
   171
1070
     4
1070
   172
1070
     1
1002
}
  0
DIMENSION
  5
512
330
22
100
AcDbEntity
  8
AM_5
100
AcDbDimension
  2
*D5
 10
-11.43578697150133
 20
70.08573534339664
 30
0.0
 11
-14.02578697150134
 21
77.42573534339664
 31
0.0
 70
    32
 71
     5
 42
-1.0
  3
Standard$0
100
AcDbAlignedDimension
 13
0.0000216253102394
 23
70.08573534339664
 33
0.0
 14
1.517703034613987
 24
70.08573534339664
 34
0.0
 50
270.0
100
AcDbRotatedDimension
1001
ACAD
1000
DSTYLE
1002
{
1070
    41
1040
3.0
1070
    42
1040
1.0
1070
    43
1040
5.0
1070
    44
1040
2.0
1070
    46
1040
3.0
1070
    73
1070
     0
1070
    74
1070
     0
1070
    77
1070
     1
1070
    78
1070
     8
1070
   140
1040
5.0
1070
   141
1040
2.0
1070
   145
1040
1.0
1070
   171
1070
     4
1070
   172
1070
     1
1002
}
  0
DIMENSION
  5
544
330
22
100
AcDbEntity
  8
AM_5
100
AcDbDimension
  2
*D6
 10
76.60298817517804
 20
-1.202412348978719
 30
0.0
 11
53.89943296259034
 21
-31.45258682307335
 31
0.0
 70
   163
 71
     5
 42
22.00000000000005
  3
Standard$3
100
AcDbDiametricDimension
 15
63.39706080493852
 25
-18.79796526134726
 35
0.0
 40
0.0
1001
ACAD
1000
DSTYLE
1002
{
1070
    41
1040
3.0
1070
    42
1040
1.0
1070
    43
1040
5.0
1070
    44
1040
2.0
1070
    46
1040
3.0
1070
    73
1070
     0
1070
    74
1070
     0
1070
    77
1070
     1
1070
    78
1070
     8
1070
   140
1040
5.0
1070
   141
1040
2.0
1070
   145
1040
1.0
1070
   171
1070
     4
1070
   172
1070
     1
1002
}
  0
DIMENSION
  5
56F
330
22
100
AcDbEntity
  8
AM_5
100
AcDbDimension
  2
*D7
 10
59.50002449005848
 20
21.24163917547554
 30
0.0
 11
70.00002449005845
 21
23.83163917547554
 31
0.0
 70
    32
 71
     5
 42
20.99999999999994
  3
Standard$0
100
AcDbAlignedDimension
 13
80.50002449005842
 23
-10.00018880516296
 33
0.0
 14
59.50002449005848
 24
-10.00018880516296
 34
0.0
 50
180.0
100
AcDbRotatedDimension
1001
ACAD
1000
DSTYLE
1002
{
1070
    41
1040
3.0
1070
    42
1040
1.0
1070
    43
1040
5.0
1070
    44
1040
2.0
1070
    46
1040
3.0
1070
    73
1070
     0
1070
    74
1070
     0
1070
    77
1070
     1
1070
    78
1070
     8
1070
   140
1040
5.0
1070
   141
1040
2.0
1070
   145
1040
1.0
1070
   171
1070
     4
1070
   172
1070
     1
1002
}
  0
DIMENSION
  5
593
330
22
100
AcDbEntity
  8
AM_5
100
AcDbDimension
  2
*D8
 10
89.83324603682354
 20
0.4998111948370025
 30
0.0
 11
89.83324603682354
 21
-31.14905215780988
 31
0.0
 70
   160
 71
     5
 42
20.99999999999997
  3
Standard$0
100
AcDbAlignedDimension
 13
70.00002449005842
 23
-20.50018880516296
 33
0.0
 14
70.00002449005842
 24
0.4998111948370081
 34
0.0
 50
270.0
100
AcDbRotatedDimension
1001
ACAD
1000
DSTYLE
1002
{
1070
    41
1040
3.0
1070
    42
1040
1.0
1070
    43
1040
5.0
1070
    44
1040
2.0
1070
    46
1040
3.0
1070
    73
1070
     0
1070
    74
1070
     0
1070
    77
1070
     1
1070
    78
1070
     8
1070
   140
1040
5.0
1070
   141
1040
2.0
1070
   145
1040
1.0
1070
   171
1070
     4
1070
   172
1070
     1
1002
}
  0
LINE
  5
61A
330
22
100
AcDbEntity
  8
AM_5
100
AcDbLine
 10
21.42342444148403
 20
0.0
 30
0.0
 11
0.0
 21
0.0
 31
0.0
  0
DIMENSION
  5
62B
330
22
100
AcDbEntity
  8
AM_5
100
AcDbDimension
  2
*D9
 10
21.42342444148403
 20
21.24163917547554
 30
0.0
 11
10.71171222074202
 21
23.83163917547554
 31
0.0
 70
    32
  1
20
 71
     5
 42
21.42342444148403
  3
Standard$0
100
AcDbAlignedDimension
 13
0.0
 23
0.0
 33
0.0
 14
21.42342444148403
 24
0.0
 34
0.0
 50
180.0
100
AcDbRotatedDimension
1001
ACAD
1000
DSTYLE
1002
{
1070
    41
1040
3.0
1070
    42
1040
1.0
1070
    43
1040
5.0
1070
    44
1040
2.0
1070
    46
1040
3.0
1070
    73
1070
     0
1070
    74
1070
     0
1070
    77
1070
     1
1070
    78
1070
     8
1070
   140
1040
5.0
1070
   141
1040
2.0
1070
   145
1040
1.0
1070
   171
1070
     4
1070
   172
1070
     1
1002
}
  0
DIMENSION
  5
653
330
22
100
AcDbEntity
  8
AM_5
100
AcDbDimension
  2
*D10
 10
0.5987386628985405
 20
-11.52620694786319
 30
0.0
 11
-13.59856018170041
 21
15.83165699095153
 31
0.0
 70
   162
 71
     5
 42
0.9599310881001252
  3
Standard$2
100
AcDb2LineAngularDimension
 13
9.851181678473949
 23
-6.076100803911658
 33
0.0
 14
0.1514620110392571
 24
-0.0150432363152788
 34
0.0
 15
0.0001356778666377
 25
-0.1041812673211666
 35
0.0
 16
-7.576261116104684
 26
19.45934905002703
 36
0.0
1001
ACAD
1000
DSTYLE
1002
{
1070
    41
1040
3.0
1070
    42
1040
1.0
1070
    43
1040
5.0
1070
    44
1040
2.0
1070
    46
1040
3.0
1070
    73
1070
     0
1070
    74
1070
     0
1070
    77
1070
     1
1070
    78
1070
     8
1070
   140
1040
5.0
1070
   141
1040
2.0
1070
   145
1040
1.0
1070
   171
1070
     4
1070
   172
1070
     1
1002
}
  0
DIMENSION
  5
6BE
330
22
100
AcDbEntity
  8
AM_5
100
AcDbDimension
  2
*D11
 10
-18.71300594599734
 20
-10.00018880516295
 30
0.0
 11
-21.30300594599733
 21
-5.000094402581476
 31
0.0
 70
    32
 71
     5
 42
10.00018880516296
  3
Standard$0
100
AcDbAlignedDimension
 13
0.0
 23
0.0
 33
0.0
 14
25.18107703755595
 24
-10.00018880516296
 34
0.0
 50
270.0
100
AcDbRotatedDimension
1001
ACAD
1000
DSTYLE
1002
{
1070
    41
1040
3.0
1070
    42
1040
1.0
1070
    43
1040
5.0
1070
    44
1040
2.0
1070
    46
1040
3.0
1070
    73
1070
     0
1070
    74
1070
     0
1070
    77
1070
     1
1070
    78
1070
     8
1070
   140
1040
5.0
1070
   141
1040
2.0
1070
   145
1040
1.0
1070
   171
1070
     4
1070
   172
1070
     1
1070
   271
1070
     0
1002
}
  0
ACAD_PROXY_ENTITY
  5
82C
330
22
100
AcDbEntity
  8
AM_5
100
AcDbProxyEntity
 90
      498
 91
      571
 95
       25
 70
     0
 92
      668
310
9C020000270000000C00000016000000000000C00C00000013000000010000000C00000016000000000000C00C00000017000000FFFFFFFF3C000000060000000200000060A0DBD8771D47C0C01F723330983940000000000000000093D30E0CABB043C0C31F72333098394000000000000000000C00000016000000000000
310
C00C00000010000000FFFFFFFF0C00000012000000FFFFFFFF0C00000017000000000000000C00000014000000010000000C00000013000000020000000C00000016000000000000C00C00000017000000FFFFFFFF3C000000060000000200000093D30E0CABB043C0C31F723330983940000000000000000060A0DBD8771D
310
42C0C41F72333098394000000000000000000C00000016000000000000C00C00000010000000FFFFFFFF0C00000012000000FFFFFFFF0C00000017000000000000000C00000014000000010000000C00000013000000030000000C00000016000000000000C00C00000017000000FFFFFFFF3C000000060000000200000093
310
D30E0CABB043C0709CF311062E3940000000000000000060A0DBD8771D42C0C41F72333098394000000000000000000C00000016000000000000C00C00000010000000FFFFFFFF0C00000012000000FFFFFFFF0C00000017000000000000000C00000014000000010000000C00000013000000040000000C00000016000000
310
000000C00C00000017000000FFFFFFFF3C000000060000000200000060A0DBD8771D42C0C41F723330983940000000000000000093D30E0CABB043C015A3F0545A023A4000000000000000000C00000016000000000000C00C00000010000000FFFFFFFF0C00000012000000FFFFFFFF0C00000017000000000000000C0000
310
0014000000010000000C00000013000000050000000C00000016000000000000C0
 93
     1473
310
5DC60CE48D8CB9441C03107DC8CCC260E50219FD35022281B66F19197D35022281B64F2A54051F8000000C800AA182836F61DC751F00C01F7233309839409018FFFFFFFF182836F61DC750B00C41F723330983940A8FFFFFFFF1FFFFFFFF0C141B7B0EE3A8F80600FB919984C1CA045409C870D006423FDE5346C03814A959
310
98CACED02A0000000000003C2FC65F4D4088A86D9BC68333333333333094041D050000000000003C2FC000000000000F0BF40401015213500500
340
4EA
340
4F6
330
0
330
0
340
0
340
0
340
4D9
330
0
330
0
 94
        0
  0
ACAD_PROXY_ENTITY
  5
82D
330
22
100
AcDbEntity
  8
AM_5
100
AcDbProxyEntity
 90
      498
 91
      571
 95
       25
 70
     0
 92
      668
310
9C020000270000000C00000016000000000000C00C00000013000000010000000C00000016000000000000C00C00000017000000FFFFFFFF3C000000060000000200000060A0DBD8771D47C0C01F723330983940000000000000000055A0DBD8771D47C02A86D89996BE324000000000000000000C00000016000000000000
310
C00C00000010000000FFFFFFFF0C00000012000000FFFFFFFF0C00000017000000000000000C00000014000000010000000C00000013000000020000000C00000016000000000000C00C00000017000000FFFFFFFF3C000000060000000200000055A0DBD8771D47C02A86D89996BE3240000000000000000050A0DBD8771D
310
47C0883FE46660302F4000000000000000000C00000016000000000000C00C00000010000000FFFFFFFF0C00000012000000FFFFFFFF0C00000017000000000000000C00000014000000010000000C00000013000000030000000C00000016000000000000C00C00000017000000FFFFFFFF3C0000000600000002000000FE
310
E19AE98C5247C02986D89996BE3240000000000000000050A0DBD8771D47C0883FE46660302F4000000000000000000C00000016000000000000C00C00000010000000FFFFFFFF0C00000012000000FFFFFFFF0C00000017000000000000000C00000014000000010000000C00000013000000040000000C00000016000000
310
000000C00C00000017000000FFFFFFFF3C000000060000000200000050A0DBD8771D47C0883FE46660302F400000000000000000AC5E1CC862E846C02C86D89996BE324000000000000000000C00000016000000000000C00C00000010000000FFFFFFFF0C00000012000000FFFFFFFF0C00000017000000000000000C0000
310
0014000000010000000C00000013000000050000000C00000016000000000000C0
 93
     1537
310
5DC50A0DBD8771D47C0263DE6192C034B502465F4D4088A06D13C866F4D4088A06D13C0000000000003C2FEA54051F8000000C800AA182836F61DC751F00C01F7233309839409018FFFFFFFF142836F61DC751F00883FE46660302F40A8FFFFFFFF1FFFFFFFF0C141B7B0EE3A8F80600FB919984C1CA045409C870D006423F
310
DE5346C0283B0F803F410E102A0000000000003C2FD197D35022281B44F28333333333333094041D050000000000003C2FC000000000000F0BF40401015213500500
340
4EA
340
4F6
330
0
330
0
340
0
340
0
340
4D9
330
0
330
0
 94
        0
  0
TEXT
  5
82E
330
22
100
AcDbEntity
  8
AM_6
100
AcDbText
 10
-47.0908174620011
 20
7.967003492153111
 30
0.0
 40
4.0
  1
0%%D
100
AcDbText
  0
TEXT
  5
82F
330
22
100
AcDbEntity
  8
AM_6
100
AcDbText
 10
-34.50591485080759
 20
23.70206624154019
 30
0.0
 40
4.0
  1
0%%D
100
AcDbText
  0
ENDSEC
  0
SECTION
  2
OBJECTS
  0
DICTIONARY
  5
C
330
0
100
AcDbDictionary
281
     1
  3
ACAD_COLOR
350
1B
  3
ACAD_GROUP
350
D
  3
ACAD_LAYOUT
350
19
  3
ACAD_MATERIAL
350
1A
  3
ACAD_MLINESTYLE
350
16
  3
ACAD_PLOTSETTINGS
350
18
  3
ACAD_PLOTSTYLENAME
350
E
  3
ACAD_TABLESTYLE
350
1C
  3
AcAmCatalogState
350
37F
  3
ACDBHEADERROUNDTRIPXREC
350
833
  3
AcDbVariableDictionary
350
3D0
  3
ACDMSYSVARMGR
350
339
  3
ACGREF_MASTER
350
333
  3
ACGREFACAD_MASTER
350
35B
  3
AcmDictionary
350
37D
  3
ACME_BOM_MANAGER_NAME
350
32D
  3
ACME_COMMAND_HISTORY
350
32A
  3
ACME_SCOPE_NAME
350
329
  3
ACMESTATEMGR
350
332
  3
AcmeSysVarManager
350
32B
  3
AcmSystemVariableManager
350
388
  3
AD_APPL
350
36A
  3
ADSYSVARMGR
350
369
  3
AmdtNamedDwgMgr
350
356
  3
AMG
350
35F
  3
AMGSNAPSETTINGS
350
3BF
  3
AMI_MASTER
350
35E
  3
AUTOCAD_ASSEMBLIES_PROJECT
350
372
  3
Designer_Assemblies_SysVars
350
36D
  3
GREFAM_MODULE
350
363
  0
DICTIONARY
  5
4E4
330
2
100
AcDbDictionary
280
     1
281
     1
  3
ACAD_LAYERSTATES
360
4E5
  0
DICTIONARY
  5
1B
102
{ACAD_REACTORS
330
C
102
}
330
C
100
AcDbDictionary
281
     1
  0
DICTIONARY
  5
D
102
{ACAD_REACTORS
330
C
102
}
330
C
100
AcDbDictionary
281
     1
  0
DICTIONARY
  5
19
102
{ACAD_REACTORS
330
C
102
}
330
C
100
AcDbDictionary
281
     1
  3
Model
350
25
  3
レイアウト1
350
21
  0
DICTIONARY
  5
1A
102
{ACAD_REACTORS
330
C
102
}
330
C
100
AcDbDictionary
281
     1
  0
DICTIONARY
  5
16
102
{ACAD_REACTORS
330
C
102
}
330
C
100
AcDbDictionary
281
     1
  3
Standard
350
17
  0
DICTIONARY
  5
18
102
{ACAD_REACTORS
330
C
102
}
330
C
100
AcDbDictionary
281
     1
  0
ACDBDICTIONARYWDFLT
  5
E
102
{ACAD_REACTORS
330
C
102
}
330
C
100
AcDbDictionary
281
     1
  3
Normal
350
F
100
AcDbDictionaryWithDefault
340
F
  0
DICTIONARY
  5
1C
102
{ACAD_REACTORS
330
C
102
}
330
C
100
AcDbDictionary
281
     1
  3
Standard
350
1D
  0
ACAD_PROXY_OBJECT
  5
37F
102
{ACAD_REACTORS
330
C
102
}
330
C
100
AcDbProxyObject
 90
      499
 91
      545
 95
       25
 70
     0
 93
      504
310
3FFFFFFFE00A0281402992E2E21BA3239AE483ECB654563CBCEAE4AABC7C0483ECB652E487CC6F6CBB846A445F7AE41BDC1B341A12E272A25C83ECB65400AA
  0
DICTIONARY
  5
833
102
{ACAD_REACTORS
330
C
102
}
330
C
100
AcDbDictionary
281
     1
  3
COLORDICT
350
834
  3
MATERIALDICT
350
835
  0
DICTIONARY
  5
3D0
102
{ACAD_REACTORS
330
C
102
}
330
C
100
AcDbDictionary
281
     1
  3
CTABLESTYLE
350
3D1
  3
DIMASSOC
350
831
  3
HIDETEXT
350
832
  0
ACAD_PROXY_OBJECT
  5
339
102
{ACAD_REACTORS
330
C
102
}
330
C
100
AcDbProxyObject
 90
      499
 91
      505
 95
       25
 70
     0
 93
      240
310
4C51A47A0000000000000000000000000000000000000000000000000000
330
33A
330
33B
330
33C
330
33D
330
33E
330
33F
330
340
330
341
330
342
330
343
330
344
330
345
330
346
330
347
330
348
330
349
330
34A
330
34B
330
34C
330
34D
330
34E
330
34F
330
350
330
351
330
352
330
353
 94
        0
  0
ACAD_PROXY_OBJECT
  5
333
102
{ACAD_REACTORS
330
C
102
}
330
C
100
AcDbProxyObject
 90
      499
 91
      513
 95
       25
 70
     0
 93
       34
310
0400004280
  0
ACAD_PROXY_OBJECT
  5
35B
102
{ACAD_REACTORS
330
C
102
}
330
C
100
AcDbProxyObject
 90
      499
 91
      522
 95
       25
 70
     0
 93
      114
310
04000041C080000000000000000000
  0
DICTIONARY
  5
37D
102
{ACAD_REACTORS
330
C
102
}
330
C
100
AcDbDictionary
281
     1
  3
AcmBOMDATA
350
37E
  3
AcmStdDictionary
350
38A
  3
AMDTSECTSYM_ARROWCOLOR
350
3AA
  0
ACAD_PROXY_OBJECT
  5
32D
102
{ACAD_REACTORS
330
C
102
}
330
C
100
AcDbProxyObject
 90
      499
 91
      507
 95
       25
 70
     0
 93
       50
310
00010040400000
330
0
330
0
330
32E
 94
        0
  0
ACAD_PROXY_OBJECT
  5
32A
102
{ACAD_REACTORS
330
C
102
}
330
C
100
AcDbProxyObject
 90
      499
 91
      504
 95
       25
 70
     0
 93
     5912
310
478050C475249505F535452455443488050653454C4543548050C475249505F535452455443488050C475249505F5354524554434840405184D5347202D20436F6D6D616E642043414E43454C4C45442E014115539113E014151549054D1501014B5354D1C80B481414104E88080819195CDADD1BDC0B985C9E08119A5B195
310
5995C9CDA5BDB8E880E4B8C8B8C0B8D0050C475249505F5354524554434880507414D4C41594552805055153415645404052D4D5347202D205050413A2020206465736B746F702E6172782046696C6556657273696F6E3A20392E322E302E3401415454D05591501014B5354D1C80B481414104E88080819195CDADD1BDC0B
310
985C9E08119A5B1955995C9CDA5BDB8E880E4B8C8B8C0B8D0050E414D4454524553455444424D4F4440805084E202D20554E444F014213880B4815539113C0504554E444F80504554E444F805055055524745805055153415645404052D4D5347202D205050413A2020206465736B746F702E6172782046696C65566572736
310
96F6E3A20392E322E302E34014390535115149154D15511109353D1102014213880B4815539113C05084E202D20554E444F014115539113E014115539113E01419493D510551160142111493D411D153D3601411353D591601411693D3D3501014B5354D1C80B481414104E88080819195CDADD1BDC0B985C9E08119A5B195
310
5995C9CDA5BDB8E880E4B8C8B8C0B8D005044C494E4540405184D5347202D20436F6D6D616E642043414E43454C4C45442E01415454D05591501014B5354D1C80B481414104E88080819195CDADD1BDC0B985C9E08119A5B1955995C9CDA5BDB8E880E4B8C8B8C0B8D0050E414D4454524553455444424D4F4440805084E20
310
2D20554E444F014213880B4815539113C0504554E444F80504554E444F805054552415345805095041535445434C4950805055153415645404052D4D5347202D205050413A2020206465736B746F702E6172782046696C6556657273696F6E3A20392E322E302E34
  0
ACAD_PROXY_OBJECT
  5
329
102
{ACAD_REACTORS
330
C
102
}
330
C
100
AcDbProxyObject
 90
      499
 91
      503
 95
       25
 70
     0
 93
      546
310
090000464080000000000000000012F4CE0000000000000000000000000000000000000000000000000000000000000000000000000000000000000000000000AAA406AA80
360
32C
360
32E
360
334
360
335
360
336
360
337
360
33A
360
33B
360
33C
360
33D
360
33E
360
33F
360
340
360
341
360
342
360
343
360
344
360
345
360
346
360
347
360
348
360
349
360
34A
360
34B
360
34C
360
34D
360
34E
360
34F
360
350
360
351
360
352
360
353
360
365
360
366
360
367
360
368
360
36E
360
36F
360
370
360
371
360
376
360
377
360
378
360
379
360
37A
360
37B
360
389
 94
        0
  0
ACAD_PROXY_OBJECT
  5
332
102
{ACAD_REACTORS
330
C
102
}
330
C
100
AcDbProxyObject
 90
      499
 91
      512
 95
       25
 70
     0
 93
       50
310
09000042641280
  0
ACAD_PROXY_OBJECT
  5
32B
102
{ACAD_REACTORS
330
C
102
}
330
C
100
AcDbProxyObject
 90
      499
 91
      505
 95
       25
 70
     0
 93
       32
310
90140A00
330
32C
 94
        0
  0
ACAD_PROXY_OBJECT
  5
388
102
{ACAD_REACTORS
330
C
102
}
330
C
100
AcDbProxyObject
 90
      499
 91
      505
 95
       25
 70
     0
 93
       32
310
90140A00
330
389
 94
        0
  0
ACAD_PROXY_OBJECT
  5
36A
102
{ACAD_REACTORS
330
C
102
}
330
C
100
AcDbProxyObject
 90
      499
 91
      533
 95
       25
 70
     0
 93
       42
310
000900004040
330
365
 94
        0
  0
ACAD_PROXY_OBJECT
  5
369
102
{ACAD_REACTORS
330
C
102
}
330
C
100
AcDbProxyObject
 90
      499
 91
      505
 95
       25
 70
     0
 93
        8
310
AA
  0
ACAD_PROXY_OBJECT
  5
356
102
{ACAD_REACTORS
330
C
102
}
330
C
100
AcDbProxyObject
 90
      499
 91
      519
 95
       25
 70
     0
 93
       42
310
000100005E80
330
334
 94
        0
  0
DICTIONARY
  5
35F
102
{ACAD_REACTORS
330
C
102
}
330
C
100
AcDbDictionary
281
     1
  3
AcMgSettings
350
360
  3
AMGLAYCFG
350
38C
  0
DICTIONARY
  5
3BF
102
{ACAD_REACTORS
330
C
102
}
330
C
100
AcDbDictionary
281
     1
  3
DIMENSION
350
3C4
  3
FEA
350
3C3
  3
HATCH (1)
350
3C0
  3
HATCH (2)
350
3C1
  3
SIMPLE WELD
350
3C5
  3
SYMBOLS
350
3C2
  0
ACAD_PROXY_OBJECT
  5
35E
102
{ACAD_REACTORS
330
C
102
}
330
C
100
AcDbProxyObject
 90
      499
 91
      525
 95
       25
 70
     0
 93
       34
310
0500004280
  0
ACAD_PROXY_OBJECT
  5
372
102
{ACAD_REACTORS
330
C
102
}
330
C
100
AcDbProxyObject
 90
      499
 91
      537
 95
       25
 70
     0
 93
       98
310
0900004E400000000000000000
330
379
330
0
330
37A
330
0
330
0
330
0
330
0
330
0
 94
        0
  0
ACAD_PROXY_OBJECT
  5
36D
102
{ACAD_REACTORS
330
C
102
}
330
C
100
AcDbProxyObject
 90
      499
 91
      505
 95
       25
 70
     0
 93
       56
310
90441600000000
330
36E
330
36F
330
370
330
371
 94
        0
  0
ACAD_PROXY_OBJECT
  5
363
102
{ACAD_REACTORS
330
C
102
}
330
C
100
AcDbProxyObject
 90
      499
 91
      527
 95
       25
 70
     0
 93
        8
310
05
  0
DICTIONARY
  5
4E5
102
{ACAD_REACTORS
330
4E4
102
}
330
4E4
100
AcDbDictionary
281
     1
  0
LAYOUT
  5
25
102
{ACAD_REACTORS
330
19
102
}
330
19
100
AcDbPlotSettings
  1

  2
Canon LBP-1420
  4
A4
  6

 40
5.873749732971191
 41
5.873747825622559
 42
5.873748779296875
 43
5.873748779296875
 44
209.9733276367188
 45
296.9259948730469
 46
0.0
 47
0.0
 48
0.0
 49
0.0
140
400.0
141
273.0
142
1.0
143
1.402630290955233
 70
 11952
 72
     1
 73
     1
 74
     4
  7
sei_cad.ctb
 75
     0
147
0.7129462456703186
148
0.0
149
0.0
100
AcDbLayout
  1
Model
 70
     1
 71
     0
 10
0.0
 20
0.0
 11
12.0
 21
9.0
 12
0.0
 22
0.0
 32
0.0
 14
0.0
 24
0.0
 34
0.0
 15
0.0
 25
0.0
 35
0.0
146
0.0
 13
0.0
 23
0.0
 33
0.0
 16
1.0
 26
0.0
 36
0.0
 17
0.0
 27
1.0
 37
0.0
 76
     0
330
22
1001
ACAD_PSEXT
1000
Canon LBP-1420
1000
Canon LASER SHOT LBP-1420
1000
10.254.89.243:lp
1000

1070
     0
  0
LAYOUT
  5
21
102
{ACAD_REACTORS
330
19
102
}
330
19
100
AcDbPlotSettings
  1

  2
Canon LBP-1420
  4

  6

 40
0.0
 41
0.0
 42
0.0
 43
0.0
 44
0.0
 45
0.0
 46
0.0
 47
0.0
 48
0.0
 49
0.0
140
0.0
141
0.0
142
1.0
143
1.0
 70
   688
 72
     0
 73
     0
 74
     5
  7
sei_cad.ctb
 75
    16
147
1.0
148
0.0
149
0.0
100
AcDbLayout
  1
レイアウト1
 70
     1
 71
     1
 10
0.0
 20
0.0
 11
12.0
 21
9.0
 12
0.0
 22
0.0
 32
0.0
 14
1.000000000000000E+20
 24
1.000000000000000E+20
 34
1.000000000000000E+20
 15
-1.000000000000000E+20
 25
-1.000000000000000E+20
 35
-1.000000000000000E+20
146
0.0
 13
0.0
 23
0.0
 33
0.0
 16
1.0
 26
0.0
 36
0.0
 17
0.0
 27
1.0
 37
0.0
 76
     0
330
1E
  0
MLINESTYLE
  5
17
102
{ACAD_REACTORS
330
16
102
}
330
16
100
AcDbMlineStyle
  2
STANDARD
 70
     0
  3

 62
   256
 51
90.0
 52
90.0
 71
     2
 49
0.5
 62
   256
  6
BYLAYER
 49
-0.5
 62
   256
  6
BYLAYER
  0
ACDBPLACEHOLDER
  5
F
102
{ACAD_REACTORS
330
E
102
}
330
E
  0
TABLESTYLE
  5
1D
102
{ACAD_REACTORS
330
1C
102
}
330
1C
100
AcDbTableStyle
  3
Standard
 70
     0
 71
     0
 40
0.06
 41
0.06
280
     0
281
     0
  7
STANDARD
140
0.18
170
     2
 62
     0
 63
     7
283
     0
274
    -2
284
     1
 64
     0
275
    -2
285
     1
 65
     0
276
    -2
286
     1
 66
     0
277
    -2
287
     1
 67
     0
278
    -2
288
     1
 68
     0
279
    -2
289
     1
 69
     0
  7
STANDARD
140
0.25
170
     5
 62
     0
 63
     7
283
     0
274
    -2
284
     1
 64
     0
275
    -2
285
     1
 65
     0
276
    -2
286
     1
 66
     0
277
    -2
287
     1
 67
     0
278
    -2
288
     1
 68
     0
279
    -2
289
     1
 69
     0
  7
STANDARD
140
0.18
170
     5
 62
     0
 63
     7
283
     0
274
    -2
284
     1
 64
     0
275
    -2
285
     1
 65
     0
276
    -2
286
     1
 66
     0
277
    -2
287
     1
 67
     0
278
    -2
288
     1
 68
     0
279
    -2
289
     1
 69
     0
  0
XRECORD
  5
834
102
{ACAD_REACTORS
330
833
102
}
330
833
100
AcDbXrecord
280
     1
340
1B
  0
XRECORD
  5
835
102
{ACAD_REACTORS
330
833
102
}
330
833
100
AcDbXrecord
280
     1
340
1A
  0
DICTIONARYVAR
  5
3D1
102
{ACAD_REACTORS
330
3D0
102
}
330
3D0
100
DictionaryVariables
280
     0
  1
STANDARD
  0
DICTIONARYVAR
  5
831
102
{ACAD_REACTORS
330
3D0
102
}
330
3D0
100
DictionaryVariables
280
     0
  1
1
  0
DICTIONARYVAR
  5
832
102
{ACAD_REACTORS
330
3D0
102
}
330
3D0
100
DictionaryVariables
280
     0
  1
0
  0
ACAD_PROXY_OBJECT
  5
37E
102
{ACAD_REACTORS
330
37D
102
}
330
37D
100
AcDbProxyObject
 90
      499
 91
      544
 95
       25
 70
     0
 93
       76
310
90100057356C1D774120
  0
DICTIONARY
  5
38A
102
{ACAD_REACTORS
330
37D
102
}
330
37D
100
AcDbDictionary
281
     1
  3
ANSI
350
38B
  3
JIS
350
4EA
  0
XRECORD
  5
3AA
102
{ACAD_REACTORS
330
37D
102
}
330
37D
100
AcDbXrecord
280
     1
 90
-1023410169
  0
ACAD_PROXY_OBJECT
  5
32C
330
329
100
AcDbProxyObject
 90
      499
 91
      506
 95
       25
 70
     0
 93
      156
310
000101439050D35154D6535093D314D256915080
330
329
 94
        0
  0
ACAD_PROXY_OBJECT
  5
32E
330
329
100
AcDbProxyObject
 90
      499
 91
      508
 95
       25
 70
     0
 93
      120
310
000101422565255A6557080C402B00
330
329
330
0
330
0
 94
        0
  0
ACAD_PROXY_OBJECT
  5
334
330
329
100
AcDbProxyObject
 90
      499
 91
      514
 95
       25
 70
     0
 93
      366
310
0001014124FEA55D00507392E322E302E32014124FEA55D00507392E322E302E3240501000041905394D24CCC658
330
329
330
335
330
339
 94
        0
  0
ACAD_PROXY_OBJECT
  5
335
330
329
100
AcDbProxyObject
 90
      499
 91
      515
 95
       25
 70
     0
 93
       48
310
000190140A00
330
329
330
336
 94
        0
  0
ACAD_PROXY_OBJECT
  5
336
330
329
100
AcDbProxyObject
 90
      499
 91
      516
 95
       25
 70
     0
 93
       48
310
0001AA000000
330
329
330
21
330
337
330
0
 94
        0
  0
ACAD_PROXY_OBJECT
  5
337
330
329
100
AcDbProxyObject
 90
      499
 91
      517
 95
       25
 70
     0
 93
       28
310
0001AAA0
330
329
 94
        0
  0
ACAD_PROXY_OBJECT
  5
33A
330
329
100
AcDbProxyObject
 90
      499
 91
      506
 95
       25
 70
     0
 93
      108
310
000101421053521310D05310D010
330
329
 94
        0
  0
ACAD_PROXY_OBJECT
  5
33B
330
329
100
AcDbProxyObject
 90
      499
 91
      506
 95
       25
 70
     0
 93
      124
310
00010142905354915554D15112535010
330
329
 94
        0
  0
ACAD_PROXY_OBJECT
  5
33C
330
329
100
AcDbProxyObject
 90
      499
 91
      506
 95
       25
 70
     0
 93
      132
310
00010143105354D150D51253D391125360
330
329
 94
        0
  0
ACAD_PROXY_OBJECT
  5
33D
330
329
100
AcDbProxyObject
 90
      499
 91
      506
 95
       25
 70
     0
 93
      124
310
00010142905355941093D49111549010
330
329
 94
        0
  0
ACAD_PROXY_OBJECT
  5
33E
330
329
100
AcDbProxyObject
 90
      499
 91
      506
 95
       25
 70
     0
 93
      116
310
0001014290535115D1D0D3D313D4A0
330
329
 94
        0
  0
ACAD_PROXY_OBJECT
  5
33F
330
329
100
AcDbProxyObject
 90
      499
 91
      506
 95
       25
 70
     0
 93
      148
310
00010143505355925155D49151949154D21010
330
329
 94
        0
  0
ACAD_PROXY_OBJECT
  5
340
330
329
100
AcDbProxyObject
 90
      499
 91
      506
 95
       25
 70
     0
 93
      172
310
00010144105350539393D51154149154D15495915010
330
329
 94
        0
  0
ACAD_PROXY_OBJECT
  5
341
330
329
100
AcDbProxyObject
 90
      499
 91
      506
 95
       25
 70
     0
 93
      172
310
00010144105350555513D11253505494905391D15010
330
329
 94
        0
  0
ACAD_PROXY_OBJECT
  5
342
330
329
100
AcDbProxyObject
 90
      499
 91
      506
 95
       25
 70
     0
 93
      124
310
00010142D05351561514915191125360
330
329
 94
        0
  0
ACAD_PROXY_OBJECT
  5
343
330
329
100
AcDbProxyObject
 90
      499
 91
      506
 95
       25
 70
     0
 93
      132
310
00010142D05355105410539393D5115010
330
329
 94
        0
  0
ACAD_PROXY_OBJECT
  5
344
330
329
100
AcDbProxyObject
 90
      499
 91
      506
 95
       25
 70
     0
 93
      108
310
00010142105350555513D0D31010
330
329
 94
        0
  0
ACAD_PROXY_OBJECT
  5
345
330
329
100
AcDbProxyObject
 90
      499
 91
      506
 95
       25
 70
     0
 93
      108
310
00010142105350D3119150551050
330
329
 94
        0
  0
ACAD_PROXY_OBJECT
  5
346
330
329
100
AcDbProxyObject
 90
      499
 91
      506
 95
       25
 70
     0
 93
      108
310
00010142105350D315925155D3F0
330
329
 94
        0
  0
ACAD_PROXY_OBJECT
  5
347
330
329
100
AcDbProxyObject
 90
      499
 91
      506
 95
       25
 70
     0
 93
      148
310
0001014350535212511156915493D112535010
330
329
 94
        0
  0
ACAD_PROXY_OBJECT
  5
348
330
329
100
AcDbProxyObject
 90
      499
 91
      506
 95
       25
 70
     0
 93
      124
310
00010142905352105510D21254D3D010
330
329
 94
        0
  0
ACAD_PROXY_OBJECT
  5
349
330
329
100
AcDbProxyObject
 90
      499
 91
      506
 95
       25
 70
     0
 93
      148
310
00010143905354D25391D31152105513105660
330
329
 94
        0
  0
ACAD_PROXY_OBJECT
  5
34A
330
329
100
AcDbProxyObject
 90
      499
 91
      506
 95
       25
 70
     0
 93
      124
310
00010142D0535115D1D193111254D420
330
329
 94
        0
  0
ACAD_PROXY_OBJECT
  5
34B
330
329
100
AcDbProxyObject
 90
      499
 91
      506
 95
       25
 70
     0
 93
      100
310
00010142105350555513D213A0
330
329
 94
        0
  0
ACAD_PROXY_OBJECT
  5
34C
330
329
100
AcDbProxyObject
 90
      499
 91
      506
 95
       25
 70
     0
 93
      116
310
000101425053521390D3D553951010
330
329
 94
        0
  0
ACAD_PROXY_OBJECT
  5
34D
330
329
100
AcDbProxyObject
 90
      499
 91
      506
 95
       25
 70
     0
 93
      108
310
0001014210535213941493D29010
330
329
 94
        0
  0
ACAD_PROXY_OBJECT
  5
34E
330
329
100
AcDbProxyObject
 90
      499
 91
      506
 95
       25
 70
     0
 93
      108
310
0001014210535213951654115070
330
329
 94
        0
  0
ACAD_PROXY_OBJECT
  5
34F
330
329
100
AcDbProxyObject
 90
      499
 91
      506
 95
       25
 70
     0
 93
      108
310
000101421053521395925155D0F0
330
329
 94
        0
  0
ACAD_PROXY_OBJECT
  5
350
330
329
100
AcDbProxyObject
 90
      499
 91
      506
 95
       25
 70
     0
 93
      140
310
00010143505354D150D51253D390D3D41660
330
329
 94
        0
  0
ACAD_PROXY_OBJECT
  5
351
330
329
100
AcDbProxyObject
 90
      499
 91
      506
 95
       25
 70
     0
 93
      108
310
00010142105350D3141493D29030
330
329
 94
        0
  0
ACAD_PROXY_OBJECT
  5
352
330
329
100
AcDbProxyObject
 90
      499
 91
      518
 95
       25
 70
     0
 93
      212
310
00010143905350555513D2105510D21493D500000000000002E400
330
329
 94
        0
  0
ACAD_PROXY_OBJECT
  5
353
330
329
100
AcDbProxyObject
 90
      499
 91
      506
 95
       25
 70
     0
 93
      156
310
00010143905350555513D2105510D21111551010
330
329
 94
        0
  0
ACAD_PROXY_OBJECT
  5
365
330
329
100
AcDbProxyObject
 90
      499
 91
      529
 95
       25
 70
     0
 93
      698
310
0001000000009AA6A9AA4051E546875204175672032342030303A34343A313820323030362028555443290141CE4B8C8B8C0B8C80518576564205365702030312030393A33353A323620323031300141CE4B8C8B8C0B8C80
330
329
330
366
330
367
330
369
330
0
 94
        0
  0
ACAD_PROXY_OBJECT
  5
366
330
329
100
AcDbProxyObject
 90
      499
 91
      530
 95
       25
 70
     0
 93
       70
310
0001AAA80820000000
330
329
330
366
330
366
 94
        0
  0
ACAD_PROXY_OBJECT
  5
367
330
329
100
AcDbProxyObject
 90
      499
 91
      531
 95
       25
 70
     0
 93
       48
310
000100000000
330
329
330
0
330
368
330
0
330
0
 94
        0
  0
ACAD_PROXY_OBJECT
  5
368
330
329
100
AcDbProxyObject
 90
      499
 91
      532
 95
       25
 70
     0
 93
       40
310
000100AAAA
330
329
330
0
 94
        0
  0
ACAD_PROXY_OBJECT
  5
36E
330
329
100
AcDbProxyObject
 90
      499
 91
      536
 95
       25
 70
     0
 93
      180
310
00010143105050D3D35411119390535140504434F4D500
330
329
 94
        0
  0
ACAD_PROXY_OBJECT
  5
36F
330
329
100
AcDbProxyObject
 90
      499
 91
      536
 95
       25
 70
     0
 93
      212
310
0001014390505193D311115491119390535140506466F6C6465720
330
329
 94
        0
  0
ACAD_PROXY_OBJECT
  5
370
330
329
100
AcDbProxyObject
 90
      499
 91
      536
 95
       25
 70
     0
 93
      180
310
00010143105050539393D1119390535140504284156290
330
329
 94
        0
  0
ACAD_PROXY_OBJECT
  5
371
330
329
100
AcDbProxyObject
 90
      499
 91
      536
 95
       25
 70
     0
 93
      436
310
00010143905050D3D35415925155D31254D50052295BD96CA0A90B396CA0A894591A496CA0A8DB691A496CA0A89BA96CA0A95E28F95310
330
329
 94
        0
  0
ACAD_PROXY_OBJECT
  5
376
330
329
100
AcDbProxyObject
 90
      499
 91
      538
 95
       25
 70
     0
 93
       32
310
00010000
330
329
340
373
330
378
330
373
 94
        0
  0
ACAD_PROXY_OBJECT
  5
377
330
329
100
AcDbProxyObject
 90
      499
 91
      539
 95
       25
 70
     0
 93
       18
310
000180
330
329
 94
        0
  0
ACAD_PROXY_OBJECT
  5
378
330
329
100
AcDbProxyObject
 90
      499
 91
      540
 95
       25
 70
     0
 93
      186
310
000101431494CC8C960B54D115530C4C5050055401550000
330
329
330
376
330
377
 94
        0
  0
ACAD_PROXY_OBJECT
  5
379
330
329
100
AcDbProxyObject
 90
      499
 91
      541
 95
       25
 70
     0
 93
      178
310
000100AAAAAA8C15F655FB15459365FE6F47F6E95C3CC0
330
329
330
378
 94
        0
  0
ACAD_PROXY_OBJECT
  5
37A
330
329
100
AcDbProxyObject
 90
      499
 91
      542
 95
       25
 70
     0
 93
      108
310
000190140A000000000000AAAAA0
330
329
330
37B
330
37B
330
37B
330
37B
330
37B
330
0
 94
        0
  0
ACAD_PROXY_OBJECT
  5
37B
330
329
100
AcDbProxyObject
 90
      499
 91
      543
 95
       25
 70
     0
 93
       51
310
00010000AAAA80
330
329
330
37A
330
378
 94
        0
  0
ACAD_PROXY_OBJECT
  5
389
330
329
100
AcDbProxyObject
 90
      499
 91
      536
 95
       25
 70
     0
 93
      148
310
00010142105350D55494D51100504414E53490
330
329
 94
        0
  0
DICTIONARY
  5
360
102
{ACAD_REACTORS
330
35F
102
}
330
35F
100
AcDbDictionary
281
     1
  3
DWGSETTINGS
350
361
  3
Shaft
350
3FF
  3
TRANSSETTINGS
350
362
  0
ACAD_PROXY_OBJECT
  5
38C
102
{ACAD_REACTORS
330
35F
102
}
330
35F
100
AcDbProxyObject
 90
      499
 91
      551
 95
       25
 70
     0
 93
    17920
310
41503491013041105357CC201C00030C011E441013141105357CC603800030C011E441013241105357CCA01400030C011E441013341105357CCE01800030C010F9013441105357CD200C00030C010F9013541105357CD600C00030C010F9013641105357CDA00800030C011E9013741105357CDE01000030C010F901384110
310
5357CE200400030C010F9013941105357CE63F400030C0241102324141505357CC4C201C00030C011E902344141505357CC4C600C00030C010F902495041505357CC4CA01C00030C011E40902304E41505357CC13A01C00030C011E902314E41505357CC53A03800030C011E902324E41505357CC93A01400030C011E90233
310
4E41505357CCD3A01800030C010F902344E41505357CD13A00C00030C010F902354E41505357CD53A00C00030C010F902364E41505357CD93A00800030C011E902374E41505357CDD3A01000030C010F902384E41505357CE13A00400030C010F902394E41505357CE53A3F400030C024110332414E41905357CC4C13A01C0
310
0030C011E90334414E41905357CC4C53A00C00030C010F90349504E41905357CC4C93A01C00030C011E409044B4C494E41505357D0D3200400030C010F42504494E464F42105357D410549151A01000030C010F42D055241484D3541905357D093D4A01C00030C011E425045649455742105357D5925155D4E00400030C010
310
F42D06424548494E4441905357D25395A3F400030C0243505545241494C41505357D514A00C00030C010F4250348494441905357D21251201C00030C010F4250356495341905357D59254E01C00030C011E4250650415244494D42505357D41054911253600C00030C010F4250652454644494D42505357D49151911253601
310
000030C010F425534110921395901398000000C0003FFFFFFFE415092139594D06424548494E448000000C0003FFFFFFFE411093D48C9055241484D358010000C30043E411093D48CD055241484D358020000C30047A411093D48D5055241484D358000000C0003FFFFFFFE4110D0530C901348000000C0003FFFFFFFE4110
310
D0530CD01348020000C30047A4110D0530D501348070000C30047A4110D0530DD013481E0000C3004F24110D15393901378000000C0003FFFFFFFE4110D15395D01378000000C0003FFFFFFFE4110D312539044B4C494E8000000C0003FFFFFFFE4110D3D38C501308000000C0003FFFFFFFD034110D3D38C901318000000C
310
0003FFFFFFFD034110D3D38CD01328000000C0003FFFFFFFD034110D3D38D101328000000C0003FFFFFFFD034111115510501348000000C0003FFFFFFFE4111125051D01358000000C0003FFFFFFFE4111125312501358000000C0003FFFFFFFE411112535410650415244494D8000000C0003FFFFFFFE4111125354906524
310
54644494D8000000C0003FFFFFFFE4111915353901388000000C0003FFFFFFFE415191535413901388030000C3003FFFFFFFE4151915354D410234418000000C0003FFFFFFFE4151915354D510234418030000C30043E415191535593901328000000C0003FFFFFFFE415191535595101328030000C30043E4112105510D01
310
388000000C0003FFFFFFFD014112125113901338000000C0003FFFFFFFD034112125115D01338000000C0003FFFFFFFD034112131253901348000000C0003FFFFFFFD01411213D0D3901378000000C0003FFFFFFFE411213D0D5D01378000000C0003FFFFFFFE4112539193D04494E464F8000000C0003FFFFFFFE41131150
310
51101358000000C0003FFFFFFFE419397D0921395902394E8000000C0003FFFFFFFE419397D0D3D38C502304E8000000C0003FFFFFFFD03419397D0D3D38C902314E8000000C0003FFFFFFFD03419397D0D3D38CD02324E8000000C0003FFFFFFFD03419397D0D3D38D102324E8000000C0003FFFFFFFD03419397D0D15393
310
902374E8000000C0003FFFFFFFE419397D0D15395D02374E8000000C0003FFFFFFFE419397D1125312502354E8000000C0003FFFFFFFE419397D2105510D02384E8000000C0003FFFFFFFD01419397D2125113902334E8000000C0003FFFFFFFD03419397D2125115D02334E8000000C0003FFFFFFFD03419397D311505110
310
2354E8000000C0003FFFFFFFE419397D391D25410349504E8000000C0003FFFFFFFE419397D412105390334414E8000000C0003FFFFFFFE419397D510D3D3902304E8000000C0003FFFFFFFD03419397D5121312502344E8000000C0003FFFFFFFD01419397D5131153902304E8000000C0003FFFFFFFD03419397D5941312
310
50332414E8000000C0003FFFFFFFE411391D25410249508000000C0003FFFFFFFE411410530C9055241484D358010000C30043E411410530CD055241484D358020000C30047A411410530D5055241484D358000000C0003FFFFFFFE411412105390234418000000C0003FFFFFFFE411413D4D3901358000000C0003FFFFFFF
310
E411490D1D3901378000000C0003FFFFFFFE411490D1D5D01378000000C0003FFFFFFFE4114D09492D01348070000C300479014114D150D5101348000000C0003FFFFFFFD014114D6508CD01358020000C30047A411354D653501358020000C30047A411510D3D3901308000000C0003FFFFFFFD0341151213125013480000
310
00C0003FFFFFFFD01411512550C9055241484D358010000C30043E411512550CD055241484D358020000C30047A411512550D5055241484D358000000C0003FFFFFFFE4115131153901308000000C0003FFFFFFFD03415514905253105545241494C8000000C0003FFFFFFFE4115149312501348000000C0003FFFFFFFD014
310
11516150C501368030000C30043E411516150C901368030000C30043E411516150CD01368000000C0003FFFFFFFE411516150D501368070000C30047A411516150DD013681E0000C3004F24115925155D04564945578000000C0003FFFFFFFE41159151121034849448000000C0003FFFFFFFD024115915115903564953800
310
0000C0003FFFFFFFD02411594131250232418000000C0003FFFFFFFE4116925690501348000000C0003FFFFFFFD01AAA3F400030C01013F90A4050F4091E40D0F4110F4151E4190F41D1E4391E4793C7F6
340
15
340
15
340
15
340
354
340
15
340
15
340
15
340
27
340
15
340
15
340
27
340
355
340
15
340
15
340
15
340
15
340
354
340
15
340
15
340
15
340
27
340
15
340
15
340
27
340
355
340
15
340
390
340
15
340
15
340
15
340
15
340
15
340
354
340
15
340
15
340
15
340
14
340
14
340
14
340
14
340
14
340
14
340
14
340
14
340
14
340
396
340
14
340
14
340
14
340
14
340
14
340
14
340
14
340
14
340
14
340
14
340
14
340
14
340
14
340
15
340
14
340
14
340
14
340
14
340
397
340
14
340
14
340
396
340
14
340
14
340
14
340
14
340
14
340
14
340
14
340
14
340
396
340
14
340
14
340
14
340
397
340
14
340
14
340
14
340
14
340
14
340
397
340
14
340
355
340
14
340
14
340
14
340
14
340
14
340
14
340
396
340
14
340
14
340
14
340
14
340
14
340
14
340
397
340
14
340
14
340
14
340
14
340
14
340
14
340
14
340
14
340
14
340
14
340
14
340
14
340
14
340
14
340
355
340
398
 94
        0
  0
ACAD_PROXY_OBJECT
  5
3C4
102
{ACAD_REACTORS
330
3BF
102
}
330
3BF
100
AcDbProxyObject
 90
      499
 91
      568
 95
       25
 70
     0
 93
      253
310
43D1444494D454E53494F4E2C414D44545F2A5F44494D404A9012A404A9012A8
  0
ACAD_PROXY_OBJECT
  5
3C3
102
{ACAD_REACTORS
330
3BF
102
}
330
3BF
100
AcDbProxyObject
 90
      499
 91
      568
 95
       25
 70
     0
 93
      181
310
43D012A42D05357D191504B505357CA9012A404A9012A8
  0
ACAD_PROXY_OBJECT
  5
3C0
102
{ACAD_REACTORS
330
3BF
102
}
330
3BF
100
AcDbProxyObject
 90
      499
 91
      568
 95
       25
 70
     0
 93
      133
310
43D054841544348404A9012A404A9012A8
  0
ACAD_PROXY_OBJECT
  5
3C1
102
{ACAD_REACTORS
330
3BF
102
}
330
3BF
100
AcDbProxyObject
 90
      499
 91
      568
 95
       25
 70
     0
 93
      549
310
43D044C494E4549CE0B0E138B0A8B4E0B0A8B4E138B105357CE0B105357CE138B0A8B505357CE0B0A8B505357CE139012A404A910494E534552542C5354445041525432448
  0
ACAD_PROXY_OBJECT
  5
3C5
102
{ACAD_REACTORS
330
3BF
102
}
330
3BF
100
AcDbProxyObject
 90
      499
 91
      568
 95
       25
 70
     0
 93
      181
310
43D0341524341105357CD5012A404C906494E534552540
  0
ACAD_PROXY_OBJECT
  5
3C2
102
{ACAD_REACTORS
330
3BF
102
}
330
3BF
100
AcDbProxyObject
 90
      499
 91
      568
 95
       25
 70
     0
 93
     1053
310
43D7841434D46434652414D452C41434D444154554D5441524745542C41434D444154554D49442C41434D57454C4453594D2C41434D5355524653594D2C41434D4645415449442C41434D504152545245462C41434D42414C4C4F4F4E2C414D44544544474553594D2C414D47534352455743414C435441424C45404A9012A
310
404A9012A8
  0
ACAD_PROXY_OBJECT
  5
38B
102
{ACAD_REACTORS
330
38A
102
}
330
38A
100
AcDbProxyObject
 90
      499
 91
      550
 95
       25
 70
     0
 93
     2395
310
5DCB81E85EB51B8BE3F8030000C30041105394D2501640600800030C0200800030C00B81E85EB51B8BE3F48821E8720B1B6A9BAB9332A32BC3A29BA3220480A1282C6DA8C868CA6E8C88120286A0B1B6ABB2B63234B733A9BA3220480A1082C6DA92C8A6E8C88120285A0B1B6A230BA3AB6A9BA3220480A1282C6DA849E9AA
310
6E8C8812028820B6B23A2232BA30B4B629BCB6A9BA3220480A2282DAC8E8A6CAC6E8D2DEDCA6F2DAA6E8C88120288A0B6B23A21B2B73A32B92634B732A9BA3220480A2282DAC8E8A8D0E4CAC2C898D2DCCAA6E8C88120285A0B6B23A2737BA32A9BA3220480A1682C682DACE98C2F2A6E8C88120285A0B1A0B6B3A234B6A9B
310
A3220480A2282C682DACE90DED8CA86D0C2E4E8A6E8C88120286A0B1A0B6B3AA34BA3632A9BA3220480A02812020
340
399
360
39A
360
39B
360
39C
360
39D
360
39E
360
39F
360
3A0
360
3A1
360
3A2
360
3A3
360
3A4
360
3B0
360
3B1
360
3BC
360
3BD
340
0
340
0
 94
        0
  0
ACAD_PROXY_OBJECT
  5
4EA
102
{ACAD_REACTORS
330
38A
102
}
330
38A
100
AcDbProxyObject
 90
      499
 91
      572
 95
       25
 70
     0
 93
     2379
310
5DC33333333333309408000000C00040D29254D01640600800030C0200800030C003333333333330940C8121E8720B1B6A9BAB9332A32BC3A29BA3220480A1282C6DA8C868CA6E8C88120286A0B1B6ABB2B63234B733A9BA3220480A1082C6DA92C8A6E8C88120285A0B1B6A230BA3AB6A9BA3220480A1282C6DA849E9AA6E
310
8C88120286A0B1A0B6B3AA34BA3632A9BA3220480A2082DAC8E888CAE8C2D2D8A6F2DAA6E8C88120288A0B6B23A29B2B1BA34B7B729BCB6A9BA3220480A2282DAC8E886CADCE8CAE498D2DCCAA6E8C88120288A0B6B23A2A343932B0B22634B732A9BA3220480A1682DAC8E89CDEE8CAA6E8C88120285A0B1A0B6B3A630BCA
310
9BA3220480A1682C682DACE88D2DAA6E8C88120288A0B1A0B6B3A437B632A1B430B93A29BA3220480C812020
340
4D9
360
4EB
360
4EC
360
4ED
360
4EE
360
4EF
360
4F0
360
4F1
360
4F2
360
4F3
360
4F4
360
4F5
360
4F6
360
4FC
360
4FD
360
4FE
340
0
340
0
 94
        0
  0
ACAD_PROXY_OBJECT
  5
361
102
{ACAD_REACTORS
330
360
102
}
330
360
100
AcDbProxyObject
 90
      499
 91
      526
 95
       25
 70
     0
 93
     2412
310
4050B44574753455454494E4753A1286829C8E82A4A482B282A02608321A2A720A723A0A849A1ABE1C983E18999AA0C868A9C889282940000000000001C07E83A1A2A72224A0A9A0A8598171ABE1897183E18971AA0E868A9C8892A6A8940000000000001807E8321A2A72622A7250000000000000701FA0C868A9C9E8C8C9
310
40000000000001C07E84A1A624A720A92920ACA0A87181718991ABE1817191ABE18171AA108698929C8AA8B2A082A0AB098929C8A84A22BA3AAA9A1A0A622A50A0E9882A6A89E849482A02608426A0A5A2AB24A2ABA7E8120CA0A68682988A0C00800010652455649534941501304154D0D0531150540CC4E8C50954494D45
310
5354414D504A086017F51722B734141D5915494D253D3905414C4D4B8C0C1107B44574753455454494E4753454E447D0
  0
ACAD_PROXY_OBJECT
  5
3FF
102
{ACAD_REACTORS
330
360
102
}
330
360
100
AcDbProxyObject
 90
      499
 91
      526
 95
       25
 70
     0
 93
      199
310
405055368616674220F688AE8EA68AA8A8929C8EA68A9C88FA
  0
ACAD_PROXY_OBJECT
  5
362
102
{ACAD_REACTORS
330
360
102
}
330
360
100
AcDbProxyObject
 90
      499
 91
      526
 95
       25
 70
     0
 93
      852
310
4050D5452414E5353455454494E4753A2488A482AE929C8EA8A4829CA69882A8929E9C0C00800050D4F524947494E414C4C595F4F4E0600400008529A7AAA921A2A620A723A0A81A52827212AAA0A48AA68AA4AC8A0C0080001107B44574753455454494E4753454E447D0
  0
ACAD_PROXY_OBJECT
  5
39A
330
38B
100
AcDbProxyObject
 90
      499
 91
      552
 95
       25
 70
     0
 93
       96
310
5DC20E80A0280A0280A02808
  0
ACAD_PROXY_OBJECT
  5
39B
330
38B
100
AcDbProxyObject
 90
      499
 91
      553
 95
       25
 70
     0
 93
      332
310
5DD0E4050140501405014050140501405014050142501405014050140501405012000000000000000400
340
3A5
 94
        0
  0
ACAD_PROXY_OBJECT
  5
39C
330
38B
100
AcDbProxyObject
 90
      499
 91
      554
 95
       25
 70
     0
 93
      403
310
5DCC199999999999E99F91F4050140501405014050140501405014050140501405014050140501405014050140501405014040
340
0
 94
        0
  0
ACAD_PROXY_OBJECT
  5
39D
330
38B
100
AcDbProxyObject
 90
      499
 91
      555
 95
       25
 70
     0
 93
       10
310
5DC0
  0
ACAD_PROXY_OBJECT
  5
39E
330
38B
100
AcDbProxyObject
 90
      499
 91
      556
 95
       25
 70
     0
 93
      257
310
5DE290EA22A7D90F49F9353333333333727F44D4CCCCCCCCCDC9FC010000618000
340
3A6
340
3A7
 94
        0
  0
ACAD_PROXY_OBJECT
  5
39F
330
38B
100
AcDbProxyObject
 90
      499
 91
      557
 95
       25
 70
     0
 93
    13023
310
5DD0E411255115350141236025B6901405014069011309A4F2590CB64FD3347454E545241434F2C4A504E2C302C8D8096DA2C47454E54524154582C25732C2847454E4D53472067656E647767203232322940690120281A8AA2CA0282484A4BE52028120280A03202261349E4B2196C9FA668E8A9CA8A482869E5894A09C58
310
605921292F94588E8A9CA8A482A8B0584AE658508E8A9C9AA68E40CECADCC8EECE406464665280D202405044E414D454050496BC914F4051C40640A8B95C2E97CBE502404CD1D15395149050D3CB1294138B0C0B25AF2453CB11D15395149055160B095CCB0A11D1539354D1C819D95B991DD9C80C8C8D8A50192C3D494628
310
4953424C414E4B28504152543A4E414D45292C424C4F434B3A4E414D452C504152543A4E414D452940480A0A888AA686A480A09251B1DBE80A3A80C81D10782C06030180C8099A3A2A72A2920A1A7962528271618164946C76F9623A2A72A2920AA2C1612B9961423A2A726A9A39033B2B7323BB39019189B94A0248090142
310
14D51053911054911014122D2E29A50147501904A383BFDFEFF5FBFCFD3347454E545241434F2C4A504E2C302C8B4B8A692C47454E54524154582C25732C2847454E4D53472067656E64776720323138294049012028426A0AA22A924A0A62028246EF4BDFA028EA0320B41396D838E9017D9FA668E8A9CA8A482869E5894A
310
09C5860591BBD2F7E588E8A9CA8A482A8B0584AE658508E8A9C9AA68E40CECADCC8EECE406464625280D202405044E4F544540504928D8B4C4051D40641A8B95C2E97CBE5F23F4CD1D15395149050D3CB1294138B0C0B24A362D30B11D15395149055160B095CCB0A11D1539354D1C819D95B991DD9C80C8C8D4A501A40480
310
A0CAC8A9C889EA480A1106F1072706BF02B680A3A80C83D172B85D2F97CBE47E9BA3A2A72A2920A1A79625282716181641BC41C9C1AFC0AD9623A2A72A2920AA2C1612B9961423A2A726A9A39033B2B7323BB39019191A14A0348090141911154D0D48C90141A43825AF880C90147501908A20F0580C0603019013447454E5
310
45241434F2C4A504E2C302C90E096BE20322C47454E54524154582C25732C2847454E4D53472067656E6477672033362940490120284A9AA20A72220A922192028345A5C53490192028EA0321347077FBFDFEBF7F9FA6A8E8A9CA8A482869E5894A09C586059169714D24064588E8A9CA8A482A8B0584AE658508E8A9C9AA6
310
8E40CECADCC8EECE4064646052809202405094D4154455249414C32405068DDE97BF20324051D40642A8272DB071D202FB3F4D11D15395149050D3CB1294138B0C0B2377A5EFC80C8B11D15395149055160B095CCB0A11D1539354D1C819D95B991DD9C80D0C0A501240480A089A82A6A680A091D7F2F9480A3A80A0485A06
310
81172B85D2F97CBE47E9923A2A72A2920A1A796252827161816475FCBE51623A2A72A2920AA2C1612B9961423A2A726A9A39033B2B7323BB3901A1914A024809014154149250D150141226FE29A501475014090C409022E570BA5F2F97C8FD3247454E545241434F2C4A504E2C302C89BF8A692C47454E54524154582C2573
310
2C2847454E4D53472067656E6477672034332940490120281A224A6A02824850CB202028EA028121A81A045CAE174BE5F2F91FA648E8A9CA8A482869E5894A09C58605921432C80588E8A9CA8A482A8B0584AE658508E8A9C9AA68E40CECADCC8EECE406868528092024050E441022E07A17AD46E338FE07800030C0001018
310
ACD56AB55AADF63F2B355AAD56AB7D8FD073D3C4954454D3E405018ACD56AB55AADF63F2B355AAD56AB7D8FD073D3C4954454D3E40501890C7E3F1783CEE3F2431F8FC5E0F3B8FD073D3C4954454D3E40501890C7E3F1783CEE3F2431F8FC5E0F3B8FD073D3C4954454D3E405029012B355AAD56AB7D8FCACD56AB55AADF63
310
F41CF4F125511534F901418F4F1455164F9014062B355AAD56AB7D8FCACD56AB55AADF63F41CF4F125511534F9014061309A4F2590CBA4FC4C2693C96432E93F41CF4F125511534F901901002B355AAD56AB7D8FCACD56AB55AADF63FA2000000000000008204018000618048220681A048120280C88214844882034852034
310
8452028521485214814000000000000F0BF0000000000003C2FD018020000C3008070000C3000EF7D3E365DBA88FC3BDF4F8D976EA23F2E07A17AD46E2F8FF20341A405024150741A4069703D0BD6A3717C7F0040001860100400018601002000186002026280A02
340
0
340
0
 94
        0
  0
ACAD_PROXY_OBJECT
  5
3A0
330
38B
100
AcDbProxyObject
 90
      499
 91
      558
 95
       25
 70
     0
 93
      994
310
5DC0B81E85EB51B8CE3F4BCF511155105253080F11115510525317D3105091530F971414D0D05311480F11115510525317D05094D4D0D053114F92341C9A9999999999B93F26A666666666724FC000000000000E03F4000000000000004000000000000005100000000000000244081E0000C3002E07A17AD46E338FC0
340
355
340
399
 94
        0
  0
ACAD_PROXY_OBJECT
  5
3A1
330
38B
100
AcDbProxyObject
 90
      499
 91
      559
 95
       25
 70
     0
 93
      823
310
5DC031703D0BD6A3719C7E999EA9A2A1AA24A7A7101E29A2A1AA24A7A72FA620A122A62FA324A929AA1F169E29A2A1AA24A7A72FA620A122A62FA620A9AA1F1353333333333B27E3FFFE01C00030C008840F000061801353333333333B27F1703D0BD6A3719C7E
340
355
340
399
 94
        0
  0
ACAD_PROXY_OBJECT
  5
3A2
330
38B
100
AcDbProxyObject
 90
      499
 91
      560
 95
       25
 70
     0
 93
      280
310
5DC2B8716D9CEF7C33F0A5723F0BD4A2F0FC295C8FC2F528BC3FA199999999999F99FC
  0
ACAD_PROXY_OBJECT
  5
3A3
330
38B
100
AcDbProxyObject
 90
      499
 91
      561
 95
       25
 70
     0
 93
       14
310
5DE4
340
0
 94
        0
  0
ACAD_PROXY_OBJECT
  5
3A4
330
38B
100
AcDbProxyObject
 90
      499
 91
      562
 95
       25
 70
     0
 93
     7123
310
5DD084050BA4050AA405024050E836583938376838C815B8367203140405013D3C696628657175616C28486F6C653A7461707065642C223022292C22252563222C486F6C653A6E6F6D696E616C2022202220696628657175616C28486F6C653A756E6974732C223122292C2278222C222D222920222022293E3C6966286571
310
75616C28486F6C653A7461707065642C223022292C486F6C653A6469612C486F6C653A706974636864657363293E207B5C46414D4744543B787D203C696628657175616C28486F6C653A7465726D696E6174696F6E2C223022292C486F6C653A64657074682C228AD192CA22293E5C507B5C46414D4744543B767D2525633C
310
486F6C653A63746469613E207B5C46414D4744543B787D203C486F6C653A637464657074683E406901405034050E836583938376838C815B83672031405FE3D3C696628657175616C28486F6C653A7461707065642C223022292C22252563222C486F6C653A6E6F6D696E616C2022202220696628657175616C28486F6C653
310
A756E6974732C223122292C2278222C222D222920222022293E3C696628657175616C28486F6C653A7461707065642C223022292C486F6C653A6469612C486F6C653A706974636864657363293E207B5C46414D4744543B787D203C696628657175616C28486F6C653A7465726D696E6174696F6E2C223022292C486F6C653
310
A64657074682C228AD192CA22293E5C507B5C46414D4744543B777D2525633C486F6C653A63746469613E2058203C486F6C653A6374616E676C653E252564406901405014050E836583938376838C815B83672031405CF3D3C696628657175616C28486F6C653A7461707065642C223022292C22252563222C486F6C653A6E
310
6F6D696E616C2022202220696628657175616C28486F6C653A756E6974732C223122292C2278222C222D222920222022293E3C696628657175616C28486F6C653A7461707065642C223022292C486F6C653A6469612C486F6C653A706974636864657363293E5C507B5C46414D4744543B787D203C696628657175616C2848
310
6F6C653A7465726D696E6174696F6E2C223022292C486F6C653A64657074682C228AD192CA22293E4069014051E4090E836583938376838C815B83672032405173D3C535444503A444553433E203C535444503A5354443E40690E836583938376838C815B836720314050C3D3C535444503A444553433E40690240515AAABB
310
A060
360
3AE
330
3AE
360
3AF
330
3AF
360
3AD
330
3AD
360
3AC
360
3AB
330
3AC
330
3AB
 94
        0
  0
ACAD_PROXY_OBJECT
  5
3B0
330
38B
100
AcDbProxyObject
 90
      499
 91
      564
 95
       25
 70
     0
 93
       26
310
5DD02A80
340
38C
 94
        0
  0
ACAD_PROXY_OBJECT
  5
3B1
330
38B
100
AcDbProxyObject
 90
      499
 91
      565
 95
       25
 70
     0
 93
      258
310
5DD02000000000000380FC000000000000E03F408F0F9023C3E40DB18CCCFFFF80
340
3B2
340
0
340
0
340
3B3
340
3B4
340
0
340
3B5
340
3B6
340
3BB
340
0
 94
        0
  0
ACAD_PROXY_OBJECT
  5
3BC
330
38B
100
AcDbProxyObject
 90
      499
 91
      566
 95
       25
 70
     0
 93
    13993
310
5DD1D023FFFFFFFD010300002E07A17AD46E2F8FE00800030C01010300002E07A17AD46E2F8FE00800030C00050C8DC0955782CC838A83588367014ED1D15395149050D3CB1294138B0C0B23702555E0B320E2A0D620D9CB11D15395149055160B095CCB0A11D1539354D1C819D95B991A5B5E880CCC0A78000C0000000000
310
00000000000000000000007B14AE47E17AA43F2E07A17AD46E2F8FE00800030C007B14AE47E17AA43F2E07A17AD46E2F8FE00800030C020143CF4F111959985D5B1D151A5D1B194F8050A8C8A8365815B8375838B014E51D15395149050D3CB1294138B0C0B2322A0D96056E0DD60E2CB11D15395149055160B095CCB0A11D
310
1539354D1C819D95B991A5B5E880CCC4A78000C000000000000000000000000000000007B14AE47E17AA43F2E07A17AD46E2F8FE00800030C007B14AE47E17AA43F2E07A17AD46E2F8FE00800030C020143CF4F111959985D5B1D151A5D1B194F90D4410F4450240D0441507431014391244D05449074510C4350F00014123
310
2D24D7C053247454E545241434F2C4A504E2C302C8CB4935F2C47454E54524154582C25732C2847454E4D53472067656E64696D7A20312900010104002214000282465A49AF80A648E8A9CA8A482869E5894A09C586059196926BE588E8A9CA8A482A8B0584AE658508E8A9C9AA68E40CECADCC8D2DAF44062520002020800
310
43E80005028C8A014C11D15395149050D3CB1294138B0C0B23228B11D15395149055160B095CCB0A11D1539354D1C819D95B991A5B5E880C8A4054E3D3C4946284953424C414E4B28486F6C654974656D292C4F726967696E2C20486F6C654974656D293E3C4946284953424C414E4B28486F6C654974656D292C22222C204
310
86F6C65496E646578293E010104002234000280AC00A5E8E8A9CA8A482869E5894A09C586058B0588E8A9CA8A482A8B0584AE658508E8A9C9AA68E40CECADCC8D2DAF4406652000202000040A800050159014BD1D15395149050D3CB1294138B0C0B164B11D15395149055160B095CCB0A11D1539354D1C819D95B991A5B5E
310
880D0A4000404000081D0000A02A40297A3A2A72A2920A1A796252827161816291623A2A72A2920AA2C1612B9961423A2A726A9A39033B2B73234B6BD101B148000808000104A000140A0F4C053047454E545241434F2C4A504E2C302C83D32C47454E54524154582C25732C2847454E4D53472067656E64696D7A20372900
310
0101030020B400028141E980A608E8A9CA8A482869E5894A09C58605907A6588E8A9CA8A482A8B0584AE658508E8A9C9AA68E40CECADCC8D2DAF4407052000202020041E800050490E096BE014CD1D15395149050D3CB1294138B0C0B243825AF8B11D15395149055160B095CCB0A11D1539354D1C819D95B991A5B5E880C8
310
C0A400040010008650000A091B012DB40299A3A2A72A2920A1A79625282716181646C04B6D1623A2A72A2920AA2C1612B9961423A2A726A9A39033B2B73234B6BD10189A148000808280501A00014320D0E0E4E0D9A0D8A0D3A0D60053B47454E545241434F2C4A504E2C302C8343839383668362834E83582C47454E54524
310
154582C25732C2847454E4D53472067656E64696D7A203135290001010500A1D4000281464500A628E8A9CA8A482869E5894A09C5860591914588E8A9CA8A482A8B0584AE658508E8A9C9AA68E40CECADCC8D2DAF440626C52000202080044A800050E8C8A8343839383668362834E8358014F51D15395149050D3CB129413
310
8B0C0B2322A0D0E0E4E0D9A0D8A0D3A0D60B11D15395149055160B095CCB0A11D1539354D1C819D95B991A5B5E880C4DCA4000404140089D0000A0921292F940299A3A2A72A2920A1A796252827161816484A4BE51623A2A72A2920AA2C1612B9961423A2A726A9A39033B2B73234B6BD10189C948000808300114A0001412
310
2D2E29A4053347454E545241434F2C4A504E2C302C8B4B8A692C47454E54524154582C25732C2847454E4D53472067656E64696D7A20323129000100040021B4878030026A6666666667A4FE064D4CCCCCCCCCF49FC049A9999999999E93F809353333333333D27F0226A6666666667A4FE044D4CCCCCCCCCF49FC0D818000
310
00000000000810026A666666666764FE004D4CCCCCCCCCF49FC009A9999999999E93F801353333333333D27F032E07A17AD46E378FE0633B333333333032050F006004D4CCCCCCCCCF49FC0C9A9999999999E93F819353333333333D27F0326A6666666667A4FE064D4CCCCCCCCCF49FC0C9A9999999999E93F81B03000000
310
00000000102004D4CCCCCCCCCEC9FC009A9999999999E93F819353333333333D27F0026A6666666667A4FE065C0F42F5A8DC6F1FC0C6766666666660640A088800000021E000000890000002260000008220E000200890000002060002008100008000
340
0
340
0
340
0
340
0
340
399
340
399
 94
        0
  0
ACAD_PROXY_OBJECT
  5
3BD
330
38B
100
AcDbProxyObject
 90
      499
 91
      567
 95
       25
 70
     0
 93
     5214
310
5DD9741105394D2506414E53495F4342905394D257D512551554D15414E53495F54525F5265766973696F6E6C697374614191143202831372E307832322E30696E63682941905394D257D0D1146202832382E307834302E30696E63682941905394D257D191142202831312E307831372E30696E63682941905394D257D091
310
144202832322E307833342E30696E63682941905394D257D111145202833342E307834342E30696E63682941905394D257D1510412028382E357831312E30696E63682941905394D257D050543905B9CDA482557247A25E4C81110D0C414E53495F5449544C45444343505B9CDA482557247A25E4C81050B414E53495F5449
310
544C454143905B9CDA482557247A25E4C81050D0C414E53495F5449544C454143425554C82557247A25E4D0A414E53495F544954555343505B9CDA482557247A25E4C81110B414E53495F5449544C454442110979A97F0838A8358836720415F42525F45505394D257D09497D4995D9A5CDA5BDB9B1A5CDD18510979A97F08
310
38A8358836720415F54525F45505394D257D51497D4995D9A5CDA5BDB9B1A5CDD18510979A97F0838A8358836720445F42525F45505394D257D09497D4995D9A5CDA5BDB9B1A5CDD19110979A97F0838A8358836720445F54525F45505394D257D51497D4995D9A5CDA5BDB9B1A5CDD19110979A97F0838A8358836720415F
310
424C5F45505394D257D09317D4995D9A5CDA5BDB9B1A5CDD18510979A97F0838A8358836720415F544C5F45505394D257D51317D4995D9A5CDA5BDB9B1A5CDD18510979A97F0838A8358836720445F424C5F45505394D257D09317D4995D9A5CDA5BDB9B1A5CDD19110979A97F0838A8358836720445F544C5F45505394D25
310
7D51317D4995D9A5CDA5BDB9B1A5CDD190
  0
ACAD_PROXY_OBJECT
  5
4EB
330
4EA
100
AcDbProxyObject
 90
      499
 91
      573
 95
       25
 70
     0
 93
       86
310
5DEA0C80A0280A0280A034
  0
ACAD_PROXY_OBJECT
  5
4EC
330
4EA
100
AcDbProxyObject
 90
      499
 91
      574
 95
       25
 70
     0
 93
      282
310
5DD0E4050140501405014050140501405014050141101405014041000000000000001000
340
4DA
 94
        0
  0
ACAD_PROXY_OBJECT
  5
4ED
330
4EA
100
AcDbProxyObject
 90
      499
 91
      575
 95
       25
 70
     0
 93
      323
310
5DCC199999999999E99F91740501405014050140501405014050140501405014050140501405014040
340
0
 94
        0
  0
ACAD_PROXY_OBJECT
  5
4EE
330
4EA
100
AcDbProxyObject
 90
      499
 91
      576
 95
       25
 70
     0
 93
       10
310
5DC0
  0
ACAD_PROXY_OBJECT
  5
4EF
330
4EA
100
AcDbProxyObject
 90
      499
 91
      577
 95
       25
 70
     0
 93
      257
310
5DE0C16A22A7D90F49F80000000000001081400000000000004204010000618000
340
4D5
340
4D6
 94
        0
  0
ACAD_PROXY_OBJECT
  5
4F0
330
4EA
100
AcDbProxyObject
 90
      499
 91
      578
 95
       25
 70
     0
 93
     5277
310
5DD06411255115350141236025B6901405014069010000000000000910240690120281A8AA2CA0282484A4BE52028120280A032020000000000001220480D202405044E414D454050496BC914F4051C40640A80000000000004E4090193C3D3C4946284953424C414E4B28504152543A4E414D45292C424C4F434B3A4E414D
310
452C504152543A4E414D45293E3C41435F44455343524950544E3E40480A109A82A88AA492829880A091BBD2F7E80A3A80C81D0E27A15AF46E08A81203480901411393D5115014124A363B7D0147501904A0000000000000F902406428F4F1050D7D393D5114F901202832B22A72227A92028366EF6EE06F582028EA0320B4
310
0000000000001F20480C879E9E20A1AFAB27222FA620A122A61F20240506445020000000000000490201C00030C00010180000000000003E400000000000000F901073D3C4954454D3E4050180000000000003E400000000000000F901073D3C4954454D3E40501800000000000034400000000000000D101073D3C4954454
310
D3E40501800000000000034400000000000000D101073D3C4954454D3E405029010000000000000F9000000000000003E4041CF4F125511534F901418F4F1455164F9014060000000000000F9000000000000003E4041CF4F125511534F901800000000000034400000000000000D101073D3C4954454D3E40640400000000
310
0000003E400000000000000F90288800000000000020810000001800120881A068120480A032208521122080D21480D211480A1485214852050000000000003C2FC000000000000F0BF40600800030C0200400030C00CDCCCCCCCCCCEC3F3373333333333B0FC3333333333330940C80D069014090341504901A1999999999
310
9984A040100006180400800061804010000618008098A02808
340
0
340
0
 94
        0
  0
ACAD_PROXY_OBJECT
  5
4F1
330
4EA
100
AcDbProxyObject
 90
      499
 91
      567
 95
       25
 70
     0
 93
     3042
310
5DD9740D29254D064A49535F413342929254D7D512551311505134A49535F42525F5265766973696F6E6C6973744190F4134522028323937783231306D6D2941D29254D7D04D1490E41312028353934783834316D6D2941929254D7D04C50E41332028323937783432306D6D2941929254D7D04CD0F41344C2028323130783
310
239376D6D2941D29254D7D04D1310E41322028343230783539346D6D2941929254D7D04C90F4130202838343178313138396D6D2941929254D7D04C10243129254C82557247A25E4C81050A4A49535F5449544C454143129254C82557247A25E4C81090A4A49535F5449544C45424110E979A97F0838A835883675F42525F4
310
4D29254D7D09497D4995D9A5CDA5BDB9B1A5CDD10E979A97F0838A835883675F54525F44D29254D7D51497D4995D9A5CDA5BDB9B1A5CDD10E979A97F0838A835883675F424C5F44D29254D7D09317D4995D9A5CDA5BDB9B1A5CDD10E979A97F0838A835883675F544C5F44D29254D7D51317D4995D9A5CDA5BDB9B1A5CDD00
  0
ACAD_PROXY_OBJECT
  5
4F2
330
4EA
100
AcDbProxyObject
 90
      499
 91
      579
 95
       25
 70
     0
 93
      898
310
5DC4000000000000124048CF4F11115510525317D3105091530F880A0F11115510525317D05094D4D0D053114F8A50241C9A9999999999B93F26A666666666724FC000000000000E03F400000000000000400000000000000510000000000000024408070000C300000000000000049000
340
15
340
4D9
 94
        0
  0
ACAD_PROXY_OBJECT
  5
4F3
330
4EA
100
AcDbProxyObject
 90
      499
 91
      580
 95
       25
 70
     0
 93
      823
310
5DC0B00000000000002480959E9E29A2A1AA24A7A72FA620A122A62FA324A929AA1F169E29A2A1AA24A7A72FA620A122A62FA620A9AA1F000000000000048803FFFE01C00030C008140380006180000000000000048800000000000000A2000000000000002480
340
27
340
4D9
 94
        0
  0
ACAD_PROXY_OBJECT
  5
4F4
330
4EA
100
AcDbProxyObject
 90
      499
 91
      581
 95
       25
 70
     0
 93
      152
310
5DE8273108AC1C5A0640A3D0A5723F0BD1F200
  0
ACAD_PROXY_OBJECT
  5
4F5
330
4EA
100
AcDbProxyObject
 90
      499
 91
      582
 95
       25
 70
     0
 93
       14
310
5DE0
340
0
 94
        0
  0
ACAD_PROXY_OBJECT
  5
4F6
330
4EA
100
AcDbProxyObject
 90
      499
 91
      583
 95
       25
 70
     0
 93
     6059
310
5DD084050BA4050AA405024050E836583938376838C815B83672031405983D3C486F6C653A6469613E3C696628657175616C28486F6C653A7465726D696E6174696F6E2C223022292C2220905B82B320222C22208368838A838B22293E3C696628657175616C28486F6C653A7465726D696E6174696F6E2C223022292C486F
310
6C653A64657074682C2222293E2C203C486F6C653A63746469613E2082B482AE82E882CC905B82B3203C486F6C653A637464657074683E406901405034050E836583938376838C815B83672031405EF3D3C486F6C653A6374616E676C653E252564202525633C486F6C653A63746469613E208E4D8C8A2C203C69662865717
310
5616C28486F6C653A7461707065642C223022292C22252563222C486F6C653A6E6F6D696E616C202220782022293E3C696628657175616C28486F6C653A7461707065642C223022292C486F6C653A6469612C486F6C653A706974636864657363293E203C696628657175616C28486F6C653A7465726D696E6174696F6E2C2
310
23022292C22905B82B320222C222022293E3C696628657175616C28486F6C653A7465726D696E6174696F6E2C223022292C486F6C653A64657074682C2222293E406901405014050E836583938376838C815B83672031405C73D3C696628657175616C28486F6C653A7461707065642C223022292C22252563222C486F6C65
310
3A6E6F6D696E616C202220782022293E3C696628657175616C28486F6C653A7461707065642C223022292C486F6C653A6469612C486F6C653A706974636864657363293E203C696628657175616C28486F6C653A7465726D696E6174696F6E2C223022292C22905B82B320222C222022293E3C696628657175616C28486F6C
310
653A7465726D696E6174696F6E2C223022292C486F6C653A64657074682C2222293E4069014051E4090E836583938376838C815B83672032405173D3C535444503A444553433E203C535444503A5354443E40690E836583938376838C815B836720314050C3D3C535444503A444553433E40690240515AAABBA120
360
4F7
330
4F7
360
4F8
330
4F8
360
4F9
330
4F9
360
4FA
360
4FB
330
4FA
330
4FB
 94
        0
  0
ACAD_PROXY_OBJECT
  5
4FC
330
4EA
100
AcDbProxyObject
 90
      499
 91
      564
 95
       25
 70
     0
 93
       26
310
5DD02A80
340
0
 94
        0
  0
ACAD_PROXY_OBJECT
  5
4FD
330
4EA
100
AcDbProxyObject
 90
      499
 91
      565
 95
       25
 70
     0
 93
      250
310
5DD020000000000000A1000000000000002440408F0F9023C3E409A0DCFFFF80
340
4DB
340
4E2
340
4E3
340
4DC
340
4DD
340
4DE
340
4DF
340
4E0
340
4E1
340
0
 94
        0
  0
ACAD_PROXY_OBJECT
  5
4FE
330
4EA
100
AcDbProxyObject
 90
      499
 91
      584
 95
       25
 70
     0
 93
    13889
310
5DD1D003FFFFFFFD030300030CCCCCCCCCCCC250200800030C01030300030CCCCCCCCCCCC250200800030C00050C8DC0955782CC838A83588367014ED1D15395149050D3CB1294138B0C0B23702555E0B320E2A0D620D9CB11D15395149055160B095CCB0A11D1539354D1C819D95B991A5B5E880CCC0A78000C0000000000
310
00000000000000000000010CCCCCCCCCCCC250200800030C010CCCCCCCCCCCC250200800030C020143CF4F111959985D5B1D151A5D1B194F8050A8C8A8365815B8375838B014E51D15395149050D3CB1294138B0C0B2322A0D96056E0DD60E2CB11D15395149055160B095CCB0A11D1539354D1C819D95B991A5B5E880CCC4
310
A78000C000000000000000000000000000000010CCCCCCCCCCCC250200800030C010CCCCCCCCCCCC250200800030C020143CF4F111959985D5B1D151A5D1B194F90D44111409034110541D0C4350F4050E44D03449074510F000141232D24D7C053247454E545241434F2C4A504E2C302C8CB4935F2C47454E54524154582C
310
25732C2847454E4D53472067656E64696D7A20312900010104002214000281464500A608E8A9CA8A482869E5894A09C5860591914588E8A9CA8A482A8B0584AE658508E8A9C9AA68E40CECADCC8D2DAF4406452029E9E9E27B934B3B4B71F1E24A31427A91424A9A12620A7259427B934B3B4B7149624A9A12620A7259424B
310
A32B6949496111116111711149F1E24BA32B69F00808200111A000140560052F47454E545241434F2C4A504E2C302C582C47454E54524154582C25732C2847454E4D53472067656E64696D7A20332900010100002054000280AC80A5E8E8A9CA8A482869E5894A09C586058B2588E8A9CA8A482A8B0584AE658508E8A9C9AA
310
68E40CECADCC8D2DAF4406852000202000040E800050152014BD1D15395149050D3CB1294138B0C0B148B11D15395149055160B095CCB0A11D1539354D1C819D95B991A5B5E880D8A400040400008250000A0507A6029823A2A72A2920A1A79625282716181641E99623A2A72A2920AA2C1612B9961423A2A726A9A39033B2
310
B73234B6BD101B948000808180105A000140A0F4C053047454E545241434F2C4A504E2C302C83D32C47454E54524154582C25732C2847454E4D53472067656E64696D7A203829000101010020F400028248704B5F00A668E8A9CA8A482869E5894A09C58605921C12D7C588E8A9CA8A482A8B0584AE658508E8A9C9AA68E40
310
CECADCC8D2DAF440646052000200080043280005048B4B8A69014CD1D15395149050D3CB1294138B0C0B22D2E29A4B11D15395149055160B095CCB0A11D1539354D1C819D95B991A5B5E880C8C4A4000400100086D0000A09196926BE029923A2A72A2920A1A796252827161816465A49AF9623A2A72A2920AA2C1612B9961
310
423A2A726A9A39033B2B73234B6BD10189480A02620202080043E80005048D8096DA014CD1D15395149050D3CB1294138B0C0B236025B68B11D15395149055160B095CCB0A11D1539354D1C819D95B991A5B5E880C4D0A4000404140280D0000A190687072706CD06C5069D06B0029DA3A2A72A2920A1A7962528271618164
310
1A1C1C9C1B341B141A741AC1623A2A72A2920AA2C1612B9961423A2A726A9A39033B2B73234B6BD10189A94800080820050EA000143A322A0D0E0E4E0D9A0D8A0D3A0D60053D47454E545241434F2C4A504E2C302C8C8A8343839383668362834E83582C47454E54524154582C25732C2847454E4D53472067656E64696D7A
310
2031372900010105002274000281464500A628E8A9CA8A482869E5894A09C5860591914588E8A9CA8A482A8B0584AE658508E8A9C9AA68E40CECADCC8D2DAF440626C52000202080044A8000504909497CA014CD1D15395149050D3CB1294138B0C0B242525F28B11D15395149055160B095CCB0A11D1539354D1C819D95B9
310
91A5B5E880C4E4A400040418008A521E000000000000001CA040C00000000000034408080000000000006881010000000000000D102040000000000001A204080000000000003440818000000000000728103000000000000125020600000000004028A040000000000000034408000000000000004881000000000000000D
310
102000000000000001A204000000000000003440818000000000000508143C0000000000000039408180000000000006881030000000000000D102060000000000001A2040C00000000000034408180000000000006881030000000000000E5020600000000000024A040C0000000000805140800000000000000688100000
310
00000000009102000000000000001A2040000000000000034408180000000000006881030000000000000A10284220000000878000002020000008380000020400000081800000208000000828000002028900000000
340
0
340
0
340
0
340
0
340
4D9
340
4D9
 94
        0
  0
ACAD_PROXY_OBJECT
  5
3AE
330
3A4
100
AcDbProxyObject
 90
      499
 91
      563
 95
       25
 70
     0
 93
     2256
310
5DE0143A0D960E4E0DDA0E32056E0D9C80C40405013D3C696628657175616C28486F6C653A7461707065642C223022292C22252563222C486F6C653A6E6F6D696E616C2022202220696628657175616C28486F6C653A756E6974732C223122292C2278222C222D222920222022293E3C696628657175616C28486F6C653A74
310
61707065642C223022292C486F6C653A6469612C486F6C653A706974636864657363293E207B5C46414D4744543B787D203C696628657175616C28486F6C653A7465726D696E6174696F6E2C223022292C486F6C653A64657074682C228AD192CA22293E5C507B5C46414D4744543B767D2525633C486F6C653A6374646961
310
3E207B5C46414D4744543B787D203C486F6C653A637464657074683E
  0
ACAD_PROXY_OBJECT
  5
3AF
330
3A4
100
AcDbProxyObject
 90
      499
 91
      563
 95
       25
 70
     0
 93
     2192
310
5DE0143A0D960E4E0DDA0E32056E0D9C80C405FE3D3C696628657175616C28486F6C653A7461707065642C223022292C22252563222C486F6C653A6E6F6D696E616C2022202220696628657175616C28486F6C653A756E6974732C223122292C2278222C222D222920222022293E3C696628657175616C28486F6C653A7461
310
707065642C223022292C486F6C653A6469612C486F6C653A706974636864657363293E207B5C46414D4744543B787D203C696628657175616C28486F6C653A7465726D696E6174696F6E2C223022292C486F6C653A64657074682C228AD192CA22293E5C507B5C46414D4744543B777D2525633C486F6C653A63746469613E
310
2058203C486F6C653A6374616E676C653E252564
  0
ACAD_PROXY_OBJECT
  5
3AD
330
3A4
100
AcDbProxyObject
 90
      499
 91
      563
 95
       25
 70
     0
 93
     1816
310
5DE0143A0D960E4E0DDA0E32056E0D9C80C405CF3D3C696628657175616C28486F6C653A7461707065642C223022292C22252563222C486F6C653A6E6F6D696E616C2022202220696628657175616C28486F6C653A756E6974732C223122292C2278222C222D222920222022293E3C696628657175616C28486F6C653A7461
310
707065642C223022292C486F6C653A6469612C486F6C653A706974636864657363293E5C507B5C46414D4744543B787D203C696628657175616C28486F6C653A7465726D696E6174696F6E2C223022292C486F6C653A64657074682C228AD192CA22293E
  0
ACAD_PROXY_OBJECT
  5
3AC
330
3A4
100
AcDbProxyObject
 90
      499
 91
      563
 95
       25
 70
     0
 93
      344
310
5DE0143A0D960E4E0DDA0E32056E0D9C80C805173D3C535444503A444553433E203C535444503A5354443E
  0
ACAD_PROXY_OBJECT
  5
3AB
330
3A4
100
AcDbProxyObject
 90
      499
 91
      563
 95
       25
 70
     0
 93
      256
310
5DE0143A0D960E4E0DDA0E32056E0D9C80C4050C3D3C535444503A444553433E
  0
ACAD_PROXY_OBJECT
  5
4F7
330
4F6
100
AcDbProxyObject
 90
      499
 91
      563
 95
       25
 70
     0
 93
     1376
310
5DE0143A0D960E4E0DDA0E32056E0D9C80C405983D3C486F6C653A6469613E3C696628657175616C28486F6C653A7465726D696E6174696F6E2C223022292C2220905B82B320222C22208368838A838B22293E3C696628657175616C28486F6C653A7465726D696E6174696F6E2C223022292C486F6C653A64657074682C22
310
22293E2C203C486F6C653A63746469613E2082B482AE82E882CC905B82B3203C486F6C653A637464657074683E
  0
ACAD_PROXY_OBJECT
  5
4F8
330
4F6
100
AcDbProxyObject
 90
      499
 91
      563
 95
       25
 70
     0
 93
     2072
310
5DE0143A0D960E4E0DDA0E32056E0D9C80C405EF3D3C486F6C653A6374616E676C653E252564202525633C486F6C653A63746469613E208E4D8C8A2C203C696628657175616C28486F6C653A7461707065642C223022292C22252563222C486F6C653A6E6F6D696E616C202220782022293E3C696628657175616C28486F6C
310
653A7461707065642C223022292C486F6C653A6469612C486F6C653A706974636864657363293E203C696628657175616C28486F6C653A7465726D696E6174696F6E2C223022292C22905B82B320222C222022293E3C696628657175616C28486F6C653A7465726D696E6174696F6E2C223022292C486F6C653A6465707468
310
2C2222293E
  0
ACAD_PROXY_OBJECT
  5
4F9
330
4F6
100
AcDbProxyObject
 90
      499
 91
      563
 95
       25
 70
     0
 93
     1752
310
5DE0143A0D960E4E0DDA0E32056E0D9C80C405C73D3C696628657175616C28486F6C653A7461707065642C223022292C22252563222C486F6C653A6E6F6D696E616C202220782022293E3C696628657175616C28486F6C653A7461707065642C223022292C486F6C653A6469612C486F6C653A706974636864657363293E20
310
3C696628657175616C28486F6C653A7465726D696E6174696F6E2C223022292C22905B82B320222C222022293E3C696628657175616C28486F6C653A7465726D696E6174696F6E2C223022292C486F6C653A64657074682C2222293E
  0
ACAD_PROXY_OBJECT
  5
4FA
330
4F6
100
AcDbProxyObject
 90
      499
 91
      563
 95
       25
 70
     0
 93
      344
310
5DE0143A0D960E4E0DDA0E32056E0D9C80C805173D3C535444503A444553433E203C535444503A5354443E
  0
ACAD_PROXY_OBJECT
  5
4FB
330
4F6
100
AcDbProxyObject
 90
      499
 91
      563
 95
       25
 70
     0
 93
      256
310
5DE0143A0D960E4E0DDA0E32056E0D9C80C4050C3D3C535444503A444553433E
  0
ENDSEC
  0
EOF
