  0
SECTION
  2
HEADER
  9
$ACADVER
  1
AC1015
  9
$ACADMAINTVER
 70
     6
  9
$DWGCODEPAGE
  3
ANSI_932
  9
$INSBASE
 10
0.0
 20
0.0
 30
0.0
  9
$EXTMIN
 10
-63.5
 20
-72.40801987325779
 30
0.0
  9
$EXTMAX
 10
129.8322140049879
 20
77.49999999999999
 30
0.0
  9
$LIMMIN
 10
0.0
 20
0.0
  9
$LIMMAX
 10
400.0
 20
273.0
  9
$ORTHOMODE
 70
     0
  9
$REGENMODE
 70
     1
  9
$FILLMODE
 70
     1
  9
$QTEXTMODE
 70
     0
  9
$MIRRTEXT
 70
     1
  9
$LTSCALE
 40
1.0
  9
$ATTMODE
 70
     1
  9
$TEXTSIZE
 40
3.0
  9
$TRACEWID
 40
0.5
  9
$TEXTSTYLE
  7
STANDARD
  9
$CLAYER
  8
0
  9
$CELTYPE
  6
ByLayer
  9
$CECOLOR
 62
   256
  9
$CELTSCALE
 40
1.0
  9
$DISPSILH
 70
     0
  9
$DIMSCALE
 40
1.0
  9
$DIMASZ
 40
3.0
  9
$DIMEXO
 40
1.0
  9
$DIMDLI
 40
5.0
  9
$DIMRND
 40
0.0
  9
$DIMDLE
 40
3.0
  9
$DIMEXE
 40
2.0
  9
$DIMTP
 40
0.0
  9
$DIMTM
 40
0.0
  9
$DIMTXT
 40
5.0
  9
$DIMCEN
 40
2.0
  9
$DIMTSZ
 40
0.0
  9
$DIMTOL
 70
     0
  9
$DIMLIM
 70
     0
  9
$DIMTIH
 70
     0
  9
$DIMTOH
 70
     0
  9
$DIMSE1
 70
     0
  9
$DIMSE2
 70
     0
  9
$DIMTAD
 70
     1
  9
$DIMZIN
 70
     8
  9
$DIMBLK
  1

  9
$DIMASO
 70
     1
  9
$DIMSHO
 70
     0
  9
$DIMPOST
  1

  9
$DIMAPOST
  1

  9
$DIMALT
 70
     0
  9
$DIMALTD
 70
     4
  9
$DIMALTF
 40
25.4
  9
$DIMLFAC
 40
1.0
  9
$DIMTOFL
 70
     1
  9
$DIMTVP
 40
1.0
  9
$DIMTIX
 70
     0
  9
$DIMSOXD
 70
     0
  9
$DIMSAH
 70
     0
  9
$DIMBLK1
  1

  9
$DIMBLK2
  1

  9
$DIMSTYLE
  2
Standard
  9
$DIMCLRD
 70
     0
  9
$DIMCLRE
 70
     0
  9
$DIMCLRT
 70
     0
  9
$DIMTFAC
 40
1.0
  9
$DIMGAP
 40
0.09
  9
$DIMJUST
 70
     0
  9
$DIMSD1
 70
     0
  9
$DIMSD2
 70
     0
  9
$DIMTOLJ
 70
     1
  9
$DIMTZIN
 70
     0
  9
$DIMALTZ
 70
     0
  9
$DIMALTTZ
 70
     0
  9
$DIMUPT
 70
     0
  9
$DIMDEC
 70
     4
  9
$DIMTDEC
 70
     4
  9
$DIMALTU
 70
     2
  9
$DIMALTTD
 70
     2
  9
$DIMTXSTY
  7
STANDARD
  9
$DIMAUNIT
 70
     0
  9
$DIMADEC
 70
     0
  9
$DIMALTRND
 40
0.0
  9
$DIMAZIN
 70
     0
  9
$DIMDSEP
 70
    46
  9
$DIMATFIT
 70
     3
  9
$DIMFRAC
 70
     0
  9
$DIMLDRBLK
  1

  9
$DIMLUNIT
 70
     2
  9
$DIMLWD
 70
    -2
  9
$DIMLWE
 70
    -2
  9
$DIMTMOVE
 70
     0
  9
$LUNITS
 70
     2
  9
$LUPREC
 70
     4
  9
$SKETCHINC
 40
1.0
  9
$FILLETRAD
 40
0.0
  9
$AUNITS
 70
     0
  9
$AUPREC
 70
     0
  9
$MENU
  1
acad
  9
$ELEVATION
 40
0.0
  9
$PELEVATION
 40
0.0
  9
$THICKNESS
 40
0.0
  9
$LIMCHECK
 70
     0
  9
$CHAMFERA
 40
0.0
  9
$CHAMFERB
 40
0.0
  9
$CHAMFERC
 40
0.0
  9
$CHAMFERD
 40
0.0
  9
$SKPOLY
 70
     0
  9
$TDCREATE
 40
2453969.585219908
  9
$TDUCREATE
 40
2453969.210219908
  9
$TDUPDATE
 40
2455441.409233935
  9
$TDUUPDATE
 40
2455441.034233935
  9
$TDINDWG
 40
0.0404579051
  9
$TDUSRTIMER
 40
0.0404575347
  9
$USRTIMER
 70
     1
  9
$ANGBASE
 50
0.0
  9
$ANGDIR
 70
     0
  9
$PDMODE
 70
     0
  9
$PDSIZE
 40
0.0
  9
$PLINEWID
 40
0.0
  9
$SPLFRAME
 70
     0
  9
$SPLINETYPE
 70
     6
  9
$SPLINESEGS
 70
    16
  9
$HANDSEED
  5
782
  9
$SURFTAB1
 70
     6
  9
$SURFTAB2
 70
     6
  9
$SURFTYPE
 70
     6
  9
$SURFU
 70
     6
  9
$SURFV
 70
     6
  9
$UCSBASE
  2

  9
$UCSNAME
  2

  9
$UCSORG
 10
0.0
 20
0.0
 30
0.0
  9
$UCSXDIR
 10
1.0
 20
0.0
 30
0.0
  9
$UCSYDIR
 10
0.0
 20
1.0
 30
0.0
  9
$UCSORTHOREF
  2

  9
$UCSORTHOVIEW
 70
     0
  9
$UCSORGTOP
 10
0.0
 20
0.0
 30
0.0
  9
$UCSORGBOTTOM
 10
0.0
 20
0.0
 30
0.0
  9
$UCSORGLEFT
 10
0.0
 20
0.0
 30
0.0
  9
$UCSORGRIGHT
 10
0.0
 20
0.0
 30
0.0
  9
$UCSORGFRONT
 10
0.0
 20
0.0
 30
0.0
  9
$UCSORGBACK
 10
0.0
 20
0.0
 30
0.0
  9
$PUCSBASE
  2

  9
$PUCSNAME
  2

  9
$PUCSORG
 10
0.0
 20
0.0
 30
0.0
  9
$PUCSXDIR
 10
1.0
 20
0.0
 30
0.0
  9
$PUCSYDIR
 10
0.0
 20
1.0
 30
0.0
  9
$PUCSORTHOREF
  2

  9
$PUCSORTHOVIEW
 70
     0
  9
$PUCSORGTOP
 10
0.0
 20
0.0
 30
0.0
  9
$PUCSORGBOTTOM
 10
0.0
 20
0.0
 30
0.0
  9
$PUCSORGLEFT
 10
0.0
 20
0.0
 30
0.0
  9
$PUCSORGRIGHT
 10
0.0
 20
0.0
 30
0.0
  9
$PUCSORGFRONT
 10
0.0
 20
0.0
 30
0.0
  9
$PUCSORGBACK
 10
0.0
 20
0.0
 30
0.0
  9
$USERI1
 70
     0
  9
$USERI2
 70
     0
  9
$USERI3
 70
     0
  9
$USERI4
 70
     0
  9
$USERI5
 70
     0
  9
$USERR1
 40
0.0
  9
$USERR2
 40
0.0
  9
$USERR3
 40
0.0
  9
$USERR4
 40
0.0
  9
$USERR5
 40
0.0
  9
$WORLDVIEW
 70
     1
  9
$SHADEDGE
 70
     3
  9
$SHADEDIF
 70
    70
  9
$TILEMODE
 70
     1
  9
$MAXACTVP
 70
    64
  9
$PINSBASE
 10
0.0
 20
0.0
 30
0.0
  9
$PLIMCHECK
 70
     0
  9
$PEXTMIN
 10
1.000000000000000E+20
 20
1.000000000000000E+20
 30
1.000000000000000E+20
  9
$PEXTMAX
 10
-1.000000000000000E+20
 20
-1.000000000000000E+20
 30
-1.000000000000000E+20
  9
$PLIMMIN
 10
0.0
 20
0.0
  9
$PLIMMAX
 10
12.0
 20
9.0
  9
$UNITMODE
 70
     0
  9
$VISRETAIN
 70
     1
  9
$PLINEGEN
 70
     0
  9
$PSLTSCALE
 70
     1
  9
$TREEDEPTH
 70
  3020
  9
$CMLSTYLE
  2
Standard
  9
$CMLJUST
 70
     0
  9
$CMLSCALE
 40
1.0
  9
$PROXYGRAPHICS
 70
     1
  9
$MEASUREMENT
 70
     0
  9
$CELWEIGHT
370
    -1
  9
$ENDCAPS
280
     0
  9
$JOINSTYLE
280
     0
  9
$LWDISPLAY
290
     0
  9
$INSUNITS
 70
     0
  9
$HYPERLINKBASE
  1

  9
$STYLESHEET
  1
sei_cad.ctb
  9
$XEDIT
290
     1
  9
$CEPSNTYPE
380
     0
  9
$PSTYLEMODE
290
     1
  9
$FINGERPRINTGUID
  2
{05D3233B-3F7F-40B0-B5CA-8039F137777E}
  9
$VERSIONGUID
  2
{3550D78E-5960-4488-9D96-3A257299ECB9}
  9
$EXTNAMES
290
     1
  9
$PSVPSCALE
 40
0.0
  9
$OLESTARTUP
290
     0
  0
ENDSEC
  0
SECTION
  2
CLASSES
  0
CLASS
  1
ACDBDICTIONARYWDFLT
  2
AcDbDictionaryWithDefault
  3
ObjectDBX Classes
 90
        0
280
     0
281
     0
  0
CLASS
  1
TABLESTYLE
  2
AcDbTableStyle
  3
ObjectDBX Classes
 90
     2047
280
     0
281
     0
  0
CLASS
  1
ACME_DOCUMENT
  2
AcMeDbDoc
  3
AcMeServices
 90
        0
280
     1
281
     0
  0
CLASS
  1
ACMESCOPE
  2
AcMeScope
  3
AcMeServices
 90
        0
280
     1
281
     0
  0
CLASS
  1
ACMECOMMANDHISTORY
  2
AcMeCommandHistory
  3
AcMeServices
 90
        0
280
     1
281
     0
  0
CLASS
  1
ACIMSYSVARMAN
  2
AcImSysVarManager
  3
AcMeServices
 90
        0
280
     1
281
     0
  0
CLASS
  1
ACIMINTSYSVAR
  2
AcImIntSysVar
  3
AcMeServices
 90
        0
280
     1
281
     0
  0
CLASS
  1
ACMEDRAWINGMAN
  2
AcMeDrawingMan
  3
AcMeServices
 90
        0
280
     1
281
     0
  0
CLASS
  1
ACMEVIEW
  2
AcMeView
  3
AcMeServices
 90
        0
280
     1
281
     0
  0
CLASS
  1
ACDBENTITYCACHE
  2
AcMeEntityCache
  3
AcMeServices
 90
        0
280
     1
281
     0
  0
CLASS
  1
GSMANAGER
  2
AcMeGSManager
  3
AcMeServices
 90
        0
280
     1
281
     0
  0
CLASS
  1
AMDTINTERNALREACTOR
  2
AmdtInternalReactor
  3
AcMeServices
 90
        0
280
     1
281
     0
  0
CLASS
  1
ACMESTATEMGR
  2
AcMeStateMgr
  3
AcMeServices
 90
        0
280
     1
281
     0
  0
CLASS
  1
ACGREFMASTER
  2
AcGrefMaster
  3
AcAttribServices
 90
        0
280
     1
281
     0
  0
CLASS
  1
AM_DRAWING_MGR
  2
AcDmDwgMgr
  3
AcMechDwgViewMgmt
 90
        0
280
     1
281
     0
  0
CLASS
  1
AM_DWG_DOCUMENT
  2
AcDmDwgDocument
  3
AcMechDwgViewMgmt
 90
        0
280
     1
281
     0
  0
CLASS
  1
AM_DWG_SHEET
  2
AcDmSheet
  3
AcMechDwgViewMgmt
 90
        0
280
     1
281
     0
  0
CLASS
  1
AM_VIEWDIMPARMAP
  2
AcDmViewDimParMap
  3
AcMechDwgViewMgmt
 90
        0
280
     1
281
     0
  0
CLASS
  1
ACIMREALSYSVAR
  2
AcImRealSysVar
  3
AcMeServices
 90
        0
280
     1
281
     0
  0
CLASS
  1
AM_DWGMGR_NAME
  2
AcDmDwgMgrName
  3
AcMechDwgViewMgmt
 90
        0
280
     1
281
     0
  0
CLASS
  1
ACME_DATABASE
  2
AcMeDbDatabase
  3
AcMeServices
 90
        0
280
     1
281
     0
  0
CLASS
  1
ACRFINSADJUSTERMGR
  2
AcRfInsAdjusterMgr
  3
AcMeServices
 90
        0
280
     1
281
     0
  0
CLASS
  1
ACGREFACADMASTER
  2
AcGrefacadMaster
  3
AcGrefServices
 90
        0
280
     1
281
     0
  0
CLASS
  1
AMDTMENUSTATEMGR
  2
AmdtMenuStateMgr
  3
McadcomServices
 90
        0
280
     1
281
     0
  0
CLASS
  1
AMDTMCOMMENUSTATE
  2
AmdtMcomMenuState
  3
McadcomServices
 90
        0
280
     1
281
     0
  0
CLASS
  1
AMIMASTER
  2
AmiMaster
  3
AmiServices
 90
        0
280
     1
281
     0
  0
CLASS
  1
AMGSETTINGSOBJ
  2
AmgSettingsObj
  3
"AcadM|Product Description: AutoCAD Mechanical 2000|Company: Autodesk"
 90
        0
280
     1
281
     0
  0
CLASS
  1
MAPIAMMOUDLE
  2
MApiAmModule
  3
MApiAmServices
 90
        0
280
     1
281
     0
  0
CLASS
  1
AMDTADMENUSTATE
  2
AmdtAdMenuState
  3
DesignerServices
 90
        0
280
     1
281
     0
  0
CLASS
  1
ADAPPL
  2
AcAdAppl
  3
DesignerServices
 90
        0
280
     1
281
     0
  0
CLASS
  1
DEPMGR
  2
AcAdDepMgr
  3
DesignerServices
 90
        0
280
     1
281
     0
  0
CLASS
  1
PARAMMGR
  2
AcAdParamMgr
  3
DesignerServices
 90
        0
280
     1
281
     0
  0
CLASS
  1
PARAMSCOPE
  2
AcAdParamScope
  3
DesignerServices
 90
        0
280
     1
281
     0
  0
CLASS
  1
NAMEDAPPL
  2
AcAdNamedAppl
  3
DesignerServices
 90
        0
280
     1
281
     0
  0
CLASS
  1
AMDTDMMENUSTATE
  2
AmdtDmMenuState
  3
AcMechDwgViewMgmt
 90
        0
280
     1
281
     0
  0
CLASS
  1
AMDTAMMENUSTATE
  2
AmdtAmMenuState
  3
DesignerAssemblies
 90
        0
280
     1
281
     0
  0
CLASS
  1
ACIMSTRSYSVAR
  2
AcImStrSysVar
  3
AcMeServices
 90
        0
280
     1
281
     0
  0
CLASS
  1
ACAMPROJECT
  2
AcAmProject
  3
DesignerAssemblies
 90
        0
280
     1
281
     0
  0
CLASS
  1
ACAMGRCOMPDEF
  2
AcAmGrCompDef
  3
DesignerAssemblies
 90
        0
280
     1
281
     0
  0
CLASS
  1
ACCMCONTEXT
  2
AcCmContext
  3
DesignerAssemblies
 90
        0
280
     1
281
     0
  0
CLASS
  1
ACAMCOMPDEF
  2
AcAmCompDef
  3
DesignerAssemblies
 90
        0
280
     1
281
     0
  0
CLASS
  1
ACAMCOMPDEFMGR
  2
AcAmCompDefMgr
  3
DesignerAssemblies
 90
        0
280
     1
281
     0
  0
CLASS
  1
AMCONTEXTMGR
  2
AcAmContextMgr
  3
DesignerAssemblies
 90
        0
280
     1
281
     0
  0
CLASS
  1
ACAMCONTEXTMODELER
  2
AcAmContextModeler
  3
DesignerAssemblies
 90
        0
280
     1
281
     0
  0
CLASS
  1
ACMDATADICTIONARY
  2
AcmDataDictionary
  3
"AcmSymBB|Product Description: AutoCAD Mechanical 2004 DX|Company: Autodesk"
 90
        0
280
     1
281
     0
  0
CLASS
  1
CATALOGSTATE
  2
AcAmCatalogState
  3
DesignerAssemblies
 90
        0
280
     1
281
     0
  0
CLASS
  1
ACAMGRCOMPDEFSET
  2
AcAmGrCompDefSet
  3
DesignerAssemblies
 90
        0
280
     1
281
     0
  0
CLASS
  1
AMDTBROWSERDBTAB
  2
AmdtBrowserDbTab
  3
McadcomServices
 90
        0
280
     1
281
     0
  0
CLASS
  1
CBROWSERAPPOBJECT
  2
CBrowserAppObject
  3
McadcomServices
 90
        0
280
     1
281
     0
  0
CLASS
  1
DM_PLACEHOLDER
  2
AcDmSelsetPlaceholder
  3
AcMechDwgViewMgmt
 90
        0
280
     1
281
     0
  0
CLASS
  1
ACMSTANDARDANSI
  2
AcmStandardANSI
  3
"Amdt_StdImp|Product Description: AutoCAD Mechanical 2004 DX|Company: Autodesk"
 90
        0
280
     1
281
     0
  0
CLASS
  1
AMGOBJPROPCFG
  2
AmgObjPropCfg
  3
"AmgLay|Product Description: AutoCAD Mechanical 2000|Company: Autodesk"
 90
        1
280
     1
281
     0
  0
CLASS
  1
ACMSURFSTANDARDANSI
  2
AcmSurfTextStdANSI
  3
"Amdt_StdImp|Product Description: AutoCAD Mechanical 2004 DX|Company: Autodesk"
 90
        0
280
     1
281
     0
  0
CLASS
  1
ACMFCFSTANDARDANSI
  2
AcmFCFStdANSI
  3
"Amdt_StdImp|Product Description: AutoCAD Mechanical 2004 DX|Company: Autodesk"
 90
        0
280
     1
281
     0
  0
CLASS
  1
ACMWELDSTANDARDANSI
  2
AcmWeldingStdANSI
  3
"Amdt_StdImp|Product Description: AutoCAD Mechanical 2004 DX|Company: Autodesk"
 90
        0
280
     1
281
     0
  0
CLASS
  1
ACMIDSTANDARDANSI
  2
AcmIdStdANSI
  3
"Amdt_StdImp|Product Description: AutoCAD Mechanical 2004 DX|Company: Autodesk"
 90
        0
280
     1
281
     0
  0
CLASS
  1
ACMDATUMSTANDARDANSI
  2
AcmDatumStdANSI
  3
"Amdt_StdImp|Product Description: AutoCAD Mechanical 2004 DX|Company: Autodesk"
 90
        0
280
     1
281
     0
  0
CLASS
  1
ACMBOMSTANDARDANSI
  2
AcmBOMStdANSI
  3
"Amdt_StdImp|Product Description: AutoCAD Mechanical 2004 DX|Company: Autodesk"
 90
        0
280
     1
281
     0
  0
CLASS
  1
ACMDETAILSTANDARDANSI
  2
AmdtDetailSymStdANSI
  3
"Amdt_StdImp|Product Description: AutoCAD Mechanical 2004 DX|Company: Autodesk"
 90
        0
280
     1
281
     0
  0
CLASS
  1
ACMSECTIONSTANDARDANSI
  2
AmdtSectionSymStdANSI
  3
"Amdt_StdImp|Product Description: AutoCAD Mechanical 2004 DX|Company: Autodesk"
 90
        0
280
     1
281
     0
  0
CLASS
  1
ACMCENTERLINESTANDARDANSI
  2
AmdtCenterLineStdANSI
  3
"Amdt_StdImp|Product Description: AutoCAD Mechanical 2004 DX|Company: Autodesk"
 90
        0
280
     1
281
     0
  0
CLASS
  1
ACMTHREADLINESTANDARDANSI
  2
AmdtThreadLineStdANSI
  3
"Amdt_StdImp|Product Description: AutoCAD Mechanical 2004 DX|Company: Autodesk"
 90
        0
280
     1
281
     0
  0
CLASS
  1
ACMNOTESTANDARDANSI
  2
AmdtNoteStdANSI
  3
"Amdt_StdImp|Product Description: AutoCAD Mechanical 2004 DX|Company: Autodesk"
 90
        0
280
     1
281
     0
  0
CLASS
  1
AMDTNOTETEMPLATEDB
  2
AmdtNoteTemplateDB
  3
AMDT_STDIMP_MODULE_NAME
 90
        0
280
     1
281
     0
  0
CLASS
  1
ACAMGLAYSTD
  2
AcAmgLayStd
  3
"AcAmgLayStd|Product Description: AutoCAD Mechanical 2000|Company: Autodesk"
 90
        0
280
     1
281
     0
  0
CLASS
  1
ACAMGDIMSTD
  2
AcAmgDimStd
  3
"AcAmgDimStd|Product Description: AutoCAD Mechanical 2000|Company: Autodesk"
 90
        0
280
     1
281
     0
  0
CLASS
  1
ACAMGHOLECHARTSTDANSI
  2
AcAmgHoleChartStdANSI
  3
ACMSYMBB_MODULE_NAME
 90
        0
280
     1
281
     0
  0
CLASS
  1
ACAMGTITLESTD
  2
AcAmgTitleStd
  3
"TITLEAPP"
 90
        0
280
     1
281
     0
  0
CLASS
  1
ACAMGFILTERDAT
  2
AcAmgFilterDat
  3
"AcadM|Product Description: AutoCAD Mechanical 2000|Company: Autodesk"
 90
        0
280
     1
281
     0
  0
CLASS
  1
DICTIONARYVAR
  2
AcDbDictionaryVar
  3
ObjectDBX Classes
 90
        0
280
     0
281
     0
  0
CLASS
  1
AMDTNOTE
  2
AmdtNote
  3
"AcmSymBB|Product Description: AutoCAD Mechanical 2004 DX|Company: Autodesk"
 90
     1023
280
     1
281
     1
  0
CLASS
  1
ACMSTANDARDJIS
  2
AcmStandardJIS
  3
"Amdt_StdImp|Product Description: AutoCAD Mechanical 2004 DX|Company: Autodesk"
 90
        0
280
     1
281
     0
  0
CLASS
  1
ACMSURFSTANDARDJIS
  2
AcmSurfTextStdJIS
  3
"Amdt_StdImp|Product Description: AutoCAD Mechanical 2004 DX|Company: Autodesk"
 90
        0
280
     1
281
     0
  0
CLASS
  1
ACMFCFSTANDARDJIS
  2
AcmFCFStdJIS
  3
"Amdt_StdImp|Product Description: AutoCAD Mechanical 2004 DX|Company: Autodesk"
 90
        0
280
     1
281
     0
  0
CLASS
  1
ACMWELDSTANDARDJIS
  2
AcmWeldingStdJIS
  3
"Amdt_StdImp|Product Description: AutoCAD Mechanical 2004 DX|Company: Autodesk"
 90
        0
280
     1
281
     0
  0
CLASS
  1
ACMIDSTANDARDJIS
  2
AcmIdStdJIS
  3
"Amdt_StdImp|Product Description: AutoCAD Mechanical 2004 DX|Company: Autodesk"
 90
        0
280
     1
281
     0
  0
CLASS
  1
ACMDATUMSTANDARDJIS
  2
AcmDatumStdJIS
  3
"Amdt_StdImp|Product Description: AutoCAD Mechanical 2004 DX|Company: Autodesk"
 90
        0
280
     1
281
     0
  0
CLASS
  1
ACMBOMSTANDARDJIS
  2
AcmBOMStdJIS
  3
"Amdt_StdImp|Product Description: AutoCAD Mechanical 2004 DX|Company: Autodesk"
 90
        0
280
     1
281
     0
  0
CLASS
  1
ACMDETAILSTANDARDJIS
  2
AmdtDetailSymStdJIS
  3
"Amdt_StdImp|Product Description: AutoCAD Mechanical 2004 DX|Company: Autodesk"
 90
        0
280
     1
281
     0
  0
CLASS
  1
ACMSECTIONSTANDARDJIS
  2
AmdtSectionSymStdJIS
  3
"Amdt_StdImp|Product Description: AutoCAD Mechanical 2004 DX|Company: Autodesk"
 90
        0
280
     1
281
     0
  0
CLASS
  1
ACMCENTERLINESTANDARDJIS
  2
AmdtCenterLineStdJIS
  3
"Amdt_StdImp|Product Description: AutoCAD Mechanical 2004 DX|Company: Autodesk"
 90
        0
280
     1
281
     0
  0
CLASS
  1
ACMTHREADLINESTANDARDJIS
  2
AmdtThreadLineStdJIS
  3
"Amdt_StdImp|Product Description: AutoCAD Mechanical 2004 DX|Company: Autodesk"
 90
        0
280
     1
281
     0
  0
CLASS
  1
ACMNOTESTANDARDJIS
  2
AmdtNoteStdJIS
  3
"Amdt_StdImp|Product Description: AutoCAD Mechanical 2004 DX|Company: Autodesk"
 90
        0
280
     1
281
     0
  0
CLASS
  1
ACAMGHOLECHARTSTDJIS
  2
AcAmgHoleChartStdJIS
  3
ACMSYMBB_MODULE_NAME
 90
        0
280
     1
281
     0
  0
CLASS
  1
ACMDATAENTRYBLOCK
  2
AcmDataEntryBlock
  3
"AcmSymBB|Product Description: AutoCAD Mechanical 2004 DX|Company: Autodesk"
 90
        0
280
     1
281
     0
  0
CLASS
  1
ACDBPLACEHOLDER
  2
AcDbPlaceHolder
  3
ObjectDBX Classes
 90
        0
280
     0
281
     0
  0
CLASS
  1
LAYOUT
  2
AcDbLayout
  3
ObjectDBX Classes
 90
        0
280
     0
281
     0
  0
ENDSEC
  0
SECTION
  2
TABLES
  0
TABLE
  2
VPORT
  5
8
330
0
100
AcDbSymbolTable
 70
     3
  0
VPORT
  5
77C
330
8
100
AcDbSymbolTableRecord
100
AcDbViewportTableRecord
  2
*Active
 70
     0
 10
0.0
 20
0.0
 11
1.0
 21
1.0
 12
27.37822464952353
 22
-15.68406612609623
 13
0.0
 23
0.0
 14
0.5
 24
0.5
 15
0.0
 25
0.0
 16
0.0
 26
0.0
 36
1.0
 17
0.0
 27
0.0
 37
0.0
 40
241.5665878918792
 41
1.372924648786718
 42
50.0
 43
0.0
 44
0.0
 50
0.0
 51
0.0
 71
     0
 72
 10000
 73
     1
 74
     1
 75
     0
 76
     0
 77
     0
 78
     0
281
     0
 65
     0
110
0.0
120
0.0
130
0.0
111
1.0
121
0.0
131
0.0
112
0.0
122
1.0
132
0.0
 79
     0
146
0.0
  0
ENDTAB
  0
TABLE
  2
LTYPE
  5
5
330
0
100
AcDbSymbolTable
 70
    14
  0
LTYPE
  5
13
330
5
100
AcDbSymbolTableRecord
100
AcDbLinetypeTableRecord
  2
ByBlock
 70
     0
  3

 72
    65
 73
     0
 40
0.0
  0
LTYPE
  5
14
330
5
100
AcDbSymbolTableRecord
100
AcDbLinetypeTableRecord
  2
ByLayer
 70
     0
  3

 72
    65
 73
     0
 40
0.0
  0
LTYPE
  5
15
330
5
100
AcDbSymbolTableRecord
100
AcDbLinetypeTableRecord
  2
CONTINUOUS
 70
     0
  3
solid line
 72
    65
 73
     0
 40
0.0
  0
LTYPE
  5
27
330
5
100
AcDbSymbolTableRecord
100
AcDbLinetypeTableRecord
  2
DASHED
 70
     0
  3
-- -- -- -- -- -- -- -- -- -- 
 72
    65
 73
     2
 40
3.0
 49
2.0
 74
     0
 49
-1.0
 74
     0
  0
LTYPE
  5
28
330
5
100
AcDbSymbolTableRecord
100
AcDbLinetypeTableRecord
  2
CENTER
 70
     0
  3
--- - --- - --- - --- - --- - 
 72
    65
 73
     4
 40
6.0
 49
3.0
 74
     0
 49
-1.0
 74
     0
 49
1.0
 74
     0
 49
-1.0
 74
     0
  0
LTYPE
  5
29
330
5
100
AcDbSymbolTableRecord
100
AcDbLinetypeTableRecord
  2
PHANTOM
 70
     0
  3
----- - - ----- - - ----- - - 
 72
    65
 73
     6
 40
8.0
 49
3.0
 74
     0
 49
-1.0
 74
     0
 49
1.0
 74
     0
 49
-1.0
 74
     0
 49
1.0
 74
     0
 49
-1.0
 74
     0
  0
LTYPE
  5
365
330
5
100
AcDbSymbolTableRecord
100
AcDbLinetypeTableRecord
  2
HIDDEN
 70
     0
  3
Hidden __ __ __ __ __ __ __ __ __ __ __ __ __ _
 72
    65
 73
     2
 40
0.375
 49
0.25
 74
     0
 49
-0.125
 74
     0
  0
LTYPE
  5
366
330
5
100
AcDbSymbolTableRecord
100
AcDbLinetypeTableRecord
  2
PHANTOM2
 70
     0
  3
Phantom (.5x) ___ _ _ ___ _ _ ___ _ _ ___ _ _
 72
    65
 73
     6
 40
1.25
 49
0.625
 74
     0
 49
-0.125
 74
     0
 49
0.125
 74
     0
 49
-0.125
 74
     0
 49
0.125
 74
     0
 49
-0.125
 74
     0
  0
LTYPE
  5
3A1
330
5
100
AcDbSymbolTableRecord
100
AcDbLinetypeTableRecord
  2
Amconstr
 70
     0
  3
_______________________
 72
    65
 73
     2
 40
9999.0
 49
9999.0
 74
     0
 49
0.0
 74
     0
  0
LTYPE
  5
3A7
330
5
100
AcDbSymbolTableRecord
100
AcDbLinetypeTableRecord
  2
CENTER2
 70
     0
  3
Center (.5x) ___ _ ___ _ ___ _ ___ _ ___ _ ___
 72
    65
 73
     4
 40
1.125
 49
0.75
 74
     0
 49
-0.125
 74
     0
 49
0.125
 74
     0
 49
-0.125
 74
     0
  0
LTYPE
  5
3A8
330
5
100
AcDbSymbolTableRecord
100
AcDbLinetypeTableRecord
  2
HIDDEN2
 70
     0
  3
Hidden (.5x) _ _ _ _ _ _ _ _ _ _ _ _ _ _ _ _ _
 72
    65
 73
     2
 40
0.1875
 49
0.125
 74
     0
 49
-0.0625
 74
     0
  0
LTYPE
  5
3A9
330
5
100
AcDbSymbolTableRecord
100
AcDbLinetypeTableRecord
  2
Amzigzag2
 70
     0
  3
/\/-/\/-/\/-/\/-/\/-/\/
 72
    65
 73
     2
 40
0.4401
 49
0.0001
 74
     4
 75
   135
340
3A5
 46
0.0016
 50
0.0
 44
0.0
 45
0.0
 49
-0.44
 74
     0
  0
LTYPE
  5
3B7
330
5
100
AcDbSymbolTableRecord
100
AcDbLinetypeTableRecord
  2
ACANSTGB
 70
     0
  3
__ . . __ . .
 72
    65
 73
     6
 40
0.35433070866
 49
0.15748031496
 74
     0
 49
-0.03937007874
 74
     0
 49
0.03937007874
 74
     0
 49
-0.03937007874
 74
     0
 49
0.03937007874
 74
     0
 49
-0.03937007874
 74
     0
  0
LTYPE
  5
3B8
330
5
100
AcDbSymbolTableRecord
100
AcDbLinetypeTableRecord
  2
ACANSTGL
 70
     0
  3
_ _ _ _ _
 72
    65
 73
     2
 40
0.11811023622
 49
0.07874015748
 74
     0
 49
-0.03937007874
 74
     0
  0
LTYPE
  5
583
330
5
100
AcDbSymbolTableRecord
100
AcDbLinetypeTableRecord
  2
ACJISTGB
 70
     0
  3
__ . . __ . .
 72
    65
 73
     6
 40
9.0
 49
4.0
 74
     0
 49
-1.0
 74
     0
 49
1.0
 74
     0
 49
-1.0
 74
     0
 49
1.0
 74
     0
 49
-1.0
 74
     0
  0
LTYPE
  5
584
330
5
100
AcDbSymbolTableRecord
100
AcDbLinetypeTableRecord
  2
ACJISTGL
 70
     0
  3
_ _ _ _ _
 72
    65
 73
     2
 40
3.0
 49
2.0
 74
     0
 49
-1.0
 74
     0
  0
ENDTAB
  0
TABLE
  2
LAYER
  5
2
102
{ACAD_XDICTIONARY
360
592
102
}
330
0
100
AcDbSymbolTable
 70
     8
  0
LAYER
  5
10
330
2
100
AcDbSymbolTableRecord
100
AcDbLayerTableRecord
  2
0
 70
     0
 62
     7
  6
CONTINUOUS
370
    -3
390
F
  0
LAYER
  5
2A
330
2
100
AcDbSymbolTableRecord
100
AcDbLayerTableRecord
  2
1
 70
     0
 62
     7
  6
CONTINUOUS
370
    -3
390
F
  0
LAYER
  5
2B
330
2
100
AcDbSymbolTableRecord
100
AcDbLayerTableRecord
  2
2
 70
     0
 62
     7
  6
CONTINUOUS
370
    -3
390
F
  0
LAYER
  5
2D
330
2
100
AcDbSymbolTableRecord
100
AcDbLayerTableRecord
  2
6
 70
     0
 62
     7
  6
CONTINUOUS
370
    -3
390
F
  0
LAYER
  5
31
330
2
100
AcDbSymbolTableRecord
100
AcDbLayerTableRecord
  2
DEFPOINTS
 70
     0
 62
    -7
  6
CONTINUOUS
290
     0
370
    -3
390
F
  0
LAYER
  5
41E
330
2
100
AcDbSymbolTableRecord
100
AcDbLayerTableRecord
  2
AM_5
 70
     0
 62
     3
  6
CONTINUOUS
370
    15
390
F
  0
LAYER
  5
586
330
2
100
AcDbSymbolTableRecord
100
AcDbLayerTableRecord
  2
AM_6
 70
     0
 62
     2
  6
CONTINUOUS
370
    30
390
F
  0
LAYER
  5
6FA
330
2
100
AcDbSymbolTableRecord
100
AcDbLayerTableRecord
  2
AM_CL
 70
     0
 62
     1
  6
Amconstr
370
    15
390
F
  0
ENDTAB
  0
TABLE
  2
STYLE
  5
3
330
0
100
AcDbSymbolTable
 70
     6
  0
STYLE
  5
11
330
3
100
AcDbSymbolTableRecord
100
AcDbTextStyleTableRecord
  2
STANDARD
 70
     0
 40
0.0
 41
1.0
 50
0.0
 71
     0
 42
3.0
  3
txt
  4

  0
STYLE
  5
3A5
330
3
100
AcDbSymbolTableRecord
100
AcDbTextStyleTableRecord
  2

 70
     1
 40
0.0
 41
1.0
 50
0.0
 71
     0
 42
3.0
  3
ltypeshp.shx
  4

  0
STYLE
  5
3AA
330
3
100
AcDbSymbolTableRecord
100
AcDbTextStyleTableRecord
  2
ACANSTS
 70
     0
 40
1.0
 41
1.0
 50
0.0
 71
     0
 42
3.0
  3
romans.shx
  4
extfont.shx
  0
STYLE
  5
3B6
330
3
100
AcDbSymbolTableRecord
100
AcDbTextStyleTableRecord
  2
ACANSGDT
 70
     0
 40
0.0
 41
1.0
 50
0.0
 71
     0
 42
3.0
  3
amgdtans.shx
  4

  0
STYLE
  5
587
330
3
100
AcDbSymbolTableRecord
100
AcDbTextStyleTableRecord
  2
ACJISTS
 70
     0
 40
1.0
 41
1.0
 50
0.0
 71
     0
 42
2.5
  3
isocp.shx
  4
bigfont.shx
  0
STYLE
  5
588
330
3
100
AcDbSymbolTableRecord
100
AcDbTextStyleTableRecord
  2
ACJISGDT
 70
     0
 40
0.0
 41
1.0
 50
0.0
 71
     0
 42
2.5
  3
amgdt.shx
  4

  0
ENDTAB
  0
TABLE
  2
VIEW
  5
6
330
0
100
AcDbSymbolTable
 70
     0
  0
ENDTAB
  0
TABLE
  2
UCS
  5
7
330
0
100
AcDbSymbolTable
 70
     0
  0
ENDTAB
  0
TABLE
  2
APPID
  5
9
330
0
100
AcDbSymbolTable
 70
     9
  0
APPID
  5
12
330
9
100
AcDbSymbolTableRecord
100
AcDbRegAppTableRecord
  2
ACAD
 70
     0
  0
APPID
  5
338
330
9
100
AcDbSymbolTableRecord
100
AcDbRegAppTableRecord
  2
MCAD_NO_VIS
 70
     0
  0
APPID
  5
339
330
9
100
AcDbSymbolTableRecord
100
AcDbRegAppTableRecord
  2
ACAD_TEMP_GRAPHIC
 70
     0
  0
APPID
  5
368
330
9
100
AcDbSymbolTableRecord
100
AcDbRegAppTableRecord
  2
AD_DRAW
 70
     0
  0
APPID
  5
36B
330
9
100
AcDbSymbolTableRecord
100
AcDbRegAppTableRecord
  2
ACATTRIBSERVICES
 70
     0
  0
APPID
  5
38D
330
9
100
AcDbSymbolTableRecord
100
AcDbRegAppTableRecord
  2
DESIGNERASSEMBLIES
 70
     0
  0
APPID
  5
393
330
9
100
AcDbSymbolTableRecord
100
AcDbRegAppTableRecord
  2
ACADM_DIM_EDIT
 70
     0
  0
APPID
  5
394
330
9
100
AcDbSymbolTableRecord
100
AcDbRegAppTableRecord
  2
AMDT_DM_ADJ
 70
     0
  0
APPID
  5
3D7
330
9
100
AcDbSymbolTableRecord
100
AcDbRegAppTableRecord
  2
ACAD_PSEXT
 70
     0
  0
ENDTAB
  0
TABLE
  2
DIMSTYLE
  5
A
330
0
100
AcDbSymbolTable
 70
    17
100
AcDbDimStyleTable
  0
DIMSTYLE
105
335
330
A
100
AcDbSymbolTableRecord
100
AcDbDimStyleTableRecord
  2
Standard
 70
     0
340
11
  0
DIMSTYLE
105
3C3
330
A
100
AcDbSymbolTableRecord
100
AcDbDimStyleTableRecord
  2
AM_ANSI
 70
     0
  4
mm
 41
0.1
 42
0.05
 43
0.5
 44
0.1
 47
0.1
 48
0.1
 78
     7
 79
     2
140
0.12
141
0.0
146
0.71
147
0.06
176
   256
177
   256
178
     2
274
     4
284
     7
340
11
371
    -1
372
    -1
  0
DIMSTYLE
105
3C6
330
A
100
AcDbSymbolTableRecord
100
AcDbDimStyleTableRecord
  2
AM_ANSI$7
 70
     0
  4
mm
 41
0.1
 42
0.05
 43
0.5
 44
0.1
 47
0.1
 48
0.1
 78
     7
 79
     2
140
0.24
141
0.0
146
0.71
147
0.06
176
   256
177
   256
178
     2
274
     4
284
     7
340
11
371
    -1
372
    -1
  0
DIMSTYLE
105
3C7
330
A
100
AcDbSymbolTableRecord
100
AcDbDimStyleTableRecord
  2
AM_ANSI$SF
 70
     0
  4
mm
 41
0.1
 42
0.05
 43
0.5
 44
0.1
 47
0.1
 48
0.1
 75
     1
 76
     1
 78
     7
 79
     2
140
0.12
141
0.0
146
0.71
147
0.06
176
   256
177
   256
178
     2
274
     4
284
     7
340
11
371
    -1
372
    -1
  0
DIMSTYLE
105
3CC
330
A
100
AcDbSymbolTableRecord
100
AcDbDimStyleTableRecord
  2
AM_ANSI$SH
 70
     0
  4
mm
 41
0.1
 42
0.05
 43
0.5
 44
0.1
 47
0.1
 48
0.1
 75
     1
 76
     1
 78
     7
 79
     2
140
0.12
141
0.0
146
0.71
147
0.06
173
     1
176
   256
177
   256
178
     2
274
     4
284
     7
340
11
343
3C8
371
    -1
372
    -1
  0
DIMSTYLE
105
42A
102
{ACAD_REACTORS
330
42E
330
45D
330
48E
330
4C1
330
52D
330
551
102
}
330
A
100
AcDbSymbolTableRecord
100
AcDbDimStyleTableRecord
  2
Standard$0
 70
     0
340
11
  0
DIMSTYLE
105
4E7
330
A
100
AcDbSymbolTableRecord
100
AcDbDimStyleTableRecord
  2
Standard$4
 70
     0
340
11
  0
DIMSTYLE
105
4FB
102
{ACAD_REACTORS
330
4FC
102
}
330
A
100
AcDbSymbolTableRecord
100
AcDbDimStyleTableRecord
  2
Standard$3
 70
     0
340
11
  0
DIMSTYLE
105
589
330
A
100
AcDbSymbolTableRecord
100
AcDbDimStyleTableRecord
  2
AM_JIS
 70
     0
  4
"
 41
2.5
 42
0.0
 43
10.0
 44
1.0
 47
0.1
 48
0.1000000001
 73
     0
 74
     0
 77
     3
 78
     1
 79
     2
140
3.8
141
0.0
143
0.0393701
146
0.71
147
1.5
172
     1
176
   256
177
   256
178
     2
179
     1
271
     2
272
     2
275
     1
283
     0
284
     8
340
11
341
57D
342
57D
371
    -1
372
    -1
  0
DIMSTYLE
105
58A
330
A
100
AcDbSymbolTableRecord
100
AcDbDimStyleTableRecord
  2
AM_JIS$3
 70
     0
  4
"
 41
2.5
 42
0.0
 43
10.0
 44
1.0
 47
0.1
 48
0.1000000001
 73
     0
 77
     3
 78
     1
 79
     2
140
3.8
141
0.0
143
0.0393701
146
0.71
147
1.5
172
     1
176
   256
177
   256
178
     2
179
     1
271
     2
272
     2
275
     1
283
     0
284
     8
288
     1
289
     0
340
11
341
57D
342
57D
371
    -1
372
    -1
  0
DIMSTYLE
105
58B
330
A
100
AcDbSymbolTableRecord
100
AcDbDimStyleTableRecord
  2
AM_JIS$4
 70
     0
  4
"
 41
2.5
 42
0.0
 43
10.0
 44
1.0
 47
0.1
 48
0.1000000001
 73
     0
 77
     3
 78
     1
 79
     2
140
3.8
141
0.0
143
0.0393701
146
0.71
147
1.5
172
     1
176
   256
177
   256
178
     2
179
     1
271
     2
272
     2
275
     1
283
     0
284
     8
288
     1
289
     0
340
11
341
57D
342
57D
371
    -1
372
    -1
  0
DIMSTYLE
105
58C
330
A
100
AcDbSymbolTableRecord
100
AcDbDimStyleTableRecord
  2
AM_JIS$6
 70
     0
  4
"
 41
2.5
 42
0.0
 43
10.0
 44
1.0
 47
0.1
 48
0.1000000001
 73
     0
 74
     0
 78
     1
 79
     2
140
3.8
141
0.0
143
0.0393701
146
0.71
147
1.5
172
     1
176
   256
177
   256
178
     2
179
     1
271
     2
272
     2
275
     1
283
     0
284
     8
340
11
341
57D
342
57D
371
    -1
372
    -1
  0
DIMSTYLE
105
58D
330
A
100
AcDbSymbolTableRecord
100
AcDbDimStyleTableRecord
  2
AM_JIS$7
 70
     0
  4
"
 41
2.5
 42
0.0
 43
10.0
 44
1.0
 47
0.1
 48
0.1000000001
 73
     0
 74
     0
 77
     3
 78
     1
 79
     2
140
5.0
141
0.0
143
0.0393701
146
0.71
147
1.5
172
     1
176
   256
177
   256
178
     2
179
     1
271
     2
272
     2
275
     1
283
     0
284
     8
340
11
341
57D
342
57D
371
    -1
372
    -1
  0
DIMSTYLE
105
58E
330
A
100
AcDbSymbolTableRecord
100
AcDbDimStyleTableRecord
  2
AM_JIS$SF
 70
     0
  4
"
 41
2.5
 42
1.0
 43
10.0
 44
1.0
 47
0.1
 48
0.1
 73
     0
 74
     0
 75
     1
 76
     1
 77
     3
 78
     8
 79
     2
140
3.5
141
0.0
143
0.0393701
146
0.71
147
1.5
176
   256
177
   256
178
     2
271
     2
272
     3
274
     4
340
11
341
57D
342
57D
343
57D
344
57D
371
    -1
372
    -1
  0
DIMSTYLE
105
58F
330
A
100
AcDbSymbolTableRecord
100
AcDbDimStyleTableRecord
  2
AM_JIS$SH
 70
     0
  4
"
 41
2.5
 42
1.0
 43
10.0
 44
1.0
 47
0.1
 48
0.1
 73
     0
 74
     0
 75
     1
 76
     1
 77
     3
 78
     8
 79
     2
140
3.5
141
0.0
143
0.0393701
144
2.0
146
0.71
147
1.5
173
     1
176
   256
177
   256
178
     2
271
     2
272
     3
274
     4
340
11
341
57D
342
57D
343
3C8
344
57D
371
    -1
372
    -1
  0
DIMSTYLE
105
590
330
A
100
AcDbSymbolTableRecord
100
AcDbDimStyleTableRecord
  2
AM_JIS$0
 70
     0
  4
"
 41
2.5
 42
0.0
 43
10.0
 44
1.0
 47
0.1
 48
0.1000000001
 73
     0
 74
     0
 77
     3
 78
     1
 79
     2
140
3.8
141
0.0
143
0.0393701
146
0.71
147
1.5
172
     1
176
     3
177
     3
178
     2
271
     2
272
     2
275
     1
283
     0
284
     8
289
     0
340
11
341
57D
342
57D
371
    13
372
    13
  0
DIMSTYLE
105
591
330
A
100
AcDbSymbolTableRecord
100
AcDbDimStyleTableRecord
  2
AM_JIS$2
 70
     0
  4
"
 41
2.5
 42
0.0
 43
10.0
 44
1.0
 47
0.1
 48
0.1000000001
 73
     0
 74
     0
 77
     3
 78
     1
 79
     2
140
3.8
141
0.0
143
0.0393701
146
0.71
147
1.5
172
     1
176
     3
177
     3
178
     2
271
     2
272
     2
275
     1
283
     0
284
     8
289
     0
340
11
341
57D
342
57D
371
    13
372
    13
  0
ENDTAB
  0
TABLE
  2
BLOCK_RECORD
  5
1
330
0
100
AcDbSymbolTable
 70
    10
  0
BLOCK_RECORD
  5
22
330
1
100
AcDbSymbolTableRecord
100
AcDbBlockTableRecord
  2
*Model_Space
340
25
  0
BLOCK_RECORD
  5
1E
330
1
100
AcDbSymbolTableRecord
100
AcDbBlockTableRecord
  2
*Paper_Space
340
21
  0
BLOCK_RECORD
  5
384
330
1
100
AcDbSymbolTableRecord
100
AcDbBlockTableRecord
  2
*U0
340
0
  0
BLOCK_RECORD
  5
3C8
330
1
100
AcDbSymbolTableRecord
100
AcDbBlockTableRecord
  2
GENAXEH
340
0
  0
BLOCK_RECORD
  5
42F
330
1
100
AcDbSymbolTableRecord
100
AcDbBlockTableRecord
  2
*D2
340
0
  0
BLOCK_RECORD
  5
45E
330
1
100
AcDbSymbolTableRecord
100
AcDbBlockTableRecord
  2
*D3
340
0
  0
BLOCK_RECORD
  5
48F
330
1
100
AcDbSymbolTableRecord
100
AcDbBlockTableRecord
  2
*D4
340
0
  0
BLOCK_RECORD
  5
4C2
330
1
100
AcDbSymbolTableRecord
100
AcDbBlockTableRecord
  2
*D5
340
0
  0
BLOCK_RECORD
  5
4FD
330
1
100
AcDbSymbolTableRecord
100
AcDbBlockTableRecord
  2
*D6
340
0
  0
BLOCK_RECORD
  5
52E
330
1
100
AcDbSymbolTableRecord
100
AcDbBlockTableRecord
  2
*D7
340
0
  0
BLOCK_RECORD
  5
552
330
1
100
AcDbSymbolTableRecord
100
AcDbBlockTableRecord
  2
*D8
340
0
  0
BLOCK_RECORD
  5
57D
330
1
100
AcDbSymbolTableRecord
100
AcDbBlockTableRecord
  2
_Open30
340
0
  0
ENDTAB
  0
ENDSEC
  0
SECTION
  2
BLOCKS
  0
BLOCK
  5
23
330
22
100
AcDbEntity
  8
0
100
AcDbBlockBegin
  2
*Model_Space
 70
     0
 71
     0
 10
0.0
 20
0.0
 30
0.0
  3
*Model_Space
  1

  0
ENDBLK
  5
24
330
22
100
AcDbEntity
  8
0
100
AcDbBlockEnd
  0
BLOCK
  5
1F
330
1E
100
AcDbEntity
 67
     1
  8
0
100
AcDbBlockBegin
  2
*Paper_Space
 70
     0
 71
     0
 10
0.0
 20
0.0
 30
0.0
  3
*Paper_Space
  1

  0
ENDBLK
  5
20
330
1E
100
AcDbEntity
 67
     1
  8
0
100
AcDbBlockEnd
  0
BLOCK
  5
385
330
384
100
AcDbEntity
  8
0
100
AcDbBlockBegin
  2
*U0
 70
     1
 71
     0
 10
0.0
 20
0.0
 30
0.0
  3
*U0
  1

  0
ENDBLK
  5
386
330
384
100
AcDbEntity
  8
0
100
AcDbBlockEnd
  0
BLOCK
  5
3CA
330
3C8
100
AcDbEntity
  8
0
100
AcDbBlockBegin
  2
GENAXEH
 70
     0
 71
     0
 10
0.0
 20
0.0
 30
0.0
  3
GENAXEH
  1

  0
LINE
  5
3C9
330
3C8
100
AcDbEntity
  8
0
100
AcDbLine
 10
-1.0
 20
0.0
 30
0.0
 11
1.0
 21
0.0
 31
0.0
  0
ENDBLK
  5
3CB
330
3C8
100
AcDbEntity
  8
0
100
AcDbBlockEnd
  0
BLOCK
  5
439
330
42F
100
AcDbEntity
  8
0
100
AcDbBlockBegin
  2
*D2
 70
     1
 71
     0
 10
0.0
 20
0.0
 30
0.0
  3
*D2
  1

  0
LINE
  5
71C
330
42F
100
AcDbEntity
  8
AM_5
 62
     0
370
    -2
100
AcDbLine
 10
-0.9999999999999432
 20
0.0000000000000003
 30
0.0
 11
-19.97809217722761
 21
0.0000000000000057
 31
0.0
  0
LINE
  5
71D
330
42F
100
AcDbEntity
  8
AM_5
 62
     0
370
    -2
100
AcDbLine
 10
-0.9999999999998863
 20
-10.0
 30
0.0
 11
-19.97809217722761
 21
-9.999999999999995
 31
0.0
  0
LINE
  5
71E
330
42F
100
AcDbEntity
  8
AM_5
 62
     0
370
    -2
100
AcDbLine
 10
-17.97809217722761
 20
-2.999999999999995
 30
0.0
 11
-17.97809217722761
 21
-6.999999999999995
 31
0.0
  0
SOLID
  5
71F
330
42F
100
AcDbEntity
  8
AM_5
 62
     0
100
AcDbTrace
 10
-18.47809217722761
 20
-2.999999999999995
 30
0.0
 11
-17.47809217722761
 21
-2.999999999999995
 31
0.0
 12
-17.97809217722761
 22
0.0000000000000051
 32
0.0
 13
-17.97809217722761
 23
0.0000000000000051
 33
0.0
  0
SOLID
  5
720
330
42F
100
AcDbEntity
  8
AM_5
 62
     0
100
AcDbTrace
 10
-18.47809217722761
 20
-6.999999999999994
 30
0.0
 11
-17.47809217722761
 21
-6.999999999999995
 31
0.0
 12
-17.97809217722761
 22
-9.999999999999995
 32
0.0
 13
-17.97809217722761
 23
-9.999999999999995
 33
0.0
  0
MTEXT
  5
721
330
42F
100
AcDbEntity
  8
AM_5
 62
     0
100
AcDbMText
 10
-20.56809217722761
 20
-4.999999999999997
 30
0.0
 40
5.0
 41
0.0
 71
     5
 72
     1
  1
\A1;10
 11
6.123031769111886E-17
 21
1.0
 31
0.0
 73
     1
 44
1.0
  0
POINT
  5
722
330
42F
100
AcDbEntity
  8
DEFPOINTS
 62
     0
100
AcDbPoint
 10
0.0000000000000568
 20
0.0
 30
0.0
  0
POINT
  5
723
330
42F
100
AcDbEntity
  8
DEFPOINTS
 62
     0
100
AcDbPoint
 10
0.0000000000001137
 20
-10.0
 30
0.0
  0
POINT
  5
724
330
42F
100
AcDbEntity
  8
DEFPOINTS
 62
     0
100
AcDbPoint
 10
-17.97809217722761
 20
-9.999999999999995
 30
0.0
  0
ENDBLK
  5
43A
330
42F
100
AcDbEntity
  8
0
100
AcDbBlockEnd
  0
BLOCK
  5
468
330
45E
100
AcDbEntity
  8
0
100
AcDbBlockBegin
  2
*D3
 70
     1
 71
     0
 10
0.0
 20
0.0
 30
0.0
  3
*D3
  1

  0
LINE
  5
725
330
45E
100
AcDbEntity
  8
AM_5
 62
     0
370
    -2
100
AcDbLine
 10
20.0
 20
1.5
 30
0.0
 11
20.0
 21
18.12775789837544
 31
0.0
  0
LINE
  5
726
330
45E
100
AcDbEntity
  8
AM_5
 62
     0
370
    -2
100
AcDbLine
 10
0.0000000000000001
 20
1.0
 30
0.0
 11
0.0000000000000011
 21
18.12775789837544
 31
0.0
  0
LINE
  5
727
330
45E
100
AcDbEntity
  8
AM_5
 62
     0
370
    -2
100
AcDbLine
 10
17.0
 20
16.12775789837544
 30
0.0
 11
3.000000000000001
 21
16.12775789837544
 31
0.0
  0
SOLID
  5
728
330
45E
100
AcDbEntity
  8
AM_5
 62
     0
100
AcDbTrace
 10
17.0
 20
16.62775789837544
 30
0.0
 11
17.0
 21
15.62775789837544
 31
0.0
 12
20.0
 22
16.12775789837544
 32
0.0
 13
20.0
 23
16.12775789837544
 33
0.0
  0
SOLID
  5
729
330
45E
100
AcDbEntity
  8
AM_5
 62
     0
100
AcDbTrace
 10
3.000000000000001
 20
16.62775789837544
 30
0.0
 11
3.000000000000001
 21
15.62775789837544
 31
0.0
 12
0.000000000000001
 22
16.12775789837544
 32
0.0
 13
0.000000000000001
 23
16.12775789837544
 33
0.0
  0
MTEXT
  5
72A
330
45E
100
AcDbEntity
  8
AM_5
 62
     0
100
AcDbMText
 10
10.0
 20
18.71775789837544
 30
0.0
 40
5.0
 41
0.0
 71
     5
 72
     1
  1
\A1;20
 73
     1
 44
1.0
  0
POINT
  5
72B
330
45E
100
AcDbEntity
  8
DEFPOINTS
 62
     0
100
AcDbPoint
 10
20.0
 20
0.5
 30
0.0
  0
POINT
  5
72C
330
45E
100
AcDbEntity
  8
DEFPOINTS
 62
     0
100
AcDbPoint
 10
0.0
 20
0.0
 30
0.0
  0
POINT
  5
72D
330
45E
100
AcDbEntity
  8
DEFPOINTS
 62
     0
100
AcDbPoint
 10
0.000000000000001
 20
16.12775789837544
 30
0.0
  0
ENDBLK
  5
469
330
45E
100
AcDbEntity
  8
0
100
AcDbBlockEnd
  0
BLOCK
  5
499
330
48F
100
AcDbEntity
  8
0
100
AcDbBlockBegin
  2
*D4
 70
     1
 71
     0
 10
0.0
 20
0.0
 30
0.0
  3
*D4
  1

  0
LINE
  5
72E
330
48F
100
AcDbEntity
  8
AM_5
 62
     0
370
    -2
100
AcDbLine
 10
70.57473087011732
 20
-20.5
 30
0.0
 11
90.54912792007349
 21
-20.50000000000001
 31
0.0
  0
LINE
  5
72F
330
48F
100
AcDbEntity
  8
AM_5
 62
     0
370
    -2
100
AcDbLine
 10
70.57473087011732
 20
0.4999999999999997
 30
0.0
 11
90.54912792007349
 21
0.499999999999994
 31
0.0
  0
LINE
  5
730
330
48F
100
AcDbEntity
  8
AM_5
 62
     0
370
    -2
100
AcDbLine
 10
88.54912792007349
 20
-2.500000000000005
 30
0.0
 11
88.54912792007349
 21
-17.50000000000001
 31
0.0
  0
LINE
  5
731
330
48F
100
AcDbEntity
  8
AM_5
 62
     0
370
    -2
100
AcDbLine
 10
88.54912792007349
 20
-20.50000000000001
 30
0.0
 11
88.54912792007347
 21
-34.54943190029911
 31
0.0
  0
SOLID
  5
732
330
48F
100
AcDbEntity
  8
AM_5
 62
     0
100
AcDbTrace
 10
88.04912792007349
 20
-2.500000000000005
 30
0.0
 11
89.04912792007349
 21
-2.500000000000006
 31
0.0
 12
88.54912792007349
 22
0.4999999999999947
 32
0.0
 13
88.54912792007349
 23
0.4999999999999947
 33
0.0
  0
SOLID
  5
733
330
48F
100
AcDbEntity
  8
AM_5
 62
     0
100
AcDbTrace
 10
88.04912792007349
 20
-17.50000000000001
 30
0.0
 11
89.04912792007349
 21
-17.50000000000001
 31
0.0
 12
88.54912792007349
 22
-20.50000000000001
 32
0.0
 13
88.54912792007349
 23
-20.50000000000001
 33
0.0
  0
MTEXT
  5
734
330
48F
100
AcDbEntity
  8
AM_5
 62
     0
100
AcDbMText
 10
85.95912792007349
 20
-31.12609856696576
 30
0.0
 40
5.0
 41
0.0
 71
     5
 72
     1
  1
\A1;21
 11
6.123031769111886E-17
 21
1.0
 31
0.0
 73
     1
 44
1.0
  0
POINT
  5
735
330
48F
100
AcDbEntity
  8
DEFPOINTS
 62
     0
100
AcDbPoint
 10
69.57473087011732
 20
-20.5
 30
0.0
  0
POINT
  5
736
330
48F
100
AcDbEntity
  8
DEFPOINTS
 62
     0
100
AcDbPoint
 10
69.57473087011732
 20
0.5
 30
0.0
  0
POINT
  5
737
330
48F
100
AcDbEntity
  8
DEFPOINTS
 62
     0
100
AcDbPoint
 10
88.54912792007349
 20
0.4999999999999947
 30
0.0
  0
ENDBLK
  5
49A
330
48F
100
AcDbEntity
  8
0
100
AcDbBlockEnd
  0
BLOCK
  5
4CC
330
4C2
100
AcDbEntity
  8
0
100
AcDbBlockBegin
  2
*D5
 70
     1
 71
     0
 10
0.0
 20
0.0
 30
0.0
  3
*D5
  1

  0
LINE
  5
738
330
4C2
100
AcDbEntity
  8
AM_5
 62
     0
370
    -2
100
AcDbLine
 10
80.07473087011726
 20
-9.000000000000085
 30
0.0
 11
80.07473087011726
 21
18.78993449045242
 31
0.0
  0
LINE
  5
739
330
4C2
100
AcDbEntity
  8
AM_5
 62
     0
370
    -2
100
AcDbLine
 10
59.07473087011738
 20
-9.000000000000085
 30
0.0
 11
59.07473087011738
 21
18.78993449045242
 31
0.0
  0
LINE
  5
73A
330
4C2
100
AcDbEntity
  8
AM_5
 62
     0
370
    -2
100
AcDbLine
 10
77.07473087011726
 20
16.78993449045242
 30
0.0
 11
62.07473087011738
 21
16.78993449045242
 31
0.0
  0
SOLID
  5
73B
330
4C2
100
AcDbEntity
  8
AM_5
 62
     0
100
AcDbTrace
 10
77.07473087011726
 20
17.28993449045242
 30
0.0
 11
77.07473087011726
 21
16.28993449045242
 31
0.0
 12
80.07473087011726
 22
16.78993449045242
 32
0.0
 13
80.07473087011726
 23
16.78993449045242
 33
0.0
  0
SOLID
  5
73C
330
4C2
100
AcDbEntity
  8
AM_5
 62
     0
100
AcDbTrace
 10
62.07473087011738
 20
17.28993449045242
 30
0.0
 11
62.07473087011738
 21
16.28993449045242
 31
0.0
 12
59.07473087011738
 22
16.78993449045242
 32
0.0
 13
59.07473087011738
 23
16.78993449045242
 33
0.0
  0
MTEXT
  5
73D
330
4C2
100
AcDbEntity
  8
AM_5
 62
     0
100
AcDbMText
 10
69.57473087011732
 20
19.37993449045242
 30
0.0
 40
5.0
 41
0.0
 71
     5
 72
     1
  1
\A1;21
 73
     1
 44
1.0
  0
POINT
  5
73E
330
4C2
100
AcDbEntity
  8
DEFPOINTS
 62
     0
100
AcDbPoint
 10
80.07473087011726
 20
-10.00000000000009
 30
0.0
  0
POINT
  5
73F
330
4C2
100
AcDbEntity
  8
DEFPOINTS
 62
     0
100
AcDbPoint
 10
59.07473087011738
 20
-10.00000000000009
 30
0.0
  0
POINT
  5
740
330
4C2
100
AcDbEntity
  8
DEFPOINTS
 62
     0
100
AcDbPoint
 10
59.07473087011738
 20
16.78993449045242
 30
0.0
  0
ENDBLK
  5
4CD
330
4C2
100
AcDbEntity
  8
0
100
AcDbBlockEnd
  0
BLOCK
  5
506
330
4FD
100
AcDbEntity
  8
0
100
AcDbBlockBegin
  2
*D6
 70
     1
 71
     0
 10
0.0
 20
0.0
 30
0.0
  3
*D6
  1

  0
LINE
  5
741
330
4FD
100
AcDbEntity
  8
AM_5
 62
     0
370
    -2
100
AcDbLine
 10
53.17159478402398
 20
-39.98788742862668
 30
0.0
 11
62.8562513939175
 21
-22.28259066841676
 31
0.0
  0
LINE
  5
742
330
4FD
100
AcDbEntity
  8
AM_5
 62
     0
370
    -2
100
AcDbLine
 10
76.29321034631732
 20
2.282590668416809
 30
0.0
 11
77.73288451978874
 21
4.914574383077557
 31
0.0
  0
MTEXT
  5
743
330
4FD
100
AcDbEntity
  8
AM_5
 62
     0
100
AcDbMText
 10
54.14178167661859
 20
-32.81715651484376
 30
0.0
 40
5.0
 41
0.0
 71
     5
 72
     1
  1
\A1;\U+220522
 11
0.4798913911571384
 21
0.8773279048869165
 31
0.0
 73
     1
 44
1.0
  0
LINE
  5
744
330
4FD
100
AcDbEntity
  8
AM_5
 62
     0
370
    -2
100
AcDbLine
 10
74.85353617284591
 20
-0.349393046243943
 30
0.0
 11
64.29592556738891
 21
-19.65060695375601
 31
0.0
  0
SOLID
  5
745
330
4FD
100
AcDbEntity
  8
AM_5
 62
     0
100
AcDbTrace
 10
75.85454639387388
 20
2.522536363995378
 30
0.0
 11
76.73187429876079
 21
2.042644972838239
 31
0.0
 12
74.85353617284591
 22
-0.349393046243943
 32
0.0
 13
74.85353617284591
 23
-0.349393046243943
 33
0.0
  0
SOLID
  5
746
330
4FD
100
AcDbEntity
  8
AM_5
 62
     0
100
AcDbTrace
 10
62.41758744147403
 20
-22.04264497283819
 30
0.0
 11
63.29491534636095
 21
-22.52253636399533
 31
0.0
 12
64.29592556738891
 22
-19.65060695375601
 32
0.0
 13
64.29592556738891
 23
-19.65060695375601
 33
0.0
  0
POINT
  5
747
330
4FD
100
AcDbEntity
  8
DEFPOINTS
 62
     0
100
AcDbPoint
 10
64.29592556738891
 20
-19.65060695375601
 30
0.0
  0
POINT
  5
748
330
4FD
100
AcDbEntity
  8
DEFPOINTS
 62
     0
100
AcDbPoint
 10
74.85353617284591
 20
-0.349393046243943
 30
0.0
  0
ENDBLK
  5
507
330
4FD
100
AcDbEntity
  8
0
100
AcDbBlockEnd
  0
BLOCK
  5
538
330
52E
100
AcDbEntity
  8
0
100
AcDbBlockBegin
  2
*D7
 70
     1
 71
     0
 10
0.0
 20
0.0
 30
0.0
  3
*D7
  1

  0
LINE
  5
749
330
52E
100
AcDbEntity
  8
AM_5
 62
     0
370
    -2
100
AcDbLine
 10
120.0098419189453
 20
56.09643419266695
 30
0.0
 11
120.0098419189453
 21
39.30581149187994
 31
0.0
  0
LINE
  5
74A
330
52E
100
AcDbEntity
  8
AM_5
 62
     0
370
    -2
100
AcDbLine
 10
0.0098390541649564
 20
63.99999999999999
 30
0.0
 11
0.0098390541649549
 21
39.30581149187994
 31
0.0
  0
LINE
  5
74B
330
52E
100
AcDbEntity
  8
AM_5
 62
     0
370
    -2
100
AcDbLine
 10
117.0098419189453
 20
41.30581149187994
 30
0.0
 11
3.009839054164955
 21
41.30581149187994
 31
0.0
  0
SOLID
  5
74C
330
52E
100
AcDbEntity
  8
AM_5
 62
     0
100
AcDbTrace
 10
117.0098419189453
 20
41.80581149187994
 30
0.0
 11
117.0098419189453
 21
40.80581149187994
 31
0.0
 12
120.0098419189453
 22
41.30581149187994
 32
0.0
 13
120.0098419189453
 23
41.30581149187994
 33
0.0
  0
SOLID
  5
74D
330
52E
100
AcDbEntity
  8
AM_5
 62
     0
100
AcDbTrace
 10
3.009839054164955
 20
41.80581149187994
 30
0.0
 11
3.009839054164955
 21
40.80581149187994
 31
0.0
 12
0.009839054164955
 22
41.30581149187994
 32
0.0
 13
0.009839054164955
 23
41.30581149187994
 33
0.0
  0
MTEXT
  5
74E
330
52E
100
AcDbEntity
  8
AM_5
 62
     0
100
AcDbMText
 10
60.00984048655513
 20
43.89581149187994
 30
0.0
 40
5.0
 41
0.0
 71
     5
 72
     1
  1
\A1;120
 73
     1
 44
1.0
  0
POINT
  5
74F
330
52E
100
AcDbEntity
  8
DEFPOINTS
 62
     0
100
AcDbPoint
 10
120.0098419189453
 20
57.09643419266695
 30
0.0
  0
POINT
  5
750
330
52E
100
AcDbEntity
  8
DEFPOINTS
 62
     0
100
AcDbPoint
 10
0.0098390541649565
 20
64.99999999999999
 30
0.0
  0
POINT
  5
751
330
52E
100
AcDbEntity
  8
DEFPOINTS
 62
     0
100
AcDbPoint
 10
0.009839054164955
 20
41.30581149187994
 30
0.0
  0
ENDBLK
  5
539
330
52E
100
AcDbEntity
  8
0
100
AcDbBlockEnd
  0
BLOCK
  5
55D
330
552
100
AcDbEntity
  8
0
100
AcDbBlockBegin
  2
*D8
 70
     1
 71
     0
 10
0.0
 20
0.0
 30
0.0
  3
*D8
  1

  0
LINE
  5
752
330
552
100
AcDbEntity
  8
AM_5
 62
     0
370
    -2
100
AcDbLine
 10
-0.9901609458028702
 20
64.99999999999999
 30
0.0
 11
-14.38083407185058
 21
64.99999999999999
 31
0.0
  0
LINE
  5
753
330
552
100
AcDbEntity
  8
AM_5
 62
     0
370
    -2
100
AcDbLine
 10
0.6926938832798442
 20
64.99999999999999
 30
0.0
 11
-14.38083407185058
 21
64.99999999999999
 31
0.0
  0
LINE
  5
754
330
552
100
AcDbEntity
  8
AM_5
 62
     0
370
    -2
100
AcDbLine
 10
-12.38083407185058
 20
61.99999999999999
 30
0.0
 11
-12.38083407185058
 21
58.99999999999999
 31
0.0
  0
LINE
  5
755
330
552
100
AcDbEntity
  8
AM_5
 62
     0
370
    -2
100
AcDbLine
 10
-12.38083407185058
 20
67.99999999999999
 30
0.0
 11
-12.38083407185057
 21
73.68000000000004
 31
0.0
  0
SOLID
  5
756
330
552
100
AcDbEntity
  8
AM_5
 62
     0
100
AcDbTrace
 10
-12.88083407185058
 20
61.99999999999999
 30
0.0
 11
-11.88083407185058
 21
61.99999999999999
 31
0.0
 12
-12.38083407185058
 22
64.99999999999999
 32
0.0
 13
-12.38083407185058
 23
64.99999999999999
 33
0.0
  0
SOLID
  5
757
330
552
100
AcDbEntity
  8
AM_5
 62
     0
100
AcDbTrace
 10
-12.88083407185058
 20
67.99999999999999
 30
0.0
 11
-11.88083407185058
 21
67.99999999999999
 31
0.0
 12
-12.38083407185058
 22
64.99999999999999
 32
0.0
 13
-12.38083407185058
 23
64.99999999999999
 33
0.0
  0
MTEXT
  5
758
330
552
100
AcDbEntity
  8
AM_5
 62
     0
100
AcDbMText
 10
-14.97083407185059
 20
72.34000000000003
 30
0.0
 40
5.0
 41
0.0
 71
     5
 72
     1
  1
\A1;0
 11
6.123031769111886E-17
 21
1.0
 31
0.0
 73
     1
 44
1.0
  0
POINT
  5
759
330
552
100
AcDbEntity
  8
DEFPOINTS
 62
     0
100
AcDbPoint
 10
0.0098390541971298
 20
64.99999999999999
 30
0.0
  0
POINT
  5
75A
330
552
100
AcDbEntity
  8
DEFPOINTS
 62
     0
100
AcDbPoint
 10
1.692693883279844
 20
64.99999999999999
 30
0.0
  0
POINT
  5
75B
330
552
100
AcDbEntity
  8
DEFPOINTS
 62
     0
100
AcDbPoint
 10
-12.38083407185058
 20
64.99999999999999
 30
0.0
  0
ENDBLK
  5
55E
330
552
100
AcDbEntity
  8
0
100
AcDbBlockEnd
  0
BLOCK
  5
57E
330
57D
100
AcDbEntity
  8
0
100
AcDbBlockBegin
  2
_Open30
 70
     0
 71
     0
 10
0.0
 20
0.0
 30
0.0
  3
_Open30
  1

  0
LINE
  5
57F
330
57D
100
AcDbEntity
  8
0
 62
     0
370
    -2
100
AcDbLine
 10
-1.0
 20
0.26794919
 30
0.0
 11
0.0
 21
0.0
 31
0.0
  0
LINE
  5
580
330
57D
100
AcDbEntity
  8
0
 62
     0
370
    -2
100
AcDbLine
 10
0.0
 20
0.0
 30
0.0
 11
-1.0
 21
-0.26794919
 31
0.0
  0
LINE
  5
581
330
57D
100
AcDbEntity
  8
0
 62
     0
370
    -2
100
AcDbLine
 10
0.0
 20
0.0
 30
0.0
 11
-1.0
 21
0.0
 31
0.0
  0
ENDBLK
  5
582
330
57D
100
AcDbEntity
  8
0
100
AcDbBlockEnd
  0
ENDSEC
  0
SECTION
  2
ENTITIES
  0
CIRCLE
  5
186
330
22
100
AcDbEntity
  8
1
  6
Continuous
100
AcDbCircle
 10
4.663171768188477
 20
-9.253090858459487
 30
0.0
 40
1.875
  0
LINE
  5
187
330
22
100
AcDbEntity
  8
1
  6
Continuous
100
AcDbLine
 10
9.325121879577637
 20
-18.39144134521479
 30
0.0
 11
7.642478942871094
 21
-7.767663002014189
 31
0.0
  0
LINE
  5
188
330
22
100
AcDbEntity
  8
1
  6
Continuous
100
AcDbLine
 10
9.155750274658203
 20
-18.47588348388669
 30
0.0
 11
1.683863043785095
 21
-10.7385177612305
 31
0.0
  0
LINE
  5
189
330
22
100
AcDbEntity
  8
1
  6
Continuous
100
AcDbLine
 10
1.683863043785095
 20
-10.7385177612305
 30
0.0
 11
0.0012215533060953
 21
-0.1147399842738963
 31
0.0
  0
LINE
  5
18A
330
22
100
AcDbEntity
  8
1
  6
Continuous
100
AcDbLine
 10
0.1705907434225082
 20
-0.0302956197410964
 30
0.0
 11
7.642478942871094
 21
-7.767663002014189
 31
0.0
  0
CIRCLE
  5
18B
330
22
100
AcDbEntity
  8
1
  6
Continuous
100
AcDbCircle
 10
4.663171768188477
 20
-9.253090858459487
 30
0.0
 40
1.799999952316284
  0
LINE
  5
18C
330
22
100
AcDbEntity
  8
1
  6
CENTER
100
AcDbLine
 10
3.636916399002075
 20
-7.194742202758789
 30
0.0
 11
5.689426898956299
 21
-11.31143951416019
 31
0.0
  0
LINE
  5
18D
330
22
100
AcDbEntity
  8
1
  6
CENTER
100
AcDbLine
 10
6.721519947052002
 20
-8.22683620452878
 30
0.0
 11
2.604822158813477
 21
-10.27934551239011
 31
0.0
  0
LINE
  5
18E
330
22
100
AcDbEntity
  8
1
  6
Continuous
100
AcDbLine
 10
5.558359146118164
 20
-8.583286285400419
 30
0.0
 11
5.736838340759277
 21
-8.94126033782959
 31
0.0
  0
LINE
  5
18F
330
22
100
AcDbEntity
  8
1
  6
Continuous
100
AcDbLine
 10
3.767982244491577
 20
-9.92289447784421
 30
0.0
 11
3.589503765106201
 21
-9.5649223327637
 31
0.0
  0
LINE
  5
190
330
22
100
AcDbEntity
  8
1
  6
Continuous
100
AcDbLine
 10
5.736838340759277
 20
-8.94126033782959
 30
0.0
 11
5.062425136566162
 21
-9.2775106430054
 31
0.0
  0
LINE
  5
191
330
22
100
AcDbEntity
  8
1
  6
Continuous
100
AcDbLine
 10
4.442396640777588
 20
-9.58664608001709
 30
0.0
 11
3.767982244491577
 21
-9.92289447784421
 31
0.0
  0
LINE
  5
192
330
22
100
AcDbEntity
  8
1
  6
Continuous
100
AcDbLine
 10
3.589503765106201
 20
-9.5649223327637
 30
0.0
 11
4.263917446136475
 21
-9.228671073913603
 31
0.0
  0
LINE
  5
193
330
22
100
AcDbEntity
  8
1
  6
Continuous
100
AcDbLine
 10
4.883945941925049
 20
-8.9195365905762
 30
0.0
 11
5.558359146118164
 21
-8.583286285400419
 31
0.0
  0
LINE
  5
194
330
22
100
AcDbEntity
  8
1
  6
Continuous
100
AcDbLine
 10
4.39639139175415
 20
-10.33882999420169
 30
0.0
 11
4.442396640777588
 21
-9.58664608001709
 31
0.0
  0
LINE
  5
195
330
22
100
AcDbEntity
  8
1
  6
Continuous
100
AcDbLine
 10
4.484692096710205
 20
-8.89511775970459
 30
0.0
 11
4.530697822570801
 21
-8.142932891845703
 31
0.0
  0
LINE
  5
196
330
22
100
AcDbEntity
  8
1
  6
Continuous
100
AcDbLine
 10
4.530697822570801
 20
-8.142932891845703
 30
0.0
 11
4.929951190948486
 21
-8.167351722717314
 31
0.0
  0
LINE
  5
197
330
22
100
AcDbEntity
  8
1
  6
Continuous
100
AcDbLine
 10
4.929951190948486
 20
-8.167351722717314
 30
0.0
 11
4.883945941925049
 21
-8.9195365905762
 31
0.0
  0
LINE
  5
198
330
22
100
AcDbEntity
  8
1
  6
Continuous
100
AcDbLine
 10
4.841650485992432
 20
-9.6110649108887
 30
0.0
 11
4.795644283294678
 21
-10.36324882507321
 31
0.0
  0
LINE
  5
199
330
22
100
AcDbEntity
  8
1
  6
Continuous
100
AcDbLine
 10
4.795644283294678
 20
-10.36324882507321
 30
0.0
 11
4.39639139175415
 21
-10.33882999420169
 31
0.0
  0
LINE
  5
19A
330
22
100
AcDbEntity
  8
1
  6
Continuous
100
AcDbLine
 10
3.856283903121948
 20
-8.479182243347196
 30
0.0
 11
4.484692096710205
 21
-8.89511775970459
 31
0.0
  0
LINE
  5
19B
330
22
100
AcDbEntity
  8
1
  6
Continuous
100
AcDbLine
 10
5.062425136566162
 20
-9.2775106430054
 30
0.0
 11
5.690832614898682
 21
-9.693444252014189
 31
0.0
  0
LINE
  5
19C
330
22
100
AcDbEntity
  8
1
  6
Continuous
100
AcDbLine
 10
5.690832614898682
 20
-9.693444252014189
 30
0.0
 11
5.470057964324951
 21
-10.02699851989749
 31
0.0
  0
LINE
  5
19D
330
22
100
AcDbEntity
  8
1
  6
Continuous
100
AcDbLine
 10
5.470057964324951
 20
-10.02699851989749
 30
0.0
 11
4.841650485992432
 21
-9.6110649108887
 31
0.0
  0
LINE
  5
19E
330
22
100
AcDbEntity
  8
1
  6
Continuous
100
AcDbLine
 10
4.263917446136475
 20
-9.228671073913603
 30
0.0
 11
3.635509014129639
 21
-8.812737464904814
 31
0.0
  0
LINE
  5
19F
330
22
100
AcDbEntity
  8
1
  6
Continuous
100
AcDbLine
 10
3.635509014129639
 20
-8.812737464904814
 30
0.0
 11
3.856283903121948
 21
-8.479182243347196
 31
0.0
  0
ARC
  5
1A0
330
22
100
AcDbEntity
  8
1
  6
Continuous
100
AcDbCircle
 10
0.0992187499999773
 20
-0.0992187499999915
 30
0.0
 40
0.0992187500000008
100
AcDbArc
 50
43.99999976610542
 51
189.0000027809323
  0
ARC
  5
1A1
330
22
100
AcDbEntity
  8
1
  6
Continuous
100
AcDbCircle
 10
9.227123655771152
 20
-18.40696233182639
 30
0.0
 40
0.0992187500000003
100
AcDbArc
 50
223.999998533897
 51
9.000001808599079
  0
LINE
  5
1A2
330
22
100
AcDbEntity
  8
1
  6
Continuous
100
AcDbLine
 10
2.192350199765883
 20
-11.265071625004
 30
0.0
 11
3.655019619303516
 21
-20.5
 31
0.0
  0
LINE
  5
1A3
330
22
100
AcDbEntity
  8
1
  6
CENTER
100
AcDbLine
 10
0.0
 20
-10.0
 30
0.0
 11
125.0
 21
-10.00000000000003
 31
0.0
  0
LINE
  5
1A4
330
22
100
AcDbEntity
  8
1
  6
CENTER
100
AcDbLine
 10
69.57473087011732
 20
-24.0
 30
0.0
 11
69.57473087011732
 21
4.0
 31
0.0
  0
LINE
  5
1A5
330
22
100
AcDbEntity
  8
1
  6
Continuous
100
AcDbLine
 10
15.0
 20
-18.50585111479498
 30
0.0
 11
15.0
 21
-8.50111601318622
 31
0.0
  0
LINE
  5
1A9
330
22
100
AcDbEntity
  8
1
  6
Continuous
100
AcDbLine
 10
120.0
 20
-20.00000000000003
 30
0.0
 11
120.0
 21
-0.0000000000000284
 31
0.0
  0
LINE
  5
1AA
330
22
100
AcDbEntity
  8
1
  6
PHANTOM
100
AcDbLine
 10
23.0
 20
1.0
 30
0.0
 11
119.0
 21
1.0
 31
0.0
  0
LINE
  5
1AB
330
22
100
AcDbEntity
  8
1
  6
PHANTOM
100
AcDbLine
 10
23.0
 20
-21.0
 30
0.0
 11
119.0
 21
-21.00000000000003
 31
0.0
  0
LINE
  5
1AD
330
22
100
AcDbEntity
  8
1
  6
Continuous
100
AcDbLine
 10
119.0
 20
-20.50000000000003
 30
0.0
 11
119.0
 21
-13.27871926215101
 31
0.0
  0
LINE
  5
1AE
330
22
100
AcDbEntity
  8
1
  6
Continuous
100
AcDbLine
 10
119.0
 20
-6.721280737849014
 30
0.0
 11
119.0
 21
0.5
 31
0.0
  0
LINE
  5
1BC
330
22
100
AcDbEntity
  8
1
  6
Continuous
100
AcDbLine
 10
20.0
 20
0.5
 30
0.0
 11
119.5
 21
0.4999999999999716
 31
0.0
  0
LINE
  5
1BD
330
22
100
AcDbEntity
  8
1
  6
Continuous
100
AcDbLine
 10
3.655019619303516
 20
-20.5
 30
0.0
 11
119.5
 21
-20.50000000000003
 31
0.0
  0
ARC
  5
1BE
330
22
100
AcDbEntity
  8
1
  6
Continuous
100
AcDbCircle
 10
8.928997152044872
 20
-2.495901675957086
 30
0.0
 40
5.0
100
AcDbArc
 50
247.4362218531612
 51
270.0
  0
LINE
  5
1BF
330
22
100
AcDbEntity
  8
1
  6
Continuous
100
AcDbLine
 10
7.597867707743717
 20
-7.721466711820284
 30
0.0
 11
7.53053579849751
 21
-7.296350180277699
 31
0.0
  0
LINE
  5
1C0
330
22
100
AcDbEntity
  8
1
  6
Continuous
100
AcDbLine
 10
7.384017552246405
 20
-7.500018374576598
 30
0.0
 11
7.34244005407345
 21
-7.237508637196726
 31
0.0
  0
ARC
  5
1C2
330
22
100
AcDbEntity
  8
1
  6
Continuous
100
AcDbCircle
 10
69.57473087011732
 20
-10.0
 30
0.0
 40
11.0
100
AcDbArc
 50
197.3414428027598
 51
252.6585571972402
  0
ARC
  5
1C3
330
22
100
AcDbEntity
  8
1
  6
Continuous
100
AcDbCircle
 10
69.57473087011732
 20
-10.0
 30
0.0
 40
11.0
100
AcDbArc
 50
287.3414428027597
 51
342.6585571972402
  0
ARC
  5
1C4
330
22
100
AcDbEntity
  8
1
  6
Continuous
100
AcDbCircle
 10
69.57473087011732
 20
-10.0
 30
0.0
 40
11.0
100
AcDbArc
 50
17.34144280275975
 51
72.65855719724024
  0
ARC
  5
1C5
330
22
100
AcDbEntity
  8
1
  6
Continuous
100
AcDbCircle
 10
69.57473087011732
 20
-10.0
 30
0.0
 40
11.0
100
AcDbArc
 50
107.3414428027598
 51
162.6585571972402
  0
LINE
  5
1C6
330
22
100
AcDbEntity
  8
1
  6
Continuous
100
AcDbLine
 10
80.07473087011732
 20
-13.27871926215099
 30
0.0
 11
80.07473087011732
 21
-6.721280737849014
 31
0.0
  0
LINE
  5
1C7
330
22
100
AcDbEntity
  8
1
  6
Continuous
100
AcDbLine
 10
59.07473087011732
 20
-13.27871926215099
 30
0.0
 11
59.07473087011732
 21
-6.721280737849014
 31
0.0
  0
LINE
  5
1CA
330
22
100
AcDbEntity
  8
1
  6
Continuous
100
AcDbLine
 10
119.0
 20
1.0
 30
0.0
 11
119.5
 21
0.4999999999999716
 31
0.0
  0
LINE
  5
1CB
330
22
100
AcDbEntity
  8
1
  6
Continuous
100
AcDbLine
 10
119.5
 20
-20.50000000000003
 30
0.0
 11
119.0
 21
-21.00000000000003
 31
0.0
  0
LINE
  5
1CC
330
22
100
AcDbEntity
  8
1
  6
Continuous
100
AcDbLine
 10
119.5
 20
-20.50000000000003
 30
0.0
 11
120.0
 21
-20.00000000000003
 31
0.0
  0
LINE
  5
1CD
330
22
100
AcDbEntity
  8
1
  6
Continuous
100
AcDbLine
 10
119.5
 20
0.4999999999999716
 30
0.0
 11
120.0
 21
-0.0000000000000284
 31
0.0
  0
LINE
  5
1CE
330
22
100
AcDbEntity
  8
1
  6
Continuous
100
AcDbLine
 10
23.0
 20
-6.721280737849014
 30
0.0
 11
119.0
 21
-6.721280737849014
 31
0.0
  0
LINE
  5
1CF
330
22
100
AcDbEntity
  8
1
  6
Continuous
100
AcDbLine
 10
23.0
 20
-13.27871926215099
 30
0.0
 11
119.0
 21
-13.27871926215101
 31
0.0
  0
ARC
  5
1D0
330
22
100
AcDbEntity
  8
1
  6
Continuous
100
AcDbCircle
 10
108.5
 20
-10.0
 30
0.0
 40
11.0
100
AcDbArc
 50
342.6585571972402
 51
17.34144280275975
  0
LINE
  5
1D2
330
22
100
AcDbEntity
  8
1
  6
Continuous
100
AcDbLine
 10
23.0
 20
-20.5
 30
0.0
 11
23.0
 21
-13.27871926215099
 31
0.0
  0
LINE
  5
1D3
330
22
100
AcDbEntity
  8
1
  6
Continuous
100
AcDbLine
 10
23.0
 20
-6.721280737849014
 30
0.0
 11
23.0
 21
0.5
 31
0.0
  0
LINE
  5
1D4
330
22
100
AcDbEntity
  8
1
  6
Continuous
100
AcDbLine
 10
22.5
 20
-20.5
 30
0.0
 11
22.5
 21
0.5
 31
0.0
  0
ARC
  5
1D5
330
22
100
AcDbEntity
  8
1
  6
Continuous
100
AcDbCircle
 10
33.5
 20
-10.0
 30
0.0
 40
11.0
100
AcDbArc
 50
162.6585571972402
 51
197.3414428027598
  0
LINE
  5
1D6
330
22
100
AcDbEntity
  8
1
  6
Continuous
100
AcDbLine
 10
20.0
 20
0.5
 30
0.0
 11
17.61763744579258
 21
-4.608992984660574
 31
0.0
  0
ARC
  5
1D7
330
22
100
AcDbEntity
  8
1
  6
Continuous
100
AcDbCircle
 10
13.08609851060942
 20
-2.495901675957086
 30
0.0
 40
4.999999999999998
100
AcDbArc
 50
270.0
 51
335.0
  0
LINE
  5
1D8
330
22
100
AcDbEntity
  8
1
  6
Continuous
100
AcDbLine
 10
8.928997152044872
 20
-7.4959016759571
 30
0.0
 11
13.08609851060942
 21
-7.4959016759571
 31
0.0
  0
POLYLINE
  5
1D9
330
22
100
AcDbEntity
  8
1
  6
Continuous
100
AcDb2dPolyline
 66
     1
 10
0.0
 20
0.0
 30
0.0
  0
VERTEX
  5
1DA
330
1D9
100
AcDbEntity
  8
1
  6
Continuous
100
AcDbVertex
100
AcDb2dVertex
 10
15.0
 20
-19.49526197637539
 30
0.0
  0
VERTEX
  5
1DB
330
1D9
100
AcDbEntity
  8
1
  6
Continuous
100
AcDbVertex
100
AcDb2dVertex
 10
15.01748200542949
 20
-19.49637239411779
 30
0.0
  0
VERTEX
  5
1DC
330
1D9
100
AcDbEntity
  8
1
  6
Continuous
100
AcDbVertex
100
AcDb2dVertex
 10
15.03496571450353
 20
-19.49733477862519
 30
0.0
  0
VERTEX
  5
1DD
330
1D9
100
AcDbEntity
  8
1
  6
Continuous
100
AcDbVertex
100
AcDb2dVertex
 10
15.05245092279267
 20
-19.49814912297379
 30
0.0
  0
VERTEX
  5
1DE
330
1D9
100
AcDbEntity
  8
1
  6
Continuous
100
AcDbVertex
100
AcDb2dVertex
 10
15.06993742586803
 20
-19.49881542023968
 30
0.0
  0
VERTEX
  5
1DF
330
1D9
100
AcDbEntity
  8
1
  6
Continuous
100
AcDbVertex
100
AcDb2dVertex
 10
15.08742501930021
 20
-19.49933366349907
 30
0.0
  0
VERTEX
  5
1E0
330
1D9
100
AcDbEntity
  8
1
  6
Continuous
100
AcDbVertex
100
AcDb2dVertex
 10
15.1049134986601
 20
-19.49970384582808
 30
0.0
  0
VERTEX
  5
1E1
330
1D9
100
AcDbEntity
  8
1
  6
Continuous
100
AcDbVertex
100
AcDb2dVertex
 10
15.12240265951857
 20
-19.49992596030309
 30
0.0
  0
VERTEX
  5
1E2
330
1D9
100
AcDbEntity
  8
1
  6
Continuous
100
AcDbVertex
100
AcDb2dVertex
 10
15.13989229744652
 20
-19.49999999999999
 30
0.0
  0
VERTEX
  5
1E3
330
1D9
100
AcDbEntity
  8
1
  6
Continuous
100
AcDbVertex
100
AcDb2dVertex
 10
16.00524837280761
 20
-19.31883549912799
 30
0.0
  0
VERTEX
  5
1E4
330
1D9
100
AcDbEntity
  8
1
  6
Continuous
100
AcDbVertex
100
AcDb2dVertex
 10
16.83398226074149
 20
-18.78058423382538
 30
0.0
  0
VERTEX
  5
1E5
330
1D9
100
AcDbEntity
  8
1
  6
Continuous
100
AcDbVertex
100
AcDb2dVertex
 10
18.2723207158524
 20
-16.7175144212722
 30
0.0
  0
VERTEX
  5
1E6
330
1D9
100
AcDbEntity
  8
1
  6
Continuous
100
AcDbVertex
100
AcDb2dVertex
 10
19.23434596875427
 20
-13.63298765025191
 30
0.0
  0
VERTEX
  5
1E7
330
1D9
100
AcDbEntity
  8
1
  6
Continuous
100
AcDbVertex
100
AcDb2dVertex
 10
19.56981504991904
 20
-10.0
 30
0.0
  0
VERTEX
  5
1E8
330
1D9
100
AcDbEntity
  8
1
  6
Continuous
100
AcDbVertex
100
AcDb2dVertex
 10
19.49939585846096
 20
-8.303659369261709
 30
0.0
  0
VERTEX
  5
1E9
330
1D9
100
AcDbEntity
  8
1
  6
Continuous
100
AcDbVertex
100
AcDb2dVertex
 10
19.28981327773636
 20
-6.668748883414224
 30
0.0
  0
VERTEX
  5
1EA
330
1D9
100
AcDbEntity
  8
1
  6
Continuous
100
AcDbVertex
100
AcDb2dVertex
 10
18.94645355531611
 20
-5.137904965685408
 30
0.0
  0
VERTEX
  5
1EB
330
1D9
100
AcDbEntity
  8
1
  6
Continuous
100
AcDbVertex
100
AcDb2dVertex
 10
18.72776833192768
 20
-4.426683304924097
 30
0.0
  0
VERTEX
  5
1EC
330
1D9
100
AcDbEntity
  8
1
  6
Continuous
100
AcDbVertex
100
AcDb2dVertex
 10
18.4800651838118
 20
-3.759510732039075
 30
0.0
  0
SEQEND
  5
1ED
330
1D9
100
AcDbEntity
  8
1
  0
ARC
  5
1EE
330
22
100
AcDbEntity
  8
1
  6
Continuous
100
AcDbCircle
 10
9.241491699266192
 20
-16.4580097854298
 30
0.0
 40
1.250000000000002
100
AcDbArc
 50
9.000000000000048
 51
43.99999807937051
  0
LINE
  5
1EF
330
22
100
AcDbEntity
  8
1
  6
Continuous
100
AcDbLine
 10
10.6898734548401
 20
-17.6121657616375
 30
0.0
 11
10.47610212501013
 21
-16.26246670412951
 31
0.0
  0
ARC
  5
1F0
330
22
100
AcDbEntity
  8
1
  6
Continuous
100
AcDbCircle
 10
9.455263029096102
 20
-17.80770884293779
 30
0.0
 40
1.25
100
AcDbArc
 50
189.0000000000001
 51
9.000002768538247
  0
LINE
  5
1F1
330
22
100
AcDbEntity
  8
1
  6
Continuous
100
AcDbLine
 10
10.14066647879679
 20
-15.58968685249758
 30
0.0
 11
8.634305760140194
 21
-14.02980456018298
 31
0.0
  0
LINE
  5
1F2
330
22
100
AcDbEntity
  8
1
  6
Continuous
100
AcDbLine
 10
8.220652603352164
 20
-18.00325192423807
 30
0.0
 11
8.126740202633698
 21
-17.41031236195479
 31
0.0
  0
LINE
  5
1F3
330
22
100
AcDbEntity
  8
2
  6
Continuous
100
AcDbLine
 10
0.0098390541971298
 20
64.99999999999999
 30
0.0
 11
9.326342582702694
 21
64.99999999999999
 31
0.0
  0
LINE
  5
1F4
330
22
100
AcDbEntity
  8
2
  6
CENTER
100
AcDbLine
 10
4.663171768188533
 20
62.99999999999999
 30
0.0
 11
4.663171768188533
 21
77.49999999999999
 31
0.0
  0
LINE
  5
1F5
330
22
100
AcDbEntity
  8
2
  6
CENTER
100
AcDbLine
 10
129.8322140049879
 20
64.99999999999994
 30
0.0
 11
20.00000000000006
 21
64.99999999999999
 31
0.0
  0
LINE
  5
200
330
22
100
AcDbEntity
  8
2
  6
Continuous
100
AcDbLine
 10
0.0098390541649565
 20
64.99999999999999
 30
0.0
 11
0.4504290965373912
 21
68.17999999999999
 31
0.0
  0
LINE
  5
201
330
22
100
AcDbEntity
  8
2
  6
Continuous
100
AcDbLine
 10
120.0098419189454
 20
74.99999999999994
 30
0.0
 11
120.0098419189454
 21
54.99999999999994
 31
0.0
  0
LINE
  5
202
330
22
100
AcDbEntity
  8
2
  6
Continuous
100
AcDbLine
 10
7.342440054073506
 20
68.17999999999999
 30
0.0
 11
0.4504290965373912
 21
68.17999999999999
 31
0.0
  0
LINE
  5
203
330
22
100
AcDbEntity
  8
2
  6
Continuous
100
AcDbLine
 10
7.530535798497567
 20
65.3
 30
0.0
 11
14.36292973919257
 21
65.3
 31
0.0
  0
LINE
  5
204
330
22
100
AcDbEntity
  8
2
  6
Continuous
100
AcDbLine
 10
15.26923752622923
 20
64.72261826174066
 30
0.0
 11
20.03612270807406
 21
54.49999999999999
 31
0.0
  0
ARC
  5
205
330
22
100
AcDbEntity
  8
2
  6
Continuous
100
AcDbCircle
 10
14.36292973919257
 20
64.3
 30
0.0
 40
1.0
100
AcDbArc
 50
25.00000000000007
 51
90.0
  0
LINE
  5
207
330
22
100
AcDbEntity
  8
2
  6
Continuous
100
AcDbLine
 10
119.5098419189454
 20
54.49999999999994
 30
0.0
 11
20.03612270807406
 21
54.49999999999999
 31
0.0
  0
LINE
  5
208
330
22
100
AcDbEntity
  8
2
  6
Continuous
100
AcDbLine
 10
119.5098419189454
 20
75.49999999999994
 30
0.0
 11
0.5729802302965368
 21
75.49999999999999
 31
0.0
  0
LINE
  5
209
330
22
100
AcDbEntity
  8
2
  6
Continuous
100
AcDbLine
 10
7.342440054073506
 20
68.17999999999999
 30
0.0
 11
7.342440054073506
 21
66.97999999999998
 31
0.0
  0
LINE
  5
20A
330
22
100
AcDbEntity
  8
2
  6
Continuous
100
AcDbLine
 10
0.5729802302965368
 20
75.49999999999999
 30
0.0
 11
0.5729802302965368
 21
68.17999999999999
 31
0.0
  0
LINE
  5
20B
330
22
100
AcDbEntity
  8
2
  6
Continuous
100
AcDbLine
 10
9.326342582702694
 20
64.99999999999999
 30
0.0
 11
9.289507214431865
 21
65.3
 31
0.0
  0
LINE
  5
20C
330
22
100
AcDbEntity
  8
2
  6
Continuous
100
AcDbLine
 10
7.642478942871151
 20
64.99999999999999
 30
0.0
 11
7.609547461050852
 21
65.3
 31
0.0
  0
LINE
  5
20D
330
22
100
AcDbEntity
  8
2
  6
Continuous
100
AcDbLine
 10
7.342440054073506
 20
67.73330143874067
 30
0.0
 11
7.29340523557596
 21
68.17999999999999
 31
0.0
  0
LINE
  5
20E
330
22
100
AcDbEntity
  8
2
  6
Continuous
100
AcDbLine
 10
7.530535798497567
 20
65.3
 30
0.0
 11
7.342440054073506
 21
66.97999999999998
 31
0.0
  0
LINE
  5
20F
330
22
100
AcDbEntity
  8
2
  6
Continuous
100
AcDbLine
 10
119.0098419189454
 20
54.49999999999997
 30
0.0
 11
119.0098419189454
 21
61.72128073784899
 31
0.0
  0
LINE
  5
210
330
22
100
AcDbEntity
  8
2
  6
Continuous
100
AcDbLine
 10
119.0098419189454
 20
68.27871926215096
 30
0.0
 11
119.0098419189454
 21
75.49999999999997
 31
0.0
  0
LINE
  5
211
330
22
100
AcDbEntity
  8
2
  6
Continuous
100
AcDbLine
 10
23.00000000000006
 20
68.27871926215097
 30
0.0
 11
119.0098419189454
 21
68.27871926215096
 31
0.0
  0
ARC
  5
212
330
22
100
AcDbEntity
  8
2
  6
Continuous
100
AcDbCircle
 10
108.5098419189454
 20
64.99999999999997
 30
0.0
 40
11.0
100
AcDbArc
 50
342.6585571972402
 51
17.34144280275975
  0
LINE
  5
213
330
22
100
AcDbEntity
  8
2
  6
Continuous
100
AcDbLine
 10
23.00000000000006
 20
61.721280737849
 30
0.0
 11
119.0098419189454
 21
61.72128073784899
 31
0.0
  0
LINE
  5
214
330
22
100
AcDbEntity
  8
2
  6
Continuous
100
AcDbLine
 10
120.0098419189454
 20
54.99999999999994
 30
0.0
 11
119.5098419189454
 21
54.49999999999994
 31
0.0
  0
LINE
  5
215
330
22
100
AcDbEntity
  8
2
  6
Continuous
100
AcDbLine
 10
120.0098419189454
 20
74.99999999999994
 30
0.0
 11
119.5098419189454
 21
75.49999999999994
 31
0.0
  0
POLYLINE
  5
216
330
22
100
AcDbEntity
  8
2
  6
Continuous
100
AcDb2dPolyline
 66
     1
 10
0.0
 20
0.0
 30
0.0
  0
VERTEX
  5
217
330
216
100
AcDbEntity
  8
2
  6
Continuous
100
AcDbVertex
100
AcDb2dVertex
 10
0.5729802302965368
 20
70.87048454143466
 30
0.0
  0
VERTEX
  5
218
330
216
100
AcDbEntity
  8
2
  6
Continuous
100
AcDbVertex
100
AcDb2dVertex
 10
1.550141590066744
 20
72.09208125329447
 30
0.0
  0
VERTEX
  5
219
330
216
100
AcDbEntity
  8
2
  6
Continuous
100
AcDbVertex
100
AcDb2dVertex
 10
2.686276436312198
 20
73.1566721207265
 30
0.0
  0
VERTEX
  5
21A
330
216
100
AcDbEntity
  8
2
  6
Continuous
100
AcDbVertex
100
AcDb2dVertex
 10
3.955997406985887
 20
74.04052324629289
 30
0.0
  0
VERTEX
  5
21B
330
216
100
AcDbEntity
  8
2
  6
Continuous
100
AcDbVertex
100
AcDb2dVertex
 10
5.332298036205373
 20
74.72484933117629
 30
0.0
  0
SEQEND
  5
21C
330
216
100
AcDbEntity
  8
2
  0
LINE
  5
21D
330
22
100
AcDbEntity
  8
2
  6
Continuous
100
AcDbLine
 10
6.80662297403336
 20
74.40778467777049
 30
0.0
 11
6.80662297403336
 21
69.43533397368528
 31
0.0
  0
POLYLINE
  5
21E
330
22
100
AcDbEntity
  8
2
  6
Continuous
100
AcDb2dPolyline
 66
     1
 10
0.0
 20
0.0
 30
0.0
  0
VERTEX
  5
21F
330
21E
100
AcDbEntity
  8
2
  6
Continuous
100
AcDbVertex
100
AcDb2dVertex
 10
5.332298036205373
 20
74.72168632736457
 30
0.0
  0
VERTEX
  5
220
330
21E
100
AcDbEntity
  8
2
  6
Continuous
100
AcDbVertex
100
AcDb2dVertex
 10
6.188755713941475
 20
74.9539654918449
 30
0.0
  0
VERTEX
  5
221
330
21E
100
AcDbEntity
  8
2
  6
Continuous
100
AcDbVertex
100
AcDb2dVertex
 10
6.975341433969732
 20
75.09722782881049
 30
0.0
  0
VERTEX
  5
222
330
21E
100
AcDbEntity
  8
2
  6
Continuous
100
AcDbVertex
100
AcDb2dVertex
 10
7.838805788662
 20
75.1724829117929
 30
0.0
  0
VERTEX
  5
223
330
21E
100
AcDbEntity
  8
2
  6
Continuous
100
AcDbVertex
100
AcDb2dVertex
 10
8.928997152044929
 20
75.19799999999997
 30
0.0
  0
SEQEND
  5
224
330
21E
100
AcDbEntity
  8
2
  0
LINE
  5
225
330
22
100
AcDbEntity
  8
2
  6
Continuous
100
AcDbLine
 10
13.08609890121733
 20
75.19799999999997
 30
0.0
 11
8.928997152044929
 21
75.19799999999997
 31
0.0
  0
POLYLINE
  5
226
330
22
100
AcDbEntity
  8
2
  6
Continuous
100
AcDb2dPolyline
 66
     1
 10
0.0
 20
0.0
 30
0.0
  0
VERTEX
  5
227
330
226
100
AcDbEntity
  8
2
  6
Continuous
100
AcDbVertex
100
AcDb2dVertex
 10
18.48968921234445
 20
57.81633733369979
 30
0.0
  0
VERTEX
  5
228
330
226
100
AcDbEntity
  8
2
  6
Continuous
100
AcDbVertex
100
AcDb2dVertex
 10
18.98849555963699
 20
58.55857238113602
 30
0.0
  0
VERTEX
  5
229
330
226
100
AcDbEntity
  8
2
  6
Continuous
100
AcDbVertex
100
AcDb2dVertex
 10
19.43066853626539
 20
59.36166695442081
 30
0.0
  0
VERTEX
  5
22A
330
226
100
AcDbEntity
  8
2
  6
Continuous
100
AcDbVertex
100
AcDb2dVertex
 10
20.12806048008139
 20
61.11785003661491
 30
0.0
  0
VERTEX
  5
22B
330
226
100
AcDbEntity
  8
2
  6
Continuous
100
AcDbVertex
100
AcDb2dVertex
 10
20.55530957284014
 20
63.01731835652937
 30
0.0
  0
VERTEX
  5
22C
330
226
100
AcDbEntity
  8
2
  6
Continuous
100
AcDbVertex
100
AcDb2dVertex
 10
20.69909851060942
 20
64.99999999999999
 30
0.0
  0
VERTEX
  5
22D
330
226
100
AcDbEntity
  8
2
  6
Continuous
100
AcDbVertex
100
AcDb2dVertex
 10
20.12258143398964
 20
68.89991663760729
 30
0.0
  0
VERTEX
  5
22E
330
226
100
AcDbEntity
  8
2
  6
Continuous
100
AcDbVertex
100
AcDb2dVertex
 10
18.46930243578265
 20
72.21107495454039
 30
0.0
  0
VERTEX
  5
22F
330
226
100
AcDbEntity
  8
2
  6
Continuous
100
AcDbVertex
100
AcDb2dVertex
 10
17.3132048577001
 20
73.4828102056449
 30
0.0
  0
VERTEX
  5
230
330
226
100
AcDbEntity
  8
2
  6
Continuous
100
AcDbVertex
100
AcDb2dVertex
 10
15.99746008759553
 20
74.42572610700542
 30
0.0
  0
VERTEX
  5
231
330
226
100
AcDbEntity
  8
2
  6
Continuous
100
AcDbVertex
100
AcDb2dVertex
 10
14.57324764837875
 20
75.00352467580082
 30
0.0
  0
VERTEX
  5
232
330
226
100
AcDbEntity
  8
2
  6
Continuous
100
AcDbVertex
100
AcDb2dVertex
 10
13.08609851060947
 20
75.19799999999997
 30
0.0
  0
SEQEND
  5
233
330
226
100
AcDbEntity
  8
2
  0
LINE
  5
234
330
22
100
AcDbEntity
  8
2
  6
Continuous
100
AcDbLine
 10
16.27144981464682
 20
62.84786047117747
 30
0.0
 11
16.27144981464682
 21
73.05070990094156
 31
0.0
  0
LINE
  5
235
330
22
100
AcDbEntity
  8
2
  6
Continuous
100
AcDbLine
 10
22.50984191894537
 20
54.49999999999999
 30
0.0
 11
22.50984191894537
 21
75.49999999999999
 31
0.0
  0
LINE
  5
236
330
22
100
AcDbEntity
  8
2
  6
Continuous
100
AcDbLine
 10
23.00000000000006
 20
54.49999999999999
 30
0.0
 11
23.00000000000006
 21
61.721280737849
 31
0.0
  0
LINE
  5
237
330
22
100
AcDbEntity
  8
2
  6
Continuous
100
AcDbLine
 10
23.00000000000006
 20
68.27871926215097
 30
0.0
 11
23.00000000000006
 21
75.49999999999999
 31
0.0
  0
ARC
  5
238
330
22
100
AcDbEntity
  8
2
  6
Continuous
100
AcDbCircle
 10
33.50000000000006
 20
64.99999999999997
 30
0.0
 40
11.0
100
AcDbArc
 50
162.6585571972402
 51
197.3414428027598
  0
LINE
  5
2DF
330
22
100
AcDbEntity
  8
6
  6
Continuous
100
AcDbLine
 10
-50.0
 20
-18.50618108182636
 30
0.0
 11
-50.0
 21
0.0000000000000568
 31
0.0
  0
LINE
  5
2E0
330
22
100
AcDbEntity
  8
6
  6
Continuous
100
AcDbLine
 10
-50.29999999999996
 20
-20.49999999999997
 30
0.0
 11
-50.29999999999996
 21
-11.20164197361615
 31
0.0
  0
LINE
  5
2E1
330
22
100
AcDbEntity
  8
6
  6
Continuous
100
AcDbLine
 10
-53.18000000000006
 20
-0.925008177049051
 30
0.0
 11
-53.18000000000006
 21
-10.89758275750336
 31
0.0
  0
LINE
  5
2E2
330
22
100
AcDbEntity
  8
6
  6
Continuous
100
AcDbLine
 10
-50.0
 20
-10.73851776123044
 30
0.0
 11
-53.18000000000006
 21
-10.52460510697273
 31
0.0
  0
LINE
  5
2E3
330
22
100
AcDbEntity
  8
6
  6
Continuous
100
AcDbLine
 10
-50.0
 20
0.0000000000000568
 30
0.0
 11
-53.18000000000006
 21
-0.925008177049051
 31
0.0
  0
LINE
  5
2E4
330
22
100
AcDbEntity
  8
6
  6
CENTER
100
AcDbLine
 10
-62.43353919514789
 20
-9.253090858459444
 30
0.0
 11
-48.0
 21
-9.253090858459444
 31
0.0
  0
LINE
  5
2E5
330
22
100
AcDbEntity
  8
6
  6
DASHED
100
AcDbLine
 10
-60.71118534913512
 20
-7.495901675957043
 30
0.0
 11
-53.18000000000006
 21
-7.495901675957043
 31
0.0
  0
LINE
  5
2E6
330
22
100
AcDbEntity
  8
6
  6
CENTER
100
AcDbLine
 10
-63.5
 20
-9.999999999999943
 30
0.0
 11
-36.5
 21
-9.999999999999972
 31
0.0
  0
LINE
  5
2E7
330
22
100
AcDbEntity
  8
6
  6
CENTER
100
AcDbLine
 10
-50.0
 20
-23.49999999999997
 30
0.0
 11
-50.0
 21
3.500000000000057
 31
0.0
  0
LINE
  5
2E9
330
22
100
AcDbEntity
  8
6
  6
Continuous
100
AcDbLine
 10
-56.38218547441761
 20
-1.04077522493526
 30
0.0
 11
-53.18000000000006
 21
-1.04077522493526
 31
0.0
  0
LINE
  5
2EA
330
22
100
AcDbEntity
  8
6
  6
Continuous
100
AcDbLine
 10
-53.18000000000006
 20
-10.89758275750336
 30
0.0
 11
-51.98000000000002
 21
-10.89758275750336
 31
0.0
  0
LINE
  5
2EB
330
22
100
AcDbEntity
  8
6
  6
Continuous
100
AcDbLine
 10
-50.0
 20
-18.50618108182636
 30
0.0
 11
-50.29999999999996
 21
-18.40173573184006
 31
0.0
  0
LINE
  5
2EC
330
22
100
AcDbEntity
  8
6
  6
Continuous
100
AcDbLine
 10
-51.98000000000002
 20
-10.89758275750336
 30
0.0
 11
-50.29999999999996
 21
-11.20164197361615
 31
0.0
  0
ARC
  5
2ED
330
22
100
AcDbEntity
  8
6
  6
Continuous
100
AcDbCircle
 10
-50.0
 20
-9.999999999999957
 30
0.0
 40
11.0
100
AcDbArc
 50
17.34144280275975
 51
72.65855719724024
  0
ARC
  5
2EE
330
22
100
AcDbEntity
  8
6
  6
Continuous
100
AcDbCircle
 10
-50.0
 20
-9.999999999999957
 30
0.0
 40
11.0
100
AcDbArc
 50
107.3414428027598
 51
252.6585571972402
  0
ARC
  5
2EF
330
22
100
AcDbEntity
  8
6
  6
Continuous
100
AcDbCircle
 10
-50.0
 20
-9.999999999999957
 30
0.0
 40
11.0
100
AcDbArc
 50
287.3414428027597
 51
342.6585571972402
  0
LINE
  5
2F0
330
22
100
AcDbEntity
  8
6
  6
Continuous
100
AcDbLine
 10
-39.5
 20
-13.27871926215096
 30
0.0
 11
-39.5
 21
-6.721280737848957
 31
0.0
  0
LINE
  5
2F1
330
22
100
AcDbEntity
  8
6
  6
Continuous
100
AcDbLine
 10
-53.27871926215096
 20
0.5000000000000568
 30
0.0
 11
-46.72128073784904
 21
0.5000000000000568
 31
0.0
  0
LINE
  5
2F2
330
22
100
AcDbEntity
  8
6
  6
Continuous
100
AcDbLine
 10
-46.72128073784904
 20
-20.49999999999997
 30
0.0
 11
-53.27871926215096
 21
-20.49999999999997
 31
0.0
  0
LINE
  5
2F3
330
22
100
AcDbEntity
  8
6
  6
Continuous
100
AcDbLine
 10
-50.0
 20
-7.499999999999943
 30
0.0
 11
-39.80196097281441
 21
-7.499999999999943
 31
0.0
  0
ARC
  5
2F4
330
22
100
AcDbEntity
  8
6
  6
Continuous
100
AcDbCircle
 10
-50.0
 20
-9.999999999999957
 30
0.0
 40
10.5
100
AcDbArc
 50
268.3627549222222
 51
121.4320192391079
  0
LINE
  5
41A
330
22
100
AcDbEntity
  8
0
100
AcDbLine
 10
0.1984374999999545
 20
0.0
 30
0.0
 11
0.0
 21
0.0
 31
0.0
  0
LINE
  5
41B
330
22
100
AcDbEntity
  8
0
100
AcDbLine
 10
0.0
 20
0.0
 30
0.0
 11
0.0
 21
-0.198437499999983
 31
0.0
  0
DIMENSION
  5
42E
330
22
100
AcDbEntity
  8
AM_5
100
AcDbDimension
  2
*D2
 10
-17.97809217722761
 20
-9.999999999999995
 30
0.0
 11
-20.56809217722761
 21
-4.999999999999997
 31
0.0
 70
    32
 71
     5
 42
10.0
  3
Standard$0
100
AcDbAlignedDimension
 13
0.0000000000000568
 23
0.0
 33
0.0
 14
0.0000000000001137
 24
-10.0
 34
0.0
 50
270.0
100
AcDbRotatedDimension
1001
ACAD
1000
DSTYLE
1002
{
1070
    41
1040
3.0
1070
    42
1040
1.0
1070
    43
1040
5.0
1070
    44
1040
2.0
1070
    46
1040
3.0
1070
    73
1070
     0
1070
    74
1070
     0
1070
    77
1070
     1
1070
    78
1070
     8
1070
   140
1040
5.0
1070
   141
1040
2.0
1070
   145
1040
1.0
1070
   171
1070
     4
1070
   172
1070
     1
1002
}
  0
DIMENSION
  5
45D
330
22
100
AcDbEntity
  8
AM_5
100
AcDbDimension
  2
*D3
 10
0.000000000000001
 20
16.12775789837544
 30
0.0
 11
10.0
 21
18.71775789837544
 31
0.0
 70
    32
 71
     5
 42
20.0
  3
Standard$0
100
AcDbAlignedDimension
 13
20.0
 23
0.5
 33
0.0
 14
0.0
 24
0.0
 34
0.0
 50
180.0
100
AcDbRotatedDimension
1001
ACAD
1000
DSTYLE
1002
{
1070
    41
1040
3.0
1070
    42
1040
1.0
1070
    43
1040
5.0
1070
    44
1040
2.0
1070
    46
1040
3.0
1070
    73
1070
     0
1070
    74
1070
     0
1070
    77
1070
     1
1070
    78
1070
     8
1070
   140
1040
5.0
1070
   141
1040
2.0
1070
   145
1040
1.0
1070
   171
1070
     4
1070
   172
1070
     1
1002
}
  0
DIMENSION
  5
48E
330
22
100
AcDbEntity
  8
AM_5
100
AcDbDimension
  2
*D4
 10
88.54912792007349
 20
0.4999999999999947
 30
0.0
 11
88.54912792007349
 21
-31.12609856696577
 31
0.0
 70
   160
 71
     5
 42
21.0
  3
Standard$0
100
AcDbAlignedDimension
 13
69.57473087011732
 23
-20.5
 33
0.0
 14
69.57473087011732
 24
0.5
 34
0.0
 50
270.0
100
AcDbRotatedDimension
1001
ACAD
1000
DSTYLE
1002
{
1070
    41
1040
3.0
1070
    42
1040
1.0
1070
    43
1040
5.0
1070
    44
1040
2.0
1070
    46
1040
3.0
1070
    73
1070
     0
1070
    74
1070
     0
1070
    77
1070
     1
1070
    78
1070
     8
1070
   140
1040
5.0
1070
   141
1040
2.0
1070
   145
1040
1.0
1070
   171
1070
     4
1070
   172
1070
     1
1002
}
  0
DIMENSION
  5
4C1
330
22
100
AcDbEntity
  8
AM_5
100
AcDbDimension
  2
*D5
 10
59.07473087011738
 20
16.78993449045242
 30
0.0
 11
69.57473087011732
 21
19.37993449045242
 31
0.0
 70
    32
 71
     5
 42
20.99999999999989
  3
Standard$0
100
AcDbAlignedDimension
 13
80.07473087011726
 23
-10.00000000000009
 33
0.0
 14
59.07473087011738
 24
-10.00000000000009
 34
0.0
 50
180.0
100
AcDbRotatedDimension
1001
ACAD
1000
DSTYLE
1002
{
1070
    41
1040
3.0
1070
    42
1040
1.0
1070
    43
1040
5.0
1070
    44
1040
2.0
1070
    46
1040
3.0
1070
    73
1070
     0
1070
    74
1070
     0
1070
    77
1070
     1
1070
    78
1070
     8
1070
   140
1040
5.0
1070
   141
1040
2.0
1070
   145
1040
1.0
1070
   171
1070
     4
1070
   172
1070
     1
1002
}
  0
DIMENSION
  5
4FC
330
22
100
AcDbEntity
  8
AM_5
100
AcDbDimension
  2
*D6
 10
74.85353617284591
 20
-0.349393046243943
 30
0.0
 11
56.4140609502757
 21
-34.06007521794075
 31
0.0
 70
   163
 71
     5
 42
21.9999999999999
  3
Standard$3
100
AcDbDiametricDimension
 15
64.29592556738891
 25
-19.65060695375601
 35
0.0
 40
0.0
1001
ACAD
1000
DSTYLE
1002
{
1070
    41
1040
3.0
1070
    42
1040
1.0
1070
    43
1040
5.0
1070
    44
1040
2.0
1070
    46
1040
3.0
1070
    73
1070
     0
1070
    74
1070
     0
1070
    77
1070
     1
1070
    78
1070
     8
1070
   140
1040
5.0
1070
   141
1040
2.0
1070
   145
1040
1.0
1070
   171
1070
     4
1070
   172
1070
     1
1002
}
  0
DIMENSION
  5
52D
330
22
100
AcDbEntity
  8
AM_5
100
AcDbDimension
  2
*D7
 10
0.009839054164955
 20
41.30581149187994
 30
0.0
 11
60.00984048655513
 21
43.89581149187994
 31
0.0
 70
    32
 71
     5
 42
120.0000028647804
  3
Standard$0
100
AcDbAlignedDimension
 13
120.0098419189453
 23
57.09643419266695
 33
0.0
 14
0.0098390541649565
 24
64.99999999999999
 34
0.0
 50
180.0
100
AcDbRotatedDimension
1001
ACAD
1000
DSTYLE
1002
{
1070
    41
1040
3.0
1070
    42
1040
1.0
1070
    43
1040
5.0
1070
    44
1040
2.0
1070
    46
1040
3.0
1070
    73
1070
     0
1070
    74
1070
     0
1070
    77
1070
     1
1070
    78
1070
     8
1070
   140
1040
5.0
1070
   141
1040
2.0
1070
   145
1040
1.0
1070
   171
1070
     4
1070
   172
1070
     1
1002
}
  0
DIMENSION
  5
551
330
22
100
AcDbEntity
  8
AM_5
100
AcDbDimension
  2
*D8
 10
-12.38083407185058
 20
64.99999999999999
 30
0.0
 11
-12.38083407185059
 21
72.34000000000003
 31
0.0
 70
   160
 71
     5
 42
-1.0
  3
Standard$0
100
AcDbAlignedDimension
 13
0.0098390541971298
 23
64.99999999999999
 33
0.0
 14
1.692693883279844
 24
64.99999999999999
 34
0.0
 50
270.0
100
AcDbRotatedDimension
1001
ACAD
1000
DSTYLE
1002
{
1070
    41
1040
3.0
1070
    42
1040
1.0
1070
    43
1040
5.0
1070
    44
1040
2.0
1070
    46
1040
3.0
1070
    73
1070
     0
1070
    74
1070
     0
1070
    77
1070
     1
1070
    78
1070
     8
1070
   140
1040
5.0
1070
   141
1040
2.0
1070
   145
1040
1.0
1070
   171
1070
     4
1070
   172
1070
     1
1002
}
  0
ACAD_PROXY_ENTITY
  5
594
330
22
100
AcDbEntity
  8
AM_5
100
AcDbProxyEntity
 90
      498
 91
      570
 95
       25
 70
     0
 92
      668
310
9C020000270000000C00000016000000000000C00C00000013000000010000000C00000016000000000000C00C00000017000000FFFFFFFF3C0000000600000002000000807A262E8C7C42C00095D5066DFC43400000000000000000665BB3C27E1F3EC00195D5066DFC434000000000000000000C00000016000000000000
310
C00C00000010000000FFFFFFFF0C00000012000000FFFFFFFF0C00000017000000000000000C00000014000000010000000C00000013000000020000000C00000016000000000000C00C00000017000000FFFFFFFF3C0000000600000002000000665BB3C27E1F3EC00195D5066DFC4340000000000000000000F54C5C18F9
310
3AC00295D5066DFC434000000000000000000C00000016000000000000C00C00000010000000FFFFFFFF0C00000012000000FFFFFFFF0C00000017000000000000000C00000014000000010000000C00000013000000030000000C00000016000000000000C00C00000017000000FFFFFFFF3C000000060000000200000066
310
5BB3C27E1F3EC0585316F657C74340000000000000000000F54C5C18F93AC00295D5066DFC434000000000000000000C00000016000000000000C00C00000010000000FFFFFFFF0C00000012000000FFFFFFFF0C00000017000000000000000C00000014000000010000000C00000013000000040000000C00000016000000
310
000000C00C00000017000000FFFFFFFF3C000000060000000200000000F54C5C18F93AC00295D5066DFC43400000000000000000665BB3C27E1F3EC0ABD694178231444000000000000000000C00000016000000000000C00C00000010000000FFFFFFFF0C00000012000000FFFFFFFF0C00000017000000000000000C0000
310
0014000000010000000C00000013000000050000000C00000016000000000000C0
 93
     1473
310
5DC0051275BC0E739C000A575419B7F10D0219FD35022281B66F19197D35022281B64F2A54051F8000000C800AA201E898BA31F10B000095D5066DFC43409018FFFFFFFF003D5317063E4EB000295D5066DFC4340A8FFFFFFFF1FFFFFFFF100F44C5D18F88580004AEA8336FE21A045409C870F0E08C94F2B241C0240B9BE8
310
01B191102A0000000000003C2FC65F4D4088A86D9BC68333333333333094041D050000000000003C2FC000000000000F0BF40401015213500500
340
598
340
5A4
330
0
330
0
340
0
340
0
340
587
330
0
330
0
 94
        0
  0
ACAD_PROXY_ENTITY
  5
595
330
22
100
AcDbEntity
  8
AM_5
100
AcDbProxyEntity
 90
      498
 91
      570
 95
       25
 70
     0
 92
      668
310
9C020000270000000C00000016000000000000C00C00000013000000010000000C00000016000000000000C00C00000017000000FFFFFFFF3C0000000600000002000000807A262E8C7C42C00095D5066DFC43400000000000000000757A262E8C7C42C035C8083AA08F404000000000000000000C00000016000000000000
310
C00C00000010000000FFFFFFFF0C00000012000000FFFFFFFF0C00000017000000000000000C00000014000000010000000C00000013000000020000000C00000016000000000000C00C00000017000000FFFFFFFF3C0000000600000002000000757A262E8C7C42C035C8083AA08F40400000000000000000707A262E8C7C
310
42C0042AAB0DDAF83D4000000000000000000C00000016000000000000C00C00000010000000FFFFFFFF0C00000012000000FFFFFFFF0C00000017000000000000000C00000014000000010000000C00000013000000030000000C00000016000000000000C00C00000017000000FFFFFFFF3C00000006000000020000001E
310
BCE53EA1B142C034C8083AA08F40400000000000000000707A262E8C7C42C0042AAB0DDAF83D4000000000000000000C00000016000000000000C00C00000010000000FFFFFFFF0C00000012000000FFFFFFFF0C00000017000000000000000C00000014000000010000000C00000013000000040000000C00000016000000
310
000000C00C00000017000000FFFFFFFF3C0000000600000002000000707A262E8C7C42C0042AAB0DDAF83D400000000000000000CC38671D774742C036C8083AA08F404000000000000000000C00000016000000000000C00C00000010000000FFFFFFFF0C00000012000000FFFFFFFF0C00000017000000000000000C0000
310
0014000000010000000C00000013000000050000000C00000016000000000000C0
 93
     1537
310
5DC707A262E8C7C42C00321A14320B9CF102465F4D4088A06D13C866F4D4088A06D13C0000000000003C2FEA54051F8000000C800AA201E898BA31F10B000095D5066DFC43409018FFFFFFFF1C1E898BA31F10B00042AAB0DDAF83D40A8FFFFFFFF1FFFFFFFF100F44C5D18F88580004AEA8336FE21A045409C870F0E08C94
310
F2B241C01C3ECEDB74CC90D02A0000000000003C2FD197D35022281B44F28333333333333094041D050000000000003C2FC000000000000F0BF40401015213500500
340
598
340
5A4
330
0
330
0
340
0
340
0
340
587
330
0
330
0
 94
        0
  0
TEXT
  5
596
330
22
100
AcDbEntity
  8
AM_6
100
AcDbText
 10
-37.83362548120891
 20
22.3445952345979
 30
0.0
 40
4.0
  1
0%%D
100
AcDbText
  0
TEXT
  5
597
330
22
100
AcDbEntity
  8
AM_6
100
AcDbText
 10
-25.2487228700154
 20
38.07965798398499
 30
0.0
 40
4.0
  1
0%%D
100
AcDbText
  0
TEXT
  5
5DC
330
22
100
AcDbEntity
  8
0
100
AcDbText
 10
-1.312274429250692
 20
-71.40801987325779
 30
0.0
 40
5.0
  1
%%uRS22X-SVXL11
100
AcDbText
  0
ENDSEC
  0
SECTION
  2
OBJECTS
  0
DICTIONARY
  5
C
330
0
100
AcDbDictionary
281
     1
  3
ACAD_COLOR
350
1B
  3
ACAD_GROUP
350
D
  3
ACAD_LAYOUT
350
19
  3
ACAD_MATERIAL
350
1A
  3
ACAD_MLINESTYLE
350
16
  3
ACAD_PLOTSETTINGS
350
18
  3
ACAD_PLOTSTYLENAME
350
E
  3
ACAD_TABLESTYLE
350
1C
  3
AcAmCatalogState
350
390
  3
ACDBHEADERROUNDTRIPXREC
350
77F
  3
AcDbVariableDictionary
350
3E1
  3
ACDMSYSVARMGR
350
34A
  3
ACGREF_MASTER
350
344
  3
ACGREFACAD_MASTER
350
36C
  3
AcmDictionary
350
38E
  3
ACME_BOM_MANAGER_NAME
350
33E
  3
ACME_COMMAND_HISTORY
350
33B
  3
ACME_SCOPE_NAME
350
33A
  3
ACMESTATEMGR
350
343
  3
AcmeSysVarManager
350
33C
  3
AcmSystemVariableManager
350
399
  3
AD_APPL
350
37B
  3
ADSYSVARMGR
350
37A
  3
AmdtNamedDwgMgr
350
367
  3
AMG
350
370
  3
AMGSNAPSETTINGS
350
3D0
  3
AMI_MASTER
350
36F
  3
AUTOCAD_ASSEMBLIES_PROJECT
350
383
  3
Designer_Assemblies_SysVars
350
37E
  3
GREFAM_MODULE
350
374
  0
DICTIONARY
  5
592
330
2
100
AcDbDictionary
280
     1
281
     1
  3
ACAD_LAYERSTATES
360
593
  0
DICTIONARY
  5
1B
102
{ACAD_REACTORS
330
C
102
}
330
C
100
AcDbDictionary
281
     1
  0
DICTIONARY
  5
D
102
{ACAD_REACTORS
330
C
102
}
330
C
100
AcDbDictionary
281
     1
  0
DICTIONARY
  5
19
102
{ACAD_REACTORS
330
C
102
}
330
C
100
AcDbDictionary
281
     1
  3
Model
350
25
  3
レイアウト1
350
21
  0
DICTIONARY
  5
1A
102
{ACAD_REACTORS
330
C
102
}
330
C
100
AcDbDictionary
281
     1
  0
DICTIONARY
  5
16
102
{ACAD_REACTORS
330
C
102
}
330
C
100
AcDbDictionary
281
     1
  3
Standard
350
17
  0
DICTIONARY
  5
18
102
{ACAD_REACTORS
330
C
102
}
330
C
100
AcDbDictionary
281
     1
  0
ACDBDICTIONARYWDFLT
  5
E
102
{ACAD_REACTORS
330
C
102
}
330
C
100
AcDbDictionary
281
     1
  3
Normal
350
F
100
AcDbDictionaryWithDefault
340
F
  0
DICTIONARY
  5
1C
102
{ACAD_REACTORS
330
C
102
}
330
C
100
AcDbDictionary
281
     1
  3
Standard
350
1D
  0
ACAD_PROXY_OBJECT
  5
390
102
{ACAD_REACTORS
330
C
102
}
330
C
100
AcDbProxyObject
 90
      499
 91
      545
 95
       25
 70
     0
 93
      504
310
3FFFFFFFE00A0281402992E2E21BA3239AE483ECB654563CBCEAE4AABC7C0483ECB652E487CC6F6CBB846A445F7AE41BDC1B341A12E272A25C83ECB65400AA
  0
DICTIONARY
  5
77F
102
{ACAD_REACTORS
330
C
102
}
330
C
100
AcDbDictionary
281
     1
  3
COLORDICT
350
780
  3
MATERIALDICT
350
781
  0
DICTIONARY
  5
3E1
102
{ACAD_REACTORS
330
C
102
}
330
C
100
AcDbDictionary
281
     1
  3
CTABLESTYLE
350
3E2
  3
DIMASSOC
350
77D
  3
HIDETEXT
350
77E
  0
ACAD_PROXY_OBJECT
  5
34A
102
{ACAD_REACTORS
330
C
102
}
330
C
100
AcDbProxyObject
 90
      499
 91
      505
 95
       25
 70
     0
 93
      240
310
4C51A47A0000000000000000000000000000000000000000000000000000
330
34B
330
34C
330
34D
330
34E
330
34F
330
350
330
351
330
352
330
353
330
354
330
355
330
356
330
357
330
358
330
359
330
35A
330
35B
330
35C
330
35D
330
35E
330
35F
330
360
330
361
330
362
330
363
330
364
 94
        0
  0
ACAD_PROXY_OBJECT
  5
344
102
{ACAD_REACTORS
330
C
102
}
330
C
100
AcDbProxyObject
 90
      499
 91
      513
 95
       25
 70
     0
 93
       34
310
0400004280
  0
ACAD_PROXY_OBJECT
  5
36C
102
{ACAD_REACTORS
330
C
102
}
330
C
100
AcDbProxyObject
 90
      499
 91
      522
 95
       25
 70
     0
 93
      114
310
04000041C080000000000000000000
  0
DICTIONARY
  5
38E
102
{ACAD_REACTORS
330
C
102
}
330
C
100
AcDbDictionary
281
     1
  3
AcmBOMDATA
350
38F
  3
AcmStdDictionary
350
39B
  3
AMDTSECTSYM_ARROWCOLOR
350
3BB
  0
ACAD_PROXY_OBJECT
  5
33E
102
{ACAD_REACTORS
330
C
102
}
330
C
100
AcDbProxyObject
 90
      499
 91
      507
 95
       25
 70
     0
 93
       50
310
00010040400000
330
0
330
0
330
33F
 94
        0
  0
ACAD_PROXY_OBJECT
  5
33B
102
{ACAD_REACTORS
330
C
102
}
330
C
100
AcDbProxyObject
 90
      499
 91
      504
 95
       25
 70
     0
 93
     3640
310
478050844524F5047454F4D80504554E444F80505584C494E45805064D4952524F5280505455241534580504554E444F80505584C494E4580505584C494E45805064D4952524F528050844524F5047454F4D8050844524F5047454F4D80505455241534580504554E444F805045A4F4F4D805045A4F4F4D80505504F494E54
310
805064D534C494445805045A4F4F4D80504554E444F8050657424C4F434B80504554E444F805055153415645408052D4D5347202D205050413A2020206465736B746F702E6172782046696C6556657273696F6E3A20392E322E302E3401461354D1C80B4810DBDB5B585B990810D05390D1531311510B805044D4F56458050
310
45A4F4F4D805044C494E4540405184D5347202D20436F6D6D616E642043414E43454C4C45442E01415454D05591501014B5354D1C80B481414104E88080819195CDADD1BDC0B985C9E08119A5B1955995C9CDA5BDB8E880E4B8C8B8C0B8D0050E414D4454524553455444424D4F4440805084E202D20554E444F014213880B
310
4815539113C0504554E444F80504554E444F805055153415645404052D4D5347202D205050413A2020206465736B746F702E6172782046696C6556657273696F6E3A20392E322E302E34
  0
ACAD_PROXY_OBJECT
  5
33A
102
{ACAD_REACTORS
330
C
102
}
330
C
100
AcDbProxyObject
 90
      499
 91
      503
 95
       25
 70
     0
 93
      546
310
090000464080000000000000000012F4CE0000000000000000000000000000000000000000000000000000000000000000000000000000000000000000000000AAA406AA80
360
33D
360
33F
360
345
360
346
360
347
360
348
360
34B
360
34C
360
34D
360
34E
360
34F
360
350
360
351
360
352
360
353
360
354
360
355
360
356
360
357
360
358
360
359
360
35A
360
35B
360
35C
360
35D
360
35E
360
35F
360
360
360
361
360
362
360
363
360
364
360
376
360
377
360
378
360
379
360
37F
360
380
360
381
360
382
360
387
360
388
360
389
360
38A
360
38B
360
38C
360
39A
 94
        0
  0
ACAD_PROXY_OBJECT
  5
343
102
{ACAD_REACTORS
330
C
102
}
330
C
100
AcDbProxyObject
 90
      499
 91
      512
 95
       25
 70
     0
 93
       50
310
09000042641280
  0
ACAD_PROXY_OBJECT
  5
33C
102
{ACAD_REACTORS
330
C
102
}
330
C
100
AcDbProxyObject
 90
      499
 91
      505
 95
       25
 70
     0
 93
       32
310
90140A00
330
33D
 94
        0
  0
ACAD_PROXY_OBJECT
  5
399
102
{ACAD_REACTORS
330
C
102
}
330
C
100
AcDbProxyObject
 90
      499
 91
      505
 95
       25
 70
     0
 93
       32
310
90140A00
330
39A
 94
        0
  0
ACAD_PROXY_OBJECT
  5
37B
102
{ACAD_REACTORS
330
C
102
}
330
C
100
AcDbProxyObject
 90
      499
 91
      533
 95
       25
 70
     0
 93
       42
310
000900004040
330
376
 94
        0
  0
ACAD_PROXY_OBJECT
  5
37A
102
{ACAD_REACTORS
330
C
102
}
330
C
100
AcDbProxyObject
 90
      499
 91
      505
 95
       25
 70
     0
 93
        8
310
AA
  0
ACAD_PROXY_OBJECT
  5
367
102
{ACAD_REACTORS
330
C
102
}
330
C
100
AcDbProxyObject
 90
      499
 91
      519
 95
       25
 70
     0
 93
       42
310
000100005E80
330
345
 94
        0
  0
DICTIONARY
  5
370
102
{ACAD_REACTORS
330
C
102
}
330
C
100
AcDbDictionary
281
     1
  3
AcMgSettings
350
371
  3
AMGLAYCFG
350
39D
  0
DICTIONARY
  5
3D0
102
{ACAD_REACTORS
330
C
102
}
330
C
100
AcDbDictionary
281
     1
  3
DIMENSION
350
3D5
  3
FEA
350
3D4
  3
HATCH (1)
350
3D1
  3
HATCH (2)
350
3D2
  3
SIMPLE WELD
350
3D6
  3
SYMBOLS
350
3D3
  0
ACAD_PROXY_OBJECT
  5
36F
102
{ACAD_REACTORS
330
C
102
}
330
C
100
AcDbProxyObject
 90
      499
 91
      525
 95
       25
 70
     0
 93
       34
310
0500004280
  0
ACAD_PROXY_OBJECT
  5
383
102
{ACAD_REACTORS
330
C
102
}
330
C
100
AcDbProxyObject
 90
      499
 91
      537
 95
       25
 70
     0
 93
       98
310
0900004E400000000000000000
330
38A
330
0
330
38B
330
0
330
0
330
0
330
0
330
0
 94
        0
  0
ACAD_PROXY_OBJECT
  5
37E
102
{ACAD_REACTORS
330
C
102
}
330
C
100
AcDbProxyObject
 90
      499
 91
      505
 95
       25
 70
     0
 93
       56
310
90441600000000
330
37F
330
380
330
381
330
382
 94
        0
  0
ACAD_PROXY_OBJECT
  5
374
102
{ACAD_REACTORS
330
C
102
}
330
C
100
AcDbProxyObject
 90
      499
 91
      527
 95
       25
 70
     0
 93
        8
310
05
  0
DICTIONARY
  5
593
102
{ACAD_REACTORS
330
592
102
}
330
592
100
AcDbDictionary
281
     1
  0
LAYOUT
  5
25
102
{ACAD_REACTORS
330
19
102
}
330
19
100
AcDbPlotSettings
  1

  2
Canon LBP-1420
  4
A4
  6

 40
5.873749732971191
 41
5.873747825622559
 42
5.873748779296875
 43
5.873748779296875
 44
209.9733276367188
 45
296.9259948730469
 46
0.0
 47
0.0
 48
0.0
 49
0.0
140
400.0
141
273.0
142
1.0
143
1.402630290955233
 70
 11952
 72
     1
 73
     1
 74
     4
  7
sei_cad.ctb
 75
     0
147
0.7129462456703186
148
0.0
149
0.0
100
AcDbLayout
  1
Model
 70
     1
 71
     0
 10
0.0
 20
0.0
 11
12.0
 21
9.0
 12
0.0
 22
0.0
 32
0.0
 14
0.0
 24
0.0
 34
0.0
 15
0.0
 25
0.0
 35
0.0
146
0.0
 13
0.0
 23
0.0
 33
0.0
 16
1.0
 26
0.0
 36
0.0
 17
0.0
 27
1.0
 37
0.0
 76
     0
330
22
1001
ACAD_PSEXT
1000
Canon LBP-1420
1000
Canon LASER SHOT LBP-1420
1000
10.254.89.243:lp
1000

1070
     0
  0
LAYOUT
  5
21
102
{ACAD_REACTORS
330
19
102
}
330
19
100
AcDbPlotSettings
  1

  2
Canon LBP-1420
  4

  6

 40
0.0
 41
0.0
 42
0.0
 43
0.0
 44
0.0
 45
0.0
 46
0.0
 47
0.0
 48
0.0
 49
0.0
140
0.0
141
0.0
142
1.0
143
1.0
 70
   688
 72
     0
 73
     0
 74
     5
  7
sei_cad.ctb
 75
    16
147
1.0
148
0.0
149
0.0
100
AcDbLayout
  1
レイアウト1
 70
     1
 71
     1
 10
0.0
 20
0.0
 11
12.0
 21
9.0
 12
0.0
 22
0.0
 32
0.0
 14
1.000000000000000E+20
 24
1.000000000000000E+20
 34
1.000000000000000E+20
 15
-1.000000000000000E+20
 25
-1.000000000000000E+20
 35
-1.000000000000000E+20
146
0.0
 13
0.0
 23
0.0
 33
0.0
 16
1.0
 26
0.0
 36
0.0
 17
0.0
 27
1.0
 37
0.0
 76
     0
330
1E
  0
MLINESTYLE
  5
17
102
{ACAD_REACTORS
330
16
102
}
330
16
100
AcDbMlineStyle
  2
STANDARD
 70
     0
  3

 62
   256
 51
90.0
 52
90.0
 71
     2
 49
0.5
 62
   256
  6
BYLAYER
 49
-0.5
 62
   256
  6
BYLAYER
  0
ACDBPLACEHOLDER
  5
F
102
{ACAD_REACTORS
330
E
102
}
330
E
  0
TABLESTYLE
  5
1D
102
{ACAD_REACTORS
330
1C
102
}
330
1C
100
AcDbTableStyle
  3
Standard
 70
     0
 71
     0
 40
0.06
 41
0.06
280
     0
281
     0
  7
STANDARD
140
0.18
170
     2
 62
     0
 63
     7
283
     0
274
    -2
284
     1
 64
     0
275
    -2
285
     1
 65
     0
276
    -2
286
     1
 66
     0
277
    -2
287
     1
 67
     0
278
    -2
288
     1
 68
     0
279
    -2
289
     1
 69
     0
  7
STANDARD
140
0.25
170
     5
 62
     0
 63
     7
283
     0
274
    -2
284
     1
 64
     0
275
    -2
285
     1
 65
     0
276
    -2
286
     1
 66
     0
277
    -2
287
     1
 67
     0
278
    -2
288
     1
 68
     0
279
    -2
289
     1
 69
     0
  7
STANDARD
140
0.18
170
     5
 62
     0
 63
     7
283
     0
274
    -2
284
     1
 64
     0
275
    -2
285
     1
 65
     0
276
    -2
286
     1
 66
     0
277
    -2
287
     1
 67
     0
278
    -2
288
     1
 68
     0
279
    -2
289
     1
 69
     0
  0
XRECORD
  5
780
102
{ACAD_REACTORS
330
77F
102
}
330
77F
100
AcDbXrecord
280
     1
340
1B
  0
XRECORD
  5
781
102
{ACAD_REACTORS
330
77F
102
}
330
77F
100
AcDbXrecord
280
     1
340
1A
  0
DICTIONARYVAR
  5
3E2
102
{ACAD_REACTORS
330
3E1
102
}
330
3E1
100
DictionaryVariables
280
     0
  1
STANDARD
  0
DICTIONARYVAR
  5
77D
102
{ACAD_REACTORS
330
3E1
102
}
330
3E1
100
DictionaryVariables
280
     0
  1
1
  0
DICTIONARYVAR
  5
77E
102
{ACAD_REACTORS
330
3E1
102
}
330
3E1
100
DictionaryVariables
280
     0
  1
0
  0
ACAD_PROXY_OBJECT
  5
38F
102
{ACAD_REACTORS
330
38E
102
}
330
38E
100
AcDbProxyObject
 90
      499
 91
      544
 95
       25
 70
     0
 93
       76
310
90100057356C1D7740E0
  0
DICTIONARY
  5
39B
102
{ACAD_REACTORS
330
38E
102
}
330
38E
100
AcDbDictionary
281
     1
  3
ANSI
350
39C
  3
JIS
350
598
  0
XRECORD
  5
3BB
102
{ACAD_REACTORS
330
38E
102
}
330
38E
100
AcDbXrecord
280
     1
 90
-1023410169
  0
ACAD_PROXY_OBJECT
  5
33D
330
33A
100
AcDbProxyObject
 90
      499
 91
      506
 95
       25
 70
     0
 93
      156
310
000101439050D35154D6535093D314D256915080
330
33A
 94
        0
  0
ACAD_PROXY_OBJECT
  5
33F
330
33A
100
AcDbProxyObject
 90
      499
 91
      508
 95
       25
 70
     0
 93
      120
310
000101422565255A6557080C402B00
330
33A
330
0
330
0
 94
        0
  0
ACAD_PROXY_OBJECT
  5
345
330
33A
100
AcDbProxyObject
 90
      499
 91
      514
 95
       25
 70
     0
 93
      366
310
0001014124FEA55D00507392E322E302E32014124FEA55D00507392E322E302E3240501000041905394D24CCC658
330
33A
330
346
330
34A
 94
        0
  0
ACAD_PROXY_OBJECT
  5
346
330
33A
100
AcDbProxyObject
 90
      499
 91
      515
 95
       25
 70
     0
 93
       48
310
000190140A00
330
33A
330
347
 94
        0
  0
ACAD_PROXY_OBJECT
  5
347
330
33A
100
AcDbProxyObject
 90
      499
 91
      516
 95
       25
 70
     0
 93
       48
310
0001AA000000
330
33A
330
21
330
348
330
0
 94
        0
  0
ACAD_PROXY_OBJECT
  5
348
330
33A
100
AcDbProxyObject
 90
      499
 91
      517
 95
       25
 70
     0
 93
       28
310
0001AAA0
330
33A
 94
        0
  0
ACAD_PROXY_OBJECT
  5
34B
330
33A
100
AcDbProxyObject
 90
      499
 91
      506
 95
       25
 70
     0
 93
      108
310
000101421053521310D05310D010
330
33A
 94
        0
  0
ACAD_PROXY_OBJECT
  5
34C
330
33A
100
AcDbProxyObject
 90
      499
 91
      506
 95
       25
 70
     0
 93
      124
310
00010142905354915554D15112535010
330
33A
 94
        0
  0
ACAD_PROXY_OBJECT
  5
34D
330
33A
100
AcDbProxyObject
 90
      499
 91
      506
 95
       25
 70
     0
 93
      132
310
00010143105354D150D51253D391125360
330
33A
 94
        0
  0
ACAD_PROXY_OBJECT
  5
34E
330
33A
100
AcDbProxyObject
 90
      499
 91
      506
 95
       25
 70
     0
 93
      124
310
00010142905355941093D49111549010
330
33A
 94
        0
  0
ACAD_PROXY_OBJECT
  5
34F
330
33A
100
AcDbProxyObject
 90
      499
 91
      506
 95
       25
 70
     0
 93
      116
310
0001014290535115D1D0D3D313D4A0
330
33A
 94
        0
  0
ACAD_PROXY_OBJECT
  5
350
330
33A
100
AcDbProxyObject
 90
      499
 91
      506
 95
       25
 70
     0
 93
      148
310
00010143505355925155D49151949154D21010
330
33A
 94
        0
  0
ACAD_PROXY_OBJECT
  5
351
330
33A
100
AcDbProxyObject
 90
      499
 91
      506
 95
       25
 70
     0
 93
      172
310
00010144105350539393D51154149154D15495915010
330
33A
 94
        0
  0
ACAD_PROXY_OBJECT
  5
352
330
33A
100
AcDbProxyObject
 90
      499
 91
      506
 95
       25
 70
     0
 93
      172
310
00010144105350555513D11253505494905391D15010
330
33A
 94
        0
  0
ACAD_PROXY_OBJECT
  5
353
330
33A
100
AcDbProxyObject
 90
      499
 91
      506
 95
       25
 70
     0
 93
      124
310
00010142D05351561514915191125360
330
33A
 94
        0
  0
ACAD_PROXY_OBJECT
  5
354
330
33A
100
AcDbProxyObject
 90
      499
 91
      506
 95
       25
 70
     0
 93
      132
310
00010142D05355105410539393D5115010
330
33A
 94
        0
  0
ACAD_PROXY_OBJECT
  5
355
330
33A
100
AcDbProxyObject
 90
      499
 91
      506
 95
       25
 70
     0
 93
      108
310
00010142105350555513D0D31010
330
33A
 94
        0
  0
ACAD_PROXY_OBJECT
  5
356
330
33A
100
AcDbProxyObject
 90
      499
 91
      506
 95
       25
 70
     0
 93
      108
310
00010142105350D3119150551050
330
33A
 94
        0
  0
ACAD_PROXY_OBJECT
  5
357
330
33A
100
AcDbProxyObject
 90
      499
 91
      506
 95
       25
 70
     0
 93
      108
310
00010142105350D315925155D3F0
330
33A
 94
        0
  0
ACAD_PROXY_OBJECT
  5
358
330
33A
100
AcDbProxyObject
 90
      499
 91
      506
 95
       25
 70
     0
 93
      148
310
0001014350535212511156915493D112535010
330
33A
 94
        0
  0
ACAD_PROXY_OBJECT
  5
359
330
33A
100
AcDbProxyObject
 90
      499
 91
      506
 95
       25
 70
     0
 93
      124
310
00010142905352105510D21254D3D010
330
33A
 94
        0
  0
ACAD_PROXY_OBJECT
  5
35A
330
33A
100
AcDbProxyObject
 90
      499
 91
      506
 95
       25
 70
     0
 93
      148
310
00010143905354D25391D31152105513105660
330
33A
 94
        0
  0
ACAD_PROXY_OBJECT
  5
35B
330
33A
100
AcDbProxyObject
 90
      499
 91
      506
 95
       25
 70
     0
 93
      124
310
00010142D0535115D1D193111254D420
330
33A
 94
        0
  0
ACAD_PROXY_OBJECT
  5
35C
330
33A
100
AcDbProxyObject
 90
      499
 91
      506
 95
       25
 70
     0
 93
      100
310
00010142105350555513D213A0
330
33A
 94
        0
  0
ACAD_PROXY_OBJECT
  5
35D
330
33A
100
AcDbProxyObject
 90
      499
 91
      506
 95
       25
 70
     0
 93
      116
310
000101425053521390D3D553951010
330
33A
 94
        0
  0
ACAD_PROXY_OBJECT
  5
35E
330
33A
100
AcDbProxyObject
 90
      499
 91
      506
 95
       25
 70
     0
 93
      108
310
0001014210535213941493D29010
330
33A
 94
        0
  0
ACAD_PROXY_OBJECT
  5
35F
330
33A
100
AcDbProxyObject
 90
      499
 91
      506
 95
       25
 70
     0
 93
      108
310
0001014210535213951654115070
330
33A
 94
        0
  0
ACAD_PROXY_OBJECT
  5
360
330
33A
100
AcDbProxyObject
 90
      499
 91
      506
 95
       25
 70
     0
 93
      108
310
000101421053521395925155D0F0
330
33A
 94
        0
  0
ACAD_PROXY_OBJECT
  5
361
330
33A
100
AcDbProxyObject
 90
      499
 91
      506
 95
       25
 70
     0
 93
      140
310
00010143505354D150D51253D390D3D41660
330
33A
 94
        0
  0
ACAD_PROXY_OBJECT
  5
362
330
33A
100
AcDbProxyObject
 90
      499
 91
      506
 95
       25
 70
     0
 93
      108
310
00010142105350D3141493D29030
330
33A
 94
        0
  0
ACAD_PROXY_OBJECT
  5
363
330
33A
100
AcDbProxyObject
 90
      499
 91
      518
 95
       25
 70
     0
 93
      212
310
00010143905350555513D2105510D21493D500000000000002E400
330
33A
 94
        0
  0
ACAD_PROXY_OBJECT
  5
364
330
33A
100
AcDbProxyObject
 90
      499
 91
      506
 95
       25
 70
     0
 93
      156
310
00010143905350555513D2105510D21111551010
330
33A
 94
        0
  0
ACAD_PROXY_OBJECT
  5
376
330
33A
100
AcDbProxyObject
 90
      499
 91
      529
 95
       25
 70
     0
 93
      698
310
0001000000009AA6A9AA4051E546875204175672032342030303A34353A343620323030362028555443290141CE4B8C8B8C0B8C80518576564205365702030312030393A34393A313720323031300141CE4B8C8B8C0B8C80
330
33A
330
377
330
378
330
37A
330
0
 94
        0
  0
ACAD_PROXY_OBJECT
  5
377
330
33A
100
AcDbProxyObject
 90
      499
 91
      530
 95
       25
 70
     0
 93
       70
310
0001AAA80820000000
330
33A
330
377
330
377
 94
        0
  0
ACAD_PROXY_OBJECT
  5
378
330
33A
100
AcDbProxyObject
 90
      499
 91
      531
 95
       25
 70
     0
 93
       48
310
000100000000
330
33A
330
0
330
379
330
0
330
0
 94
        0
  0
ACAD_PROXY_OBJECT
  5
379
330
33A
100
AcDbProxyObject
 90
      499
 91
      532
 95
       25
 70
     0
 93
       40
310
000100AAAA
330
33A
330
0
 94
        0
  0
ACAD_PROXY_OBJECT
  5
37F
330
33A
100
AcDbProxyObject
 90
      499
 91
      536
 95
       25
 70
     0
 93
      180
310
00010143105050D3D35411119390535140504434F4D500
330
33A
 94
        0
  0
ACAD_PROXY_OBJECT
  5
380
330
33A
100
AcDbProxyObject
 90
      499
 91
      536
 95
       25
 70
     0
 93
      212
310
0001014390505193D311115491119390535140506466F6C6465720
330
33A
 94
        0
  0
ACAD_PROXY_OBJECT
  5
381
330
33A
100
AcDbProxyObject
 90
      499
 91
      536
 95
       25
 70
     0
 93
      180
310
00010143105050539393D1119390535140504284156290
330
33A
 94
        0
  0
ACAD_PROXY_OBJECT
  5
382
330
33A
100
AcDbProxyObject
 90
      499
 91
      536
 95
       25
 70
     0
 93
      436
310
00010143905050D3D35415925155D31254D50052295BD96CA0A90B396CA0A894591A496CA0A8DB691A496CA0A89BA96CA0A95E28F95310
330
33A
 94
        0
  0
ACAD_PROXY_OBJECT
  5
387
330
33A
100
AcDbProxyObject
 90
      499
 91
      538
 95
       25
 70
     0
 93
       32
310
00010000
330
33A
340
384
330
389
330
384
 94
        0
  0
ACAD_PROXY_OBJECT
  5
388
330
33A
100
AcDbProxyObject
 90
      499
 91
      539
 95
       25
 70
     0
 93
       18
310
000180
330
33A
 94
        0
  0
ACAD_PROXY_OBJECT
  5
389
330
33A
100
AcDbProxyObject
 90
      499
 91
      540
 95
       25
 70
     0
 93
      186
310
000101431494CC8C960B54D596130C4C5050055401550000
330
33A
330
387
330
388
 94
        0
  0
ACAD_PROXY_OBJECT
  5
38A
330
33A
100
AcDbProxyObject
 90
      499
 91
      541
 95
       25
 70
     0
 93
      178
310
000100AAAAAAB4AF35CC5391FA112023566DF736343700
330
33A
330
389
 94
        0
  0
ACAD_PROXY_OBJECT
  5
38B
330
33A
100
AcDbProxyObject
 90
      499
 91
      542
 95
       25
 70
     0
 93
      108
310
000190140A000000000000AAAAA0
330
33A
330
38C
330
38C
330
38C
330
38C
330
38C
330
0
 94
        0
  0
ACAD_PROXY_OBJECT
  5
38C
330
33A
100
AcDbProxyObject
 90
      499
 91
      543
 95
       25
 70
     0
 93
       51
310
00010000AAAA80
330
33A
330
38B
330
389
 94
        0
  0
ACAD_PROXY_OBJECT
  5
39A
330
33A
100
AcDbProxyObject
 90
      499
 91
      536
 95
       25
 70
     0
 93
      148
310
00010142105350D55494D51100504414E53490
330
33A
 94
        0
  0
DICTIONARY
  5
371
102
{ACAD_REACTORS
330
370
102
}
330
370
100
AcDbDictionary
281
     1
  3
DWGSETTINGS
350
372
  3
Shaft
350
40C
  3
TRANSSETTINGS
350
373
  0
ACAD_PROXY_OBJECT
  5
39D
102
{ACAD_REACTORS
330
370
102
}
330
370
100
AcDbProxyObject
 90
      499
 91
      551
 95
       25
 70
     0
 93
    17920
310
41503491013041105357CC201C00030C011E441013141105357CC603800030C011E441013241105357CCA01400030C011E441013341105357CCE01800030C010F9013441105357CD200C00030C010F9013541105357CD600C00030C010F9013641105357CDA00800030C011E9013741105357CDE01000030C010F901384110
310
5357CE200400030C010F9013941105357CE63F400030C0241102324141505357CC4C201C00030C011E902344141505357CC4C600C00030C010F902495041505357CC4CA01C00030C011E40902304E41505357CC13A01C00030C011E902314E41505357CC53A03800030C011E902324E41505357CC93A01400030C011E90233
310
4E41505357CCD3A01800030C010F902344E41505357CD13A00C00030C010F902354E41505357CD53A00C00030C010F902364E41505357CD93A00800030C011E902374E41505357CDD3A01000030C010F902384E41505357CE13A00400030C010F902394E41505357CE53A3F400030C024110332414E41905357CC4C13A01C0
310
0030C011E90334414E41905357CC4C53A00C00030C010F90349504E41905357CC4C93A01C00030C011E409044B4C494E41505357D0D3200400030C010F42504494E464F42105357D410549151A01000030C010F42D055241484D3541905357D093D4A01C00030C011E425045649455742105357D5925155D4E00400030C010
310
F42D06424548494E4441905357D25395A3F400030C0243505545241494C41505357D514A00C00030C010F4250348494441905357D21251201C00030C010F4250356495341905357D59254E01C00030C011E4250650415244494D42505357D41054911253600C00030C010F4250652454644494D42505357D49151911253601
310
000030C010F425534110921395901398000000C0003FFFFFFFE415092139594D06424548494E448000000C0003FFFFFFFE411093D48C9055241484D358010000C30043E411093D48CD055241484D358020000C30047A411093D48D5055241484D358000000C0003FFFFFFFE4110D0530C901348000000C0003FFFFFFFE4110
310
D0530CD01348020000C30047A4110D0530D501348070000C30047A4110D0530DD013481E0000C3004F24110D15393901378000000C0003FFFFFFFE4110D15395D01378000000C0003FFFFFFFE4110D312539044B4C494E8000000C0003FFFFFFFE4110D3D38C501308000000C0003FFFFFFFD034110D3D38C901318000000C
310
0003FFFFFFFD034110D3D38CD01328000000C0003FFFFFFFD034110D3D38D101328000000C0003FFFFFFFD034111115510501348000000C0003FFFFFFFE4111125051D01358000000C0003FFFFFFFE4111125312501358000000C0003FFFFFFFE411112535410650415244494D8000000C0003FFFFFFFE4111125354906524
310
54644494D8000000C0003FFFFFFFE4111915353901388000000C0003FFFFFFFE415191535413901388030000C3003FFFFFFFE4151915354D410234418000000C0003FFFFFFFE4151915354D510234418030000C30043E415191535593901328000000C0003FFFFFFFE415191535595101328030000C30043E4112105510D01
310
388000000C0003FFFFFFFD014112125113901338000000C0003FFFFFFFD034112125115D01338000000C0003FFFFFFFD034112131253901348000000C0003FFFFFFFD01411213D0D3901378000000C0003FFFFFFFE411213D0D5D01378000000C0003FFFFFFFE4112539193D04494E464F8000000C0003FFFFFFFE41131150
310
51101358000000C0003FFFFFFFE419397D0921395902394E8000000C0003FFFFFFFE419397D0D3D38C502304E8000000C0003FFFFFFFD03419397D0D3D38C902314E8000000C0003FFFFFFFD03419397D0D3D38CD02324E8000000C0003FFFFFFFD03419397D0D3D38D102324E8000000C0003FFFFFFFD03419397D0D15393
310
902374E8000000C0003FFFFFFFE419397D0D15395D02374E8000000C0003FFFFFFFE419397D1125312502354E8000000C0003FFFFFFFE419397D2105510D02384E8000000C0003FFFFFFFD01419397D2125113902334E8000000C0003FFFFFFFD03419397D2125115D02334E8000000C0003FFFFFFFD03419397D311505110
310
2354E8000000C0003FFFFFFFE419397D391D25410349504E8000000C0003FFFFFFFE419397D412105390334414E8000000C0003FFFFFFFE419397D510D3D3902304E8000000C0003FFFFFFFD03419397D5121312502344E8000000C0003FFFFFFFD01419397D5131153902304E8000000C0003FFFFFFFD03419397D5941312
310
50332414E8000000C0003FFFFFFFE411391D25410249508000000C0003FFFFFFFE411410530C9055241484D358010000C30043E411410530CD055241484D358020000C30047A411410530D5055241484D358000000C0003FFFFFFFE411412105390234418000000C0003FFFFFFFE411413D4D3901358000000C0003FFFFFFF
310
E411490D1D3901378000000C0003FFFFFFFE411490D1D5D01378000000C0003FFFFFFFE4114D09492D01348070000C300479014114D150D5101348000000C0003FFFFFFFD014114D6508CD01358020000C30047A411354D653501358020000C30047A411510D3D3901308000000C0003FFFFFFFD0341151213125013480000
310
00C0003FFFFFFFD01411512550C9055241484D358010000C30043E411512550CD055241484D358020000C30047A411512550D5055241484D358000000C0003FFFFFFFE4115131153901308000000C0003FFFFFFFD03415514905253105545241494C8000000C0003FFFFFFFE4115149312501348000000C0003FFFFFFFD014
310
11516150C501368030000C30043E411516150C901368030000C30043E411516150CD01368000000C0003FFFFFFFE411516150D501368070000C30047A411516150DD013681E0000C3004F24115925155D04564945578000000C0003FFFFFFFE41159151121034849448000000C0003FFFFFFFD024115915115903564953800
310
0000C0003FFFFFFFD02411594131250232418000000C0003FFFFFFFE4116925690501348000000C0003FFFFFFFD01AAA3F400030C01013F90A4050F4091E40D0F4110F4151E4190F41D1E4391E4793C7F6
340
15
340
15
340
15
340
365
340
15
340
15
340
15
340
28
340
15
340
15
340
28
340
366
340
15
340
15
340
15
340
15
340
365
340
15
340
15
340
15
340
28
340
15
340
15
340
28
340
366
340
15
340
3A1
340
15
340
15
340
15
340
15
340
15
340
365
340
15
340
15
340
15
340
14
340
14
340
14
340
14
340
14
340
14
340
14
340
14
340
14
340
3A7
340
14
340
14
340
14
340
14
340
14
340
14
340
14
340
14
340
14
340
14
340
14
340
14
340
14
340
15
340
14
340
14
340
14
340
14
340
3A8
340
14
340
14
340
3A7
340
14
340
14
340
14
340
14
340
14
340
14
340
14
340
14
340
3A7
340
14
340
14
340
14
340
3A8
340
14
340
14
340
14
340
14
340
14
340
3A8
340
14
340
366
340
14
340
14
340
14
340
14
340
14
340
14
340
3A7
340
14
340
14
340
14
340
14
340
14
340
14
340
3A8
340
14
340
14
340
14
340
14
340
14
340
14
340
14
340
14
340
14
340
14
340
14
340
14
340
14
340
14
340
366
340
3A9
 94
        0
  0
ACAD_PROXY_OBJECT
  5
3D5
102
{ACAD_REACTORS
330
3D0
102
}
330
3D0
100
AcDbProxyObject
 90
      499
 91
      568
 95
       25
 70
     0
 93
      253
310
43D1444494D454E53494F4E2C414D44545F2A5F44494D404A9012A404A9012A8
  0
ACAD_PROXY_OBJECT
  5
3D4
102
{ACAD_REACTORS
330
3D0
102
}
330
3D0
100
AcDbProxyObject
 90
      499
 91
      568
 95
       25
 70
     0
 93
      181
310
43D012A42D05357D191504B505357CA9012A404A9012A8
  0
ACAD_PROXY_OBJECT
  5
3D1
102
{ACAD_REACTORS
330
3D0
102
}
330
3D0
100
AcDbProxyObject
 90
      499
 91
      568
 95
       25
 70
     0
 93
      133
310
43D054841544348404A9012A404A9012A8
  0
ACAD_PROXY_OBJECT
  5
3D2
102
{ACAD_REACTORS
330
3D0
102
}
330
3D0
100
AcDbProxyObject
 90
      499
 91
      568
 95
       25
 70
     0
 93
      549
310
43D044C494E4549CE0B0E138B0A8B4E0B0A8B4E138B105357CE0B105357CE138B0A8B505357CE0B0A8B505357CE139012A404A910494E534552542C5354445041525432448
  0
ACAD_PROXY_OBJECT
  5
3D6
102
{ACAD_REACTORS
330
3D0
102
}
330
3D0
100
AcDbProxyObject
 90
      499
 91
      568
 95
       25
 70
     0
 93
      181
310
43D0341524341105357CD5012A404C906494E534552540
  0
ACAD_PROXY_OBJECT
  5
3D3
102
{ACAD_REACTORS
330
3D0
102
}
330
3D0
100
AcDbProxyObject
 90
      499
 91
      568
 95
       25
 70
     0
 93
     1053
310
43D7841434D46434652414D452C41434D444154554D5441524745542C41434D444154554D49442C41434D57454C4453594D2C41434D5355524653594D2C41434D4645415449442C41434D504152545245462C41434D42414C4C4F4F4E2C414D44544544474553594D2C414D47534352455743414C435441424C45404A9012A
310
404A9012A8
  0
ACAD_PROXY_OBJECT
  5
39C
102
{ACAD_REACTORS
330
39B
102
}
330
39B
100
AcDbProxyObject
 90
      499
 91
      550
 95
       25
 70
     0
 93
     2395
310
5DCB81E85EB51B8BE3F8030000C30041105394D2501640600800030C0200800030C00B81E85EB51B8BE3F48821E8720B1B6A9BAB9332A32BC3A29BA3220480A1282C6DA8C868CA6E8C88120286A0B1B6ABB2B63234B733A9BA3220480A1082C6DA92C8A6E8C88120285A0B1B6A230BA3AB6A9BA3220480A1282C6DA849E9AA
310
6E8C8812028820B6B23A2232BA30B4B629BCB6A9BA3220480A2282DAC8E8A6CAC6E8D2DEDCA6F2DAA6E8C88120288A0B6B23A21B2B73A32B92634B732A9BA3220480A2282DAC8E8A8D0E4CAC2C898D2DCCAA6E8C88120285A0B6B23A2737BA32A9BA3220480A1682C682DACE98C2F2A6E8C88120285A0B1A0B6B3A234B6A9B
310
A3220480A2282C682DACE90DED8CA86D0C2E4E8A6E8C88120286A0B1A0B6B3AA34BA3632A9BA3220480A02812020
340
3AA
360
3AB
360
3AC
360
3AD
360
3AE
360
3AF
360
3B0
360
3B1
360
3B2
360
3B3
360
3B4
360
3B5
360
3C1
360
3C2
360
3CD
360
3CE
340
0
340
0
 94
        0
  0
ACAD_PROXY_OBJECT
  5
598
102
{ACAD_REACTORS
330
39B
102
}
330
39B
100
AcDbProxyObject
 90
      499
 91
      571
 95
       25
 70
     0
 93
     2379
310
5DC33333333333309408000000C00040D29254D01640600800030C0200800030C003333333333330940C8121E8720B1B6A9BAB9332A32BC3A29BA3220480A1282C6DA8C868CA6E8C88120286A0B1B6ABB2B63234B733A9BA3220480A1082C6DA92C8A6E8C88120285A0B1B6A230BA3AB6A9BA3220480A1282C6DA849E9AA6E
310
8C88120286A0B1A0B6B3AA34BA3632A9BA3220480A2082DAC8E888CAE8C2D2D8A6F2DAA6E8C88120288A0B6B23A29B2B1BA34B7B729BCB6A9BA3220480A2282DAC8E886CADCE8CAE498D2DCCAA6E8C88120288A0B6B23A2A343932B0B22634B732A9BA3220480A1682DAC8E89CDEE8CAA6E8C88120285A0B1A0B6B3A630BCA
310
9BA3220480A1682C682DACE88D2DAA6E8C88120288A0B1A0B6B3A437B632A1B430B93A29BA3220480C812020
340
587
360
599
360
59A
360
59B
360
59C
360
59D
360
59E
360
59F
360
5A0
360
5A1
360
5A2
360
5A3
360
5A4
360
5AA
360
5AB
360
5AC
340
0
340
0
 94
        0
  0
ACAD_PROXY_OBJECT
  5
372
102
{ACAD_REACTORS
330
371
102
}
330
371
100
AcDbProxyObject
 90
      499
 91
      526
 95
       25
 70
     0
 93
     2420
310
4050B44574753455454494E4753A1286829C8E82A4A482B282A0472608321A2A720A723A0A849A1ABE1C983E18999AA0C868A9C889282940000000000001C07E83A1A2A72224A0A9A0A8598171ABE1897183E18971AA0E868A9C8892A6A8940000000000001807E8321A2A72622A7250000000000000701FA0C868A9C9E8C8
310
C940000000000001C07E84A1A624A720A92920ACA0A87181718991ABE1817191ABE18171AA108698929C8AA8B2A082A0AB098929C8A84A22BA3AAA9A1A0A622A50A0E9882A6A89E849482A02608426A0A5A2AB24A2ABA7E8120CA0A68682988A0C00800010652455649534941501304154D0D0531150540CC4E8C50954494D
310
455354414D504A004C58451722B734141D5915494D253D3905414C4D4B8C0C1107B44574753455454494E4753454E447D0
  0
ACAD_PROXY_OBJECT
  5
40C
102
{ACAD_REACTORS
330
371
102
}
330
371
100
AcDbProxyObject
 90
      499
 91
      526
 95
       25
 70
     0
 93
      199
310
405055368616674220F688AE8EA68AA8A8929C8EA68A9C88FA
  0
ACAD_PROXY_OBJECT
  5
373
102
{ACAD_REACTORS
330
371
102
}
330
371
100
AcDbProxyObject
 90
      499
 91
      526
 95
       25
 70
     0
 93
      852
310
4050D5452414E5353455454494E4753A2488A482AE929C8EA8A4829CA69882A8929E9C0C00800050D4F524947494E414C4C595F4F4E0600400008529A7AAA921A2A620A723A0A81A52827212AAA0A48AA68AA4AC8A0C0080001107B44574753455454494E4753454E447D0
  0
ACAD_PROXY_OBJECT
  5
3AB
330
39C
100
AcDbProxyObject
 90
      499
 91
      552
 95
       25
 70
     0
 93
       96
310
5DC20E80A0280A0280A02808
  0
ACAD_PROXY_OBJECT
  5
3AC
330
39C
100
AcDbProxyObject
 90
      499
 91
      553
 95
       25
 70
     0
 93
      332
310
5DD0E4050140501405014050140501405014050142501405014050140501405012000000000000000400
340
3B6
 94
        0
  0
ACAD_PROXY_OBJECT
  5
3AD
330
39C
100
AcDbProxyObject
 90
      499
 91
      554
 95
       25
 70
     0
 93
      403
310
5DCC199999999999E99F91F4050140501405014050140501405014050140501405014050140501405014050140501405014040
340
0
 94
        0
  0
ACAD_PROXY_OBJECT
  5
3AE
330
39C
100
AcDbProxyObject
 90
      499
 91
      555
 95
       25
 70
     0
 93
       10
310
5DC0
  0
ACAD_PROXY_OBJECT
  5
3AF
330
39C
100
AcDbProxyObject
 90
      499
 91
      556
 95
       25
 70
     0
 93
      257
310
5DE290EA22A7D90F49F9353333333333727F44D4CCCCCCCCCDC9FC010000618000
340
3B7
340
3B8
 94
        0
  0
ACAD_PROXY_OBJECT
  5
3B0
330
39C
100
AcDbProxyObject
 90
      499
 91
      557
 95
       25
 70
     0
 93
    13023
310
5DD0E411255115350141236025B6901405014069011309A4F2590CB64FD3347454E545241434F2C4A504E2C302C8D8096DA2C47454E54524154582C25732C2847454E4D53472067656E647767203232322940690120281A8AA2CA0282484A4BE52028120280A03202261349E4B2196C9FA668E8A9CA8A482869E5894A09C58
310
605921292F94588E8A9CA8A482A8B0584AE658508E8A9C9AA68E40CECADCC8EECE406464665280D202405044E414D454050496BC914F4051C40640A8B95C2E97CBE502404CD1D15395149050D3CB1294138B0C0B25AF2453CB11D15395149055160B095CCB0A11D1539354D1C819D95B991DD9C80C8C8D8A50192C3D494628
310
4953424C414E4B28504152543A4E414D45292C424C4F434B3A4E414D452C504152543A4E414D452940480A0A888AA686A480A09251B1DBE80A3A80C81D10782C06030180C8099A3A2A72A2920A1A7962528271618164946C76F9623A2A72A2920AA2C1612B9961423A2A726A9A39033B2B7323BB39019189B94A0248090142
310
14D51053911054911014122D2E29A50147501904A383BFDFEFF5FBFCFD3347454E545241434F2C4A504E2C302C8B4B8A692C47454E54524154582C25732C2847454E4D53472067656E64776720323138294049012028426A0AA22A924A0A62028246EF4BDFA028EA0320B41396D838E9017D9FA668E8A9CA8A482869E5894A
310
09C5860591BBD2F7E588E8A9CA8A482A8B0584AE658508E8A9C9AA68E40CECADCC8EECE406464625280D202405044E4F544540504928D8B4C4051D40641A8B95C2E97CBE5F23F4CD1D15395149050D3CB1294138B0C0B24A362D30B11D15395149055160B095CCB0A11D1539354D1C819D95B991DD9C80C8C8D4A501A40480
310
A0CAC8A9C889EA480A1106F1072706BF02B680A3A80C83D172B85D2F97CBE47E9BA3A2A72A2920A1A79625282716181641BC41C9C1AFC0AD9623A2A72A2920AA2C1612B9961423A2A726A9A39033B2B7323BB39019191A14A0348090141911154D0D48C90141A43825AF880C90147501908A20F0580C0603019013447454E5
310
45241434F2C4A504E2C302C90E096BE20322C47454E54524154582C25732C2847454E4D53472067656E6477672033362940490120284A9AA20A72220A922192028345A5C53490192028EA0321347077FBFDFEBF7F9FA6A8E8A9CA8A482869E5894A09C586059169714D24064588E8A9CA8A482A8B0584AE658508E8A9C9AA6
310
8E40CECADCC8EECE4064646052809202405094D4154455249414C32405068DDE97BF20324051D40642A8272DB071D202FB3F4D11D15395149050D3CB1294138B0C0B2377A5EFC80C8B11D15395149055160B095CCB0A11D1539354D1C819D95B991DD9C80D0C0A501240480A089A82A6A680A091D7F2F9480A3A80A0485A06
310
81172B85D2F97CBE47E9923A2A72A2920A1A796252827161816475FCBE51623A2A72A2920AA2C1612B9961423A2A726A9A39033B2B7323BB3901A1914A024809014154149250D150141226FE29A501475014090C409022E570BA5F2F97C8FD3247454E545241434F2C4A504E2C302C89BF8A692C47454E54524154582C2573
310
2C2847454E4D53472067656E6477672034332940490120281A224A6A02824850CB202028EA028121A81A045CAE174BE5F2F91FA648E8A9CA8A482869E5894A09C58605921432C80588E8A9CA8A482A8B0584AE658508E8A9C9AA68E40CECADCC8EECE406868528092024050E441022E07A17AD46E338FE07800030C0001018
310
ACD56AB55AADF63F2B355AAD56AB7D8FD073D3C4954454D3E405018ACD56AB55AADF63F2B355AAD56AB7D8FD073D3C4954454D3E40501890C7E3F1783CEE3F2431F8FC5E0F3B8FD073D3C4954454D3E40501890C7E3F1783CEE3F2431F8FC5E0F3B8FD073D3C4954454D3E405029012B355AAD56AB7D8FCACD56AB55AADF63
310
F41CF4F125511534F901418F4F1455164F9014062B355AAD56AB7D8FCACD56AB55AADF63F41CF4F125511534F9014061309A4F2590CBA4FC4C2693C96432E93F41CF4F125511534F901901002B355AAD56AB7D8FCACD56AB55AADF63FA2000000000000008204018000618048220681A048120280C88214844882034852034
310
8452028521485214814000000000000F0BF0000000000003C2FD018020000C3008070000C3000EF7D3E365DBA88FC3BDF4F8D976EA23F2E07A17AD46E2F8FF20341A405024150741A4069703D0BD6A3717C7F0040001860100400018601002000186002026280A02
340
0
340
0
 94
        0
  0
ACAD_PROXY_OBJECT
  5
3B1
330
39C
100
AcDbProxyObject
 90
      499
 91
      558
 95
       25
 70
     0
 93
      994
310
5DC0B81E85EB51B8CE3F4BCF511155105253080F11115510525317D3105091530F971414D0D05311480F11115510525317D05094D4D0D053114F92341C9A9999999999B93F26A666666666724FC000000000000E03F4000000000000004000000000000005100000000000000244081E0000C3002E07A17AD46E338FC0
340
366
340
3AA
 94
        0
  0
ACAD_PROXY_OBJECT
  5
3B2
330
39C
100
AcDbProxyObject
 90
      499
 91
      559
 95
       25
 70
     0
 93
      823
310
5DC031703D0BD6A3719C7E999EA9A2A1AA24A7A7101E29A2A1AA24A7A72FA620A122A62FA324A929AA1F169E29A2A1AA24A7A72FA620A122A62FA620A9AA1F1353333333333B27E3FFFE01C00030C008840F000061801353333333333B27F1703D0BD6A3719C7E
340
366
340
3AA
 94
        0
  0
ACAD_PROXY_OBJECT
  5
3B3
330
39C
100
AcDbProxyObject
 90
      499
 91
      560
 95
       25
 70
     0
 93
      280
310
5DC2B8716D9CEF7C33F0A5723F0BD4A2F0FC295C8FC2F528BC3FA199999999999F99FC
  0
ACAD_PROXY_OBJECT
  5
3B4
330
39C
100
AcDbProxyObject
 90
      499
 91
      561
 95
       25
 70
     0
 93
       14
310
5DE4
340
0
 94
        0
  0
ACAD_PROXY_OBJECT
  5
3B5
330
39C
100
AcDbProxyObject
 90
      499
 91
      562
 95
       25
 70
     0
 93
     7123
310
5DD084050BA4050AA405024050E836583938376838C815B8367203140405013D3C696628657175616C28486F6C653A7461707065642C223022292C22252563222C486F6C653A6E6F6D696E616C2022202220696628657175616C28486F6C653A756E6974732C223122292C2278222C222D222920222022293E3C6966286571
310
75616C28486F6C653A7461707065642C223022292C486F6C653A6469612C486F6C653A706974636864657363293E207B5C46414D4744543B787D203C696628657175616C28486F6C653A7465726D696E6174696F6E2C223022292C486F6C653A64657074682C228AD192CA22293E5C507B5C46414D4744543B767D2525633C
310
486F6C653A63746469613E207B5C46414D4744543B787D203C486F6C653A637464657074683E406901405034050E836583938376838C815B83672031405FE3D3C696628657175616C28486F6C653A7461707065642C223022292C22252563222C486F6C653A6E6F6D696E616C2022202220696628657175616C28486F6C653
310
A756E6974732C223122292C2278222C222D222920222022293E3C696628657175616C28486F6C653A7461707065642C223022292C486F6C653A6469612C486F6C653A706974636864657363293E207B5C46414D4744543B787D203C696628657175616C28486F6C653A7465726D696E6174696F6E2C223022292C486F6C653
310
A64657074682C228AD192CA22293E5C507B5C46414D4744543B777D2525633C486F6C653A63746469613E2058203C486F6C653A6374616E676C653E252564406901405014050E836583938376838C815B83672031405CF3D3C696628657175616C28486F6C653A7461707065642C223022292C22252563222C486F6C653A6E
310
6F6D696E616C2022202220696628657175616C28486F6C653A756E6974732C223122292C2278222C222D222920222022293E3C696628657175616C28486F6C653A7461707065642C223022292C486F6C653A6469612C486F6C653A706974636864657363293E5C507B5C46414D4744543B787D203C696628657175616C2848
310
6F6C653A7465726D696E6174696F6E2C223022292C486F6C653A64657074682C228AD192CA22293E4069014051E4090E836583938376838C815B83672032405173D3C535444503A444553433E203C535444503A5354443E40690E836583938376838C815B836720314050C3D3C535444503A444553433E40690240515AAABB
310
A060
360
3BF
330
3BF
360
3C0
330
3C0
360
3BE
330
3BE
360
3BD
360
3BC
330
3BD
330
3BC
 94
        0
  0
ACAD_PROXY_OBJECT
  5
3C1
330
39C
100
AcDbProxyObject
 90
      499
 91
      564
 95
       25
 70
     0
 93
       26
310
5DD02A80
340
39D
 94
        0
  0
ACAD_PROXY_OBJECT
  5
3C2
330
39C
100
AcDbProxyObject
 90
      499
 91
      565
 95
       25
 70
     0
 93
      258
310
5DD02000000000000380FC000000000000E03F408F0F9023C3E40DB18CCCFFFF80
340
3C3
340
42A
340
0
340
4FB
340
4E7
340
0
340
3C6
340
3C7
340
3CC
340
0
 94
        0
  0
ACAD_PROXY_OBJECT
  5
3CD
330
39C
100
AcDbProxyObject
 90
      499
 91
      566
 95
       25
 70
     0
 93
    13993
310
5DD1D023FFFFFFFD010300002E07A17AD46E2F8FE00800030C01010300002E07A17AD46E2F8FE00800030C00050C8DC0955782CC838A83588367014ED1D15395149050D3CB1294138B0C0B23702555E0B320E2A0D620D9CB11D15395149055160B095CCB0A11D1539354D1C819D95B991A5B5E880CCC0A78000C0000000000
310
00000000000000000000007B14AE47E17AA43F2E07A17AD46E2F8FE00800030C007B14AE47E17AA43F2E07A17AD46E2F8FE00800030C020143CF4F111959985D5B1D151A5D1B194F8050A8C8A8365815B8375838B014E51D15395149050D3CB1294138B0C0B2322A0D96056E0DD60E2CB11D15395149055160B095CCB0A11D
310
1539354D1C819D95B991A5B5E880CCC4A78000C000000000000000000000000000000007B14AE47E17AA43F2E07A17AD46E2F8FE00800030C007B14AE47E17AA43F2E07A17AD46E2F8FE00800030C020143CF4F111959985D5B1D151A5D1B194F90D4410F4450240D0441507431014391244D05449074510C4350F00014123
310
2D24D7C053247454E545241434F2C4A504E2C302C8CB4935F2C47454E54524154582C25732C2847454E4D53472067656E64696D7A20312900010104002214000282465A49AF80A648E8A9CA8A482869E5894A09C586059196926BE588E8A9CA8A482A8B0584AE658508E8A9C9AA68E40CECADCC8D2DAF44062520002020800
310
43E80005028C8A014C11D15395149050D3CB1294138B0C0B23228B11D15395149055160B095CCB0A11D1539354D1C819D95B991A5B5E880C8A4054E3D3C4946284953424C414E4B28486F6C654974656D292C4F726967696E2C20486F6C654974656D293E3C4946284953424C414E4B28486F6C654974656D292C22222C204
310
86F6C65496E646578293E010104002234000280AC00A5E8E8A9CA8A482869E5894A09C586058B0588E8A9CA8A482A8B0584AE658508E8A9C9AA68E40CECADCC8D2DAF4406652000202000040A800050159014BD1D15395149050D3CB1294138B0C0B164B11D15395149055160B095CCB0A11D1539354D1C819D95B991A5B5E
310
880D0A4000404000081D0000A02A40297A3A2A72A2920A1A796252827161816291623A2A72A2920AA2C1612B9961423A2A726A9A39033B2B73234B6BD101B148000808000104A000140A0F4C053047454E545241434F2C4A504E2C302C83D32C47454E54524154582C25732C2847454E4D53472067656E64696D7A20372900
310
0101030020B400028141E980A608E8A9CA8A482869E5894A09C58605907A6588E8A9CA8A482A8B0584AE658508E8A9C9AA68E40CECADCC8D2DAF4407052000202020041E800050490E096BE014CD1D15395149050D3CB1294138B0C0B243825AF8B11D15395149055160B095CCB0A11D1539354D1C819D95B991A5B5E880C8
310
C0A400040010008650000A091B012DB40299A3A2A72A2920A1A79625282716181646C04B6D1623A2A72A2920AA2C1612B9961423A2A726A9A39033B2B73234B6BD10189A148000808280501A00014320D0E0E4E0D9A0D8A0D3A0D60053B47454E545241434F2C4A504E2C302C8343839383668362834E83582C47454E54524
310
154582C25732C2847454E4D53472067656E64696D7A203135290001010500A1D4000281464500A628E8A9CA8A482869E5894A09C5860591914588E8A9CA8A482A8B0584AE658508E8A9C9AA68E40CECADCC8D2DAF440626C52000202080044A800050E8C8A8343839383668362834E8358014F51D15395149050D3CB129413
310
8B0C0B2322A0D0E0E4E0D9A0D8A0D3A0D60B11D15395149055160B095CCB0A11D1539354D1C819D95B991A5B5E880C4DCA4000404140089D0000A0921292F940299A3A2A72A2920A1A796252827161816484A4BE51623A2A72A2920AA2C1612B9961423A2A726A9A39033B2B73234B6BD10189C948000808300114A0001412
310
2D2E29A4053347454E545241434F2C4A504E2C302C8B4B8A692C47454E54524154582C25732C2847454E4D53472067656E64696D7A20323129000100040021B4878030026A6666666667A4FE064D4CCCCCCCCCF49FC049A9999999999E93F809353333333333D27F0226A6666666667A4FE044D4CCCCCCCCCF49FC0D818000
310
00000000000810026A666666666764FE004D4CCCCCCCCCF49FC009A9999999999E93F801353333333333D27F032E07A17AD46E378FE0633B333333333032050F006004D4CCCCCCCCCF49FC0C9A9999999999E93F819353333333333D27F0326A6666666667A4FE064D4CCCCCCCCCF49FC0C9A9999999999E93F81B03000000
310
00000000102004D4CCCCCCCCCEC9FC009A9999999999E93F819353333333333D27F0026A6666666667A4FE065C0F42F5A8DC6F1FC0C6766666666660640A088800000021E000000890000002260000008220E000200890000002060002008100008000
340
0
340
0
340
0
340
0
340
3AA
340
3AA
 94
        0
  0
ACAD_PROXY_OBJECT
  5
3CE
330
39C
100
AcDbProxyObject
 90
      499
 91
      567
 95
       25
 70
     0
 93
     5214
310
5DD9741105394D2506414E53495F4342905394D257D512551554D15414E53495F54525F5265766973696F6E6C697374614191143202831372E307832322E30696E63682941905394D257D0D1146202832382E307834302E30696E63682941905394D257D191142202831312E307831372E30696E63682941905394D257D091
310
144202832322E307833342E30696E63682941905394D257D111145202833342E307834342E30696E63682941905394D257D1510412028382E357831312E30696E63682941905394D257D050543905B9CDA482557247A25E4C81110D0C414E53495F5449544C45444343505B9CDA482557247A25E4C81050B414E53495F5449
310
544C454143905B9CDA482557247A25E4C81050D0C414E53495F5449544C454143425554C82557247A25E4D0A414E53495F544954555343505B9CDA482557247A25E4C81110B414E53495F5449544C454442110979A97F0838A8358836720415F42525F45505394D257D09497D4995D9A5CDA5BDB9B1A5CDD18510979A97F08
310
38A8358836720415F54525F45505394D257D51497D4995D9A5CDA5BDB9B1A5CDD18510979A97F0838A8358836720445F42525F45505394D257D09497D4995D9A5CDA5BDB9B1A5CDD19110979A97F0838A8358836720445F54525F45505394D257D51497D4995D9A5CDA5BDB9B1A5CDD19110979A97F0838A8358836720415F
310
424C5F45505394D257D09317D4995D9A5CDA5BDB9B1A5CDD18510979A97F0838A8358836720415F544C5F45505394D257D51317D4995D9A5CDA5BDB9B1A5CDD18510979A97F0838A8358836720445F424C5F45505394D257D09317D4995D9A5CDA5BDB9B1A5CDD19110979A97F0838A8358836720445F544C5F45505394D25
310
7D51317D4995D9A5CDA5BDB9B1A5CDD190
  0
ACAD_PROXY_OBJECT
  5
599
330
598
100
AcDbProxyObject
 90
      499
 91
      572
 95
       25
 70
     0
 93
       86
310
5DEA0C80A0280A0280A034
  0
ACAD_PROXY_OBJECT
  5
59A
330
598
100
AcDbProxyObject
 90
      499
 91
      573
 95
       25
 70
     0
 93
      282
310
5DD0E4050140501405014050140501405014050141101405014041000000000000001000
340
588
 94
        0
  0
ACAD_PROXY_OBJECT
  5
59B
330
598
100
AcDbProxyObject
 90
      499
 91
      574
 95
       25
 70
     0
 93
      323
310
5DCC199999999999E99F91740501405014050140501405014050140501405014050140501405014040
340
0
 94
        0
  0
ACAD_PROXY_OBJECT
  5
59C
330
598
100
AcDbProxyObject
 90
      499
 91
      575
 95
       25
 70
     0
 93
       10
310
5DC0
  0
ACAD_PROXY_OBJECT
  5
59D
330
598
100
AcDbProxyObject
 90
      499
 91
      576
 95
       25
 70
     0
 93
      257
310
5DE0C16A22A7D90F49F80000000000001081400000000000004204010000618000
340
583
340
584
 94
        0
  0
ACAD_PROXY_OBJECT
  5
59E
330
598
100
AcDbProxyObject
 90
      499
 91
      577
 95
       25
 70
     0
 93
     5277
310
5DD06411255115350141236025B6901405014069010000000000000910240690120281A8AA2CA0282484A4BE52028120280A032020000000000001220480D202405044E414D454050496BC914F4051C40640A80000000000004E4090193C3D3C4946284953424C414E4B28504152543A4E414D45292C424C4F434B3A4E414D
310
452C504152543A4E414D45293E3C41435F44455343524950544E3E40480A109A82A88AA492829880A091BBD2F7E80A3A80C81D0E27A15AF46E08A81203480901411393D5115014124A363B7D0147501904A0000000000000F902406428F4F1050D7D393D5114F901202832B22A72227A92028366EF6EE06F582028EA0320B4
310
0000000000001F20480C879E9E20A1AFAB27222FA620A122A61F20240506445020000000000000490201C00030C00010180000000000003E400000000000000F901073D3C4954454D3E4050180000000000003E400000000000000F901073D3C4954454D3E40501800000000000034400000000000000D101073D3C4954454
310
D3E40501800000000000034400000000000000D101073D3C4954454D3E405029010000000000000F9000000000000003E4041CF4F125511534F901418F4F1455164F9014060000000000000F9000000000000003E4041CF4F125511534F901800000000000034400000000000000D101073D3C4954454D3E40640400000000
310
0000003E400000000000000F90288800000000000020810000001800120881A068120480A032208521122080D21480D211480A1485214852050000000000003C2FC000000000000F0BF40600800030C0200400030C00CDCCCCCCCCCCEC3F3373333333333B0FC3333333333330940C80D069014090341504901A1999999999
310
9984A040100006180400800061804010000618008098A02808
340
0
340
0
 94
        0
  0
ACAD_PROXY_OBJECT
  5
59F
330
598
100
AcDbProxyObject
 90
      499
 91
      567
 95
       25
 70
     0
 93
     3042
310
5DD9740D29254D064A49535F413342929254D7D512551311505134A49535F42525F5265766973696F6E6C6973744190F4134522028323937783231306D6D2941D29254D7D04D1490E41312028353934783834316D6D2941929254D7D04C50F41344C2028323130783239376D6D2941D29254D7D04D1310E413320283239377
310
83432306D6D2941929254D7D04CD0E41322028343230783539346D6D2941929254D7D04C90F4130202838343178313138396D6D2941929254D7D04C10243129254C82557247A25E4C81050A4A49535F5449544C454143129254C82557247A25E4C81090A4A49535F5449544C45424110E979A97F0838A835883675F42525F4
310
4D29254D7D09497D4995D9A5CDA5BDB9B1A5CDD10E979A97F0838A835883675F54525F44D29254D7D51497D4995D9A5CDA5BDB9B1A5CDD10E979A97F0838A835883675F424C5F44D29254D7D09317D4995D9A5CDA5BDB9B1A5CDD10E979A97F0838A835883675F544C5F44D29254D7D51317D4995D9A5CDA5BDB9B1A5CDD00
  0
ACAD_PROXY_OBJECT
  5
5A0
330
598
100
AcDbProxyObject
 90
      499
 91
      578
 95
       25
 70
     0
 93
      898
310
5DC4000000000000124048CF4F11115510525317D3105091530F880A0F11115510525317D05094D4D0D053114F8A50241C9A9999999999B93F26A666666666724FC000000000000E03F400000000000000400000000000000510000000000000024408070000C300000000000000049000
340
15
340
587
 94
        0
  0
ACAD_PROXY_OBJECT
  5
5A1
330
598
100
AcDbProxyObject
 90
      499
 91
      579
 95
       25
 70
     0
 93
      823
310
5DC0B00000000000002480959E9E29A2A1AA24A7A72FA620A122A62FA324A929AA1F169E29A2A1AA24A7A72FA620A122A62FA620A9AA1F000000000000048803FFFE01C00030C008140380006180000000000000048800000000000000A2000000000000002480
340
28
340
587
 94
        0
  0
ACAD_PROXY_OBJECT
  5
5A2
330
598
100
AcDbProxyObject
 90
      499
 91
      580
 95
       25
 70
     0
 93
      152
310
5DE8273108AC1C5A0640A3D0A5723F0BD1F200
  0
ACAD_PROXY_OBJECT
  5
5A3
330
598
100
AcDbProxyObject
 90
      499
 91
      581
 95
       25
 70
     0
 93
       14
310
5DE0
340
0
 94
        0
  0
ACAD_PROXY_OBJECT
  5
5A4
330
598
100
AcDbProxyObject
 90
      499
 91
      582
 95
       25
 70
     0
 93
     6059
310
5DD084050BA4050AA405024050E836583938376838C815B83672031405983D3C486F6C653A6469613E3C696628657175616C28486F6C653A7465726D696E6174696F6E2C223022292C2220905B82B320222C22208368838A838B22293E3C696628657175616C28486F6C653A7465726D696E6174696F6E2C223022292C486F
310
6C653A64657074682C2222293E2C203C486F6C653A63746469613E2082B482AE82E882CC905B82B3203C486F6C653A637464657074683E406901405034050E836583938376838C815B83672031405EF3D3C486F6C653A6374616E676C653E252564202525633C486F6C653A63746469613E208E4D8C8A2C203C69662865717
310
5616C28486F6C653A7461707065642C223022292C22252563222C486F6C653A6E6F6D696E616C202220782022293E3C696628657175616C28486F6C653A7461707065642C223022292C486F6C653A6469612C486F6C653A706974636864657363293E203C696628657175616C28486F6C653A7465726D696E6174696F6E2C2
310
23022292C22905B82B320222C222022293E3C696628657175616C28486F6C653A7465726D696E6174696F6E2C223022292C486F6C653A64657074682C2222293E406901405014050E836583938376838C815B83672031405C73D3C696628657175616C28486F6C653A7461707065642C223022292C22252563222C486F6C65
310
3A6E6F6D696E616C202220782022293E3C696628657175616C28486F6C653A7461707065642C223022292C486F6C653A6469612C486F6C653A706974636864657363293E203C696628657175616C28486F6C653A7465726D696E6174696F6E2C223022292C22905B82B320222C222022293E3C696628657175616C28486F6C
310
653A7465726D696E6174696F6E2C223022292C486F6C653A64657074682C2222293E4069014051E4090E836583938376838C815B83672032405173D3C535444503A444553433E203C535444503A5354443E40690E836583938376838C815B836720314050C3D3C535444503A444553433E40690240515AAABBA120
360
5A5
330
5A5
360
5A6
330
5A6
360
5A7
330
5A7
360
5A8
360
5A9
330
5A8
330
5A9
 94
        0
  0
ACAD_PROXY_OBJECT
  5
5AA
330
598
100
AcDbProxyObject
 90
      499
 91
      564
 95
       25
 70
     0
 93
       26
310
5DD02A80
340
0
 94
        0
  0
ACAD_PROXY_OBJECT
  5
5AB
330
598
100
AcDbProxyObject
 90
      499
 91
      565
 95
       25
 70
     0
 93
      250
310
5DD020000000000000A1000000000000002440408F0F9023C3E409A0DCFFFF80
340
589
340
590
340
591
340
58A
340
58B
340
58C
340
58D
340
58E
340
58F
340
0
 94
        0
  0
ACAD_PROXY_OBJECT
  5
5AC
330
598
100
AcDbProxyObject
 90
      499
 91
      583
 95
       25
 70
     0
 93
    13889
310
5DD1D003FFFFFFFD030300030CCCCCCCCCCCC250200800030C01030300030CCCCCCCCCCCC250200800030C00050C8DC0955782CC838A83588367014ED1D15395149050D3CB1294138B0C0B23702555E0B320E2A0D620D9CB11D15395149055160B095CCB0A11D1539354D1C819D95B991A5B5E880CCC0A78000C0000000000
310
00000000000000000000010CCCCCCCCCCCC250200800030C010CCCCCCCCCCCC250200800030C020143CF4F111959985D5B1D151A5D1B194F8050A8C8A8365815B8375838B014E51D15395149050D3CB1294138B0C0B2322A0D96056E0DD60E2CB11D15395149055160B095CCB0A11D1539354D1C819D95B991A5B5E880CCC4
310
A78000C000000000000000000000000000000010CCCCCCCCCCCC250200800030C010CCCCCCCCCCCC250200800030C020143CF4F111959985D5B1D151A5D1B194F90D44111409034110541D0C4350F4050E44D03449074510F000141232D24D7C053247454E545241434F2C4A504E2C302C8CB4935F2C47454E54524154582C
310
25732C2847454E4D53472067656E64696D7A20312900010104002214000281464500A608E8A9CA8A482869E5894A09C5860591914588E8A9CA8A482A8B0584AE658508E8A9C9AA68E40CECADCC8D2DAF4406452029E9E9E27B934B3B4B71F1E24A31427A91424A9A12620A7259427B934B3B4B7149624A9A12620A7259424B
310
A32B6949496111116111711149F1E24BA32B69F00808200111A000140560052F47454E545241434F2C4A504E2C302C582C47454E54524154582C25732C2847454E4D53472067656E64696D7A20332900010100002054000280AC80A5E8E8A9CA8A482869E5894A09C586058B2588E8A9CA8A482A8B0584AE658508E8A9C9AA
310
68E40CECADCC8D2DAF4406852000202000040E800050152014BD1D15395149050D3CB1294138B0C0B148B11D15395149055160B095CCB0A11D1539354D1C819D95B991A5B5E880D8A400040400008250000A0507A6029823A2A72A2920A1A79625282716181641E99623A2A72A2920AA2C1612B9961423A2A726A9A39033B2
310
B73234B6BD101B948000808180105A000140A0F4C053047454E545241434F2C4A504E2C302C83D32C47454E54524154582C25732C2847454E4D53472067656E64696D7A203829000101010020F400028248704B5F00A668E8A9CA8A482869E5894A09C58605921C12D7C588E8A9CA8A482A8B0584AE658508E8A9C9AA68E40
310
CECADCC8D2DAF440646052000200080043280005048B4B8A69014CD1D15395149050D3CB1294138B0C0B22D2E29A4B11D15395149055160B095CCB0A11D1539354D1C819D95B991A5B5E880C8C4A4000400100086D0000A09196926BE029923A2A72A2920A1A796252827161816465A49AF9623A2A72A2920AA2C1612B9961
310
423A2A726A9A39033B2B73234B6BD10189480A02620202080043E80005048D8096DA014CD1D15395149050D3CB1294138B0C0B236025B68B11D15395149055160B095CCB0A11D1539354D1C819D95B991A5B5E880C4D0A4000404140280D0000A190687072706CD06C5069D06B0029DA3A2A72A2920A1A7962528271618164
310
1A1C1C9C1B341B141A741AC1623A2A72A2920AA2C1612B9961423A2A726A9A39033B2B73234B6BD10189A94800080820050EA000143A322A0D0E0E4E0D9A0D8A0D3A0D60053D47454E545241434F2C4A504E2C302C8C8A8343839383668362834E83582C47454E54524154582C25732C2847454E4D53472067656E64696D7A
310
2031372900010105002274000281464500A628E8A9CA8A482869E5894A09C5860591914588E8A9CA8A482A8B0584AE658508E8A9C9AA68E40CECADCC8D2DAF440626C52000202080044A8000504909497CA014CD1D15395149050D3CB1294138B0C0B242525F28B11D15395149055160B095CCB0A11D1539354D1C819D95B9
310
91A5B5E880C4E4A400040418008A521E000000000000001CA040C00000000000034408080000000000006881010000000000000D102040000000000001A204080000000000003440818000000000000728103000000000000125020600000000004028A040000000000000034408000000000000004881000000000000000D
310
102000000000000001A204000000000000003440818000000000000508143C0000000000000039408180000000000006881030000000000000D102060000000000001A2040C00000000000034408180000000000006881030000000000000E5020600000000000024A040C0000000000805140800000000000000688100000
310
00000000009102000000000000001A2040000000000000034408180000000000006881030000000000000A10284220000000878000002020000008380000020400000081800000208000000828000002028900000000
340
0
340
0
340
0
340
0
340
587
340
587
 94
        0
  0
ACAD_PROXY_OBJECT
  5
3BF
330
3B5
100
AcDbProxyObject
 90
      499
 91
      563
 95
       25
 70
     0
 93
     2256
310
5DE0143A0D960E4E0DDA0E32056E0D9C80C40405013D3C696628657175616C28486F6C653A7461707065642C223022292C22252563222C486F6C653A6E6F6D696E616C2022202220696628657175616C28486F6C653A756E6974732C223122292C2278222C222D222920222022293E3C696628657175616C28486F6C653A74
310
61707065642C223022292C486F6C653A6469612C486F6C653A706974636864657363293E207B5C46414D4744543B787D203C696628657175616C28486F6C653A7465726D696E6174696F6E2C223022292C486F6C653A64657074682C228AD192CA22293E5C507B5C46414D4744543B767D2525633C486F6C653A6374646961
310
3E207B5C46414D4744543B787D203C486F6C653A637464657074683E
  0
ACAD_PROXY_OBJECT
  5
3C0
330
3B5
100
AcDbProxyObject
 90
      499
 91
      563
 95
       25
 70
     0
 93
     2192
310
5DE0143A0D960E4E0DDA0E32056E0D9C80C405FE3D3C696628657175616C28486F6C653A7461707065642C223022292C22252563222C486F6C653A6E6F6D696E616C2022202220696628657175616C28486F6C653A756E6974732C223122292C2278222C222D222920222022293E3C696628657175616C28486F6C653A7461
310
707065642C223022292C486F6C653A6469612C486F6C653A706974636864657363293E207B5C46414D4744543B787D203C696628657175616C28486F6C653A7465726D696E6174696F6E2C223022292C486F6C653A64657074682C228AD192CA22293E5C507B5C46414D4744543B777D2525633C486F6C653A63746469613E
310
2058203C486F6C653A6374616E676C653E252564
  0
ACAD_PROXY_OBJECT
  5
3BE
330
3B5
100
AcDbProxyObject
 90
      499
 91
      563
 95
       25
 70
     0
 93
     1816
310
5DE0143A0D960E4E0DDA0E32056E0D9C80C405CF3D3C696628657175616C28486F6C653A7461707065642C223022292C22252563222C486F6C653A6E6F6D696E616C2022202220696628657175616C28486F6C653A756E6974732C223122292C2278222C222D222920222022293E3C696628657175616C28486F6C653A7461
310
707065642C223022292C486F6C653A6469612C486F6C653A706974636864657363293E5C507B5C46414D4744543B787D203C696628657175616C28486F6C653A7465726D696E6174696F6E2C223022292C486F6C653A64657074682C228AD192CA22293E
  0
ACAD_PROXY_OBJECT
  5
3BD
330
3B5
100
AcDbProxyObject
 90
      499
 91
      563
 95
       25
 70
     0
 93
      344
310
5DE0143A0D960E4E0DDA0E32056E0D9C80C805173D3C535444503A444553433E203C535444503A5354443E
  0
ACAD_PROXY_OBJECT
  5
3BC
330
3B5
100
AcDbProxyObject
 90
      499
 91
      563
 95
       25
 70
     0
 93
      256
310
5DE0143A0D960E4E0DDA0E32056E0D9C80C4050C3D3C535444503A444553433E
  0
ACAD_PROXY_OBJECT
  5
5A5
330
5A4
100
AcDbProxyObject
 90
      499
 91
      563
 95
       25
 70
     0
 93
     1376
310
5DE0143A0D960E4E0DDA0E32056E0D9C80C405983D3C486F6C653A6469613E3C696628657175616C28486F6C653A7465726D696E6174696F6E2C223022292C2220905B82B320222C22208368838A838B22293E3C696628657175616C28486F6C653A7465726D696E6174696F6E2C223022292C486F6C653A64657074682C22
310
22293E2C203C486F6C653A63746469613E2082B482AE82E882CC905B82B3203C486F6C653A637464657074683E
  0
ACAD_PROXY_OBJECT
  5
5A6
330
5A4
100
AcDbProxyObject
 90
      499
 91
      563
 95
       25
 70
     0
 93
     2072
310
5DE0143A0D960E4E0DDA0E32056E0D9C80C405EF3D3C486F6C653A6374616E676C653E252564202525633C486F6C653A63746469613E208E4D8C8A2C203C696628657175616C28486F6C653A7461707065642C223022292C22252563222C486F6C653A6E6F6D696E616C202220782022293E3C696628657175616C28486F6C
310
653A7461707065642C223022292C486F6C653A6469612C486F6C653A706974636864657363293E203C696628657175616C28486F6C653A7465726D696E6174696F6E2C223022292C22905B82B320222C222022293E3C696628657175616C28486F6C653A7465726D696E6174696F6E2C223022292C486F6C653A6465707468
310
2C2222293E
  0
ACAD_PROXY_OBJECT
  5
5A7
330
5A4
100
AcDbProxyObject
 90
      499
 91
      563
 95
       25
 70
     0
 93
     1752
310
5DE0143A0D960E4E0DDA0E32056E0D9C80C405C73D3C696628657175616C28486F6C653A7461707065642C223022292C22252563222C486F6C653A6E6F6D696E616C202220782022293E3C696628657175616C28486F6C653A7461707065642C223022292C486F6C653A6469612C486F6C653A706974636864657363293E20
310
3C696628657175616C28486F6C653A7465726D696E6174696F6E2C223022292C22905B82B320222C222022293E3C696628657175616C28486F6C653A7465726D696E6174696F6E2C223022292C486F6C653A64657074682C2222293E
  0
ACAD_PROXY_OBJECT
  5
5A8
330
5A4
100
AcDbProxyObject
 90
      499
 91
      563
 95
       25
 70
     0
 93
      344
310
5DE0143A0D960E4E0DDA0E32056E0D9C80C805173D3C535444503A444553433E203C535444503A5354443E
  0
ACAD_PROXY_OBJECT
  5
5A9
330
5A4
100
AcDbProxyObject
 90
      499
 91
      563
 95
       25
 70
     0
 93
      256
310
5DE0143A0D960E4E0DDA0E32056E0D9C80C4050C3D3C535444503A444553433E
  0
ENDSEC
  0
EOF
