  0
SECTION
  2
HEADER
  9
$ACADVER
  1
AC1015
  9
$ACADMAINTVER
 70
     6
  9
$DWGCODEPAGE
  3
ANSI_932
  9
$INSBASE
 10
0.0
 20
0.0
 30
0.0
  9
$EXTMIN
 10
-64.69999999996787
 20
-69.39371324099793
 30
0.0
  9
$EXTMAX
 10
151.9901580810869
 20
81.99999999914422
 30
0.0
  9
$LIMMIN
 10
0.0
 20
0.0
  9
$LIMMAX
 10
400.0
 20
273.0
  9
$ORTHOMODE
 70
     0
  9
$REGENMODE
 70
     1
  9
$FILLMODE
 70
     1
  9
$QTEXTMODE
 70
     0
  9
$MIRRTEXT
 70
     1
  9
$LTSCALE
 40
1.0
  9
$ATTMODE
 70
     1
  9
$TEXTSIZE
 40
3.0
  9
$TRACEWID
 40
0.5
  9
$TEXTSTYLE
  7
STANDARD
  9
$CLAYER
  8
0
  9
$CELTYPE
  6
ByLayer
  9
$CECOLOR
 62
   256
  9
$CELTSCALE
 40
1.0
  9
$DISPSILH
 70
     0
  9
$DIMSCALE
 40
1.0
  9
$DIMASZ
 40
3.0
  9
$DIMEXO
 40
1.0
  9
$DIMDLI
 40
5.0
  9
$DIMRND
 40
0.0
  9
$DIMDLE
 40
3.0
  9
$DIMEXE
 40
2.0
  9
$DIMTP
 40
0.0
  9
$DIMTM
 40
0.0
  9
$DIMTXT
 40
5.0
  9
$DIMCEN
 40
2.0
  9
$DIMTSZ
 40
0.0
  9
$DIMTOL
 70
     0
  9
$DIMLIM
 70
     0
  9
$DIMTIH
 70
     0
  9
$DIMTOH
 70
     0
  9
$DIMSE1
 70
     0
  9
$DIMSE2
 70
     0
  9
$DIMTAD
 70
     1
  9
$DIMZIN
 70
     8
  9
$DIMBLK
  1

  9
$DIMASO
 70
     1
  9
$DIMSHO
 70
     0
  9
$DIMPOST
  1

  9
$DIMAPOST
  1

  9
$DIMALT
 70
     0
  9
$DIMALTD
 70
     4
  9
$DIMALTF
 40
25.4
  9
$DIMLFAC
 40
1.0
  9
$DIMTOFL
 70
     1
  9
$DIMTVP
 40
1.0
  9
$DIMTIX
 70
     0
  9
$DIMSOXD
 70
     0
  9
$DIMSAH
 70
     0
  9
$DIMBLK1
  1

  9
$DIMBLK2
  1

  9
$DIMSTYLE
  2
Standard
  9
$DIMCLRD
 70
     0
  9
$DIMCLRE
 70
     0
  9
$DIMCLRT
 70
     0
  9
$DIMTFAC
 40
1.0
  9
$DIMGAP
 40
0.09
  9
$DIMJUST
 70
     0
  9
$DIMSD1
 70
     0
  9
$DIMSD2
 70
     0
  9
$DIMTOLJ
 70
     1
  9
$DIMTZIN
 70
     0
  9
$DIMALTZ
 70
     0
  9
$DIMALTTZ
 70
     0
  9
$DIMUPT
 70
     0
  9
$DIMDEC
 70
     4
  9
$DIMTDEC
 70
     4
  9
$DIMALTU
 70
     2
  9
$DIMALTTD
 70
     2
  9
$DIMTXSTY
  7
STANDARD
  9
$DIMAUNIT
 70
     0
  9
$DIMADEC
 70
     0
  9
$DIMALTRND
 40
0.0
  9
$DIMAZIN
 70
     0
  9
$DIMDSEP
 70
    46
  9
$DIMATFIT
 70
     3
  9
$DIMFRAC
 70
     0
  9
$DIMLDRBLK
  1

  9
$DIMLUNIT
 70
     2
  9
$DIMLWD
 70
    -2
  9
$DIMLWE
 70
    -2
  9
$DIMTMOVE
 70
     0
  9
$LUNITS
 70
     2
  9
$LUPREC
 70
     4
  9
$SKETCHINC
 40
1.0
  9
$FILLETRAD
 40
0.0
  9
$AUNITS
 70
     0
  9
$AUPREC
 70
     0
  9
$MENU
  1
acad
  9
$ELEVATION
 40
0.0
  9
$PELEVATION
 40
0.0
  9
$THICKNESS
 40
0.0
  9
$LIMCHECK
 70
     0
  9
$CHAMFERA
 40
0.0
  9
$CHAMFERB
 40
0.0
  9
$CHAMFERC
 40
0.0
  9
$CHAMFERD
 40
0.0
  9
$SKPOLY
 70
     0
  9
$TDCREATE
 40
2453969.545162037
  9
$TDUCREATE
 40
2453969.170162037
  9
$TDUPDATE
 40
2455482.467505961
  9
$TDUUPDATE
 40
2455482.092505961
  9
$TDINDWG
 40
0.0126954861
  9
$TDUSRTIMER
 40
0.0126951273
  9
$USRTIMER
 70
     1
  9
$ANGBASE
 50
0.0
  9
$ANGDIR
 70
     0
  9
$PDMODE
 70
     0
  9
$PDSIZE
 40
0.0
  9
$PLINEWID
 40
0.0
  9
$SPLFRAME
 70
     0
  9
$SPLINETYPE
 70
     6
  9
$SPLINESEGS
 70
    16
  9
$HANDSEED
  5
859
  9
$SURFTAB1
 70
     6
  9
$SURFTAB2
 70
     6
  9
$SURFTYPE
 70
     6
  9
$SURFU
 70
     6
  9
$SURFV
 70
     6
  9
$UCSBASE
  2

  9
$UCSNAME
  2

  9
$UCSORG
 10
0.0
 20
0.0
 30
0.0
  9
$UCSXDIR
 10
1.0
 20
0.0
 30
0.0
  9
$UCSYDIR
 10
0.0
 20
1.0
 30
0.0
  9
$UCSORTHOREF
  2

  9
$UCSORTHOVIEW
 70
     0
  9
$UCSORGTOP
 10
0.0
 20
0.0
 30
0.0
  9
$UCSORGBOTTOM
 10
0.0
 20
0.0
 30
0.0
  9
$UCSORGLEFT
 10
0.0
 20
0.0
 30
0.0
  9
$UCSORGRIGHT
 10
0.0
 20
0.0
 30
0.0
  9
$UCSORGFRONT
 10
0.0
 20
0.0
 30
0.0
  9
$UCSORGBACK
 10
0.0
 20
0.0
 30
0.0
  9
$PUCSBASE
  2

  9
$PUCSNAME
  2

  9
$PUCSORG
 10
0.0
 20
0.0
 30
0.0
  9
$PUCSXDIR
 10
1.0
 20
0.0
 30
0.0
  9
$PUCSYDIR
 10
0.0
 20
1.0
 30
0.0
  9
$PUCSORTHOREF
  2

  9
$PUCSORTHOVIEW
 70
     0
  9
$PUCSORGTOP
 10
0.0
 20
0.0
 30
0.0
  9
$PUCSORGBOTTOM
 10
0.0
 20
0.0
 30
0.0
  9
$PUCSORGLEFT
 10
0.0
 20
0.0
 30
0.0
  9
$PUCSORGRIGHT
 10
0.0
 20
0.0
 30
0.0
  9
$PUCSORGFRONT
 10
0.0
 20
0.0
 30
0.0
  9
$PUCSORGBACK
 10
0.0
 20
0.0
 30
0.0
  9
$USERI1
 70
     0
  9
$USERI2
 70
     0
  9
$USERI3
 70
     0
  9
$USERI4
 70
     0
  9
$USERI5
 70
     0
  9
$USERR1
 40
0.0
  9
$USERR2
 40
0.0
  9
$USERR3
 40
0.0
  9
$USERR4
 40
0.0
  9
$USERR5
 40
0.0
  9
$WORLDVIEW
 70
     1
  9
$SHADEDGE
 70
     3
  9
$SHADEDIF
 70
    70
  9
$TILEMODE
 70
     1
  9
$MAXACTVP
 70
    64
  9
$PINSBASE
 10
0.0
 20
0.0
 30
0.0
  9
$PLIMCHECK
 70
     0
  9
$PEXTMIN
 10
1.000000000000000E+20
 20
1.000000000000000E+20
 30
1.000000000000000E+20
  9
$PEXTMAX
 10
-1.000000000000000E+20
 20
-1.000000000000000E+20
 30
-1.000000000000000E+20
  9
$PLIMMIN
 10
0.0
 20
0.0
  9
$PLIMMAX
 10
12.0
 20
9.0
  9
$UNITMODE
 70
     0
  9
$VISRETAIN
 70
     1
  9
$PLINEGEN
 70
     0
  9
$PSLTSCALE
 70
     1
  9
$TREEDEPTH
 70
  3020
  9
$CMLSTYLE
  2
Standard
  9
$CMLJUST
 70
     0
  9
$CMLSCALE
 40
1.0
  9
$PROXYGRAPHICS
 70
     1
  9
$MEASUREMENT
 70
     0
  9
$CELWEIGHT
370
    -1
  9
$ENDCAPS
280
     0
  9
$JOINSTYLE
280
     0
  9
$LWDISPLAY
290
     0
  9
$INSUNITS
 70
     0
  9
$HYPERLINKBASE
  1

  9
$STYLESHEET
  1
sei_cad.ctb
  9
$XEDIT
290
     1
  9
$CEPSNTYPE
380
     0
  9
$PSTYLEMODE
290
     1
  9
$FINGERPRINTGUID
  2
{9F1234DE-7465-45C5-A724-73CF6FF64E2C}
  9
$VERSIONGUID
  2
{EB79EB08-358D-4825-A6C9-D6BD858E495E}
  9
$EXTNAMES
290
     1
  9
$PSVPSCALE
 40
0.0
  9
$OLESTARTUP
290
     0
  0
ENDSEC
  0
SECTION
  2
CLASSES
  0
CLASS
  1
ACDBDICTIONARYWDFLT
  2
AcDbDictionaryWithDefault
  3
ObjectDBX Classes
 90
        0
280
     0
281
     0
  0
CLASS
  1
TABLESTYLE
  2
AcDbTableStyle
  3
ObjectDBX Classes
 90
     2047
280
     0
281
     0
  0
CLASS
  1
ACME_DOCUMENT
  2
AcMeDbDoc
  3
AcMeServices
 90
        0
280
     1
281
     0
  0
CLASS
  1
ACMESCOPE
  2
AcMeScope
  3
AcMeServices
 90
        0
280
     1
281
     0
  0
CLASS
  1
ACMECOMMANDHISTORY
  2
AcMeCommandHistory
  3
AcMeServices
 90
        0
280
     1
281
     0
  0
CLASS
  1
ACIMSYSVARMAN
  2
AcImSysVarManager
  3
AcMeServices
 90
        0
280
     1
281
     0
  0
CLASS
  1
ACIMINTSYSVAR
  2
AcImIntSysVar
  3
AcMeServices
 90
        0
280
     1
281
     0
  0
CLASS
  1
ACMEDRAWINGMAN
  2
AcMeDrawingMan
  3
AcMeServices
 90
        0
280
     1
281
     0
  0
CLASS
  1
ACMEVIEW
  2
AcMeView
  3
AcMeServices
 90
        0
280
     1
281
     0
  0
CLASS
  1
ACDBENTITYCACHE
  2
AcMeEntityCache
  3
AcMeServices
 90
        0
280
     1
281
     0
  0
CLASS
  1
GSMANAGER
  2
AcMeGSManager
  3
AcMeServices
 90
        0
280
     1
281
     0
  0
CLASS
  1
AMDTINTERNALREACTOR
  2
AmdtInternalReactor
  3
AcMeServices
 90
        0
280
     1
281
     0
  0
CLASS
  1
ACMESTATEMGR
  2
AcMeStateMgr
  3
AcMeServices
 90
        0
280
     1
281
     0
  0
CLASS
  1
ACGREFMASTER
  2
AcGrefMaster
  3
AcAttribServices
 90
        0
280
     1
281
     0
  0
CLASS
  1
AM_DRAWING_MGR
  2
AcDmDwgMgr
  3
AcMechDwgViewMgmt
 90
        0
280
     1
281
     0
  0
CLASS
  1
AM_DWG_DOCUMENT
  2
AcDmDwgDocument
  3
AcMechDwgViewMgmt
 90
        0
280
     1
281
     0
  0
CLASS
  1
AM_DWG_SHEET
  2
AcDmSheet
  3
AcMechDwgViewMgmt
 90
        0
280
     1
281
     0
  0
CLASS
  1
AM_VIEWDIMPARMAP
  2
AcDmViewDimParMap
  3
AcMechDwgViewMgmt
 90
        0
280
     1
281
     0
  0
CLASS
  1
ACIMREALSYSVAR
  2
AcImRealSysVar
  3
AcMeServices
 90
        0
280
     1
281
     0
  0
CLASS
  1
AM_DWGMGR_NAME
  2
AcDmDwgMgrName
  3
AcMechDwgViewMgmt
 90
        0
280
     1
281
     0
  0
CLASS
  1
ACME_DATABASE
  2
AcMeDbDatabase
  3
AcMeServices
 90
        0
280
     1
281
     0
  0
CLASS
  1
ACRFINSADJUSTERMGR
  2
AcRfInsAdjusterMgr
  3
AcMeServices
 90
        0
280
     1
281
     0
  0
CLASS
  1
ACGREFACADMASTER
  2
AcGrefacadMaster
  3
AcGrefServices
 90
        0
280
     1
281
     0
  0
CLASS
  1
AMDTMENUSTATEMGR
  2
AmdtMenuStateMgr
  3
McadcomServices
 90
        0
280
     1
281
     0
  0
CLASS
  1
AMDTMCOMMENUSTATE
  2
AmdtMcomMenuState
  3
McadcomServices
 90
        0
280
     1
281
     0
  0
CLASS
  1
AMIMASTER
  2
AmiMaster
  3
AmiServices
 90
        0
280
     1
281
     0
  0
CLASS
  1
AMGSETTINGSOBJ
  2
AmgSettingsObj
  3
"AcadM|Product Description: AutoCAD Mechanical 2000|Company: Autodesk"
 90
        0
280
     1
281
     0
  0
CLASS
  1
MAPIAMMOUDLE
  2
MApiAmModule
  3
MApiAmServices
 90
        0
280
     1
281
     0
  0
CLASS
  1
AMDTADMENUSTATE
  2
AmdtAdMenuState
  3
DesignerServices
 90
        0
280
     1
281
     0
  0
CLASS
  1
ADAPPL
  2
AcAdAppl
  3
DesignerServices
 90
        0
280
     1
281
     0
  0
CLASS
  1
DEPMGR
  2
AcAdDepMgr
  3
DesignerServices
 90
        0
280
     1
281
     0
  0
CLASS
  1
PARAMMGR
  2
AcAdParamMgr
  3
DesignerServices
 90
        0
280
     1
281
     0
  0
CLASS
  1
PARAMSCOPE
  2
AcAdParamScope
  3
DesignerServices
 90
        0
280
     1
281
     0
  0
CLASS
  1
NAMEDAPPL
  2
AcAdNamedAppl
  3
DesignerServices
 90
        0
280
     1
281
     0
  0
CLASS
  1
AMDTDMMENUSTATE
  2
AmdtDmMenuState
  3
AcMechDwgViewMgmt
 90
        0
280
     1
281
     0
  0
CLASS
  1
AMDTAMMENUSTATE
  2
AmdtAmMenuState
  3
DesignerAssemblies
 90
        0
280
     1
281
     0
  0
CLASS
  1
ACIMSTRSYSVAR
  2
AcImStrSysVar
  3
AcMeServices
 90
        0
280
     1
281
     0
  0
CLASS
  1
ACAMPROJECT
  2
AcAmProject
  3
DesignerAssemblies
 90
        0
280
     1
281
     0
  0
CLASS
  1
ACAMGRCOMPDEF
  2
AcAmGrCompDef
  3
DesignerAssemblies
 90
        0
280
     1
281
     0
  0
CLASS
  1
ACCMCONTEXT
  2
AcCmContext
  3
DesignerAssemblies
 90
        0
280
     1
281
     0
  0
CLASS
  1
ACAMCOMPDEF
  2
AcAmCompDef
  3
DesignerAssemblies
 90
        0
280
     1
281
     0
  0
CLASS
  1
ACAMCOMPDEFMGR
  2
AcAmCompDefMgr
  3
DesignerAssemblies
 90
        0
280
     1
281
     0
  0
CLASS
  1
AMCONTEXTMGR
  2
AcAmContextMgr
  3
DesignerAssemblies
 90
        0
280
     1
281
     0
  0
CLASS
  1
ACAMCONTEXTMODELER
  2
AcAmContextModeler
  3
DesignerAssemblies
 90
        0
280
     1
281
     0
  0
CLASS
  1
ACMDATADICTIONARY
  2
AcmDataDictionary
  3
"AcmSymBB|Product Description: AutoCAD Mechanical 2004 DX|Company: Autodesk"
 90
        0
280
     1
281
     0
  0
CLASS
  1
CATALOGSTATE
  2
AcAmCatalogState
  3
DesignerAssemblies
 90
        0
280
     1
281
     0
  0
CLASS
  1
ACAMGRCOMPDEFSET
  2
AcAmGrCompDefSet
  3
DesignerAssemblies
 90
        0
280
     1
281
     0
  0
CLASS
  1
AMDTBROWSERDBTAB
  2
AmdtBrowserDbTab
  3
McadcomServices
 90
        0
280
     1
281
     0
  0
CLASS
  1
CBROWSERAPPOBJECT
  2
CBrowserAppObject
  3
McadcomServices
 90
        0
280
     1
281
     0
  0
CLASS
  1
DM_PLACEHOLDER
  2
AcDmSelsetPlaceholder
  3
AcMechDwgViewMgmt
 90
        0
280
     1
281
     0
  0
CLASS
  1
ACMSTANDARDANSI
  2
AcmStandardANSI
  3
"Amdt_StdImp|Product Description: AutoCAD Mechanical 2004 DX|Company: Autodesk"
 90
        0
280
     1
281
     0
  0
CLASS
  1
AMGOBJPROPCFG
  2
AmgObjPropCfg
  3
"AmgLay|Product Description: AutoCAD Mechanical 2000|Company: Autodesk"
 90
        1
280
     1
281
     0
  0
CLASS
  1
ACMSURFSTANDARDANSI
  2
AcmSurfTextStdANSI
  3
"Amdt_StdImp|Product Description: AutoCAD Mechanical 2004 DX|Company: Autodesk"
 90
        0
280
     1
281
     0
  0
CLASS
  1
ACMFCFSTANDARDANSI
  2
AcmFCFStdANSI
  3
"Amdt_StdImp|Product Description: AutoCAD Mechanical 2004 DX|Company: Autodesk"
 90
        0
280
     1
281
     0
  0
CLASS
  1
ACMWELDSTANDARDANSI
  2
AcmWeldingStdANSI
  3
"Amdt_StdImp|Product Description: AutoCAD Mechanical 2004 DX|Company: Autodesk"
 90
        0
280
     1
281
     0
  0
CLASS
  1
ACMIDSTANDARDANSI
  2
AcmIdStdANSI
  3
"Amdt_StdImp|Product Description: AutoCAD Mechanical 2004 DX|Company: Autodesk"
 90
        0
280
     1
281
     0
  0
CLASS
  1
ACMDATUMSTANDARDANSI
  2
AcmDatumStdANSI
  3
"Amdt_StdImp|Product Description: AutoCAD Mechanical 2004 DX|Company: Autodesk"
 90
        0
280
     1
281
     0
  0
CLASS
  1
ACMBOMSTANDARDANSI
  2
AcmBOMStdANSI
  3
"Amdt_StdImp|Product Description: AutoCAD Mechanical 2004 DX|Company: Autodesk"
 90
        0
280
     1
281
     0
  0
CLASS
  1
ACMDETAILSTANDARDANSI
  2
AmdtDetailSymStdANSI
  3
"Amdt_StdImp|Product Description: AutoCAD Mechanical 2004 DX|Company: Autodesk"
 90
        0
280
     1
281
     0
  0
CLASS
  1
ACMSECTIONSTANDARDANSI
  2
AmdtSectionSymStdANSI
  3
"Amdt_StdImp|Product Description: AutoCAD Mechanical 2004 DX|Company: Autodesk"
 90
        0
280
     1
281
     0
  0
CLASS
  1
ACMCENTERLINESTANDARDANSI
  2
AmdtCenterLineStdANSI
  3
"Amdt_StdImp|Product Description: AutoCAD Mechanical 2004 DX|Company: Autodesk"
 90
        0
280
     1
281
     0
  0
CLASS
  1
ACMTHREADLINESTANDARDANSI
  2
AmdtThreadLineStdANSI
  3
"Amdt_StdImp|Product Description: AutoCAD Mechanical 2004 DX|Company: Autodesk"
 90
        0
280
     1
281
     0
  0
CLASS
  1
ACMNOTESTANDARDANSI
  2
AmdtNoteStdANSI
  3
"Amdt_StdImp|Product Description: AutoCAD Mechanical 2004 DX|Company: Autodesk"
 90
        0
280
     1
281
     0
  0
CLASS
  1
AMDTNOTETEMPLATEDB
  2
AmdtNoteTemplateDB
  3
AMDT_STDIMP_MODULE_NAME
 90
        0
280
     1
281
     0
  0
CLASS
  1
ACAMGLAYSTD
  2
AcAmgLayStd
  3
"AcAmgLayStd|Product Description: AutoCAD Mechanical 2000|Company: Autodesk"
 90
        0
280
     1
281
     0
  0
CLASS
  1
ACAMGDIMSTD
  2
AcAmgDimStd
  3
"AcAmgDimStd|Product Description: AutoCAD Mechanical 2000|Company: Autodesk"
 90
        0
280
     1
281
     0
  0
CLASS
  1
ACAMGHOLECHARTSTDANSI
  2
AcAmgHoleChartStdANSI
  3
ACMSYMBB_MODULE_NAME
 90
        0
280
     1
281
     0
  0
CLASS
  1
ACAMGTITLESTD
  2
AcAmgTitleStd
  3
"TITLEAPP"
 90
        0
280
     1
281
     0
  0
CLASS
  1
ACAMGFILTERDAT
  2
AcAmgFilterDat
  3
"AcadM|Product Description: AutoCAD Mechanical 2000|Company: Autodesk"
 90
        0
280
     1
281
     0
  0
CLASS
  1
DICTIONARYVAR
  2
AcDbDictionaryVar
  3
ObjectDBX Classes
 90
        0
280
     0
281
     0
  0
CLASS
  1
AMDTNOTE
  2
AmdtNote
  3
"AcmSymBB|Product Description: AutoCAD Mechanical 2004 DX|Company: Autodesk"
 90
     1023
280
     1
281
     1
  0
CLASS
  1
ACMSTANDARDJIS
  2
AcmStandardJIS
  3
"Amdt_StdImp|Product Description: AutoCAD Mechanical 2004 DX|Company: Autodesk"
 90
        0
280
     1
281
     0
  0
CLASS
  1
ACMSURFSTANDARDJIS
  2
AcmSurfTextStdJIS
  3
"Amdt_StdImp|Product Description: AutoCAD Mechanical 2004 DX|Company: Autodesk"
 90
        0
280
     1
281
     0
  0
CLASS
  1
ACMFCFSTANDARDJIS
  2
AcmFCFStdJIS
  3
"Amdt_StdImp|Product Description: AutoCAD Mechanical 2004 DX|Company: Autodesk"
 90
        0
280
     1
281
     0
  0
CLASS
  1
ACMWELDSTANDARDJIS
  2
AcmWeldingStdJIS
  3
"Amdt_StdImp|Product Description: AutoCAD Mechanical 2004 DX|Company: Autodesk"
 90
        0
280
     1
281
     0
  0
CLASS
  1
ACMIDSTANDARDJIS
  2
AcmIdStdJIS
  3
"Amdt_StdImp|Product Description: AutoCAD Mechanical 2004 DX|Company: Autodesk"
 90
        0
280
     1
281
     0
  0
CLASS
  1
ACMDATUMSTANDARDJIS
  2
AcmDatumStdJIS
  3
"Amdt_StdImp|Product Description: AutoCAD Mechanical 2004 DX|Company: Autodesk"
 90
        0
280
     1
281
     0
  0
CLASS
  1
ACMBOMSTANDARDJIS
  2
AcmBOMStdJIS
  3
"Amdt_StdImp|Product Description: AutoCAD Mechanical 2004 DX|Company: Autodesk"
 90
        0
280
     1
281
     0
  0
CLASS
  1
ACMDETAILSTANDARDJIS
  2
AmdtDetailSymStdJIS
  3
"Amdt_StdImp|Product Description: AutoCAD Mechanical 2004 DX|Company: Autodesk"
 90
        0
280
     1
281
     0
  0
CLASS
  1
ACMSECTIONSTANDARDJIS
  2
AmdtSectionSymStdJIS
  3
"Amdt_StdImp|Product Description: AutoCAD Mechanical 2004 DX|Company: Autodesk"
 90
        0
280
     1
281
     0
  0
CLASS
  1
ACMCENTERLINESTANDARDJIS
  2
AmdtCenterLineStdJIS
  3
"Amdt_StdImp|Product Description: AutoCAD Mechanical 2004 DX|Company: Autodesk"
 90
        0
280
     1
281
     0
  0
CLASS
  1
ACMTHREADLINESTANDARDJIS
  2
AmdtThreadLineStdJIS
  3
"Amdt_StdImp|Product Description: AutoCAD Mechanical 2004 DX|Company: Autodesk"
 90
        0
280
     1
281
     0
  0
CLASS
  1
ACMNOTESTANDARDJIS
  2
AmdtNoteStdJIS
  3
"Amdt_StdImp|Product Description: AutoCAD Mechanical 2004 DX|Company: Autodesk"
 90
        0
280
     1
281
     0
  0
CLASS
  1
ACAMGHOLECHARTSTDJIS
  2
AcAmgHoleChartStdJIS
  3
ACMSYMBB_MODULE_NAME
 90
        0
280
     1
281
     0
  0
CLASS
  1
ACMDATAENTRYBLOCK
  2
AcmDataEntryBlock
  3
"AcmSymBB|Product Description: AutoCAD Mechanical 2004 DX|Company: Autodesk"
 90
        0
280
     1
281
     0
  0
CLASS
  1
ACDBPLACEHOLDER
  2
AcDbPlaceHolder
  3
ObjectDBX Classes
 90
        0
280
     0
281
     0
  0
CLASS
  1
LAYOUT
  2
AcDbLayout
  3
ObjectDBX Classes
 90
        0
280
     0
281
     0
  0
ENDSEC
  0
SECTION
  2
TABLES
  0
TABLE
  2
VPORT
  5
8
330
0
100
AcDbSymbolTable
 70
     3
  0
VPORT
  5
853
330
8
100
AcDbSymbolTableRecord
100
AcDbViewportTableRecord
  2
*Active
 70
     0
 10
0.0
 20
0.0
 11
1.0
 21
1.0
 12
62.51797659081716
 22
6.315631328765903
 13
0.0
 23
0.0
 14
0.5
 24
0.5
 15
0.0
 25
0.0
 16
0.0
 26
0.0
 36
1.0
 17
0.0
 27
0.0
 37
0.0
 40
158.8619978366328
 41
1.610603290676417
 42
50.0
 43
0.0
 44
0.0
 50
0.0
 51
0.0
 71
     0
 72
 10000
 73
     1
 74
     1
 75
     0
 76
     0
 77
     0
 78
     0
281
     0
 65
     0
110
0.0
120
0.0
130
0.0
111
1.0
121
0.0
131
0.0
112
0.0
122
1.0
132
0.0
 79
     0
146
0.0
  0
ENDTAB
  0
TABLE
  2
LTYPE
  5
5
330
0
100
AcDbSymbolTable
 70
    13
  0
LTYPE
  5
13
330
5
100
AcDbSymbolTableRecord
100
AcDbLinetypeTableRecord
  2
ByBlock
 70
     0
  3

 72
    65
 73
     0
 40
0.0
  0
LTYPE
  5
14
330
5
100
AcDbSymbolTableRecord
100
AcDbLinetypeTableRecord
  2
ByLayer
 70
     0
  3

 72
    65
 73
     0
 40
0.0
  0
LTYPE
  5
15
330
5
100
AcDbSymbolTableRecord
100
AcDbLinetypeTableRecord
  2
CONTINUOUS
 70
     0
  3
solid line
 72
    65
 73
     0
 40
0.0
  0
LTYPE
  5
27
330
5
100
AcDbSymbolTableRecord
100
AcDbLinetypeTableRecord
  2
CENTER
 70
     0
  3
--- - --- - --- - --- - --- - 
 72
    65
 73
     4
 40
6.0
 49
3.0
 74
     0
 49
-1.0
 74
     0
 49
1.0
 74
     0
 49
-1.0
 74
     0
  0
LTYPE
  5
28
330
5
100
AcDbSymbolTableRecord
100
AcDbLinetypeTableRecord
  2
PHANTOM
 70
     0
  3
----- - - ----- - - ----- - - 
 72
    65
 73
     6
 40
8.0
 49
3.0
 74
     0
 49
-1.0
 74
     0
 49
1.0
 74
     0
 49
-1.0
 74
     0
 49
1.0
 74
     0
 49
-1.0
 74
     0
  0
LTYPE
  5
390
330
5
100
AcDbSymbolTableRecord
100
AcDbLinetypeTableRecord
  2
HIDDEN
 70
     0
  3
Hidden __ __ __ __ __ __ __ __ __ __ __ __ __ _
 72
    65
 73
     2
 40
0.375
 49
0.25
 74
     0
 49
-0.125
 74
     0
  0
LTYPE
  5
391
330
5
100
AcDbSymbolTableRecord
100
AcDbLinetypeTableRecord
  2
PHANTOM2
 70
     0
  3
Phantom (.5x) ___ _ _ ___ _ _ ___ _ _ ___ _ _
 72
    65
 73
     6
 40
1.25
 49
0.625
 74
     0
 49
-0.125
 74
     0
 49
0.125
 74
     0
 49
-0.125
 74
     0
 49
0.125
 74
     0
 49
-0.125
 74
     0
  0
LTYPE
  5
3CC
330
5
100
AcDbSymbolTableRecord
100
AcDbLinetypeTableRecord
  2
Amconstr
 70
     0
  3
_______________________
 72
    65
 73
     2
 40
9999.0
 49
9999.0
 74
     0
 49
0.0
 74
     0
  0
LTYPE
  5
3D2
330
5
100
AcDbSymbolTableRecord
100
AcDbLinetypeTableRecord
  2
CENTER2
 70
     0
  3
Center (.5x) ___ _ ___ _ ___ _ ___ _ ___ _ ___
 72
    65
 73
     4
 40
1.125
 49
0.75
 74
     0
 49
-0.125
 74
     0
 49
0.125
 74
     0
 49
-0.125
 74
     0
  0
LTYPE
  5
3D3
330
5
100
AcDbSymbolTableRecord
100
AcDbLinetypeTableRecord
  2
HIDDEN2
 70
     0
  3
Hidden (.5x) _ _ _ _ _ _ _ _ _ _ _ _ _ _ _ _ _
 72
    65
 73
     2
 40
0.1875
 49
0.125
 74
     0
 49
-0.0625
 74
     0
  0
LTYPE
  5
3D4
330
5
100
AcDbSymbolTableRecord
100
AcDbLinetypeTableRecord
  2
Amzigzag2
 70
     0
  3
/\/-/\/-/\/-/\/-/\/-/\/
 72
    65
 73
     2
 40
0.4401
 49
0.0001
 74
     4
 75
   135
340
3D0
 46
0.0016
 50
0.0
 44
0.0
 45
0.0
 49
-0.44
 74
     0
  0
LTYPE
  5
3E2
330
5
100
AcDbSymbolTableRecord
100
AcDbLinetypeTableRecord
  2
ACANSTGB
 70
     0
  3
__ . . __ . .
 72
    65
 73
     6
 40
0.35433070866
 49
0.15748031496
 74
     0
 49
-0.03937007874
 74
     0
 49
0.03937007874
 74
     0
 49
-0.03937007874
 74
     0
 49
0.03937007874
 74
     0
 49
-0.03937007874
 74
     0
  0
LTYPE
  5
3E3
330
5
100
AcDbSymbolTableRecord
100
AcDbLinetypeTableRecord
  2
ACANSTGL
 70
     0
  3
_ _ _ _ _
 72
    65
 73
     2
 40
0.11811023622
 49
0.07874015748
 74
     0
 49
-0.03937007874
 74
     0
  0
LTYPE
  5
4E0
330
5
100
AcDbSymbolTableRecord
100
AcDbLinetypeTableRecord
  2
ACJISTGB
 70
     0
  3
__ . . __ . .
 72
    65
 73
     6
 40
9.0
 49
4.0
 74
     0
 49
-1.0
 74
     0
 49
1.0
 74
     0
 49
-1.0
 74
     0
 49
1.0
 74
     0
 49
-1.0
 74
     0
  0
LTYPE
  5
4E1
330
5
100
AcDbSymbolTableRecord
100
AcDbLinetypeTableRecord
  2
ACJISTGL
 70
     0
  3
_ _ _ _ _
 72
    65
 73
     2
 40
3.0
 49
2.0
 74
     0
 49
-1.0
 74
     0
  0
ENDTAB
  0
TABLE
  2
LAYER
  5
2
102
{ACAD_XDICTIONARY
360
4EF
102
}
330
0
100
AcDbSymbolTable
 70
     7
  0
LAYER
  5
10
330
2
100
AcDbSymbolTableRecord
100
AcDbLayerTableRecord
  2
0
 70
     0
 62
     7
  6
CONTINUOUS
370
    -3
390
F
  0
LAYER
  5
29
330
2
100
AcDbSymbolTableRecord
100
AcDbLayerTableRecord
  2
1
 70
     0
 62
     7
  6
CONTINUOUS
370
    -3
390
F
  0
LAYER
  5
2A
330
2
100
AcDbSymbolTableRecord
100
AcDbLayerTableRecord
  2
2
 70
     0
 62
     7
  6
CONTINUOUS
370
    -3
390
F
  0
LAYER
  5
2C
330
2
100
AcDbSymbolTableRecord
100
AcDbLayerTableRecord
  2
6
 70
     0
 62
     7
  6
CONTINUOUS
370
    -3
390
F
  0
LAYER
  5
30
330
2
100
AcDbSymbolTableRecord
100
AcDbLayerTableRecord
  2
DEFPOINTS
 70
     0
 62
    -7
  6
CONTINUOUS
290
     0
370
    -3
390
F
  0
LAYER
  5
49E
330
2
100
AcDbSymbolTableRecord
100
AcDbLayerTableRecord
  2
AM_5
 70
     0
 62
     3
  6
CONTINUOUS
370
    15
390
F
  0
LAYER
  5
4E3
330
2
100
AcDbSymbolTableRecord
100
AcDbLayerTableRecord
  2
AM_6
 70
     0
 62
     2
  6
CONTINUOUS
370
    30
390
F
  0
ENDTAB
  0
TABLE
  2
STYLE
  5
3
330
0
100
AcDbSymbolTable
 70
     6
  0
STYLE
  5
11
330
3
100
AcDbSymbolTableRecord
100
AcDbTextStyleTableRecord
  2
STANDARD
 70
     0
 40
0.0
 41
1.0
 50
0.0
 71
     0
 42
3.0
  3
txt
  4

  0
STYLE
  5
3D0
330
3
100
AcDbSymbolTableRecord
100
AcDbTextStyleTableRecord
  2

 70
     1
 40
0.0
 41
1.0
 50
0.0
 71
     0
 42
3.0
  3
ltypeshp.shx
  4

  0
STYLE
  5
3D5
330
3
100
AcDbSymbolTableRecord
100
AcDbTextStyleTableRecord
  2
ACANSTS
 70
     0
 40
1.0
 41
1.0
 50
0.0
 71
     0
 42
3.0
  3
romans.shx
  4
extfont.shx
  0
STYLE
  5
3E1
330
3
100
AcDbSymbolTableRecord
100
AcDbTextStyleTableRecord
  2
ACANSGDT
 70
     0
 40
0.0
 41
1.0
 50
0.0
 71
     0
 42
3.0
  3
amgdtans.shx
  4

  0
STYLE
  5
4E4
330
3
100
AcDbSymbolTableRecord
100
AcDbTextStyleTableRecord
  2
ACJISTS
 70
     0
 40
1.0
 41
1.0
 50
0.0
 71
     0
 42
2.5
  3
isocp.shx
  4
bigfont.shx
  0
STYLE
  5
4E5
330
3
100
AcDbSymbolTableRecord
100
AcDbTextStyleTableRecord
  2
ACJISGDT
 70
     0
 40
0.0
 41
1.0
 50
0.0
 71
     0
 42
2.5
  3
amgdt.shx
  4

  0
ENDTAB
  0
TABLE
  2
VIEW
  5
6
330
0
100
AcDbSymbolTable
 70
     0
  0
ENDTAB
  0
TABLE
  2
UCS
  5
7
330
0
100
AcDbSymbolTable
 70
     0
  0
ENDTAB
  0
TABLE
  2
APPID
  5
9
330
0
100
AcDbSymbolTable
 70
     9
  0
APPID
  5
12
330
9
100
AcDbSymbolTableRecord
100
AcDbRegAppTableRecord
  2
ACAD
 70
     0
  0
APPID
  5
363
330
9
100
AcDbSymbolTableRecord
100
AcDbRegAppTableRecord
  2
MCAD_NO_VIS
 70
     0
  0
APPID
  5
364
330
9
100
AcDbSymbolTableRecord
100
AcDbRegAppTableRecord
  2
ACAD_TEMP_GRAPHIC
 70
     0
  0
APPID
  5
393
330
9
100
AcDbSymbolTableRecord
100
AcDbRegAppTableRecord
  2
AD_DRAW
 70
     0
  0
APPID
  5
396
330
9
100
AcDbSymbolTableRecord
100
AcDbRegAppTableRecord
  2
ACATTRIBSERVICES
 70
     0
  0
APPID
  5
3B8
330
9
100
AcDbSymbolTableRecord
100
AcDbRegAppTableRecord
  2
DESIGNERASSEMBLIES
 70
     0
  0
APPID
  5
3BE
330
9
100
AcDbSymbolTableRecord
100
AcDbRegAppTableRecord
  2
ACADM_DIM_EDIT
 70
     0
  0
APPID
  5
3BF
330
9
100
AcDbSymbolTableRecord
100
AcDbRegAppTableRecord
  2
AMDT_DM_ADJ
 70
     0
  0
APPID
  5
402
330
9
100
AcDbSymbolTableRecord
100
AcDbRegAppTableRecord
  2
ACAD_PSEXT
 70
     0
  0
ENDTAB
  0
TABLE
  2
DIMSTYLE
  5
A
330
0
100
AcDbSymbolTable
 70
    18
100
AcDbDimStyleTable
  0
DIMSTYLE
105
360
330
A
100
AcDbSymbolTableRecord
100
AcDbDimStyleTableRecord
  2
Standard
 70
     0
340
11
  0
DIMSTYLE
105
3EE
330
A
100
AcDbSymbolTableRecord
100
AcDbDimStyleTableRecord
  2
AM_ANSI
 70
     0
  4
mm
 41
0.1
 42
0.05
 43
0.5
 44
0.1
 47
0.1
 48
0.1
 78
     7
 79
     2
140
0.12
141
0.0
146
0.71
147
0.06
176
   256
177
   256
178
     2
274
     4
284
     7
340
11
371
    -1
372
    -1
  0
DIMSTYLE
105
3F1
330
A
100
AcDbSymbolTableRecord
100
AcDbDimStyleTableRecord
  2
AM_ANSI$7
 70
     0
  4
mm
 41
0.1
 42
0.05
 43
0.5
 44
0.1
 47
0.1
 48
0.1
 78
     7
 79
     2
140
0.24
141
0.0
146
0.71
147
0.06
176
   256
177
   256
178
     2
274
     4
284
     7
340
11
371
    -1
372
    -1
  0
DIMSTYLE
105
3F2
330
A
100
AcDbSymbolTableRecord
100
AcDbDimStyleTableRecord
  2
AM_ANSI$SF
 70
     0
  4
mm
 41
0.1
 42
0.05
 43
0.5
 44
0.1
 47
0.1
 48
0.1
 75
     1
 76
     1
 78
     7
 79
     2
140
0.12
141
0.0
146
0.71
147
0.06
176
   256
177
   256
178
     2
274
     4
284
     7
340
11
371
    -1
372
    -1
  0
DIMSTYLE
105
3F7
330
A
100
AcDbSymbolTableRecord
100
AcDbDimStyleTableRecord
  2
AM_ANSI$SH
 70
     0
  4
mm
 41
0.1
 42
0.05
 43
0.5
 44
0.1
 47
0.1
 48
0.1
 75
     1
 76
     1
 78
     7
 79
     2
140
0.12
141
0.0
146
0.71
147
0.06
173
     1
176
   256
177
   256
178
     2
274
     4
284
     7
340
11
343
3F3
371
    -1
372
    -1
  0
DIMSTYLE
105
4AA
102
{ACAD_REACTORS
330
4AE
330
51E
330
542
330
5CD
330
649
330
6B9
102
}
330
A
100
AcDbSymbolTableRecord
100
AcDbDimStyleTableRecord
  2
Standard$0
 70
     0
340
11
  0
DIMSTYLE
105
4E6
330
A
100
AcDbSymbolTableRecord
100
AcDbDimStyleTableRecord
  2
AM_JIS
 70
     0
  4
"
 41
2.5
 42
0.0
 43
10.0
 44
1.0
 47
0.1
 48
0.1000000001
 73
     0
 74
     0
 77
     3
 78
     1
 79
     2
140
3.8
141
0.0
143
0.0393701
146
0.71
147
1.5
172
     1
176
   256
177
   256
178
     2
179
     1
271
     2
272
     2
275
     1
283
     0
284
     8
340
11
341
4DA
342
4DA
371
    -1
372
    -1
  0
DIMSTYLE
105
4E7
330
A
100
AcDbSymbolTableRecord
100
AcDbDimStyleTableRecord
  2
AM_JIS$3
 70
     0
  4
"
 41
2.5
 42
0.0
 43
10.0
 44
1.0
 47
0.1
 48
0.1000000001
 73
     0
 77
     3
 78
     1
 79
     2
140
3.8
141
0.0
143
0.0393701
146
0.71
147
1.5
172
     1
176
   256
177
   256
178
     2
179
     1
271
     2
272
     2
275
     1
283
     0
284
     8
288
     1
289
     0
340
11
341
4DA
342
4DA
371
    -1
372
    -1
  0
DIMSTYLE
105
4E8
330
A
100
AcDbSymbolTableRecord
100
AcDbDimStyleTableRecord
  2
AM_JIS$4
 70
     0
  4
"
 41
2.5
 42
0.0
 43
10.0
 44
1.0
 47
0.1
 48
0.1000000001
 73
     0
 77
     3
 78
     1
 79
     2
140
3.8
141
0.0
143
0.0393701
146
0.71
147
1.5
172
     1
176
   256
177
   256
178
     2
179
     1
271
     2
272
     2
275
     1
283
     0
284
     8
288
     1
289
     0
340
11
341
4DA
342
4DA
371
    -1
372
    -1
  0
DIMSTYLE
105
4E9
330
A
100
AcDbSymbolTableRecord
100
AcDbDimStyleTableRecord
  2
AM_JIS$6
 70
     0
  4
"
 41
2.5
 42
0.0
 43
10.0
 44
1.0
 47
0.1
 48
0.1000000001
 73
     0
 74
     0
 78
     1
 79
     2
140
3.8
141
0.0
143
0.0393701
146
0.71
147
1.5
172
     1
176
   256
177
   256
178
     2
179
     1
271
     2
272
     2
275
     1
283
     0
284
     8
340
11
341
4DA
342
4DA
371
    -1
372
    -1
  0
DIMSTYLE
105
4EA
330
A
100
AcDbSymbolTableRecord
100
AcDbDimStyleTableRecord
  2
AM_JIS$7
 70
     0
  4
"
 41
2.5
 42
0.0
 43
10.0
 44
1.0
 47
0.1
 48
0.1000000001
 73
     0
 74
     0
 77
     3
 78
     1
 79
     2
140
5.0
141
0.0
143
0.0393701
146
0.71
147
1.5
172
     1
176
   256
177
   256
178
     2
179
     1
271
     2
272
     2
275
     1
283
     0
284
     8
340
11
341
4DA
342
4DA
371
    -1
372
    -1
  0
DIMSTYLE
105
4EB
330
A
100
AcDbSymbolTableRecord
100
AcDbDimStyleTableRecord
  2
AM_JIS$SF
 70
     0
  4
"
 41
2.5
 42
1.0
 43
10.0
 44
1.0
 47
0.1
 48
0.1
 73
     0
 74
     0
 75
     1
 76
     1
 77
     3
 78
     8
 79
     2
140
3.5
141
0.0
143
0.0393701
146
0.71
147
1.5
176
   256
177
   256
178
     2
271
     2
272
     3
274
     4
340
11
341
4DA
342
4DA
343
4DA
344
4DA
371
    -1
372
    -1
  0
DIMSTYLE
105
4EC
330
A
100
AcDbSymbolTableRecord
100
AcDbDimStyleTableRecord
  2
AM_JIS$SH
 70
     0
  4
"
 41
2.5
 42
1.0
 43
10.0
 44
1.0
 47
0.1
 48
0.1
 73
     0
 74
     0
 75
     1
 76
     1
 77
     3
 78
     8
 79
     2
140
3.5
141
0.0
143
0.0393701
144
2.0
146
0.71
147
1.5
173
     1
176
   256
177
   256
178
     2
271
     2
272
     3
274
     4
340
11
341
4DA
342
4DA
343
3F3
344
4DA
371
    -1
372
    -1
  0
DIMSTYLE
105
4ED
330
A
100
AcDbSymbolTableRecord
100
AcDbDimStyleTableRecord
  2
AM_JIS$0
 70
     0
  4
"
 41
2.5
 42
0.0
 43
10.0
 44
1.0
 47
0.1
 48
0.1000000001
 73
     0
 74
     0
 77
     3
 78
     1
 79
     2
140
3.8
141
0.0
143
0.0393701
146
0.71
147
1.5
172
     1
176
     3
177
     3
178
     2
271
     2
272
     2
275
     1
283
     0
284
     8
289
     0
340
11
341
4DA
342
4DA
371
    13
372
    13
  0
DIMSTYLE
105
4EE
330
A
100
AcDbSymbolTableRecord
100
AcDbDimStyleTableRecord
  2
AM_JIS$2
 70
     0
  4
"
 41
2.5
 42
0.0
 43
10.0
 44
1.0
 47
0.1
 48
0.1000000001
 73
     0
 74
     0
 77
     3
 78
     1
 79
     2
140
3.8
141
0.0
143
0.0393701
146
0.71
147
1.5
172
     1
176
     3
177
     3
178
     2
271
     2
272
     2
275
     1
283
     0
284
     8
289
     0
340
11
341
4DA
342
4DA
371
    13
372
    13
  0
DIMSTYLE
105
574
330
A
100
AcDbSymbolTableRecord
100
AcDbDimStyleTableRecord
  2
Standard$4
 70
     0
340
11
  0
DIMSTYLE
105
588
102
{ACAD_REACTORS
330
589
102
}
330
A
100
AcDbSymbolTableRecord
100
AcDbDimStyleTableRecord
  2
Standard$3
 70
     0
340
11
  0
DIMSTYLE
105
607
102
{ACAD_REACTORS
330
608
330
67C
102
}
330
A
100
AcDbSymbolTableRecord
100
AcDbDimStyleTableRecord
  2
Standard$2
 70
     0
340
11
  0
ENDTAB
  0
TABLE
  2
BLOCK_RECORD
  5
1
330
0
100
AcDbSymbolTable
 70
    13
  0
BLOCK_RECORD
  5
22
330
1
100
AcDbSymbolTableRecord
100
AcDbBlockTableRecord
  2
*Model_Space
340
25
  0
BLOCK_RECORD
  5
1E
330
1
100
AcDbSymbolTableRecord
100
AcDbBlockTableRecord
  2
*Paper_Space
340
21
  0
BLOCK_RECORD
  5
111
330
1
100
AcDbSymbolTableRecord
100
AcDbBlockTableRecord
  2
LRIS-25-1_0001
340
0
102
{BLKREFS
331
1FF
102
}
  0
BLOCK_RECORD
  5
3AF
330
1
100
AcDbSymbolTableRecord
100
AcDbBlockTableRecord
  2
*U1
340
0
  0
BLOCK_RECORD
  5
3F3
330
1
100
AcDbSymbolTableRecord
100
AcDbBlockTableRecord
  2
GENAXEH
340
0
  0
BLOCK_RECORD
  5
4AF
330
1
100
AcDbSymbolTableRecord
100
AcDbBlockTableRecord
  2
*D3
340
0
  0
BLOCK_RECORD
  5
4DA
330
1
100
AcDbSymbolTableRecord
100
AcDbBlockTableRecord
  2
_Open30
340
0
  0
BLOCK_RECORD
  5
51F
330
1
100
AcDbSymbolTableRecord
100
AcDbBlockTableRecord
  2
*D5
340
0
  0
BLOCK_RECORD
  5
543
330
1
100
AcDbSymbolTableRecord
100
AcDbBlockTableRecord
  2
*D6
340
0
  0
BLOCK_RECORD
  5
58A
330
1
100
AcDbSymbolTableRecord
100
AcDbBlockTableRecord
  2
*D7
340
0
  0
BLOCK_RECORD
  5
5CE
330
1
100
AcDbSymbolTableRecord
100
AcDbBlockTableRecord
  2
*D8
340
0
  0
BLOCK_RECORD
  5
609
330
1
100
AcDbSymbolTableRecord
100
AcDbBlockTableRecord
  2
*D9
340
0
  0
BLOCK_RECORD
  5
64A
330
1
100
AcDbSymbolTableRecord
100
AcDbBlockTableRecord
  2
*D10
340
0
  0
BLOCK_RECORD
  5
67D
330
1
100
AcDbSymbolTableRecord
100
AcDbBlockTableRecord
  2
*D11
340
0
  0
BLOCK_RECORD
  5
6BA
330
1
100
AcDbSymbolTableRecord
100
AcDbBlockTableRecord
  2
*D12
340
0
  0
ENDTAB
  0
ENDSEC
  0
SECTION
  2
BLOCKS
  0
BLOCK
  5
23
330
22
100
AcDbEntity
  8
0
100
AcDbBlockBegin
  2
*Model_Space
 70
     0
 71
     0
 10
0.0
 20
0.0
 30
0.0
  3
*Model_Space
  1

  0
ENDBLK
  5
24
330
22
100
AcDbEntity
  8
0
100
AcDbBlockEnd
  0
BLOCK
  5
1F
330
1E
100
AcDbEntity
 67
     1
  8
0
100
AcDbBlockBegin
  2
*Paper_Space
 70
     0
 71
     0
 10
0.0
 20
0.0
 30
0.0
  3
*Paper_Space
  1

  0
ENDBLK
  5
20
330
1E
100
AcDbEntity
 67
     1
  8
0
100
AcDbBlockEnd
  0
BLOCK
  5
112
330
111
100
AcDbEntity
  8
1
100
AcDbBlockBegin
  2
LRIS-25-1_0001
 70
     0
 71
     0
 10
0.0
 20
0.0
 30
0.0
  3
LRIS-25-1_0001
  1

  0
CIRCLE
  5
113
330
111
100
AcDbEntity
  8
1
  6
Continuous
100
AcDbCircle
 10
-0.0000001192585701
 20
0.0000001184027614
 30
0.0
 40
1.799999952316284
  0
LINE
  5
114
330
111
100
AcDbEntity
  8
1
  6
CENTER
100
AcDbLine
 10
-1.62634551530044
 20
-1.626345754476267
 30
0.0
 11
1.626345753620458
 21
1.626345514444632
 31
0.0
  0
LINE
  5
115
330
111
100
AcDbEntity
  8
1
  6
CENTER
100
AcDbLine
 10
1.626345753620458
 20
-1.626345754476267
 30
0.0
 11
-1.62634551530044
 21
1.626345514444632
 31
0.0
  0
LINE
  5
116
330
111
100
AcDbEntity
  8
1
  6
Continuous
100
AcDbLine
 10
0.6363965272410637
 20
-0.9192391642052709
 30
0.0
 11
0.919239163349462
 21
-0.6363965280968724
 31
0.0
  0
LINE
  5
117
330
111
100
AcDbEntity
  8
1
  6
Continuous
100
AcDbLine
 10
-0.6363960505024666
 20
0.9192389241736354
 30
0.0
 11
-0.9192389250294442
 21
0.6363960496466579
 31
0.0
  0
LINE
  5
118
330
111
100
AcDbEntity
  8
1
  6
Continuous
100
AcDbLine
 10
0.919239163349462
 20
-0.6363965280968724
 30
0.0
 11
0.3863703011973625
 21
-0.1035276659447728
 31
0.0
  0
LINE
  5
119
330
111
100
AcDbEntity
  8
1
  6
Continuous
100
AcDbLine
 10
-0.1035276651875252
 20
0.3863703004401149
 30
0.0
 11
-0.6363960505024666
 21
0.9192389241736354
 31
0.0
  0
LINE
  5
11A
330
111
100
AcDbEntity
  8
1
  6
Continuous
100
AcDbLine
 10
-0.9192389250294442
 20
0.6363960496466579
 30
0.0
 11
-0.3863703012959237
 21
0.1035276643317165
 31
0.0
  0
LINE
  5
11B
330
111
100
AcDbEntity
  8
1
  6
Continuous
100
AcDbLine
 10
0.1035276650889641
 20
-0.3863703020531712
 30
0.0
 11
0.6363965272410637
 21
-0.9192391642052709
 31
0.0
  0
LINE
  5
11C
330
111
100
AcDbEntity
  8
1
  6
Continuous
100
AcDbLine
 10
0.0915156602366691
 20
1.11428224959783
 30
0.0
 11
-0.1035276651875252
 21
0.3863703004401149
 31
0.0
  0
LINE
  5
11D
330
111
100
AcDbEntity
  8
1
  6
Continuous
100
AcDbLine
 10
-0.2828427553669686
 20
-0.2828427561242162
 30
0.0
 11
-0.4778860807911629
 21
-1.010754705281931
 31
0.0
  0
LINE
  5
11E
330
111
100
AcDbEntity
  8
1
  6
Continuous
100
AcDbLine
 10
-0.4778860807911629
 20
-1.010754705281931
 30
0.0
 11
-0.0915158987538094
 21
-1.114282251210886
 31
0.0
  0
LINE
  5
11F
330
111
100
AcDbEntity
  8
1
  6
Continuous
100
AcDbLine
 10
-0.0915158987538094
 20
-1.114282251210886
 30
0.0
 11
0.1035276650889641
 21
-0.3863703020531712
 31
0.0
  0
LINE
  5
120
330
111
100
AcDbEntity
  8
1
  6
Continuous
100
AcDbLine
 10
0.2828427552684074
 20
0.2828427545111598
 30
0.0
 11
0.4778863191111809
 21
1.010754703668875
 31
0.0
  0
LINE
  5
121
330
111
100
AcDbEntity
  8
1
  6
Continuous
100
AcDbLine
 10
0.4778863191111809
 20
1.010754703668875
 30
0.0
 11
0.0915156602366691
 21
1.11428224959783
 31
0.0
  0
LINE
  5
122
330
111
100
AcDbEntity
  8
1
  6
Continuous
100
AcDbLine
 10
-1.010754704524683
 20
-0.4778863199669896
 30
0.0
 11
-0.2828427553669686
 21
-0.2828427561242162
 31
0.0
  0
LINE
  5
123
330
111
100
AcDbEntity
  8
1
  6
Continuous
100
AcDbLine
 10
0.3863703011973625
 20
-0.1035276659447728
 30
0.0
 11
1.114282250355077
 21
0.0915158978980006
 31
0.0
  0
LINE
  5
124
330
111
100
AcDbEntity
  8
1
  6
Continuous
100
AcDbLine
 10
1.114282250355077
 20
0.0915158978980006
 30
0.0
 11
1.010754704426122
 21
0.4778860799353542
 31
0.0
  0
LINE
  5
125
330
111
100
AcDbEntity
  8
1
  6
Continuous
100
AcDbLine
 10
1.010754704426122
 20
0.4778860799353542
 30
0.0
 11
0.2828427552684074
 21
0.2828427545111598
 31
0.0
  0
LINE
  5
126
330
111
100
AcDbEntity
  8
1
  6
Continuous
100
AcDbLine
 10
-0.3863703012959237
 20
0.1035276643317165
 30
0.0
 11
-1.114282250453639
 21
-0.0915156610924779
 31
0.0
  0
LINE
  5
127
330
111
100
AcDbEntity
  8
1
  6
Continuous
100
AcDbLine
 10
-1.114282250453639
 20
-0.0915156610924779
 30
0.0
 11
-1.010754704524683
 21
-0.4778863199669896
 31
0.0
  0
ENDBLK
  5
128
330
111
100
AcDbEntity
  8
1
100
AcDbBlockEnd
  0
BLOCK
  5
3B0
330
3AF
100
AcDbEntity
  8
0
100
AcDbBlockBegin
  2
*U1
 70
     1
 71
     0
 10
0.0
 20
0.0
 30
0.0
  3
*U1
  1

  0
ENDBLK
  5
3B1
330
3AF
100
AcDbEntity
  8
0
100
AcDbBlockEnd
  0
BLOCK
  5
3F5
330
3F3
100
AcDbEntity
  8
0
100
AcDbBlockBegin
  2
GENAXEH
 70
     0
 71
     0
 10
0.0
 20
0.0
 30
0.0
  3
GENAXEH
  1

  0
LINE
  5
3F4
330
3F3
100
AcDbEntity
  8
0
100
AcDbLine
 10
-1.0
 20
0.0
 30
0.0
 11
1.0
 21
0.0
 31
0.0
  0
ENDBLK
  5
3F6
330
3F3
100
AcDbEntity
  8
0
100
AcDbBlockEnd
  0
BLOCK
  5
4BA
330
4AF
100
AcDbEntity
  8
0
100
AcDbBlockBegin
  2
*D3
 70
     1
 71
     0
 10
0.0
 20
0.0
 30
0.0
  3
*D3
  1

  0
LINE
  5
7A1
330
4AF
100
AcDbEntity
  8
AM_5
 62
     0
370
    -2
100
AcDbLine
 10
0.3884323552086926
 20
69.99999999914422
 30
0.0
 11
-9.321361632373851
 21
69.99999999914422
 31
0.0
  0
LINE
  5
7A2
330
4AF
100
AcDbEntity
  8
AM_5
 62
     0
370
    -2
100
AcDbLine
 10
0.3884323552086926
 20
69.99999999914422
 30
0.0
 11
-9.321361632373851
 21
69.99999999914422
 31
0.0
  0
LINE
  5
7A3
330
4AF
100
AcDbEntity
  8
AM_5
 62
     0
370
    -2
100
AcDbLine
 10
-7.321361632373851
 20
66.99999999914422
 30
0.0
 11
-7.321361632373852
 21
63.99999999914422
 31
0.0
  0
LINE
  5
7A4
330
4AF
100
AcDbEntity
  8
AM_5
 62
     0
370
    -2
100
AcDbLine
 10
-7.32136163237385
 20
72.99999999914422
 30
0.0
 11
-7.321361632373848
 21
78.67999999914423
 31
0.0
  0
SOLID
  5
7A5
330
4AF
100
AcDbEntity
  8
AM_5
 62
     0
100
AcDbTrace
 10
-7.821361632373851
 20
66.99999999914422
 30
0.0
 11
-6.821361632373851
 21
66.99999999914422
 31
0.0
 12
-7.321361632373851
 22
69.99999999914422
 32
0.0
 13
-7.321361632373851
 23
69.99999999914422
 33
0.0
  0
SOLID
  5
7A6
330
4AF
100
AcDbEntity
  8
AM_5
 62
     0
100
AcDbTrace
 10
-7.82136163237385
 20
72.99999999914422
 30
0.0
 11
-6.82136163237385
 21
72.99999999914422
 31
0.0
 12
-7.321361632373851
 22
69.99999999914422
 32
0.0
 13
-7.321361632373851
 23
69.99999999914422
 33
0.0
  0
MTEXT
  5
7A7
330
4AF
100
AcDbEntity
  8
AM_5
 62
     0
100
AcDbMText
 10
-9.911361632373859
 20
77.33999999914423
 30
0.0
 40
5.0
 41
0.0
 71
     5
 72
     1
  1
\A1;0
 11
6.123031769111886E-17
 21
1.0
 31
0.0
 73
     1
 44
1.0
  0
POINT
  5
7A8
330
4AF
100
AcDbEntity
  8
DEFPOINTS
 62
     0
100
AcDbPoint
 10
1.388432355208693
 20
69.99999999914422
 30
0.0
  0
POINT
  5
7A9
330
4AF
100
AcDbEntity
  8
DEFPOINTS
 62
     0
100
AcDbPoint
 10
1.388432355208693
 20
69.99999999914422
 30
0.0
  0
POINT
  5
7AA
330
4AF
100
AcDbEntity
  8
DEFPOINTS
 62
     0
100
AcDbPoint
 10
-7.321361632373851
 20
69.99999999914422
 30
0.0
  0
ENDBLK
  5
4BB
330
4AF
100
AcDbEntity
  8
0
100
AcDbBlockEnd
  0
BLOCK
  5
4DB
330
4DA
100
AcDbEntity
  8
0
100
AcDbBlockBegin
  2
_Open30
 70
     0
 71
     0
 10
0.0
 20
0.0
 30
0.0
  3
_Open30
  1

  0
LINE
  5
4DC
330
4DA
100
AcDbEntity
  8
0
 62
     0
370
    -2
100
AcDbLine
 10
-1.0
 20
0.26794919
 30
0.0
 11
0.0
 21
0.0
 31
0.0
  0
LINE
  5
4DD
330
4DA
100
AcDbEntity
  8
0
 62
     0
370
    -2
100
AcDbLine
 10
0.0
 20
0.0
 30
0.0
 11
-1.0
 21
-0.26794919
 31
0.0
  0
LINE
  5
4DE
330
4DA
100
AcDbEntity
  8
0
 62
     0
370
    -2
100
AcDbLine
 10
0.0
 20
0.0
 30
0.0
 11
-1.0
 21
0.0
 31
0.0
  0
ENDBLK
  5
4DF
330
4DA
100
AcDbEntity
  8
0
100
AcDbBlockEnd
  0
BLOCK
  5
529
330
51F
100
AcDbEntity
  8
0
100
AcDbBlockBegin
  2
*D5
 70
     1
 71
     0
 10
0.0
 20
0.0
 30
0.0
  3
*D5
  1

  0
LINE
  5
7AB
330
51F
100
AcDbEntity
  8
AM_5
 62
     0
370
    -2
100
AcDbLine
 10
100.2901611328447
 20
-3.145650248625557
 30
0.0
 11
100.2901611328447
 21
22.90373247939578
 31
0.0
  0
LINE
  5
7AC
330
51F
100
AcDbEntity
  8
AM_5
 62
     0
370
    -2
100
AcDbLine
 10
76.29016113284473
 20
-3.145650248625554
 30
0.0
 11
76.29016113284473
 21
22.90373247939578
 31
0.0
  0
LINE
  5
7AD
330
51F
100
AcDbEntity
  8
AM_5
 62
     0
370
    -2
100
AcDbLine
 10
97.29016113284467
 20
20.90373247939578
 30
0.0
 11
79.29016113284473
 21
20.90373247939578
 31
0.0
  0
SOLID
  5
7AE
330
51F
100
AcDbEntity
  8
AM_5
 62
     0
100
AcDbTrace
 10
97.29016113284467
 20
21.40373247939578
 30
0.0
 11
97.29016113284467
 21
20.40373247939578
 31
0.0
 12
100.2901611328447
 22
20.90373247939578
 32
0.0
 13
100.2901611328447
 23
20.90373247939578
 33
0.0
  0
SOLID
  5
7AF
330
51F
100
AcDbEntity
  8
AM_5
 62
     0
100
AcDbTrace
 10
79.29016113284473
 20
21.40373247939578
 30
0.0
 11
79.29016113284473
 21
20.40373247939578
 31
0.0
 12
76.29016113284473
 22
20.90373247939578
 32
0.0
 13
76.29016113284473
 23
20.90373247939578
 33
0.0
  0
MTEXT
  5
7B0
330
51F
100
AcDbEntity
  8
AM_5
 62
     0
100
AcDbMText
 10
88.2901611328447
 20
23.49373247939578
 30
0.0
 40
5.0
 41
0.0
 71
     5
 72
     1
  1
\A1;24
 73
     1
 44
1.0
  0
POINT
  5
7B1
330
51F
100
AcDbEntity
  8
DEFPOINTS
 62
     0
100
AcDbPoint
 10
100.2901611328447
 20
-4.145650248625557
 30
0.0
  0
POINT
  5
7B2
330
51F
100
AcDbEntity
  8
DEFPOINTS
 62
     0
100
AcDbPoint
 10
76.29016113284473
 20
-4.145650248625554
 30
0.0
  0
POINT
  5
7B3
330
51F
100
AcDbEntity
  8
DEFPOINTS
 62
     0
100
AcDbPoint
 10
76.29016113284473
 20
20.90373247939578
 30
0.0
  0
ENDBLK
  5
52A
330
51F
100
AcDbEntity
  8
0
100
AcDbBlockEnd
  0
BLOCK
  5
54D
330
543
100
AcDbEntity
  8
0
100
AcDbBlockBegin
  2
*D6
 70
     1
 71
     0
 10
0.0
 20
0.0
 30
0.0
  3
*D6
  1

  0
LINE
  5
7B4
330
543
100
AcDbEntity
  8
AM_5
 62
     0
370
    -2
100
AcDbLine
 10
91.47978424182708
 20
-18.00000000085582
 30
0.0
 11
115.484529505086
 21
-18.00000000085582
 31
0.0
  0
LINE
  5
7B5
330
543
100
AcDbEntity
  8
AM_5
 62
     0
370
    -2
100
AcDbLine
 10
91.47978424182708
 20
5.999999999144198
 30
0.0
 11
115.484529505086
 21
5.99999999914419
 31
0.0
  0
LINE
  5
7B6
330
543
100
AcDbEntity
  8
AM_5
 62
     0
370
    -2
100
AcDbLine
 10
113.484529505086
 20
2.999999999144191
 30
0.0
 11
113.484529505086
 21
-15.00000000085582
 31
0.0
  0
LINE
  5
7B7
330
543
100
AcDbEntity
  8
AM_5
 62
     0
370
    -2
100
AcDbLine
 10
113.484529505086
 20
-18.00000000085582
 30
0.0
 11
113.484529505086
 21
-37.75805010543813
 31
0.0
  0
SOLID
  5
7B8
330
543
100
AcDbEntity
  8
AM_5
 62
     0
100
AcDbTrace
 10
112.984529505086
 20
2.999999999144191
 30
0.0
 11
113.984529505086
 21
2.999999999144191
 31
0.0
 12
113.484529505086
 22
5.999999999144191
 32
0.0
 13
113.484529505086
 23
5.999999999144191
 33
0.0
  0
SOLID
  5
7B9
330
543
100
AcDbEntity
  8
AM_5
 62
     0
100
AcDbTrace
 10
112.984529505086
 20
-15.00000000085582
 30
0.0
 11
113.984529505086
 21
-15.00000000085582
 31
0.0
 12
113.484529505086
 22
-18.00000000085582
 32
0.0
 13
113.484529505086
 23
-18.00000000085582
 33
0.0
  0
MTEXT
  5
7BA
330
543
100
AcDbEntity
  8
AM_5
 62
     0
100
AcDbMText
 10
110.894529505086
 20
-33.50138343877144
 30
0.0
 40
5.0
 41
0.0
 71
     5
 72
     1
  1
\A1;24
 11
6.123031769111886E-17
 21
1.0
 31
0.0
 73
     1
 44
1.0
  0
POINT
  5
7BB
330
543
100
AcDbEntity
  8
DEFPOINTS
 62
     0
100
AcDbPoint
 10
90.47978424182708
 20
-18.00000000085582
 30
0.0
  0
POINT
  5
7BC
330
543
100
AcDbEntity
  8
DEFPOINTS
 62
     0
100
AcDbPoint
 10
90.47978424182708
 20
5.999999999144198
 30
0.0
  0
POINT
  5
7BD
330
543
100
AcDbEntity
  8
DEFPOINTS
 62
     0
100
AcDbPoint
 10
113.484529505086
 20
5.999999999144191
 30
0.0
  0
ENDBLK
  5
54E
330
543
100
AcDbEntity
  8
0
100
AcDbBlockEnd
  0
BLOCK
  5
593
330
58A
100
AcDbEntity
  8
0
100
AcDbBlockBegin
  2
*D7
 70
     1
 71
     0
 10
0.0
 20
0.0
 30
0.0
  3
*D7
  1

  0
LINE
  5
7BE
330
58A
100
AcDbEntity
  8
AM_5
 62
     0
370
    -2
100
AcDbLine
 10
64.82587301490248
 20
-44.63670803119142
 30
0.0
 11
80.14060906920676
 21
-19.41919525102099
 31
0.0
  0
LINE
  5
7BF
330
58A
100
AcDbEntity
  8
AM_5
 62
     0
370
    -2
100
AcDbLine
 10
96.43971319648259
 20
7.419195249309354
 30
0.0
 11
97.99695244431148
 21
9.98337268564665
 31
0.0
  0
MTEXT
  5
7C0
330
58A
100
AcDbEntity
  8
AM_5
 62
     0
100
AcDbMText
 10
67.84964783172914
 20
-34.66810803635138
 30
0.0
 40
5.0
 41
0.0
 71
     5
 72
     1
  1
\A1;\U+220525.4
 11
0.5190797492762995
 21
0.8547258121124306
 31
0.0
 73
     1
 44
1.0
  0
LINE
  5
7C1
330
58A
100
AcDbEntity
  8
AM_5
 62
     0
370
    -2
100
AcDbLine
 10
94.88247394865368
 20
4.855017812972065
 30
0.0
 11
81.69784831703566
 21
-16.8550178146837
 31
0.0
  0
SOLID
  5
7C2
330
58A
100
AcDbEntity
  8
AM_5
 62
     0
100
AcDbTrace
 10
96.01235029042636
 20
7.678735123947504
 30
0.0
 11
96.86707610253879
 21
7.159655374671203
 31
0.0
 12
94.88247394865368
 22
4.855017812972065
 32
0.0
 13
94.88247394865368
 23
4.855017812972065
 33
0.0
  0
SOLID
  5
7C3
330
58A
100
AcDbEntity
  8
AM_5
 62
     0
100
AcDbTrace
 10
79.71324616315054
 20
-19.15965537638284
 30
0.0
 11
80.56797197526298
 21
-19.67873512565914
 31
0.0
 12
81.69784831703566
 22
-16.8550178146837
 32
0.0
 13
81.69784831703566
 23
-16.8550178146837
 33
0.0
  0
POINT
  5
7C4
330
58A
100
AcDbEntity
  8
DEFPOINTS
 62
     0
100
AcDbPoint
 10
81.69784831703566
 20
-16.8550178146837
 30
0.0
  0
POINT
  5
7C5
330
58A
100
AcDbEntity
  8
DEFPOINTS
 62
     0
100
AcDbPoint
 10
94.88247394865368
 20
4.855017812972065
 30
0.0
  0
ENDBLK
  5
594
330
58A
100
AcDbEntity
  8
0
100
AcDbBlockEnd
  0
BLOCK
  5
5D8
330
5CE
100
AcDbEntity
  8
0
100
AcDbBlockBegin
  2
*D8
 70
     1
 71
     0
 10
0.0
 20
0.0
 30
0.0
  3
*D8
  1

  0
LINE
  5
7C6
330
5CE
100
AcDbEntity
  8
AM_5
 62
     0
370
    -2
100
AcDbLine
 10
-0.0000000004136637
 20
1.0
 30
0.0
 11
-0.0000000111477906
 21
25.07634376947357
 31
0.0
  0
LINE
  5
7C7
330
5CE
100
AcDbEntity
  8
AM_5
 62
     0
370
    -2
100
AcDbLine
 10
19.99999999958634
 20
0.9999999999999965
 30
0.0
 11
19.99999998885221
 21
25.07634377839031
 31
0.0
  0
LINE
  5
7C8
330
5CE
100
AcDbEntity
  8
AM_5
 62
     0
370
    -2
100
AcDbLine
 10
2.999999989743884
 20
23.07634377081108
 30
0.0
 11
16.99999998974388
 21
23.0763437770528
 31
0.0
  0
SOLID
  5
7C9
330
5CE
100
AcDbEntity
  8
AM_5
 62
     0
100
AcDbTrace
 10
2.999999989520965
 20
23.57634377081108
 30
0.0
 11
2.999999989966802
 21
22.57634377081108
 31
0.0
 12
-0.0000000102561164
 22
23.07634376947357
 32
0.0
 13
-0.0000000102561164
 23
23.07634376947357
 33
0.0
  0
SOLID
  5
7CA
330
5CE
100
AcDbEntity
  8
AM_5
 62
     0
100
AcDbTrace
 10
16.99999998952096
 20
23.5763437770528
 30
0.0
 11
16.9999999899668
 21
22.5763437770528
 31
0.0
 12
19.99999998974388
 22
23.07634377839031
 32
0.0
 13
19.99999998974388
 23
23.07634377839031
 33
0.0
  0
MTEXT
  5
7CB
330
5CE
100
AcDbEntity
  8
AM_5
 62
     0
100
AcDbMText
 10
9.999999988589163
 20
25.66634377393194
 30
0.0
 40
5.0
 41
0.0
 71
     5
 72
     1
  1
\A1;20
 11
1.0
 21
4.458371449800325E-10
 31
0.0
 73
     1
 44
1.0
  0
POINT
  5
7CC
330
5CE
100
AcDbEntity
  8
DEFPOINTS
 62
     0
100
AcDbPoint
 10
0.0000000000321734
 20
0.0
 30
0.0
  0
POINT
  5
7CD
330
5CE
100
AcDbEntity
  8
DEFPOINTS
 62
     0
100
AcDbPoint
 10
20.00000000003217
 20
-0.0000000000000036
 30
0.0
  0
POINT
  5
7CE
330
5CE
100
AcDbEntity
  8
DEFPOINTS
 62
     0
100
AcDbPoint
 10
19.99999998974388
 20
23.07634377839031
 30
0.0
  0
ENDBLK
  5
5D9
330
5CE
100
AcDbEntity
  8
0
100
AcDbBlockEnd
  0
BLOCK
  5
618
330
609
100
AcDbEntity
  8
0
100
AcDbBlockBegin
  2
*D9
 70
     1
 71
     0
 10
0.0
 20
0.0
 30
0.0
  3
*D9
  1

  0
LINE
  5
7CF
330
609
100
AcDbEntity
  8
AM_5
 62
     0
370
    -2
100
AcDbLine
 10
0.0000000004920057
 20
-1.103550734339941
 30
0.0
 11
0.0000000110186971
 21
-24.71453528891325
 31
0.0
  0
LINE
  5
7D0
330
609
100
AcDbEntity
  8
AM_5
 62
     0
370
    -2
100
AcDbLine
 10
0.6319481842082443
 20
-7.326751531946302
 30
0.0
 11
2.144988638651508
 21
-24.62088306242368
 31
0.0
  0
ARC
  5
7D1
330
609
100
AcDbEntity
  8
AM_5
 62
     0
370
    -2
100
AcDbCircle
 10
0.0000000000461669
 20
-0.1035507343399411
 30
0.0
 40
22.61098455457331
100
AcDbArc
 50
254.7511563630686
 51
270.0000000255447
  0
LINE
  5
7D2
330
609
100
AcDbEntity
  8
AM_5
 62
     0
370
    -2
100
AcDbLine
 10
-5.946954452624776
 20
-21.91846203979819
 30
0.0
 11
-14.16055572824479
 21
-19.67935540330728
 31
0.0
  0
ARC
  5
7D3
330
609
100
AcDbEntity
  8
AM_5
 62
     0
370
    -2
100
AcDbCircle
 10
0.0000000000461669
 20
-0.1035507343399411
 30
0.0
 40
22.61098455457331
100
AcDbArc
 50
254.7849468672623
 51
262.3924734464035
  0
ARC
  5
7D4
330
609
100
AcDbEntity
  8
AM_5
 62
     0
370
    -2
100
AcDbCircle
 10
0.0000000000461669
 20
-0.1035507343399411
 30
0.0
 40
22.61098455457331
100
AcDbArc
 50
282.607526579142
 51
290.2150531582832
  0
ARC
  5
7D5
330
609
100
AcDbEntity
  8
AM_5
 62
     0
370
    -2
100
AcDbCircle
 10
0.0000000000461669
 20
-0.1035507343399411
 30
0.0
 40
22.61098455457331
100
AcDbArc
 50
270.0000000255447
 51
275.0000000000009
  0
SOLID
  5
7D6
330
609
100
AcDbEntity
  8
AM_5
 62
     0
100
AcDbTrace
 10
-2.960221610813813
 20
-22.01661842071588
 30
0.0
 11
-3.02656104801616
 21
-23.01441553389654
 31
0.0
 12
0.0000000101270198
 22
-22.71453528891325
 32
0.0
 13
0.0000000101270198
 23
-22.71453528891325
 33
0.0
  0
SOLID
  5
7D7
330
609
100
AcDbEntity
  8
AM_5
 62
     0
100
AcDbTrace
 10
5.011857518231797
 20
-22.66345059800547
 30
0.0
 11
4.858806773665097
 21
-21.67523226707471
 31
0.0
 12
1.970677153156164
 22
-22.62849366624019
 32
0.0
 13
1.970677153156164
 23
-22.62849366624019
 33
0.0
  0
MTEXT
  5
7D8
330
609
100
AcDbEntity
  8
AM_5
 62
     0
100
AcDbMText
 10
-9.372554676749022
 20
-18.30009580410686
 30
0.0
 40
5.0
 41
0.0
 71
     5
 72
     1
  1
\A1;5°
 11
0.964792632218483
 21
-0.263011742735816
 31
0.0
 73
     1
 44
1.0
  0
POINT
  5
7D9
330
609
100
AcDbEntity
  8
DEFPOINTS
 62
     0
100
AcDbPoint
 10
1.314711831824059
 20
-22.67628108152072
 30
0.0
  0
POINT
  5
7DA
330
609
100
AcDbEntity
  8
DEFPOINTS
 62
     0
100
AcDbPoint
 10
0.0003775573308076
 20
-0.1078662338506717
 30
0.0
  0
POINT
  5
7DB
330
609
100
AcDbEntity
  8
DEFPOINTS
 62
     0
100
AcDbPoint
 10
0.0
 20
0.0
 30
0.0
  0
POINT
  5
7DC
330
609
100
AcDbEntity
  8
DEFPOINTS
 62
     0
100
AcDbPoint
 10
0.0000000000321734
 20
-0.0721637388637646
 30
0.0
  0
POINT
  5
7DD
330
609
100
AcDbEntity
  8
DEFPOINTS
 62
     0
100
AcDbPoint
 10
0.5447924414605723
 20
-6.330556833854558
 30
0.0
  0
ENDBLK
  5
619
330
609
100
AcDbEntity
  8
0
100
AcDbBlockEnd
  0
BLOCK
  5
656
330
64A
100
AcDbEntity
  8
0
100
AcDbBlockBegin
  2
*D10
 70
     1
 71
     0
 10
0.0
 20
0.0
 30
0.0
  3
*D10
  1

  0
LINE
  5
7DE
330
64A
100
AcDbEntity
  8
AM_5
 62
     0
370
    -2
100
AcDbLine
 10
20.26734428107238
 20
-6.000000000855778
 30
0.0
 11
-28.56886853798721
 21
-6.000000000855764
 31
0.0
  0
LINE
  5
7DF
330
64A
100
AcDbEntity
  8
AM_5
 62
     0
370
    -2
100
AcDbLine
 10
-1.0
 20
0.0000000000000003
 30
0.0
 11
-28.56886853798721
 21
0.0000000000000081
 31
0.0
  0
LINE
  5
7E0
330
64A
100
AcDbEntity
  8
AM_5
 62
     0
370
    -2
100
AcDbLine
 10
-26.56886853798722
 20
-9.000000000855765
 30
0.0
 11
-26.56886853798722
 21
-12.00000000085577
 31
0.0
  0
LINE
  5
7E1
330
64A
100
AcDbEntity
  8
AM_5
 62
     0
370
    -2
100
AcDbLine
 10
-26.56886853798721
 20
3.000000000000008
 30
0.0
 11
-26.56886853798721
 21
6.000000000000008
 31
0.0
  0
LINE
  5
7E2
330
64A
100
AcDbEntity
  8
AM_5
 62
     0
370
    -2
100
AcDbLine
 10
-26.56886853798721
 20
-6.000000000855764
 30
0.0
 11
-26.56886853798721
 21
0.0000000000000075
 31
0.0
  0
SOLID
  5
7E3
330
64A
100
AcDbEntity
  8
AM_5
 62
     0
100
AcDbTrace
 10
-27.06886853798722
 20
-9.000000000855765
 30
0.0
 11
-26.06886853798722
 21
-9.000000000855765
 31
0.0
 12
-26.56886853798721
 22
-6.000000000855764
 32
0.0
 13
-26.56886853798721
 23
-6.000000000855764
 33
0.0
  0
SOLID
  5
7E4
330
64A
100
AcDbEntity
  8
AM_5
 62
     0
100
AcDbTrace
 10
-27.06886853798721
 20
3.000000000000008
 30
0.0
 11
-26.06886853798721
 21
3.000000000000008
 31
0.0
 12
-26.56886853798721
 22
0.0000000000000075
 32
0.0
 13
-26.56886853798721
 23
0.0000000000000075
 33
0.0
  0
MTEXT
  5
7E5
330
64A
100
AcDbEntity
  8
AM_5
 62
     0
100
AcDbMText
 10
-29.15886853798721
 20
-3.000000000427883
 30
0.0
 40
5.0
 41
0.0
 71
     5
 72
     1
  1
\A1;6
 11
6.123031769111886E-17
 21
1.0
 31
0.0
 73
     1
 44
1.0
  0
POINT
  5
7E6
330
64A
100
AcDbEntity
  8
DEFPOINTS
 62
     0
100
AcDbPoint
 10
21.26734428107238
 20
-6.000000000855778
 30
0.0
  0
POINT
  5
7E7
330
64A
100
AcDbEntity
  8
DEFPOINTS
 62
     0
100
AcDbPoint
 10
0.0
 20
0.0
 30
0.0
  0
POINT
  5
7E8
330
64A
100
AcDbEntity
  8
DEFPOINTS
 62
     0
100
AcDbPoint
 10
-26.56886853798721
 20
0.0000000000000075
 30
0.0
  0
ENDBLK
  5
657
330
64A
100
AcDbEntity
  8
0
100
AcDbBlockEnd
  0
BLOCK
  5
68C
330
67D
100
AcDbEntity
  8
0
100
AcDbBlockBegin
  2
*D11
 70
     1
 71
     0
 10
0.0
 20
0.0
 30
0.0
  3
*D11
  1

  0
LINE
  5
7E9
330
67D
100
AcDbEntity
  8
AM_5
 62
     0
370
    -2
100
AcDbLine
 10
-0.0970838553628884
 20
1.006122810739091
 30
0.0
 11
-2.099594986528309
 21
23.89492977681771
 31
0.0
  0
LINE
  5
7EA
330
67D
100
AcDbEntity
  8
AM_5
 62
     0
370
    -2
100
AcDbLine
 10
-1.006122810706961
 20
0.0970838553950071
 30
0.0
 11
-23.89492977678561
 21
2.09959498656014
 31
0.0
  0
ARC
  5
7EB
330
67D
100
AcDbEntity
  8
AM_5
 62
     0
370
    -2
100
AcDbCircle
 10
-0.0099281126152154
 20
0.0099281126473466
 30
0.0
 40
21.97623849025011
100
AcDbArc
 50
102.8275945413034
 51
167.1724054586974
  0
SOLID
  5
7EC
330
67D
100
AcDbEntity
  8
AM_5
 62
     0
100
AcDbTrace
 10
-4.966525391130251
 20
21.93165680070095
 30
0.0
 11
-4.81157710087636
 21
20.94373421904417
 31
0.0
 12
-1.925283501032965
 22
21.90254038063422
 32
0.0
 13
-1.925283501032965
 23
21.90254038063422
 33
0.0
  0
SOLID
  5
7ED
330
67D
100
AcDbEntity
  8
AM_5
 62
     0
100
AcDbTrace
 10
-20.94373421901209
 20
4.811577100908227
 30
0.0
 11
-21.93165680066888
 21
4.966525391162103
 31
0.0
 12
-21.90254038060212
 22
1.92528350106482
 32
0.0
 13
-21.90254038060212
 23
1.92528350106482
 33
0.0
  0
MTEXT
  5
7EE
330
67D
100
AcDbEntity
  8
AM_5
 62
     0
100
AcDbMText
 10
-17.38088193731715
 20
17.38088193734906
 30
0.0
 40
5.0
 41
0.0
 71
     5
 72
     1
  1
\A1;80°
 11
0.7071067811865436
 21
0.7071067811865515
 31
0.0
 73
     1
 44
1.0
  0
POINT
  5
7EF
330
67D
100
AcDbEntity
  8
DEFPOINTS
 62
     0
100
AcDbPoint
 10
-11.54693864384363
 20
18.71427108915083
 30
0.0
  0
POINT
  5
7F0
330
67D
100
AcDbEntity
  8
DEFPOINTS
 62
     0
100
AcDbPoint
 10
0.0003775573308076
 20
-0.1078662338506717
 30
0.0
  0
POINT
  5
7F1
330
67D
100
AcDbEntity
  8
DEFPOINTS
 62
     0
100
AcDbPoint
 10
6.330556833886817
 20
-0.5447924414283709
 30
0.0
  0
POINT
  5
7F2
330
67D
100
AcDbEntity
  8
DEFPOINTS
 62
     0
100
AcDbPoint
 10
0.1078662338829872
 20
-0.0003775572986911
 30
0.0
  0
POINT
  5
7F3
330
67D
100
AcDbEntity
  8
DEFPOINTS
 62
     0
100
AcDbPoint
 10
0.5447924414605723
 20
-6.330556833854557
 30
0.0
  0
ENDBLK
  5
68D
330
67D
100
AcDbEntity
  8
0
100
AcDbBlockEnd
  0
BLOCK
  5
6C4
330
6BA
100
AcDbEntity
  8
0
100
AcDbBlockBegin
  2
*D12
 70
     1
 71
     0
 10
0.0
 20
0.0
 30
0.0
  3
*D12
  1

  0
LINE
  5
7F4
330
6BA
100
AcDbEntity
  8
AM_5
 62
     0
370
    -2
100
AcDbLine
 10
150.0000000000322
 20
58.2914584896664
 30
0.0
 11
150.0000000000322
 21
36.85933780935613
 31
0.0
  0
LINE
  5
7F5
330
6BA
100
AcDbEntity
  8
AM_5
 62
     0
370
    -2
100
AcDbLine
 10
0.0000000000643467
 20
68.99999999914422
 30
0.0
 11
0.0000000000643447
 21
36.85933780935613
 31
0.0
  0
LINE
  5
7F6
330
6BA
100
AcDbEntity
  8
AM_5
 62
     0
370
    -2
100
AcDbLine
 10
147.0000000000322
 20
38.85933780935613
 30
0.0
 11
3.000000000064345
 21
38.85933780935613
 31
0.0
  0
SOLID
  5
7F7
330
6BA
100
AcDbEntity
  8
AM_5
 62
     0
100
AcDbTrace
 10
147.0000000000322
 20
39.35933780935613
 30
0.0
 11
147.0000000000322
 21
38.35933780935613
 31
0.0
 12
150.0000000000322
 22
38.85933780935613
 32
0.0
 13
150.0000000000322
 23
38.85933780935613
 33
0.0
  0
SOLID
  5
7F8
330
6BA
100
AcDbEntity
  8
AM_5
 62
     0
100
AcDbTrace
 10
3.000000000064345
 20
39.35933780935613
 30
0.0
 11
3.000000000064345
 21
38.35933780935613
 31
0.0
 12
0.0000000000643448
 22
38.85933780935613
 32
0.0
 13
0.0000000000643448
 23
38.85933780935613
 33
0.0
  0
MTEXT
  5
7F9
330
6BA
100
AcDbEntity
  8
AM_5
 62
     0
100
AcDbMText
 10
75.00000000004826
 20
41.44933780935614
 30
0.0
 40
5.0
 41
0.0
 71
     5
 72
     1
  1
\A1;150
 73
     1
 44
1.0
  0
POINT
  5
7FA
330
6BA
100
AcDbEntity
  8
DEFPOINTS
 62
     0
100
AcDbPoint
 10
150.0000000000322
 20
59.2914584896664
 30
0.0
  0
POINT
  5
7FB
330
6BA
100
AcDbEntity
  8
DEFPOINTS
 62
     0
100
AcDbPoint
 10
0.0000000000643468
 20
69.99999999914422
 30
0.0
  0
POINT
  5
7FC
330
6BA
100
AcDbEntity
  8
DEFPOINTS
 62
     0
100
AcDbPoint
 10
0.0000000000643448
 20
38.85933780935613
 30
0.0
  0
ENDBLK
  5
6C5
330
6BA
100
AcDbEntity
  8
0
100
AcDbBlockEnd
  0
ENDSEC
  0
SECTION
  2
ENTITIES
  0
LINE
  5
1DF
330
22
100
AcDbEntity
  8
1
  6
Continuous
 62
     3
100
AcDbLine
 10
0.0
 20
0.0
 30
0.0
 11
20.00000000003217
 21
-0.0000000000000036
 31
0.0
  0
LINE
  5
1E0
330
22
100
AcDbEntity
  8
1
  6
Continuous
100
AcDbLine
 10
9.0
 20
-15.5715761106585
 30
0.0
 11
9.0
 21
-1.716893121924272
 31
0.0
  0
LINE
  5
1F2
330
22
100
AcDbEntity
  8
1
  6
Continuous
100
AcDbLine
 10
0.8555173240888507
 20
-6.440044520364779
 30
0.0
 11
1.691905052444326
 21
-16.00000000085579
 31
0.0
  0
LINE
  5
1F3
330
22
100
AcDbEntity
  8
1
  6
Continuous
100
AcDbLine
 10
7.874015073858004
 20
-0.9809734913144723
 30
0.0
 11
6.440044520397009
 21
-0.8555173240566774
 31
0.0
  0
LINE
  5
1F4
330
22
100
AcDbEntity
  8
1
  6
Continuous
100
AcDbLine
 10
8.309793787596277
 20
-1.000000000855778
 30
0.0
 11
17.00000000003217
 21
-1.000000000855781
 31
0.0
  0
ARC
  5
1F5
330
22
100
AcDbEntity
  8
1
  6
Continuous
100
AcDbCircle
 10
8.309793787596277
 20
3.999999999144222
 30
0.0
 40
5.000000000000001
100
AcDbArc
 50
265.0
 51
270.0
  0
LINE
  5
1F6
330
22
100
AcDbEntity
  8
1
  6
Continuous
100
AcDbLine
 10
6.857676750315022
 20
-6.965165426834773
 30
0.0
 11
0.6349861503110788
 21
-6.420750542705065
 31
0.0
  0
LINE
  5
1F7
330
22
100
AcDbEntity
  8
1
  6
Continuous
100
AcDbLine
 10
6.965165426866975
 20
-6.857676750282764
 30
0.0
 11
6.420750542737324
 21
-0.6349861502788485
 31
0.0
  0
LINE
  5
1F8
330
22
100
AcDbEntity
  8
1
  6
Continuous
100
AcDbLine
 10
6.330556833886817
 20
-0.5447924414283705
 30
0.0
 11
0.1078662338829872
 21
-0.000377557298691
 31
0.0
  0
LINE
  5
1F9
330
22
100
AcDbEntity
  8
1
  6
Continuous
100
AcDbLine
 10
0.0003775573308076
 20
-0.1078662338506717
 30
0.0
 11
0.5447924414605723
 21
-6.330556833854558
 31
0.0
  0
CIRCLE
  5
1FA
330
22
100
AcDbEntity
  8
1
  6
Continuous
100
AcDbCircle
 10
3.482771492099005
 20
-3.482771492066773
 30
0.0
 40
1.875
  0
ARC
  5
1FB
330
22
100
AcDbEntity
  8
1
  6
Continuous
100
AcDbCircle
 10
0.0992187500321506
 20
-0.0992187499999755
 30
0.0
 40
0.0992187500000001
100
AcDbArc
 50
84.99999999999977
 51
185.0
  0
ARC
  5
1FC
330
22
100
AcDbEntity
  8
1
  6
Continuous
100
AcDbCircle
 10
6.321909350036094
 20
-0.6436336341295714
 30
0.0
 40
0.0992187499999993
100
AcDbArc
 50
4.999999999999503
 51
84.99999999999994
  0
ARC
  5
1FD
330
22
100
AcDbEntity
  8
1
  6
Continuous
100
AcDbCircle
 10
6.866324234165631
 20
-6.866324234133487
 30
0.0
 40
0.0992187499999998
100
AcDbArc
 50
265.0
 51
4.999999999999982
  0
ARC
  5
1FE
330
22
100
AcDbEntity
  8
1
  6
Continuous
100
AcDbCircle
 10
0.6436336341618016
 20
-6.321909350003892
 30
0.0
 40
0.0992187500000002
100
AcDbArc
 50
185.0000000000005
 51
264.9999999999993
  0
INSERT
  5
1FF
330
22
100
AcDbEntity
  8
1
  6
Continuous
100
AcDbBlockReference
  2
LRIS-25-1_0001
 10
3.53580462940738
 20
-3.535804629375091
 30
0.0
  0
ARC
  5
200
330
22
100
AcDbEntity
  8
1
  6
Continuous
100
AcDbCircle
 10
6.227843094776404
 20
-6.227843094744173
 30
0.0
 40
1.500000000000587
100
AcDbArc
 50
224.9999999999999
 51
45.00000000000009
  0
LINE
  5
201
330
22
100
AcDbEntity
  8
1
  6
Continuous
100
AcDbLine
 10
6.772085698352498
 20
-4.650765354759869
 30
0.0
 11
7.288503266556631
 21
-5.167182922963889
 31
0.0
  0
LINE
  5
202
330
22
100
AcDbEntity
  8
1
  6
Continuous
100
AcDbLine
 10
5.167182922996176
 20
-7.288503266524387
 30
0.0
 11
4.650765354792043
 21
-6.772085698320382
 31
0.0
  0
LINE
  5
205
330
22
100
AcDbEntity
  8
1
  6
CENTER
100
AcDbLine
 10
18.69460296634077
 20
-6.000000000855778
 30
0.0
 11
151.9901580810869
 21
-6.000000000855827
 31
0.0
  0
LINE
  5
206
330
22
100
AcDbEntity
  8
1
  6
CENTER
100
AcDbLine
 10
88.29016113284467
 20
8.699999808409292
 30
0.0
 11
88.29016113284467
 21
-20.70000076379523
 31
0.0
  0
LINE
  5
207
330
22
100
AcDbEntity
  8
1
  6
Continuous
100
AcDbLine
 10
150.0000000000322
 20
5.699999999144165
 30
0.0
 11
150.0000000000322
 21
-17.70000000085583
 31
0.0
  0
LINE
  5
208
330
22
100
AcDbEntity
  8
1
  6
Continuous
100
AcDbLine
 10
149.0000000000322
 20
5.999999999144176
 30
0.0
 11
149.0000000000322
 21
-1.841875423597418
 31
0.0
  0
LINE
  5
209
330
22
100
AcDbEntity
  8
1
  6
Continuous
100
AcDbLine
 10
149.0000000000322
 20
-10.15812457811413
 30
0.0
 11
149.0000000000322
 21
-18.00000000085583
 31
0.0
  0
LINE
  5
20A
330
22
100
AcDbEntity
  8
1
  6
PHANTOM
100
AcDbLine
 10
25.70000190738074
 20
6.699999999144207
 30
0.0
 11
149.0000000000322
 21
6.699999999144165
 31
0.0
  0
LINE
  5
20B
330
22
100
AcDbEntity
  8
1
  6
PHANTOM
100
AcDbLine
 10
25.70000190738074
 20
-18.7000000008558
 30
0.0
 11
149.0000000000322
 21
-18.70000000085583
 31
0.0
  0
ARC
  5
20C
330
22
100
AcDbEntity
  8
1
  6
Continuous
100
AcDbCircle
 10
88.29016113284467
 20
-6.000000000855817
 30
0.0
 40
12.7
100
AcDbArc
 50
109.1117321371989
 51
160.8882678628011
  0
ARC
  5
20D
330
22
100
AcDbEntity
  8
1
  6
Continuous
100
AcDbCircle
 10
88.29016113284467
 20
-6.000000000855817
 30
0.0
 40
12.7
100
AcDbArc
 50
199.1117321371989
 51
250.8882678628011
  0
ARC
  5
20E
330
22
100
AcDbEntity
  8
1
  6
Continuous
100
AcDbCircle
 10
88.29016113284467
 20
-6.000000000855817
 30
0.0
 40
12.7
100
AcDbArc
 50
289.1117321371989
 51
340.8882678628011
  0
ARC
  5
20F
330
22
100
AcDbEntity
  8
1
  6
Continuous
100
AcDbCircle
 10
88.29016113284467
 20
-6.000000000855817
 30
0.0
 40
12.7
100
AcDbArc
 50
19.11173213719897
 51
70.88826786280112
  0
LINE
  5
210
330
22
100
AcDbEntity
  8
1
  6
Continuous
100
AcDbLine
 10
24.00000190738081
 20
5.999999999144219
 30
0.0
 11
149.7000000000322
 21
5.999999999144176
 31
0.0
  0
LINE
  5
211
330
22
100
AcDbEntity
  8
1
  6
Continuous
100
AcDbLine
 10
24.32055243561047
 20
-18.00000000085579
 30
0.0
 11
149.7000000000323
 21
-18.00000000085583
 31
0.0
  0
LINE
  5
212
330
22
100
AcDbEntity
  8
1
  6
Continuous
100
AcDbLine
 10
100.2901611328447
 20
-1.841875423597415
 30
0.0
 11
100.2901611328447
 21
-10.15812457811413
 31
0.0
  0
LINE
  5
213
330
22
100
AcDbEntity
  8
1
  6
Continuous
100
AcDbLine
 10
76.29016113284467
 20
-1.841875423597411
 30
0.0
 11
76.29016113284467
 21
-10.15812457811412
 31
0.0
  0
LINE
  5
214
330
22
100
AcDbEntity
  8
1
  6
Continuous
100
AcDbLine
 10
24.70000190738074
 20
-1.841875423597376
 30
0.0
 11
149.0000000000322
 21
-1.841875423597418
 31
0.0
  0
LINE
  5
215
330
22
100
AcDbEntity
  8
1
  6
Continuous
100
AcDbLine
 10
24.70000190738074
 20
-10.1581245781141
 30
0.0
 11
149.0000000000322
 21
-10.15812457811413
 31
0.0
  0
LINE
  5
216
330
22
100
AcDbEntity
  8
1
  6
Continuous
100
AcDbLine
 10
149.7000000000322
 20
5.999999999144176
 30
0.0
 11
150.0000000000322
 21
5.699999999144165
 31
0.0
  0
LINE
  5
217
330
22
100
AcDbEntity
  8
1
  6
Continuous
100
AcDbLine
 10
150.0000000000322
 20
-17.70000000085583
 30
0.0
 11
149.7000000000323
 21
-18.00000000085583
 31
0.0
  0
ARC
  5
219
330
22
100
AcDbEntity
  8
1
  6
Continuous
100
AcDbCircle
 10
137.0000000000323
 20
-6.00000000085582
 30
0.0
 40
12.69999999999994
100
AcDbArc
 50
340.8882678628009
 51
19.11173213719905
  0
LINE
  5
21C
330
22
100
AcDbEntity
  8
1
  6
Continuous
100
AcDbLine
 10
23.50000190738081
 20
-17.50000000085579
 30
0.0
 11
23.50000190738081
 21
5.499999999144219
 31
0.0
  0
LINE
  5
21D
330
22
100
AcDbEntity
  8
1
  6
Continuous
100
AcDbLine
 10
24.70000190738074
 20
-18.00000000085579
 30
0.0
 11
24.70000190738074
 21
-10.1581245781141
 31
0.0
  0
LINE
  5
21E
330
22
100
AcDbEntity
  8
1
  6
Continuous
100
AcDbLine
 10
24.70000190738074
 20
-1.841875423597376
 30
0.0
 11
24.70000190738074
 21
5.999999999144219
 31
0.0
  0
LINE
  5
21F
330
22
100
AcDbEntity
  8
1
  6
Continuous
100
AcDbLine
 10
24.00000190738081
 20
5.999999999144219
 30
0.0
 11
23.50000190738081
 21
5.499999999144219
 31
0.0
  0
LINE
  5
220
330
22
100
AcDbEntity
  8
1
  6
Continuous
100
AcDbLine
 10
23.21635108207715
 20
5.499999999144219
 30
0.0
 11
21.53153893521551
 21
1.886908690440716
 31
0.0
  0
LINE
  5
221
330
22
100
AcDbEntity
  8
1
  6
Continuous
100
AcDbLine
 10
23.50000190738081
 20
5.499999999144219
 30
0.0
 11
23.21635108207715
 21
5.499999999144219
 31
0.0
  0
ARC
  5
222
330
22
100
AcDbEntity
  8
1
  6
Continuous
100
AcDbCircle
 10
36.70000190738085
 20
-6.000000000855781
 30
0.0
 40
12.69999999999991
100
AcDbArc
 50
160.888267862801
 51
199.111732137199
  0
ARC
  5
223
330
22
100
AcDbEntity
  8
1
  6
Continuous
100
AcDbCircle
 10
21.32055243561047
 20
-22.0000000008558
 30
0.0
 40
5.0
100
AcDbArc
 50
53.13010235415597
 51
90.0
  0
LINE
  5
224
330
22
100
AcDbEntity
  8
1
  6
Continuous
100
AcDbLine
 10
21.32055243561047
 20
-17.00000000085579
 30
0.0
 11
2.691905052444326
 21
-17.00000000085579
 31
0.0
  0
ARC
  5
225
330
22
100
AcDbEntity
  8
1
  6
Continuous
100
AcDbCircle
 10
17.00000000003217
 20
3.999999999144222
 30
0.0
 40
5.0
100
AcDbArc
 50
270.0
 51
334.9999999999998
  0
POLYLINE
  5
226
330
22
100
AcDbEntity
  8
1
  6
Continuous
100
AcDb2dPolyline
 66
     1
 10
0.0
 20
0.0
 30
0.0
  0
VERTEX
  5
227
330
226
100
AcDbEntity
  8
1
  6
Continuous
100
AcDbVertex
100
AcDb2dVertex
 10
10.70393578170877
 20
-17.00000000085579
 30
0.0
  0
VERTEX
  5
228
330
226
100
AcDbEntity
  8
1
  6
Continuous
100
AcDbVertex
100
AcDb2dVertex
 10
11.4985323198099
 20
-16.32860253377049
 30
0.0
  0
VERTEX
  5
229
330
226
100
AcDbEntity
  8
1
  6
Continuous
100
AcDbVertex
100
AcDb2dVertex
 10
12.23201416024028
 20
-15.3967280410747
 30
0.0
  0
VERTEX
  5
22A
330
226
100
AcDbEntity
  8
1
  6
Continuous
100
AcDbVertex
100
AcDb2dVertex
 10
12.88790759210986
 20
-14.22521141577968
 30
0.0
  0
VERTEX
  5
22B
330
226
100
AcDbEntity
  8
1
  6
Continuous
100
AcDbVertex
100
AcDb2dVertex
 10
13.44941995898466
 20
-12.84389607984429
 30
0.0
  0
VERTEX
  5
22C
330
226
100
AcDbEntity
  8
1
  6
Continuous
100
AcDbVertex
100
AcDb2dVertex
 10
14.23299845383633
 20
-9.602109502661293
 30
0.0
  0
VERTEX
  5
22D
330
226
100
AcDbEntity
  8
1
  6
Continuous
100
AcDbVertex
100
AcDb2dVertex
 10
14.50243037181997
 20
-6.000000030658072
 30
0.0
  0
SEQEND
  5
22E
330
226
100
AcDbEntity
  8
1
  0
POLYLINE
  5
22F
330
22
100
AcDbEntity
  8
1
  6
Continuous
100
AcDb2dPolyline
 66
     1
 10
0.0
 20
0.0
 30
0.0
  0
VERTEX
  5
230
330
22F
100
AcDbEntity
  8
1
  6
Continuous
100
AcDbVertex
100
AcDb2dVertex
 10
14.50243037181997
 20
-6.000000030658072
 30
0.0
  0
VERTEX
  5
231
330
22F
100
AcDbEntity
  8
1
  6
Continuous
100
AcDbVertex
100
AcDb2dVertex
 10
14.46877818449616
 20
-4.704432148713579
 30
0.0
  0
VERTEX
  5
232
330
22F
100
AcDbEntity
  8
1
  6
Continuous
100
AcDbVertex
100
AcDb2dVertex
 10
14.36812029397913
 20
-3.43098152079827
 30
0.0
  0
VERTEX
  5
233
330
22F
100
AcDbEntity
  8
1
  6
Continuous
100
AcDbVertex
100
AcDb2dVertex
 10
14.20139445287975
 20
-2.19165153723867
 30
0.0
  0
VERTEX
  5
234
330
22F
100
AcDbEntity
  8
1
  6
Continuous
100
AcDbVertex
100
AcDb2dVertex
 10
13.97041289429274
 20
-1.000000000855778
 30
0.0
  0
SEQEND
  5
235
330
22F
100
AcDbEntity
  8
1
  0
LINE
  5
236
330
22
100
AcDbEntity
  8
1
  6
Continuous
100
AcDbLine
 10
1.691905052444326
 20
-16.00000000085579
 30
0.0
 11
2.691905052444326
 21
-17.00000000085579
 31
0.0
  0
LINE
  5
237
330
22
100
AcDbEntity
  8
2
  6
Continuous
100
AcDbLine
 10
6.402783393892037
 20
70.30000001106512
 30
0.0
 11
8.362929344209533
 21
70.30000001106512
 31
0.0
  0
LINE
  5
238
330
22
100
AcDbEntity
  8
2
  6
Continuous
100
AcDbLine
 10
0.0000000000643468
 20
69.99999999914422
 30
0.0
 11
6.965542793306099
 21
69.99999999914422
 31
0.0
  0
LINE
  5
239
330
22
100
AcDbEntity
  8
2
  6
CENTER
100
AcDbLine
 10
3.480012893708931
 20
68.75899302873864
 30
0.0
 11
3.480012893708931
 21
80.45320987615841
 31
0.0
  0
LINE
  5
244
330
22
100
AcDbEntity
  8
2
  6
Continuous
100
AcDbLine
 10
0.3200907476727934
 20
72.37999999914422
 30
0.0
 11
6.250011986480104
 21
72.37999999914422
 31
0.0
  0
LINE
  5
245
330
22
100
AcDbEntity
  8
2
  6
Continuous
100
AcDbLine
 10
14.50243037181997
 20
58.49999999914422
 30
0.0
 11
9.26923752626135
 21
69.72261827280579
 31
0.0
  0
ARC
  5
246
330
22
100
AcDbEntity
  8
2
  6
Continuous
100
AcDbCircle
 10
8.362929739224683
 20
69.30000001106514
 30
0.0
 40
1.0
100
AcDbArc
 50
25.00000000000015
 51
90.0
  0
LINE
  5
247
330
22
100
AcDbEntity
  8
2
  6
Continuous
100
AcDbLine
 10
0.0000000000321734
 20
69.99999999914422
 30
0.0
 11
0.3297497801726195
 21
72.37999999914422
 31
0.0
  0
LINE
  5
248
330
22
100
AcDbEntity
  8
2
  6
Continuous
100
AcDbLine
 10
6.928707614430891
 20
70.30000001106512
 30
0.0
 11
6.965542984165495
 21
69.99999999914422
 31
0.0
  0
LINE
  5
249
330
22
100
AcDbEntity
  8
2
  6
Continuous
100
AcDbLine
 10
6.121267187278704
 20
72.37999999914422
 30
0.0
 11
6.413494442227602
 21
69.99999999914422
 31
0.0
  0
LINE
  5
24A
330
22
100
AcDbEntity
  8
2
  6
Continuous
100
AcDbLine
 10
6.250011986480104
 20
72.37999999914422
 30
0.0
 11
6.250011986480104
 21
71.57999999914424
 31
0.0
  0
LINE
  5
24B
330
22
100
AcDbEntity
  8
2
  6
Continuous
100
AcDbLine
 10
6.402783239236783
 20
70.30000001106512
 30
0.0
 11
6.250011986480104
 21
71.57999999914424
 31
0.0
  0
LINE
  5
24C
330
22
100
AcDbEntity
  8
2
  6
Continuous
100
AcDbLine
 10
0.3200907476727934
 20
81.49999999914422
 30
0.0
 11
0.3200907476727934
 21
72.37999999914422
 31
0.0
  0
LINE
  5
24D
330
22
100
AcDbEntity
  8
2
  6
Continuous
100
AcDbLine
 10
8.091489073053708
 20
79.01607588107706
 30
0.0
 11
8.091489073053708
 21
71.12200031615274
 31
0.0
  0
LINE
  5
24E
330
22
100
AcDbEntity
  8
2
  6
CENTER
100
AcDbLine
 10
18.69460296634077
 20
69.99999999914422
 30
0.0
 11
151.9901580810869
 21
69.99999999914418
 31
0.0
  0
LINE
  5
24F
330
22
100
AcDbEntity
  8
2
  6
Continuous
100
AcDbLine
 10
150.0000000000322
 20
81.69999999914417
 30
0.0
 11
150.0000000000322
 21
58.29999999914419
 31
0.0
  0
LINE
  5
250
330
22
100
AcDbEntity
  8
2
  6
Continuous
100
AcDbLine
 10
149.0000000000322
 20
81.99999999914418
 30
0.0
 11
149.0000000000322
 21
74.15812457640259
 31
0.0
  0
LINE
  5
251
330
22
100
AcDbEntity
  8
2
  6
Continuous
100
AcDbLine
 10
149.0000000000322
 20
65.84187542188589
 30
0.0
 11
149.0000000000322
 21
57.99999999914418
 31
0.0
  0
LINE
  5
252
330
22
100
AcDbEntity
  8
2
  6
Continuous
100
AcDbLine
 10
149.7000000000322
 20
81.99999999914418
 30
0.0
 11
150.0000000000322
 21
81.69999999914417
 31
0.0
  0
LINE
  5
253
330
22
100
AcDbEntity
  8
2
  6
Continuous
100
AcDbLine
 10
150.0000000000322
 20
58.29999999914419
 30
0.0
 11
149.7000000000324
 21
57.99999999914418
 31
0.0
  0
ARC
  5
254
330
22
100
AcDbEntity
  8
2
  6
Continuous
100
AcDbCircle
 10
137.0000000000324
 20
69.99999999914418
 30
0.0
 40
12.69999999999994
100
AcDbArc
 50
340.8882678628009
 51
19.11173213719905
  0
LINE
  5
255
330
22
100
AcDbEntity
  8
2
  6
Continuous
100
AcDbLine
 10
24.00000190738081
 20
81.99999999914422
 30
0.0
 11
149.7000000000322
 21
81.99999999914418
 31
0.0
  0
LINE
  5
256
330
22
100
AcDbEntity
  8
2
  6
Continuous
100
AcDbLine
 10
24.00000190738081
 20
57.99999999914422
 30
0.0
 11
149.7000000000324
 21
57.99999999914418
 31
0.0
  0
LINE
  5
257
330
22
100
AcDbEntity
  8
2
  6
Continuous
100
AcDbLine
 10
24.70000190738074
 20
74.15812457640263
 30
0.0
 11
149.0000000000322
 21
74.15812457640259
 31
0.0
  0
LINE
  5
258
330
22
100
AcDbEntity
  8
2
  6
Continuous
100
AcDbLine
 10
24.70000190738074
 20
65.84187542188593
 30
0.0
 11
149.0000000000322
 21
65.84187542188589
 31
0.0
  0
LINE
  5
259
330
22
100
AcDbEntity
  8
2
  6
Continuous
100
AcDbLine
 10
0.3200907476727934
 20
81.49999999914422
 30
0.0
 11
23.50000190738081
 21
81.49999999914422
 31
0.0
  0
LINE
  5
25A
330
22
100
AcDbEntity
  8
2
  6
Continuous
100
AcDbLine
 10
14.50243037181997
 20
58.49999999914422
 30
0.0
 11
23.50000190738081
 21
58.49999999914422
 31
0.0
  0
LINE
  5
25B
330
22
100
AcDbEntity
  8
2
  6
Continuous
100
AcDbLine
 10
23.50000190738081
 20
81.49999999914422
 30
0.0
 11
23.50000190738081
 21
58.49999999914422
 31
0.0
  0
LINE
  5
25C
330
22
100
AcDbEntity
  8
2
  6
Continuous
100
AcDbLine
 10
24.70000190738074
 20
81.99999999914422
 30
0.0
 11
24.70000190738074
 21
74.15812457640263
 31
0.0
  0
LINE
  5
25D
330
22
100
AcDbEntity
  8
2
  6
Continuous
100
AcDbLine
 10
24.70000190738074
 20
65.84187542188593
 30
0.0
 11
24.70000190738074
 21
57.99999999914422
 31
0.0
  0
LINE
  5
25E
330
22
100
AcDbEntity
  8
2
  6
Continuous
100
AcDbLine
 10
23.50000190738081
 20
81.49999999914422
 30
0.0
 11
24.00000190738081
 21
81.99999999914422
 31
0.0
  0
LINE
  5
25F
330
22
100
AcDbEntity
  8
2
  6
Continuous
100
AcDbLine
 10
23.50000190738081
 20
58.49999999914422
 30
0.0
 11
24.00000190738081
 21
57.99999999914422
 31
0.0
  0
ARC
  5
260
330
22
100
AcDbEntity
  8
2
  6
Continuous
100
AcDbCircle
 10
36.70000190738085
 20
69.99999999914422
 30
0.0
 40
12.7
100
AcDbArc
 50
160.8882678628011
 51
199.1117321371989
  0
POLYLINE
  5
261
330
22
100
AcDbEntity
  8
2
  6
Continuous
100
AcDb2dPolyline
 66
     1
 10
0.0
 20
0.0
 30
0.0
  0
VERTEX
  5
262
330
261
100
AcDbEntity
  8
2
  6
Continuous
100
AcDbVertex
100
AcDb2dVertex
 10
21.53156035099141
 20
61.63061108327611
 30
0.0
  0
VERTEX
  5
263
330
261
100
AcDbEntity
  8
2
  6
Continuous
100
AcDbVertex
100
AcDb2dVertex
 10
22.24714300091512
 20
63.4039836104329
 30
0.0
  0
VERTEX
  5
264
330
261
100
AcDbEntity
  8
2
  6
Continuous
100
AcDbVertex
100
AcDb2dVertex
 10
22.77946927945629
 20
65.44606077573332
 30
0.0
  0
VERTEX
  5
265
330
261
100
AcDbEntity
  8
2
  6
Continuous
100
AcDbVertex
100
AcDb2dVertex
 10
23.10626825723716
 20
67.67048511934863
 30
0.0
  0
VERTEX
  5
266
330
261
100
AcDbEntity
  8
2
  6
Continuous
100
AcDbVertex
100
AcDb2dVertex
 10
23.21635106818007
 20
69.99999999914422
 30
0.0
  0
VERTEX
  5
267
330
261
100
AcDbEntity
  8
2
  6
Continuous
100
AcDbVertex
100
AcDb2dVertex
 10
23.10626825723716
 20
72.3295148789399
 30
0.0
  0
VERTEX
  5
268
330
261
100
AcDbEntity
  8
2
  6
Continuous
100
AcDbVertex
100
AcDb2dVertex
 10
22.77946927945629
 20
74.55393922255513
 30
0.0
  0
VERTEX
  5
269
330
261
100
AcDbEntity
  8
2
  6
Continuous
100
AcDbVertex
100
AcDb2dVertex
 10
22.24714300091512
 20
76.59601638785554
 30
0.0
  0
VERTEX
  5
26A
330
261
100
AcDbEntity
  8
2
  6
Continuous
100
AcDbVertex
100
AcDb2dVertex
 10
21.53156035099141
 20
78.36938891501234
 30
0.0
  0
SEQEND
  5
26B
330
261
100
AcDbEntity
  8
2
  0
POLYLINE
  5
26C
330
22
100
AcDbEntity
  8
2
  6
Continuous
100
AcDb2dPolyline
 66
     1
 10
0.0
 20
0.0
 30
0.0
  0
VERTEX
  5
26D
330
26C
100
AcDbEntity
  8
2
  6
Continuous
100
AcDbVertex
100
AcDb2dVertex
 10
21.53153893521551
 20
61.63061108327611
 30
0.0
  0
VERTEX
  5
26E
330
26C
100
AcDbEntity
  8
2
  6
Continuous
100
AcDbVertex
100
AcDb2dVertex
 10
21.06761756676804
 20
61.08608327183413
 30
0.0
  0
VERTEX
  5
26F
330
26C
100
AcDbEntity
  8
2
  6
Continuous
100
AcDbVertex
100
AcDb2dVertex
 10
20.6218271793947
 20
60.6584937433918
 30
0.0
  0
VERTEX
  5
270
330
26C
100
AcDbEntity
  8
2
  6
Continuous
100
AcDbVertex
100
AcDb2dVertex
 10
20.15969605838768
 20
60.31448562810431
 30
0.0
  0
VERTEX
  5
271
330
26C
100
AcDbEntity
  8
2
  6
Continuous
100
AcDbVertex
100
AcDb2dVertex
 10
19.68649804176641
 20
60.05985835202301
 30
0.0
  0
VERTEX
  5
272
330
26C
100
AcDbEntity
  8
2
  6
Continuous
100
AcDbVertex
100
AcDb2dVertex
 10
19.16120805761261
 20
59.87671720239942
 30
0.0
  0
VERTEX
  5
273
330
26C
100
AcDbEntity
  8
2
  6
Continuous
100
AcDbVertex
100
AcDb2dVertex
 10
18.54290261056769
 20
59.74702807234903
 30
0.0
  0
VERTEX
  5
274
330
26C
100
AcDbEntity
  8
2
  6
Continuous
100
AcDbVertex
100
AcDb2dVertex
 10
17.84070724027276
 20
59.67130467417013
 30
0.0
  0
VERTEX
  5
275
330
26C
100
AcDbEntity
  8
2
  6
Continuous
100
AcDbVertex
100
AcDb2dVertex
 10
17.00000000003217
 20
59.64384242492889
 30
0.0
  0
SEQEND
  5
276
330
26C
100
AcDbEntity
  8
2
  0
LINE
  5
277
330
22
100
AcDbEntity
  8
2
  6
Continuous
100
AcDbLine
 10
17.00000000003217
 20
59.64384242492889
 30
0.0
 11
13.96904788895392
 21
59.64384242492889
 31
0.0
  0
LINE
  5
278
330
22
100
AcDbEntity
  8
2
  6
Continuous
100
AcDbLine
 10
17.00000000003217
 20
80.35615757335955
 30
0.0
 11
8.022347695795247
 21
80.35615757335955
 31
0.0
  0
POLYLINE
  5
279
330
22
100
AcDbEntity
  8
2
  6
Continuous
100
AcDb2dPolyline
 66
     1
 10
0.0
 20
0.0
 30
0.0
  0
VERTEX
  5
27A
330
279
100
AcDbEntity
  8
2
  6
Continuous
100
AcDbVertex
100
AcDb2dVertex
 10
21.53153893521551
 20
78.36938891501234
 30
0.0
  0
VERTEX
  5
27B
330
279
100
AcDbEntity
  8
2
  6
Continuous
100
AcDbVertex
100
AcDb2dVertex
 10
21.06761756676804
 20
78.9139167264544
 30
0.0
  0
VERTEX
  5
27C
330
279
100
AcDbEntity
  8
2
  6
Continuous
100
AcDbVertex
100
AcDb2dVertex
 10
20.6218271793947
 20
79.34150625489664
 30
0.0
  0
VERTEX
  5
27D
330
279
100
AcDbEntity
  8
2
  6
Continuous
100
AcDbVertex
100
AcDb2dVertex
 10
20.15969605838768
 20
79.68551437018414
 30
0.0
  0
VERTEX
  5
27E
330
279
100
AcDbEntity
  8
2
  6
Continuous
100
AcDbVertex
100
AcDb2dVertex
 10
19.68649804176641
 20
79.94014164626543
 30
0.0
  0
VERTEX
  5
27F
330
279
100
AcDbEntity
  8
2
  6
Continuous
100
AcDbVertex
100
AcDb2dVertex
 10
19.16120805761261
 20
80.12328279588903
 30
0.0
  0
VERTEX
  5
280
330
279
100
AcDbEntity
  8
2
  6
Continuous
100
AcDbVertex
100
AcDb2dVertex
 10
18.54290261056769
 20
80.25297192593953
 30
0.0
  0
VERTEX
  5
281
330
279
100
AcDbEntity
  8
2
  6
Continuous
100
AcDbVertex
100
AcDb2dVertex
 10
17.84070724027276
 20
80.32869532411831
 30
0.0
  0
VERTEX
  5
282
330
279
100
AcDbEntity
  8
2
  6
Continuous
100
AcDbVertex
100
AcDb2dVertex
 10
17.00000000003217
 20
80.35615757335955
 30
0.0
  0
SEQEND
  5
283
330
279
100
AcDbEntity
  8
2
  0
POLYLINE
  5
284
330
22
100
AcDbEntity
  8
2
  6
Continuous
100
AcDb2dPolyline
 66
     1
 10
0.0
 20
0.0
 30
0.0
  0
VERTEX
  5
285
330
284
100
AcDbEntity
  8
2
  6
Continuous
100
AcDbVertex
100
AcDb2dVertex
 10
0.3200907476729071
 20
80.00172166676224
 30
0.0
  0
VERTEX
  5
286
330
284
100
AcDbEntity
  8
2
  6
Continuous
100
AcDbVertex
100
AcDb2dVertex
 10
1.266273374880143
 20
80.04838092799291
 30
0.0
  0
VERTEX
  5
287
330
284
100
AcDbEntity
  8
2
  6
Continuous
100
AcDbVertex
100
AcDb2dVertex
 10
2.217281254342538
 20
80.09437461831872
 30
0.0
  0
VERTEX
  5
288
330
284
100
AcDbEntity
  8
2
  6
Continuous
100
AcDbVertex
100
AcDb2dVertex
 10
3.173073115833518
 20
80.13969912706263
 30
0.0
  0
VERTEX
  5
289
330
284
100
AcDbEntity
  8
2
  6
Continuous
100
AcDbVertex
100
AcDb2dVertex
 10
4.133607689126507
 20
80.18435084354753
 30
0.0
  0
VERTEX
  5
28A
330
284
100
AcDbEntity
  8
2
  6
Continuous
100
AcDbVertex
100
AcDb2dVertex
 10
5.098843703995613
 20
80.22832615709665
 30
0.0
  0
VERTEX
  5
28B
330
284
100
AcDbEntity
  8
2
  6
Continuous
100
AcDbVertex
100
AcDb2dVertex
 10
6.068739890214374
 20
80.27162145703302
 30
0.0
  0
VERTEX
  5
28C
330
284
100
AcDbEntity
  8
2
  6
Continuous
100
AcDbVertex
100
AcDb2dVertex
 10
7.04325497755633
 20
80.31423313267966
 30
0.0
  0
VERTEX
  5
28D
330
284
100
AcDbEntity
  8
2
  6
Continuous
100
AcDbVertex
100
AcDb2dVertex
 10
8.022347695795247
 20
80.35615757335957
 30
0.0
  0
SEQEND
  5
28E
330
284
100
AcDbEntity
  8
2
  0
LINE
  5
309
330
22
100
AcDbEntity
  8
6
  6
Continuous
100
AcDbLine
 10
-49.99999999996783
 20
-6.965542794129668
 30
0.0
 11
-49.99999999996783
 21
-0.0000000008557706
 31
0.0
  0
LINE
  5
30A
330
22
100
AcDbEntity
  8
6
  6
Continuous
100
AcDbLine
 10
-50.30000001188876
 20
-6.402783394715662
 30
0.0
 11
-50.30000001188876
 21
-17.00000000085577
 31
0.0
  0
LINE
  5
30B
330
22
100
AcDbEntity
  8
6
  6
CENTER
100
AcDbLine
 10
-49.42242020365359
 20
-3.535804510972376
 30
0.0
 11
-59.99999999996783
 21
-3.535804510972376
 31
0.0
  0
LINE
  5
30C
330
22
100
AcDbEntity
  8
6
  6
Continuous
100
AcDbLine
 10
-52.37999999996782
 20
-6.250011986447866
 30
0.0
 11
-52.37999999996782
 21
-0.2922272558046686
 31
0.0
  0
LINE
  5
30D
330
22
100
AcDbEntity
  8
6
  6
Continuous
100
AcDbLine
 10
-59.99943151064338
 20
-0.3200907476405845
 30
0.0
 11
-52.37999999996782
 21
-0.3200907476405845
 31
0.0
  0
LINE
  5
30E
330
22
100
AcDbEntity
  8
6
  6
Continuous
100
AcDbLine
 10
-49.99999999996783
 20
-0.0000000008557706
 30
0.0
 11
-52.37999999996782
 21
-0.2922272558046686
 31
0.0
  0
LINE
  5
30F
330
22
100
AcDbEntity
  8
6
  6
Continuous
100
AcDbLine
 10
-49.99999999996783
 20
-1.000000000855771
 30
0.0
 11
-39.6438424257525
 21
-1.000000000855774
 31
0.0
  0
LINE
  5
310
330
22
100
AcDbEntity
  8
6
  6
Continuous
100
AcDbLine
 10
-49.99999999996783
 20
-6.965542984133258
 30
0.0
 11
-50.30000001188876
 21
-6.928707614398682
 31
0.0
  0
LINE
  5
311
330
22
100
AcDbEntity
  8
6
  6
Continuous
100
AcDbLine
 10
-52.37999999996782
 20
-6.250011986447866
 30
0.0
 11
-51.57999999996787
 21
-6.250011986447866
 31
0.0
  0
LINE
  5
312
330
22
100
AcDbEntity
  8
6
  6
Continuous
100
AcDbLine
 10
-50.30000001188876
 20
-6.402783239204574
 30
0.0
 11
-51.57999999996787
 21
-6.250011986447866
 31
0.0
  0
ARC
  5
313
330
22
100
AcDbEntity
  8
6
  6
Continuous
100
AcDbCircle
 10
-49.99999999996783
 20
-6.000000030658065
 30
0.0
 40
12.7
100
AcDbArc
 50
19.1117322794945
 51
70.88826827345422
  0
ARC
  5
314
330
22
100
AcDbEntity
  8
6
  6
Continuous
100
AcDbCircle
 10
-49.99999999996783
 20
-6.000000030658065
 30
0.0
 40
12.7
100
AcDbArc
 50
109.1117317265458
 51
160.8882677205055
  0
ARC
  5
315
330
22
100
AcDbEntity
  8
6
  6
Continuous
100
AcDbCircle
 10
-49.99999999996783
 20
-6.000000030658065
 30
0.0
 40
12.7
100
AcDbArc
 50
199.1117319949032
 51
250.8882674521478
  0
ARC
  5
316
330
22
100
AcDbEntity
  8
6
  6
Continuous
100
AcDbCircle
 10
-49.99999999996783
 20
-6.000000030658065
 30
0.0
 40
12.7
100
AcDbArc
 50
289.1117325478522
 51
340.8882680050966
  0
LINE
  5
317
330
22
100
AcDbEntity
  8
6
  6
Continuous
100
AcDbLine
 10
-54.15812449121927
 20
5.999999999144229
 30
0.0
 11
-45.84187550871639
 21
5.999999999144226
 31
0.0
  0
LINE
  5
318
330
22
100
AcDbEntity
  8
6
  6
Continuous
100
AcDbLine
 10
-54.15812466323325
 20
-18.00000000085577
 30
0.0
 11
-45.8418753367024
 21
-18.00000000085577
 31
0.0
  0
LINE
  5
319
330
22
100
AcDbEntity
  8
6
  6
Continuous
100
AcDbLine
 10
-38.00000001029468
 20
-1.841875423597369
 30
0.0
 11
-37.99999998964097
 21
-10.15812457811408
 31
0.0
  0
LINE
  5
31A
330
22
100
AcDbEntity
  8
6
  6
Continuous
100
AcDbLine
 10
-61.99999998964097
 20
-1.841875423597365
 30
0.0
 11
-62.00000001029468
 21
-10.15812457811408
 31
0.0
  0
LINE
  5
31B
330
22
100
AcDbEntity
  8
6
  6
CENTER
100
AcDbLine
 10
-64.69999999996787
 20
-6.000000030658065
 30
0.0
 11
-35.29999999996778
 21
-6.000000030658065
 31
0.0
  0
LINE
  5
31C
330
22
100
AcDbEntity
  8
6
  6
CENTER
100
AcDbLine
 10
-49.99999999996783
 20
-20.70000003065807
 30
0.0
 11
-49.99999999996783
 21
8.699999969341924
 31
0.0
  0
ARC
  5
31D
330
22
100
AcDbEntity
  8
6
  6
Continuous
100
AcDbCircle
 10
-49.99999999996783
 20
-6.000000030658065
 30
0.0
 40
11.5
100
AcDbArc
 50
286.9574268032645
 51
253.0425731967355
  0
LINE
  5
31E
330
22
100
AcDbEntity
  8
6
  6
Continuous
100
AcDbLine
 10
-53.35410206395625
 20
-17.00000000085577
 30
0.0
 11
-46.64589793597941
 21
-17.00000000085577
 31
0.0
  0
LINE
  5
31F
330
22
100
AcDbEntity
  8
6
  6
Continuous
100
AcDbLine
 10
-55.67890839824702
 20
-16.00000000085577
 30
0.0
 11
-50.30000001188876
 21
-16.00000000085577
 31
0.0
  0
DIMENSION
  5
4AE
330
22
100
AcDbEntity
  8
AM_5
100
AcDbDimension
  2
*D3
 10
-7.321361632373851
 20
69.99999999914422
 30
0.0
 11
-9.911361632373859
 21
77.33999999914423
 31
0.0
 70
    32
 71
     5
 42
-1.0
  3
Standard$0
100
AcDbAlignedDimension
 13
1.388432355208693
 23
69.99999999914422
 33
0.0
 14
1.388432355208693
 24
69.99999999914422
 34
0.0
 50
270.0
100
AcDbRotatedDimension
1001
ACAD
1000
DSTYLE
1002
{
1070
    41
1040
3.0
1070
    42
1040
1.0
1070
    43
1040
5.0
1070
    44
1040
2.0
1070
    46
1040
3.0
1070
    73
1070
     0
1070
    74
1070
     0
1070
    77
1070
     1
1070
    78
1070
     8
1070
   140
1040
5.0
1070
   141
1040
2.0
1070
   145
1040
1.0
1070
   171
1070
     4
1070
   172
1070
     1
1002
}
  0
DIMENSION
  5
51E
330
22
100
AcDbEntity
  8
AM_5
100
AcDbDimension
  2
*D5
 10
76.29016113284473
 20
20.90373247939578
 30
0.0
 11
88.2901611328447
 21
23.49373247939578
 31
0.0
 70
    32
 71
     5
 42
23.99999999999994
  3
Standard$0
100
AcDbAlignedDimension
 13
100.2901611328447
 23
-4.145650248625557
 33
0.0
 14
76.29016113284473
 24
-4.145650248625554
 34
0.0
 50
180.0
100
AcDbRotatedDimension
1001
ACAD
1000
DSTYLE
1002
{
1070
    41
1040
3.0
1070
    42
1040
1.0
1070
    43
1040
5.0
1070
    44
1040
2.0
1070
    46
1040
3.0
1070
    73
1070
     0
1070
    74
1070
     0
1070
    77
1070
     1
1070
    78
1070
     8
1070
   140
1040
5.0
1070
   141
1040
2.0
1070
   145
1040
1.0
1070
   171
1070
     4
1070
   172
1070
     1
1002
}
  0
DIMENSION
  5
542
330
22
100
AcDbEntity
  8
AM_5
100
AcDbDimension
  2
*D6
 10
113.484529505086
 20
5.999999999144191
 30
0.0
 11
113.484529505086
 21
-33.50138343877144
 31
0.0
 70
   160
 71
     5
 42
24.00000000000002
  3
Standard$0
100
AcDbAlignedDimension
 13
90.47978424182708
 23
-18.00000000085582
 33
0.0
 14
90.47978424182708
 24
5.999999999144198
 34
0.0
 50
270.0
100
AcDbRotatedDimension
1001
ACAD
1000
DSTYLE
1002
{
1070
    41
1040
3.0
1070
    42
1040
1.0
1070
    43
1040
5.0
1070
    44
1040
2.0
1070
    46
1040
3.0
1070
    73
1070
     0
1070
    74
1070
     0
1070
    77
1070
     1
1070
    78
1070
     8
1070
   140
1040
5.0
1070
   141
1040
2.0
1070
   145
1040
1.0
1070
   171
1070
     4
1070
   172
1070
     1
1002
}
  0
DIMENSION
  5
589
330
22
100
AcDbEntity
  8
AM_5
100
AcDbDimension
  2
*D7
 10
94.88247394865368
 20
4.855017812972065
 30
0.0
 11
70.06338768510034
 21
-36.01252458697699
 31
0.0
 70
   163
 71
     5
 42
25.40000000000003
  3
Standard$3
100
AcDbDiametricDimension
 15
81.69784831703566
 25
-16.8550178146837
 35
0.0
 40
0.0
1001
ACAD
1000
DSTYLE
1002
{
1070
    41
1040
3.0
1070
    42
1040
1.0
1070
    43
1040
5.0
1070
    44
1040
2.0
1070
    46
1040
3.0
1070
    73
1070
     0
1070
    74
1070
     0
1070
    77
1070
     1
1070
    78
1070
     8
1070
   140
1040
5.0
1070
   141
1040
2.0
1070
   145
1040
1.0
1070
   171
1070
     4
1070
   172
1070
     1
1002
}
  0
LINE
  5
5BC
330
22
100
AcDbEntity
  8
0
100
AcDbLine
 10
0.0
 20
0.0
 30
0.0
 11
0.0000000000321734
 21
-0.0721637388637646
 31
0.0
  0
DIMENSION
  5
5CD
330
22
100
AcDbEntity
  8
AM_5
100
AcDbDimension
  2
*D8
 10
19.99999998974388
 20
23.07634377839031
 30
0.0
 11
9.999999988589163
 21
25.66634377393194
 31
0.0
 70
    32
 71
     5
 42
20.0
  3
Standard$0
100
AcDbAlignedDimension
 13
0.0000000000321734
 23
0.0
 33
0.0
 14
20.00000000003217
 24
-0.0000000000000036
 34
0.0
 50
180.0000000255446
100
AcDbRotatedDimension
1001
ACAD
1000
DSTYLE
1002
{
1070
    41
1040
3.0
1070
    42
1040
1.0
1070
    43
1040
5.0
1070
    44
1040
2.0
1070
    46
1040
3.0
1070
    73
1070
     0
1070
    74
1070
     0
1070
    77
1070
     1
1070
    78
1070
     8
1070
   140
1040
5.0
1070
   141
1040
2.0
1070
   145
1040
1.0
1070
   171
1070
     4
1070
   172
1070
     1
1002
}
  0
DIMENSION
  5
608
330
22
100
AcDbEntity
  8
AM_5
100
AcDbDimension
  2
*D9
 10
0.5447924414605723
 20
-6.330556833854558
 30
0.0
 11
-9.372554676749022
 21
-18.30009580410686
 31
0.0
 70
    34
 71
     5
 42
0.0872664621538926
  3
Standard$2
100
AcDb2LineAngularDimension
 13
0.0
 23
0.0
 33
0.0
 14
0.0000000000321734
 24
-0.0721637388637646
 34
0.0
 15
0.0003775573308076
 25
-0.1078662338506717
 35
0.0
 16
1.314711831824059
 26
-22.67628108152072
 36
0.0
1001
ACAD
1000
DSTYLE
1002
{
1070
    41
1040
3.0
1070
    42
1040
1.0
1070
    43
1040
5.0
1070
    44
1040
2.0
1070
    46
1040
3.0
1070
    73
1070
     0
1070
    74
1070
     0
1070
    77
1070
     1
1070
    78
1070
     8
1070
   140
1040
5.0
1070
   141
1040
2.0
1070
   145
1040
1.0
1070
   171
1070
     4
1070
   172
1070
     1
1002
}
  0
DIMENSION
  5
649
330
22
100
AcDbEntity
  8
AM_5
100
AcDbDimension
  2
*D10
 10
-26.56886853798721
 20
0.0000000000000075
 30
0.0
 11
-29.15886853798721
 21
-3.000000000427883
 31
0.0
 70
    32
 71
     5
 42
6.000000000855773
  3
Standard$0
100
AcDbAlignedDimension
 13
21.26734428107238
 23
-6.000000000855778
 33
0.0
 14
0.0
 24
0.0
 34
0.0
 50
270.0
100
AcDbRotatedDimension
1001
ACAD
1000
DSTYLE
1002
{
1070
    41
1040
3.0
1070
    42
1040
1.0
1070
    43
1040
5.0
1070
    44
1040
2.0
1070
    46
1040
3.0
1070
    73
1070
     0
1070
    74
1070
     0
1070
    77
1070
     1
1070
    78
1070
     8
1070
   140
1040
5.0
1070
   141
1040
2.0
1070
   145
1040
1.0
1070
   171
1070
     4
1070
   172
1070
     1
1002
}
  0
DIMENSION
  5
67C
330
22
100
AcDbEntity
  8
AM_5
100
AcDbDimension
  2
*D11
 10
0.5447924414605723
 20
-6.330556833854558
 30
0.0
 11
-17.38088193731715
 21
17.38088193734906
 31
0.0
 70
    34
 71
     5
 42
1.396263401595446
  3
Standard$2
100
AcDb2LineAngularDimension
 13
6.330556833886817
 23
-0.5447924414283705
 33
0.0
 14
0.1078662338829872
 24
-0.000377557298691
 34
0.0
 15
0.0003775573308076
 25
-0.1078662338506717
 35
0.0
 16
-11.54693864384363
 26
18.71427108915083
 36
0.0
1001
ACAD
1000
DSTYLE
1002
{
1070
    41
1040
3.0
1070
    42
1040
1.0
1070
    43
1040
5.0
1070
    44
1040
2.0
1070
    46
1040
3.0
1070
    73
1070
     0
1070
    74
1070
     0
1070
    77
1070
     1
1070
    78
1070
     8
1070
   140
1040
5.0
1070
   141
1040
2.0
1070
   145
1040
1.0
1070
   171
1070
     4
1070
   172
1070
     1
1002
}
  0
DIMENSION
  5
6B9
330
22
100
AcDbEntity
  8
AM_5
100
AcDbDimension
  2
*D12
 10
0.0000000000643448
 20
38.85933780935613
 30
0.0
 11
75.00000000004826
 21
41.44933780935614
 31
0.0
 70
    32
 71
     5
 42
149.9999999999678
  3
Standard$0
100
AcDbAlignedDimension
 13
150.0000000000322
 23
59.2914584896664
 33
0.0
 14
0.0000000000643468
 24
69.99999999914422
 34
0.0
 50
180.0
100
AcDbRotatedDimension
1001
ACAD
1000
DSTYLE
1002
{
1070
    41
1040
3.0
1070
    42
1040
1.0
1070
    43
1040
5.0
1070
    44
1040
2.0
1070
    46
1040
3.0
1070
    73
1070
     0
1070
    74
1070
     0
1070
    77
1070
     1
1070
    78
1070
     8
1070
   140
1040
5.0
1070
   141
1040
2.0
1070
   145
1040
1.0
1070
   171
1070
     4
1070
   172
1070
     1
1002
}
  0
TEXT
  5
6DA
330
22
100
AcDbEntity
  8
0
100
AcDbText
 10
37.5034133033646
 20
-68.39371324099791
 30
0.0
 40
5.0
  1
%%uRS25M-SCLL06
100
AcDbText
  0
ACAD_PROXY_ENTITY
  5
82F
330
22
100
AcDbEntity
  8
AM_5
100
AcDbProxyEntity
 90
      498
 91
      570
 95
       25
 70
     0
 92
      668
310
9C020000270000000C00000016000000000000C00C00000013000000010000000C00000016000000000000C00C00000017000000FFFFFFFF3C000000060000000200000080C50227077746C080260D47634640400000000000000000B3F8355A3A0A43C081260D476346404000000000000000000C00000016000000000000
310
C00C00000010000000FFFFFFFF0C00000012000000FFFFFFFF0C00000017000000000000000C00000014000000010000000C00000013000000020000000C00000016000000000000C00C00000017000000FFFFFFFF3C0000000600000002000000B3F8355A3A0A43C081260D4763464040000000000000000080C502270777
310
41C082260D476346404000000000000000000C00000016000000000000C00C00000010000000FFFFFFFF0C00000012000000FFFFFFFF0C00000017000000000000000C00000014000000010000000C00000013000000030000000C00000016000000000000C00C00000017000000FFFFFFFF3C0000000600000002000000B3
310
F8355A3A0A43C0D8E44D364E114040000000000000000080C50227077741C082260D476346404000000000000000000C00000016000000000000C00C00000010000000FFFFFFFF0C00000012000000FFFFFFFF0C00000017000000000000000C00000014000000010000000C00000013000000040000000C00000016000000
310
000000C00C00000017000000FFFFFFFF3C000000060000000200000080C50227077741C082260D47634640400000000000000000B3F8355A3A0A43C02B68CC57787B404000000000000000000C00000016000000000000C00C00000010000000FFFFFFFF0C00000012000000FFFFFFFF0C00000017000000000000000C0000
310
0014000000010000000C00000013000000050000000C00000016000000000000C0
 93
     1473
310
5DC80F36F265BEE40C020898351D8D19010219FD35022281B66F19197D35022281B64F2A54051F8000000C800AA20314089C1DDD1B0080260D47634640409018FFFFFFFF20314089C1DDD070082260D4763464040A8FFFFFFFF1FFFFFFFF1018A044E0EEE8D80401306A3B1A3202045409C870F02B698D6DAD45C0043029B8
310
3F03D0502A0000000000003C2FC65F4D4088A86D9BC68333333333333094041D050000000000003C2FC000000000000F0BF40401015213500500
340
4F5
340
501
330
0
330
0
340
0
340
0
340
4E4
330
0
330
0
 94
        0
  0
ACAD_PROXY_ENTITY
  5
830
330
22
100
AcDbEntity
  8
AM_5
100
AcDbProxyEntity
 90
      498
 91
      570
 95
       25
 70
     0
 92
      668
310
9C020000270000000C00000016000000000000C00C00000013000000010000000C00000016000000000000C00C00000017000000FFFFFFFF3C000000060000000200000080C50227077746C080260D4763464040000000000000000075C50227077746C06AB380F42CB3394000000000000000000C00000016000000000000
310
C00C00000010000000FFFFFFFF0C00000012000000FFFFFFFF0C00000017000000000000000C00000014000000010000000C00000013000000020000000C00000016000000000000C00C00000017000000FFFFFFFF3C000000060000000200000075C50227077746C06AB380F42CB33940000000000000000070C502270777
310
46C0044D1A8EC68C364000000000000000000C00000016000000000000C00C00000010000000FFFFFFFF0C00000012000000FFFFFFFF0C00000017000000000000000C00000014000000010000000C00000013000000030000000C00000016000000000000C00C00000017000000FFFFFFFF3C00000006000000020000001E
310
07C2371CAC46C069B380F42CB33940000000000000000070C50227077746C0044D1A8EC68C364000000000000000000C00000016000000000000C00C00000010000000FFFFFFFF0C00000012000000FFFFFFFF0C00000017000000000000000C00000014000000010000000C00000013000000040000000C00000016000000
310
000000C00C00000017000000FFFFFFFF3C000000060000000200000070C50227077746C0044D1A8EC68C36400000000000000000CC834316F24146C06CB380F42CB3394000000000000000000C00000016000000000000C00C00000010000000FFFFFFFF0C00000012000000FFFFFFFF0C00000017000000000000000C0000
310
0014000000010000000C00000013000000050000000C00000016000000000000C0
 93
     1537
310
5DC70C50227077746C0032A7D231B9ECD502465F4D4088A06D13C866F4D4088A06D13C0000000000003C2FEA54051F8000000C800AA20314089C1DDD1B0080260D47634640409018FFFFFFFF1C314089C1DDD1B00044D1A8EC68C3640A8FFFFFFFF1FFFFFFFF1018A044E0EEE8D80401306A3B1A3202045409C870F02B698D
310
6DAD45C0380679D6A4FE4F902A0000000000003C2FD197D35022281B44F28333333333333094041D050000000000003C2FC000000000000F0BF40401015213500500
340
4F5
340
501
330
0
330
0
340
0
340
0
340
4E4
330
0
330
0
 94
        0
  0
TEXT
  5
831
330
22
100
AcDbEntity
  8
AM_6
100
AcDbText
 10
-45.79050329222588
 20
14.92242271408722
 30
0.0
 40
4.0
  1
0%%D
100
AcDbText
  0
TEXT
  5
832
330
22
100
AcDbEntity
  8
AM_6
100
AcDbText
 10
-33.20560068103237
 20
30.6574854634743
 30
0.0
 40
4.0
  1
0%%D
100
AcDbText
  0
ENDSEC
  0
SECTION
  2
OBJECTS
  0
DICTIONARY
  5
C
330
0
100
AcDbDictionary
281
     1
  3
ACAD_COLOR
350
1B
  3
ACAD_GROUP
350
D
  3
ACAD_LAYOUT
350
19
  3
ACAD_MATERIAL
350
1A
  3
ACAD_MLINESTYLE
350
16
  3
ACAD_PLOTSETTINGS
350
18
  3
ACAD_PLOTSTYLENAME
350
E
  3
ACAD_TABLESTYLE
350
1C
  3
AcAmCatalogState
350
3BB
  3
ACDBHEADERROUNDTRIPXREC
350
856
  3
AcDbVariableDictionary
350
40C
  3
ACDMSYSVARMGR
350
375
  3
ACGREF_MASTER
350
36F
  3
ACGREFACAD_MASTER
350
397
  3
AcmDictionary
350
3B9
  3
ACME_BOM_MANAGER_NAME
350
369
  3
ACME_COMMAND_HISTORY
350
366
  3
ACME_SCOPE_NAME
350
365
  3
ACMESTATEMGR
350
36E
  3
AcmeSysVarManager
350
367
  3
AcmSystemVariableManager
350
3C4
  3
AD_APPL
350
3A6
  3
ADSYSVARMGR
350
3A5
  3
AmdtNamedDwgMgr
350
392
  3
AMG
350
39B
  3
AMGSNAPSETTINGS
350
3FB
  3
AMI_MASTER
350
39A
  3
AUTOCAD_ASSEMBLIES_PROJECT
350
3AE
  3
Designer_Assemblies_SysVars
350
3A9
  3
GREFAM_MODULE
350
39F
  0
DICTIONARY
  5
4EF
330
2
100
AcDbDictionary
280
     1
281
     1
  3
ACAD_LAYERSTATES
360
4F0
  0
DICTIONARY
  5
1B
102
{ACAD_REACTORS
330
C
102
}
330
C
100
AcDbDictionary
281
     1
  0
DICTIONARY
  5
D
102
{ACAD_REACTORS
330
C
102
}
330
C
100
AcDbDictionary
281
     1
  0
DICTIONARY
  5
19
102
{ACAD_REACTORS
330
C
102
}
330
C
100
AcDbDictionary
281
     1
  3
Model
350
25
  3
レイアウト1
350
21
  0
DICTIONARY
  5
1A
102
{ACAD_REACTORS
330
C
102
}
330
C
100
AcDbDictionary
281
     1
  0
DICTIONARY
  5
16
102
{ACAD_REACTORS
330
C
102
}
330
C
100
AcDbDictionary
281
     1
  3
Standard
350
17
  0
DICTIONARY
  5
18
102
{ACAD_REACTORS
330
C
102
}
330
C
100
AcDbDictionary
281
     1
  0
ACDBDICTIONARYWDFLT
  5
E
102
{ACAD_REACTORS
330
C
102
}
330
C
100
AcDbDictionary
281
     1
  3
Normal
350
F
100
AcDbDictionaryWithDefault
340
F
  0
DICTIONARY
  5
1C
102
{ACAD_REACTORS
330
C
102
}
330
C
100
AcDbDictionary
281
     1
  3
Standard
350
1D
  0
ACAD_PROXY_OBJECT
  5
3BB
102
{ACAD_REACTORS
330
C
102
}
330
C
100
AcDbProxyObject
 90
      499
 91
      545
 95
       25
 70
     0
 93
      504
310
3FFFFFFFE00A0281402992E2E21BA3239AE483ECB654563CBCEAE4AABC7C0483ECB652E487CC6F6CBB846A445F7AE41BDC1B341A12E272A25C83ECB65400AA
  0
DICTIONARY
  5
856
102
{ACAD_REACTORS
330
C
102
}
330
C
100
AcDbDictionary
281
     1
  3
COLORDICT
350
857
  3
MATERIALDICT
350
858
  0
DICTIONARY
  5
40C
102
{ACAD_REACTORS
330
C
102
}
330
C
100
AcDbDictionary
281
     1
  3
CTABLESTYLE
350
40D
  3
DIMASSOC
350
854
  3
HIDETEXT
350
855
  0
ACAD_PROXY_OBJECT
  5
375
102
{ACAD_REACTORS
330
C
102
}
330
C
100
AcDbProxyObject
 90
      499
 91
      505
 95
       25
 70
     0
 93
      240
310
4C51A47A0000000000000000000000000000000000000000000000000000
330
376
330
377
330
378
330
379
330
37A
330
37B
330
37C
330
37D
330
37E
330
37F
330
380
330
381
330
382
330
383
330
384
330
385
330
386
330
387
330
388
330
389
330
38A
330
38B
330
38C
330
38D
330
38E
330
38F
 94
        0
  0
ACAD_PROXY_OBJECT
  5
36F
102
{ACAD_REACTORS
330
C
102
}
330
C
100
AcDbProxyObject
 90
      499
 91
      513
 95
       25
 70
     0
 93
       34
310
0400004280
  0
ACAD_PROXY_OBJECT
  5
397
102
{ACAD_REACTORS
330
C
102
}
330
C
100
AcDbProxyObject
 90
      499
 91
      522
 95
       25
 70
     0
 93
      114
310
04000041C080000000000000000000
  0
DICTIONARY
  5
3B9
102
{ACAD_REACTORS
330
C
102
}
330
C
100
AcDbDictionary
281
     1
  3
AcmBOMDATA
350
3BA
  3
AcmStdDictionary
350
3C6
  3
AMDTSECTSYM_ARROWCOLOR
350
3E6
  0
ACAD_PROXY_OBJECT
  5
369
102
{ACAD_REACTORS
330
C
102
}
330
C
100
AcDbProxyObject
 90
      499
 91
      507
 95
       25
 70
     0
 93
       50
310
00010040400000
330
0
330
0
330
36A
 94
        0
  0
ACAD_PROXY_OBJECT
  5
366
102
{ACAD_REACTORS
330
C
102
}
330
C
100
AcDbProxyObject
 90
      499
 91
      504
 95
       25
 70
     0
 93
     6498
310
47805055153415645404052D4D5347202D205050413A2020206465736B746F702E6172782046696C6556657273696F6E3A20392E322E302E34014390535115149154D15511109353D1102014213880B4815539113C05084E202D20554E444F014115539113E014115539113D01014B5354D1C80B481414104E88080819195C
310
DADD1BDC0B985C9E08119A5B1955995C9CDA5BDB8E880E4B8C8B8C0B8D0050E414D4454524553455444424D4F4440805084E202D20554E444F014213880B4815539113C0504554E444F80504554E444F805055055524745805055153415645404052D4D5347202D205050413A2020206465736B746F702E6172782046696C6
310
556657273696F6E3A20392E322E302E34014390535115149154D15511109353D1102014213880B4815539113C05084E202D20554E444F014115539113E014115539113E01419493D510551160142111493D411D153D3601411353D591601411693D3D3601415454D05591501014B5354D1C80B481414104E88080819195CDA
310
DD1BDC0B985C9E08119A5B1955995C9CDA5BDB8E880E4B8C8B8C0B8D005045A4F4F4D40405184D5347202D20436F6D6D616E642043414E43454C4C45442E01411312539150201461354D1C80B4810DBDB5B585B990810D05390D1531311510B8052D4D5347202D205050413A2020206465736B746F702E6172782046696C65
310
56657273696F6E3A20392E322E302E3401415454D05591501014B5354D1C80B481414104E88080819195CDADD1BDC0B985C9E08119A5B1955995C9CDA5BDB8E880E4B8C8B8C0B8D0050E414D4454524553455444424D4F4440805084E202D20554E444F014213880B4815539113C0504554E444F80504554E444F805054552
310
415345805095041535445434C4950805055153415645404052D4D5347202D205050413A2020206465736B746F702E6172782046696C6556657273696F6E3A20392E322E302E34014390535115149154D15511109353D1102014213880B4815539113C05084E202D20554E444F014115539113E014115539113E01415415549
310
1D1501014B5354D1C80B481414104E88080819195CDADD1BDC0B985C9E08119A5B1955995C9CDA5BDB8E880E4B8C8B8C0B8D00
  0
ACAD_PROXY_OBJECT
  5
365
102
{ACAD_REACTORS
330
C
102
}
330
C
100
AcDbProxyObject
 90
      499
 91
      503
 95
       25
 70
     0
 93
      546
310
090000464080000000000000000012F4CE0000000000000000000000000000000000000000000000000000000000000000000000000000000000000000000000AAA406AA80
360
368
360
36A
360
370
360
371
360
372
360
373
360
376
360
377
360
378
360
379
360
37A
360
37B
360
37C
360
37D
360
37E
360
37F
360
380
360
381
360
382
360
383
360
384
360
385
360
386
360
387
360
388
360
389
360
38A
360
38B
360
38C
360
38D
360
38E
360
38F
360
3A1
360
3A2
360
3A3
360
3A4
360
3AA
360
3AB
360
3AC
360
3AD
360
3B2
360
3B3
360
3B4
360
3B5
360
3B6
360
3B7
360
3C5
 94
        0
  0
ACAD_PROXY_OBJECT
  5
36E
102
{ACAD_REACTORS
330
C
102
}
330
C
100
AcDbProxyObject
 90
      499
 91
      512
 95
       25
 70
     0
 93
       50
310
09000042641280
  0
ACAD_PROXY_OBJECT
  5
367
102
{ACAD_REACTORS
330
C
102
}
330
C
100
AcDbProxyObject
 90
      499
 91
      505
 95
       25
 70
     0
 93
       32
310
90140A00
330
368
 94
        0
  0
ACAD_PROXY_OBJECT
  5
3C4
102
{ACAD_REACTORS
330
C
102
}
330
C
100
AcDbProxyObject
 90
      499
 91
      505
 95
       25
 70
     0
 93
       32
310
90140A00
330
3C5
 94
        0
  0
ACAD_PROXY_OBJECT
  5
3A6
102
{ACAD_REACTORS
330
C
102
}
330
C
100
AcDbProxyObject
 90
      499
 91
      533
 95
       25
 70
     0
 93
       42
310
000900004040
330
3A1
 94
        0
  0
ACAD_PROXY_OBJECT
  5
3A5
102
{ACAD_REACTORS
330
C
102
}
330
C
100
AcDbProxyObject
 90
      499
 91
      505
 95
       25
 70
     0
 93
        8
310
AA
  0
ACAD_PROXY_OBJECT
  5
392
102
{ACAD_REACTORS
330
C
102
}
330
C
100
AcDbProxyObject
 90
      499
 91
      519
 95
       25
 70
     0
 93
       42
310
000100005E80
330
370
 94
        0
  0
DICTIONARY
  5
39B
102
{ACAD_REACTORS
330
C
102
}
330
C
100
AcDbDictionary
281
     1
  3
AcMgSettings
350
39C
  3
AMGLAYCFG
350
3C8
  0
DICTIONARY
  5
3FB
102
{ACAD_REACTORS
330
C
102
}
330
C
100
AcDbDictionary
281
     1
  3
DIMENSION
350
400
  3
FEA
350
3FF
  3
HATCH (1)
350
3FC
  3
HATCH (2)
350
3FD
  3
SIMPLE WELD
350
401
  3
SYMBOLS
350
3FE
  0
ACAD_PROXY_OBJECT
  5
39A
102
{ACAD_REACTORS
330
C
102
}
330
C
100
AcDbProxyObject
 90
      499
 91
      525
 95
       25
 70
     0
 93
       34
310
0500004280
  0
ACAD_PROXY_OBJECT
  5
3AE
102
{ACAD_REACTORS
330
C
102
}
330
C
100
AcDbProxyObject
 90
      499
 91
      537
 95
       25
 70
     0
 93
       98
310
0900004E400000000000000000
330
3B5
330
0
330
3B6
330
0
330
0
330
0
330
0
330
0
 94
        0
  0
ACAD_PROXY_OBJECT
  5
3A9
102
{ACAD_REACTORS
330
C
102
}
330
C
100
AcDbProxyObject
 90
      499
 91
      505
 95
       25
 70
     0
 93
       56
310
90441600000000
330
3AA
330
3AB
330
3AC
330
3AD
 94
        0
  0
ACAD_PROXY_OBJECT
  5
39F
102
{ACAD_REACTORS
330
C
102
}
330
C
100
AcDbProxyObject
 90
      499
 91
      527
 95
       25
 70
     0
 93
        8
310
05
  0
DICTIONARY
  5
4F0
102
{ACAD_REACTORS
330
4EF
102
}
330
4EF
100
AcDbDictionary
281
     1
  0
LAYOUT
  5
25
102
{ACAD_REACTORS
330
19
102
}
330
19
100
AcDbPlotSettings
  1

  2
Canon LBP-1420
  4
A4
  6

 40
5.873749732971191
 41
5.873747825622559
 42
5.873748779296875
 43
5.873748779296875
 44
209.9733276367188
 45
296.9259948730469
 46
0.0
 47
0.0
 48
0.0
 49
0.0
140
400.0
141
273.0
142
1.0
143
1.402630290955233
 70
 11952
 72
     1
 73
     1
 74
     4
  7
sei_cad.ctb
 75
     0
147
0.7129462456703186
148
0.0
149
0.0
100
AcDbLayout
  1
Model
 70
     1
 71
     0
 10
0.0
 20
0.0
 11
12.0
 21
9.0
 12
0.0
 22
0.0
 32
0.0
 14
0.0
 24
0.0
 34
0.0
 15
0.0
 25
0.0
 35
0.0
146
0.0
 13
0.0
 23
0.0
 33
0.0
 16
1.0
 26
0.0
 36
0.0
 17
0.0
 27
1.0
 37
0.0
 76
     0
330
22
1001
ACAD_PSEXT
1000
Canon LBP-1420
1000
Canon LASER SHOT LBP-1420
1000
10.254.89.243:lp
1000

1070
     0
  0
LAYOUT
  5
21
102
{ACAD_REACTORS
330
19
102
}
330
19
100
AcDbPlotSettings
  1

  2
Canon LBP-1420
  4

  6

 40
0.0
 41
0.0
 42
0.0
 43
0.0
 44
0.0
 45
0.0
 46
0.0
 47
0.0
 48
0.0
 49
0.0
140
0.0
141
0.0
142
1.0
143
1.0
 70
   688
 72
     0
 73
     0
 74
     5
  7
sei_cad.ctb
 75
    16
147
1.0
148
0.0
149
0.0
100
AcDbLayout
  1
レイアウト1
 70
     1
 71
     1
 10
0.0
 20
0.0
 11
12.0
 21
9.0
 12
0.0
 22
0.0
 32
0.0
 14
1.000000000000000E+20
 24
1.000000000000000E+20
 34
1.000000000000000E+20
 15
-1.000000000000000E+20
 25
-1.000000000000000E+20
 35
-1.000000000000000E+20
146
0.0
 13
0.0
 23
0.0
 33
0.0
 16
1.0
 26
0.0
 36
0.0
 17
0.0
 27
1.0
 37
0.0
 76
     0
330
1E
  0
MLINESTYLE
  5
17
102
{ACAD_REACTORS
330
16
102
}
330
16
100
AcDbMlineStyle
  2
STANDARD
 70
     0
  3

 62
   256
 51
90.0
 52
90.0
 71
     2
 49
0.5
 62
   256
  6
BYLAYER
 49
-0.5
 62
   256
  6
BYLAYER
  0
ACDBPLACEHOLDER
  5
F
102
{ACAD_REACTORS
330
E
102
}
330
E
  0
TABLESTYLE
  5
1D
102
{ACAD_REACTORS
330
1C
102
}
330
1C
100
AcDbTableStyle
  3
Standard
 70
     0
 71
     0
 40
0.06
 41
0.06
280
     0
281
     0
  7
STANDARD
140
0.18
170
     2
 62
     0
 63
     7
283
     0
274
    -2
284
     1
 64
     0
275
    -2
285
     1
 65
     0
276
    -2
286
     1
 66
     0
277
    -2
287
     1
 67
     0
278
    -2
288
     1
 68
     0
279
    -2
289
     1
 69
     0
  7
STANDARD
140
0.25
170
     5
 62
     0
 63
     7
283
     0
274
    -2
284
     1
 64
     0
275
    -2
285
     1
 65
     0
276
    -2
286
     1
 66
     0
277
    -2
287
     1
 67
     0
278
    -2
288
     1
 68
     0
279
    -2
289
     1
 69
     0
  7
STANDARD
140
0.18
170
     5
 62
     0
 63
     7
283
     0
274
    -2
284
     1
 64
     0
275
    -2
285
     1
 65
     0
276
    -2
286
     1
 66
     0
277
    -2
287
     1
 67
     0
278
    -2
288
     1
 68
     0
279
    -2
289
     1
 69
     0
  0
XRECORD
  5
857
102
{ACAD_REACTORS
330
856
102
}
330
856
100
AcDbXrecord
280
     1
340
1B
  0
XRECORD
  5
858
102
{ACAD_REACTORS
330
856
102
}
330
856
100
AcDbXrecord
280
     1
340
1A
  0
DICTIONARYVAR
  5
40D
102
{ACAD_REACTORS
330
40C
102
}
330
40C
100
DictionaryVariables
280
     0
  1
STANDARD
  0
DICTIONARYVAR
  5
854
102
{ACAD_REACTORS
330
40C
102
}
330
40C
100
DictionaryVariables
280
     0
  1
1
  0
DICTIONARYVAR
  5
855
102
{ACAD_REACTORS
330
40C
102
}
330
40C
100
DictionaryVariables
280
     0
  1
0
  0
ACAD_PROXY_OBJECT
  5
3BA
102
{ACAD_REACTORS
330
3B9
102
}
330
3B9
100
AcDbProxyObject
 90
      499
 91
      544
 95
       25
 70
     0
 93
       76
310
90100057356C1D774120
  0
DICTIONARY
  5
3C6
102
{ACAD_REACTORS
330
3B9
102
}
330
3B9
100
AcDbDictionary
281
     1
  3
ANSI
350
3C7
  3
JIS
350
4F5
  0
XRECORD
  5
3E6
102
{ACAD_REACTORS
330
3B9
102
}
330
3B9
100
AcDbXrecord
280
     1
 90
-1023410169
  0
ACAD_PROXY_OBJECT
  5
368
330
365
100
AcDbProxyObject
 90
      499
 91
      506
 95
       25
 70
     0
 93
      156
310
000101439050D35154D6535093D314D256915080
330
365
 94
        0
  0
ACAD_PROXY_OBJECT
  5
36A
330
365
100
AcDbProxyObject
 90
      499
 91
      508
 95
       25
 70
     0
 93
      120
310
000101422565255A6557080C402B00
330
365
330
0
330
0
 94
        0
  0
ACAD_PROXY_OBJECT
  5
370
330
365
100
AcDbProxyObject
 90
      499
 91
      514
 95
       25
 70
     0
 93
      366
310
0001014124FEA55D00507392E322E302E32014124FEA55D00507392E322E302E3240501000041905394D24CCC658
330
365
330
371
330
375
 94
        0
  0
ACAD_PROXY_OBJECT
  5
371
330
365
100
AcDbProxyObject
 90
      499
 91
      515
 95
       25
 70
     0
 93
       48
310
000190140A00
330
365
330
372
 94
        0
  0
ACAD_PROXY_OBJECT
  5
372
330
365
100
AcDbProxyObject
 90
      499
 91
      516
 95
       25
 70
     0
 93
       48
310
0001AA000000
330
365
330
21
330
373
330
0
 94
        0
  0
ACAD_PROXY_OBJECT
  5
373
330
365
100
AcDbProxyObject
 90
      499
 91
      517
 95
       25
 70
     0
 93
       28
310
0001AAA0
330
365
 94
        0
  0
ACAD_PROXY_OBJECT
  5
376
330
365
100
AcDbProxyObject
 90
      499
 91
      506
 95
       25
 70
     0
 93
      108
310
000101421053521310D05310D010
330
365
 94
        0
  0
ACAD_PROXY_OBJECT
  5
377
330
365
100
AcDbProxyObject
 90
      499
 91
      506
 95
       25
 70
     0
 93
      124
310
00010142905354915554D15112535010
330
365
 94
        0
  0
ACAD_PROXY_OBJECT
  5
378
330
365
100
AcDbProxyObject
 90
      499
 91
      506
 95
       25
 70
     0
 93
      132
310
00010143105354D150D51253D391125360
330
365
 94
        0
  0
ACAD_PROXY_OBJECT
  5
379
330
365
100
AcDbProxyObject
 90
      499
 91
      506
 95
       25
 70
     0
 93
      124
310
00010142905355941093D49111549010
330
365
 94
        0
  0
ACAD_PROXY_OBJECT
  5
37A
330
365
100
AcDbProxyObject
 90
      499
 91
      506
 95
       25
 70
     0
 93
      116
310
0001014290535115D1D0D3D313D4A0
330
365
 94
        0
  0
ACAD_PROXY_OBJECT
  5
37B
330
365
100
AcDbProxyObject
 90
      499
 91
      506
 95
       25
 70
     0
 93
      148
310
00010143505355925155D49151949154D21010
330
365
 94
        0
  0
ACAD_PROXY_OBJECT
  5
37C
330
365
100
AcDbProxyObject
 90
      499
 91
      506
 95
       25
 70
     0
 93
      172
310
00010144105350539393D51154149154D15495915010
330
365
 94
        0
  0
ACAD_PROXY_OBJECT
  5
37D
330
365
100
AcDbProxyObject
 90
      499
 91
      506
 95
       25
 70
     0
 93
      172
310
00010144105350555513D11253505494905391D15010
330
365
 94
        0
  0
ACAD_PROXY_OBJECT
  5
37E
330
365
100
AcDbProxyObject
 90
      499
 91
      506
 95
       25
 70
     0
 93
      124
310
00010142D05351561514915191125360
330
365
 94
        0
  0
ACAD_PROXY_OBJECT
  5
37F
330
365
100
AcDbProxyObject
 90
      499
 91
      506
 95
       25
 70
     0
 93
      132
310
00010142D05355105410539393D5115010
330
365
 94
        0
  0
ACAD_PROXY_OBJECT
  5
380
330
365
100
AcDbProxyObject
 90
      499
 91
      506
 95
       25
 70
     0
 93
      108
310
00010142105350555513D0D31010
330
365
 94
        0
  0
ACAD_PROXY_OBJECT
  5
381
330
365
100
AcDbProxyObject
 90
      499
 91
      506
 95
       25
 70
     0
 93
      108
310
00010142105350D3119150551050
330
365
 94
        0
  0
ACAD_PROXY_OBJECT
  5
382
330
365
100
AcDbProxyObject
 90
      499
 91
      506
 95
       25
 70
     0
 93
      108
310
00010142105350D315925155D3F0
330
365
 94
        0
  0
ACAD_PROXY_OBJECT
  5
383
330
365
100
AcDbProxyObject
 90
      499
 91
      506
 95
       25
 70
     0
 93
      148
310
0001014350535212511156915493D112535010
330
365
 94
        0
  0
ACAD_PROXY_OBJECT
  5
384
330
365
100
AcDbProxyObject
 90
      499
 91
      506
 95
       25
 70
     0
 93
      124
310
00010142905352105510D21254D3D010
330
365
 94
        0
  0
ACAD_PROXY_OBJECT
  5
385
330
365
100
AcDbProxyObject
 90
      499
 91
      506
 95
       25
 70
     0
 93
      148
310
00010143905354D25391D31152105513105660
330
365
 94
        0
  0
ACAD_PROXY_OBJECT
  5
386
330
365
100
AcDbProxyObject
 90
      499
 91
      506
 95
       25
 70
     0
 93
      124
310
00010142D0535115D1D193111254D420
330
365
 94
        0
  0
ACAD_PROXY_OBJECT
  5
387
330
365
100
AcDbProxyObject
 90
      499
 91
      506
 95
       25
 70
     0
 93
      100
310
00010142105350555513D213A0
330
365
 94
        0
  0
ACAD_PROXY_OBJECT
  5
388
330
365
100
AcDbProxyObject
 90
      499
 91
      506
 95
       25
 70
     0
 93
      116
310
000101425053521390D3D553951010
330
365
 94
        0
  0
ACAD_PROXY_OBJECT
  5
389
330
365
100
AcDbProxyObject
 90
      499
 91
      506
 95
       25
 70
     0
 93
      108
310
0001014210535213941493D29010
330
365
 94
        0
  0
ACAD_PROXY_OBJECT
  5
38A
330
365
100
AcDbProxyObject
 90
      499
 91
      506
 95
       25
 70
     0
 93
      108
310
0001014210535213951654115070
330
365
 94
        0
  0
ACAD_PROXY_OBJECT
  5
38B
330
365
100
AcDbProxyObject
 90
      499
 91
      506
 95
       25
 70
     0
 93
      108
310
000101421053521395925155D0F0
330
365
 94
        0
  0
ACAD_PROXY_OBJECT
  5
38C
330
365
100
AcDbProxyObject
 90
      499
 91
      506
 95
       25
 70
     0
 93
      140
310
00010143505354D150D51253D390D3D41660
330
365
 94
        0
  0
ACAD_PROXY_OBJECT
  5
38D
330
365
100
AcDbProxyObject
 90
      499
 91
      506
 95
       25
 70
     0
 93
      108
310
00010142105350D3141493D29030
330
365
 94
        0
  0
ACAD_PROXY_OBJECT
  5
38E
330
365
100
AcDbProxyObject
 90
      499
 91
      518
 95
       25
 70
     0
 93
      212
310
00010143905350555513D2105510D21493D500000000000002E400
330
365
 94
        0
  0
ACAD_PROXY_OBJECT
  5
38F
330
365
100
AcDbProxyObject
 90
      499
 91
      506
 95
       25
 70
     0
 93
      156
310
00010143905350555513D2105510D21111551010
330
365
 94
        0
  0
ACAD_PROXY_OBJECT
  5
3A1
330
365
100
AcDbProxyObject
 90
      499
 91
      529
 95
       25
 70
     0
 93
      698
310
0001000000009AA6A9AA4051E546875204175672032342030303A34373A323620323030362028555443290141CE4B8C8B8C0B8C80518547565204F63742031322031313A31333A313220323031300141CE4B8C8B8C0B8C80
330
365
330
3A2
330
3A3
330
3A5
330
0
 94
        0
  0
ACAD_PROXY_OBJECT
  5
3A2
330
365
100
AcDbProxyObject
 90
      499
 91
      530
 95
       25
 70
     0
 93
       70
310
0001AAA80820000000
330
365
330
3A2
330
3A2
 94
        0
  0
ACAD_PROXY_OBJECT
  5
3A3
330
365
100
AcDbProxyObject
 90
      499
 91
      531
 95
       25
 70
     0
 93
       48
310
000100000000
330
365
330
0
330
3A4
330
0
330
0
 94
        0
  0
ACAD_PROXY_OBJECT
  5
3A4
330
365
100
AcDbProxyObject
 90
      499
 91
      532
 95
       25
 70
     0
 93
       40
310
000100AAAA
330
365
330
0
 94
        0
  0
ACAD_PROXY_OBJECT
  5
3AA
330
365
100
AcDbProxyObject
 90
      499
 91
      536
 95
       25
 70
     0
 93
      180
310
00010143105050D3D35411119390535140504434F4D500
330
365
 94
        0
  0
ACAD_PROXY_OBJECT
  5
3AB
330
365
100
AcDbProxyObject
 90
      499
 91
      536
 95
       25
 70
     0
 93
      212
310
0001014390505193D311115491119390535140506466F6C6465720
330
365
 94
        0
  0
ACAD_PROXY_OBJECT
  5
3AC
330
365
100
AcDbProxyObject
 90
      499
 91
      536
 95
       25
 70
     0
 93
      180
310
00010143105050539393D1119390535140504284156290
330
365
 94
        0
  0
ACAD_PROXY_OBJECT
  5
3AD
330
365
100
AcDbProxyObject
 90
      499
 91
      536
 95
       25
 70
     0
 93
      436
310
00010143905050D3D35415925155D31254D50052295BD96CA0A90B396CA0A894591A496CA0A8DB691A496CA0A89BA96CA0A95E28F95310
330
365
 94
        0
  0
ACAD_PROXY_OBJECT
  5
3B2
330
365
100
AcDbProxyObject
 90
      499
 91
      538
 95
       25
 70
     0
 93
       32
310
00010000
330
365
340
3AF
330
3B4
330
3AF
 94
        0
  0
ACAD_PROXY_OBJECT
  5
3B3
330
365
100
AcDbProxyObject
 90
      499
 91
      539
 95
       25
 70
     0
 93
       18
310
000180
330
365
 94
        0
  0
ACAD_PROXY_OBJECT
  5
3B4
330
365
100
AcDbProxyObject
 90
      499
 91
      540
 95
       25
 70
     0
 93
      186
310
000101431494CC8D534B54D0D3130C0D9050055401550000
330
365
330
3B2
330
3B3
 94
        0
  0
ACAD_PROXY_OBJECT
  5
3B5
330
365
100
AcDbProxyObject
 90
      499
 91
      541
 95
       25
 70
     0
 93
      178
310
000100AAAAAA868ED1092F6029D22BCFCB36D22AA991C0
330
365
330
3B4
 94
        0
  0
ACAD_PROXY_OBJECT
  5
3B6
330
365
100
AcDbProxyObject
 90
      499
 91
      542
 95
       25
 70
     0
 93
      108
310
000190140A000000000000AAAAA0
330
365
330
3B7
330
3B7
330
3B7
330
3B7
330
3B7
330
0
 94
        0
  0
ACAD_PROXY_OBJECT
  5
3B7
330
365
100
AcDbProxyObject
 90
      499
 91
      543
 95
       25
 70
     0
 93
       51
310
00010000AAAA80
330
365
330
3B6
330
3B4
 94
        0
  0
ACAD_PROXY_OBJECT
  5
3C5
330
365
100
AcDbProxyObject
 90
      499
 91
      536
 95
       25
 70
     0
 93
      148
310
00010142105350D55494D51100504414E53490
330
365
 94
        0
  0
DICTIONARY
  5
39C
102
{ACAD_REACTORS
330
39B
102
}
330
39B
100
AcDbDictionary
281
     1
  3
DWGSETTINGS
350
39D
  3
Shaft
350
49B
  3
TRANSSETTINGS
350
39E
  0
ACAD_PROXY_OBJECT
  5
3C8
102
{ACAD_REACTORS
330
39B
102
}
330
39B
100
AcDbProxyObject
 90
      499
 91
      551
 95
       25
 70
     0
 93
    17920
310
41503491013041105357CC201C00030C011E441013141105357CC603800030C011E441013241105357CCA01400030C011E441013341105357CCE01800030C010F9013441105357CD200C00030C010F9013541105357CD600C00030C010F9013641105357CDA00800030C011E9013741105357CDE01000030C010F901384110
310
5357CE200400030C010F9013941105357CE63F400030C0241102324141505357CC4C201C00030C011E902344141505357CC4C600C00030C010F902495041505357CC4CA01C00030C011E40902304E41505357CC13A01C00030C011E902314E41505357CC53A03800030C011E902324E41505357CC93A01400030C011E90233
310
4E41505357CCD3A01800030C010F902344E41505357CD13A00C00030C010F902354E41505357CD53A00C00030C010F902364E41505357CD93A00800030C011E902374E41505357CDD3A01000030C010F902384E41505357CE13A00400030C010F902394E41505357CE53A3F400030C024110332414E41905357CC4C13A01C0
310
0030C011E90334414E41905357CC4C53A00C00030C010F90349504E41905357CC4C93A01C00030C011E409044B4C494E41505357D0D3200400030C010F42504494E464F42105357D410549151A01000030C010F42D055241484D3541905357D093D4A01C00030C011E425045649455742105357D5925155D4E00400030C010
310
F42D06424548494E4441905357D25395A3F400030C0243505545241494C41505357D514A00C00030C010F4250348494441905357D21251201C00030C010F4250356495341905357D59254E01C00030C011E4250650415244494D42505357D41054911253600C00030C010F4250652454644494D42505357D49151911253601
310
000030C010F425534110921395901398000000C0003FFFFFFFE415092139594D06424548494E448000000C0003FFFFFFFE411093D48C9055241484D358010000C30043E411093D48CD055241484D358020000C30047A411093D48D5055241484D358000000C0003FFFFFFFE4110D0530C901348000000C0003FFFFFFFE4110
310
D0530CD01348020000C30047A4110D0530D501348070000C30047A4110D0530DD013481E0000C3004F24110D15393901378000000C0003FFFFFFFE4110D15395D01378000000C0003FFFFFFFE4110D312539044B4C494E8000000C0003FFFFFFFE4110D3D38C501308000000C0003FFFFFFFD034110D3D38C901318000000C
310
0003FFFFFFFD034110D3D38CD01328000000C0003FFFFFFFD034110D3D38D101328000000C0003FFFFFFFD034111115510501348000000C0003FFFFFFFE4111125051D01358000000C0003FFFFFFFE4111125312501358000000C0003FFFFFFFE411112535410650415244494D8000000C0003FFFFFFFE4111125354906524
310
54644494D8000000C0003FFFFFFFE4111915353901388000000C0003FFFFFFFE415191535413901388030000C3003FFFFFFFE4151915354D410234418000000C0003FFFFFFFE4151915354D510234418030000C30043E415191535593901328000000C0003FFFFFFFE415191535595101328030000C30043E4112105510D01
310
388000000C0003FFFFFFFD014112125113901338000000C0003FFFFFFFD034112125115D01338000000C0003FFFFFFFD034112131253901348000000C0003FFFFFFFD01411213D0D3901378000000C0003FFFFFFFE411213D0D5D01378000000C0003FFFFFFFE4112539193D04494E464F8000000C0003FFFFFFFE41131150
310
51101358000000C0003FFFFFFFE419397D0921395902394E8000000C0003FFFFFFFE419397D0D3D38C502304E8000000C0003FFFFFFFD03419397D0D3D38C902314E8000000C0003FFFFFFFD03419397D0D3D38CD02324E8000000C0003FFFFFFFD03419397D0D3D38D102324E8000000C0003FFFFFFFD03419397D0D15393
310
902374E8000000C0003FFFFFFFE419397D0D15395D02374E8000000C0003FFFFFFFE419397D1125312502354E8000000C0003FFFFFFFE419397D2105510D02384E8000000C0003FFFFFFFD01419397D2125113902334E8000000C0003FFFFFFFD03419397D2125115D02334E8000000C0003FFFFFFFD03419397D311505110
310
2354E8000000C0003FFFFFFFE419397D391D25410349504E8000000C0003FFFFFFFE419397D412105390334414E8000000C0003FFFFFFFE419397D510D3D3902304E8000000C0003FFFFFFFD03419397D5121312502344E8000000C0003FFFFFFFD01419397D5131153902304E8000000C0003FFFFFFFD03419397D5941312
310
50332414E8000000C0003FFFFFFFE411391D25410249508000000C0003FFFFFFFE411410530C9055241484D358010000C30043E411410530CD055241484D358020000C30047A411410530D5055241484D358000000C0003FFFFFFFE411412105390234418000000C0003FFFFFFFE411413D4D3901358000000C0003FFFFFFF
310
E411490D1D3901378000000C0003FFFFFFFE411490D1D5D01378000000C0003FFFFFFFE4114D09492D01348070000C300479014114D150D5101348000000C0003FFFFFFFD014114D6508CD01358020000C30047A411354D653501358020000C30047A411510D3D3901308000000C0003FFFFFFFD0341151213125013480000
310
00C0003FFFFFFFD01411512550C9055241484D358010000C30043E411512550CD055241484D358020000C30047A411512550D5055241484D358000000C0003FFFFFFFE4115131153901308000000C0003FFFFFFFD03415514905253105545241494C8000000C0003FFFFFFFE4115149312501348000000C0003FFFFFFFD014
310
11516150C501368030000C30043E411516150C901368030000C30043E411516150CD01368000000C0003FFFFFFFE411516150D501368070000C30047A411516150DD013681E0000C3004F24115925155D04564945578000000C0003FFFFFFFE41159151121034849448000000C0003FFFFFFFD024115915115903564953800
310
0000C0003FFFFFFFD02411594131250232418000000C0003FFFFFFFE4116925690501348000000C0003FFFFFFFD01AAA3F400030C01013F90A4050F4091E40D0F4110F4151E4190F41D1E4391E4793C7F6
340
15
340
15
340
15
340
390
340
15
340
15
340
15
340
27
340
15
340
15
340
27
340
391
340
15
340
15
340
15
340
15
340
390
340
15
340
15
340
15
340
27
340
15
340
15
340
27
340
391
340
15
340
3CC
340
15
340
15
340
15
340
15
340
15
340
390
340
15
340
15
340
15
340
14
340
14
340
14
340
14
340
14
340
14
340
14
340
14
340
14
340
3D2
340
14
340
14
340
14
340
14
340
14
340
14
340
14
340
14
340
14
340
14
340
14
340
14
340
14
340
15
340
14
340
14
340
14
340
14
340
3D3
340
14
340
14
340
3D2
340
14
340
14
340
14
340
14
340
14
340
14
340
14
340
14
340
3D2
340
14
340
14
340
14
340
3D3
340
14
340
14
340
14
340
14
340
14
340
3D3
340
14
340
391
340
14
340
14
340
14
340
14
340
14
340
14
340
3D2
340
14
340
14
340
14
340
14
340
14
340
14
340
3D3
340
14
340
14
340
14
340
14
340
14
340
14
340
14
340
14
340
14
340
14
340
14
340
14
340
14
340
14
340
391
340
3D4
 94
        0
  0
ACAD_PROXY_OBJECT
  5
400
102
{ACAD_REACTORS
330
3FB
102
}
330
3FB
100
AcDbProxyObject
 90
      499
 91
      568
 95
       25
 70
     0
 93
      253
310
43D1444494D454E53494F4E2C414D44545F2A5F44494D404A9012A404A9012A8
  0
ACAD_PROXY_OBJECT
  5
3FF
102
{ACAD_REACTORS
330
3FB
102
}
330
3FB
100
AcDbProxyObject
 90
      499
 91
      568
 95
       25
 70
     0
 93
      181
310
43D012A42D05357D191504B505357CA9012A404A9012A8
  0
ACAD_PROXY_OBJECT
  5
3FC
102
{ACAD_REACTORS
330
3FB
102
}
330
3FB
100
AcDbProxyObject
 90
      499
 91
      568
 95
       25
 70
     0
 93
      133
310
43D054841544348404A9012A404A9012A8
  0
ACAD_PROXY_OBJECT
  5
3FD
102
{ACAD_REACTORS
330
3FB
102
}
330
3FB
100
AcDbProxyObject
 90
      499
 91
      568
 95
       25
 70
     0
 93
      549
310
43D044C494E4549CE0B0E138B0A8B4E0B0A8B4E138B105357CE0B105357CE138B0A8B505357CE0B0A8B505357CE139012A404A910494E534552542C5354445041525432448
  0
ACAD_PROXY_OBJECT
  5
401
102
{ACAD_REACTORS
330
3FB
102
}
330
3FB
100
AcDbProxyObject
 90
      499
 91
      568
 95
       25
 70
     0
 93
      181
310
43D0341524341105357CD5012A404C906494E534552540
  0
ACAD_PROXY_OBJECT
  5
3FE
102
{ACAD_REACTORS
330
3FB
102
}
330
3FB
100
AcDbProxyObject
 90
      499
 91
      568
 95
       25
 70
     0
 93
     1053
310
43D7841434D46434652414D452C41434D444154554D5441524745542C41434D444154554D49442C41434D57454C4453594D2C41434D5355524653594D2C41434D4645415449442C41434D504152545245462C41434D42414C4C4F4F4E2C414D44544544474553594D2C414D47534352455743414C435441424C45404A9012A
310
404A9012A8
  0
ACAD_PROXY_OBJECT
  5
3C7
102
{ACAD_REACTORS
330
3C6
102
}
330
3C6
100
AcDbProxyObject
 90
      499
 91
      550
 95
       25
 70
     0
 93
     2395
310
5DCB81E85EB51B8BE3F8030000C30041105394D2501640600800030C0200800030C00B81E85EB51B8BE3F48821E8720B1B6A9BAB9332A32BC3A29BA3220480A1282C6DA8C868CA6E8C88120286A0B1B6ABB2B63234B733A9BA3220480A1082C6DA92C8A6E8C88120285A0B1B6A230BA3AB6A9BA3220480A1282C6DA849E9AA
310
6E8C8812028820B6B23A2232BA30B4B629BCB6A9BA3220480A2282DAC8E8A6CAC6E8D2DEDCA6F2DAA6E8C88120288A0B6B23A21B2B73A32B92634B732A9BA3220480A2282DAC8E8A8D0E4CAC2C898D2DCCAA6E8C88120285A0B6B23A2737BA32A9BA3220480A1682C682DACE98C2F2A6E8C88120285A0B1A0B6B3A234B6A9B
310
A3220480A2282C682DACE90DED8CA86D0C2E4E8A6E8C88120286A0B1A0B6B3AA34BA3632A9BA3220480A02812020
340
3D5
360
3D6
360
3D7
360
3D8
360
3D9
360
3DA
360
3DB
360
3DC
360
3DD
360
3DE
360
3DF
360
3E0
360
3EC
360
3ED
360
3F8
360
3F9
340
0
340
0
 94
        0
  0
ACAD_PROXY_OBJECT
  5
4F5
102
{ACAD_REACTORS
330
3C6
102
}
330
3C6
100
AcDbProxyObject
 90
      499
 91
      571
 95
       25
 70
     0
 93
     2379
310
5DC33333333333309408000000C00040D29254D01640600800030C0200800030C003333333333330940C8121E8720B1B6A9BAB9332A32BC3A29BA3220480A1282C6DA8C868CA6E8C88120286A0B1B6ABB2B63234B733A9BA3220480A1082C6DA92C8A6E8C88120285A0B1B6A230BA3AB6A9BA3220480A1282C6DA849E9AA6E
310
8C88120286A0B1A0B6B3AA34BA3632A9BA3220480A2082DAC8E888CAE8C2D2D8A6F2DAA6E8C88120288A0B6B23A29B2B1BA34B7B729BCB6A9BA3220480A2282DAC8E886CADCE8CAE498D2DCCAA6E8C88120288A0B6B23A2A343932B0B22634B732A9BA3220480A1682DAC8E89CDEE8CAA6E8C88120285A0B1A0B6B3A630BCA
310
9BA3220480A1682C682DACE88D2DAA6E8C88120288A0B1A0B6B3A437B632A1B430B93A29BA3220480C812020
340
4E4
360
4F6
360
4F7
360
4F8
360
4F9
360
4FA
360
4FB
360
4FC
360
4FD
360
4FE
360
4FF
360
500
360
501
360
507
360
508
360
509
340
0
340
0
 94
        0
  0
ACAD_PROXY_OBJECT
  5
39D
102
{ACAD_REACTORS
330
39C
102
}
330
39C
100
AcDbProxyObject
 90
      499
 91
      526
 95
       25
 70
     0
 93
     2420
310
4050B44574753455454494E4753A1286829C8E82A4A482B282A0472608321A2A720A723A0A849A1ABE1C983E18999AA0C868A9C889282940000000000001C07E83A1A2A72224A0A9A0A8598171ABE1897183E18971AA0E868A9C8892A6A8940000000000001807E8321A2A72622A7250000000000000701FA0C868A9C9E8C8
310
C940000000000001C07E84A1A624A720A92920ACA0A87181718991ABE1817191ABE18171AA108698929C8AA8B2A082A0AB098929C8A84A22BA3AAA9A1A0A622A50A0E9882A6A89E849482A02608426A0A5A2AB24A2ABA7E8120CA0A68682988A0C00800010652455649534941501304154D0D0531150540CC4E8C50954494D
310
455354414D504A088A0C741792B734141D5915494D253D3905414C4D4B8C0C1107B44574753455454494E4753454E447D0
  0
ACAD_PROXY_OBJECT
  5
49B
102
{ACAD_REACTORS
330
39C
102
}
330
39C
100
AcDbProxyObject
 90
      499
 91
      526
 95
       25
 70
     0
 93
      199
310
405055368616674220F688AE8EA68AA8A8929C8EA68A9C88FA
  0
ACAD_PROXY_OBJECT
  5
39E
102
{ACAD_REACTORS
330
39C
102
}
330
39C
100
AcDbProxyObject
 90
      499
 91
      526
 95
       25
 70
     0
 93
      852
310
4050D5452414E5353455454494E4753A2488A482AE929C8EA8A4829CA69882A8929E9C0C00800050D4F524947494E414C4C595F4F4E0600400008529A7AAA921A2A620A723A0A81A52827212AAA0A48AA68AA4AC8A0C0080001107B44574753455454494E4753454E447D0
  0
ACAD_PROXY_OBJECT
  5
3D6
330
3C7
100
AcDbProxyObject
 90
      499
 91
      552
 95
       25
 70
     0
 93
       96
310
5DC20E80A0280A0280A02808
  0
ACAD_PROXY_OBJECT
  5
3D7
330
3C7
100
AcDbProxyObject
 90
      499
 91
      553
 95
       25
 70
     0
 93
      332
310
5DD0E4050140501405014050140501405014050142501405014050140501405012000000000000000400
340
3E1
 94
        0
  0
ACAD_PROXY_OBJECT
  5
3D8
330
3C7
100
AcDbProxyObject
 90
      499
 91
      554
 95
       25
 70
     0
 93
      403
310
5DCC199999999999E99F91F4050140501405014050140501405014050140501405014050140501405014050140501405014040
340
0
 94
        0
  0
ACAD_PROXY_OBJECT
  5
3D9
330
3C7
100
AcDbProxyObject
 90
      499
 91
      555
 95
       25
 70
     0
 93
       10
310
5DC0
  0
ACAD_PROXY_OBJECT
  5
3DA
330
3C7
100
AcDbProxyObject
 90
      499
 91
      556
 95
       25
 70
     0
 93
      257
310
5DE290EA22A7D90F49F9353333333333727F44D4CCCCCCCCCDC9FC010000618000
340
3E2
340
3E3
 94
        0
  0
ACAD_PROXY_OBJECT
  5
3DB
330
3C7
100
AcDbProxyObject
 90
      499
 91
      557
 95
       25
 70
     0
 93
    13023
310
5DD0E411255115350141236025B6901405014069011309A4F2590CB64FD3347454E545241434F2C4A504E2C302C8D8096DA2C47454E54524154582C25732C2847454E4D53472067656E647767203232322940690120281A8AA2CA0282484A4BE52028120280A03202261349E4B2196C9FA668E8A9CA8A482869E5894A09C58
310
605921292F94588E8A9CA8A482A8B0584AE658508E8A9C9AA68E40CECADCC8EECE406464665280D202405044E414D454050496BC914F4051C40640A8B95C2E97CBE502404CD1D15395149050D3CB1294138B0C0B25AF2453CB11D15395149055160B095CCB0A11D1539354D1C819D95B991DD9C80C8C8D8A50192C3D494628
310
4953424C414E4B28504152543A4E414D45292C424C4F434B3A4E414D452C504152543A4E414D452940480A0A888AA686A480A09251B1DBE80A3A80C81D10782C06030180C8099A3A2A72A2920A1A7962528271618164946C76F9623A2A72A2920AA2C1612B9961423A2A726A9A39033B2B7323BB39019189B94A0248090142
310
14D51053911054911014122D2E29A50147501904A383BFDFEFF5FBFCFD3347454E545241434F2C4A504E2C302C8B4B8A692C47454E54524154582C25732C2847454E4D53472067656E64776720323138294049012028426A0AA22A924A0A62028246EF4BDFA028EA0320B41396D838E9017D9FA668E8A9CA8A482869E5894A
310
09C5860591BBD2F7E588E8A9CA8A482A8B0584AE658508E8A9C9AA68E40CECADCC8EECE406464625280D202405044E4F544540504928D8B4C4051D40641A8B95C2E97CBE5F23F4CD1D15395149050D3CB1294138B0C0B24A362D30B11D15395149055160B095CCB0A11D1539354D1C819D95B991DD9C80C8C8D4A501A40480
310
A0CAC8A9C889EA480A1106F1072706BF02B680A3A80C83D172B85D2F97CBE47E9BA3A2A72A2920A1A79625282716181641BC41C9C1AFC0AD9623A2A72A2920AA2C1612B9961423A2A726A9A39033B2B7323BB39019191A14A0348090141911154D0D48C90141A43825AF880C90147501908A20F0580C0603019013447454E5
310
45241434F2C4A504E2C302C90E096BE20322C47454E54524154582C25732C2847454E4D53472067656E6477672033362940490120284A9AA20A72220A922192028345A5C53490192028EA0321347077FBFDFEBF7F9FA6A8E8A9CA8A482869E5894A09C586059169714D24064588E8A9CA8A482A8B0584AE658508E8A9C9AA6
310
8E40CECADCC8EECE4064646052809202405094D4154455249414C32405068DDE97BF20324051D40642A8272DB071D202FB3F4D11D15395149050D3CB1294138B0C0B2377A5EFC80C8B11D15395149055160B095CCB0A11D1539354D1C819D95B991DD9C80D0C0A501240480A089A82A6A680A091D7F2F9480A3A80A0485A06
310
81172B85D2F97CBE47E9923A2A72A2920A1A796252827161816475FCBE51623A2A72A2920AA2C1612B9961423A2A726A9A39033B2B7323BB3901A1914A024809014154149250D150141226FE29A501475014090C409022E570BA5F2F97C8FD3247454E545241434F2C4A504E2C302C89BF8A692C47454E54524154582C2573
310
2C2847454E4D53472067656E6477672034332940490120281A224A6A02824850CB202028EA028121A81A045CAE174BE5F2F91FA648E8A9CA8A482869E5894A09C58605921432C80588E8A9CA8A482A8B0584AE658508E8A9C9AA68E40CECADCC8EECE406868528092024050E441022E07A17AD46E338FE07800030C0001018
310
ACD56AB55AADF63F2B355AAD56AB7D8FD073D3C4954454D3E405018ACD56AB55AADF63F2B355AAD56AB7D8FD073D3C4954454D3E40501890C7E3F1783CEE3F2431F8FC5E0F3B8FD073D3C4954454D3E40501890C7E3F1783CEE3F2431F8FC5E0F3B8FD073D3C4954454D3E405029012B355AAD56AB7D8FCACD56AB55AADF63
310
F41CF4F125511534F901418F4F1455164F9014062B355AAD56AB7D8FCACD56AB55AADF63F41CF4F125511534F9014061309A4F2590CBA4FC4C2693C96432E93F41CF4F125511534F901901002B355AAD56AB7D8FCACD56AB55AADF63FA2000000000000008204018000618048220681A048120280C88214844882034852034
310
8452028521485214814000000000000F0BF0000000000003C2FD018020000C3008070000C3000EF7D3E365DBA88FC3BDF4F8D976EA23F2E07A17AD46E2F8FF20341A405024150741A4069703D0BD6A3717C7F0040001860100400018601002000186002026280A02
340
0
340
0
 94
        0
  0
ACAD_PROXY_OBJECT
  5
3DC
330
3C7
100
AcDbProxyObject
 90
      499
 91
      558
 95
       25
 70
     0
 93
      994
310
5DC0B81E85EB51B8CE3F4BCF511155105253080F11115510525317D3105091530F971414D0D05311480F11115510525317D05094D4D0D053114F92341C9A9999999999B93F26A666666666724FC000000000000E03F4000000000000004000000000000005100000000000000244081E0000C3002E07A17AD46E338FC0
340
391
340
3D5
 94
        0
  0
ACAD_PROXY_OBJECT
  5
3DD
330
3C7
100
AcDbProxyObject
 90
      499
 91
      559
 95
       25
 70
     0
 93
      823
310
5DC031703D0BD6A3719C7E999EA9A2A1AA24A7A7101E29A2A1AA24A7A72FA620A122A62FA324A929AA1F169E29A2A1AA24A7A72FA620A122A62FA620A9AA1F1353333333333B27E3FFFE01C00030C008840F000061801353333333333B27F1703D0BD6A3719C7E
340
391
340
3D5
 94
        0
  0
ACAD_PROXY_OBJECT
  5
3DE
330
3C7
100
AcDbProxyObject
 90
      499
 91
      560
 95
       25
 70
     0
 93
      280
310
5DC2B8716D9CEF7C33F0A5723F0BD4A2F0FC295C8FC2F528BC3FA199999999999F99FC
  0
ACAD_PROXY_OBJECT
  5
3DF
330
3C7
100
AcDbProxyObject
 90
      499
 91
      561
 95
       25
 70
     0
 93
       14
310
5DE4
340
0
 94
        0
  0
ACAD_PROXY_OBJECT
  5
3E0
330
3C7
100
AcDbProxyObject
 90
      499
 91
      562
 95
       25
 70
     0
 93
     7123
310
5DD084050BA4050AA405024050E836583938376838C815B8367203140405013D3C696628657175616C28486F6C653A7461707065642C223022292C22252563222C486F6C653A6E6F6D696E616C2022202220696628657175616C28486F6C653A756E6974732C223122292C2278222C222D222920222022293E3C6966286571
310
75616C28486F6C653A7461707065642C223022292C486F6C653A6469612C486F6C653A706974636864657363293E207B5C46414D4744543B787D203C696628657175616C28486F6C653A7465726D696E6174696F6E2C223022292C486F6C653A64657074682C228AD192CA22293E5C507B5C46414D4744543B767D2525633C
310
486F6C653A63746469613E207B5C46414D4744543B787D203C486F6C653A637464657074683E406901405034050E836583938376838C815B83672031405FE3D3C696628657175616C28486F6C653A7461707065642C223022292C22252563222C486F6C653A6E6F6D696E616C2022202220696628657175616C28486F6C653
310
A756E6974732C223122292C2278222C222D222920222022293E3C696628657175616C28486F6C653A7461707065642C223022292C486F6C653A6469612C486F6C653A706974636864657363293E207B5C46414D4744543B787D203C696628657175616C28486F6C653A7465726D696E6174696F6E2C223022292C486F6C653
310
A64657074682C228AD192CA22293E5C507B5C46414D4744543B777D2525633C486F6C653A63746469613E2058203C486F6C653A6374616E676C653E252564406901405014050E836583938376838C815B83672031405CF3D3C696628657175616C28486F6C653A7461707065642C223022292C22252563222C486F6C653A6E
310
6F6D696E616C2022202220696628657175616C28486F6C653A756E6974732C223122292C2278222C222D222920222022293E3C696628657175616C28486F6C653A7461707065642C223022292C486F6C653A6469612C486F6C653A706974636864657363293E5C507B5C46414D4744543B787D203C696628657175616C2848
310
6F6C653A7465726D696E6174696F6E2C223022292C486F6C653A64657074682C228AD192CA22293E4069014051E4090E836583938376838C815B83672032405173D3C535444503A444553433E203C535444503A5354443E40690E836583938376838C815B836720314050C3D3C535444503A444553433E40690240515AAABB
310
A060
360
3EA
330
3EA
360
3EB
330
3EB
360
3E9
330
3E9
360
3E8
360
3E7
330
3E8
330
3E7
 94
        0
  0
ACAD_PROXY_OBJECT
  5
3EC
330
3C7
100
AcDbProxyObject
 90
      499
 91
      564
 95
       25
 70
     0
 93
       26
310
5DD02A80
340
3C8
 94
        0
  0
ACAD_PROXY_OBJECT
  5
3ED
330
3C7
100
AcDbProxyObject
 90
      499
 91
      565
 95
       25
 70
     0
 93
      258
310
5DD02000000000000380FC000000000000E03F408F0F9023C3E40DB18CCCFFFF80
340
3EE
340
4AA
340
607
340
588
340
574
340
0
340
3F1
340
3F2
340
3F7
340
0
 94
        0
  0
ACAD_PROXY_OBJECT
  5
3F8
330
3C7
100
AcDbProxyObject
 90
      499
 91
      566
 95
       25
 70
     0
 93
    13993
310
5DD1D023FFFFFFFD010300002E07A17AD46E2F8FE00800030C01010300002E07A17AD46E2F8FE00800030C00050C8DC0955782CC838A83588367014ED1D15395149050D3CB1294138B0C0B23702555E0B320E2A0D620D9CB11D15395149055160B095CCB0A11D1539354D1C819D95B991A5B5E880CCC0A78000C0000000000
310
00000000000000000000007B14AE47E17AA43F2E07A17AD46E2F8FE00800030C007B14AE47E17AA43F2E07A17AD46E2F8FE00800030C020143CF4F111959985D5B1D151A5D1B194F8050A8C8A8365815B8375838B014E51D15395149050D3CB1294138B0C0B2322A0D96056E0DD60E2CB11D15395149055160B095CCB0A11D
310
1539354D1C819D95B991A5B5E880CCC4A78000C000000000000000000000000000000007B14AE47E17AA43F2E07A17AD46E2F8FE00800030C007B14AE47E17AA43F2E07A17AD46E2F8FE00800030C020143CF4F111959985D5B1D151A5D1B194F90D4410F4450240D0441507431014391244D05449074510C4350F00014123
310
2D24D7C053247454E545241434F2C4A504E2C302C8CB4935F2C47454E54524154582C25732C2847454E4D53472067656E64696D7A20312900010104002214000282465A49AF80A648E8A9CA8A482869E5894A09C586059196926BE588E8A9CA8A482A8B0584AE658508E8A9C9AA68E40CECADCC8D2DAF44062520002020800
310
43E80005028C8A014C11D15395149050D3CB1294138B0C0B23228B11D15395149055160B095CCB0A11D1539354D1C819D95B991A5B5E880C8A4054E3D3C4946284953424C414E4B28486F6C654974656D292C4F726967696E2C20486F6C654974656D293E3C4946284953424C414E4B28486F6C654974656D292C22222C204
310
86F6C65496E646578293E010104002234000280AC00A5E8E8A9CA8A482869E5894A09C586058B0588E8A9CA8A482A8B0584AE658508E8A9C9AA68E40CECADCC8D2DAF4406652000202000040A800050159014BD1D15395149050D3CB1294138B0C0B164B11D15395149055160B095CCB0A11D1539354D1C819D95B991A5B5E
310
880D0A4000404000081D0000A02A40297A3A2A72A2920A1A796252827161816291623A2A72A2920AA2C1612B9961423A2A726A9A39033B2B73234B6BD101B148000808000104A000140A0F4C053047454E545241434F2C4A504E2C302C83D32C47454E54524154582C25732C2847454E4D53472067656E64696D7A20372900
310
0101030020B400028141E980A608E8A9CA8A482869E5894A09C58605907A6588E8A9CA8A482A8B0584AE658508E8A9C9AA68E40CECADCC8D2DAF4407052000202020041E800050490E096BE014CD1D15395149050D3CB1294138B0C0B243825AF8B11D15395149055160B095CCB0A11D1539354D1C819D95B991A5B5E880C8
310
C0A400040010008650000A091B012DB40299A3A2A72A2920A1A79625282716181646C04B6D1623A2A72A2920AA2C1612B9961423A2A726A9A39033B2B73234B6BD10189A148000808280501A00014320D0E0E4E0D9A0D8A0D3A0D60053B47454E545241434F2C4A504E2C302C8343839383668362834E83582C47454E54524
310
154582C25732C2847454E4D53472067656E64696D7A203135290001010500A1D4000281464500A628E8A9CA8A482869E5894A09C5860591914588E8A9CA8A482A8B0584AE658508E8A9C9AA68E40CECADCC8D2DAF440626C52000202080044A800050E8C8A8343839383668362834E8358014F51D15395149050D3CB129413
310
8B0C0B2322A0D0E0E4E0D9A0D8A0D3A0D60B11D15395149055160B095CCB0A11D1539354D1C819D95B991A5B5E880C4DCA4000404140089D0000A0921292F940299A3A2A72A2920A1A796252827161816484A4BE51623A2A72A2920AA2C1612B9961423A2A726A9A39033B2B73234B6BD10189C948000808300114A0001412
310
2D2E29A4053347454E545241434F2C4A504E2C302C8B4B8A692C47454E54524154582C25732C2847454E4D53472067656E64696D7A20323129000100040021B4878030026A6666666667A4FE064D4CCCCCCCCCF49FC049A9999999999E93F809353333333333D27F0226A6666666667A4FE044D4CCCCCCCCCF49FC0D818000
310
00000000000810026A666666666764FE004D4CCCCCCCCCF49FC009A9999999999E93F801353333333333D27F032E07A17AD46E378FE0633B333333333032050F006004D4CCCCCCCCCF49FC0C9A9999999999E93F819353333333333D27F0326A6666666667A4FE064D4CCCCCCCCCF49FC0C9A9999999999E93F81B03000000
310
00000000102004D4CCCCCCCCCEC9FC009A9999999999E93F819353333333333D27F0026A6666666667A4FE065C0F42F5A8DC6F1FC0C6766666666660640A088800000021E000000890000002260000008220E000200890000002060002008100008000
340
0
340
0
340
0
340
0
340
3D5
340
3D5
 94
        0
  0
ACAD_PROXY_OBJECT
  5
3F9
330
3C7
100
AcDbProxyObject
 90
      499
 91
      567
 95
       25
 70
     0
 93
     5214
310
5DD9741105394D2506414E53495F4342905394D257D512551554D15414E53495F54525F5265766973696F6E6C697374614191143202831372E307832322E30696E63682941905394D257D0D1146202832382E307834302E30696E63682941905394D257D191142202831312E307831372E30696E63682941905394D257D091
310
144202832322E307833342E30696E63682941905394D257D111145202833342E307834342E30696E63682941905394D257D1510412028382E357831312E30696E63682941905394D257D050543905B9CDA482557247A25E4C81110D0C414E53495F5449544C45444343505B9CDA482557247A25E4C81050B414E53495F5449
310
544C454143905B9CDA482557247A25E4C81050D0C414E53495F5449544C454143425554C82557247A25E4D0A414E53495F544954555343505B9CDA482557247A25E4C81110B414E53495F5449544C454442110979A97F0838A8358836720415F42525F45505394D257D09497D4995D9A5CDA5BDB9B1A5CDD18510979A97F08
310
38A8358836720415F54525F45505394D257D51497D4995D9A5CDA5BDB9B1A5CDD18510979A97F0838A8358836720445F42525F45505394D257D09497D4995D9A5CDA5BDB9B1A5CDD19110979A97F0838A8358836720445F54525F45505394D257D51497D4995D9A5CDA5BDB9B1A5CDD19110979A97F0838A8358836720415F
310
424C5F45505394D257D09317D4995D9A5CDA5BDB9B1A5CDD18510979A97F0838A8358836720415F544C5F45505394D257D51317D4995D9A5CDA5BDB9B1A5CDD18510979A97F0838A8358836720445F424C5F45505394D257D09317D4995D9A5CDA5BDB9B1A5CDD19110979A97F0838A8358836720445F544C5F45505394D25
310
7D51317D4995D9A5CDA5BDB9B1A5CDD190
  0
ACAD_PROXY_OBJECT
  5
4F6
330
4F5
100
AcDbProxyObject
 90
      499
 91
      572
 95
       25
 70
     0
 93
       86
310
5DEA0C80A0280A0280A034
  0
ACAD_PROXY_OBJECT
  5
4F7
330
4F5
100
AcDbProxyObject
 90
      499
 91
      573
 95
       25
 70
     0
 93
      282
310
5DD0E4050140501405014050140501405014050141101405014041000000000000001000
340
4E5
 94
        0
  0
ACAD_PROXY_OBJECT
  5
4F8
330
4F5
100
AcDbProxyObject
 90
      499
 91
      574
 95
       25
 70
     0
 93
      323
310
5DCC199999999999E99F91740501405014050140501405014050140501405014050140501405014040
340
0
 94
        0
  0
ACAD_PROXY_OBJECT
  5
4F9
330
4F5
100
AcDbProxyObject
 90
      499
 91
      575
 95
       25
 70
     0
 93
       10
310
5DC0
  0
ACAD_PROXY_OBJECT
  5
4FA
330
4F5
100
AcDbProxyObject
 90
      499
 91
      576
 95
       25
 70
     0
 93
      257
310
5DE0C16A22A7D90F49F80000000000001081400000000000004204010000618000
340
4E0
340
4E1
 94
        0
  0
ACAD_PROXY_OBJECT
  5
4FB
330
4F5
100
AcDbProxyObject
 90
      499
 91
      577
 95
       25
 70
     0
 93
     5277
310
5DD06411255115350141236025B6901405014069010000000000000910240690120281A8AA2CA0282484A4BE52028120280A032020000000000001220480D202405044E414D454050496BC914F4051C40640A80000000000004E4090193C3D3C4946284953424C414E4B28504152543A4E414D45292C424C4F434B3A4E414D
310
452C504152543A4E414D45293E3C41435F44455343524950544E3E40480A109A82A88AA492829880A091BBD2F7E80A3A80C81D0E27A15AF46E08A81203480901411393D5115014124A363B7D0147501904A0000000000000F902406428F4F1050D7D393D5114F901202832B22A72227A92028366EF6EE06F582028EA0320B4
310
0000000000001F20480C879E9E20A1AFAB27222FA620A122A61F20240506445020000000000000490201C00030C00010180000000000003E400000000000000F901073D3C4954454D3E4050180000000000003E400000000000000F901073D3C4954454D3E40501800000000000034400000000000000D101073D3C4954454
310
D3E40501800000000000034400000000000000D101073D3C4954454D3E405029010000000000000F9000000000000003E4041CF4F125511534F901418F4F1455164F9014060000000000000F9000000000000003E4041CF4F125511534F901800000000000034400000000000000D101073D3C4954454D3E40640400000000
310
0000003E400000000000000F90288800000000000020810000001800120881A068120480A032208521122080D21480D211480A1485214852050000000000003C2FC000000000000F0BF40600800030C0200400030C00CDCCCCCCCCCCEC3F3373333333333B0FC3333333333330940C80D069014090341504901A1999999999
310
9984A040100006180400800061804010000618008098A02808
340
0
340
0
 94
        0
  0
ACAD_PROXY_OBJECT
  5
4FC
330
4F5
100
AcDbProxyObject
 90
      499
 91
      567
 95
       25
 70
     0
 93
     3042
310
5DD9740D29254D064A49535F413342929254D7D512551311505134A49535F42525F5265766973696F6E6C6973744190F4134522028323937783231306D6D2941D29254D7D04D1490E41312028353934783834316D6D2941929254D7D04C50F41344C2028323130783239376D6D2941D29254D7D04D1310E413320283239377
310
83432306D6D2941929254D7D04CD0E41322028343230783539346D6D2941929254D7D04C90F4130202838343178313138396D6D2941929254D7D04C10243129254C82557247A25E4C81050A4A49535F5449544C454143129254C82557247A25E4C81090A4A49535F5449544C45424110E979A97F0838A835883675F42525F4
310
4D29254D7D09497D4995D9A5CDA5BDB9B1A5CDD10E979A97F0838A835883675F54525F44D29254D7D51497D4995D9A5CDA5BDB9B1A5CDD10E979A97F0838A835883675F424C5F44D29254D7D09317D4995D9A5CDA5BDB9B1A5CDD10E979A97F0838A835883675F544C5F44D29254D7D51317D4995D9A5CDA5BDB9B1A5CDD00
  0
ACAD_PROXY_OBJECT
  5
4FD
330
4F5
100
AcDbProxyObject
 90
      499
 91
      578
 95
       25
 70
     0
 93
      898
310
5DC4000000000000124048CF4F11115510525317D3105091530F880A0F11115510525317D05094D4D0D053114F8A50241C9A9999999999B93F26A666666666724FC000000000000E03F400000000000000400000000000000510000000000000024408070000C300000000000000049000
340
15
340
4E4
 94
        0
  0
ACAD_PROXY_OBJECT
  5
4FE
330
4F5
100
AcDbProxyObject
 90
      499
 91
      579
 95
       25
 70
     0
 93
      823
310
5DC0B00000000000002480959E9E29A2A1AA24A7A72FA620A122A62FA324A929AA1F169E29A2A1AA24A7A72FA620A122A62FA620A9AA1F000000000000048803FFFE01C00030C008140380006180000000000000048800000000000000A2000000000000002480
340
27
340
4E4
 94
        0
  0
ACAD_PROXY_OBJECT
  5
4FF
330
4F5
100
AcDbProxyObject
 90
      499
 91
      580
 95
       25
 70
     0
 93
      152
310
5DE8273108AC1C5A0640A3D0A5723F0BD1F200
  0
ACAD_PROXY_OBJECT
  5
500
330
4F5
100
AcDbProxyObject
 90
      499
 91
      581
 95
       25
 70
     0
 93
       14
310
5DE0
340
0
 94
        0
  0
ACAD_PROXY_OBJECT
  5
501
330
4F5
100
AcDbProxyObject
 90
      499
 91
      582
 95
       25
 70
     0
 93
     6059
310
5DD084050BA4050AA405024050E836583938376838C815B83672031405983D3C486F6C653A6469613E3C696628657175616C28486F6C653A7465726D696E6174696F6E2C223022292C2220905B82B320222C22208368838A838B22293E3C696628657175616C28486F6C653A7465726D696E6174696F6E2C223022292C486F
310
6C653A64657074682C2222293E2C203C486F6C653A63746469613E2082B482AE82E882CC905B82B3203C486F6C653A637464657074683E406901405034050E836583938376838C815B83672031405EF3D3C486F6C653A6374616E676C653E252564202525633C486F6C653A63746469613E208E4D8C8A2C203C69662865717
310
5616C28486F6C653A7461707065642C223022292C22252563222C486F6C653A6E6F6D696E616C202220782022293E3C696628657175616C28486F6C653A7461707065642C223022292C486F6C653A6469612C486F6C653A706974636864657363293E203C696628657175616C28486F6C653A7465726D696E6174696F6E2C2
310
23022292C22905B82B320222C222022293E3C696628657175616C28486F6C653A7465726D696E6174696F6E2C223022292C486F6C653A64657074682C2222293E406901405014050E836583938376838C815B83672031405C73D3C696628657175616C28486F6C653A7461707065642C223022292C22252563222C486F6C65
310
3A6E6F6D696E616C202220782022293E3C696628657175616C28486F6C653A7461707065642C223022292C486F6C653A6469612C486F6C653A706974636864657363293E203C696628657175616C28486F6C653A7465726D696E6174696F6E2C223022292C22905B82B320222C222022293E3C696628657175616C28486F6C
310
653A7465726D696E6174696F6E2C223022292C486F6C653A64657074682C2222293E4069014051E4090E836583938376838C815B83672032405173D3C535444503A444553433E203C535444503A5354443E40690E836583938376838C815B836720314050C3D3C535444503A444553433E40690240515AAABBA120
360
502
330
502
360
503
330
503
360
504
330
504
360
505
360
506
330
505
330
506
 94
        0
  0
ACAD_PROXY_OBJECT
  5
507
330
4F5
100
AcDbProxyObject
 90
      499
 91
      564
 95
       25
 70
     0
 93
       26
310
5DD02A80
340
0
 94
        0
  0
ACAD_PROXY_OBJECT
  5
508
330
4F5
100
AcDbProxyObject
 90
      499
 91
      565
 95
       25
 70
     0
 93
      250
310
5DD020000000000000A1000000000000002440408F0F9023C3E409A0DCFFFF80
340
4E6
340
4ED
340
4EE
340
4E7
340
4E8
340
4E9
340
4EA
340
4EB
340
4EC
340
0
 94
        0
  0
ACAD_PROXY_OBJECT
  5
509
330
4F5
100
AcDbProxyObject
 90
      499
 91
      583
 95
       25
 70
     0
 93
    13889
310
5DD1D003FFFFFFFD030300030CCCCCCCCCCCC250200800030C01030300030CCCCCCCCCCCC250200800030C00050C8DC0955782CC838A83588367014ED1D15395149050D3CB1294138B0C0B23702555E0B320E2A0D620D9CB11D15395149055160B095CCB0A11D1539354D1C819D95B991A5B5E880CCC0A78000C0000000000
310
00000000000000000000010CCCCCCCCCCCC250200800030C010CCCCCCCCCCCC250200800030C020143CF4F111959985D5B1D151A5D1B194F8050A8C8A8365815B8375838B014E51D15395149050D3CB1294138B0C0B2322A0D96056E0DD60E2CB11D15395149055160B095CCB0A11D1539354D1C819D95B991A5B5E880CCC4
310
A78000C000000000000000000000000000000010CCCCCCCCCCCC250200800030C010CCCCCCCCCCCC250200800030C020143CF4F111959985D5B1D151A5D1B194F90D44111409034110541D0C4350F4050E44D03449074510F000141232D24D7C053247454E545241434F2C4A504E2C302C8CB4935F2C47454E54524154582C
310
25732C2847454E4D53472067656E64696D7A20312900010104002214000281464500A608E8A9CA8A482869E5894A09C5860591914588E8A9CA8A482A8B0584AE658508E8A9C9AA68E40CECADCC8D2DAF4406452029E9E9E27B934B3B4B71F1E24A31427A91424A9A12620A7259427B934B3B4B7149624A9A12620A7259424B
310
A32B6949496111116111711149F1E24BA32B69F00808200111A000140560052F47454E545241434F2C4A504E2C302C582C47454E54524154582C25732C2847454E4D53472067656E64696D7A20332900010100002054000280AC80A5E8E8A9CA8A482869E5894A09C586058B2588E8A9CA8A482A8B0584AE658508E8A9C9AA
310
68E40CECADCC8D2DAF4406852000202000040E800050152014BD1D15395149050D3CB1294138B0C0B148B11D15395149055160B095CCB0A11D1539354D1C819D95B991A5B5E880D8A400040400008250000A0507A6029823A2A72A2920A1A79625282716181641E99623A2A72A2920AA2C1612B9961423A2A726A9A39033B2
310
B73234B6BD101B948000808180105A000140A0F4C053047454E545241434F2C4A504E2C302C83D32C47454E54524154582C25732C2847454E4D53472067656E64696D7A203829000101010020F400028248704B5F00A668E8A9CA8A482869E5894A09C58605921C12D7C588E8A9CA8A482A8B0584AE658508E8A9C9AA68E40
310
CECADCC8D2DAF440646052000200080043280005048B4B8A69014CD1D15395149050D3CB1294138B0C0B22D2E29A4B11D15395149055160B095CCB0A11D1539354D1C819D95B991A5B5E880C8C4A4000400100086D0000A09196926BE029923A2A72A2920A1A796252827161816465A49AF9623A2A72A2920AA2C1612B9961
310
423A2A726A9A39033B2B73234B6BD10189480A02620202080043E80005048D8096DA014CD1D15395149050D3CB1294138B0C0B236025B68B11D15395149055160B095CCB0A11D1539354D1C819D95B991A5B5E880C4D0A4000404140280D0000A190687072706CD06C5069D06B0029DA3A2A72A2920A1A7962528271618164
310
1A1C1C9C1B341B141A741AC1623A2A72A2920AA2C1612B9961423A2A726A9A39033B2B73234B6BD10189A94800080820050EA000143A322A0D0E0E4E0D9A0D8A0D3A0D60053D47454E545241434F2C4A504E2C302C8C8A8343839383668362834E83582C47454E54524154582C25732C2847454E4D53472067656E64696D7A
310
2031372900010105002274000281464500A628E8A9CA8A482869E5894A09C5860591914588E8A9CA8A482A8B0584AE658508E8A9C9AA68E40CECADCC8D2DAF440626C52000202080044A8000504909497CA014CD1D15395149050D3CB1294138B0C0B242525F28B11D15395149055160B095CCB0A11D1539354D1C819D95B9
310
91A5B5E880C4E4A400040418008A521E000000000000001CA040C00000000000034408080000000000006881010000000000000D102040000000000001A204080000000000003440818000000000000728103000000000000125020600000000004028A040000000000000034408000000000000004881000000000000000D
310
102000000000000001A204000000000000003440818000000000000508143C0000000000000039408180000000000006881030000000000000D102060000000000001A2040C00000000000034408180000000000006881030000000000000E5020600000000000024A040C0000000000805140800000000000000688100000
310
00000000009102000000000000001A2040000000000000034408180000000000006881030000000000000A10284220000000878000002020000008380000020400000081800000208000000828000002028900000000
340
0
340
0
340
0
340
0
340
4E4
340
4E4
 94
        0
  0
ACAD_PROXY_OBJECT
  5
3EA
330
3E0
100
AcDbProxyObject
 90
      499
 91
      563
 95
       25
 70
     0
 93
     2256
310
5DE0143A0D960E4E0DDA0E32056E0D9C80C40405013D3C696628657175616C28486F6C653A7461707065642C223022292C22252563222C486F6C653A6E6F6D696E616C2022202220696628657175616C28486F6C653A756E6974732C223122292C2278222C222D222920222022293E3C696628657175616C28486F6C653A74
310
61707065642C223022292C486F6C653A6469612C486F6C653A706974636864657363293E207B5C46414D4744543B787D203C696628657175616C28486F6C653A7465726D696E6174696F6E2C223022292C486F6C653A64657074682C228AD192CA22293E5C507B5C46414D4744543B767D2525633C486F6C653A6374646961
310
3E207B5C46414D4744543B787D203C486F6C653A637464657074683E
  0
ACAD_PROXY_OBJECT
  5
3EB
330
3E0
100
AcDbProxyObject
 90
      499
 91
      563
 95
       25
 70
     0
 93
     2192
310
5DE0143A0D960E4E0DDA0E32056E0D9C80C405FE3D3C696628657175616C28486F6C653A7461707065642C223022292C22252563222C486F6C653A6E6F6D696E616C2022202220696628657175616C28486F6C653A756E6974732C223122292C2278222C222D222920222022293E3C696628657175616C28486F6C653A7461
310
707065642C223022292C486F6C653A6469612C486F6C653A706974636864657363293E207B5C46414D4744543B787D203C696628657175616C28486F6C653A7465726D696E6174696F6E2C223022292C486F6C653A64657074682C228AD192CA22293E5C507B5C46414D4744543B777D2525633C486F6C653A63746469613E
310
2058203C486F6C653A6374616E676C653E252564
  0
ACAD_PROXY_OBJECT
  5
3E9
330
3E0
100
AcDbProxyObject
 90
      499
 91
      563
 95
       25
 70
     0
 93
     1816
310
5DE0143A0D960E4E0DDA0E32056E0D9C80C405CF3D3C696628657175616C28486F6C653A7461707065642C223022292C22252563222C486F6C653A6E6F6D696E616C2022202220696628657175616C28486F6C653A756E6974732C223122292C2278222C222D222920222022293E3C696628657175616C28486F6C653A7461
310
707065642C223022292C486F6C653A6469612C486F6C653A706974636864657363293E5C507B5C46414D4744543B787D203C696628657175616C28486F6C653A7465726D696E6174696F6E2C223022292C486F6C653A64657074682C228AD192CA22293E
  0
ACAD_PROXY_OBJECT
  5
3E8
330
3E0
100
AcDbProxyObject
 90
      499
 91
      563
 95
       25
 70
     0
 93
      344
310
5DE0143A0D960E4E0DDA0E32056E0D9C80C805173D3C535444503A444553433E203C535444503A5354443E
  0
ACAD_PROXY_OBJECT
  5
3E7
330
3E0
100
AcDbProxyObject
 90
      499
 91
      563
 95
       25
 70
     0
 93
      256
310
5DE0143A0D960E4E0DDA0E32056E0D9C80C4050C3D3C535444503A444553433E
  0
ACAD_PROXY_OBJECT
  5
502
330
501
100
AcDbProxyObject
 90
      499
 91
      563
 95
       25
 70
     0
 93
     1376
310
5DE0143A0D960E4E0DDA0E32056E0D9C80C405983D3C486F6C653A6469613E3C696628657175616C28486F6C653A7465726D696E6174696F6E2C223022292C2220905B82B320222C22208368838A838B22293E3C696628657175616C28486F6C653A7465726D696E6174696F6E2C223022292C486F6C653A64657074682C22
310
22293E2C203C486F6C653A63746469613E2082B482AE82E882CC905B82B3203C486F6C653A637464657074683E
  0
ACAD_PROXY_OBJECT
  5
503
330
501
100
AcDbProxyObject
 90
      499
 91
      563
 95
       25
 70
     0
 93
     2072
310
5DE0143A0D960E4E0DDA0E32056E0D9C80C405EF3D3C486F6C653A6374616E676C653E252564202525633C486F6C653A63746469613E208E4D8C8A2C203C696628657175616C28486F6C653A7461707065642C223022292C22252563222C486F6C653A6E6F6D696E616C202220782022293E3C696628657175616C28486F6C
310
653A7461707065642C223022292C486F6C653A6469612C486F6C653A706974636864657363293E203C696628657175616C28486F6C653A7465726D696E6174696F6E2C223022292C22905B82B320222C222022293E3C696628657175616C28486F6C653A7465726D696E6174696F6E2C223022292C486F6C653A6465707468
310
2C2222293E
  0
ACAD_PROXY_OBJECT
  5
504
330
501
100
AcDbProxyObject
 90
      499
 91
      563
 95
       25
 70
     0
 93
     1752
310
5DE0143A0D960E4E0DDA0E32056E0D9C80C405C73D3C696628657175616C28486F6C653A7461707065642C223022292C22252563222C486F6C653A6E6F6D696E616C202220782022293E3C696628657175616C28486F6C653A7461707065642C223022292C486F6C653A6469612C486F6C653A706974636864657363293E20
310
3C696628657175616C28486F6C653A7465726D696E6174696F6E2C223022292C22905B82B320222C222022293E3C696628657175616C28486F6C653A7465726D696E6174696F6E2C223022292C486F6C653A64657074682C2222293E
  0
ACAD_PROXY_OBJECT
  5
505
330
501
100
AcDbProxyObject
 90
      499
 91
      563
 95
       25
 70
     0
 93
      344
310
5DE0143A0D960E4E0DDA0E32056E0D9C80C805173D3C535444503A444553433E203C535444503A5354443E
  0
ACAD_PROXY_OBJECT
  5
506
330
501
100
AcDbProxyObject
 90
      499
 91
      563
 95
       25
 70
     0
 93
      256
310
5DE0143A0D960E4E0DDA0E32056E0D9C80C4050C3D3C535444503A444553433E
  0
ENDSEC
  0
EOF
