  0
SECTION
  2
HEADER
  9
$ACADVER
  1
AC1015
  9
$ACADMAINTVER
 70
     6
  9
$DWGCODEPAGE
  3
ANSI_932
  9
$INSBASE
 10
0.0
 20
0.0
 30
0.0
  9
$EXTMIN
 10
-66.53231503276743
 20
-70.87146803684649
 30
0.0
  9
$EXTMAX
 10
158.7706398610492
 20
83.08573534339661
 30
0.0
  9
$LIMMIN
 10
0.0
 20
0.0
  9
$LIMMAX
 10
400.0
 20
273.0
  9
$ORTHOMODE
 70
     0
  9
$REGENMODE
 70
     1
  9
$FILLMODE
 70
     1
  9
$QTEXTMODE
 70
     0
  9
$MIRRTEXT
 70
     1
  9
$LTSCALE
 40
1.0
  9
$ATTMODE
 70
     1
  9
$TEXTSIZE
 40
3.0
  9
$TRACEWID
 40
0.5
  9
$TEXTSTYLE
  7
STANDARD
  9
$CLAYER
  8
AM_0
  9
$CELTYPE
  6
ByLayer
  9
$CECOLOR
 62
   256
  9
$CELTSCALE
 40
1.0
  9
$DISPSILH
 70
     0
  9
$DIMSCALE
 40
1.0
  9
$DIMASZ
 40
3.0
  9
$DIMEXO
 40
1.0
  9
$DIMDLI
 40
5.0
  9
$DIMRND
 40
0.0
  9
$DIMDLE
 40
3.0
  9
$DIMEXE
 40
2.0
  9
$DIMTP
 40
0.0
  9
$DIMTM
 40
0.0
  9
$DIMTXT
 40
5.0
  9
$DIMCEN
 40
2.0
  9
$DIMTSZ
 40
0.0
  9
$DIMTOL
 70
     0
  9
$DIMLIM
 70
     0
  9
$DIMTIH
 70
     0
  9
$DIMTOH
 70
     0
  9
$DIMSE1
 70
     0
  9
$DIMSE2
 70
     0
  9
$DIMTAD
 70
     1
  9
$DIMZIN
 70
     8
  9
$DIMBLK
  1

  9
$DIMASO
 70
     1
  9
$DIMSHO
 70
     0
  9
$DIMPOST
  1

  9
$DIMAPOST
  1

  9
$DIMALT
 70
     0
  9
$DIMALTD
 70
     4
  9
$DIMALTF
 40
25.4
  9
$DIMLFAC
 40
1.0
  9
$DIMTOFL
 70
     1
  9
$DIMTVP
 40
1.0
  9
$DIMTIX
 70
     0
  9
$DIMSOXD
 70
     0
  9
$DIMSAH
 70
     0
  9
$DIMBLK1
  1

  9
$DIMBLK2
  1

  9
$DIMSTYLE
  2
Standard
  9
$DIMCLRD
 70
     0
  9
$DIMCLRE
 70
     0
  9
$DIMCLRT
 70
     0
  9
$DIMTFAC
 40
1.0
  9
$DIMGAP
 40
0.09
  9
$DIMJUST
 70
     0
  9
$DIMSD1
 70
     0
  9
$DIMSD2
 70
     0
  9
$DIMTOLJ
 70
     1
  9
$DIMTZIN
 70
     0
  9
$DIMALTZ
 70
     0
  9
$DIMALTTZ
 70
     0
  9
$DIMUPT
 70
     0
  9
$DIMDEC
 70
     0
  9
$DIMTDEC
 70
     4
  9
$DIMALTU
 70
     2
  9
$DIMALTTD
 70
     2
  9
$DIMTXSTY
  7
STANDARD
  9
$DIMAUNIT
 70
     0
  9
$DIMADEC
 70
     0
  9
$DIMALTRND
 40
0.0
  9
$DIMAZIN
 70
     0
  9
$DIMDSEP
 70
    46
  9
$DIMATFIT
 70
     3
  9
$DIMFRAC
 70
     0
  9
$DIMLDRBLK
  1

  9
$DIMLUNIT
 70
     2
  9
$DIMLWD
 70
    -2
  9
$DIMLWE
 70
    -2
  9
$DIMTMOVE
 70
     0
  9
$LUNITS
 70
     2
  9
$LUPREC
 70
     4
  9
$SKETCHINC
 40
1.0
  9
$FILLETRAD
 40
0.0
  9
$AUNITS
 70
     0
  9
$AUPREC
 70
     0
  9
$MENU
  1
acad
  9
$ELEVATION
 40
0.0
  9
$PELEVATION
 40
0.0
  9
$THICKNESS
 40
0.0
  9
$LIMCHECK
 70
     0
  9
$CHAMFERA
 40
0.0
  9
$CHAMFERB
 40
0.0
  9
$CHAMFERC
 40
0.0
  9
$CHAMFERD
 40
0.0
  9
$SKPOLY
 70
     0
  9
$TDCREATE
 40
2453969.577708333
  9
$TDUCREATE
 40
2453969.202708333
  9
$TDUPDATE
 40
2455441.399508634
  9
$TDUUPDATE
 40
2455441.024508634
  9
$TDINDWG
 40
0.0191314005
  9
$TDUSRTIMER
 40
0.0191310301
  9
$USRTIMER
 70
     1
  9
$ANGBASE
 50
0.0
  9
$ANGDIR
 70
     0
  9
$PDMODE
 70
     0
  9
$PDSIZE
 40
0.0
  9
$PLINEWID
 40
0.0
  9
$SPLFRAME
 70
     0
  9
$SPLINETYPE
 70
     6
  9
$SPLINESEGS
 70
    16
  9
$HANDSEED
  5
797
  9
$SURFTAB1
 70
     6
  9
$SURFTAB2
 70
     6
  9
$SURFTYPE
 70
     6
  9
$SURFU
 70
     6
  9
$SURFV
 70
     6
  9
$UCSBASE
  2

  9
$UCSNAME
  2

  9
$UCSORG
 10
0.0
 20
0.0
 30
0.0
  9
$UCSXDIR
 10
1.0
 20
0.0
 30
0.0
  9
$UCSYDIR
 10
0.0
 20
1.0
 30
0.0
  9
$UCSORTHOREF
  2

  9
$UCSORTHOVIEW
 70
     0
  9
$UCSORGTOP
 10
0.0
 20
0.0
 30
0.0
  9
$UCSORGBOTTOM
 10
0.0
 20
0.0
 30
0.0
  9
$UCSORGLEFT
 10
0.0
 20
0.0
 30
0.0
  9
$UCSORGRIGHT
 10
0.0
 20
0.0
 30
0.0
  9
$UCSORGFRONT
 10
0.0
 20
0.0
 30
0.0
  9
$UCSORGBACK
 10
0.0
 20
0.0
 30
0.0
  9
$PUCSBASE
  2

  9
$PUCSNAME
  2

  9
$PUCSORG
 10
0.0
 20
0.0
 30
0.0
  9
$PUCSXDIR
 10
1.0
 20
0.0
 30
0.0
  9
$PUCSYDIR
 10
0.0
 20
1.0
 30
0.0
  9
$PUCSORTHOREF
  2

  9
$PUCSORTHOVIEW
 70
     0
  9
$PUCSORGTOP
 10
0.0
 20
0.0
 30
0.0
  9
$PUCSORGBOTTOM
 10
0.0
 20
0.0
 30
0.0
  9
$PUCSORGLEFT
 10
0.0
 20
0.0
 30
0.0
  9
$PUCSORGRIGHT
 10
0.0
 20
0.0
 30
0.0
  9
$PUCSORGFRONT
 10
0.0
 20
0.0
 30
0.0
  9
$PUCSORGBACK
 10
0.0
 20
0.0
 30
0.0
  9
$USERI1
 70
     0
  9
$USERI2
 70
     0
  9
$USERI3
 70
     0
  9
$USERI4
 70
     0
  9
$USERI5
 70
     0
  9
$USERR1
 40
0.0
  9
$USERR2
 40
0.0
  9
$USERR3
 40
0.0
  9
$USERR4
 40
0.0
  9
$USERR5
 40
0.0
  9
$WORLDVIEW
 70
     1
  9
$SHADEDGE
 70
     3
  9
$SHADEDIF
 70
    70
  9
$TILEMODE
 70
     1
  9
$MAXACTVP
 70
    64
  9
$PINSBASE
 10
0.0
 20
0.0
 30
0.0
  9
$PLIMCHECK
 70
     0
  9
$PEXTMIN
 10
1.000000000000000E+20
 20
1.000000000000000E+20
 30
1.000000000000000E+20
  9
$PEXTMAX
 10
-1.000000000000000E+20
 20
-1.000000000000000E+20
 30
-1.000000000000000E+20
  9
$PLIMMIN
 10
0.0
 20
0.0
  9
$PLIMMAX
 10
12.0
 20
9.0
  9
$UNITMODE
 70
     0
  9
$VISRETAIN
 70
     1
  9
$PLINEGEN
 70
     0
  9
$PSLTSCALE
 70
     1
  9
$TREEDEPTH
 70
  3020
  9
$CMLSTYLE
  2
Standard
  9
$CMLJUST
 70
     0
  9
$CMLSCALE
 40
1.0
  9
$PROXYGRAPHICS
 70
     1
  9
$MEASUREMENT
 70
     0
  9
$CELWEIGHT
370
    -1
  9
$ENDCAPS
280
     0
  9
$JOINSTYLE
280
     0
  9
$LWDISPLAY
290
     0
  9
$INSUNITS
 70
     0
  9
$HYPERLINKBASE
  1

  9
$STYLESHEET
  1
sei_cad.ctb
  9
$XEDIT
290
     1
  9
$CEPSNTYPE
380
     0
  9
$PSTYLEMODE
290
     1
  9
$FINGERPRINTGUID
  2
{809824DD-4659-478B-BD42-586A93641FFA}
  9
$VERSIONGUID
  2
{AF93A760-A03F-4C20-AA0A-4C4D9EE82F6E}
  9
$EXTNAMES
290
     1
  9
$PSVPSCALE
 40
0.0
  9
$OLESTARTUP
290
     0
  0
ENDSEC
  0
SECTION
  2
CLASSES
  0
CLASS
  1
ACDBDICTIONARYWDFLT
  2
AcDbDictionaryWithDefault
  3
ObjectDBX Classes
 90
        0
280
     0
281
     0
  0
CLASS
  1
TABLESTYLE
  2
AcDbTableStyle
  3
ObjectDBX Classes
 90
     2047
280
     0
281
     0
  0
CLASS
  1
ACME_DOCUMENT
  2
AcMeDbDoc
  3
AcMeServices
 90
        0
280
     1
281
     0
  0
CLASS
  1
ACMESCOPE
  2
AcMeScope
  3
AcMeServices
 90
        0
280
     1
281
     0
  0
CLASS
  1
ACMECOMMANDHISTORY
  2
AcMeCommandHistory
  3
AcMeServices
 90
        0
280
     1
281
     0
  0
CLASS
  1
ACIMSYSVARMAN
  2
AcImSysVarManager
  3
AcMeServices
 90
        0
280
     1
281
     0
  0
CLASS
  1
ACIMINTSYSVAR
  2
AcImIntSysVar
  3
AcMeServices
 90
        0
280
     1
281
     0
  0
CLASS
  1
ACMEDRAWINGMAN
  2
AcMeDrawingMan
  3
AcMeServices
 90
        0
280
     1
281
     0
  0
CLASS
  1
ACMEVIEW
  2
AcMeView
  3
AcMeServices
 90
        0
280
     1
281
     0
  0
CLASS
  1
ACDBENTITYCACHE
  2
AcMeEntityCache
  3
AcMeServices
 90
        0
280
     1
281
     0
  0
CLASS
  1
GSMANAGER
  2
AcMeGSManager
  3
AcMeServices
 90
        0
280
     1
281
     0
  0
CLASS
  1
AMDTINTERNALREACTOR
  2
AmdtInternalReactor
  3
AcMeServices
 90
        0
280
     1
281
     0
  0
CLASS
  1
ACMESTATEMGR
  2
AcMeStateMgr
  3
AcMeServices
 90
        0
280
     1
281
     0
  0
CLASS
  1
ACGREFMASTER
  2
AcGrefMaster
  3
AcAttribServices
 90
        0
280
     1
281
     0
  0
CLASS
  1
AM_DRAWING_MGR
  2
AcDmDwgMgr
  3
AcMechDwgViewMgmt
 90
        0
280
     1
281
     0
  0
CLASS
  1
AM_DWG_DOCUMENT
  2
AcDmDwgDocument
  3
AcMechDwgViewMgmt
 90
        0
280
     1
281
     0
  0
CLASS
  1
AM_DWG_SHEET
  2
AcDmSheet
  3
AcMechDwgViewMgmt
 90
        0
280
     1
281
     0
  0
CLASS
  1
AM_VIEWDIMPARMAP
  2
AcDmViewDimParMap
  3
AcMechDwgViewMgmt
 90
        0
280
     1
281
     0
  0
CLASS
  1
ACIMREALSYSVAR
  2
AcImRealSysVar
  3
AcMeServices
 90
        0
280
     1
281
     0
  0
CLASS
  1
AM_DWGMGR_NAME
  2
AcDmDwgMgrName
  3
AcMechDwgViewMgmt
 90
        0
280
     1
281
     0
  0
CLASS
  1
ACME_DATABASE
  2
AcMeDbDatabase
  3
AcMeServices
 90
        0
280
     1
281
     0
  0
CLASS
  1
ACRFINSADJUSTERMGR
  2
AcRfInsAdjusterMgr
  3
AcMeServices
 90
        0
280
     1
281
     0
  0
CLASS
  1
ACGREFACADMASTER
  2
AcGrefacadMaster
  3
AcGrefServices
 90
        0
280
     1
281
     0
  0
CLASS
  1
AMDTMENUSTATEMGR
  2
AmdtMenuStateMgr
  3
McadcomServices
 90
        0
280
     1
281
     0
  0
CLASS
  1
AMDTMCOMMENUSTATE
  2
AmdtMcomMenuState
  3
McadcomServices
 90
        0
280
     1
281
     0
  0
CLASS
  1
AMIMASTER
  2
AmiMaster
  3
AmiServices
 90
        0
280
     1
281
     0
  0
CLASS
  1
AMGSETTINGSOBJ
  2
AmgSettingsObj
  3
"AcadM|Product Description: AutoCAD Mechanical 2000|Company: Autodesk"
 90
        0
280
     1
281
     0
  0
CLASS
  1
MAPIAMMOUDLE
  2
MApiAmModule
  3
MApiAmServices
 90
        0
280
     1
281
     0
  0
CLASS
  1
AMDTADMENUSTATE
  2
AmdtAdMenuState
  3
DesignerServices
 90
        0
280
     1
281
     0
  0
CLASS
  1
ADAPPL
  2
AcAdAppl
  3
DesignerServices
 90
        0
280
     1
281
     0
  0
CLASS
  1
DEPMGR
  2
AcAdDepMgr
  3
DesignerServices
 90
        0
280
     1
281
     0
  0
CLASS
  1
PARAMMGR
  2
AcAdParamMgr
  3
DesignerServices
 90
        0
280
     1
281
     0
  0
CLASS
  1
PARAMSCOPE
  2
AcAdParamScope
  3
DesignerServices
 90
        0
280
     1
281
     0
  0
CLASS
  1
NAMEDAPPL
  2
AcAdNamedAppl
  3
DesignerServices
 90
        0
280
     1
281
     0
  0
CLASS
  1
AMDTDMMENUSTATE
  2
AmdtDmMenuState
  3
AcMechDwgViewMgmt
 90
        0
280
     1
281
     0
  0
CLASS
  1
AMDTAMMENUSTATE
  2
AmdtAmMenuState
  3
DesignerAssemblies
 90
        0
280
     1
281
     0
  0
CLASS
  1
ACIMSTRSYSVAR
  2
AcImStrSysVar
  3
AcMeServices
 90
        0
280
     1
281
     0
  0
CLASS
  1
ACAMPROJECT
  2
AcAmProject
  3
DesignerAssemblies
 90
        0
280
     1
281
     0
  0
CLASS
  1
ACAMGRCOMPDEF
  2
AcAmGrCompDef
  3
DesignerAssemblies
 90
        0
280
     1
281
     0
  0
CLASS
  1
ACCMCONTEXT
  2
AcCmContext
  3
DesignerAssemblies
 90
        0
280
     1
281
     0
  0
CLASS
  1
ACAMCOMPDEF
  2
AcAmCompDef
  3
DesignerAssemblies
 90
        0
280
     1
281
     0
  0
CLASS
  1
ACAMCOMPDEFMGR
  2
AcAmCompDefMgr
  3
DesignerAssemblies
 90
        0
280
     1
281
     0
  0
CLASS
  1
AMCONTEXTMGR
  2
AcAmContextMgr
  3
DesignerAssemblies
 90
        0
280
     1
281
     0
  0
CLASS
  1
ACAMCONTEXTMODELER
  2
AcAmContextModeler
  3
DesignerAssemblies
 90
        0
280
     1
281
     0
  0
CLASS
  1
ACMDATADICTIONARY
  2
AcmDataDictionary
  3
"AcmSymBB|Product Description: AutoCAD Mechanical 2004 DX|Company: Autodesk"
 90
        0
280
     1
281
     0
  0
CLASS
  1
CATALOGSTATE
  2
AcAmCatalogState
  3
DesignerAssemblies
 90
        0
280
     1
281
     0
  0
CLASS
  1
ACAMGRCOMPDEFSET
  2
AcAmGrCompDefSet
  3
DesignerAssemblies
 90
        0
280
     1
281
     0
  0
CLASS
  1
AMDTBROWSERDBTAB
  2
AmdtBrowserDbTab
  3
McadcomServices
 90
        0
280
     1
281
     0
  0
CLASS
  1
CBROWSERAPPOBJECT
  2
CBrowserAppObject
  3
McadcomServices
 90
        0
280
     1
281
     0
  0
CLASS
  1
DM_PLACEHOLDER
  2
AcDmSelsetPlaceholder
  3
AcMechDwgViewMgmt
 90
        0
280
     1
281
     0
  0
CLASS
  1
ACMSTANDARDANSI
  2
AcmStandardANSI
  3
"Amdt_StdImp|Product Description: AutoCAD Mechanical 2004 DX|Company: Autodesk"
 90
        0
280
     1
281
     0
  0
CLASS
  1
AMGOBJPROPCFG
  2
AmgObjPropCfg
  3
"AmgLay|Product Description: AutoCAD Mechanical 2000|Company: Autodesk"
 90
        1
280
     1
281
     0
  0
CLASS
  1
ACMSURFSTANDARDANSI
  2
AcmSurfTextStdANSI
  3
"Amdt_StdImp|Product Description: AutoCAD Mechanical 2004 DX|Company: Autodesk"
 90
        0
280
     1
281
     0
  0
CLASS
  1
ACMFCFSTANDARDANSI
  2
AcmFCFStdANSI
  3
"Amdt_StdImp|Product Description: AutoCAD Mechanical 2004 DX|Company: Autodesk"
 90
        0
280
     1
281
     0
  0
CLASS
  1
ACMWELDSTANDARDANSI
  2
AcmWeldingStdANSI
  3
"Amdt_StdImp|Product Description: AutoCAD Mechanical 2004 DX|Company: Autodesk"
 90
        0
280
     1
281
     0
  0
CLASS
  1
ACMIDSTANDARDANSI
  2
AcmIdStdANSI
  3
"Amdt_StdImp|Product Description: AutoCAD Mechanical 2004 DX|Company: Autodesk"
 90
        0
280
     1
281
     0
  0
CLASS
  1
ACMDATUMSTANDARDANSI
  2
AcmDatumStdANSI
  3
"Amdt_StdImp|Product Description: AutoCAD Mechanical 2004 DX|Company: Autodesk"
 90
        0
280
     1
281
     0
  0
CLASS
  1
ACMBOMSTANDARDANSI
  2
AcmBOMStdANSI
  3
"Amdt_StdImp|Product Description: AutoCAD Mechanical 2004 DX|Company: Autodesk"
 90
        0
280
     1
281
     0
  0
CLASS
  1
ACMDETAILSTANDARDANSI
  2
AmdtDetailSymStdANSI
  3
"Amdt_StdImp|Product Description: AutoCAD Mechanical 2004 DX|Company: Autodesk"
 90
        0
280
     1
281
     0
  0
CLASS
  1
ACMSECTIONSTANDARDANSI
  2
AmdtSectionSymStdANSI
  3
"Amdt_StdImp|Product Description: AutoCAD Mechanical 2004 DX|Company: Autodesk"
 90
        0
280
     1
281
     0
  0
CLASS
  1
ACMCENTERLINESTANDARDANSI
  2
AmdtCenterLineStdANSI
  3
"Amdt_StdImp|Product Description: AutoCAD Mechanical 2004 DX|Company: Autodesk"
 90
        0
280
     1
281
     0
  0
CLASS
  1
ACMTHREADLINESTANDARDANSI
  2
AmdtThreadLineStdANSI
  3
"Amdt_StdImp|Product Description: AutoCAD Mechanical 2004 DX|Company: Autodesk"
 90
        0
280
     1
281
     0
  0
CLASS
  1
ACMNOTESTANDARDANSI
  2
AmdtNoteStdANSI
  3
"Amdt_StdImp|Product Description: AutoCAD Mechanical 2004 DX|Company: Autodesk"
 90
        0
280
     1
281
     0
  0
CLASS
  1
AMDTNOTETEMPLATEDB
  2
AmdtNoteTemplateDB
  3
AMDT_STDIMP_MODULE_NAME
 90
        0
280
     1
281
     0
  0
CLASS
  1
ACAMGLAYSTD
  2
AcAmgLayStd
  3
"AcAmgLayStd|Product Description: AutoCAD Mechanical 2000|Company: Autodesk"
 90
        0
280
     1
281
     0
  0
CLASS
  1
ACAMGDIMSTD
  2
AcAmgDimStd
  3
"AcAmgDimStd|Product Description: AutoCAD Mechanical 2000|Company: Autodesk"
 90
        0
280
     1
281
     0
  0
CLASS
  1
ACAMGHOLECHARTSTDANSI
  2
AcAmgHoleChartStdANSI
  3
ACMSYMBB_MODULE_NAME
 90
        0
280
     1
281
     0
  0
CLASS
  1
ACAMGTITLESTD
  2
AcAmgTitleStd
  3
"TITLEAPP"
 90
        0
280
     1
281
     0
  0
CLASS
  1
ACAMGFILTERDAT
  2
AcAmgFilterDat
  3
"AcadM|Product Description: AutoCAD Mechanical 2000|Company: Autodesk"
 90
        0
280
     1
281
     0
  0
CLASS
  1
DICTIONARYVAR
  2
AcDbDictionaryVar
  3
ObjectDBX Classes
 90
        0
280
     0
281
     0
  0
CLASS
  1
ACMDATAENTRYBLOCK
  2
AcmDataEntryBlock
  3
"AcmSymBB|Product Description: AutoCAD Mechanical 2004 DX|Company: Autodesk"
 90
        0
280
     1
281
     0
  0
CLASS
  1
AMDTNOTE
  2
AmdtNote
  3
"AcmSymBB|Product Description: AutoCAD Mechanical 2004 DX|Company: Autodesk"
 90
     1023
280
     1
281
     1
  0
CLASS
  1
ACMSTANDARDJIS
  2
AcmStandardJIS
  3
"Amdt_StdImp|Product Description: AutoCAD Mechanical 2004 DX|Company: Autodesk"
 90
        0
280
     1
281
     0
  0
CLASS
  1
ACMSURFSTANDARDJIS
  2
AcmSurfTextStdJIS
  3
"Amdt_StdImp|Product Description: AutoCAD Mechanical 2004 DX|Company: Autodesk"
 90
        0
280
     1
281
     0
  0
CLASS
  1
ACMFCFSTANDARDJIS
  2
AcmFCFStdJIS
  3
"Amdt_StdImp|Product Description: AutoCAD Mechanical 2004 DX|Company: Autodesk"
 90
        0
280
     1
281
     0
  0
CLASS
  1
ACMWELDSTANDARDJIS
  2
AcmWeldingStdJIS
  3
"Amdt_StdImp|Product Description: AutoCAD Mechanical 2004 DX|Company: Autodesk"
 90
        0
280
     1
281
     0
  0
CLASS
  1
ACMIDSTANDARDJIS
  2
AcmIdStdJIS
  3
"Amdt_StdImp|Product Description: AutoCAD Mechanical 2004 DX|Company: Autodesk"
 90
        0
280
     1
281
     0
  0
CLASS
  1
ACMDATUMSTANDARDJIS
  2
AcmDatumStdJIS
  3
"Amdt_StdImp|Product Description: AutoCAD Mechanical 2004 DX|Company: Autodesk"
 90
        0
280
     1
281
     0
  0
CLASS
  1
ACMBOMSTANDARDJIS
  2
AcmBOMStdJIS
  3
"Amdt_StdImp|Product Description: AutoCAD Mechanical 2004 DX|Company: Autodesk"
 90
        0
280
     1
281
     0
  0
CLASS
  1
ACMDETAILSTANDARDJIS
  2
AmdtDetailSymStdJIS
  3
"Amdt_StdImp|Product Description: AutoCAD Mechanical 2004 DX|Company: Autodesk"
 90
        0
280
     1
281
     0
  0
CLASS
  1
ACMSECTIONSTANDARDJIS
  2
AmdtSectionSymStdJIS
  3
"Amdt_StdImp|Product Description: AutoCAD Mechanical 2004 DX|Company: Autodesk"
 90
        0
280
     1
281
     0
  0
CLASS
  1
ACMCENTERLINESTANDARDJIS
  2
AmdtCenterLineStdJIS
  3
"Amdt_StdImp|Product Description: AutoCAD Mechanical 2004 DX|Company: Autodesk"
 90
        0
280
     1
281
     0
  0
CLASS
  1
ACMTHREADLINESTANDARDJIS
  2
AmdtThreadLineStdJIS
  3
"Amdt_StdImp|Product Description: AutoCAD Mechanical 2004 DX|Company: Autodesk"
 90
        0
280
     1
281
     0
  0
CLASS
  1
ACMNOTESTANDARDJIS
  2
AmdtNoteStdJIS
  3
"Amdt_StdImp|Product Description: AutoCAD Mechanical 2004 DX|Company: Autodesk"
 90
        0
280
     1
281
     0
  0
CLASS
  1
ACAMGHOLECHARTSTDJIS
  2
AcAmgHoleChartStdJIS
  3
ACMSYMBB_MODULE_NAME
 90
        0
280
     1
281
     0
  0
CLASS
  1
ACDBPLACEHOLDER
  2
AcDbPlaceHolder
  3
ObjectDBX Classes
 90
        0
280
     0
281
     0
  0
CLASS
  1
LAYOUT
  2
AcDbLayout
  3
ObjectDBX Classes
 90
        0
280
     0
281
     0
  0
ENDSEC
  0
SECTION
  2
TABLES
  0
TABLE
  2
VPORT
  5
8
330
0
100
AcDbSymbolTable
 70
     3
  0
VPORT
  5
791
330
8
100
AcDbSymbolTableRecord
100
AcDbViewportTableRecord
  2
*Active
 70
     0
 10
0.0
 20
0.0
 11
1.0
 21
1.0
 12
32.61815185724255
 22
6.307664785285212
 13
0.0
 23
0.0
 14
0.5
 24
0.5
 15
0.0
 25
0.0
 16
0.0
 26
0.0
 36
1.0
 17
0.0
 27
0.0
 37
0.0
 40
165.0518718090172
 41
1.372924648786718
 42
50.0
 43
0.0
 44
0.0
 50
0.0
 51
0.0
 71
     0
 72
 10000
 73
     1
 74
     1
 75
     0
 76
     0
 77
     0
 78
     0
281
     0
 65
     0
110
0.0
120
0.0
130
0.0
111
1.0
121
0.0
131
0.0
112
0.0
122
1.0
132
0.0
 79
     0
146
0.0
  0
ENDTAB
  0
TABLE
  2
LTYPE
  5
5
330
0
100
AcDbSymbolTable
 70
    13
  0
LTYPE
  5
13
330
5
100
AcDbSymbolTableRecord
100
AcDbLinetypeTableRecord
  2
ByBlock
 70
     0
  3

 72
    65
 73
     0
 40
0.0
  0
LTYPE
  5
14
330
5
100
AcDbSymbolTableRecord
100
AcDbLinetypeTableRecord
  2
ByLayer
 70
     0
  3

 72
    65
 73
     0
 40
0.0
  0
LTYPE
  5
15
330
5
100
AcDbSymbolTableRecord
100
AcDbLinetypeTableRecord
  2
CONTINUOUS
 70
     0
  3
solid line
 72
    65
 73
     0
 40
0.0
  0
LTYPE
  5
27
330
5
100
AcDbSymbolTableRecord
100
AcDbLinetypeTableRecord
  2
CENTER
 70
     0
  3
--- - --- - --- - --- - --- - 
 72
    65
 73
     4
 40
6.0
 49
3.0
 74
     0
 49
-1.0
 74
     0
 49
1.0
 74
     0
 49
-1.0
 74
     0
  0
LTYPE
  5
28
330
5
100
AcDbSymbolTableRecord
100
AcDbLinetypeTableRecord
  2
PHANTOM
 70
     0
  3
----- - - ----- - - ----- - - 
 72
    65
 73
     6
 40
8.0
 49
3.0
 74
     0
 49
-1.0
 74
     0
 49
1.0
 74
     0
 49
-1.0
 74
     0
 49
1.0
 74
     0
 49
-1.0
 74
     0
  0
LTYPE
  5
35A
330
5
100
AcDbSymbolTableRecord
100
AcDbLinetypeTableRecord
  2
HIDDEN
 70
     0
  3
Hidden __ __ __ __ __ __ __ __ __ __ __ __ __ _
 72
    65
 73
     2
 40
0.375
 49
0.25
 74
     0
 49
-0.125
 74
     0
  0
LTYPE
  5
35B
330
5
100
AcDbSymbolTableRecord
100
AcDbLinetypeTableRecord
  2
PHANTOM2
 70
     0
  3
Phantom (.5x) ___ _ _ ___ _ _ ___ _ _ ___ _ _
 72
    65
 73
     6
 40
1.25
 49
0.625
 74
     0
 49
-0.125
 74
     0
 49
0.125
 74
     0
 49
-0.125
 74
     0
 49
0.125
 74
     0
 49
-0.125
 74
     0
  0
LTYPE
  5
396
330
5
100
AcDbSymbolTableRecord
100
AcDbLinetypeTableRecord
  2
Amconstr
 70
     0
  3
_______________________
 72
    65
 73
     2
 40
9999.0
 49
9999.0
 74
     0
 49
0.0
 74
     0
  0
LTYPE
  5
39C
330
5
100
AcDbSymbolTableRecord
100
AcDbLinetypeTableRecord
  2
CENTER2
 70
     0
  3
Center (.5x) ___ _ ___ _ ___ _ ___ _ ___ _ ___
 72
    65
 73
     4
 40
1.125
 49
0.75
 74
     0
 49
-0.125
 74
     0
 49
0.125
 74
     0
 49
-0.125
 74
     0
  0
LTYPE
  5
39D
330
5
100
AcDbSymbolTableRecord
100
AcDbLinetypeTableRecord
  2
HIDDEN2
 70
     0
  3
Hidden (.5x) _ _ _ _ _ _ _ _ _ _ _ _ _ _ _ _ _
 72
    65
 73
     2
 40
0.1875
 49
0.125
 74
     0
 49
-0.0625
 74
     0
  0
LTYPE
  5
39E
330
5
100
AcDbSymbolTableRecord
100
AcDbLinetypeTableRecord
  2
Amzigzag2
 70
     0
  3
/\/-/\/-/\/-/\/-/\/-/\/
 72
    65
 73
     2
 40
0.4401
 49
0.0001
 74
     4
 75
   135
340
39A
 46
0.0016
 50
0.0
 44
0.0
 45
0.0
 49
-0.44
 74
     0
  0
LTYPE
  5
3AC
330
5
100
AcDbSymbolTableRecord
100
AcDbLinetypeTableRecord
  2
ACANSTGB
 70
     0
  3
__ . . __ . .
 72
    65
 73
     6
 40
0.35433070866
 49
0.15748031496
 74
     0
 49
-0.03937007874
 74
     0
 49
0.03937007874
 74
     0
 49
-0.03937007874
 74
     0
 49
0.03937007874
 74
     0
 49
-0.03937007874
 74
     0
  0
LTYPE
  5
3AD
330
5
100
AcDbSymbolTableRecord
100
AcDbLinetypeTableRecord
  2
ACANSTGL
 70
     0
  3
_ _ _ _ _
 72
    65
 73
     2
 40
0.11811023622
 49
0.07874015748
 74
     0
 49
-0.03937007874
 74
     0
  0
LTYPE
  5
61F
330
5
100
AcDbSymbolTableRecord
100
AcDbLinetypeTableRecord
  2
ACJISTGB
 70
     0
  3
__ . . __ . .
 72
    65
 73
     6
 40
9.0
 49
4.0
 74
     0
 49
-1.0
 74
     0
 49
1.0
 74
     0
 49
-1.0
 74
     0
 49
1.0
 74
     0
 49
-1.0
 74
     0
  0
LTYPE
  5
620
330
5
100
AcDbSymbolTableRecord
100
AcDbLinetypeTableRecord
  2
ACJISTGL
 70
     0
  3
_ _ _ _ _
 72
    65
 73
     2
 40
3.0
 49
2.0
 74
     0
 49
-1.0
 74
     0
  0
ENDTAB
  0
TABLE
  2
LAYER
  5
2
102
{ACAD_XDICTIONARY
360
62E
102
}
330
0
100
AcDbSymbolTable
 70
     8
  0
LAYER
  5
10
330
2
100
AcDbSymbolTableRecord
100
AcDbLayerTableRecord
  2
0
 70
     0
 62
     7
  6
CONTINUOUS
370
    -3
390
F
  0
LAYER
  5
29
330
2
100
AcDbSymbolTableRecord
100
AcDbLayerTableRecord
  2
1
 70
     0
 62
     7
  6
CONTINUOUS
370
    -3
390
F
  0
LAYER
  5
2A
330
2
100
AcDbSymbolTableRecord
100
AcDbLayerTableRecord
  2
2
 70
     0
 62
     7
  6
CONTINUOUS
370
    -3
390
F
  0
LAYER
  5
2C
330
2
100
AcDbSymbolTableRecord
100
AcDbLayerTableRecord
  2
6
 70
     0
 62
     7
  6
CONTINUOUS
370
    -3
390
F
  0
LAYER
  5
30
330
2
100
AcDbSymbolTableRecord
100
AcDbLayerTableRecord
  2
DEFPOINTS
 70
     0
 62
    -7
  6
CONTINUOUS
290
     0
370
    -3
390
F
  0
LAYER
  5
402
330
2
100
AcDbSymbolTableRecord
100
AcDbLayerTableRecord
  2
AM_5
 70
     0
 62
     3
  6
CONTINUOUS
370
    15
390
F
  0
LAYER
  5
621
330
2
100
AcDbSymbolTableRecord
100
AcDbLayerTableRecord
  2
AM_0
 70
     0
 62
     7
  6
CONTINUOUS
370
    30
390
F
  0
LAYER
  5
622
330
2
100
AcDbSymbolTableRecord
100
AcDbLayerTableRecord
  2
AM_6
 70
     0
 62
     2
  6
CONTINUOUS
370
    30
390
F
  0
ENDTAB
  0
TABLE
  2
STYLE
  5
3
330
0
100
AcDbSymbolTable
 70
     6
  0
STYLE
  5
11
330
3
100
AcDbSymbolTableRecord
100
AcDbTextStyleTableRecord
  2
STANDARD
 70
     0
 40
0.0
 41
1.0
 50
0.0
 71
     0
 42
3.0
  3
txt
  4

  0
STYLE
  5
39A
330
3
100
AcDbSymbolTableRecord
100
AcDbTextStyleTableRecord
  2

 70
     1
 40
0.0
 41
1.0
 50
0.0
 71
     0
 42
3.0
  3
ltypeshp.shx
  4

  0
STYLE
  5
39F
330
3
100
AcDbSymbolTableRecord
100
AcDbTextStyleTableRecord
  2
ACANSTS
 70
     0
 40
1.0
 41
1.0
 50
0.0
 71
     0
 42
3.0
  3
romans.shx
  4
extfont.shx
  0
STYLE
  5
3AB
330
3
100
AcDbSymbolTableRecord
100
AcDbTextStyleTableRecord
  2
ACANSGDT
 70
     0
 40
0.0
 41
1.0
 50
0.0
 71
     0
 42
3.0
  3
amgdtans.shx
  4

  0
STYLE
  5
623
330
3
100
AcDbSymbolTableRecord
100
AcDbTextStyleTableRecord
  2
ACJISTS
 70
     0
 40
1.0
 41
1.0
 50
0.0
 71
     0
 42
2.5
  3
isocp.shx
  4
bigfont.shx
  0
STYLE
  5
624
330
3
100
AcDbSymbolTableRecord
100
AcDbTextStyleTableRecord
  2
ACJISGDT
 70
     0
 40
0.0
 41
1.0
 50
0.0
 71
     0
 42
2.5
  3
amgdt.shx
  4

  0
ENDTAB
  0
TABLE
  2
VIEW
  5
6
330
0
100
AcDbSymbolTable
 70
     0
  0
ENDTAB
  0
TABLE
  2
UCS
  5
7
330
0
100
AcDbSymbolTable
 70
     0
  0
ENDTAB
  0
TABLE
  2
APPID
  5
9
330
0
100
AcDbSymbolTable
 70
     9
  0
APPID
  5
12
330
9
100
AcDbSymbolTableRecord
100
AcDbRegAppTableRecord
  2
ACAD
 70
     0
  0
APPID
  5
32D
330
9
100
AcDbSymbolTableRecord
100
AcDbRegAppTableRecord
  2
MCAD_NO_VIS
 70
     0
  0
APPID
  5
32E
330
9
100
AcDbSymbolTableRecord
100
AcDbRegAppTableRecord
  2
ACAD_TEMP_GRAPHIC
 70
     0
  0
APPID
  5
35D
330
9
100
AcDbSymbolTableRecord
100
AcDbRegAppTableRecord
  2
AD_DRAW
 70
     0
  0
APPID
  5
360
330
9
100
AcDbSymbolTableRecord
100
AcDbRegAppTableRecord
  2
ACATTRIBSERVICES
 70
     0
  0
APPID
  5
382
330
9
100
AcDbSymbolTableRecord
100
AcDbRegAppTableRecord
  2
DESIGNERASSEMBLIES
 70
     0
  0
APPID
  5
388
330
9
100
AcDbSymbolTableRecord
100
AcDbRegAppTableRecord
  2
ACADM_DIM_EDIT
 70
     0
  0
APPID
  5
389
330
9
100
AcDbSymbolTableRecord
100
AcDbRegAppTableRecord
  2
AMDT_DM_ADJ
 70
     0
  0
APPID
  5
3CC
330
9
100
AcDbSymbolTableRecord
100
AcDbRegAppTableRecord
  2
ACAD_PSEXT
 70
     0
  0
ENDTAB
  0
TABLE
  2
DIMSTYLE
  5
A
330
0
100
AcDbSymbolTable
 70
    18
100
AcDbDimStyleTable
  0
DIMSTYLE
105
32A
330
A
100
AcDbSymbolTableRecord
100
AcDbDimStyleTableRecord
  2
Standard
 70
     0
340
11
  0
DIMSTYLE
105
3B8
330
A
100
AcDbSymbolTableRecord
100
AcDbDimStyleTableRecord
  2
AM_ANSI
 70
     0
  4
mm
 41
0.1
 42
0.05
 43
0.5
 44
0.1
 47
0.1
 48
0.1
 78
     7
 79
     2
140
0.12
141
0.0
146
0.71
147
0.06
176
   256
177
   256
178
     2
274
     4
284
     7
340
11
371
    -1
372
    -1
  0
DIMSTYLE
105
3BB
330
A
100
AcDbSymbolTableRecord
100
AcDbDimStyleTableRecord
  2
AM_ANSI$7
 70
     0
  4
mm
 41
0.1
 42
0.05
 43
0.5
 44
0.1
 47
0.1
 48
0.1
 78
     7
 79
     2
140
0.24
141
0.0
146
0.71
147
0.06
176
   256
177
   256
178
     2
274
     4
284
     7
340
11
371
    -1
372
    -1
  0
DIMSTYLE
105
3BC
330
A
100
AcDbSymbolTableRecord
100
AcDbDimStyleTableRecord
  2
AM_ANSI$SF
 70
     0
  4
mm
 41
0.1
 42
0.05
 43
0.5
 44
0.1
 47
0.1
 48
0.1
 75
     1
 76
     1
 78
     7
 79
     2
140
0.12
141
0.0
146
0.71
147
0.06
176
   256
177
   256
178
     2
274
     4
284
     7
340
11
371
    -1
372
    -1
  0
DIMSTYLE
105
3C1
330
A
100
AcDbSymbolTableRecord
100
AcDbDimStyleTableRecord
  2
AM_ANSI$SH
 70
     0
  4
mm
 41
0.1
 42
0.05
 43
0.5
 44
0.1
 47
0.1
 48
0.1
 75
     1
 76
     1
 78
     7
 79
     2
140
0.12
141
0.0
146
0.71
147
0.06
173
     1
176
   256
177
   256
178
     2
274
     4
284
     7
340
11
343
3BD
371
    -1
372
    -1
  0
DIMSTYLE
105
421
102
{ACAD_REACTORS
330
422
330
568
102
}
330
A
100
AcDbSymbolTableRecord
100
AcDbDimStyleTableRecord
  2
Standard$2
 70
     0
340
11
  0
DIMSTYLE
105
45C
102
{ACAD_REACTORS
330
460
330
48F
330
4C5
330
4E9
330
51C
330
54D
102
}
330
A
100
AcDbSymbolTableRecord
100
AcDbDimStyleTableRecord
  2
Standard$0
 70
     0
340
11
  0
DIMSTYLE
105
5A1
330
A
100
AcDbSymbolTableRecord
100
AcDbDimStyleTableRecord
  2
Standard$4
 70
     0
340
11
  0
DIMSTYLE
105
5B3
102
{ACAD_REACTORS
330
5B4
102
}
330
A
100
AcDbSymbolTableRecord
100
AcDbDimStyleTableRecord
  2
Standard$3
 70
     0
340
11
  0
DIMSTYLE
105
625
330
A
100
AcDbSymbolTableRecord
100
AcDbDimStyleTableRecord
  2
AM_JIS
 70
     0
  4
"
 41
2.5
 42
0.0
 43
10.0
 44
1.0
 47
0.1
 48
0.1000000001
 73
     0
 74
     0
 77
     3
 78
     1
 79
     2
140
3.8
141
0.0
143
0.0393701
146
0.71
147
1.5
172
     1
176
   256
177
   256
178
     2
179
     1
271
     2
272
     2
275
     1
283
     0
284
     8
340
11
341
619
342
619
371
    -1
372
    -1
  0
DIMSTYLE
105
626
330
A
100
AcDbSymbolTableRecord
100
AcDbDimStyleTableRecord
  2
AM_JIS$3
 70
     0
  4
"
 41
2.5
 42
0.0
 43
10.0
 44
1.0
 47
0.1
 48
0.1000000001
 73
     0
 77
     3
 78
     1
 79
     2
140
3.8
141
0.0
143
0.0393701
146
0.71
147
1.5
172
     1
176
   256
177
   256
178
     2
179
     1
271
     2
272
     2
275
     1
283
     0
284
     8
288
     1
289
     0
340
11
341
619
342
619
371
    -1
372
    -1
  0
DIMSTYLE
105
627
330
A
100
AcDbSymbolTableRecord
100
AcDbDimStyleTableRecord
  2
AM_JIS$4
 70
     0
  4
"
 41
2.5
 42
0.0
 43
10.0
 44
1.0
 47
0.1
 48
0.1000000001
 73
     0
 77
     3
 78
     1
 79
     2
140
3.8
141
0.0
143
0.0393701
146
0.71
147
1.5
172
     1
176
   256
177
   256
178
     2
179
     1
271
     2
272
     2
275
     1
283
     0
284
     8
288
     1
289
     0
340
11
341
619
342
619
371
    -1
372
    -1
  0
DIMSTYLE
105
628
330
A
100
AcDbSymbolTableRecord
100
AcDbDimStyleTableRecord
  2
AM_JIS$6
 70
     0
  4
"
 41
2.5
 42
0.0
 43
10.0
 44
1.0
 47
0.1
 48
0.1000000001
 73
     0
 74
     0
 78
     1
 79
     2
140
3.8
141
0.0
143
0.0393701
146
0.71
147
1.5
172
     1
176
   256
177
   256
178
     2
179
     1
271
     2
272
     2
275
     1
283
     0
284
     8
340
11
341
619
342
619
371
    -1
372
    -1
  0
DIMSTYLE
105
629
330
A
100
AcDbSymbolTableRecord
100
AcDbDimStyleTableRecord
  2
AM_JIS$7
 70
     0
  4
"
 41
2.5
 42
0.0
 43
10.0
 44
1.0
 47
0.1
 48
0.1000000001
 73
     0
 74
     0
 77
     3
 78
     1
 79
     2
140
5.0
141
0.0
143
0.0393701
146
0.71
147
1.5
172
     1
176
   256
177
   256
178
     2
179
     1
271
     2
272
     2
275
     1
283
     0
284
     8
340
11
341
619
342
619
371
    -1
372
    -1
  0
DIMSTYLE
105
62A
330
A
100
AcDbSymbolTableRecord
100
AcDbDimStyleTableRecord
  2
AM_JIS$SF
 70
     0
  4
"
 41
2.5
 42
1.0
 43
10.0
 44
1.0
 47
0.1
 48
0.1
 73
     0
 74
     0
 75
     1
 76
     1
 77
     3
 78
     8
 79
     2
140
3.5
141
0.0
143
0.0393701
146
0.71
147
1.5
176
   256
177
   256
178
     2
271
     2
272
     3
274
     4
340
11
341
619
342
619
343
619
344
619
371
    -1
372
    -1
  0
DIMSTYLE
105
62B
330
A
100
AcDbSymbolTableRecord
100
AcDbDimStyleTableRecord
  2
AM_JIS$SH
 70
     0
  4
"
 41
2.5
 42
1.0
 43
10.0
 44
1.0
 47
0.1
 48
0.1
 73
     0
 74
     0
 75
     1
 76
     1
 77
     3
 78
     8
 79
     2
140
3.5
141
0.0
143
0.0393701
144
2.0
146
0.71
147
1.5
173
     1
176
   256
177
   256
178
     2
271
     2
272
     3
274
     4
340
11
341
619
342
619
343
3BD
344
619
371
    -1
372
    -1
  0
DIMSTYLE
105
62C
330
A
100
AcDbSymbolTableRecord
100
AcDbDimStyleTableRecord
  2
AM_JIS$0
 70
     0
  4
"
 41
2.5
 42
0.0
 43
10.0
 44
1.0
 47
0.1
 48
0.1000000001
 73
     0
 74
     0
 77
     3
 78
     1
 79
     2
140
3.8
141
0.0
143
0.0393701
146
0.71
147
1.5
172
     1
176
     3
177
     3
178
     2
271
     2
272
     2
275
     1
283
     0
284
     8
289
     0
340
11
341
619
342
619
371
    13
372
    13
  0
DIMSTYLE
105
62D
330
A
100
AcDbSymbolTableRecord
100
AcDbDimStyleTableRecord
  2
AM_JIS$2
 70
     0
  4
"
 41
2.5
 42
0.0
 43
10.0
 44
1.0
 47
0.1
 48
0.1000000001
 73
     0
 74
     0
 77
     3
 78
     1
 79
     2
140
3.8
141
0.0
143
0.0393701
146
0.71
147
1.5
172
     1
176
     3
177
     3
178
     2
271
     2
272
     2
275
     1
283
     0
284
     8
289
     0
340
11
341
619
342
619
371
    13
372
    13
  0
ENDTAB
  0
TABLE
  2
BLOCK_RECORD
  5
1
330
0
100
AcDbSymbolTable
 70
    12
  0
BLOCK_RECORD
  5
22
330
1
100
AcDbSymbolTableRecord
100
AcDbBlockTableRecord
  2
*Model_Space
340
25
  0
BLOCK_RECORD
  5
1E
330
1
100
AcDbSymbolTableRecord
100
AcDbBlockTableRecord
  2
*Paper_Space
340
21
  0
BLOCK_RECORD
  5
379
330
1
100
AcDbSymbolTableRecord
100
AcDbBlockTableRecord
  2
*U0
340
0
  0
BLOCK_RECORD
  5
3BD
330
1
100
AcDbSymbolTableRecord
100
AcDbBlockTableRecord
  2
GENAXEH
340
0
  0
BLOCK_RECORD
  5
423
330
1
100
AcDbSymbolTableRecord
100
AcDbBlockTableRecord
  2
*D2
340
0
  0
BLOCK_RECORD
  5
461
330
1
100
AcDbSymbolTableRecord
100
AcDbBlockTableRecord
  2
*D3
340
0
  0
BLOCK_RECORD
  5
490
330
1
100
AcDbSymbolTableRecord
100
AcDbBlockTableRecord
  2
*D4
340
0
  0
BLOCK_RECORD
  5
4C6
330
1
100
AcDbSymbolTableRecord
100
AcDbBlockTableRecord
  2
*D5
340
0
  0
BLOCK_RECORD
  5
4EA
330
1
100
AcDbSymbolTableRecord
100
AcDbBlockTableRecord
  2
*D6
340
0
  0
BLOCK_RECORD
  5
51D
330
1
100
AcDbSymbolTableRecord
100
AcDbBlockTableRecord
  2
*D7
340
0
  0
BLOCK_RECORD
  5
54E
330
1
100
AcDbSymbolTableRecord
100
AcDbBlockTableRecord
  2
*D8
340
0
  0
BLOCK_RECORD
  5
569
330
1
100
AcDbSymbolTableRecord
100
AcDbBlockTableRecord
  2
*D9
340
0
  0
BLOCK_RECORD
  5
5B5
330
1
100
AcDbSymbolTableRecord
100
AcDbBlockTableRecord
  2
*D10
340
0
  0
BLOCK_RECORD
  5
619
330
1
100
AcDbSymbolTableRecord
100
AcDbBlockTableRecord
  2
_Open30
340
0
  0
ENDTAB
  0
ENDSEC
  0
SECTION
  2
BLOCKS
  0
BLOCK
  5
23
330
22
100
AcDbEntity
  8
0
100
AcDbBlockBegin
  2
*Model_Space
 70
     0
 71
     0
 10
0.0
 20
0.0
 30
0.0
  3
*Model_Space
  1

  0
ENDBLK
  5
24
330
22
100
AcDbEntity
  8
0
100
AcDbBlockEnd
  0
BLOCK
  5
1F
330
1E
100
AcDbEntity
 67
     1
  8
0
100
AcDbBlockBegin
  2
*Paper_Space
 70
     0
 71
     0
 10
0.0
 20
0.0
 30
0.0
  3
*Paper_Space
  1

  0
ENDBLK
  5
20
330
1E
100
AcDbEntity
 67
     1
  8
0
100
AcDbBlockEnd
  0
BLOCK
  5
37A
330
379
100
AcDbEntity
  8
0
100
AcDbBlockBegin
  2
*U0
 70
     1
 71
     0
 10
0.0
 20
0.0
 30
0.0
  3
*U0
  1

  0
ENDBLK
  5
37B
330
379
100
AcDbEntity
  8
0
100
AcDbBlockEnd
  0
BLOCK
  5
3BF
330
3BD
100
AcDbEntity
  8
0
100
AcDbBlockBegin
  2
GENAXEH
 70
     0
 71
     0
 10
0.0
 20
0.0
 30
0.0
  3
GENAXEH
  1

  0
LINE
  5
3BE
330
3BD
100
AcDbEntity
  8
0
100
AcDbLine
 10
-1.0
 20
0.0
 30
0.0
 11
1.0
 21
0.0
 31
0.0
  0
ENDBLK
  5
3C0
330
3BD
100
AcDbEntity
  8
0
100
AcDbBlockEnd
  0
BLOCK
  5
432
330
423
100
AcDbEntity
  8
0
100
AcDbBlockBegin
  2
*D2
 70
     1
 71
     0
 10
0.0
 20
0.0
 30
0.0
  3
*D2
  1

  0
LINE
  5
6FB
330
423
100
AcDbEntity
  8
AM_5
 62
     0
370
    -2
100
AcDbLine
 10
-0.0621533845696536
 20
1.084364878545923
 30
0.0
 11
-1.385070166502707
 21
26.32712148734234
 31
0.0
  0
LINE
  5
6FC
330
423
100
AcDbEntity
  8
AM_5
 62
     0
370
    -2
100
AcDbLine
 10
-0.8578655248664485
 20
0.6156546095434576
 30
0.0
 11
-22.2943150911676
 21
14.01063501319774
 31
0.0
  0
ARC
  5
6FD
330
423
100
AcDbEntity
  8
AM_5
 62
     0
370
    -2
100
AcDbCircle
 10
-0.0098174297042503
 20
0.0857353437191556
 30
0.0
 40
24.27739840297761
100
AcDbArc
 50
100.0846507182695
 51
140.9153490951973
  0
SOLID
  5
6FE
330
423
100
AcDbEntity
  8
AM_5
 62
     0
100
AcDbTrace
 10
-4.317830710607319
 20
24.48479494618862
 30
0.0
 11
-4.203893560183723
 21
23.49130698664741
 31
0.0
 12
-1.280398256771901
 22
24.3298624176888
 32
0.0
 13
-1.280398256771901
 23
24.3298624176888
 33
0.0
  0
SOLID
  5
6FF
330
423
100
AcDbEntity
  8
AM_5
 62
     0
100
AcDbTrace
 10
-18.4474631404857
 20
15.10120334056186
 30
0.0
 11
-19.26114946018483
 21
15.68250754073118
 31
0.0
 12
-20.59821890084321
 22
12.95079648154913
 32
0.0
 13
-20.59821890084321
 23
12.95079648154913
 33
0.0
  0
MTEXT
  5
700
330
423
100
AcDbEntity
  8
AM_5
 62
     0
100
AcDbMText
 10
-13.64605279448119
 20
23.23546929512193
 30
0.0
 40
5.0
 41
0.0
 71
     5
 72
     1
  1
\A1;55°
 11
0.8616291612677016
 21
0.5075383615581358
 31
0.0
 73
     1
 44
1.0
  0
POINT
  5
701
330
423
100
AcDbEntity
  8
DEFPOINTS
 62
     0
100
AcDbPoint
 10
-8.841769967709142
 20
22.6996400835762
 30
0.0
  0
POINT
  5
702
330
423
100
AcDbEntity
  8
DEFPOINTS
 62
     0
100
AcDbPoint
 10
0.0001356778666377
 20
-0.1041812673211666
 30
0.0
  0
POINT
  5
703
330
423
100
AcDbEntity
  8
DEFPOINTS
 62
     0
100
AcDbPoint
 10
9.851181678473949
 20
-6.076100803911656
 30
0.0
  0
POINT
  5
704
330
423
100
AcDbEntity
  8
DEFPOINTS
 62
     0
100
AcDbPoint
 10
0.1514620110392571
 20
-0.0150432363152788
 30
0.0
  0
POINT
  5
705
330
423
100
AcDbEntity
  8
DEFPOINTS
 62
     0
100
AcDbPoint
 10
0.5987386628985405
 20
-11.52620694786317
 30
0.0
  0
ENDBLK
  5
433
330
423
100
AcDbEntity
  8
0
100
AcDbBlockEnd
  0
BLOCK
  5
46C
330
461
100
AcDbEntity
  8
0
100
AcDbBlockBegin
  2
*D3
 70
     1
 71
     0
 10
0.0
 20
0.0
 30
0.0
  3
*D3
  1

  0
LINE
  5
706
330
461
100
AcDbEntity
  8
AM_5
 62
     0
370
    -2
100
AcDbLine
 10
-1.0
 20
0.0000000000000003
 30
0.0
 11
-20.53570279749465
 21
0.0000000000000058
 31
0.0
  0
LINE
  5
707
330
461
100
AcDbEntity
  8
AM_5
 62
     0
370
    -2
100
AcDbLine
 10
24.03536858333962
 20
-10.00018880516295
 30
0.0
 11
-20.53570279749465
 21
-10.00018880516294
 31
0.0
  0
LINE
  5
708
330
461
100
AcDbEntity
  8
AM_5
 62
     0
370
    -2
100
AcDbLine
 10
-18.53570279749465
 20
-2.999999999999995
 30
0.0
 11
-18.53570279749465
 21
-7.000188805162936
 31
0.0
  0
SOLID
  5
709
330
461
100
AcDbEntity
  8
AM_5
 62
     0
100
AcDbTrace
 10
-19.03570279749465
 20
-2.999999999999994
 30
0.0
 11
-18.03570279749465
 21
-2.999999999999995
 31
0.0
 12
-18.53570279749465
 22
0.0000000000000053
 32
0.0
 13
-18.53570279749465
 23
0.0000000000000053
 33
0.0
  0
SOLID
  5
70A
330
461
100
AcDbEntity
  8
AM_5
 62
     0
100
AcDbTrace
 10
-19.03570279749465
 20
-7.000188805162936
 30
0.0
 11
-18.03570279749465
 21
-7.000188805162936
 31
0.0
 12
-18.53570279749465
 22
-10.00018880516294
 32
0.0
 13
-18.53570279749465
 23
-10.00018880516294
 33
0.0
  0
MTEXT
  5
70B
330
461
100
AcDbEntity
  8
AM_5
 62
     0
100
AcDbMText
 10
-21.12570279749465
 20
-5.000094402581468
 30
0.0
 40
5.0
 41
0.0
 71
     5
 72
     1
  1
\A1;10
 11
6.123031769111886E-17
 21
1.0
 31
0.0
 73
     1
 44
1.0
  0
POINT
  5
70C
330
461
100
AcDbEntity
  8
DEFPOINTS
 62
     0
100
AcDbPoint
 10
0.0
 20
0.0
 30
0.0
  0
POINT
  5
70D
330
461
100
AcDbEntity
  8
DEFPOINTS
 62
     0
100
AcDbPoint
 10
25.03536858333962
 20
-10.00018880516295
 30
0.0
  0
POINT
  5
70E
330
461
100
AcDbEntity
  8
DEFPOINTS
 62
     0
100
AcDbPoint
 10
-18.53570279749465
 20
-10.00018880516294
 30
0.0
  0
ENDBLK
  5
46D
330
461
100
AcDbEntity
  8
0
100
AcDbBlockEnd
  0
BLOCK
  5
49B
330
490
100
AcDbEntity
  8
0
100
AcDbBlockBegin
  2
*D4
 70
     1
 71
     0
 10
0.0
 20
0.0
 30
0.0
  3
*D4
  1

  0
LINE
  5
70F
330
490
100
AcDbEntity
  8
AM_5
 62
     0
370
    -2
100
AcDbLine
 10
20.25765605903598
 20
1.0
 30
0.0
 11
20.25765605903598
 21
26.32319335663846
 31
0.0
  0
LINE
  5
710
330
490
100
AcDbEntity
  8
AM_5
 62
     0
370
    -2
100
AcDbLine
 10
0.0000000000000001
 20
1.0
 30
0.0
 11
0.0000000000000016
 21
26.32319335663846
 31
0.0
  0
LINE
  5
711
330
490
100
AcDbEntity
  8
AM_5
 62
     0
370
    -2
100
AcDbLine
 10
17.25765605903598
 20
24.32319335663846
 30
0.0
 11
3.000000000000001
 21
24.32319335663846
 31
0.0
  0
SOLID
  5
712
330
490
100
AcDbEntity
  8
AM_5
 62
     0
100
AcDbTrace
 10
17.25765605903598
 20
24.82319335663846
 30
0.0
 11
17.25765605903598
 21
23.82319335663846
 31
0.0
 12
20.25765605903598
 22
24.32319335663846
 32
0.0
 13
20.25765605903598
 23
24.32319335663846
 33
0.0
  0
SOLID
  5
713
330
490
100
AcDbEntity
  8
AM_5
 62
     0
100
AcDbTrace
 10
3.000000000000001
 20
24.82319335663846
 30
0.0
 11
3.000000000000001
 21
23.82319335663846
 31
0.0
 12
0.0000000000000015
 22
24.32319335663846
 32
0.0
 13
0.0000000000000015
 23
24.32319335663846
 33
0.0
  0
MTEXT
  5
714
330
490
100
AcDbEntity
  8
AM_5
 62
     0
100
AcDbMText
 10
10.12882802951799
 20
26.91319335663846
 30
0.0
 40
5.0
 41
0.0
 71
     5
 72
     1
  1
\A1;20
 73
     1
 44
1.0
  0
POINT
  5
715
330
490
100
AcDbEntity
  8
DEFPOINTS
 62
     0
100
AcDbPoint
 10
20.25765605903598
 20
0.0
 30
0.0
  0
POINT
  5
716
330
490
100
AcDbEntity
  8
DEFPOINTS
 62
     0
100
AcDbPoint
 10
0.0
 20
0.0
 30
0.0
  0
POINT
  5
717
330
490
100
AcDbEntity
  8
DEFPOINTS
 62
     0
100
AcDbPoint
 10
0.0000000000000015
 20
24.32319335663846
 30
0.0
  0
ENDBLK
  5
49C
330
490
100
AcDbEntity
  8
0
100
AcDbBlockEnd
  0
BLOCK
  5
4D0
330
4C6
100
AcDbEntity
  8
0
100
AcDbBlockBegin
  2
*D5
 70
     1
 71
     0
 10
0.0
 20
0.0
 30
0.0
  3
*D5
  1

  0
LINE
  5
718
330
4C6
100
AcDbEntity
  8
AM_5
 62
     0
370
    -2
100
AcDbLine
 10
102.0000244900584
 20
-9.000188805162949
 30
0.0
 11
102.0000244900584
 21
26.51066893501472
 31
0.0
  0
LINE
  5
719
330
4C6
100
AcDbEntity
  8
AM_5
 62
     0
370
    -2
100
AcDbLine
 10
78.00002449005842
 20
-9.000188805162964
 30
0.0
 11
78.00002449005842
 21
26.51066893501472
 31
0.0
  0
LINE
  5
71A
330
4C6
100
AcDbEntity
  8
AM_5
 62
     0
370
    -2
100
AcDbLine
 10
99.00002449005842
 20
24.51066893501472
 30
0.0
 11
81.00002449005842
 21
24.51066893501472
 31
0.0
  0
SOLID
  5
71B
330
4C6
100
AcDbEntity
  8
AM_5
 62
     0
100
AcDbTrace
 10
99.00002449005842
 20
25.01066893501472
 30
0.0
 11
99.00002449005842
 21
24.01066893501472
 31
0.0
 12
102.0000244900584
 22
24.51066893501472
 32
0.0
 13
102.0000244900584
 23
24.51066893501472
 33
0.0
  0
SOLID
  5
71C
330
4C6
100
AcDbEntity
  8
AM_5
 62
     0
100
AcDbTrace
 10
81.00002449005842
 20
25.01066893501472
 30
0.0
 11
81.00002449005842
 21
24.01066893501472
 31
0.0
 12
78.00002449005842
 22
24.51066893501472
 32
0.0
 13
78.00002449005842
 23
24.51066893501472
 33
0.0
  0
MTEXT
  5
71D
330
4C6
100
AcDbEntity
  8
AM_5
 62
     0
100
AcDbMText
 10
90.00002449005842
 20
27.10066893501472
 30
0.0
 40
5.0
 41
0.0
 71
     5
 72
     1
  1
\A1;24
 73
     1
 44
1.0
  0
POINT
  5
71E
330
4C6
100
AcDbEntity
  8
DEFPOINTS
 62
     0
100
AcDbPoint
 10
102.0000244900584
 20
-10.00018880516295
 30
0.0
  0
POINT
  5
71F
330
4C6
100
AcDbEntity
  8
DEFPOINTS
 62
     0
100
AcDbPoint
 10
78.00002449005842
 20
-10.00018880516296
 30
0.0
  0
POINT
  5
720
330
4C6
100
AcDbEntity
  8
DEFPOINTS
 62
     0
100
AcDbPoint
 10
78.00002449005842
 20
24.51066893501472
 30
0.0
  0
ENDBLK
  5
4D1
330
4C6
100
AcDbEntity
  8
0
100
AcDbBlockEnd
  0
BLOCK
  5
4F4
330
4EA
100
AcDbEntity
  8
0
100
AcDbBlockBegin
  2
*D6
 70
     1
 71
     0
 10
0.0
 20
0.0
 30
0.0
  3
*D6
  1

  0
LINE
  5
721
330
4EA
100
AcDbEntity
  8
AM_5
 62
     0
370
    -2
100
AcDbLine
 10
91.00002449005842
 20
1.999811194837022
 30
0.0
 11
114.1811957334639
 21
1.999811194837015
 31
0.0
  0
LINE
  5
722
330
4EA
100
AcDbEntity
  8
AM_5
 62
     0
370
    -2
100
AcDbLine
 10
91.00002449005842
 20
-22.00018880516298
 30
0.0
 11
114.1811957334639
 21
-22.00018880516298
 31
0.0
  0
LINE
  5
723
330
4EA
100
AcDbEntity
  8
AM_5
 62
     0
370
    -2
100
AcDbLine
 10
112.1811957334639
 20
-1.000188805162984
 30
0.0
 11
112.1811957334639
 21
-19.00018880516298
 31
0.0
  0
LINE
  5
724
330
4EA
100
AcDbEntity
  8
AM_5
 62
     0
370
    -2
100
AcDbLine
 10
112.1811957334639
 20
-22.00018880516298
 30
0.0
 11
112.1811957334639
 21
-36.811276479066
 31
0.0
  0
SOLID
  5
725
330
4EA
100
AcDbEntity
  8
AM_5
 62
     0
100
AcDbTrace
 10
111.6811957334639
 20
-1.000188805162984
 30
0.0
 11
112.6811957334639
 21
-1.000188805162984
 31
0.0
 12
112.1811957334639
 22
1.999811194837016
 32
0.0
 13
112.1811957334639
 23
1.999811194837016
 33
0.0
  0
SOLID
  5
726
330
4EA
100
AcDbEntity
  8
AM_5
 62
     0
100
AcDbTrace
 10
111.6811957334639
 20
-19.00018880516298
 30
0.0
 11
112.6811957334639
 21
-19.00018880516298
 31
0.0
 12
112.1811957334639
 22
-22.00018880516298
 32
0.0
 13
112.1811957334639
 23
-22.00018880516298
 33
0.0
  0
MTEXT
  5
727
330
4EA
100
AcDbEntity
  8
AM_5
 62
     0
100
AcDbMText
 10
109.5911957334639
 20
-32.55460981239931
 30
0.0
 40
5.0
 41
0.0
 71
     5
 72
     1
  1
\A1;24
 11
6.123031769111886E-17
 21
1.0
 31
0.0
 73
     1
 44
1.0
  0
POINT
  5
728
330
4EA
100
AcDbEntity
  8
DEFPOINTS
 62
     0
100
AcDbPoint
 10
90.00002449005842
 20
1.999811194837022
 30
0.0
  0
POINT
  5
729
330
4EA
100
AcDbEntity
  8
DEFPOINTS
 62
     0
100
AcDbPoint
 10
90.00002449005842
 20
-22.00018880516298
 30
0.0
  0
POINT
  5
72A
330
4EA
100
AcDbEntity
  8
DEFPOINTS
 62
     0
100
AcDbPoint
 10
112.1811957334639
 20
-22.00018880516298
 30
0.0
  0
ENDBLK
  5
4F5
330
4EA
100
AcDbEntity
  8
0
100
AcDbBlockEnd
  0
BLOCK
  5
528
330
51D
100
AcDbEntity
  8
0
100
AcDbBlockBegin
  2
*D7
 70
     1
 71
     0
 10
0.0
 20
0.0
 30
0.0
  3
*D7
  1

  0
LINE
  5
72B
330
51D
100
AcDbEntity
  8
AM_5
 62
     0
370
    -2
100
AcDbLine
 10
-0.9999783747219908
 20
70.08573534339661
 30
0.0
 11
-14.69049658164772
 21
70.08573534339661
 31
0.0
  0
LINE
  5
72C
330
51D
100
AcDbEntity
  8
AM_5
 62
     0
370
    -2
100
AcDbLine
 10
0.376553819546757
 20
70.08573534339661
 30
0.0
 11
-14.69049658164772
 21
70.08573534339661
 31
0.0
  0
LINE
  5
72D
330
51D
100
AcDbEntity
  8
AM_5
 62
     0
370
    -2
100
AcDbLine
 10
-12.69049658164772
 20
67.08573534339661
 30
0.0
 11
-12.69049658164772
 21
64.08573534339661
 31
0.0
  0
LINE
  5
72E
330
51D
100
AcDbEntity
  8
AM_5
 62
     0
370
    -2
100
AcDbLine
 10
-12.69049658164772
 20
73.08573534339661
 30
0.0
 11
-12.69049658164772
 21
78.76573534339661
 31
0.0
  0
SOLID
  5
72F
330
51D
100
AcDbEntity
  8
AM_5
 62
     0
100
AcDbTrace
 10
-13.19049658164772
 20
67.08573534339661
 30
0.0
 11
-12.19049658164772
 21
67.08573534339661
 31
0.0
 12
-12.69049658164772
 22
70.08573534339661
 32
0.0
 13
-12.69049658164772
 23
70.08573534339661
 33
0.0
  0
SOLID
  5
730
330
51D
100
AcDbEntity
  8
AM_5
 62
     0
100
AcDbTrace
 10
-13.19049658164772
 20
73.08573534339661
 30
0.0
 11
-12.19049658164772
 21
73.08573534339661
 31
0.0
 12
-12.69049658164772
 22
70.08573534339661
 32
0.0
 13
-12.69049658164772
 23
70.08573534339661
 33
0.0
  0
MTEXT
  5
731
330
51D
100
AcDbEntity
  8
AM_5
 62
     0
100
AcDbMText
 10
-15.28049658164773
 20
77.42573534339661
 30
0.0
 40
5.0
 41
0.0
 71
     5
 72
     1
  1
\A1;0
 11
6.123031769111886E-17
 21
1.0
 31
0.0
 73
     1
 44
1.0
  0
POINT
  5
732
330
51D
100
AcDbEntity
  8
DEFPOINTS
 62
     0
100
AcDbPoint
 10
0.0000216252780092
 20
70.08573534339661
 30
0.0
  0
POINT
  5
733
330
51D
100
AcDbEntity
  8
DEFPOINTS
 62
     0
100
AcDbPoint
 10
1.376553819546757
 20
70.08573534339661
 30
0.0
  0
POINT
  5
734
330
51D
100
AcDbEntity
  8
DEFPOINTS
 62
     0
100
AcDbPoint
 10
-12.69049658164772
 20
70.08573534339661
 30
0.0
  0
ENDBLK
  5
529
330
51D
100
AcDbEntity
  8
0
100
AcDbBlockEnd
  0
BLOCK
  5
558
330
54E
100
AcDbEntity
  8
0
100
AcDbBlockBegin
  2
*D8
 70
     1
 71
     0
 10
0.0
 20
0.0
 30
0.0
  3
*D8
  1

  0
LINE
  5
735
330
54E
100
AcDbEntity
  8
AM_5
 62
     0
370
    -2
100
AcDbLine
 10
150.0000244900584
 20
57.3857353433966
 30
0.0
 11
150.0000244900584
 21
43.13608484534569
 31
0.0
  0
LINE
  5
736
330
54E
100
AcDbEntity
  8
AM_5
 62
     0
370
    -2
100
AcDbLine
 10
0.0000216253101825
 20
69.08573534339661
 30
0.0
 11
0.0000216253101809
 21
43.13608484534569
 31
0.0
  0
LINE
  5
737
330
54E
100
AcDbEntity
  8
AM_5
 62
     0
370
    -2
100
AcDbLine
 10
147.0000244900584
 20
45.13608484534569
 30
0.0
 11
3.000021625310181
 21
45.13608484534569
 31
0.0
  0
SOLID
  5
738
330
54E
100
AcDbEntity
  8
AM_5
 62
     0
100
AcDbTrace
 10
147.0000244900584
 20
45.63608484534569
 30
0.0
 11
147.0000244900584
 21
44.63608484534569
 31
0.0
 12
150.0000244900584
 22
45.13608484534569
 32
0.0
 13
150.0000244900584
 23
45.13608484534569
 33
0.0
  0
SOLID
  5
739
330
54E
100
AcDbEntity
  8
AM_5
 62
     0
100
AcDbTrace
 10
3.000021625310181
 20
45.63608484534569
 30
0.0
 11
3.000021625310181
 21
44.63608484534569
 31
0.0
 12
0.000021625310181
 22
45.13608484534569
 32
0.0
 13
0.000021625310181
 23
45.13608484534569
 33
0.0
  0
MTEXT
  5
73A
330
54E
100
AcDbEntity
  8
AM_5
 62
     0
100
AcDbMText
 10
75.0000230576843
 20
47.7260848453457
 30
0.0
 40
5.0
 41
0.0
 71
     5
 72
     1
  1
\A1;150
 73
     1
 44
1.0
  0
POINT
  5
73B
330
54E
100
AcDbEntity
  8
DEFPOINTS
 62
     0
100
AcDbPoint
 10
150.0000244900584
 20
58.3857353433966
 30
0.0
  0
POINT
  5
73C
330
54E
100
AcDbEntity
  8
DEFPOINTS
 62
     0
100
AcDbPoint
 10
0.0000216253101826
 20
70.08573534339661
 30
0.0
  0
POINT
  5
73D
330
54E
100
AcDbEntity
  8
DEFPOINTS
 62
     0
100
AcDbPoint
 10
0.000021625310181
 20
45.13608484534569
 30
0.0
  0
ENDBLK
  5
559
330
54E
100
AcDbEntity
  8
0
100
AcDbBlockEnd
  0
BLOCK
  5
578
330
569
100
AcDbEntity
  8
0
100
AcDbBlockBegin
  2
*D9
 70
     1
 71
     0
 10
0.0
 20
0.0
 30
0.0
  3
*D9
  1

  0
LINE
  5
73E
330
569
100
AcDbEntity
  8
AM_5
 62
     0
370
    -2
100
AcDbLine
 10
-0.0000000000000002
 20
-1.197999998927116
 30
0.0
 11
-0.0000000000000066
 21
-36.11609032526638
 31
0.0
  0
LINE
  5
73F
330
569
100
AcDbEntity
  8
AM_5
 62
     0
370
    -2
100
AcDbLine
 10
0.6510746177639424
 20
-12.52483648268994
 30
0.0
 11
1.884853138998453
 21
-36.06673371010003
 31
0.0
  0
ARC
  5
740
330
569
100
AcDbEntity
  8
AM_5
 62
     0
370
    -2
100
AcDbCircle
 10
0.0
 20
-0.1015923793340236
 30
0.0
 40
34.01449794593235
100
AcDbArc
 50
259.8801405430417
 51
270.0
  0
LINE
  5
741
330
569
100
AcDbEntity
  8
AM_5
 62
     0
370
    -2
100
AcDbLine
 10
-5.976617944654487
 20
-33.58690421090384
 30
0.0
 11
-14.35750370242458
 21
-32.09104380309471
 31
0.0
  0
ARC
  5
742
330
569
100
AcDbEntity
  8
AM_5
 62
     0
370
    -2
100
AcDbCircle
 10
0.0
 20
-0.1015923793340236
 30
0.0
 40
34.01449794593235
100
AcDbArc
 50
259.890011053392
 51
264.945005526696
  0
ARC
  5
743
330
569
100
AcDbEntity
  8
AM_5
 62
     0
370
    -2
100
AcDbCircle
 10
0.0
 20
-0.1015923793340236
 30
0.0
 40
34.01449794593235
100
AcDbArc
 50
278.0549943942684
 51
283.1099888675724
  0
ARC
  5
744
330
569
100
AcDbEntity
  8
AM_5
 62
     0
370
    -2
100
AcDbCircle
 10
0.0
 20
-0.1015923793340236
 30
0.0
 40
34.01449794593235
100
AcDbArc
 50
270.0
 51
272.9999999209644
  0
SOLID
  5
745
330
569
100
AcDbEntity
  8
AM_5
 62
     0
100
AcDbTrace
 10
-2.975032097066333
 20
-33.48428021025939
 30
0.0
 11
-3.019130939929877
 21
-34.48330738309209
 31
0.0
 12
-0.0000000000000062
 22
-34.11609032526637
 32
0.0
 13
-0.0000000000000062
 23
-34.11609032526637
 33
0.0
  0
SOLID
  5
746
330
569
100
AcDbEntity
  8
AM_5
 62
     0
100
AcDbTrace
 10
4.814393210755091
 20
-34.27817933947853
 30
0.0
 11
4.718069762793189
 21
-33.28282925364304
 31
0.0
 12
1.780181229267649
 22
-34.06947464044649
 32
0.0
 13
1.780181229267649
 23
-34.06947464044649
 33
0.0
  0
MTEXT
  5
747
330
569
100
AcDbEntity
  8
AM_5
 62
     0
100
AcDbMText
 10
-9.711977214742468
 20
-30.28926835555552
 30
0.0
 40
5.0
 41
0.0
 71
     5
 72
     1
  1
\A1;3°
 11
0.9844423364647718
 21
-0.1757079570645025
 31
0.0
 73
     1
 44
1.0
  0
POINT
  5
748
330
569
100
AcDbEntity
  8
DEFPOINTS
 62
     0
100
AcDbPoint
 10
1.187088827639887
 20
-34.09536961325036
 30
0.0
  0
POINT
  5
749
330
569
100
AcDbEntity
  8
DEFPOINTS
 62
     0
100
AcDbPoint
 10
0.0001356778666377
 20
-0.1041812673211666
 30
0.0
  0
POINT
  5
74A
330
569
100
AcDbEntity
  8
DEFPOINTS
 62
     0
100
AcDbPoint
 10
0.0
 20
0.0
 30
0.0
  0
POINT
  5
74B
330
569
100
AcDbEntity
  8
DEFPOINTS
 62
     0
100
AcDbPoint
 10
0.0
 20
-0.1979999989271164
 30
0.0
  0
POINT
  5
74C
330
569
100
AcDbEntity
  8
DEFPOINTS
 62
     0
100
AcDbPoint
 10
0.5987386628985405
 20
-11.52620694786317
 30
0.0
  0
ENDBLK
  5
579
330
569
100
AcDbEntity
  8
0
100
AcDbBlockEnd
  0
BLOCK
  5
5BB
330
5B5
100
AcDbEntity
  8
0
100
AcDbBlockBegin
  2
*D10
 70
     1
 71
     0
 10
0.0
 20
0.0
 30
0.0
  3
*D10
  1

  0
LINE
  5
74D
330
5B5
100
AcDbEntity
  8
AM_5
 62
     0
370
    -2
100
AcDbLine
 10
70.11044092331899
 20
-39.56133385370714
 30
0.0
 11
81.23574185950196
 21
-23.02621467538628
 31
0.0
  0
LINE
  5
74E
330
5B5
100
AcDbEntity
  8
AM_5
 62
     0
370
    -2
100
AcDbLine
 10
98.76430712061486
 20
3.02583706506023
 30
0.0
 11
100.4390108079823
 21
5.514886594402256
 31
0.0
  0
MTEXT
  5
74F
330
5B5
100
AcDbEntity
  8
AM_5
 62
     0
100
AcDbMText
 10
71.73336635664688
 20
-32.50961367475067
 30
0.0
 40
5.0
 41
0.0
 71
     5
 72
     1
  1
\A1;\U+220525
 11
0.5582345624558259
 21
0.8296831764473428
 31
0.0
 73
     1
 44
1.0
  0
LINE
  5
750
330
5B5
100
AcDbEntity
  8
AM_5
 62
     0
370
    -2
100
AcDbLine
 10
97.08960343324738
 20
0.5367875357181973
 30
0.0
 11
82.91044554686943
 21
-20.53716514604425
 31
0.0
  0
SOLID
  5
751
330
5B5
100
AcDbEntity
  8
AM_5
 62
     0
100
AcDbTrace
 10
98.34946553239118
 20
3.304954346288142
 30
0.0
 11
99.17914870883851
 21
2.746719783832319
 31
0.0
 12
97.08960343324738
 22
0.5367875357181973
 32
0.0
 13
97.08960343324738
 23
0.5367875357181973
 33
0.0
  0
SOLID
  5
752
330
5B5
100
AcDbEntity
  8
AM_5
 62
     0
100
AcDbTrace
 10
80.82090027127828
 20
-22.74709739415837
 30
0.0
 11
81.65058344772562
 21
-23.30533195661419
 31
0.0
 12
82.91044554686943
 22
-20.53716514604425
 32
0.0
 13
82.91044554686943
 23
-20.53716514604425
 33
0.0
  0
POINT
  5
753
330
5B5
100
AcDbEntity
  8
DEFPOINTS
 62
     0
100
AcDbPoint
 10
82.91044554686943
 20
-20.53716514604425
 30
0.0
  0
POINT
  5
754
330
5B5
100
AcDbEntity
  8
DEFPOINTS
 62
     0
100
AcDbPoint
 10
97.08960343324738
 20
0.5367875357181973
 30
0.0
  0
ENDBLK
  5
5BC
330
5B5
100
AcDbEntity
  8
0
100
AcDbBlockEnd
  0
BLOCK
  5
61A
330
619
100
AcDbEntity
  8
0
100
AcDbBlockBegin
  2
_Open30
 70
     0
 71
     0
 10
0.0
 20
0.0
 30
0.0
  3
_Open30
  1

  0
LINE
  5
61B
330
619
100
AcDbEntity
  8
0
 62
     0
370
    -2
100
AcDbLine
 10
-1.0
 20
0.26794919
 30
0.0
 11
0.0
 21
0.0
 31
0.0
  0
LINE
  5
61C
330
619
100
AcDbEntity
  8
0
 62
     0
370
    -2
100
AcDbLine
 10
0.0
 20
0.0
 30
0.0
 11
-1.0
 21
-0.26794919
 31
0.0
  0
LINE
  5
61D
330
619
100
AcDbEntity
  8
0
 62
     0
370
    -2
100
AcDbLine
 10
0.0
 20
0.0
 30
0.0
 11
-1.0
 21
0.0
 31
0.0
  0
ENDBLK
  5
61E
330
619
100
AcDbEntity
  8
0
100
AcDbBlockEnd
  0
ENDSEC
  0
SECTION
  2
ENTITIES
  0
ARC
  5
196
330
22
100
AcDbEntity
  8
1
  6
Continuous
100
AcDbCircle
 10
0.0992403700947762
 20
-0.0994080975651599
 30
0.0
 40
0.0992187485098839
100
AcDbArc
 50
57.99995819301272
 51
183.0000300666402
  0
LINE
  5
19D
330
22
100
AcDbEntity
  8
1
  6
CENTER
100
AcDbLine
 10
22.49018257111311
 20
-10.00018880516295
 30
0.0
 11
151.9901825711131
 21
-10.00018880516296
 31
0.0
  0
LINE
  5
19E
330
22
100
AcDbEntity
  8
1
  6
Continuous
100
AcDbLine
 10
9.851181678473949
 20
-6.076100803911658
 30
0.0
 11
0.1514620110392571
 21
-0.0150432363152788
 31
0.0
  0
ARC
  5
19F
330
22
100
AcDbEntity
  8
1
  6
Continuous
100
AcDbCircle
 10
0.0989999994635582
 20
-0.098999999463544
 30
0.0
 40
0.0989999994635582
100
AcDbArc
 50
57.99999833185082
 51
183.0000048041301
  0
LINE
  5
1A0
330
22
100
AcDbEntity
  8
1
  6
Continuous
100
AcDbLine
 10
0.0001356778666377
 20
-0.1041812673211666
 30
0.0
 11
0.5987386628985405
 21
-11.52620694786317
 31
0.0
  0
LINE
  5
1A1
330
22
100
AcDbEntity
  8
1
  6
Continuous
100
AcDbLine
 10
0.5987386628985405
 20
-11.52620694786317
 30
0.0
 11
10.29845874756575
 21
-17.58726499229677
 31
0.0
  0
ARC
  5
1A2
330
22
100
AcDbEntity
  8
1
  6
Continuous
100
AcDbCircle
 10
10.35092037171125
 20
-17.50330732017758
 30
0.0
 40
0.0989999994635582
100
AcDbArc
 50
238.0004672520553
 51
2.999472383051538
  0
LINE
  5
1A3
330
22
100
AcDbEntity
  8
1
  6
Continuous
100
AcDbLine
 10
10.44978492707014
 20
-17.49812696129087
 30
0.0
 11
9.851181678473949
 21
-6.076100803911658
 31
0.0
  0
CIRCLE
  5
1A4
330
22
100
AcDbEntity
  8
1
  6
Continuous
100
AcDbCircle
 10
5.224961929023266
 20
-8.801153160631685
 30
0.0
 40
3.0
  0
CIRCLE
  5
1A5
330
22
100
AcDbEntity
  8
1
  6
Continuous
100
AcDbCircle
 10
5.224961452186108
 20
-8.80115506798029
 30
0.0
 40
2.900000095367432
  0
LINE
  5
1A6
330
22
100
AcDbEntity
  8
1
  6
CENTER
100
AcDbLine
 10
3.24556153267622
 20
-5.44080350548029
 30
0.0
 11
7.204361133277416
 21
-12.16150663048028
 31
0.0
  0
LINE
  5
1A7
330
22
100
AcDbEntity
  8
1
  6
CENTER
100
AcDbLine
 10
1.864607863128185
 20
-10.78055570274596
 30
0.0
 11
8.585314445197582
 21
-6.821754433214665
 31
0.0
  0
LINE
  5
1A8
330
22
100
AcDbEntity
  8
1
  6
Continuous
100
AcDbLine
 10
6.928155116736889
 20
-8.146072365343557
 30
0.0
 11
6.623632602393627
 21
-7.629096962511568
 31
0.0
  0
LINE
  5
1A9
330
22
100
AcDbEntity
  8
1
  6
Continuous
100
AcDbLine
 10
3.521767549216747
 20
-9.456237770617079
 30
0.0
 11
3.826290063560009
 21
-9.973213173449068
 31
0.0
  0
LINE
  5
1AA
330
22
100
AcDbEntity
  8
1
  6
Continuous
100
AcDbLine
 10
3.826290063560009
 20
-9.973213173449068
 30
0.0
 11
4.929507426917553
 21
-9.323371864855275
 31
0.0
  0
LINE
  5
1AB
330
22
100
AcDbEntity
  8
1
  6
Continuous
100
AcDbLine
 10
5.82493894547224
 20
-8.795921303331866
 30
0.0
 11
6.928155116736889
 21
-8.146072365343557
 31
0.0
  0
LINE
  5
1AC
330
22
100
AcDbEntity
  8
1
  6
Continuous
100
AcDbLine
 10
6.623632602393627
 20
-7.629096962511568
 30
0.0
 11
5.520415477454662
 21
-8.278938271105275
 31
0.0
  0
LINE
  5
1AD
330
22
100
AcDbEntity
  8
1
  6
Continuous
100
AcDbLine
 10
4.624983958899975
 20
-8.80638883262877
 30
0.0
 11
3.521767549216747
 21
-9.456237770617079
 31
0.0
  0
LINE
  5
1AE
330
22
100
AcDbEntity
  8
1
  6
Continuous
100
AcDbLine
 10
3.510594300925732
 20
-8.17589566856627
 30
0.0
 11
4.624983958899975
 21
-8.80638883262877
 31
0.0
  0
LINE
  5
1AF
330
22
100
AcDbEntity
  8
1
  6
Continuous
100
AcDbLine
 10
5.529484920203686
 20
-9.318130470812363
 30
0.0
 11
6.64387433975935
 21
-9.948623634874863
 31
0.0
  0
LINE
  5
1B0
330
22
100
AcDbEntity
  8
1
  6
Continuous
100
AcDbLine
 10
3.806048326194286
 20
-7.653686501085772
 30
0.0
 11
3.510594300925732
 21
-8.17589566856627
 31
0.0
  0
LINE
  5
1B1
330
22
100
AcDbEntity
  8
1
  6
Continuous
100
AcDbLine
 10
6.64387433975935
 20
-9.948623634874863
 30
0.0
 11
6.939328365027905
 21
-9.426414467394366
 31
0.0
  0
LINE
  5
1B2
330
22
100
AcDbEntity
  8
1
  6
Continuous
100
AcDbLine
 10
6.939328365027905
 20
-9.426414467394366
 30
0.0
 11
5.82493894547224
 21
-8.795921303331866
 31
0.0
  0
LINE
  5
1B3
330
22
100
AcDbEntity
  8
1
  6
Continuous
100
AcDbLine
 10
4.92043798416853
 20
-8.284179665148272
 30
0.0
 11
3.806048326194286
 21
-7.653686501085772
 31
0.0
  0
LINE
  5
1B4
330
22
100
AcDbEntity
  8
1
  6
Continuous
100
AcDbLine
 10
5.540658168494701
 20
-10.59846494346856
 30
0.0
 11
5.529484920203686
 21
-9.318130470812363
 31
0.0
  0
LINE
  5
1B5
330
22
100
AcDbEntity
  8
1
  6
Continuous
100
AcDbLine
 10
5.520415477454662
 20
-8.278938271105275
 30
0.0
 11
5.509242229163647
 21
-6.998603798449068
 31
0.0
  0
LINE
  5
1B6
330
22
100
AcDbEntity
  8
1
  6
Continuous
100
AcDbLine
 10
4.940680675208569
 20
-10.60370633751157
 30
0.0
 11
5.540658168494701
 21
-10.59846494346856
 31
0.0
  0
LINE
  5
1B7
330
22
100
AcDbEntity
  8
1
  6
Continuous
100
AcDbLine
 10
5.509242229163647
 20
-6.998603798449068
 30
0.0
 11
4.909264735877514
 21
-7.003845192492079
 31
0.0
  0
LINE
  5
1B8
330
22
100
AcDbEntity
  8
1
  6
Continuous
100
AcDbLine
 10
4.909264735877514
 20
-7.003845192492079
 30
0.0
 11
4.92043798416853
 21
-8.284179665148272
 31
0.0
  0
LINE
  5
1B9
330
22
100
AcDbEntity
  8
1
  6
Continuous
100
AcDbLine
 10
4.929507426917553
 20
-9.323371864855275
 30
0.0
 11
4.940680675208569
 21
-10.60370633751157
 31
0.0
  0
LINE
  5
1BA
330
22
100
AcDbEntity
  8
1
  6
Continuous
100
AcDbLine
 10
6.786535911262035
 20
-15.39277169853446
 30
0.0
 11
7.934683971107006
 21
-17.34193990379576
 31
0.0
  0
ARC
  5
1BB
330
22
100
AcDbEntity
  8
1
  6
Continuous
100
AcDbCircle
 10
9.6579415127635
 20
-16.32686422020197
 30
0.0
 40
2.0
100
AcDbArc
 50
210.4999856012029
 51
30.50001188242869
  0
LINE
  5
1BC
330
22
100
AcDbEntity
  8
1
  6
Continuous
100
AcDbLine
 10
10.23305194824934
 20
-13.36261842399837
 30
0.0
 11
11.38120048493147
 21
-15.31178662925957
 31
0.0
  0
ARC
  5
1BD
330
22
100
AcDbEntity
  8
1
  6
Continuous
100
AcDbCircle
 10
10.21988406551827
 20
-1.000188805162964
 30
0.0
 40
5.0
100
AcDbArc
 50
263.8419326556693
 51
270.0
  0
LINE
  5
1BE
330
22
100
AcDbEntity
  8
1
  6
Continuous
100
AcDbLine
 10
1.116376452147961
 20
-11.84966275840996
 30
0.0
 11
1.64834301918745
 21
-22.00018880516295
 31
0.0
  0
LINE
  5
1CF
330
22
100
AcDbEntity
  8
1
  6
CENTER
100
AcDbLine
 10
90.00002449005842
 20
4.499811194837022
 30
0.0
 11
90.00002449005842
 21
-24.50018880516298
 31
0.0
  0
LINE
  5
1D0
330
22
100
AcDbEntity
  8
1
  6
Continuous
100
AcDbLine
 10
149.0000244900584
 20
1.999811194837022
 30
0.0
 11
149.0000244900584
 21
-5.842064227904601
 31
0.0
  0
LINE
  5
1D1
330
22
100
AcDbEntity
  8
1
  6
Continuous
100
AcDbLine
 10
149.0000244900584
 20
-14.15831338242128
 30
0.0
 11
149.0000244900584
 21
-22.00018880516298
 31
0.0
  0
LINE
  5
1D2
330
22
100
AcDbEntity
  8
1
  6
Continuous
100
AcDbLine
 10
150.0000244900584
 20
1.699811194837039
 30
0.0
 11
150.0000244900584
 21
-21.70018880516297
 31
0.0
  0
LINE
  5
1D3
330
22
100
AcDbEntity
  8
1
  6
PHANTOM
100
AcDbLine
 10
23.20002258270984
 20
2.699811194837054
 30
0.0
 11
149.0000244900584
 21
2.699811194837039
 31
0.0
  0
LINE
  5
1D4
330
22
100
AcDbEntity
  8
1
  6
Continuous
100
AcDbLine
 10
149.7000244900584
 20
1.999811194837022
 30
0.0
 11
150.0000244900584
 21
1.699811194837039
 31
0.0
  0
ARC
  5
1D5
330
22
100
AcDbEntity
  8
1
  6
Continuous
100
AcDbCircle
 10
90.00002449005842
 20
-10.00018880516296
 30
0.0
 40
12.7
100
AcDbArc
 50
109.111732137199
 51
160.8882678628011
  0
ARC
  5
1D6
330
22
100
AcDbEntity
  8
1
  6
Continuous
100
AcDbCircle
 10
90.00002449005842
 20
-10.00018880516296
 30
0.0
 40
12.69999999999999
100
AcDbArc
 50
199.1117321371989
 51
250.8882678628011
  0
ARC
  5
1D7
330
22
100
AcDbEntity
  8
1
  6
Continuous
100
AcDbCircle
 10
90.00002449005842
 20
-10.00018880516296
 30
0.0
 40
12.7
100
AcDbArc
 50
289.1117321371989
 51
340.8882678628011
  0
ARC
  5
1D8
330
22
100
AcDbEntity
  8
1
  6
Continuous
100
AcDbCircle
 10
90.00002449005842
 20
-10.00018880516296
 30
0.0
 40
12.69999999999999
100
AcDbArc
 50
19.11173213719889
 51
70.88826786280112
  0
LINE
  5
1D9
330
22
100
AcDbEntity
  8
1
  6
Continuous
100
AcDbLine
 10
149.7000244900584
 20
-22.00018880516298
 30
0.0
 11
150.0000244900584
 21
-21.70018880516297
 31
0.0
  0
LINE
  5
1DA
330
22
100
AcDbEntity
  8
1
  6
PHANTOM
100
AcDbLine
 10
23.20002258270984
 20
-22.70018880516297
 30
0.0
 11
149.0000244900584
 21
-22.70018880516297
 31
0.0
  0
LINE
  5
1DB
330
22
100
AcDbEntity
  8
1
  6
Continuous
100
AcDbLine
 10
14.00002258270979
 20
-23.00018880516295
 30
0.0
 11
2.648342981393853
 21
-23.00018880516295
 31
0.0
  0
LINE
  5
1DC
330
22
100
AcDbEntity
  8
1
  6
Continuous
100
AcDbLine
 10
1.648342981393853
 20
-22.00018880516295
 30
0.0
 11
2.648342981393853
 21
-23.00018880516295
 31
0.0
  0
LINE
  5
1DE
330
22
100
AcDbEntity
  8
1
  6
Continuous
100
AcDbLine
 10
21.19018333405256
 20
1.999811194837037
 30
0.0
 11
149.7000244900584
 21
1.999811194837022
 31
0.0
  0
LINE
  5
1DF
330
22
100
AcDbEntity
  8
1
  6
Continuous
100
AcDbLine
 10
15.00002258270979
 20
-22.00018880516295
 30
0.0
 11
149.7000244900584
 21
-22.00018880516298
 31
0.0
  0
LINE
  5
1E0
330
22
100
AcDbEntity
  8
1
  6
Continuous
100
AcDbLine
 10
78.00002449005842
 20
-5.842064227904601
 30
0.0
 11
78.00002449005842
 21
-14.15831338242128
 31
0.0
  0
LINE
  5
1E1
330
22
100
AcDbEntity
  8
1
  6
Continuous
100
AcDbLine
 10
102.0000244900584
 20
-5.842064227904601
 30
0.0
 11
102.0000244900584
 21
-14.15831338242128
 31
0.0
  0
LINE
  5
1E3
330
22
100
AcDbEntity
  8
1
  6
Continuous
100
AcDbLine
 10
23.20002258270984
 20
-5.842064227904587
 30
0.0
 11
149.0000244900584
 21
-5.842064227904601
 31
0.0
  0
LINE
  5
1E4
330
22
100
AcDbEntity
  8
1
  6
Continuous
100
AcDbLine
 10
23.20002258270984
 20
-14.15831338242127
 30
0.0
 11
149.0000244900584
 21
-14.15831338242128
 31
0.0
  0
ARC
  5
1E5
330
22
100
AcDbEntity
  8
1
  6
Continuous
100
AcDbCircle
 10
137.0000244900584
 20
-10.00018880516298
 30
0.0
 40
12.70000000000005
100
AcDbArc
 50
340.8882678628011
 51
19.11173213719873
  0
LINE
  5
1E8
330
22
100
AcDbEntity
  8
1
  6
Continuous
100
AcDbLine
 10
14.00002258270979
 20
-23.00018880516295
 30
0.0
 11
15.00002258270979
 21
-22.00018880516295
 31
0.0
  0
LINE
  5
1E9
330
22
100
AcDbEntity
  8
1
  6
Continuous
100
AcDbLine
 10
15.00002162527801
 20
-22.00018880516295
 30
0.0
 11
15.00002162527801
 21
-6.000188805162964
 31
0.0
  0
POLYLINE
  5
1EA
330
22
100
AcDbEntity
  8
1
  6
Continuous
100
AcDb2dPolyline
 66
     1
 10
0.0
 20
0.0
 30
0.0
  0
VERTEX
  5
1EB
330
1EA
100
AcDbEntity
  8
1
  6
Continuous
100
AcDbVertex
100
AcDb2dVertex
 10
19.19387629639198
 20
-2.281283062887951
 30
0.0
  0
VERTEX
  5
1EC
330
1EA
100
AcDbEntity
  8
1
  6
Continuous
100
AcDbVertex
100
AcDb2dVertex
 10
19.80543273308911
 20
-4.562155509280075
 30
0.0
  0
VERTEX
  5
1ED
330
1EA
100
AcDbEntity
  8
1
  6
Continuous
100
AcDbVertex
100
AcDb2dVertex
 10
20.24989742372509
 20
-6.536438632840458
 30
0.0
  0
VERTEX
  5
1EE
330
1EA
100
AcDbEntity
  8
1
  6
Continuous
100
AcDbVertex
100
AcDb2dVertex
 10
20.56207753375725
 20
-8.35746327166828
 30
0.0
  0
VERTEX
  5
1EF
330
1EA
100
AcDbEntity
  8
1
  6
Continuous
100
AcDbVertex
100
AcDb2dVertex
 10
20.73560582620769
 20
-10.00018880516296
 30
0.0
  0
VERTEX
  5
1F0
330
1EA
100
AcDbEntity
  8
1
  6
Continuous
100
AcDbVertex
100
AcDb2dVertex
 10
20.75006683868719
 20
-12.18503727382097
 30
0.0
  0
VERTEX
  5
1F1
330
1EA
100
AcDbEntity
  8
1
  6
Continuous
100
AcDbVertex
100
AcDb2dVertex
 10
20.49367877899601
 20
-14.22630639199917
 30
0.0
  0
VERTEX
  5
1F2
330
1EA
100
AcDbEntity
  8
1
  6
Continuous
100
AcDbVertex
100
AcDb2dVertex
 10
19.97176547009713
 20
-16.08226451240978
 30
0.0
  0
VERTEX
  5
1F3
330
1EA
100
AcDbEntity
  8
1
  6
Continuous
100
AcDbVertex
100
AcDb2dVertex
 10
19.61408345607924
 20
-16.92996061208615
 30
0.0
  0
VERTEX
  5
1F4
330
1EA
100
AcDbEntity
  8
1
  6
Continuous
100
AcDbVertex
100
AcDb2dVertex
 10
19.19387629639186
 20
-17.71918880516287
 30
0.0
  0
VERTEX
  5
1F5
330
1EA
100
AcDbEntity
  8
1
  6
Continuous
100
AcDbVertex
100
AcDb2dVertex
 10
18.72514444874719
 20
-18.43440797558777
 30
0.0
  0
VERTEX
  5
1F6
330
1EA
100
AcDbEntity
  8
1
  6
Continuous
100
AcDbVertex
100
AcDb2dVertex
 10
18.17385184371756
 20
-19.14133270308916
 30
0.0
  0
VERTEX
  5
1F7
330
1EA
100
AcDbEntity
  8
1
  6
Continuous
100
AcDbVertex
100
AcDb2dVertex
 10
17.54059557311871
 20
-19.83924325723426
 30
0.0
  0
VERTEX
  5
1F8
330
1EA
100
AcDbEntity
  8
1
  6
Continuous
100
AcDbVertex
100
AcDb2dVertex
 10
16.82457042850774
 20
-20.52903433065707
 30
0.0
  0
SEQEND
  5
1F9
330
1EA
100
AcDbEntity
  8
1
  0
LINE
  5
1FA
330
22
100
AcDbEntity
  8
1
  6
Continuous
100
AcDbLine
 10
22.50002258270979
 20
-22.00018880516295
 30
0.0
 11
22.50002258270979
 21
1.999811194837037
 31
0.0
  0
LINE
  5
1FB
330
22
100
AcDbEntity
  8
1
  6
Continuous
100
AcDbLine
 10
23.20002258270984
 20
-22.00018880516295
 30
0.0
 11
23.20002258270984
 21
-14.15831338242127
 31
0.0
  0
LINE
  5
1FC
330
22
100
AcDbEntity
  8
1
  6
Continuous
100
AcDbLine
 10
23.20002258270984
 20
-5.842064227904587
 30
0.0
 11
23.20002258270984
 21
1.999811194837037
 31
0.0
  0
ARC
  5
1FD
330
22
100
AcDbEntity
  8
1
  6
Continuous
100
AcDbCircle
 10
35.20002258270972
 20
-10.00018880516296
 30
0.0
 40
12.69999999999988
100
AcDbArc
 50
160.888267862801
 51
199.111732137199
  0
LINE
  5
1FE
330
22
100
AcDbEntity
  8
1
  6
Continuous
100
AcDbLine
 10
21.19018333405256
 20
1.999811194837037
 30
0.0
 11
18.80590969995842
 21
-3.113280113866466
 31
0.0
  0
ARC
  5
1FF
330
22
100
AcDbEntity
  8
1
  6
Continuous
100
AcDbCircle
 10
14.27437076477509
 20
-1.000188805162964
 30
0.0
 40
5.000000000000002
100
AcDbArc
 50
270.0
 51
335.0000000000001
  0
LINE
  5
200
330
22
100
AcDbEntity
  8
1
  6
Continuous
100
AcDbLine
 10
10.21988406551827
 20
-6.000188805162964
 30
0.0
 11
14.27437076477509
 21
-6.000188805162964
 31
0.0
  0
LINE
  5
201
330
22
100
AcDbEntity
  8
2
  6
Continuous
100
AcDbLine
 10
9.814346008002758
 20
70.38573535531751
 30
0.0
 11
14.36295097321272
 21
70.38573535531751
 31
0.0
  0
LINE
  5
202
330
22
100
AcDbEntity
  8
2
  6
Continuous
100
AcDbLine
 10
0.0000216253101826
 20
70.08573534339661
 30
0.0
 11
9.851181678473949
 21
70.08573534339661
 31
0.0
  0
LINE
  5
203
330
22
100
AcDbEntity
  8
2
  6
Continuous
100
AcDbLine
 10
0.814044289290905
 20
74.05573537200681
 30
0.0
 11
0.8374540135264397
 21
74.05573537200681
 31
0.0
  0
LINE
  5
204
330
22
100
AcDbEntity
  8
2
  6
CENTER
100
AcDbLine
 10
3.480034522712231
 20
68.84472837299103
 30
0.0
 11
3.480034522712231
 21
80.5389452204108
 31
0.0
  0
LINE
  5
205
330
22
100
AcDbEntity
  8
2
  6
CENTER
100
AcDbLine
 10
158.7706398610492
 20
70.08573534339658
 30
0.0
 11
19.99018257111311
 21
70.08573534339661
 31
0.0
  0
LINE
  5
210
330
22
100
AcDbEntity
  8
2
  6
Continuous
100
AcDbLine
 10
20.73560582617552
 20
58.08573534339661
 30
0.0
 11
15.26925915153925
 21
69.80835361705817
 31
0.0
  0
ARC
  5
211
330
22
100
AcDbEntity
  8
2
  6
Continuous
100
AcDbCircle
 10
14.36295136450269
 20
69.38573535531751
 30
0.0
 40
1.0
100
AcDbArc
 50
25.00000000000015
 51
90.0
  0
LINE
  5
212
330
22
100
AcDbEntity
  8
2
  6
Continuous
100
AcDbLine
 10
0.0000216252780092
 20
70.08573534339661
 30
0.0
 11
0.5500664266046442
 21
74.05573534339661
 31
0.0
  0
LINE
  5
213
330
22
100
AcDbEntity
  8
2
  6
Continuous
100
AcDbLine
 10
0.5397655286551526
 20
74.05573534339661
 30
0.0
 11
9.363726971689403
 21
74.05573534339661
 31
0.0
  0
LINE
  5
214
330
22
100
AcDbEntity
  8
2
  6
Continuous
100
AcDbLine
 10
9.851181678473949
 20
70.08573534339661
 30
0.0
 11
9.363726971689403
 21
74.05573534339661
 31
0.0
  0
LINE
  5
215
330
22
100
AcDbEntity
  8
2
  6
Continuous
100
AcDbLine
 10
0.5397655286551526
 20
83.08573534339661
 30
0.0
 11
0.5397655286551526
 21
74.05573534339661
 31
0.0
  0
LINE
  5
216
330
22
100
AcDbEntity
  8
2
  6
Continuous
100
AcDbLine
 10
8.786157131647997
 20
75.03243328812343
 30
0.0
 11
8.786157131647997
 21
81.66023089203728
 31
0.0
  0
LINE
  5
217
330
22
100
AcDbEntity
  8
2
  6
Continuous
100
AcDbLine
 10
0.5397655286551526
 20
83.08573534339661
 30
0.0
 11
12.50002258270979
 21
83.08573534339661
 31
0.0
  0
LINE
  5
218
330
22
100
AcDbEntity
  8
2
  6
Continuous
100
AcDbLine
 10
12.50002258270979
 20
83.08573534339661
 30
0.0
 11
13.50002258270979
 21
82.08573534339661
 31
0.0
  0
LINE
  5
219
330
22
100
AcDbEntity
  8
2
  6
Continuous
100
AcDbLine
 10
13.13070586005676
 20
82.4550520660496
 30
0.0
 11
9.30904392461548
 21
82.4550520660496
 31
0.0
  0
POLYLINE
  5
21A
330
22
100
AcDbEntity
  8
2
  6
Continuous
100
AcDb2dPolyline
 66
     1
 10
0.0
 20
0.0
 30
0.0
  0
VERTEX
  5
21B
330
21A
100
AcDbEntity
  8
2
  6
Continuous
100
AcDbVertex
100
AcDb2dVertex
 10
0.5397655286551526
 20
79.31742502488419
 30
0.0
  0
VERTEX
  5
21C
330
21A
100
AcDbEntity
  8
2
  6
Continuous
100
AcDbVertex
100
AcDb2dVertex
 10
2.249731824503442
 20
80.26627570249303
 30
0.0
  0
VERTEX
  5
21D
330
21A
100
AcDbEntity
  8
2
  6
Continuous
100
AcDbVertex
100
AcDb2dVertex
 10
4.115663574647442
 20
81.09192651402969
 30
0.0
  0
VERTEX
  5
21E
330
21A
100
AcDbEntity
  8
2
  6
Continuous
100
AcDbVertex
100
AcDb2dVertex
 10
6.115861056139465
 20
81.78476705370312
 30
0.0
  0
VERTEX
  5
21F
330
21A
100
AcDbEntity
  8
2
  6
Continuous
100
AcDbVertex
100
AcDb2dVertex
 10
8.225898660200983
 20
82.33632201721761
 30
0.0
  0
SEQEND
  5
220
330
21A
100
AcDbEntity
  8
2
  0
ARC
  5
221
330
22
100
AcDbEntity
  8
2
  6
Continuous
100
AcDbCircle
 10
9.30904392461548
 20
77.4550520660496
 30
0.0
 40
5.0
100
AcDbArc
 50
90.0
 51
102.5111178223283
  0
LINE
  5
222
330
22
100
AcDbEntity
  8
2
  6
Continuous
100
AcDbLine
 10
150.0000244900584
 20
81.78573534339658
 30
0.0
 11
150.0000244900584
 21
58.3857353433966
 31
0.0
  0
LINE
  5
223
330
22
100
AcDbEntity
  8
2
  6
Continuous
100
AcDbLine
 10
149.7000244900584
 20
82.08573534339659
 30
0.0
 11
150.0000244900584
 21
81.78573534339658
 31
0.0
  0
ARC
  5
224
330
22
100
AcDbEntity
  8
2
  6
Continuous
100
AcDbCircle
 10
137.0000244900584
 20
70.08573534339659
 30
0.0
 40
12.70000000000005
100
AcDbArc
 50
340.8882678628011
 51
19.11173213719873
  0
LINE
  5
225
330
22
100
AcDbEntity
  8
2
  6
Continuous
100
AcDbLine
 10
149.0000244900584
 20
82.08573534339659
 30
0.0
 11
149.0000244900584
 21
74.24385992065488
 31
0.0
  0
LINE
  5
226
330
22
100
AcDbEntity
  8
2
  6
Continuous
100
AcDbLine
 10
149.0000244900584
 20
65.9276107661383
 30
0.0
 11
149.0000244900584
 21
58.08573534339659
 31
0.0
  0
LINE
  5
227
330
22
100
AcDbEntity
  8
2
  6
Continuous
100
AcDbLine
 10
23.20002258270984
 20
74.2438599206549
 30
0.0
 11
149.0000244900584
 21
74.24385992065488
 31
0.0
  0
LINE
  5
228
330
22
100
AcDbEntity
  8
2
  6
Continuous
100
AcDbLine
 10
22.50002258270979
 20
82.08573534339661
 30
0.0
 11
149.7000244900584
 21
82.08573534339659
 31
0.0
  0
LINE
  5
229
330
22
100
AcDbEntity
  8
2
  6
Continuous
100
AcDbLine
 10
149.7000244900584
 20
58.08573534339659
 30
0.0
 11
150.0000244900584
 21
58.3857353433966
 31
0.0
  0
LINE
  5
22A
330
22
100
AcDbEntity
  8
2
  6
Continuous
100
AcDbLine
 10
23.20002258270984
 20
65.92761076613832
 30
0.0
 11
149.0000244900584
 21
65.9276107661383
 31
0.0
  0
LINE
  5
22B
330
22
100
AcDbEntity
  8
2
  6
Continuous
100
AcDbLine
 10
20.73560582617552
 20
58.08573534339661
 30
0.0
 11
149.7000244900584
 21
58.08573534339659
 31
0.0
  0
POLYLINE
  5
22C
330
22
100
AcDbEntity
  8
2
  6
Continuous
100
AcDb2dPolyline
 66
     1
 10
0.0
 20
0.0
 30
0.0
  0
VERTEX
  5
22D
330
22C
100
AcDbEntity
  8
2
  6
Continuous
100
AcDbVertex
100
AcDb2dVertex
 10
19.19387629639186
 20
61.39198498964043
 30
0.0
  0
VERTEX
  5
22E
330
22C
100
AcDbEntity
  8
2
  6
Continuous
100
AcDbVertex
100
AcDb2dVertex
 10
20.04432351749256
 20
63.26393947638519
 30
0.0
  0
VERTEX
  5
22F
330
22C
100
AcDbEntity
  8
2
  6
Continuous
100
AcDbVertex
100
AcDb2dVertex
 10
20.67446982902334
 20
65.38955292709969
 30
0.0
  0
VERTEX
  5
230
330
22C
100
AcDbEntity
  8
2
  6
Continuous
100
AcDbVertex
100
AcDb2dVertex
 10
21.060471106769
 20
67.68755937263001
 30
0.0
  0
VERTEX
  5
231
330
22C
100
AcDbEntity
  8
2
  6
Continuous
100
AcDbVertex
100
AcDb2dVertex
 10
21.19037076477514
 20
70.08573534339661
 30
0.0
  0
VERTEX
  5
232
330
22C
100
AcDbEntity
  8
2
  6
Continuous
100
AcDbVertex
100
AcDb2dVertex
 10
20.81713301676996
 20
74.10455012526063
 30
0.0
  0
VERTEX
  5
233
330
22C
100
AcDbEntity
  8
2
  6
Continuous
100
AcDbVertex
100
AcDb2dVertex
 10
19.7312313376475
 20
77.68576330335029
 30
0.0
  0
VERTEX
  5
234
330
22C
100
AcDbEntity
  8
2
  6
Continuous
100
AcDbVertex
100
AcDb2dVertex
 10
18.04659351849909
 20
80.45457288628651
 30
0.0
  0
VERTEX
  5
235
330
22C
100
AcDbEntity
  8
2
  6
Continuous
100
AcDbVertex
100
AcDb2dVertex
 10
15.95780490743823
 20
82.08573534339661
 30
0.0
  0
SEQEND
  5
236
330
22C
100
AcDbEntity
  8
2
  0
LINE
  5
237
330
22
100
AcDbEntity
  8
2
  6
Continuous
100
AcDbLine
 10
14.27437076477509
 20
70.79358869943442
 30
0.0
 11
14.27437076477509
 21
81.60362271479201
 31
0.0
  0
LINE
  5
238
330
22
100
AcDbEntity
  8
2
  6
Continuous
100
AcDbLine
 10
13.50002258274208
 20
82.08573534339661
 30
0.0
 11
22.50002258274208
 21
82.08573534339661
 31
0.0
  0
LINE
  5
239
330
22
100
AcDbEntity
  8
2
  6
Continuous
100
AcDbLine
 10
22.50002258270979
 20
58.08573534339661
 30
0.0
 11
22.50002258270979
 21
82.08573534339661
 31
0.0
  0
LINE
  5
23A
330
22
100
AcDbEntity
  8
2
  6
Continuous
100
AcDbLine
 10
23.20002258270984
 20
58.08573534339661
 30
0.0
 11
23.20002258270984
 21
65.92761076613832
 31
0.0
  0
LINE
  5
23B
330
22
100
AcDbEntity
  8
2
  6
Continuous
100
AcDbLine
 10
23.20002258270984
 20
74.2438599206549
 30
0.0
 11
23.20002258270984
 21
82.08573534339661
 31
0.0
  0
ARC
  5
23C
330
22
100
AcDbEntity
  8
2
  6
Continuous
100
AcDbCircle
 10
35.20002258270972
 20
70.08573534339661
 30
0.0
 40
12.69999999999988
100
AcDbArc
 50
160.888267862801
 51
199.111732137199
  0
LINE
  5
2D6
330
22
100
AcDbEntity
  8
6
  6
Continuous
100
AcDbLine
 10
-50.00981742888689
 20
-17.60211751610045
 30
0.0
 11
-50.00981742888689
 21
-0.0001892521977567
 31
0.0
  0
LINE
  5
2D7
330
22
100
AcDbEntity
  8
6
  6
Continuous
100
AcDbLine
 10
-50.30981744080782
 20
-11.63392160087827
 30
0.0
 11
-50.30981744080782
 21
-22.99672696739437
 31
0.0
  0
LINE
  5
2D8
330
22
100
AcDbEntity
  8
6
  6
CENTER
100
AcDbLine
 10
-49.43223763257265
 20
-8.801153160631671
 30
0.0
 11
-60.00981742888689
 21
-8.801153160631671
 31
0.0
  0
LINE
  5
2D9
330
22
100
AcDbEntity
  8
6
  6
Continuous
100
AcDbLine
 10
-53.97981742888692
 20
-11.23987069916916
 30
0.0
 11
-50.00981742888689
 21
-11.52620694786317
 31
0.0
  0
LINE
  5
2DA
330
22
100
AcDbEntity
  8
6
  6
Continuous
100
AcDbLine
 10
-53.97981742888692
 20
-0.7906518712494375
 30
0.0
 11
-50.00981742888689
 21
-0.0001892513419506
 31
0.0
  0
LINE
  5
2DB
330
22
100
AcDbEntity
  8
6
  6
Continuous
100
AcDbLine
 10
-53.97981742888692
 20
-11.23987069916916
 30
0.0
 11
-53.97981742888692
 21
-0.7906518712494375
 31
0.0
  0
LINE
  5
2DC
330
22
100
AcDbEntity
  8
6
  6
Continuous
100
AcDbLine
 10
-50.30981744080782
 20
-17.54238437586717
 30
0.0
 11
-50.00981742888689
 21
-17.60211706992136
 31
0.0
  0
LINE
  5
2DD
330
22
100
AcDbEntity
  8
6
  6
Continuous
100
AcDbLine
 10
-59.24150711037453
 20
-0.8472714070972671
 30
0.0
 11
-53.97981742888692
 21
-0.8472714070972671
 31
0.0
  0
ARC
  5
2DE
330
22
100
AcDbEntity
  8
6
  6
Continuous
100
AcDbCircle
 10
-50.00981742888692
 20
-10.00018928200008
 30
0.0
 40
13.0
100
AcDbArc
 50
135.2454914759303
 51
268.6776722669142
  0
LINE
  5
2DF
330
22
100
AcDbEntity
  8
6
  6
Continuous
100
AcDbLine
 10
-55.00981857329589
 20
-22.00018880516292
 30
0.0
 11
-50.30981744080782
 21
-22.00018880516295
 31
0.0
  0
LINE
  5
2E0
330
22
100
AcDbEntity
  8
6
  6
Continuous
100
AcDbLine
 10
-50.00981742888689
 20
-6.000188805162949
 30
0.0
 11
-38.6961090984895
 21
-6.000188805162949
 31
0.0
  0
LINE
  5
2E1
330
22
100
AcDbEntity
  8
6
  6
CENTER
100
AcDbLine
 10
-65.00981742888689
 20
-10.00018928200007
 30
0.0
 11
-35.00981742888689
 21
-10.00018928200008
 31
0.0
  0
LINE
  5
2E2
330
22
100
AcDbEntity
  8
6
  6
CENTER
100
AcDbLine
 10
-50.00981742888689
 20
-25.00018928200008
 30
0.0
 11
-50.00981742888689
 21
4.999810717999949
 31
0.0
  0
ARC
  5
2E3
330
22
100
AcDbEntity
  8
6
  6
Continuous
100
AcDbCircle
 10
-50.00981742888692
 20
-10.00018928200008
 30
0.0
 40
12.7
100
AcDbArc
 50
289.1117321371989
 51
340.8882678628011
  0
ARC
  5
2E4
330
22
100
AcDbEntity
  8
6
  6
Continuous
100
AcDbCircle
 10
-50.00981742888692
 20
-10.00018928200008
 30
0.0
 40
12.7
100
AcDbArc
 50
19.11173213719897
 51
70.88826786280112
  0
ARC
  5
2E5
330
22
100
AcDbEntity
  8
6
  6
Continuous
100
AcDbCircle
 10
-50.00981742888692
 20
-10.00018928200008
 30
0.0
 40
12.7
100
AcDbArc
 50
109.111732137199
 51
133.8875145849211
  0
LINE
  5
2E6
330
22
100
AcDbEntity
  8
6
  6
Continuous
100
AcDbLine
 10
-54.16794200614527
 20
1.999810717999949
 30
0.0
 11
-45.85169285162851
 21
1.999810717999949
 31
0.0
  0
LINE
  5
2E7
330
22
100
AcDbEntity
  8
6
  6
Continuous
100
AcDbLine
 10
-38.00981742888689
 20
-14.15831385925846
 30
0.0
 11
-38.00981742888689
 21
-5.842064704741759
 31
0.0
  0
LINE
  5
2E8
330
22
100
AcDbEntity
  8
6
  6
Continuous
100
AcDbLine
 10
-50.30981744080782
 20
-22.00018928200008
 30
0.0
 11
-45.85169285162851
 21
-22.00018928200008
 31
0.0
  0
ARC
  5
2E9
330
22
100
AcDbEntity
  8
6
  6
Continuous
100
AcDbCircle
 10
-50.00981742888692
 20
-10.00018928200008
 30
0.0
 40
12.0
100
AcDbArc
 50
268.5674562054975
 51
130.293371048982
  0
LINE
  5
415
330
22
100
AcDbEntity
  8
0
100
AcDbLine
 10
0.1979999989271164
 20
0.0
 30
0.0
 11
0.0
 21
0.0
 31
0.0
  0
LINE
  5
416
330
22
100
AcDbEntity
  8
0
100
AcDbLine
 10
0.0
 20
0.0
 30
0.0
 11
0.0
 21
-0.1979999989271164
 31
0.0
  0
LINE
  5
41F
330
22
100
AcDbEntity
  8
AM_5
100
AcDbLine
 10
20.25765605903598
 20
0.0
 30
0.0
 11
0.0
 21
0.0
 31
0.0
  0
DIMENSION
  5
422
330
22
100
AcDbEntity
  8
AM_5
100
AcDbDimension
  2
*D2
 10
0.5987386628985405
 20
-11.52620694786317
 30
0.0
 11
-13.64605279448119
 21
23.23546929512193
 31
0.0
 70
    34
 71
     5
 42
0.9599310881001252
  3
Standard$2
100
AcDb2LineAngularDimension
 13
9.851181678473949
 23
-6.076100803911658
 33
0.0
 14
0.1514620110392571
 24
-0.0150432363152788
 34
0.0
 15
0.0001356778666377
 25
-0.1041812673211666
 35
0.0
 16
-8.841769967709142
 26
22.6996400835762
 36
0.0
1001
ACAD
1000
DSTYLE
1002
{
1070
    41
1040
3.0
1070
    42
1040
1.0
1070
    43
1040
5.0
1070
    44
1040
2.0
1070
    46
1040
3.0
1070
    73
1070
     0
1070
    74
1070
     0
1070
    77
1070
     1
1070
    78
1070
     8
1070
   140
1040
5.0
1070
   141
1040
2.0
1070
   145
1040
1.0
1070
   171
1070
     4
1070
   172
1070
     1
1002
}
  0
DIMENSION
  5
460
330
22
100
AcDbEntity
  8
AM_5
100
AcDbDimension
  2
*D3
 10
-18.53570279749465
 20
-10.00018880516294
 30
0.0
 11
-21.12570279749465
 21
-5.000094402581468
 31
0.0
 70
    32
 71
     5
 42
10.00018880516294
  3
Standard$0
100
AcDbAlignedDimension
 13
0.0
 23
0.0
 33
0.0
 14
25.03536858333962
 24
-10.00018880516295
 34
0.0
 50
270.0
100
AcDbRotatedDimension
1001
ACAD
1000
DSTYLE
1002
{
1070
    41
1040
3.0
1070
    42
1040
1.0
1070
    43
1040
5.0
1070
    44
1040
2.0
1070
    46
1040
3.0
1070
    73
1070
     0
1070
    74
1070
     0
1070
    77
1070
     1
1070
    78
1070
     8
1070
   140
1040
5.0
1070
   141
1040
2.0
1070
   145
1040
1.0
1070
   171
1070
     4
1070
   172
1070
     1
1070
   271
1070
     0
1002
}
  0
DIMENSION
  5
48F
330
22
100
AcDbEntity
  8
AM_5
100
AcDbDimension
  2
*D4
 10
0.0000000000000015
 20
24.32319335663846
 30
0.0
 11
10.12882802951799
 21
26.91319335663846
 31
0.0
 70
    32
 71
     5
 42
20.25765605903598
  3
Standard$0
100
AcDbAlignedDimension
 13
20.25765605903598
 23
0.0
 33
0.0
 14
0.0
 24
0.0
 34
0.0
 50
180.0
100
AcDbRotatedDimension
1001
ACAD
1000
DSTYLE
1002
{
1070
    41
1040
3.0
1070
    42
1040
1.0
1070
    43
1040
5.0
1070
    44
1040
2.0
1070
    46
1040
3.0
1070
    73
1070
     0
1070
    74
1070
     0
1070
    77
1070
     1
1070
    78
1070
     8
1070
   140
1040
5.0
1070
   141
1040
2.0
1070
   145
1040
1.0
1070
   171
1070
     4
1070
   172
1070
     1
1070
   271
1070
     0
1002
}
  0
DIMENSION
  5
4C5
330
22
100
AcDbEntity
  8
AM_5
100
AcDbDimension
  2
*D5
 10
78.00002449005842
 20
24.51066893501472
 30
0.0
 11
90.00002449005842
 21
27.10066893501472
 31
0.0
 70
    32
 71
     5
 42
24.0
  3
Standard$0
100
AcDbAlignedDimension
 13
102.0000244900584
 23
-10.00018880516295
 33
0.0
 14
78.00002449005842
 24
-10.00018880516296
 34
0.0
 50
180.0
100
AcDbRotatedDimension
1001
ACAD
1000
DSTYLE
1002
{
1070
    41
1040
3.0
1070
    42
1040
1.0
1070
    43
1040
5.0
1070
    44
1040
2.0
1070
    46
1040
3.0
1070
    73
1070
     0
1070
    74
1070
     0
1070
    77
1070
     1
1070
    78
1070
     8
1070
   140
1040
5.0
1070
   141
1040
2.0
1070
   145
1040
1.0
1070
   171
1070
     4
1070
   172
1070
     1
1070
   271
1070
     0
1002
}
  0
DIMENSION
  5
4E9
330
22
100
AcDbEntity
  8
AM_5
100
AcDbDimension
  2
*D6
 10
112.1811957334639
 20
-22.00018880516298
 30
0.0
 11
112.1811957334639
 21
-32.55460981239931
 31
0.0
 70
   160
 71
     5
 42
24.0
  3
Standard$0
100
AcDbAlignedDimension
 13
90.00002449005842
 23
1.999811194837022
 33
0.0
 14
90.00002449005842
 24
-22.00018880516298
 34
0.0
 50
270.0
100
AcDbRotatedDimension
1001
ACAD
1000
DSTYLE
1002
{
1070
    41
1040
3.0
1070
    42
1040
1.0
1070
    43
1040
5.0
1070
    44
1040
2.0
1070
    46
1040
3.0
1070
    73
1070
     0
1070
    74
1070
     0
1070
    77
1070
     1
1070
    78
1070
     8
1070
   140
1040
5.0
1070
   141
1040
2.0
1070
   145
1040
1.0
1070
   171
1070
     4
1070
   172
1070
     1
1070
   271
1070
     0
1002
}
  0
DIMENSION
  5
51C
330
22
100
AcDbEntity
  8
AM_5
100
AcDbDimension
  2
*D7
 10
-12.69049658164772
 20
70.08573534339661
 30
0.0
 11
-15.28049658164773
 21
77.42573534339661
 31
0.0
 70
    32
 71
     5
 42
-1.0
  3
Standard$0
100
AcDbAlignedDimension
 13
0.0000216252780092
 23
70.08573534339661
 33
0.0
 14
1.376553819546757
 24
70.08573534339661
 34
0.0
 50
270.0
100
AcDbRotatedDimension
1001
ACAD
1000
DSTYLE
1002
{
1070
    41
1040
3.0
1070
    42
1040
1.0
1070
    43
1040
5.0
1070
    44
1040
2.0
1070
    46
1040
3.0
1070
    73
1070
     0
1070
    74
1070
     0
1070
    77
1070
     1
1070
    78
1070
     8
1070
   140
1040
5.0
1070
   141
1040
2.0
1070
   145
1040
1.0
1070
   171
1070
     4
1070
   172
1070
     1
1070
   271
1070
     0
1002
}
  0
DIMENSION
  5
54D
330
22
100
AcDbEntity
  8
AM_5
100
AcDbDimension
  2
*D8
 10
0.000021625310181
 20
45.13608484534569
 30
0.0
 11
75.0000230576843
 21
47.7260848453457
 31
0.0
 70
    32
 71
     5
 42
150.0000028647482
  3
Standard$0
100
AcDbAlignedDimension
 13
150.0000244900584
 23
58.3857353433966
 33
0.0
 14
0.0000216253101826
 24
70.08573534339661
 34
0.0
 50
180.0
100
AcDbRotatedDimension
1001
ACAD
1000
DSTYLE
1002
{
1070
    41
1040
3.0
1070
    42
1040
1.0
1070
    43
1040
5.0
1070
    44
1040
2.0
1070
    46
1040
3.0
1070
    73
1070
     0
1070
    74
1070
     0
1070
    77
1070
     1
1070
    78
1070
     8
1070
   140
1040
5.0
1070
   141
1040
2.0
1070
   145
1040
1.0
1070
   171
1070
     4
1070
   172
1070
     1
1070
   271
1070
     0
1002
}
  0
DIMENSION
  5
568
330
22
100
AcDbEntity
  8
AM_5
100
AcDbDimension
  2
*D9
 10
0.5987386628985405
 20
-11.52620694786317
 30
0.0
 11
-9.711977214742468
 21
-30.28926835555552
 31
0.0
 70
    34
 71
     5
 42
0.0523598761803985
  3
Standard$2
100
AcDb2LineAngularDimension
 13
0.0
 23
0.0
 33
0.0
 14
0.0
 24
-0.1979999989271164
 34
0.0
 15
0.0001356778666377
 25
-0.1041812673211666
 35
0.0
 16
1.187088827639887
 26
-34.09536961325036
 36
0.0
1001
ACAD
1000
DSTYLE
1002
{
1070
    41
1040
3.0
1070
    42
1040
1.0
1070
    43
1040
5.0
1070
    44
1040
2.0
1070
    46
1040
3.0
1070
    73
1070
     0
1070
    74
1070
     0
1070
    77
1070
     1
1070
    78
1070
     8
1070
   140
1040
5.0
1070
   141
1040
2.0
1070
   145
1040
1.0
1070
   171
1070
     4
1070
   172
1070
     1
1070
   271
1070
     0
1002
}
  0
DIMENSION
  5
5B4
330
22
100
AcDbEntity
  8
AM_5
100
AcDbDimension
  2
*D10
 10
97.08960343324738
 20
0.5367875357181973
 30
0.0
 11
73.88224578364552
 21
-33.95544119151126
 31
0.0
 70
   163
 71
     5
 42
25.39999999999993
  3
Standard$3
100
AcDbDiametricDimension
 15
82.91044554686943
 25
-20.53716514604425
 35
0.0
 40
0.0
1001
ACAD
1000
DSTYLE
1002
{
1070
    41
1040
3.0
1070
    42
1040
1.0
1070
    43
1040
5.0
1070
    44
1040
2.0
1070
    46
1040
3.0
1070
    73
1070
     0
1070
    74
1070
     0
1070
    77
1070
     1
1070
    78
1070
     8
1070
   140
1040
5.0
1070
   141
1040
2.0
1070
   145
1040
1.0
1070
   171
1070
     4
1070
   172
1070
     1
1070
   271
1070
     0
1002
}
  0
TEXT
  5
5D7
330
22
100
AcDbEntity
  8
0
100
AcDbText
 10
22.69045178064198
 20
-69.87146803684648
 30
0.0
 40
5.0
  1
%%uRS25M-SDUL11
100
AcDbText
  0
ACAD_PROXY_ENTITY
  5
78D
330
22
100
AcDbEntity
  8
AM_5
100
AcDbProxyEntity
 90
      498
 91
      571
 95
       25
 70
     0
 92
      668
310
9C020000270000000C00000016000000000000C00C00000013000000010000000C00000016000000000000C00C00000017000000FFFFFFFF3C0000000600000002000000C8890499D40247C0C87C9763CCC140400000000000000000FBBC37CC079643C0C97C9763CCC1404000000000000000000C00000016000000000000
310
C00C00000010000000FFFFFFFF0C00000012000000FFFFFFFF0C00000017000000000000000C00000014000000010000000C00000013000000020000000C00000016000000000000C00C00000017000000FFFFFFFF3C0000000600000002000000FBBC37CC079643C0C97C9763CCC140400000000000000000C8890499D402
310
42C0CA7C9763CCC1404000000000000000000C00000016000000000000C00C00000010000000FFFFFFFF0C00000012000000FFFFFFFF0C00000017000000000000000C00000014000000010000000C00000013000000030000000C00000016000000000000C00C00000017000000FFFFFFFF3C0000000600000002000000FB
310
BC37CC079643C0203BD852B78C40400000000000000000C8890499D40242C0CA7C9763CCC1404000000000000000000C00000016000000000000C00C00000010000000FFFFFFFF0C00000012000000FFFFFFFF0C00000017000000000000000C00000014000000010000000C00000013000000040000000C00000016000000
310
000000C00C00000017000000FFFFFFFF3C0000000600000002000000C8890499D40242C0CA7C9763CCC140400000000000000000FBBC37CC079643C073BE5674E1F6404000000000000000000C00000016000000000000C00C00000010000000FFFFFFFF0C00000012000000FFFFFFFF0C00000017000000000000000C0000
310
0014000000010000000C00000013000000050000000C00000016000000000000C0
 93
     1473
310
5DCC8B77198287A41C0329F25D8F3305010219FD35022281B66F19197D35022281B64F2A54051F8000000C800AA32224126750091F00C87C9763CCC140409018FFFFFFFF32224126750090B00CA7C9763CCC14040A8FFFFFFFF1FFFFFFFF191120933A8048F80643E4BB1E660A02045409C87038F06AFF3A3946C016058C7F
310
5962D0502A0000000000003C2FC65F4D4088A86D9BC68333333333333094041D050000000000003C2FC000000000000F0BF40401015213500500
340
634
340
640
330
0
330
0
340
0
340
0
340
623
330
0
330
0
 94
        0
  0
ACAD_PROXY_ENTITY
  5
78E
330
22
100
AcDbEntity
  8
AM_5
100
AcDbProxyEntity
 90
      498
 91
      571
 95
       25
 70
     0
 92
      668
310
9C020000270000000C00000016000000000000C00C00000013000000010000000C00000016000000000000C00C00000017000000FFFFFFFF3C0000000600000002000000C8890499D40247C0C87C9763CCC140400000000000000000BD890499D40247C0FA5F952DFFA93A4000000000000000000C00000016000000000000
310
C00C00000010000000FFFFFFFF0C00000012000000FFFFFFFF0C00000017000000000000000C00000014000000010000000C00000013000000020000000C00000016000000000000C00C00000017000000FFFFFFFF3C0000000600000002000000BD890499D40247C0FA5F952DFFA93A400000000000000000B8890499D402
310
47C094F92EC79883374000000000000000000C00000016000000000000C00C00000010000000FFFFFFFF0C00000012000000FFFFFFFF0C00000017000000000000000C00000014000000010000000C00000013000000030000000C00000016000000000000C00C00000017000000FFFFFFFF3C000000060000000200000066
310
CBC3A9E93747C0F95F952DFFA93A400000000000000000B8890499D40247C094F92EC79883374000000000000000000C00000016000000000000C00C00000010000000FFFFFFFF0C00000012000000FFFFFFFF0C00000017000000000000000C00000014000000010000000C00000013000000040000000C00000016000000
310
000000C00C00000017000000FFFFFFFF3C0000000600000002000000B8890499D40247C094F92EC798833740000000000000000014484588BFCD46C0FC5F952DFFA93A4000000000000000000C00000016000000000000C00C00000010000000FFFFFFFF0C00000012000000FFFFFFFF0C00000017000000000000000C0000
310
0014000000010000000C00000013000000050000000C00000016000000000000C0
 93
     1537
310
5DCB8890499D40247C027154271901C8D902465F4D4088A06D13C866F4D4088A06D13C0000000000003C2FEA54051F8000000C800AA32224126750091F00C87C9763CCC140409018FFFFFFFF2E224126750091F0094F92EC798833740A8FFFFFFFF1FFFFFFFF191120933A8048F80643E4BB1E660A02045409C87038F06AFF
310
3A3946C01C31BEE4D97C0FD02A0000000000003C2FD197D35022281B44F28333333333333094041D050000000000003C2FC000000000000F0BF40401015213500500
340
634
340
640
330
0
330
0
340
0
340
0
340
623
330
0
330
0
 94
        0
  0
TEXT
  5
78F
330
22
100
AcDbEntity
  8
AM_6
100
AcDbText
 10
-46.88271048642321
 20
15.88656796206865
 30
0.0
 40
4.0
  1
0%%D
100
AcDbText
  0
TEXT
  5
790
330
22
100
AcDbEntity
  8
AM_6
100
AcDbText
 10
-34.29780787522969
 20
31.62163071145574
 30
0.0
 40
4.0
  1
0%%D
100
AcDbText
  0
ENDSEC
  0
SECTION
  2
OBJECTS
  0
DICTIONARY
  5
C
330
0
100
AcDbDictionary
281
     1
  3
ACAD_COLOR
350
1B
  3
ACAD_GROUP
350
D
  3
ACAD_LAYOUT
350
19
  3
ACAD_MATERIAL
350
1A
  3
ACAD_MLINESTYLE
350
16
  3
ACAD_PLOTSETTINGS
350
18
  3
ACAD_PLOTSTYLENAME
350
E
  3
ACAD_TABLESTYLE
350
1C
  3
AcAmCatalogState
350
385
  3
ACDBHEADERROUNDTRIPXREC
350
794
  3
AcDbVariableDictionary
350
3D6
  3
ACDMSYSVARMGR
350
33F
  3
ACGREF_MASTER
350
339
  3
ACGREFACAD_MASTER
350
361
  3
AcmDictionary
350
383
  3
ACME_BOM_MANAGER_NAME
350
333
  3
ACME_COMMAND_HISTORY
350
330
  3
ACME_SCOPE_NAME
350
32F
  3
ACMESTATEMGR
350
338
  3
AcmeSysVarManager
350
331
  3
AcmSystemVariableManager
350
38E
  3
AD_APPL
350
370
  3
ADSYSVARMGR
350
36F
  3
AmdtNamedDwgMgr
350
35C
  3
AMG
350
365
  3
AMGSNAPSETTINGS
350
3C5
  3
AMI_MASTER
350
364
  3
AUTOCAD_ASSEMBLIES_PROJECT
350
378
  3
Designer_Assemblies_SysVars
350
373
  3
GREFAM_MODULE
350
369
  0
DICTIONARY
  5
62E
330
2
100
AcDbDictionary
280
     1
281
     1
  3
ACAD_LAYERSTATES
360
62F
  0
DICTIONARY
  5
1B
102
{ACAD_REACTORS
330
C
102
}
330
C
100
AcDbDictionary
281
     1
  0
DICTIONARY
  5
D
102
{ACAD_REACTORS
330
C
102
}
330
C
100
AcDbDictionary
281
     1
  0
DICTIONARY
  5
19
102
{ACAD_REACTORS
330
C
102
}
330
C
100
AcDbDictionary
281
     1
  3
Model
350
25
  3
レイアウト1
350
21
  0
DICTIONARY
  5
1A
102
{ACAD_REACTORS
330
C
102
}
330
C
100
AcDbDictionary
281
     1
  0
DICTIONARY
  5
16
102
{ACAD_REACTORS
330
C
102
}
330
C
100
AcDbDictionary
281
     1
  3
Standard
350
17
  0
DICTIONARY
  5
18
102
{ACAD_REACTORS
330
C
102
}
330
C
100
AcDbDictionary
281
     1
  0
ACDBDICTIONARYWDFLT
  5
E
102
{ACAD_REACTORS
330
C
102
}
330
C
100
AcDbDictionary
281
     1
  3
Normal
350
F
100
AcDbDictionaryWithDefault
340
F
  0
DICTIONARY
  5
1C
102
{ACAD_REACTORS
330
C
102
}
330
C
100
AcDbDictionary
281
     1
  3
Standard
350
1D
  0
ACAD_PROXY_OBJECT
  5
385
102
{ACAD_REACTORS
330
C
102
}
330
C
100
AcDbProxyObject
 90
      499
 91
      545
 95
       25
 70
     0
 93
      504
310
3FFFFFFFE00A0281402992E2E21BA3239AE483ECB654563CBCEAE4AABC7C0483ECB652E487CC6F6CBB846A445F7AE41BDC1B341A12E272A25C83ECB65400AA
  0
DICTIONARY
  5
794
102
{ACAD_REACTORS
330
C
102
}
330
C
100
AcDbDictionary
281
     1
  3
COLORDICT
350
795
  3
MATERIALDICT
350
796
  0
DICTIONARY
  5
3D6
102
{ACAD_REACTORS
330
C
102
}
330
C
100
AcDbDictionary
281
     1
  3
CTABLESTYLE
350
3D7
  3
DIMASSOC
350
792
  3
HIDETEXT
350
793
  0
ACAD_PROXY_OBJECT
  5
33F
102
{ACAD_REACTORS
330
C
102
}
330
C
100
AcDbProxyObject
 90
      499
 91
      505
 95
       25
 70
     0
 93
      240
310
4C51A47A0000000000000000000000000000000000000000000000000000
330
340
330
341
330
342
330
343
330
344
330
345
330
346
330
347
330
348
330
349
330
34A
330
34B
330
34C
330
34D
330
34E
330
34F
330
350
330
351
330
352
330
353
330
354
330
355
330
356
330
357
330
358
330
359
 94
        0
  0
ACAD_PROXY_OBJECT
  5
339
102
{ACAD_REACTORS
330
C
102
}
330
C
100
AcDbProxyObject
 90
      499
 91
      513
 95
       25
 70
     0
 93
       34
310
0400004280
  0
ACAD_PROXY_OBJECT
  5
361
102
{ACAD_REACTORS
330
C
102
}
330
C
100
AcDbProxyObject
 90
      499
 91
      522
 95
       25
 70
     0
 93
      114
310
04000041C080000000000000000000
  0
DICTIONARY
  5
383
102
{ACAD_REACTORS
330
C
102
}
330
C
100
AcDbDictionary
281
     1
  3
AcmBOMDATA
350
384
  3
AcmStdDictionary
350
390
  3
AMDTSECTSYM_ARROWCOLOR
350
3B0
  0
ACAD_PROXY_OBJECT
  5
333
102
{ACAD_REACTORS
330
C
102
}
330
C
100
AcDbProxyObject
 90
      499
 91
      507
 95
       25
 70
     0
 93
       50
310
00010040400000
330
0
330
0
330
334
 94
        0
  0
ACAD_PROXY_OBJECT
  5
330
102
{ACAD_REACTORS
330
C
102
}
330
C
100
AcDbProxyObject
 90
      499
 91
      504
 95
       25
 70
     0
 93
     8812
310
47805055153415645408052D4D5347202D205050413A2020206465736B746F702E6172782046696C6556657273696F6E3A20392E322E302E34014B5354D1C80B481414104E88080819195CDADD1BDC0B985C9E08119A5B1955995C9CDA5BDB8E880E4B8C8B8C0B8D0050E414D4454524553455444424D4F4440805084E202D
310
20554E444F014213880B4815539113C0504554E444F80504554E444F805055055524745805055153415645404052D4D5347202D205050413A2020206465736B746F702E6172782046696C6556657273696F6E3A20392E322E302E34014390535115149154D15511109353D1102014213880B4815539113C05084E202D20554
310
E444F014115539113E014115539113E01419493D510551150101461354D1C80B4810DBDB5B585B990810D05390D1531311510B8050844524F5047454F4D408052D4D5347202D205050413A2020206465736B746F702E6172782046696C6556657273696F6E3A20392E322E302E34014B5354D1C80B481414104E8808081919
310
5CDADD1BDC0B985C9E08119A5B1955995C9CDA5BDB8E880E4B8C8B8C0B8D005044C494E4540405184D5347202D20436F6D6D616E642043414E43454C4C45442E01411353D591601411693D3D3601411312539150101461354D1C80B4810DBDB5B585B990810D05390D1531311510B805055153415645404052D4D5347202D2
310
05050413A2020206465736B746F702E6172782046696C6556657273696F6E3A20392E322E302E3401415454D05591501014B5354D1C80B481414104E88080819195CDADD1BDC0B985C9E08119A5B1955995C9CDA5BDB8E880E4B8C8B8C0B8D005055153415645408052D4D5347202D205050413A2020206465736B746F702E
310
6172782046696C6556657273696F6E3A20392E322E302E3401461354D1C80B4810DBDB5B585B990810D05390D1531311510B805045A4F4F4D805055153415645404052D4D5347202D205050413A2020206465736B746F702E6172782046696C6556657273696F6E3A20392E322E302E3401415454D05591501014B5354D1C8
310
0B481414104E88080819195CDADD1BDC0B985C9E08119A5B1955995C9CDA5BDB8E880E4B8C8B8C0B8D0050644444544495440805184D5347202D20436F6D6D616E642043414E43454C4C45442E014B5354D1C80B481414104E88080819195CDADD1BDC0B985C9E08119A5B1955995C9CDA5BDB8E880E4B8C8B8C0B8D005044
310
C494E4540405184D5347202D20436F6D6D616E642043414E43454C4C45442E01415454D05591501014B5354D1C80B481414104E88080819195CDADD1BDC0B985C9E08119A5B1955995C9CDA5BDB8E880E4B8C8B8C0B8D0050E414D4454524553455444424D4F4440805084E202D20554E444F014213880B4815539113C0504
310
554E444F80504554E444F805054552415345805095041535445434C4950805055153415645404052D4D5347202D205050413A2020206465736B746F702E6172782046696C6556657273696F6E3A20392E322E302E340
  0
ACAD_PROXY_OBJECT
  5
32F
102
{ACAD_REACTORS
330
C
102
}
330
C
100
AcDbProxyObject
 90
      499
 91
      503
 95
       25
 70
     0
 93
      546
310
090000464080000000000000000012F4CE0000000000000000000000000000000000000000000000000000000000000000000000000000000000000000000000AAA406AA80
360
332
360
334
360
33A
360
33B
360
33C
360
33D
360
340
360
341
360
342
360
343
360
344
360
345
360
346
360
347
360
348
360
349
360
34A
360
34B
360
34C
360
34D
360
34E
360
34F
360
350
360
351
360
352
360
353
360
354
360
355
360
356
360
357
360
358
360
359
360
36B
360
36C
360
36D
360
36E
360
374
360
375
360
376
360
377
360
37C
360
37D
360
37E
360
37F
360
380
360
381
360
38F
 94
        0
  0
ACAD_PROXY_OBJECT
  5
338
102
{ACAD_REACTORS
330
C
102
}
330
C
100
AcDbProxyObject
 90
      499
 91
      512
 95
       25
 70
     0
 93
       50
310
09000042641280
  0
ACAD_PROXY_OBJECT
  5
331
102
{ACAD_REACTORS
330
C
102
}
330
C
100
AcDbProxyObject
 90
      499
 91
      505
 95
       25
 70
     0
 93
       32
310
90140A00
330
332
 94
        0
  0
ACAD_PROXY_OBJECT
  5
38E
102
{ACAD_REACTORS
330
C
102
}
330
C
100
AcDbProxyObject
 90
      499
 91
      505
 95
       25
 70
     0
 93
       32
310
90140A00
330
38F
 94
        0
  0
ACAD_PROXY_OBJECT
  5
370
102
{ACAD_REACTORS
330
C
102
}
330
C
100
AcDbProxyObject
 90
      499
 91
      533
 95
       25
 70
     0
 93
       42
310
000900004040
330
36B
 94
        0
  0
ACAD_PROXY_OBJECT
  5
36F
102
{ACAD_REACTORS
330
C
102
}
330
C
100
AcDbProxyObject
 90
      499
 91
      505
 95
       25
 70
     0
 93
        8
310
AA
  0
ACAD_PROXY_OBJECT
  5
35C
102
{ACAD_REACTORS
330
C
102
}
330
C
100
AcDbProxyObject
 90
      499
 91
      519
 95
       25
 70
     0
 93
       42
310
000100005E80
330
33A
 94
        0
  0
DICTIONARY
  5
365
102
{ACAD_REACTORS
330
C
102
}
330
C
100
AcDbDictionary
281
     1
  3
AcMgSettings
350
366
  3
AMGLAYCFG
350
392
  0
DICTIONARY
  5
3C5
102
{ACAD_REACTORS
330
C
102
}
330
C
100
AcDbDictionary
281
     1
  3
DIMENSION
350
3CA
  3
FEA
350
3C9
  3
HATCH (1)
350
3C6
  3
HATCH (2)
350
3C7
  3
SIMPLE WELD
350
3CB
  3
SYMBOLS
350
3C8
  0
ACAD_PROXY_OBJECT
  5
364
102
{ACAD_REACTORS
330
C
102
}
330
C
100
AcDbProxyObject
 90
      499
 91
      525
 95
       25
 70
     0
 93
       34
310
0500004280
  0
ACAD_PROXY_OBJECT
  5
378
102
{ACAD_REACTORS
330
C
102
}
330
C
100
AcDbProxyObject
 90
      499
 91
      537
 95
       25
 70
     0
 93
       98
310
0900004E400000000000000000
330
37F
330
0
330
380
330
0
330
0
330
0
330
0
330
0
 94
        0
  0
ACAD_PROXY_OBJECT
  5
373
102
{ACAD_REACTORS
330
C
102
}
330
C
100
AcDbProxyObject
 90
      499
 91
      505
 95
       25
 70
     0
 93
       56
310
90441600000000
330
374
330
375
330
376
330
377
 94
        0
  0
ACAD_PROXY_OBJECT
  5
369
102
{ACAD_REACTORS
330
C
102
}
330
C
100
AcDbProxyObject
 90
      499
 91
      527
 95
       25
 70
     0
 93
        8
310
05
  0
DICTIONARY
  5
62F
102
{ACAD_REACTORS
330
62E
102
}
330
62E
100
AcDbDictionary
281
     1
  0
LAYOUT
  5
25
102
{ACAD_REACTORS
330
19
102
}
330
19
100
AcDbPlotSettings
  1

  2
Canon LBP-1420
  4
A4
  6

 40
5.873749732971191
 41
5.873747825622559
 42
5.873748779296875
 43
5.873748779296875
 44
209.9733276367188
 45
296.9259948730469
 46
0.0
 47
0.0
 48
0.0
 49
0.0
140
400.0
141
273.0
142
1.0
143
1.402630290955233
 70
 11952
 72
     1
 73
     1
 74
     4
  7
sei_cad.ctb
 75
     0
147
0.7129462456703186
148
0.0
149
0.0
100
AcDbLayout
  1
Model
 70
     1
 71
     0
 10
0.0
 20
0.0
 11
12.0
 21
9.0
 12
0.0
 22
0.0
 32
0.0
 14
0.0
 24
0.0
 34
0.0
 15
0.0
 25
0.0
 35
0.0
146
0.0
 13
0.0
 23
0.0
 33
0.0
 16
1.0
 26
0.0
 36
0.0
 17
0.0
 27
1.0
 37
0.0
 76
     0
330
22
1001
ACAD_PSEXT
1000
Canon LBP-1420
1000
Canon LASER SHOT LBP-1420
1000
10.254.89.243:lp
1000

1070
     0
  0
LAYOUT
  5
21
102
{ACAD_REACTORS
330
19
102
}
330
19
100
AcDbPlotSettings
  1

  2
Canon LBP-1420
  4

  6

 40
0.0
 41
0.0
 42
0.0
 43
0.0
 44
0.0
 45
0.0
 46
0.0
 47
0.0
 48
0.0
 49
0.0
140
0.0
141
0.0
142
1.0
143
1.0
 70
   688
 72
     0
 73
     0
 74
     5
  7
sei_cad.ctb
 75
    16
147
1.0
148
0.0
149
0.0
100
AcDbLayout
  1
レイアウト1
 70
     1
 71
     1
 10
0.0
 20
0.0
 11
12.0
 21
9.0
 12
0.0
 22
0.0
 32
0.0
 14
1.000000000000000E+20
 24
1.000000000000000E+20
 34
1.000000000000000E+20
 15
-1.000000000000000E+20
 25
-1.000000000000000E+20
 35
-1.000000000000000E+20
146
0.0
 13
0.0
 23
0.0
 33
0.0
 16
1.0
 26
0.0
 36
0.0
 17
0.0
 27
1.0
 37
0.0
 76
     0
330
1E
  0
MLINESTYLE
  5
17
102
{ACAD_REACTORS
330
16
102
}
330
16
100
AcDbMlineStyle
  2
STANDARD
 70
     0
  3

 62
   256
 51
90.0
 52
90.0
 71
     2
 49
0.5
 62
   256
  6
BYLAYER
 49
-0.5
 62
   256
  6
BYLAYER
  0
ACDBPLACEHOLDER
  5
F
102
{ACAD_REACTORS
330
E
102
}
330
E
  0
TABLESTYLE
  5
1D
102
{ACAD_REACTORS
330
1C
102
}
330
1C
100
AcDbTableStyle
  3
Standard
 70
     0
 71
     0
 40
0.06
 41
0.06
280
     0
281
     0
  7
STANDARD
140
0.18
170
     2
 62
     0
 63
     7
283
     0
274
    -2
284
     1
 64
     0
275
    -2
285
     1
 65
     0
276
    -2
286
     1
 66
     0
277
    -2
287
     1
 67
     0
278
    -2
288
     1
 68
     0
279
    -2
289
     1
 69
     0
  7
STANDARD
140
0.25
170
     5
 62
     0
 63
     7
283
     0
274
    -2
284
     1
 64
     0
275
    -2
285
     1
 65
     0
276
    -2
286
     1
 66
     0
277
    -2
287
     1
 67
     0
278
    -2
288
     1
 68
     0
279
    -2
289
     1
 69
     0
  7
STANDARD
140
0.18
170
     5
 62
     0
 63
     7
283
     0
274
    -2
284
     1
 64
     0
275
    -2
285
     1
 65
     0
276
    -2
286
     1
 66
     0
277
    -2
287
     1
 67
     0
278
    -2
288
     1
 68
     0
279
    -2
289
     1
 69
     0
  0
XRECORD
  5
795
102
{ACAD_REACTORS
330
794
102
}
330
794
100
AcDbXrecord
280
     1
340
1B
  0
XRECORD
  5
796
102
{ACAD_REACTORS
330
794
102
}
330
794
100
AcDbXrecord
280
     1
340
1A
  0
DICTIONARYVAR
  5
3D7
102
{ACAD_REACTORS
330
3D6
102
}
330
3D6
100
DictionaryVariables
280
     0
  1
STANDARD
  0
DICTIONARYVAR
  5
792
102
{ACAD_REACTORS
330
3D6
102
}
330
3D6
100
DictionaryVariables
280
     0
  1
1
  0
DICTIONARYVAR
  5
793
102
{ACAD_REACTORS
330
3D6
102
}
330
3D6
100
DictionaryVariables
280
     0
  1
0
  0
ACAD_PROXY_OBJECT
  5
384
102
{ACAD_REACTORS
330
383
102
}
330
383
100
AcDbProxyObject
 90
      499
 91
      544
 95
       25
 70
     0
 93
       76
310
90100057356C1D774120
  0
DICTIONARY
  5
390
102
{ACAD_REACTORS
330
383
102
}
330
383
100
AcDbDictionary
281
     1
  3
ANSI
350
391
  3
JIS
350
634
  0
XRECORD
  5
3B0
102
{ACAD_REACTORS
330
383
102
}
330
383
100
AcDbXrecord
280
     1
 90
-1023410169
  0
ACAD_PROXY_OBJECT
  5
332
330
32F
100
AcDbProxyObject
 90
      499
 91
      506
 95
       25
 70
     0
 93
      156
310
000101439050D35154D6535093D314D256915080
330
32F
 94
        0
  0
ACAD_PROXY_OBJECT
  5
334
330
32F
100
AcDbProxyObject
 90
      499
 91
      508
 95
       25
 70
     0
 93
      120
310
000101422565255A6557080C402B00
330
32F
330
0
330
0
 94
        0
  0
ACAD_PROXY_OBJECT
  5
33A
330
32F
100
AcDbProxyObject
 90
      499
 91
      514
 95
       25
 70
     0
 93
      366
310
0001014124FEA55D00507392E322E302E32014124FEA55D00507392E322E302E3240501000041905394D24CCC658
330
32F
330
33B
330
33F
 94
        0
  0
ACAD_PROXY_OBJECT
  5
33B
330
32F
100
AcDbProxyObject
 90
      499
 91
      515
 95
       25
 70
     0
 93
       48
310
000190140A00
330
32F
330
33C
 94
        0
  0
ACAD_PROXY_OBJECT
  5
33C
330
32F
100
AcDbProxyObject
 90
      499
 91
      516
 95
       25
 70
     0
 93
       48
310
0001AA000000
330
32F
330
21
330
33D
330
0
 94
        0
  0
ACAD_PROXY_OBJECT
  5
33D
330
32F
100
AcDbProxyObject
 90
      499
 91
      517
 95
       25
 70
     0
 93
       28
310
0001AAA0
330
32F
 94
        0
  0
ACAD_PROXY_OBJECT
  5
340
330
32F
100
AcDbProxyObject
 90
      499
 91
      506
 95
       25
 70
     0
 93
      108
310
000101421053521310D05310D010
330
32F
 94
        0
  0
ACAD_PROXY_OBJECT
  5
341
330
32F
100
AcDbProxyObject
 90
      499
 91
      506
 95
       25
 70
     0
 93
      124
310
00010142905354915554D15112535010
330
32F
 94
        0
  0
ACAD_PROXY_OBJECT
  5
342
330
32F
100
AcDbProxyObject
 90
      499
 91
      506
 95
       25
 70
     0
 93
      132
310
00010143105354D150D51253D391125360
330
32F
 94
        0
  0
ACAD_PROXY_OBJECT
  5
343
330
32F
100
AcDbProxyObject
 90
      499
 91
      506
 95
       25
 70
     0
 93
      124
310
00010142905355941093D49111549010
330
32F
 94
        0
  0
ACAD_PROXY_OBJECT
  5
344
330
32F
100
AcDbProxyObject
 90
      499
 91
      506
 95
       25
 70
     0
 93
      116
310
0001014290535115D1D0D3D313D4A0
330
32F
 94
        0
  0
ACAD_PROXY_OBJECT
  5
345
330
32F
100
AcDbProxyObject
 90
      499
 91
      506
 95
       25
 70
     0
 93
      148
310
00010143505355925155D49151949154D21010
330
32F
 94
        0
  0
ACAD_PROXY_OBJECT
  5
346
330
32F
100
AcDbProxyObject
 90
      499
 91
      506
 95
       25
 70
     0
 93
      172
310
00010144105350539393D51154149154D15495915010
330
32F
 94
        0
  0
ACAD_PROXY_OBJECT
  5
347
330
32F
100
AcDbProxyObject
 90
      499
 91
      506
 95
       25
 70
     0
 93
      172
310
00010144105350555513D11253505494905391D15010
330
32F
 94
        0
  0
ACAD_PROXY_OBJECT
  5
348
330
32F
100
AcDbProxyObject
 90
      499
 91
      506
 95
       25
 70
     0
 93
      124
310
00010142D05351561514915191125360
330
32F
 94
        0
  0
ACAD_PROXY_OBJECT
  5
349
330
32F
100
AcDbProxyObject
 90
      499
 91
      506
 95
       25
 70
     0
 93
      132
310
00010142D05355105410539393D5115010
330
32F
 94
        0
  0
ACAD_PROXY_OBJECT
  5
34A
330
32F
100
AcDbProxyObject
 90
      499
 91
      506
 95
       25
 70
     0
 93
      108
310
00010142105350555513D0D31010
330
32F
 94
        0
  0
ACAD_PROXY_OBJECT
  5
34B
330
32F
100
AcDbProxyObject
 90
      499
 91
      506
 95
       25
 70
     0
 93
      108
310
00010142105350D3119150551050
330
32F
 94
        0
  0
ACAD_PROXY_OBJECT
  5
34C
330
32F
100
AcDbProxyObject
 90
      499
 91
      506
 95
       25
 70
     0
 93
      108
310
00010142105350D315925155D3F0
330
32F
 94
        0
  0
ACAD_PROXY_OBJECT
  5
34D
330
32F
100
AcDbProxyObject
 90
      499
 91
      506
 95
       25
 70
     0
 93
      148
310
0001014350535212511156915493D112535010
330
32F
 94
        0
  0
ACAD_PROXY_OBJECT
  5
34E
330
32F
100
AcDbProxyObject
 90
      499
 91
      506
 95
       25
 70
     0
 93
      124
310
00010142905352105510D21254D3D010
330
32F
 94
        0
  0
ACAD_PROXY_OBJECT
  5
34F
330
32F
100
AcDbProxyObject
 90
      499
 91
      506
 95
       25
 70
     0
 93
      148
310
00010143905354D25391D31152105513105660
330
32F
 94
        0
  0
ACAD_PROXY_OBJECT
  5
350
330
32F
100
AcDbProxyObject
 90
      499
 91
      506
 95
       25
 70
     0
 93
      124
310
00010142D0535115D1D193111254D420
330
32F
 94
        0
  0
ACAD_PROXY_OBJECT
  5
351
330
32F
100
AcDbProxyObject
 90
      499
 91
      506
 95
       25
 70
     0
 93
      100
310
00010142105350555513D213A0
330
32F
 94
        0
  0
ACAD_PROXY_OBJECT
  5
352
330
32F
100
AcDbProxyObject
 90
      499
 91
      506
 95
       25
 70
     0
 93
      116
310
000101425053521390D3D553951010
330
32F
 94
        0
  0
ACAD_PROXY_OBJECT
  5
353
330
32F
100
AcDbProxyObject
 90
      499
 91
      506
 95
       25
 70
     0
 93
      108
310
0001014210535213941493D29010
330
32F
 94
        0
  0
ACAD_PROXY_OBJECT
  5
354
330
32F
100
AcDbProxyObject
 90
      499
 91
      506
 95
       25
 70
     0
 93
      108
310
0001014210535213951654115070
330
32F
 94
        0
  0
ACAD_PROXY_OBJECT
  5
355
330
32F
100
AcDbProxyObject
 90
      499
 91
      506
 95
       25
 70
     0
 93
      108
310
000101421053521395925155D0F0
330
32F
 94
        0
  0
ACAD_PROXY_OBJECT
  5
356
330
32F
100
AcDbProxyObject
 90
      499
 91
      506
 95
       25
 70
     0
 93
      140
310
00010143505354D150D51253D390D3D41660
330
32F
 94
        0
  0
ACAD_PROXY_OBJECT
  5
357
330
32F
100
AcDbProxyObject
 90
      499
 91
      506
 95
       25
 70
     0
 93
      108
310
00010142105350D3141493D29030
330
32F
 94
        0
  0
ACAD_PROXY_OBJECT
  5
358
330
32F
100
AcDbProxyObject
 90
      499
 91
      518
 95
       25
 70
     0
 93
      212
310
00010143905350555513D2105510D21493D500000000000002E400
330
32F
 94
        0
  0
ACAD_PROXY_OBJECT
  5
359
330
32F
100
AcDbProxyObject
 90
      499
 91
      506
 95
       25
 70
     0
 93
      156
310
00010143905350555513D2105510D21111551010
330
32F
 94
        0
  0
ACAD_PROXY_OBJECT
  5
36B
330
32F
100
AcDbProxyObject
 90
      499
 91
      529
 95
       25
 70
     0
 93
      698
310
0001000000009AA6A9AA4051E546875204175672032342030303A34383A353920323030362028555443290141CE4B8C8B8C0B8C80518576564205365702030312030393A33353A313720323031300141CE4B8C8B8C0B8C80
330
32F
330
36C
330
36D
330
36F
330
0
 94
        0
  0
ACAD_PROXY_OBJECT
  5
36C
330
32F
100
AcDbProxyObject
 90
      499
 91
      530
 95
       25
 70
     0
 93
       70
310
0001AAA80820000000
330
32F
330
36C
330
36C
 94
        0
  0
ACAD_PROXY_OBJECT
  5
36D
330
32F
100
AcDbProxyObject
 90
      499
 91
      531
 95
       25
 70
     0
 93
       48
310
000100000000
330
32F
330
0
330
36E
330
0
330
0
 94
        0
  0
ACAD_PROXY_OBJECT
  5
36E
330
32F
100
AcDbProxyObject
 90
      499
 91
      532
 95
       25
 70
     0
 93
       40
310
000100AAAA
330
32F
330
0
 94
        0
  0
ACAD_PROXY_OBJECT
  5
374
330
32F
100
AcDbProxyObject
 90
      499
 91
      536
 95
       25
 70
     0
 93
      180
310
00010143105050D3D35411119390535140504434F4D500
330
32F
 94
        0
  0
ACAD_PROXY_OBJECT
  5
375
330
32F
100
AcDbProxyObject
 90
      499
 91
      536
 95
       25
 70
     0
 93
      212
310
0001014390505193D311115491119390535140506466F6C6465720
330
32F
 94
        0
  0
ACAD_PROXY_OBJECT
  5
376
330
32F
100
AcDbProxyObject
 90
      499
 91
      536
 95
       25
 70
     0
 93
      180
310
00010143105050539393D1119390535140504284156290
330
32F
 94
        0
  0
ACAD_PROXY_OBJECT
  5
377
330
32F
100
AcDbProxyObject
 90
      499
 91
      536
 95
       25
 70
     0
 93
      436
310
00010143905050D3D35415925155D31254D50052295BD96CA0A90B396CA0A894591A496CA0A8DB691A496CA0A89BA96CA0A95E28F95310
330
32F
 94
        0
  0
ACAD_PROXY_OBJECT
  5
37C
330
32F
100
AcDbProxyObject
 90
      499
 91
      538
 95
       25
 70
     0
 93
       32
310
00010000
330
32F
340
379
330
37E
330
379
 94
        0
  0
ACAD_PROXY_OBJECT
  5
37D
330
32F
100
AcDbProxyObject
 90
      499
 91
      539
 95
       25
 70
     0
 93
       18
310
000180
330
32F
 94
        0
  0
ACAD_PROXY_OBJECT
  5
37E
330
32F
100
AcDbProxyObject
 90
      499
 91
      540
 95
       25
 70
     0
 93
      186
310
000101431494CC8D534B54D115530C4C5050055401550000
330
32F
330
37C
330
37D
 94
        0
  0
ACAD_PROXY_OBJECT
  5
37F
330
32F
100
AcDbProxyObject
 90
      499
 91
      541
 95
       25
 70
     0
 93
      178
310
000100AAAAAA88EC94B869A4C713AB0EED272548798D80
330
32F
330
37E
 94
        0
  0
ACAD_PROXY_OBJECT
  5
380
330
32F
100
AcDbProxyObject
 90
      499
 91
      542
 95
       25
 70
     0
 93
      108
310
000190140A000000000000AAAAA0
330
32F
330
381
330
381
330
381
330
381
330
381
330
0
 94
        0
  0
ACAD_PROXY_OBJECT
  5
381
330
32F
100
AcDbProxyObject
 90
      499
 91
      543
 95
       25
 70
     0
 93
       51
310
00010000AAAA80
330
32F
330
380
330
37E
 94
        0
  0
ACAD_PROXY_OBJECT
  5
38F
330
32F
100
AcDbProxyObject
 90
      499
 91
      536
 95
       25
 70
     0
 93
      148
310
00010142105350D55494D51100504414E53490
330
32F
 94
        0
  0
DICTIONARY
  5
366
102
{ACAD_REACTORS
330
365
102
}
330
365
100
AcDbDictionary
281
     1
  3
DWGSETTINGS
350
367
  3
Shaft
350
50C
  3
TRANSSETTINGS
350
368
  0
ACAD_PROXY_OBJECT
  5
392
102
{ACAD_REACTORS
330
365
102
}
330
365
100
AcDbProxyObject
 90
      499
 91
      551
 95
       25
 70
     0
 93
    17920
310
41503491013041105357CC201C00030C011E441013141105357CC603800030C011E441013241105357CCA01400030C011E441013341105357CCE01800030C010F9013441105357CD200C00030C010F9013541105357CD600C00030C010F9013641105357CDA00800030C011E9013741105357CDE01000030C010F901384110
310
5357CE200400030C010F9013941105357CE63F400030C0241102324141505357CC4C201C00030C011E902344141505357CC4C600C00030C010F902495041505357CC4CA01C00030C011E40902304E41505357CC13A01C00030C011E902314E41505357CC53A03800030C011E902324E41505357CC93A01400030C011E90233
310
4E41505357CCD3A01800030C010F902344E41505357CD13A00C00030C010F902354E41505357CD53A00C00030C010F902364E41505357CD93A00800030C011E902374E41505357CDD3A01000030C010F902384E41505357CE13A00400030C010F902394E41505357CE53A3F400030C024110332414E41905357CC4C13A01C0
310
0030C011E90334414E41905357CC4C53A00C00030C010F90349504E41905357CC4C93A01C00030C011E409044B4C494E41505357D0D3200400030C010F42504494E464F42105357D410549151A01000030C010F42D055241484D3541905357D093D4A01C00030C011E425045649455742105357D5925155D4E00400030C010
310
F42D06424548494E4441905357D25395A3F400030C0243505545241494C41505357D514A00C00030C010F4250348494441905357D21251201C00030C010F4250356495341905357D59254E01C00030C011E4250650415244494D42505357D41054911253600C00030C010F4250652454644494D42505357D49151911253601
310
000030C010F425534110921395901398000000C0003FFFFFFFE415092139594D06424548494E448000000C0003FFFFFFFE411093D48C9055241484D358010000C30043E411093D48CD055241484D358020000C30047A411093D48D5055241484D358000000C0003FFFFFFFE4110D0530C901348000000C0003FFFFFFFE4110
310
D0530CD01348020000C30047A4110D0530D501348070000C30047A4110D0530DD013481E0000C3004F24110D15393901378000000C0003FFFFFFFE4110D15395D01378000000C0003FFFFFFFE4110D312539044B4C494E8000000C0003FFFFFFFE4110D3D38C501308000000C0003FFFFFFFD034110D3D38C901318000000C
310
0003FFFFFFFD034110D3D38CD01328000000C0003FFFFFFFD034110D3D38D101328000000C0003FFFFFFFD034111115510501348000000C0003FFFFFFFE4111125051D01358000000C0003FFFFFFFE4111125312501358000000C0003FFFFFFFE411112535410650415244494D8000000C0003FFFFFFFE4111125354906524
310
54644494D8000000C0003FFFFFFFE4111915353901388000000C0003FFFFFFFE415191535413901388030000C3003FFFFFFFE4151915354D410234418000000C0003FFFFFFFE4151915354D510234418030000C30043E415191535593901328000000C0003FFFFFFFE415191535595101328030000C30043E4112105510D01
310
388000000C0003FFFFFFFD014112125113901338000000C0003FFFFFFFD034112125115D01338000000C0003FFFFFFFD034112131253901348000000C0003FFFFFFFD01411213D0D3901378000000C0003FFFFFFFE411213D0D5D01378000000C0003FFFFFFFE4112539193D04494E464F8000000C0003FFFFFFFE41131150
310
51101358000000C0003FFFFFFFE419397D0921395902394E8000000C0003FFFFFFFE419397D0D3D38C502304E8000000C0003FFFFFFFD03419397D0D3D38C902314E8000000C0003FFFFFFFD03419397D0D3D38CD02324E8000000C0003FFFFFFFD03419397D0D3D38D102324E8000000C0003FFFFFFFD03419397D0D15393
310
902374E8000000C0003FFFFFFFE419397D0D15395D02374E8000000C0003FFFFFFFE419397D1125312502354E8000000C0003FFFFFFFE419397D2105510D02384E8000000C0003FFFFFFFD01419397D2125113902334E8000000C0003FFFFFFFD03419397D2125115D02334E8000000C0003FFFFFFFD03419397D311505110
310
2354E8000000C0003FFFFFFFE419397D391D25410349504E8000000C0003FFFFFFFE419397D412105390334414E8000000C0003FFFFFFFE419397D510D3D3902304E8000000C0003FFFFFFFD03419397D5121312502344E8000000C0003FFFFFFFD01419397D5131153902304E8000000C0003FFFFFFFD03419397D5941312
310
50332414E8000000C0003FFFFFFFE411391D25410249508000000C0003FFFFFFFE411410530C9055241484D358010000C30043E411410530CD055241484D358020000C30047A411410530D5055241484D358000000C0003FFFFFFFE411412105390234418000000C0003FFFFFFFE411413D4D3901358000000C0003FFFFFFF
310
E411490D1D3901378000000C0003FFFFFFFE411490D1D5D01378000000C0003FFFFFFFE4114D09492D01348070000C300479014114D150D5101348000000C0003FFFFFFFD014114D6508CD01358020000C30047A411354D653501358020000C30047A411510D3D3901308000000C0003FFFFFFFD0341151213125013480000
310
00C0003FFFFFFFD01411512550C9055241484D358010000C30043E411512550CD055241484D358020000C30047A411512550D5055241484D358000000C0003FFFFFFFE4115131153901308000000C0003FFFFFFFD03415514905253105545241494C8000000C0003FFFFFFFE4115149312501348000000C0003FFFFFFFD014
310
11516150C501368030000C30043E411516150C901368030000C30043E411516150CD01368000000C0003FFFFFFFE411516150D501368070000C30047A411516150DD013681E0000C3004F24115925155D04564945578000000C0003FFFFFFFE41159151121034849448000000C0003FFFFFFFD024115915115903564953800
310
0000C0003FFFFFFFD02411594131250232418000000C0003FFFFFFFE4116925690501348000000C0003FFFFFFFD01AAA3F400030C01013F90A4391E41D1E4190F4151E4110F40D0F4091E4050F4793C7F6
340
15
340
15
340
15
340
35A
340
15
340
15
340
15
340
27
340
15
340
15
340
27
340
35B
340
15
340
15
340
15
340
15
340
35A
340
15
340
15
340
15
340
27
340
15
340
15
340
27
340
35B
340
15
340
396
340
15
340
15
340
15
340
15
340
15
340
35A
340
15
340
15
340
15
340
14
340
14
340
14
340
14
340
14
340
14
340
14
340
14
340
14
340
39C
340
14
340
14
340
14
340
14
340
14
340
14
340
14
340
14
340
14
340
14
340
14
340
14
340
14
340
15
340
14
340
14
340
14
340
14
340
39D
340
14
340
14
340
39C
340
14
340
14
340
14
340
14
340
14
340
14
340
14
340
14
340
39C
340
14
340
14
340
14
340
39D
340
14
340
14
340
14
340
14
340
14
340
39D
340
14
340
35B
340
14
340
14
340
14
340
14
340
14
340
14
340
39C
340
14
340
14
340
14
340
14
340
14
340
14
340
39D
340
14
340
14
340
14
340
14
340
14
340
14
340
14
340
14
340
14
340
14
340
14
340
14
340
14
340
14
340
35B
340
39E
 94
        0
  0
ACAD_PROXY_OBJECT
  5
3CA
102
{ACAD_REACTORS
330
3C5
102
}
330
3C5
100
AcDbProxyObject
 90
      499
 91
      568
 95
       25
 70
     0
 93
      253
310
43D1444494D454E53494F4E2C414D44545F2A5F44494D404A9012A404A9012A8
  0
ACAD_PROXY_OBJECT
  5
3C9
102
{ACAD_REACTORS
330
3C5
102
}
330
3C5
100
AcDbProxyObject
 90
      499
 91
      568
 95
       25
 70
     0
 93
      181
310
43D012A42D05357D191504B505357CA9012A404A9012A8
  0
ACAD_PROXY_OBJECT
  5
3C6
102
{ACAD_REACTORS
330
3C5
102
}
330
3C5
100
AcDbProxyObject
 90
      499
 91
      568
 95
       25
 70
     0
 93
      133
310
43D054841544348404A9012A404A9012A8
  0
ACAD_PROXY_OBJECT
  5
3C7
102
{ACAD_REACTORS
330
3C5
102
}
330
3C5
100
AcDbProxyObject
 90
      499
 91
      568
 95
       25
 70
     0
 93
      549
310
43D044C494E4549CE0B0E138B0A8B4E0B0A8B4E138B105357CE0B105357CE138B0A8B505357CE0B0A8B505357CE139012A404A910494E534552542C5354445041525432448
  0
ACAD_PROXY_OBJECT
  5
3CB
102
{ACAD_REACTORS
330
3C5
102
}
330
3C5
100
AcDbProxyObject
 90
      499
 91
      568
 95
       25
 70
     0
 93
      181
310
43D0341524341105357CD5012A404C906494E534552540
  0
ACAD_PROXY_OBJECT
  5
3C8
102
{ACAD_REACTORS
330
3C5
102
}
330
3C5
100
AcDbProxyObject
 90
      499
 91
      568
 95
       25
 70
     0
 93
     1053
310
43D7841434D46434652414D452C41434D444154554D5441524745542C41434D444154554D49442C41434D57454C4453594D2C41434D5355524653594D2C41434D4645415449442C41434D504152545245462C41434D42414C4C4F4F4E2C414D44544544474553594D2C414D47534352455743414C435441424C45404A9012A
310
404A9012A8
  0
ACAD_PROXY_OBJECT
  5
391
102
{ACAD_REACTORS
330
390
102
}
330
390
100
AcDbProxyObject
 90
      499
 91
      550
 95
       25
 70
     0
 93
     2395
310
5DCB81E85EB51B8BE3F8030000C30041105394D2501640600800030C0200800030C00B81E85EB51B8BE3F48821E8720B1B6A9BAB9332A32BC3A29BA3220480A1282C6DA8C868CA6E8C88120286A0B1B6ABB2B63234B733A9BA3220480A1082C6DA92C8A6E8C88120285A0B1B6A230BA3AB6A9BA3220480A1282C6DA849E9AA
310
6E8C8812028820B6B23A2232BA30B4B629BCB6A9BA3220480A2282DAC8E8A6CAC6E8D2DEDCA6F2DAA6E8C88120288A0B6B23A21B2B73A32B92634B732A9BA3220480A2282DAC8E8A8D0E4CAC2C898D2DCCAA6E8C88120285A0B6B23A2737BA32A9BA3220480A1682C682DACE98C2F2A6E8C88120285A0B1A0B6B3A234B6A9B
310
A3220480A2282C682DACE90DED8CA86D0C2E4E8A6E8C88120286A0B1A0B6B3AA34BA3632A9BA3220480A02812020
340
39F
360
3A0
360
3A1
360
3A2
360
3A3
360
3A4
360
3A5
360
3A6
360
3A7
360
3A8
360
3A9
360
3AA
360
3B6
360
3B7
360
3C2
360
3C3
340
0
340
0
 94
        0
  0
ACAD_PROXY_OBJECT
  5
634
102
{ACAD_REACTORS
330
390
102
}
330
390
100
AcDbProxyObject
 90
      499
 91
      572
 95
       25
 70
     0
 93
     2379
310
5DC33333333333309408000000C00040D29254D01640600800030C0200800030C003333333333330940C8121E8720B1B6A9BAB9332A32BC3A29BA3220480A1282C6DA8C868CA6E8C88120286A0B1B6ABB2B63234B733A9BA3220480A1082C6DA92C8A6E8C88120285A0B1B6A230BA3AB6A9BA3220480A1282C6DA849E9AA6E
310
8C88120286A0B1A0B6B3AA34BA3632A9BA3220480A2082DAC8E888CAE8C2D2D8A6F2DAA6E8C88120288A0B6B23A29B2B1BA34B7B729BCB6A9BA3220480A2282DAC8E886CADCE8CAE498D2DCCAA6E8C88120288A0B6B23A2A343932B0B22634B732A9BA3220480A1682DAC8E89CDEE8CAA6E8C88120285A0B1A0B6B3A630BCA
310
9BA3220480A1682C682DACE88D2DAA6E8C88120288A0B1A0B6B3A437B632A1B430B93A29BA3220480C812020
340
623
360
635
360
636
360
637
360
638
360
639
360
63A
360
63B
360
63C
360
63D
360
63E
360
63F
360
640
360
646
360
647
360
648
340
0
340
0
 94
        0
  0
ACAD_PROXY_OBJECT
  5
367
102
{ACAD_REACTORS
330
366
102
}
330
366
100
AcDbProxyObject
 90
      499
 91
      526
 95
       25
 70
     0
 93
     2412
310
4050B44574753455454494E4753A1286829C8E82A4A482B282A02608321A2A720A723A0A849A1ABE1C983E18999AA0C868A9C889282940000000000001C07E83A1A2A72224A0A9A0A8598171ABE1897183E18971AA0E868A9C8892A6A8940000000000001807E8321A2A72622A7250000000000000701FA0C868A9C9E8C8C9
310
40000000000001C07E84A1A624A720A92920ACA0A87181718991ABE1817191ABE18171AA108698929C8AA8B2A082A0AB098929C8A84A22BA3AAA9A1A0A622A50A0E9882A6A89E849482A02608426A0A5A2AB24A2ABA7E8120CA0A68682988A0C00800010652455649534941501304154D0D0531150540CC4E8C50954494D45
310
5354414D504A09B027F51722B734141D5915494D253D3905414C4D4B8C0C1107B44574753455454494E4753454E447D0
  0
ACAD_PROXY_OBJECT
  5
50C
102
{ACAD_REACTORS
330
366
102
}
330
366
100
AcDbProxyObject
 90
      499
 91
      526
 95
       25
 70
     0
 93
      199
310
405055368616674220F688AE8EA68AA8A8929C8EA68A9C88FA
  0
ACAD_PROXY_OBJECT
  5
368
102
{ACAD_REACTORS
330
366
102
}
330
366
100
AcDbProxyObject
 90
      499
 91
      526
 95
       25
 70
     0
 93
      852
310
4050D5452414E5353455454494E4753A2488A482AE929C8EA8A4829CA69882A8929E9C0C00800050D4F524947494E414C4C595F4F4E0600400008529A7AAA921A2A620A723A0A81A52827212AAA0A48AA68AA4AC8A0C0080001107B44574753455454494E4753454E447D0
  0
ACAD_PROXY_OBJECT
  5
3A0
330
391
100
AcDbProxyObject
 90
      499
 91
      552
 95
       25
 70
     0
 93
       96
310
5DC20E80A0280A0280A02808
  0
ACAD_PROXY_OBJECT
  5
3A1
330
391
100
AcDbProxyObject
 90
      499
 91
      553
 95
       25
 70
     0
 93
      332
310
5DD0E4050140501405014050140501405014050142501405014050140501405012000000000000000400
340
3AB
 94
        0
  0
ACAD_PROXY_OBJECT
  5
3A2
330
391
100
AcDbProxyObject
 90
      499
 91
      554
 95
       25
 70
     0
 93
      403
310
5DCC199999999999E99F91F4050140501405014050140501405014050140501405014050140501405014050140501405014040
340
0
 94
        0
  0
ACAD_PROXY_OBJECT
  5
3A3
330
391
100
AcDbProxyObject
 90
      499
 91
      555
 95
       25
 70
     0
 93
       10
310
5DC0
  0
ACAD_PROXY_OBJECT
  5
3A4
330
391
100
AcDbProxyObject
 90
      499
 91
      556
 95
       25
 70
     0
 93
      257
310
5DE290EA22A7D90F49F9353333333333727F44D4CCCCCCCCCDC9FC010000618000
340
3AC
340
3AD
 94
        0
  0
ACAD_PROXY_OBJECT
  5
3A5
330
391
100
AcDbProxyObject
 90
      499
 91
      557
 95
       25
 70
     0
 93
    13023
310
5DD0E411255115350141236025B6901405014069011309A4F2590CB64FD3347454E545241434F2C4A504E2C302C8D8096DA2C47454E54524154582C25732C2847454E4D53472067656E647767203232322940690120281A8AA2CA0282484A4BE52028120280A03202261349E4B2196C9FA668E8A9CA8A482869E5894A09C58
310
605921292F94588E8A9CA8A482A8B0584AE658508E8A9C9AA68E40CECADCC8EECE406464665280D202405044E414D454050496BC914F4051C40640A8B95C2E97CBE502404CD1D15395149050D3CB1294138B0C0B25AF2453CB11D15395149055160B095CCB0A11D1539354D1C819D95B991DD9C80C8C8D8A50192C3D494628
310
4953424C414E4B28504152543A4E414D45292C424C4F434B3A4E414D452C504152543A4E414D452940480A0A888AA686A480A09251B1DBE80A3A80C81D10782C06030180C8099A3A2A72A2920A1A7962528271618164946C76F9623A2A72A2920AA2C1612B9961423A2A726A9A39033B2B7323BB39019189B94A0248090142
310
14D51053911054911014122D2E29A50147501904A383BFDFEFF5FBFCFD3347454E545241434F2C4A504E2C302C8B4B8A692C47454E54524154582C25732C2847454E4D53472067656E64776720323138294049012028426A0AA22A924A0A62028246EF4BDFA028EA0320B41396D838E9017D9FA668E8A9CA8A482869E5894A
310
09C5860591BBD2F7E588E8A9CA8A482A8B0584AE658508E8A9C9AA68E40CECADCC8EECE406464625280D202405044E4F544540504928D8B4C4051D40641A8B95C2E97CBE5F23F4CD1D15395149050D3CB1294138B0C0B24A362D30B11D15395149055160B095CCB0A11D1539354D1C819D95B991DD9C80C8C8D4A501A40480
310
A0CAC8A9C889EA480A1106F1072706BF02B680A3A80C83D172B85D2F97CBE47E9BA3A2A72A2920A1A79625282716181641BC41C9C1AFC0AD9623A2A72A2920AA2C1612B9961423A2A726A9A39033B2B7323BB39019191A14A0348090141911154D0D48C90141A43825AF880C90147501908A20F0580C0603019013447454E5
310
45241434F2C4A504E2C302C90E096BE20322C47454E54524154582C25732C2847454E4D53472067656E6477672033362940490120284A9AA20A72220A922192028345A5C53490192028EA0321347077FBFDFEBF7F9FA6A8E8A9CA8A482869E5894A09C586059169714D24064588E8A9CA8A482A8B0584AE658508E8A9C9AA6
310
8E40CECADCC8EECE4064646052809202405094D4154455249414C32405068DDE97BF20324051D40642A8272DB071D202FB3F4D11D15395149050D3CB1294138B0C0B2377A5EFC80C8B11D15395149055160B095CCB0A11D1539354D1C819D95B991DD9C80D0C0A501240480A089A82A6A680A091D7F2F9480A3A80A0485A06
310
81172B85D2F97CBE47E9923A2A72A2920A1A796252827161816475FCBE51623A2A72A2920AA2C1612B9961423A2A726A9A39033B2B7323BB3901A1914A024809014154149250D150141226FE29A501475014090C409022E570BA5F2F97C8FD3247454E545241434F2C4A504E2C302C89BF8A692C47454E54524154582C2573
310
2C2847454E4D53472067656E6477672034332940490120281A224A6A02824850CB202028EA028121A81A045CAE174BE5F2F91FA648E8A9CA8A482869E5894A09C58605921432C80588E8A9CA8A482A8B0584AE658508E8A9C9AA68E40CECADCC8EECE406868528092024050E441022E07A17AD46E338FE07800030C0001018
310
ACD56AB55AADF63F2B355AAD56AB7D8FD073D3C4954454D3E405018ACD56AB55AADF63F2B355AAD56AB7D8FD073D3C4954454D3E40501890C7E3F1783CEE3F2431F8FC5E0F3B8FD073D3C4954454D3E40501890C7E3F1783CEE3F2431F8FC5E0F3B8FD073D3C4954454D3E405029012B355AAD56AB7D8FCACD56AB55AADF63
310
F41CF4F125511534F901418F4F1455164F9014062B355AAD56AB7D8FCACD56AB55AADF63F41CF4F125511534F9014061309A4F2590CBA4FC4C2693C96432E93F41CF4F125511534F901901002B355AAD56AB7D8FCACD56AB55AADF63FA2000000000000008204018000618048220681A048120280C88214844882034852034
310
8452028521485214814000000000000F0BF0000000000003C2FD018020000C3008070000C3000EF7D3E365DBA88FC3BDF4F8D976EA23F2E07A17AD46E2F8FF20341A405024150741A4069703D0BD6A3717C7F0040001860100400018601002000186002026280A02
340
0
340
0
 94
        0
  0
ACAD_PROXY_OBJECT
  5
3A6
330
391
100
AcDbProxyObject
 90
      499
 91
      558
 95
       25
 70
     0
 93
      994
310
5DC0B81E85EB51B8CE3F4BCF511155105253080F11115510525317D3105091530F971414D0D05311480F11115510525317D05094D4D0D053114F92341C9A9999999999B93F26A666666666724FC000000000000E03F4000000000000004000000000000005100000000000000244081E0000C3002E07A17AD46E338FC0
340
35B
340
39F
 94
        0
  0
ACAD_PROXY_OBJECT
  5
3A7
330
391
100
AcDbProxyObject
 90
      499
 91
      559
 95
       25
 70
     0
 93
      823
310
5DC031703D0BD6A3719C7E999EA9A2A1AA24A7A7101E29A2A1AA24A7A72FA620A122A62FA324A929AA1F169E29A2A1AA24A7A72FA620A122A62FA620A9AA1F1353333333333B27E3FFFE01C00030C008840F000061801353333333333B27F1703D0BD6A3719C7E
340
35B
340
39F
 94
        0
  0
ACAD_PROXY_OBJECT
  5
3A8
330
391
100
AcDbProxyObject
 90
      499
 91
      560
 95
       25
 70
     0
 93
      280
310
5DC2B8716D9CEF7C33F0A5723F0BD4A2F0FC295C8FC2F528BC3FA199999999999F99FC
  0
ACAD_PROXY_OBJECT
  5
3A9
330
391
100
AcDbProxyObject
 90
      499
 91
      561
 95
       25
 70
     0
 93
       14
310
5DE4
340
0
 94
        0
  0
ACAD_PROXY_OBJECT
  5
3AA
330
391
100
AcDbProxyObject
 90
      499
 91
      562
 95
       25
 70
     0
 93
     7123
310
5DD084050BA4050AA405024050E836583938376838C815B8367203140405013D3C696628657175616C28486F6C653A7461707065642C223022292C22252563222C486F6C653A6E6F6D696E616C2022202220696628657175616C28486F6C653A756E6974732C223122292C2278222C222D222920222022293E3C6966286571
310
75616C28486F6C653A7461707065642C223022292C486F6C653A6469612C486F6C653A706974636864657363293E207B5C46414D4744543B787D203C696628657175616C28486F6C653A7465726D696E6174696F6E2C223022292C486F6C653A64657074682C228AD192CA22293E5C507B5C46414D4744543B767D2525633C
310
486F6C653A63746469613E207B5C46414D4744543B787D203C486F6C653A637464657074683E406901405034050E836583938376838C815B83672031405FE3D3C696628657175616C28486F6C653A7461707065642C223022292C22252563222C486F6C653A6E6F6D696E616C2022202220696628657175616C28486F6C653
310
A756E6974732C223122292C2278222C222D222920222022293E3C696628657175616C28486F6C653A7461707065642C223022292C486F6C653A6469612C486F6C653A706974636864657363293E207B5C46414D4744543B787D203C696628657175616C28486F6C653A7465726D696E6174696F6E2C223022292C486F6C653
310
A64657074682C228AD192CA22293E5C507B5C46414D4744543B777D2525633C486F6C653A63746469613E2058203C486F6C653A6374616E676C653E252564406901405014050E836583938376838C815B83672031405CF3D3C696628657175616C28486F6C653A7461707065642C223022292C22252563222C486F6C653A6E
310
6F6D696E616C2022202220696628657175616C28486F6C653A756E6974732C223122292C2278222C222D222920222022293E3C696628657175616C28486F6C653A7461707065642C223022292C486F6C653A6469612C486F6C653A706974636864657363293E5C507B5C46414D4744543B787D203C696628657175616C2848
310
6F6C653A7465726D696E6174696F6E2C223022292C486F6C653A64657074682C228AD192CA22293E4069014051E4090E836583938376838C815B83672032405173D3C535444503A444553433E203C535444503A5354443E40690E836583938376838C815B836720314050C3D3C535444503A444553433E40690240515AAABB
310
A060
360
3B4
330
3B4
360
3B5
330
3B5
360
3B3
330
3B3
360
3B2
360
3B1
330
3B2
330
3B1
 94
        0
  0
ACAD_PROXY_OBJECT
  5
3B6
330
391
100
AcDbProxyObject
 90
      499
 91
      564
 95
       25
 70
     0
 93
       26
310
5DD02A80
340
392
 94
        0
  0
ACAD_PROXY_OBJECT
  5
3B7
330
391
100
AcDbProxyObject
 90
      499
 91
      565
 95
       25
 70
     0
 93
      258
310
5DD02000000000000380FC000000000000E03F408F0F9023C3E40DB18CCCFFFF80
340
3B8
340
45C
340
421
340
5B3
340
5A1
340
0
340
3BB
340
3BC
340
3C1
340
0
 94
        0
  0
ACAD_PROXY_OBJECT
  5
3C2
330
391
100
AcDbProxyObject
 90
      499
 91
      566
 95
       25
 70
     0
 93
    13993
310
5DD1D023FFFFFFFD010300002E07A17AD46E2F8FE00800030C01010300002E07A17AD46E2F8FE00800030C00050C8DC0955782CC838A83588367014ED1D15395149050D3CB1294138B0C0B23702555E0B320E2A0D620D9CB11D15395149055160B095CCB0A11D1539354D1C819D95B991A5B5E880CCC0A78000C0000000000
310
00000000000000000000007B14AE47E17AA43F2E07A17AD46E2F8FE00800030C007B14AE47E17AA43F2E07A17AD46E2F8FE00800030C020143CF4F111959985D5B1D151A5D1B194F8050A8C8A8365815B8375838B014E51D15395149050D3CB1294138B0C0B2322A0D96056E0DD60E2CB11D15395149055160B095CCB0A11D
310
1539354D1C819D95B991A5B5E880CCC4A78000C000000000000000000000000000000007B14AE47E17AA43F2E07A17AD46E2F8FE00800030C007B14AE47E17AA43F2E07A17AD46E2F8FE00800030C020143CF4F111959985D5B1D151A5D1B194F90D4410F4450240D0441507431014391244D05449074510C4350F00014123
310
2D24D7C053247454E545241434F2C4A504E2C302C8CB4935F2C47454E54524154582C25732C2847454E4D53472067656E64696D7A20312900010104002214000282465A49AF80A648E8A9CA8A482869E5894A09C586059196926BE588E8A9CA8A482A8B0584AE658508E8A9C9AA68E40CECADCC8D2DAF44062520002020800
310
43E80005028C8A014C11D15395149050D3CB1294138B0C0B23228B11D15395149055160B095CCB0A11D1539354D1C819D95B991A5B5E880C8A4054E3D3C4946284953424C414E4B28486F6C654974656D292C4F726967696E2C20486F6C654974656D293E3C4946284953424C414E4B28486F6C654974656D292C22222C204
310
86F6C65496E646578293E010104002234000280AC00A5E8E8A9CA8A482869E5894A09C586058B0588E8A9CA8A482A8B0584AE658508E8A9C9AA68E40CECADCC8D2DAF4406652000202000040A800050159014BD1D15395149050D3CB1294138B0C0B164B11D15395149055160B095CCB0A11D1539354D1C819D95B991A5B5E
310
880D0A4000404000081D0000A02A40297A3A2A72A2920A1A796252827161816291623A2A72A2920AA2C1612B9961423A2A726A9A39033B2B73234B6BD101B148000808000104A000140A0F4C053047454E545241434F2C4A504E2C302C83D32C47454E54524154582C25732C2847454E4D53472067656E64696D7A20372900
310
0101030020B400028141E980A608E8A9CA8A482869E5894A09C58605907A6588E8A9CA8A482A8B0584AE658508E8A9C9AA68E40CECADCC8D2DAF4407052000202020041E800050490E096BE014CD1D15395149050D3CB1294138B0C0B243825AF8B11D15395149055160B095CCB0A11D1539354D1C819D95B991A5B5E880C8
310
C0A400040010008650000A091B012DB40299A3A2A72A2920A1A79625282716181646C04B6D1623A2A72A2920AA2C1612B9961423A2A726A9A39033B2B73234B6BD10189A148000808280501A00014320D0E0E4E0D9A0D8A0D3A0D60053B47454E545241434F2C4A504E2C302C8343839383668362834E83582C47454E54524
310
154582C25732C2847454E4D53472067656E64696D7A203135290001010500A1D4000281464500A628E8A9CA8A482869E5894A09C5860591914588E8A9CA8A482A8B0584AE658508E8A9C9AA68E40CECADCC8D2DAF440626C52000202080044A800050E8C8A8343839383668362834E8358014F51D15395149050D3CB129413
310
8B0C0B2322A0D0E0E4E0D9A0D8A0D3A0D60B11D15395149055160B095CCB0A11D1539354D1C819D95B991A5B5E880C4DCA4000404140089D0000A0921292F940299A3A2A72A2920A1A796252827161816484A4BE51623A2A72A2920AA2C1612B9961423A2A726A9A39033B2B73234B6BD10189C948000808300114A0001412
310
2D2E29A4053347454E545241434F2C4A504E2C302C8B4B8A692C47454E54524154582C25732C2847454E4D53472067656E64696D7A20323129000100040021B4878030026A6666666667A4FE064D4CCCCCCCCCF49FC049A9999999999E93F809353333333333D27F0226A6666666667A4FE044D4CCCCCCCCCF49FC0D818000
310
00000000000810026A666666666764FE004D4CCCCCCCCCF49FC009A9999999999E93F801353333333333D27F032E07A17AD46E378FE0633B333333333032050F006004D4CCCCCCCCCF49FC0C9A9999999999E93F819353333333333D27F0326A6666666667A4FE064D4CCCCCCCCCF49FC0C9A9999999999E93F81B03000000
310
00000000102004D4CCCCCCCCCEC9FC009A9999999999E93F819353333333333D27F0026A6666666667A4FE065C0F42F5A8DC6F1FC0C6766666666660640A088800000021E000000890000002260000008220E000200890000002060002008100008000
340
0
340
0
340
0
340
0
340
39F
340
39F
 94
        0
  0
ACAD_PROXY_OBJECT
  5
3C3
330
391
100
AcDbProxyObject
 90
      499
 91
      567
 95
       25
 70
     0
 93
     5214
310
5DD9741105394D2506414E53495F4342905394D257D512551554D15414E53495F54525F5265766973696F6E6C697374614191143202831372E307832322E30696E63682941905394D257D0D1146202832382E307834302E30696E63682941905394D257D191142202831312E307831372E30696E63682941905394D257D091
310
144202832322E307833342E30696E63682941905394D257D111145202833342E307834342E30696E63682941905394D257D1510412028382E357831312E30696E63682941905394D257D050543905B9CDA482557247A25E4C81110D0C414E53495F5449544C45444343505B9CDA482557247A25E4C81050B414E53495F5449
310
544C454143905B9CDA482557247A25E4C81050D0C414E53495F5449544C45414343505B9CDA482557247A25E4C81110B414E53495F5449544C4544425554C82557247A25E4D0A414E53495F544954555342110979A97F0838A8358836720415F42525F45505394D257D09497D4995D9A5CDA5BDB9B1A5CDD18510979A97F08
310
38A8358836720415F54525F45505394D257D51497D4995D9A5CDA5BDB9B1A5CDD18510979A97F0838A8358836720445F42525F45505394D257D09497D4995D9A5CDA5BDB9B1A5CDD19110979A97F0838A8358836720445F54525F45505394D257D51497D4995D9A5CDA5BDB9B1A5CDD19110979A97F0838A8358836720415F
310
424C5F45505394D257D09317D4995D9A5CDA5BDB9B1A5CDD18510979A97F0838A8358836720415F544C5F45505394D257D51317D4995D9A5CDA5BDB9B1A5CDD18510979A97F0838A8358836720445F424C5F45505394D257D09317D4995D9A5CDA5BDB9B1A5CDD19110979A97F0838A8358836720445F544C5F45505394D25
310
7D51317D4995D9A5CDA5BDB9B1A5CDD190
  0
ACAD_PROXY_OBJECT
  5
635
330
634
100
AcDbProxyObject
 90
      499
 91
      573
 95
       25
 70
     0
 93
       86
310
5DEA0C80A0280A0280A034
  0
ACAD_PROXY_OBJECT
  5
636
330
634
100
AcDbProxyObject
 90
      499
 91
      574
 95
       25
 70
     0
 93
      282
310
5DD0E4050140501405014050140501405014050141101405014041000000000000001000
340
624
 94
        0
  0
ACAD_PROXY_OBJECT
  5
637
330
634
100
AcDbProxyObject
 90
      499
 91
      575
 95
       25
 70
     0
 93
      323
310
5DCC199999999999E99F91740501405014050140501405014050140501405014050140501405014040
340
0
 94
        0
  0
ACAD_PROXY_OBJECT
  5
638
330
634
100
AcDbProxyObject
 90
      499
 91
      576
 95
       25
 70
     0
 93
       10
310
5DC0
  0
ACAD_PROXY_OBJECT
  5
639
330
634
100
AcDbProxyObject
 90
      499
 91
      577
 95
       25
 70
     0
 93
      257
310
5DE0C16A22A7D90F49F80000000000001081400000000000004204010000618000
340
61F
340
620
 94
        0
  0
ACAD_PROXY_OBJECT
  5
63A
330
634
100
AcDbProxyObject
 90
      499
 91
      578
 95
       25
 70
     0
 93
     5277
310
5DD06411255115350141236025B6901405014069010000000000000910240690120281A8AA2CA0282484A4BE52028120280A032020000000000001220480D202405044E414D454050496BC914F4051C40640A80000000000004E4090193C3D3C4946284953424C414E4B28504152543A4E414D45292C424C4F434B3A4E414D
310
452C504152543A4E414D45293E3C41435F44455343524950544E3E40480A109A82A88AA492829880A091BBD2F7E80A3A80C81D0E27A15AF46E08A81203480901411393D5115014124A363B7D0147501904A0000000000000F902406428F4F1050D7D393D5114F901202832B22A72227A92028366EF6EE06F582028EA0320B4
310
0000000000001F20480C879E9E20A1AFAB27222FA620A122A61F20240506445020000000000000490201C00030C00010180000000000003E400000000000000F901073D3C4954454D3E4050180000000000003E400000000000000F901073D3C4954454D3E40501800000000000034400000000000000D101073D3C4954454
310
D3E40501800000000000034400000000000000D101073D3C4954454D3E405029010000000000000F9000000000000003E4041CF4F125511534F901418F4F1455164F9014060000000000000F9000000000000003E4041CF4F125511534F901800000000000034400000000000000D101073D3C4954454D3E40640400000000
310
0000003E400000000000000F90288800000000000020810000001800120881A068120480A032208521122080D21480D211480A1485214852050000000000003C2FC000000000000F0BF40600800030C0200400030C00CDCCCCCCCCCCEC3F3373333333333B0FC3333333333330940C80D069014090341504901A1999999999
310
9984A040100006180400800061804010000618008098A02808
340
0
340
0
 94
        0
  0
ACAD_PROXY_OBJECT
  5
63B
330
634
100
AcDbProxyObject
 90
      499
 91
      567
 95
       25
 70
     0
 93
     3042
310
5DD9740D29254D064A49535F413342929254D7D512551311505134A49535F42525F5265766973696F6E6C6973744190F4134522028323937783231306D6D2941D29254D7D04D1490E41312028353934783834316D6D2941929254D7D04C50E41332028323937783432306D6D2941929254D7D04CD0F41344C2028323130783
310
239376D6D2941D29254D7D04D1310E41322028343230783539346D6D2941929254D7D04C90F4130202838343178313138396D6D2941929254D7D04C10243129254C82557247A25E4C81050A4A49535F5449544C454143129254C82557247A25E4C81090A4A49535F5449544C45424110E979A97F0838A835883675F42525F4
310
4D29254D7D09497D4995D9A5CDA5BDB9B1A5CDD10E979A97F0838A835883675F54525F44D29254D7D51497D4995D9A5CDA5BDB9B1A5CDD10E979A97F0838A835883675F424C5F44D29254D7D09317D4995D9A5CDA5BDB9B1A5CDD10E979A97F0838A835883675F544C5F44D29254D7D51317D4995D9A5CDA5BDB9B1A5CDD00
  0
ACAD_PROXY_OBJECT
  5
63C
330
634
100
AcDbProxyObject
 90
      499
 91
      579
 95
       25
 70
     0
 93
      898
310
5DC4000000000000124048CF4F11115510525317D3105091530F880A0F11115510525317D05094D4D0D053114F8A50241C9A9999999999B93F26A666666666724FC000000000000E03F400000000000000400000000000000510000000000000024408070000C300000000000000049000
340
15
340
623
 94
        0
  0
ACAD_PROXY_OBJECT
  5
63D
330
634
100
AcDbProxyObject
 90
      499
 91
      580
 95
       25
 70
     0
 93
      823
310
5DC0B00000000000002480959E9E29A2A1AA24A7A72FA620A122A62FA324A929AA1F169E29A2A1AA24A7A72FA620A122A62FA620A9AA1F000000000000048803FFFE01C00030C008140380006180000000000000048800000000000000A2000000000000002480
340
27
340
623
 94
        0
  0
ACAD_PROXY_OBJECT
  5
63E
330
634
100
AcDbProxyObject
 90
      499
 91
      581
 95
       25
 70
     0
 93
      152
310
5DE8273108AC1C5A0640A3D0A5723F0BD1F200
  0
ACAD_PROXY_OBJECT
  5
63F
330
634
100
AcDbProxyObject
 90
      499
 91
      582
 95
       25
 70
     0
 93
       14
310
5DE0
340
0
 94
        0
  0
ACAD_PROXY_OBJECT
  5
640
330
634
100
AcDbProxyObject
 90
      499
 91
      583
 95
       25
 70
     0
 93
     6059
310
5DD084050BA4050AA405024050E836583938376838C815B83672031405983D3C486F6C653A6469613E3C696628657175616C28486F6C653A7465726D696E6174696F6E2C223022292C2220905B82B320222C22208368838A838B22293E3C696628657175616C28486F6C653A7465726D696E6174696F6E2C223022292C486F
310
6C653A64657074682C2222293E2C203C486F6C653A63746469613E2082B482AE82E882CC905B82B3203C486F6C653A637464657074683E406901405034050E836583938376838C815B83672031405EF3D3C486F6C653A6374616E676C653E252564202525633C486F6C653A63746469613E208E4D8C8A2C203C69662865717
310
5616C28486F6C653A7461707065642C223022292C22252563222C486F6C653A6E6F6D696E616C202220782022293E3C696628657175616C28486F6C653A7461707065642C223022292C486F6C653A6469612C486F6C653A706974636864657363293E203C696628657175616C28486F6C653A7465726D696E6174696F6E2C2
310
23022292C22905B82B320222C222022293E3C696628657175616C28486F6C653A7465726D696E6174696F6E2C223022292C486F6C653A64657074682C2222293E406901405014050E836583938376838C815B83672031405C73D3C696628657175616C28486F6C653A7461707065642C223022292C22252563222C486F6C65
310
3A6E6F6D696E616C202220782022293E3C696628657175616C28486F6C653A7461707065642C223022292C486F6C653A6469612C486F6C653A706974636864657363293E203C696628657175616C28486F6C653A7465726D696E6174696F6E2C223022292C22905B82B320222C222022293E3C696628657175616C28486F6C
310
653A7465726D696E6174696F6E2C223022292C486F6C653A64657074682C2222293E4069014051E4090E836583938376838C815B83672032405173D3C535444503A444553433E203C535444503A5354443E40690E836583938376838C815B836720314050C3D3C535444503A444553433E40690240515AAABBA120
360
641
330
641
360
642
330
642
360
643
330
643
360
644
360
645
330
644
330
645
 94
        0
  0
ACAD_PROXY_OBJECT
  5
646
330
634
100
AcDbProxyObject
 90
      499
 91
      564
 95
       25
 70
     0
 93
       26
310
5DD02A80
340
0
 94
        0
  0
ACAD_PROXY_OBJECT
  5
647
330
634
100
AcDbProxyObject
 90
      499
 91
      565
 95
       25
 70
     0
 93
      250
310
5DD020000000000000A1000000000000002440408F0F9023C3E409A0DCFFFF80
340
625
340
62C
340
62D
340
626
340
627
340
628
340
629
340
62A
340
62B
340
0
 94
        0
  0
ACAD_PROXY_OBJECT
  5
648
330
634
100
AcDbProxyObject
 90
      499
 91
      584
 95
       25
 70
     0
 93
    13889
310
5DD1D003FFFFFFFD030300030CCCCCCCCCCCC250200800030C01030300030CCCCCCCCCCCC250200800030C00050C8DC0955782CC838A83588367014ED1D15395149050D3CB1294138B0C0B23702555E0B320E2A0D620D9CB11D15395149055160B095CCB0A11D1539354D1C819D95B991A5B5E880CCC0A78000C0000000000
310
00000000000000000000010CCCCCCCCCCCC250200800030C010CCCCCCCCCCCC250200800030C020143CF4F111959985D5B1D151A5D1B194F8050A8C8A8365815B8375838B014E51D15395149050D3CB1294138B0C0B2322A0D96056E0DD60E2CB11D15395149055160B095CCB0A11D1539354D1C819D95B991A5B5E880CCC4
310
A78000C000000000000000000000000000000010CCCCCCCCCCCC250200800030C010CCCCCCCCCCCC250200800030C020143CF4F111959985D5B1D151A5D1B194F90D44111409034110541D0C4350F4050E44D03449074510F000141232D24D7C053247454E545241434F2C4A504E2C302C8CB4935F2C47454E54524154582C
310
25732C2847454E4D53472067656E64696D7A20312900010104002214000281464500A608E8A9CA8A482869E5894A09C5860591914588E8A9CA8A482A8B0584AE658508E8A9C9AA68E40CECADCC8D2DAF4406452029E9E9E27B934B3B4B71F1E24A31427A91424A9A12620A7259427B934B3B4B7149624A9A12620A7259424B
310
A32B6949496111116111711149F1E24BA32B69F00808200111A000140560052F47454E545241434F2C4A504E2C302C582C47454E54524154582C25732C2847454E4D53472067656E64696D7A20332900010100002054000280AC80A5E8E8A9CA8A482869E5894A09C586058B2588E8A9CA8A482A8B0584AE658508E8A9C9AA
310
68E40CECADCC8D2DAF4406852000202000040E800050152014BD1D15395149050D3CB1294138B0C0B148B11D15395149055160B095CCB0A11D1539354D1C819D95B991A5B5E880D8A400040400008250000A0507A6029823A2A72A2920A1A79625282716181641E99623A2A72A2920AA2C1612B9961423A2A726A9A39033B2
310
B73234B6BD101B948000808180105A000140A0F4C053047454E545241434F2C4A504E2C302C83D32C47454E54524154582C25732C2847454E4D53472067656E64696D7A203829000101010020F400028248704B5F00A668E8A9CA8A482869E5894A09C58605921C12D7C588E8A9CA8A482A8B0584AE658508E8A9C9AA68E40
310
CECADCC8D2DAF440646052000200080043280005048B4B8A69014CD1D15395149050D3CB1294138B0C0B22D2E29A4B11D15395149055160B095CCB0A11D1539354D1C819D95B991A5B5E880C8C4A4000400100086D0000A09196926BE029923A2A72A2920A1A796252827161816465A49AF9623A2A72A2920AA2C1612B9961
310
423A2A726A9A39033B2B73234B6BD10189480A02620202080043E80005048D8096DA014CD1D15395149050D3CB1294138B0C0B236025B68B11D15395149055160B095CCB0A11D1539354D1C819D95B991A5B5E880C4D0A4000404140280D0000A190687072706CD06C5069D06B0029DA3A2A72A2920A1A7962528271618164
310
1A1C1C9C1B341B141A741AC1623A2A72A2920AA2C1612B9961423A2A726A9A39033B2B73234B6BD10189A94800080820050EA000143A322A0D0E0E4E0D9A0D8A0D3A0D60053D47454E545241434F2C4A504E2C302C8C8A8343839383668362834E83582C47454E54524154582C25732C2847454E4D53472067656E64696D7A
310
2031372900010105002274000281464500A628E8A9CA8A482869E5894A09C5860591914588E8A9CA8A482A8B0584AE658508E8A9C9AA68E40CECADCC8D2DAF440626C52000202080044A8000504909497CA014CD1D15395149050D3CB1294138B0C0B242525F28B11D15395149055160B095CCB0A11D1539354D1C819D95B9
310
91A5B5E880C4E4A400040418008A521E000000000000001CA040C00000000000034408080000000000006881010000000000000D102040000000000001A204080000000000003440818000000000000728103000000000000125020600000000004028A040000000000000034408000000000000004881000000000000000D
310
102000000000000001A204000000000000003440818000000000000508143C0000000000000039408180000000000006881030000000000000D102060000000000001A2040C00000000000034408180000000000006881030000000000000E5020600000000000024A040C0000000000805140800000000000000688100000
310
00000000009102000000000000001A2040000000000000034408180000000000006881030000000000000A10284220000000878000002020000008380000020400000081800000208000000828000002028900000000
340
0
340
0
340
0
340
0
340
623
340
623
 94
        0
  0
ACAD_PROXY_OBJECT
  5
3B4
330
3AA
100
AcDbProxyObject
 90
      499
 91
      563
 95
       25
 70
     0
 93
     2256
310
5DE0143A0D960E4E0DDA0E32056E0D9C80C40405013D3C696628657175616C28486F6C653A7461707065642C223022292C22252563222C486F6C653A6E6F6D696E616C2022202220696628657175616C28486F6C653A756E6974732C223122292C2278222C222D222920222022293E3C696628657175616C28486F6C653A74
310
61707065642C223022292C486F6C653A6469612C486F6C653A706974636864657363293E207B5C46414D4744543B787D203C696628657175616C28486F6C653A7465726D696E6174696F6E2C223022292C486F6C653A64657074682C228AD192CA22293E5C507B5C46414D4744543B767D2525633C486F6C653A6374646961
310
3E207B5C46414D4744543B787D203C486F6C653A637464657074683E
  0
ACAD_PROXY_OBJECT
  5
3B5
330
3AA
100
AcDbProxyObject
 90
      499
 91
      563
 95
       25
 70
     0
 93
     2192
310
5DE0143A0D960E4E0DDA0E32056E0D9C80C405FE3D3C696628657175616C28486F6C653A7461707065642C223022292C22252563222C486F6C653A6E6F6D696E616C2022202220696628657175616C28486F6C653A756E6974732C223122292C2278222C222D222920222022293E3C696628657175616C28486F6C653A7461
310
707065642C223022292C486F6C653A6469612C486F6C653A706974636864657363293E207B5C46414D4744543B787D203C696628657175616C28486F6C653A7465726D696E6174696F6E2C223022292C486F6C653A64657074682C228AD192CA22293E5C507B5C46414D4744543B777D2525633C486F6C653A63746469613E
310
2058203C486F6C653A6374616E676C653E252564
  0
ACAD_PROXY_OBJECT
  5
3B3
330
3AA
100
AcDbProxyObject
 90
      499
 91
      563
 95
       25
 70
     0
 93
     1816
310
5DE0143A0D960E4E0DDA0E32056E0D9C80C405CF3D3C696628657175616C28486F6C653A7461707065642C223022292C22252563222C486F6C653A6E6F6D696E616C2022202220696628657175616C28486F6C653A756E6974732C223122292C2278222C222D222920222022293E3C696628657175616C28486F6C653A7461
310
707065642C223022292C486F6C653A6469612C486F6C653A706974636864657363293E5C507B5C46414D4744543B787D203C696628657175616C28486F6C653A7465726D696E6174696F6E2C223022292C486F6C653A64657074682C228AD192CA22293E
  0
ACAD_PROXY_OBJECT
  5
3B2
330
3AA
100
AcDbProxyObject
 90
      499
 91
      563
 95
       25
 70
     0
 93
      344
310
5DE0143A0D960E4E0DDA0E32056E0D9C80C805173D3C535444503A444553433E203C535444503A5354443E
  0
ACAD_PROXY_OBJECT
  5
3B1
330
3AA
100
AcDbProxyObject
 90
      499
 91
      563
 95
       25
 70
     0
 93
      256
310
5DE0143A0D960E4E0DDA0E32056E0D9C80C4050C3D3C535444503A444553433E
  0
ACAD_PROXY_OBJECT
  5
641
330
640
100
AcDbProxyObject
 90
      499
 91
      563
 95
       25
 70
     0
 93
     1376
310
5DE0143A0D960E4E0DDA0E32056E0D9C80C405983D3C486F6C653A6469613E3C696628657175616C28486F6C653A7465726D696E6174696F6E2C223022292C2220905B82B320222C22208368838A838B22293E3C696628657175616C28486F6C653A7465726D696E6174696F6E2C223022292C486F6C653A64657074682C22
310
22293E2C203C486F6C653A63746469613E2082B482AE82E882CC905B82B3203C486F6C653A637464657074683E
  0
ACAD_PROXY_OBJECT
  5
642
330
640
100
AcDbProxyObject
 90
      499
 91
      563
 95
       25
 70
     0
 93
     2072
310
5DE0143A0D960E4E0DDA0E32056E0D9C80C405EF3D3C486F6C653A6374616E676C653E252564202525633C486F6C653A63746469613E208E4D8C8A2C203C696628657175616C28486F6C653A7461707065642C223022292C22252563222C486F6C653A6E6F6D696E616C202220782022293E3C696628657175616C28486F6C
310
653A7461707065642C223022292C486F6C653A6469612C486F6C653A706974636864657363293E203C696628657175616C28486F6C653A7465726D696E6174696F6E2C223022292C22905B82B320222C222022293E3C696628657175616C28486F6C653A7465726D696E6174696F6E2C223022292C486F6C653A6465707468
310
2C2222293E
  0
ACAD_PROXY_OBJECT
  5
643
330
640
100
AcDbProxyObject
 90
      499
 91
      563
 95
       25
 70
     0
 93
     1752
310
5DE0143A0D960E4E0DDA0E32056E0D9C80C405C73D3C696628657175616C28486F6C653A7461707065642C223022292C22252563222C486F6C653A6E6F6D696E616C202220782022293E3C696628657175616C28486F6C653A7461707065642C223022292C486F6C653A6469612C486F6C653A706974636864657363293E20
310
3C696628657175616C28486F6C653A7465726D696E6174696F6E2C223022292C22905B82B320222C222022293E3C696628657175616C28486F6C653A7465726D696E6174696F6E2C223022292C486F6C653A64657074682C2222293E
  0
ACAD_PROXY_OBJECT
  5
644
330
640
100
AcDbProxyObject
 90
      499
 91
      563
 95
       25
 70
     0
 93
      344
310
5DE0143A0D960E4E0DDA0E32056E0D9C80C805173D3C535444503A444553433E203C535444503A5354443E
  0
ACAD_PROXY_OBJECT
  5
645
330
640
100
AcDbProxyObject
 90
      499
 91
      563
 95
       25
 70
     0
 93
      256
310
5DE0143A0D960E4E0DDA0E32056E0D9C80C4050C3D3C535444503A444553433E
  0
ENDSEC
  0
EOF
