  0
SECTION
  2
HEADER
  9
$ACADVER
  1
AC1015
  9
$ACADMAINTVER
 70
     6
  9
$DWGCODEPAGE
  3
ANSI_932
  9
$INSBASE
 10
0.0
 20
0.0
 30
0.0
  9
$EXTMIN
 10
-63.00264273418679
 20
-78.71232207776427
 30
-0.0015258207003583
  9
$EXTMAX
 10
129.8191554043717
 20
77.59732779957449
 30
0.0000000349246037
  9
$LIMMIN
 10
0.0
 20
0.0
  9
$LIMMAX
 10
400.0
 20
273.0
  9
$ORTHOMODE
 70
     0
  9
$REGENMODE
 70
     1
  9
$FILLMODE
 70
     1
  9
$QTEXTMODE
 70
     0
  9
$MIRRTEXT
 70
     1
  9
$LTSCALE
 40
1.0
  9
$ATTMODE
 70
     1
  9
$TEXTSIZE
 40
3.0
  9
$TRACEWID
 40
0.5
  9
$TEXTSTYLE
  7
STANDARD
  9
$CLAYER
  8
AM_0
  9
$CELTYPE
  6
ByLayer
  9
$CECOLOR
 62
   256
  9
$CELTSCALE
 40
1.0
  9
$DISPSILH
 70
     0
  9
$DIMSCALE
 40
1.0
  9
$DIMASZ
 40
3.0
  9
$DIMEXO
 40
1.0
  9
$DIMDLI
 40
5.0
  9
$DIMRND
 40
0.0
  9
$DIMDLE
 40
3.0
  9
$DIMEXE
 40
2.0
  9
$DIMTP
 40
0.0
  9
$DIMTM
 40
0.0
  9
$DIMTXT
 40
5.0
  9
$DIMCEN
 40
2.0
  9
$DIMTSZ
 40
0.0
  9
$DIMTOL
 70
     0
  9
$DIMLIM
 70
     0
  9
$DIMTIH
 70
     0
  9
$DIMTOH
 70
     0
  9
$DIMSE1
 70
     0
  9
$DIMSE2
 70
     0
  9
$DIMTAD
 70
     1
  9
$DIMZIN
 70
     8
  9
$DIMBLK
  1

  9
$DIMASO
 70
     1
  9
$DIMSHO
 70
     0
  9
$DIMPOST
  1

  9
$DIMAPOST
  1

  9
$DIMALT
 70
     0
  9
$DIMALTD
 70
     4
  9
$DIMALTF
 40
25.4
  9
$DIMLFAC
 40
1.0
  9
$DIMTOFL
 70
     1
  9
$DIMTVP
 40
1.0
  9
$DIMTIX
 70
     0
  9
$DIMSOXD
 70
     0
  9
$DIMSAH
 70
     0
  9
$DIMBLK1
  1

  9
$DIMBLK2
  1

  9
$DIMSTYLE
  2
Standard
  9
$DIMCLRD
 70
     0
  9
$DIMCLRE
 70
     0
  9
$DIMCLRT
 70
     0
  9
$DIMTFAC
 40
1.0
  9
$DIMGAP
 40
0.09
  9
$DIMJUST
 70
     0
  9
$DIMSD1
 70
     0
  9
$DIMSD2
 70
     0
  9
$DIMTOLJ
 70
     1
  9
$DIMTZIN
 70
     0
  9
$DIMALTZ
 70
     0
  9
$DIMALTTZ
 70
     0
  9
$DIMUPT
 70
     0
  9
$DIMDEC
 70
     0
  9
$DIMTDEC
 70
     4
  9
$DIMALTU
 70
     2
  9
$DIMALTTD
 70
     2
  9
$DIMTXSTY
  7
STANDARD
  9
$DIMAUNIT
 70
     0
  9
$DIMADEC
 70
     0
  9
$DIMALTRND
 40
0.0
  9
$DIMAZIN
 70
     0
  9
$DIMDSEP
 70
    46
  9
$DIMATFIT
 70
     3
  9
$DIMFRAC
 70
     0
  9
$DIMLDRBLK
  1

  9
$DIMLUNIT
 70
     2
  9
$DIMLWD
 70
    -2
  9
$DIMLWE
 70
    -2
  9
$DIMTMOVE
 70
     0
  9
$LUNITS
 70
     2
  9
$LUPREC
 70
     4
  9
$SKETCHINC
 40
1.0
  9
$FILLETRAD
 40
0.0
  9
$AUNITS
 70
     0
  9
$AUPREC
 70
     0
  9
$MENU
  1
acad
  9
$ELEVATION
 40
0.0
  9
$PELEVATION
 40
0.0
  9
$THICKNESS
 40
0.0
  9
$LIMCHECK
 70
     0
  9
$CHAMFERA
 40
0.0
  9
$CHAMFERB
 40
0.0
  9
$CHAMFERC
 40
0.0
  9
$CHAMFERD
 40
0.0
  9
$SKPOLY
 70
     0
  9
$TDCREATE
 40
2453969.580960648
  9
$TDUCREATE
 40
2453969.205960648
  9
$TDUPDATE
 40
2455441.46472294
  9
$TDUUPDATE
 40
2455441.08972294
  9
$TDINDWG
 40
0.0143073727
  9
$TDUSRTIMER
 40
0.0143070139
  9
$USRTIMER
 70
     1
  9
$ANGBASE
 50
0.0
  9
$ANGDIR
 70
     0
  9
$PDMODE
 70
     0
  9
$PDSIZE
 40
0.0
  9
$PLINEWID
 40
0.0
  9
$SPLFRAME
 70
     0
  9
$SPLINETYPE
 70
     6
  9
$SPLINESEGS
 70
    16
  9
$HANDSEED
  5
7F6
  9
$SURFTAB1
 70
     6
  9
$SURFTAB2
 70
     6
  9
$SURFTYPE
 70
     6
  9
$SURFU
 70
     6
  9
$SURFV
 70
     6
  9
$UCSBASE
  2

  9
$UCSNAME
  2

  9
$UCSORG
 10
0.0
 20
0.0
 30
0.0
  9
$UCSXDIR
 10
1.0
 20
0.0
 30
0.0
  9
$UCSYDIR
 10
0.0
 20
1.0
 30
0.0
  9
$UCSORTHOREF
  2

  9
$UCSORTHOVIEW
 70
     0
  9
$UCSORGTOP
 10
0.0
 20
0.0
 30
0.0
  9
$UCSORGBOTTOM
 10
0.0
 20
0.0
 30
0.0
  9
$UCSORGLEFT
 10
0.0
 20
0.0
 30
0.0
  9
$UCSORGRIGHT
 10
0.0
 20
0.0
 30
0.0
  9
$UCSORGFRONT
 10
0.0
 20
0.0
 30
0.0
  9
$UCSORGBACK
 10
0.0
 20
0.0
 30
0.0
  9
$PUCSBASE
  2

  9
$PUCSNAME
  2

  9
$PUCSORG
 10
0.0
 20
0.0
 30
0.0
  9
$PUCSXDIR
 10
1.0
 20
0.0
 30
0.0
  9
$PUCSYDIR
 10
0.0
 20
1.0
 30
0.0
  9
$PUCSORTHOREF
  2

  9
$PUCSORTHOVIEW
 70
     0
  9
$PUCSORGTOP
 10
0.0
 20
0.0
 30
0.0
  9
$PUCSORGBOTTOM
 10
0.0
 20
0.0
 30
0.0
  9
$PUCSORGLEFT
 10
0.0
 20
0.0
 30
0.0
  9
$PUCSORGRIGHT
 10
0.0
 20
0.0
 30
0.0
  9
$PUCSORGFRONT
 10
0.0
 20
0.0
 30
0.0
  9
$PUCSORGBACK
 10
0.0
 20
0.0
 30
0.0
  9
$USERI1
 70
     0
  9
$USERI2
 70
     0
  9
$USERI3
 70
     0
  9
$USERI4
 70
     0
  9
$USERI5
 70
     0
  9
$USERR1
 40
0.0
  9
$USERR2
 40
0.0
  9
$USERR3
 40
0.0
  9
$USERR4
 40
0.0
  9
$USERR5
 40
0.0
  9
$WORLDVIEW
 70
     1
  9
$SHADEDGE
 70
     3
  9
$SHADEDIF
 70
    70
  9
$TILEMODE
 70
     1
  9
$MAXACTVP
 70
    64
  9
$PINSBASE
 10
0.0
 20
0.0
 30
0.0
  9
$PLIMCHECK
 70
     0
  9
$PEXTMIN
 10
1.000000000000000E+20
 20
1.000000000000000E+20
 30
1.000000000000000E+20
  9
$PEXTMAX
 10
-1.000000000000000E+20
 20
-1.000000000000000E+20
 30
-1.000000000000000E+20
  9
$PLIMMIN
 10
0.0
 20
0.0
  9
$PLIMMAX
 10
12.0
 20
9.0
  9
$UNITMODE
 70
     0
  9
$VISRETAIN
 70
     1
  9
$PLINEGEN
 70
     0
  9
$PSLTSCALE
 70
     1
  9
$TREEDEPTH
 70
  3020
  9
$CMLSTYLE
  2
Standard
  9
$CMLJUST
 70
     0
  9
$CMLSCALE
 40
1.0
  9
$PROXYGRAPHICS
 70
     1
  9
$MEASUREMENT
 70
     0
  9
$CELWEIGHT
370
    -1
  9
$ENDCAPS
280
     0
  9
$JOINSTYLE
280
     0
  9
$LWDISPLAY
290
     0
  9
$INSUNITS
 70
     0
  9
$HYPERLINKBASE
  1

  9
$STYLESHEET
  1
sei_cad.ctb
  9
$XEDIT
290
     1
  9
$CEPSNTYPE
380
     0
  9
$PSTYLEMODE
290
     1
  9
$FINGERPRINTGUID
  2
{FDBE45FC-7B4A-4920-A888-46F56EBD293B}
  9
$VERSIONGUID
  2
{8F10BF23-3AB7-4D34-9B61-6941F0416FA0}
  9
$EXTNAMES
290
     1
  9
$PSVPSCALE
 40
0.0
  9
$OLESTARTUP
290
     0
  0
ENDSEC
  0
SECTION
  2
CLASSES
  0
CLASS
  1
ACDBDICTIONARYWDFLT
  2
AcDbDictionaryWithDefault
  3
ObjectDBX Classes
 90
        0
280
     0
281
     0
  0
CLASS
  1
TABLESTYLE
  2
AcDbTableStyle
  3
ObjectDBX Classes
 90
     2047
280
     0
281
     0
  0
CLASS
  1
ACME_DOCUMENT
  2
AcMeDbDoc
  3
AcMeServices
 90
        0
280
     1
281
     0
  0
CLASS
  1
ACMESCOPE
  2
AcMeScope
  3
AcMeServices
 90
        0
280
     1
281
     0
  0
CLASS
  1
ACMECOMMANDHISTORY
  2
AcMeCommandHistory
  3
AcMeServices
 90
        0
280
     1
281
     0
  0
CLASS
  1
ACIMSYSVARMAN
  2
AcImSysVarManager
  3
AcMeServices
 90
        0
280
     1
281
     0
  0
CLASS
  1
ACIMINTSYSVAR
  2
AcImIntSysVar
  3
AcMeServices
 90
        0
280
     1
281
     0
  0
CLASS
  1
ACMEDRAWINGMAN
  2
AcMeDrawingMan
  3
AcMeServices
 90
        0
280
     1
281
     0
  0
CLASS
  1
ACMEVIEW
  2
AcMeView
  3
AcMeServices
 90
        0
280
     1
281
     0
  0
CLASS
  1
ACDBENTITYCACHE
  2
AcMeEntityCache
  3
AcMeServices
 90
        0
280
     1
281
     0
  0
CLASS
  1
GSMANAGER
  2
AcMeGSManager
  3
AcMeServices
 90
        0
280
     1
281
     0
  0
CLASS
  1
AMDTINTERNALREACTOR
  2
AmdtInternalReactor
  3
AcMeServices
 90
        0
280
     1
281
     0
  0
CLASS
  1
ACMESTATEMGR
  2
AcMeStateMgr
  3
AcMeServices
 90
        0
280
     1
281
     0
  0
CLASS
  1
ACGREFMASTER
  2
AcGrefMaster
  3
AcAttribServices
 90
        0
280
     1
281
     0
  0
CLASS
  1
AM_DRAWING_MGR
  2
AcDmDwgMgr
  3
AcMechDwgViewMgmt
 90
        0
280
     1
281
     0
  0
CLASS
  1
AM_DWG_DOCUMENT
  2
AcDmDwgDocument
  3
AcMechDwgViewMgmt
 90
        0
280
     1
281
     0
  0
CLASS
  1
AM_DWG_SHEET
  2
AcDmSheet
  3
AcMechDwgViewMgmt
 90
        0
280
     1
281
     0
  0
CLASS
  1
AM_VIEWDIMPARMAP
  2
AcDmViewDimParMap
  3
AcMechDwgViewMgmt
 90
        0
280
     1
281
     0
  0
CLASS
  1
ACIMREALSYSVAR
  2
AcImRealSysVar
  3
AcMeServices
 90
        0
280
     1
281
     0
  0
CLASS
  1
AM_DWGMGR_NAME
  2
AcDmDwgMgrName
  3
AcMechDwgViewMgmt
 90
        0
280
     1
281
     0
  0
CLASS
  1
ACME_DATABASE
  2
AcMeDbDatabase
  3
AcMeServices
 90
        0
280
     1
281
     0
  0
CLASS
  1
ACRFINSADJUSTERMGR
  2
AcRfInsAdjusterMgr
  3
AcMeServices
 90
        0
280
     1
281
     0
  0
CLASS
  1
ACGREFACADMASTER
  2
AcGrefacadMaster
  3
AcGrefServices
 90
        0
280
     1
281
     0
  0
CLASS
  1
AMDTMENUSTATEMGR
  2
AmdtMenuStateMgr
  3
McadcomServices
 90
        0
280
     1
281
     0
  0
CLASS
  1
AMDTMCOMMENUSTATE
  2
AmdtMcomMenuState
  3
McadcomServices
 90
        0
280
     1
281
     0
  0
CLASS
  1
AMIMASTER
  2
AmiMaster
  3
AmiServices
 90
        0
280
     1
281
     0
  0
CLASS
  1
AMGSETTINGSOBJ
  2
AmgSettingsObj
  3
"AcadM|Product Description: AutoCAD Mechanical 2000|Company: Autodesk"
 90
        0
280
     1
281
     0
  0
CLASS
  1
MAPIAMMOUDLE
  2
MApiAmModule
  3
MApiAmServices
 90
        0
280
     1
281
     0
  0
CLASS
  1
AMDTADMENUSTATE
  2
AmdtAdMenuState
  3
DesignerServices
 90
        0
280
     1
281
     0
  0
CLASS
  1
ADAPPL
  2
AcAdAppl
  3
DesignerServices
 90
        0
280
     1
281
     0
  0
CLASS
  1
DEPMGR
  2
AcAdDepMgr
  3
DesignerServices
 90
        0
280
     1
281
     0
  0
CLASS
  1
PARAMMGR
  2
AcAdParamMgr
  3
DesignerServices
 90
        0
280
     1
281
     0
  0
CLASS
  1
PARAMSCOPE
  2
AcAdParamScope
  3
DesignerServices
 90
        0
280
     1
281
     0
  0
CLASS
  1
NAMEDAPPL
  2
AcAdNamedAppl
  3
DesignerServices
 90
        0
280
     1
281
     0
  0
CLASS
  1
AMDTDMMENUSTATE
  2
AmdtDmMenuState
  3
AcMechDwgViewMgmt
 90
        0
280
     1
281
     0
  0
CLASS
  1
AMDTAMMENUSTATE
  2
AmdtAmMenuState
  3
DesignerAssemblies
 90
        0
280
     1
281
     0
  0
CLASS
  1
ACIMSTRSYSVAR
  2
AcImStrSysVar
  3
AcMeServices
 90
        0
280
     1
281
     0
  0
CLASS
  1
ACAMPROJECT
  2
AcAmProject
  3
DesignerAssemblies
 90
        0
280
     1
281
     0
  0
CLASS
  1
ACAMGRCOMPDEF
  2
AcAmGrCompDef
  3
DesignerAssemblies
 90
        0
280
     1
281
     0
  0
CLASS
  1
ACCMCONTEXT
  2
AcCmContext
  3
DesignerAssemblies
 90
        0
280
     1
281
     0
  0
CLASS
  1
ACAMCOMPDEF
  2
AcAmCompDef
  3
DesignerAssemblies
 90
        0
280
     1
281
     0
  0
CLASS
  1
ACAMCOMPDEFMGR
  2
AcAmCompDefMgr
  3
DesignerAssemblies
 90
        0
280
     1
281
     0
  0
CLASS
  1
AMCONTEXTMGR
  2
AcAmContextMgr
  3
DesignerAssemblies
 90
        0
280
     1
281
     0
  0
CLASS
  1
ACAMCONTEXTMODELER
  2
AcAmContextModeler
  3
DesignerAssemblies
 90
        0
280
     1
281
     0
  0
CLASS
  1
ACMDATADICTIONARY
  2
AcmDataDictionary
  3
"AcmSymBB|Product Description: AutoCAD Mechanical 2004 DX|Company: Autodesk"
 90
        0
280
     1
281
     0
  0
CLASS
  1
CATALOGSTATE
  2
AcAmCatalogState
  3
DesignerAssemblies
 90
        0
280
     1
281
     0
  0
CLASS
  1
ACAMGRCOMPDEFSET
  2
AcAmGrCompDefSet
  3
DesignerAssemblies
 90
        0
280
     1
281
     0
  0
CLASS
  1
AMDTBROWSERDBTAB
  2
AmdtBrowserDbTab
  3
McadcomServices
 90
        0
280
     1
281
     0
  0
CLASS
  1
CBROWSERAPPOBJECT
  2
CBrowserAppObject
  3
McadcomServices
 90
        0
280
     1
281
     0
  0
CLASS
  1
DM_PLACEHOLDER
  2
AcDmSelsetPlaceholder
  3
AcMechDwgViewMgmt
 90
        0
280
     1
281
     0
  0
CLASS
  1
ACMSTANDARDANSI
  2
AcmStandardANSI
  3
"Amdt_StdImp|Product Description: AutoCAD Mechanical 2004 DX|Company: Autodesk"
 90
        0
280
     1
281
     0
  0
CLASS
  1
AMGOBJPROPCFG
  2
AmgObjPropCfg
  3
"AmgLay|Product Description: AutoCAD Mechanical 2000|Company: Autodesk"
 90
        1
280
     1
281
     0
  0
CLASS
  1
ACMSURFSTANDARDANSI
  2
AcmSurfTextStdANSI
  3
"Amdt_StdImp|Product Description: AutoCAD Mechanical 2004 DX|Company: Autodesk"
 90
        0
280
     1
281
     0
  0
CLASS
  1
ACMFCFSTANDARDANSI
  2
AcmFCFStdANSI
  3
"Amdt_StdImp|Product Description: AutoCAD Mechanical 2004 DX|Company: Autodesk"
 90
        0
280
     1
281
     0
  0
CLASS
  1
ACMWELDSTANDARDANSI
  2
AcmWeldingStdANSI
  3
"Amdt_StdImp|Product Description: AutoCAD Mechanical 2004 DX|Company: Autodesk"
 90
        0
280
     1
281
     0
  0
CLASS
  1
ACMIDSTANDARDANSI
  2
AcmIdStdANSI
  3
"Amdt_StdImp|Product Description: AutoCAD Mechanical 2004 DX|Company: Autodesk"
 90
        0
280
     1
281
     0
  0
CLASS
  1
ACMDATUMSTANDARDANSI
  2
AcmDatumStdANSI
  3
"Amdt_StdImp|Product Description: AutoCAD Mechanical 2004 DX|Company: Autodesk"
 90
        0
280
     1
281
     0
  0
CLASS
  1
ACMBOMSTANDARDANSI
  2
AcmBOMStdANSI
  3
"Amdt_StdImp|Product Description: AutoCAD Mechanical 2004 DX|Company: Autodesk"
 90
        0
280
     1
281
     0
  0
CLASS
  1
ACMDETAILSTANDARDANSI
  2
AmdtDetailSymStdANSI
  3
"Amdt_StdImp|Product Description: AutoCAD Mechanical 2004 DX|Company: Autodesk"
 90
        0
280
     1
281
     0
  0
CLASS
  1
ACMSECTIONSTANDARDANSI
  2
AmdtSectionSymStdANSI
  3
"Amdt_StdImp|Product Description: AutoCAD Mechanical 2004 DX|Company: Autodesk"
 90
        0
280
     1
281
     0
  0
CLASS
  1
ACMCENTERLINESTANDARDANSI
  2
AmdtCenterLineStdANSI
  3
"Amdt_StdImp|Product Description: AutoCAD Mechanical 2004 DX|Company: Autodesk"
 90
        0
280
     1
281
     0
  0
CLASS
  1
ACMTHREADLINESTANDARDANSI
  2
AmdtThreadLineStdANSI
  3
"Amdt_StdImp|Product Description: AutoCAD Mechanical 2004 DX|Company: Autodesk"
 90
        0
280
     1
281
     0
  0
CLASS
  1
ACMNOTESTANDARDANSI
  2
AmdtNoteStdANSI
  3
"Amdt_StdImp|Product Description: AutoCAD Mechanical 2004 DX|Company: Autodesk"
 90
        0
280
     1
281
     0
  0
CLASS
  1
AMDTNOTETEMPLATEDB
  2
AmdtNoteTemplateDB
  3
AMDT_STDIMP_MODULE_NAME
 90
        0
280
     1
281
     0
  0
CLASS
  1
ACAMGLAYSTD
  2
AcAmgLayStd
  3
"AcAmgLayStd|Product Description: AutoCAD Mechanical 2000|Company: Autodesk"
 90
        0
280
     1
281
     0
  0
CLASS
  1
ACAMGDIMSTD
  2
AcAmgDimStd
  3
"AcAmgDimStd|Product Description: AutoCAD Mechanical 2000|Company: Autodesk"
 90
        0
280
     1
281
     0
  0
CLASS
  1
ACAMGHOLECHARTSTDANSI
  2
AcAmgHoleChartStdANSI
  3
ACMSYMBB_MODULE_NAME
 90
        0
280
     1
281
     0
  0
CLASS
  1
ACAMGTITLESTD
  2
AcAmgTitleStd
  3
"TITLEAPP"
 90
        0
280
     1
281
     0
  0
CLASS
  1
ACAMGFILTERDAT
  2
AcAmgFilterDat
  3
"AcadM|Product Description: AutoCAD Mechanical 2000|Company: Autodesk"
 90
        0
280
     1
281
     0
  0
CLASS
  1
DICTIONARYVAR
  2
AcDbDictionaryVar
  3
ObjectDBX Classes
 90
        0
280
     0
281
     0
  0
CLASS
  1
ACMDATAENTRYBLOCK
  2
AcmDataEntryBlock
  3
"AcmSymBB|Product Description: AutoCAD Mechanical 2004 DX|Company: Autodesk"
 90
        0
280
     1
281
     0
  0
CLASS
  1
AMDTNOTE
  2
AmdtNote
  3
"AcmSymBB|Product Description: AutoCAD Mechanical 2004 DX|Company: Autodesk"
 90
     1023
280
     1
281
     1
  0
CLASS
  1
ACMSTANDARDJIS
  2
AcmStandardJIS
  3
"Amdt_StdImp|Product Description: AutoCAD Mechanical 2004 DX|Company: Autodesk"
 90
        0
280
     1
281
     0
  0
CLASS
  1
ACMSURFSTANDARDJIS
  2
AcmSurfTextStdJIS
  3
"Amdt_StdImp|Product Description: AutoCAD Mechanical 2004 DX|Company: Autodesk"
 90
        0
280
     1
281
     0
  0
CLASS
  1
ACMFCFSTANDARDJIS
  2
AcmFCFStdJIS
  3
"Amdt_StdImp|Product Description: AutoCAD Mechanical 2004 DX|Company: Autodesk"
 90
        0
280
     1
281
     0
  0
CLASS
  1
ACMWELDSTANDARDJIS
  2
AcmWeldingStdJIS
  3
"Amdt_StdImp|Product Description: AutoCAD Mechanical 2004 DX|Company: Autodesk"
 90
        0
280
     1
281
     0
  0
CLASS
  1
ACMIDSTANDARDJIS
  2
AcmIdStdJIS
  3
"Amdt_StdImp|Product Description: AutoCAD Mechanical 2004 DX|Company: Autodesk"
 90
        0
280
     1
281
     0
  0
CLASS
  1
ACMDATUMSTANDARDJIS
  2
AcmDatumStdJIS
  3
"Amdt_StdImp|Product Description: AutoCAD Mechanical 2004 DX|Company: Autodesk"
 90
        0
280
     1
281
     0
  0
CLASS
  1
ACMBOMSTANDARDJIS
  2
AcmBOMStdJIS
  3
"Amdt_StdImp|Product Description: AutoCAD Mechanical 2004 DX|Company: Autodesk"
 90
        0
280
     1
281
     0
  0
CLASS
  1
ACMDETAILSTANDARDJIS
  2
AmdtDetailSymStdJIS
  3
"Amdt_StdImp|Product Description: AutoCAD Mechanical 2004 DX|Company: Autodesk"
 90
        0
280
     1
281
     0
  0
CLASS
  1
ACMSECTIONSTANDARDJIS
  2
AmdtSectionSymStdJIS
  3
"Amdt_StdImp|Product Description: AutoCAD Mechanical 2004 DX|Company: Autodesk"
 90
        0
280
     1
281
     0
  0
CLASS
  1
ACMCENTERLINESTANDARDJIS
  2
AmdtCenterLineStdJIS
  3
"Amdt_StdImp|Product Description: AutoCAD Mechanical 2004 DX|Company: Autodesk"
 90
        0
280
     1
281
     0
  0
CLASS
  1
ACMTHREADLINESTANDARDJIS
  2
AmdtThreadLineStdJIS
  3
"Amdt_StdImp|Product Description: AutoCAD Mechanical 2004 DX|Company: Autodesk"
 90
        0
280
     1
281
     0
  0
CLASS
  1
ACMNOTESTANDARDJIS
  2
AmdtNoteStdJIS
  3
"Amdt_StdImp|Product Description: AutoCAD Mechanical 2004 DX|Company: Autodesk"
 90
        0
280
     1
281
     0
  0
CLASS
  1
ACAMGHOLECHARTSTDJIS
  2
AcAmgHoleChartStdJIS
  3
ACMSYMBB_MODULE_NAME
 90
        0
280
     1
281
     0
  0
CLASS
  1
ACDBPLACEHOLDER
  2
AcDbPlaceHolder
  3
ObjectDBX Classes
 90
        0
280
     0
281
     0
  0
CLASS
  1
LAYOUT
  2
AcDbLayout
  3
ObjectDBX Classes
 90
        0
280
     0
281
     0
  0
ENDSEC
  0
SECTION
  2
TABLES
  0
TABLE
  2
VPORT
  5
8
330
0
100
AcDbSymbolTable
 70
    17
  0
VPORT
  5
7F0
330
8
100
AcDbSymbolTableRecord
100
AcDbViewportTableRecord
  2
*Active
 70
     0
 10
0.0
 20
0.0
 11
1.0
 21
1.0
 12
20.13189745909563
 22
-7.087893873939606
 13
0.0
 23
0.0
 14
0.5
 24
0.5
 15
0.0
 25
0.0
 16
0.0
 26
0.0
 36
1.0
 17
0.0
 27
0.0
 37
0.0
 40
251.8629185744511
 41
1.372924648786718
 42
50.0
 43
0.0
 44
0.0
 50
0.0
 51
0.0
 71
     0
 72
 10000
 73
     1
 74
     1
 75
     0
 76
     0
 77
     0
 78
     0
281
     0
 65
     0
110
0.0
120
0.0
130
0.0
111
1.0
121
0.0
131
0.0
112
0.0
122
1.0
132
0.0
 79
     0
146
0.0
  0
ENDTAB
  0
TABLE
  2
LTYPE
  5
5
330
0
100
AcDbSymbolTable
 70
    13
  0
LTYPE
  5
13
330
5
100
AcDbSymbolTableRecord
100
AcDbLinetypeTableRecord
  2
ByBlock
 70
     0
  3

 72
    65
 73
     0
 40
0.0
  0
LTYPE
  5
14
330
5
100
AcDbSymbolTableRecord
100
AcDbLinetypeTableRecord
  2
ByLayer
 70
     0
  3

 72
    65
 73
     0
 40
0.0
  0
LTYPE
  5
15
330
5
100
AcDbSymbolTableRecord
100
AcDbLinetypeTableRecord
  2
CONTINUOUS
 70
     0
  3
solid line
 72
    65
 73
     0
 40
0.0
  0
LTYPE
  5
27
330
5
100
AcDbSymbolTableRecord
100
AcDbLinetypeTableRecord
  2
CENTER
 70
     0
  3
--- - --- - --- - --- - --- - 
 72
    65
 73
     4
 40
6.0
 49
3.0
 74
     0
 49
-1.0
 74
     0
 49
1.0
 74
     0
 49
-1.0
 74
     0
  0
LTYPE
  5
28
330
5
100
AcDbSymbolTableRecord
100
AcDbLinetypeTableRecord
  2
PHANTOM
 70
     0
  3
----- - - ----- - - ----- - - 
 72
    65
 73
     6
 40
8.0
 49
3.0
 74
     0
 49
-1.0
 74
     0
 49
1.0
 74
     0
 49
-1.0
 74
     0
 49
1.0
 74
     0
 49
-1.0
 74
     0
  0
LTYPE
  5
378
330
5
100
AcDbSymbolTableRecord
100
AcDbLinetypeTableRecord
  2
HIDDEN
 70
     0
  3
Hidden __ __ __ __ __ __ __ __ __ __ __ __ __ _
 72
    65
 73
     2
 40
0.375
 49
0.25
 74
     0
 49
-0.125
 74
     0
  0
LTYPE
  5
379
330
5
100
AcDbSymbolTableRecord
100
AcDbLinetypeTableRecord
  2
PHANTOM2
 70
     0
  3
Phantom (.5x) ___ _ _ ___ _ _ ___ _ _ ___ _ _
 72
    65
 73
     6
 40
1.25
 49
0.625
 74
     0
 49
-0.125
 74
     0
 49
0.125
 74
     0
 49
-0.125
 74
     0
 49
0.125
 74
     0
 49
-0.125
 74
     0
  0
LTYPE
  5
3B4
330
5
100
AcDbSymbolTableRecord
100
AcDbLinetypeTableRecord
  2
Amconstr
 70
     0
  3
_______________________
 72
    65
 73
     2
 40
9999.0
 49
9999.0
 74
     0
 49
0.0
 74
     0
  0
LTYPE
  5
3BA
330
5
100
AcDbSymbolTableRecord
100
AcDbLinetypeTableRecord
  2
CENTER2
 70
     0
  3
Center (.5x) ___ _ ___ _ ___ _ ___ _ ___ _ ___
 72
    65
 73
     4
 40
1.125
 49
0.75
 74
     0
 49
-0.125
 74
     0
 49
0.125
 74
     0
 49
-0.125
 74
     0
  0
LTYPE
  5
3BB
330
5
100
AcDbSymbolTableRecord
100
AcDbLinetypeTableRecord
  2
HIDDEN2
 70
     0
  3
Hidden (.5x) _ _ _ _ _ _ _ _ _ _ _ _ _ _ _ _ _
 72
    65
 73
     2
 40
0.1875
 49
0.125
 74
     0
 49
-0.0625
 74
     0
  0
LTYPE
  5
3BC
330
5
100
AcDbSymbolTableRecord
100
AcDbLinetypeTableRecord
  2
Amzigzag2
 70
     0
  3
/\/-/\/-/\/-/\/-/\/-/\/
 72
    65
 73
     2
 40
0.4401
 49
0.0001
 74
     4
 75
   135
340
3B8
 46
0.0016
 50
0.0
 44
0.0
 45
0.0
 49
-0.44
 74
     0
  0
LTYPE
  5
3CA
330
5
100
AcDbSymbolTableRecord
100
AcDbLinetypeTableRecord
  2
ACANSTGB
 70
     0
  3
__ . . __ . .
 72
    65
 73
     6
 40
0.35433070866
 49
0.15748031496
 74
     0
 49
-0.03937007874
 74
     0
 49
0.03937007874
 74
     0
 49
-0.03937007874
 74
     0
 49
0.03937007874
 74
     0
 49
-0.03937007874
 74
     0
  0
LTYPE
  5
3CB
330
5
100
AcDbSymbolTableRecord
100
AcDbLinetypeTableRecord
  2
ACANSTGL
 70
     0
  3
_ _ _ _ _
 72
    65
 73
     2
 40
0.11811023622
 49
0.07874015748
 74
     0
 49
-0.03937007874
 74
     0
  0
LTYPE
  5
686
330
5
100
AcDbSymbolTableRecord
100
AcDbLinetypeTableRecord
  2
ACJISTGB
 70
     0
  3
__ . . __ . .
 72
    65
 73
     6
 40
9.0
 49
4.0
 74
     0
 49
-1.0
 74
     0
 49
1.0
 74
     0
 49
-1.0
 74
     0
 49
1.0
 74
     0
 49
-1.0
 74
     0
  0
LTYPE
  5
687
330
5
100
AcDbSymbolTableRecord
100
AcDbLinetypeTableRecord
  2
ACJISTGL
 70
     0
  3
_ _ _ _ _
 72
    65
 73
     2
 40
3.0
 49
2.0
 74
     0
 49
-1.0
 74
     0
  0
ENDTAB
  0
TABLE
  2
LAYER
  5
2
102
{ACAD_XDICTIONARY
360
53A
102
}
330
0
100
AcDbSymbolTable
 70
     8
  0
LAYER
  5
10
330
2
100
AcDbSymbolTableRecord
100
AcDbLayerTableRecord
  2
0
 70
     0
 62
     7
  6
CONTINUOUS
370
    -3
390
F
  0
LAYER
  5
29
330
2
100
AcDbSymbolTableRecord
100
AcDbLayerTableRecord
  2
1
 70
     0
 62
     7
  6
CONTINUOUS
370
    -3
390
F
  0
LAYER
  5
2A
330
2
100
AcDbSymbolTableRecord
100
AcDbLayerTableRecord
  2
2
 70
     0
 62
     7
  6
CONTINUOUS
370
    -3
390
F
  0
LAYER
  5
2C
330
2
100
AcDbSymbolTableRecord
100
AcDbLayerTableRecord
  2
6
 70
     0
 62
     7
  6
CONTINUOUS
370
    -3
390
F
  0
LAYER
  5
30
330
2
100
AcDbSymbolTableRecord
100
AcDbLayerTableRecord
  2
DEFPOINTS
 70
     0
 62
    -7
  6
CONTINUOUS
290
     0
370
    -3
390
F
  0
LAYER
  5
432
330
2
100
AcDbSymbolTableRecord
100
AcDbLayerTableRecord
  2
AM_5
 70
     0
 62
     3
  6
CONTINUOUS
370
    15
390
F
  0
LAYER
  5
539
330
2
100
AcDbSymbolTableRecord
100
AcDbLayerTableRecord
  2
AM_0
 70
     0
 62
     7
  6
CONTINUOUS
370
    30
390
F
  0
LAYER
  5
688
330
2
100
AcDbSymbolTableRecord
100
AcDbLayerTableRecord
  2
AM_6
 70
     0
 62
     2
  6
CONTINUOUS
370
    30
390
F
  0
ENDTAB
  0
TABLE
  2
STYLE
  5
3
330
0
100
AcDbSymbolTable
 70
     6
  0
STYLE
  5
11
330
3
100
AcDbSymbolTableRecord
100
AcDbTextStyleTableRecord
  2
STANDARD
 70
     0
 40
0.0
 41
1.0
 50
0.0
 71
     0
 42
3.0
  3
txt
  4

  0
STYLE
  5
3B8
330
3
100
AcDbSymbolTableRecord
100
AcDbTextStyleTableRecord
  2

 70
     1
 40
0.0
 41
1.0
 50
0.0
 71
     0
 42
3.0
  3
ltypeshp.shx
  4

  0
STYLE
  5
3BD
330
3
100
AcDbSymbolTableRecord
100
AcDbTextStyleTableRecord
  2
ACANSTS
 70
     0
 40
1.0
 41
1.0
 50
0.0
 71
     0
 42
3.0
  3
romans.shx
  4
extfont.shx
  0
STYLE
  5
3C9
330
3
100
AcDbSymbolTableRecord
100
AcDbTextStyleTableRecord
  2
ACANSGDT
 70
     0
 40
0.0
 41
1.0
 50
0.0
 71
     0
 42
3.0
  3
amgdtans.shx
  4

  0
STYLE
  5
689
330
3
100
AcDbSymbolTableRecord
100
AcDbTextStyleTableRecord
  2
ACJISTS
 70
     0
 40
1.0
 41
1.0
 50
0.0
 71
     0
 42
2.5
  3
isocp.shx
  4
bigfont.shx
  0
STYLE
  5
68A
330
3
100
AcDbSymbolTableRecord
100
AcDbTextStyleTableRecord
  2
ACJISGDT
 70
     0
 40
0.0
 41
1.0
 50
0.0
 71
     0
 42
2.5
  3
amgdt.shx
  4

  0
ENDTAB
  0
TABLE
  2
VIEW
  5
6
330
0
100
AcDbSymbolTable
 70
     0
  0
ENDTAB
  0
TABLE
  2
UCS
  5
7
330
0
100
AcDbSymbolTable
 70
     0
  0
ENDTAB
  0
TABLE
  2
APPID
  5
9
330
0
100
AcDbSymbolTable
 70
     9
  0
APPID
  5
12
330
9
100
AcDbSymbolTableRecord
100
AcDbRegAppTableRecord
  2
ACAD
 70
     0
  0
APPID
  5
34B
330
9
100
AcDbSymbolTableRecord
100
AcDbRegAppTableRecord
  2
MCAD_NO_VIS
 70
     0
  0
APPID
  5
34C
330
9
100
AcDbSymbolTableRecord
100
AcDbRegAppTableRecord
  2
ACAD_TEMP_GRAPHIC
 70
     0
  0
APPID
  5
37B
330
9
100
AcDbSymbolTableRecord
100
AcDbRegAppTableRecord
  2
AD_DRAW
 70
     0
  0
APPID
  5
37E
330
9
100
AcDbSymbolTableRecord
100
AcDbRegAppTableRecord
  2
ACATTRIBSERVICES
 70
     0
  0
APPID
  5
3A0
330
9
100
AcDbSymbolTableRecord
100
AcDbRegAppTableRecord
  2
DESIGNERASSEMBLIES
 70
     0
  0
APPID
  5
3A6
330
9
100
AcDbSymbolTableRecord
100
AcDbRegAppTableRecord
  2
ACADM_DIM_EDIT
 70
     0
  0
APPID
  5
3A7
330
9
100
AcDbSymbolTableRecord
100
AcDbRegAppTableRecord
  2
AMDT_DM_ADJ
 70
     0
  0
APPID
  5
3EA
330
9
100
AcDbSymbolTableRecord
100
AcDbRegAppTableRecord
  2
ACAD_PSEXT
 70
     0
  0
ENDTAB
  0
TABLE
  2
DIMSTYLE
  5
A
330
0
100
AcDbSymbolTable
 70
    18
100
AcDbDimStyleTable
  0
DIMSTYLE
105
348
330
A
100
AcDbSymbolTableRecord
100
AcDbDimStyleTableRecord
  2
Standard
 70
     0
340
11
  0
DIMSTYLE
105
3D6
330
A
100
AcDbSymbolTableRecord
100
AcDbDimStyleTableRecord
  2
AM_ANSI
 70
     0
  4
mm
 41
0.1
 42
0.05
 43
0.5
 44
0.1
 47
0.1
 48
0.1
 78
     7
 79
     2
140
0.12
141
0.0
146
0.71
147
0.06
176
   256
177
   256
178
     2
274
     4
284
     7
340
11
371
    -1
372
    -1
  0
DIMSTYLE
105
3D9
330
A
100
AcDbSymbolTableRecord
100
AcDbDimStyleTableRecord
  2
AM_ANSI$7
 70
     0
  4
mm
 41
0.1
 42
0.05
 43
0.5
 44
0.1
 47
0.1
 48
0.1
 78
     7
 79
     2
140
0.24
141
0.0
146
0.71
147
0.06
176
   256
177
   256
178
     2
274
     4
284
     7
340
11
371
    -1
372
    -1
  0
DIMSTYLE
105
3DA
330
A
100
AcDbSymbolTableRecord
100
AcDbDimStyleTableRecord
  2
AM_ANSI$SF
 70
     0
  4
mm
 41
0.1
 42
0.05
 43
0.5
 44
0.1
 47
0.1
 48
0.1
 75
     1
 76
     1
 78
     7
 79
     2
140
0.12
141
0.0
146
0.71
147
0.06
176
   256
177
   256
178
     2
274
     4
284
     7
340
11
371
    -1
372
    -1
  0
DIMSTYLE
105
3DF
330
A
100
AcDbSymbolTableRecord
100
AcDbDimStyleTableRecord
  2
AM_ANSI$SH
 70
     0
  4
mm
 41
0.1
 42
0.05
 43
0.5
 44
0.1
 47
0.1
 48
0.1
 75
     1
 76
     1
 78
     7
 79
     2
140
0.12
141
0.0
146
0.71
147
0.06
173
     1
176
   256
177
   256
178
     2
274
     4
284
     7
340
11
343
3DB
371
    -1
372
    -1
  0
DIMSTYLE
105
43E
102
{ACAD_REACTORS
330
442
330
4D6
330
55F
330
583
330
626
330
64E
102
}
330
A
100
AcDbSymbolTableRecord
100
AcDbDimStyleTableRecord
  2
Standard$0
 70
     0
340
11
  0
DIMSTYLE
105
45C
102
{ACAD_REACTORS
330
45D
330
5B1
102
}
330
A
100
AcDbSymbolTableRecord
100
AcDbDimStyleTableRecord
  2
Standard$2
 70
     0
340
11
  0
DIMSTYLE
105
5E8
330
A
100
AcDbSymbolTableRecord
100
AcDbDimStyleTableRecord
  2
Standard$4
 70
     0
340
11
  0
DIMSTYLE
105
5FA
102
{ACAD_REACTORS
330
5FB
102
}
330
A
100
AcDbSymbolTableRecord
100
AcDbDimStyleTableRecord
  2
Standard$3
 70
     0
340
11
  0
DIMSTYLE
105
68B
330
A
100
AcDbSymbolTableRecord
100
AcDbDimStyleTableRecord
  2
AM_JIS
 70
     0
  4
"
 41
2.5
 42
0.0
 43
10.0
 44
1.0
 47
0.1
 48
0.1000000001
 73
     0
 74
     0
 77
     3
 78
     1
 79
     2
140
3.8
141
0.0
143
0.0393701
146
0.71
147
1.5
172
     1
176
   256
177
   256
178
     2
179
     1
271
     2
272
     2
275
     1
283
     0
284
     8
340
11
341
680
342
680
371
    -1
372
    -1
  0
DIMSTYLE
105
68C
330
A
100
AcDbSymbolTableRecord
100
AcDbDimStyleTableRecord
  2
AM_JIS$3
 70
     0
  4
"
 41
2.5
 42
0.0
 43
10.0
 44
1.0
 47
0.1
 48
0.1000000001
 73
     0
 77
     3
 78
     1
 79
     2
140
3.8
141
0.0
143
0.0393701
146
0.71
147
1.5
172
     1
176
   256
177
   256
178
     2
179
     1
271
     2
272
     2
275
     1
283
     0
284
     8
288
     1
289
     0
340
11
341
680
342
680
371
    -1
372
    -1
  0
DIMSTYLE
105
68D
330
A
100
AcDbSymbolTableRecord
100
AcDbDimStyleTableRecord
  2
AM_JIS$4
 70
     0
  4
"
 41
2.5
 42
0.0
 43
10.0
 44
1.0
 47
0.1
 48
0.1000000001
 73
     0
 77
     3
 78
     1
 79
     2
140
3.8
141
0.0
143
0.0393701
146
0.71
147
1.5
172
     1
176
   256
177
   256
178
     2
179
     1
271
     2
272
     2
275
     1
283
     0
284
     8
288
     1
289
     0
340
11
341
680
342
680
371
    -1
372
    -1
  0
DIMSTYLE
105
68E
330
A
100
AcDbSymbolTableRecord
100
AcDbDimStyleTableRecord
  2
AM_JIS$6
 70
     0
  4
"
 41
2.5
 42
0.0
 43
10.0
 44
1.0
 47
0.1
 48
0.1000000001
 73
     0
 74
     0
 78
     1
 79
     2
140
3.8
141
0.0
143
0.0393701
146
0.71
147
1.5
172
     1
176
   256
177
   256
178
     2
179
     1
271
     2
272
     2
275
     1
283
     0
284
     8
340
11
341
680
342
680
371
    -1
372
    -1
  0
DIMSTYLE
105
68F
330
A
100
AcDbSymbolTableRecord
100
AcDbDimStyleTableRecord
  2
AM_JIS$7
 70
     0
  4
"
 41
2.5
 42
0.0
 43
10.0
 44
1.0
 47
0.1
 48
0.1000000001
 73
     0
 74
     0
 77
     3
 78
     1
 79
     2
140
5.0
141
0.0
143
0.0393701
146
0.71
147
1.5
172
     1
176
   256
177
   256
178
     2
179
     1
271
     2
272
     2
275
     1
283
     0
284
     8
340
11
341
680
342
680
371
    -1
372
    -1
  0
DIMSTYLE
105
690
330
A
100
AcDbSymbolTableRecord
100
AcDbDimStyleTableRecord
  2
AM_JIS$SF
 70
     0
  4
"
 41
2.5
 42
1.0
 43
10.0
 44
1.0
 47
0.1
 48
0.1
 73
     0
 74
     0
 75
     1
 76
     1
 77
     3
 78
     8
 79
     2
140
3.5
141
0.0
143
0.0393701
146
0.71
147
1.5
176
   256
177
   256
178
     2
271
     2
272
     3
274
     4
340
11
341
680
342
680
343
680
344
680
371
    -1
372
    -1
  0
DIMSTYLE
105
691
330
A
100
AcDbSymbolTableRecord
100
AcDbDimStyleTableRecord
  2
AM_JIS$SH
 70
     0
  4
"
 41
2.5
 42
1.0
 43
10.0
 44
1.0
 47
0.1
 48
0.1
 73
     0
 74
     0
 75
     1
 76
     1
 77
     3
 78
     8
 79
     2
140
3.5
141
0.0
143
0.0393701
144
2.0
146
0.71
147
1.5
173
     1
176
   256
177
   256
178
     2
271
     2
272
     3
274
     4
340
11
341
680
342
680
343
3DB
344
680
371
    -1
372
    -1
  0
DIMSTYLE
105
692
330
A
100
AcDbSymbolTableRecord
100
AcDbDimStyleTableRecord
  2
AM_JIS$0
 70
     0
  4
"
 41
2.5
 42
0.0
 43
10.0
 44
1.0
 47
0.1
 48
0.1000000001
 73
     0
 74
     0
 77
     3
 78
     1
 79
     2
140
3.8
141
0.0
143
0.0393701
146
0.71
147
1.5
172
     1
176
     3
177
     3
178
     2
271
     2
272
     2
275
     1
283
     0
284
     8
289
     0
340
11
341
680
342
680
371
    13
372
    13
  0
DIMSTYLE
105
693
330
A
100
AcDbSymbolTableRecord
100
AcDbDimStyleTableRecord
  2
AM_JIS$2
 70
     0
  4
"
 41
2.5
 42
0.0
 43
10.0
 44
1.0
 47
0.1
 48
0.1000000001
 73
     0
 74
     0
 77
     3
 78
     1
 79
     2
140
3.8
141
0.0
143
0.0393701
146
0.71
147
1.5
172
     1
176
     3
177
     3
178
     2
271
     2
272
     2
275
     1
283
     0
284
     8
289
     0
340
11
341
680
342
680
371
    13
372
    13
  0
ENDTAB
  0
TABLE
  2
BLOCK_RECORD
  5
1
330
0
100
AcDbSymbolTable
 70
    12
  0
BLOCK_RECORD
  5
22
330
1
100
AcDbSymbolTableRecord
100
AcDbBlockTableRecord
  2
*Model_Space
340
25
  0
BLOCK_RECORD
  5
1E
330
1
100
AcDbSymbolTableRecord
100
AcDbBlockTableRecord
  2
*Paper_Space
340
21
  0
BLOCK_RECORD
  5
397
330
1
100
AcDbSymbolTableRecord
100
AcDbBlockTableRecord
  2
*U0
340
0
  0
BLOCK_RECORD
  5
3DB
330
1
100
AcDbSymbolTableRecord
100
AcDbBlockTableRecord
  2
GENAXEH
340
0
  0
BLOCK_RECORD
  5
443
330
1
100
AcDbSymbolTableRecord
100
AcDbBlockTableRecord
  2
*D2
340
0
  0
BLOCK_RECORD
  5
45E
330
1
100
AcDbSymbolTableRecord
100
AcDbBlockTableRecord
  2
*D3
340
0
  0
BLOCK_RECORD
  5
4D7
330
1
100
AcDbSymbolTableRecord
100
AcDbBlockTableRecord
  2
*D4
340
0
  0
BLOCK_RECORD
  5
560
330
1
100
AcDbSymbolTableRecord
100
AcDbBlockTableRecord
  2
*D5
340
0
  0
BLOCK_RECORD
  5
584
330
1
100
AcDbSymbolTableRecord
100
AcDbBlockTableRecord
  2
*D6
340
0
  0
BLOCK_RECORD
  5
5B2
330
1
100
AcDbSymbolTableRecord
100
AcDbBlockTableRecord
  2
*D7
340
0
  0
BLOCK_RECORD
  5
5FC
330
1
100
AcDbSymbolTableRecord
100
AcDbBlockTableRecord
  2
*D8
340
0
  0
BLOCK_RECORD
  5
627
330
1
100
AcDbSymbolTableRecord
100
AcDbBlockTableRecord
  2
*D9
340
0
  0
BLOCK_RECORD
  5
64F
330
1
100
AcDbSymbolTableRecord
100
AcDbBlockTableRecord
  2
*D10
340
0
  0
BLOCK_RECORD
  5
680
330
1
100
AcDbSymbolTableRecord
100
AcDbBlockTableRecord
  2
_Open30
340
0
  0
ENDTAB
  0
ENDSEC
  0
SECTION
  2
BLOCKS
  0
BLOCK
  5
23
330
22
100
AcDbEntity
  8
0
100
AcDbBlockBegin
  2
*Model_Space
 70
     0
 71
     0
 10
0.0
 20
0.0
 30
0.0
  3
*Model_Space
  1

  0
ENDBLK
  5
24
330
22
100
AcDbEntity
  8
0
100
AcDbBlockEnd
  0
BLOCK
  5
1F
330
1E
100
AcDbEntity
 67
     1
  8
0
100
AcDbBlockBegin
  2
*Paper_Space
 70
     0
 71
     0
 10
0.0
 20
0.0
 30
0.0
  3
*Paper_Space
  1

  0
ENDBLK
  5
20
330
1E
100
AcDbEntity
 67
     1
  8
0
100
AcDbBlockEnd
  0
BLOCK
  5
398
330
397
100
AcDbEntity
  8
0
100
AcDbBlockBegin
  2
*U0
 70
     1
 71
     0
 10
0.0
 20
0.0
 30
0.0
  3
*U0
  1

  0
ENDBLK
  5
399
330
397
100
AcDbEntity
  8
0
100
AcDbBlockEnd
  0
BLOCK
  5
3DD
330
3DB
100
AcDbEntity
  8
0
100
AcDbBlockBegin
  2
GENAXEH
 70
     0
 71
     0
 10
0.0
 20
0.0
 30
0.0
  3
GENAXEH
  1

  0
LINE
  5
3DC
330
3DB
100
AcDbEntity
  8
0
100
AcDbLine
 10
-1.0
 20
0.0
 30
0.0
 11
1.0
 21
0.0
 31
0.0
  0
ENDBLK
  5
3DE
330
3DB
100
AcDbEntity
  8
0
100
AcDbBlockEnd
  0
BLOCK
  5
44D
330
443
100
AcDbEntity
  8
0
100
AcDbBlockBegin
  2
*D2
 70
     1
 71
     0
 10
0.0
 20
0.0
 30
0.0
  3
*D2
  1

  0
LINE
  5
796
330
443
100
AcDbEntity
  8
AM_5
 62
     0
370
    -2
100
AcDbLine
 10
-1.0
 20
0.0000000000000003
 30
0.0
 11
-24.35466289482724
 21
0.0000000000000069
 31
0.0
  0
LINE
  5
797
330
443
100
AcDbEntity
  8
AM_5
 62
     0
370
    -2
100
AcDbLine
 10
24.1232994211166
 20
-9.999999456107673
 30
0.0
 11
-24.35466289482724
 21
-9.999999456107659
 31
0.0
  0
LINE
  5
798
330
443
100
AcDbEntity
  8
AM_5
 62
     0
370
    -2
100
AcDbLine
 10
-22.35466289482724
 20
-2.999999999999994
 30
0.0
 11
-22.35466289482724
 21
-6.999999456107659
 31
0.0
  0
SOLID
  5
799
330
443
100
AcDbEntity
  8
AM_5
 62
     0
100
AcDbTrace
 10
-22.85466289482724
 20
-2.999999999999994
 30
0.0
 11
-21.85466289482724
 21
-2.999999999999994
 31
0.0
 12
-22.35466289482724
 22
0.0000000000000063
 32
0.0
 13
-22.35466289482724
 23
0.0000000000000063
 33
0.0
  0
SOLID
  5
79A
330
443
100
AcDbEntity
  8
AM_5
 62
     0
100
AcDbTrace
 10
-22.85466289482724
 20
-6.999999456107659
 30
0.0
 11
-21.85466289482724
 21
-6.99999945610766
 31
0.0
 12
-22.35466289482724
 22
-9.999999456107659
 32
0.0
 13
-22.35466289482724
 23
-9.999999456107659
 33
0.0
  0
MTEXT
  5
79B
330
443
100
AcDbEntity
  8
AM_5
 62
     0
100
AcDbMText
 10
-24.94466289482724
 20
-4.99999972805383
 30
0.0
 40
5.0
 41
0.0
 71
     5
 72
     1
  1
\A1;10
 11
6.123031769111886E-17
 21
1.0
 31
0.0
 73
     1
 44
1.0
  0
POINT
  5
79C
330
443
100
AcDbEntity
  8
DEFPOINTS
 62
     0
100
AcDbPoint
 10
0.0
 20
0.0
 30
0.0
  0
POINT
  5
79D
330
443
100
AcDbEntity
  8
DEFPOINTS
 62
     0
100
AcDbPoint
 10
25.1232994211166
 20
-9.999999456107673
 30
0.0
  0
POINT
  5
79E
330
443
100
AcDbEntity
  8
DEFPOINTS
 62
     0
100
AcDbPoint
 10
-22.35466289482724
 20
-9.999999456107659
 30
0.0
  0
ENDBLK
  5
44E
330
443
100
AcDbEntity
  8
0
100
AcDbBlockEnd
  0
BLOCK
  5
46D
330
45E
100
AcDbEntity
  8
0
100
AcDbBlockBegin
  2
*D3
 70
     1
 71
     0
 10
0.0
 20
0.0
 30
0.0
  3
*D3
  1

  0
LINE
  5
79F
330
45E
100
AcDbEntity
  8
AM_5
 62
     0
370
    -2
100
AcDbLine
 10
-0.1239077100381635
 20
1.074485209651441
 30
0.0
 11
-2.446384239781375
 21
23.17137394277365
 31
0.0
  0
LINE
  5
7A0
330
45E
100
AcDbEntity
  8
AM_5
 62
     0
370
    -2
100
AcDbLine
 10
-0.8939989486329825
 20
0.5647729487612168
 30
0.0
 11
-20.32682818940731
 21
11.33656651409181
 31
0.0
  0
ARC
  5
7A1
330
45E
100
AcDbEntity
  8
AM_5
 62
     0
370
    -2
100
AcDbCircle
 10
-0.0193792495439342
 20
0.0799633139916688
 30
0.0
 40
21.2186045672358
100
AcDbArc
 50
104.1075465665644
 51
142.8924523222485
  0
SOLID
  5
7A2
330
45E
100
AcDbEntity
  8
AM_5
 62
     0
100
AcDbTrace
 10
-5.27854654131199
 20
21.15093523816424
 30
0.0
 11
-5.103974179027759
 21
20.16629089103858
 31
0.0
 12
-2.237327318792918
 22
21.18233015145411
 32
0.0
 13
-2.237327318792918
 23
21.18233015145411
 33
0.0
  0
SOLID
  5
7A3
330
45E
100
AcDbEntity
  8
AM_5
 62
     0
100
AcDbTrace
 10
-16.52223151456222
 20
12.60871138586019
 30
0.0
 11
-17.36039054831961
 21
13.15413730578962
 31
0.0
 12
-18.57758879122921
 22
10.36694724455272
 32
0.0
 13
-18.57758879122921
 23
10.36694724455272
 33
0.0
  0
MTEXT
  5
7A4
330
45E
100
AcDbEntity
  8
AM_5
 62
     0
100
AcDbMText
 10
-13.1602284863513
 20
19.9336212332392
 30
0.0
 40
5.0
 41
0.0
 71
     5
 72
     1
  1
\A1;55°
 11
0.833885827419266
 21
0.5519369772259203
 31
0.0
 73
     1
 44
1.0
  0
POINT
  5
7A5
330
45E
100
AcDbEntity
  8
DEFPOINTS
 62
     0
100
AcDbPoint
 10
-8.76238888017625
 20
19.41358590209942
 30
0.0
  0
POINT
  5
7A6
330
45E
100
AcDbEntity
  8
DEFPOINTS
 62
     0
100
AcDbPoint
 10
10.15059090405703
 20
-5.557343415915965
 30
0.0
  0
POINT
  5
7A7
330
45E
100
AcDbEntity
  8
DEFPOINTS
 62
     0
100
AcDbPoint
 10
0.0004996843636036
 20
-0.1091721132397652
 30
0.0
  0
POINT
  5
7A8
330
45E
100
AcDbEntity
  8
DEFPOINTS
 62
     0
100
AcDbPoint
 10
1.196064956486225
 20
-11.48421614617106
 30
0.0
  0
POINT
  5
7A9
330
45E
100
AcDbEntity
  8
DEFPOINTS
 62
     0
100
AcDbPoint
 10
0.1469535008072853
 20
-0.0122364386916729
 30
0.0
  0
ENDBLK
  5
46E
330
45E
100
AcDbEntity
  8
0
100
AcDbBlockEnd
  0
BLOCK
  5
4E2
330
4D7
100
AcDbEntity
  8
0
100
AcDbBlockBegin
  2
*D4
 70
     1
 71
     0
 10
0.0
 20
0.0
 30
0.0
  3
*D4
  1

  0
LINE
  5
7AA
330
4D7
100
AcDbEntity
  8
AM_5
 62
     0
370
    -2
100
AcDbLine
 10
0.0000000000000001
 20
1.0
 30
0.0
 11
0.0000000000000015
 21
23.81739039447746
 31
0.0
  0
LINE
  5
7AB
330
4D7
100
AcDbEntity
  8
AM_5
 62
     0
370
    -2
100
AcDbLine
 10
20.25754576871452
 20
1.0
 30
0.0
 11
20.25754576871452
 21
23.81739039447746
 31
0.0
  0
LINE
  5
7AC
330
4D7
100
AcDbEntity
  8
AM_5
 62
     0
370
    -2
100
AcDbLine
 10
3.000000000000001
 20
21.81739039447746
 30
0.0
 11
17.25754576871452
 21
21.81739039447746
 31
0.0
  0
SOLID
  5
7AD
330
4D7
100
AcDbEntity
  8
AM_5
 62
     0
100
AcDbTrace
 10
3.000000000000001
 20
22.31739039447746
 30
0.0
 11
3.000000000000001
 21
21.31739039447746
 31
0.0
 12
0.0000000000000013
 22
21.81739039447746
 32
0.0
 13
0.0000000000000013
 23
21.81739039447746
 33
0.0
  0
SOLID
  5
7AE
330
4D7
100
AcDbEntity
  8
AM_5
 62
     0
100
AcDbTrace
 10
17.25754576871452
 20
22.31739039447746
 30
0.0
 11
17.25754576871452
 21
21.31739039447746
 31
0.0
 12
20.25754576871452
 22
21.81739039447746
 32
0.0
 13
20.25754576871452
 23
21.81739039447746
 33
0.0
  0
MTEXT
  5
7AF
330
4D7
100
AcDbEntity
  8
AM_5
 62
     0
100
AcDbMText
 10
10.12877288435726
 20
24.40739039447746
 30
0.0
 40
5.0
 41
0.0
 71
     5
 72
     1
  1
\A1;20
 73
     1
 44
1.0
  0
POINT
  5
7B0
330
4D7
100
AcDbEntity
  8
DEFPOINTS
 62
     0
100
AcDbPoint
 10
0.0
 20
0.0
 30
0.0
  0
POINT
  5
7B1
330
4D7
100
AcDbEntity
  8
DEFPOINTS
 62
     0
100
AcDbPoint
 10
20.25754576871452
 20
0.0
 30
0.0
  0
POINT
  5
7B2
330
4D7
100
AcDbEntity
  8
DEFPOINTS
 62
     0
100
AcDbPoint
 10
20.25754576871452
 20
21.81739039447746
 30
0.0
  0
ENDBLK
  5
4E3
330
4D7
100
AcDbEntity
  8
0
100
AcDbBlockEnd
  0
BLOCK
  5
56A
330
560
100
AcDbEntity
  8
0
100
AcDbBlockBegin
  2
*D5
 70
     1
 71
     0
 10
0.0
 20
0.0
 30
0.0
  3
*D5
  1

  0
LINE
  5
7B3
330
560
100
AcDbEntity
  8
AM_5
 62
     0
370
    -2
100
AcDbLine
 10
82.00000286847353
 20
-8.999999456107673
 30
0.0
 11
82.00000286847353
 21
25.44463415923167
 31
0.0
  0
LINE
  5
7B4
330
560
100
AcDbEntity
  8
AM_5
 62
     0
370
    -2
100
AcDbLine
 10
58.00000286847353
 20
-8.999999456107645
 30
0.0
 11
58.00000286847353
 21
25.44463415923167
 31
0.0
  0
LINE
  5
7B5
330
560
100
AcDbEntity
  8
AM_5
 62
     0
370
    -2
100
AcDbLine
 10
79.00000286847353
 20
23.44463415923167
 30
0.0
 11
61.00000286847353
 21
23.44463415923167
 31
0.0
  0
SOLID
  5
7B6
330
560
100
AcDbEntity
  8
AM_5
 62
     0
100
AcDbTrace
 10
79.00000286847353
 20
23.94463415923167
 30
0.0
 11
79.00000286847353
 21
22.94463415923167
 31
0.0
 12
82.00000286847353
 22
23.44463415923167
 32
0.0
 13
82.00000286847353
 23
23.44463415923167
 33
0.0
  0
SOLID
  5
7B7
330
560
100
AcDbEntity
  8
AM_5
 62
     0
100
AcDbTrace
 10
61.00000286847353
 20
23.94463415923167
 30
0.0
 11
61.00000286847353
 21
22.94463415923167
 31
0.0
 12
58.00000286847353
 22
23.44463415923167
 32
0.0
 13
58.00000286847353
 23
23.44463415923167
 33
0.0
  0
MTEXT
  5
7B8
330
560
100
AcDbEntity
  8
AM_5
 62
     0
100
AcDbMText
 10
70.00000286847353
 20
26.03463415923167
 30
0.0
 40
5.0
 41
0.0
 71
     5
 72
     1
  1
\A1;24
 73
     1
 44
1.0
  0
POINT
  5
7B9
330
560
100
AcDbEntity
  8
DEFPOINTS
 62
     0
100
AcDbPoint
 10
82.00000286847353
 20
-9.999999456107673
 30
0.0
  0
POINT
  5
7BA
330
560
100
AcDbEntity
  8
DEFPOINTS
 62
     0
100
AcDbPoint
 10
58.00000286847353
 20
-9.999999456107645
 30
0.0
  0
POINT
  5
7BB
330
560
100
AcDbEntity
  8
DEFPOINTS
 62
     0
100
AcDbPoint
 10
58.00000286847353
 20
23.44463415923167
 30
0.0
  0
ENDBLK
  5
56B
330
560
100
AcDbEntity
  8
0
100
AcDbBlockEnd
  0
BLOCK
  5
58E
330
584
100
AcDbEntity
  8
0
100
AcDbBlockBegin
  2
*D6
 70
     1
 71
     0
 10
0.0
 20
0.0
 30
0.0
  3
*D6
  1

  0
LINE
  5
7BC
330
584
100
AcDbEntity
  8
AM_5
 62
     0
370
    -2
100
AcDbLine
 10
71.00000286847353
 20
2.000000543892326
 30
0.0
 11
94.27070281428428
 21
2.00000054389232
 31
0.0
  0
LINE
  5
7BD
330
584
100
AcDbEntity
  8
AM_5
 62
     0
370
    -2
100
AcDbLine
 10
71.00000286847353
 20
-21.99999945610767
 30
0.0
 11
94.27070281428428
 21
-21.99999945610768
 31
0.0
  0
LINE
  5
7BE
330
584
100
AcDbEntity
  8
AM_5
 62
     0
370
    -2
100
AcDbLine
 10
92.27070281428428
 20
-0.9999994561076796
 30
0.0
 11
92.27070281428428
 21
-18.99999945610768
 31
0.0
  0
LINE
  5
7BF
330
584
100
AcDbEntity
  8
AM_5
 62
     0
370
    -2
100
AcDbLine
 10
92.27070281428428
 20
-21.99999945610768
 30
0.0
 11
92.27070281428426
 21
-37.45140574788879
 31
0.0
  0
SOLID
  5
7C0
330
584
100
AcDbEntity
  8
AM_5
 62
     0
100
AcDbTrace
 10
91.77070281428428
 20
-0.9999994561076795
 30
0.0
 11
92.77070281428428
 21
-0.9999994561076797
 31
0.0
 12
92.27070281428428
 22
2.000000543892321
 32
0.0
 13
92.27070281428428
 23
2.000000543892321
 33
0.0
  0
SOLID
  5
7C1
330
584
100
AcDbEntity
  8
AM_5
 62
     0
100
AcDbTrace
 10
91.77070281428428
 20
-18.99999945610768
 30
0.0
 11
92.77070281428428
 21
-18.99999945610768
 31
0.0
 12
92.27070281428428
 22
-21.99999945610768
 32
0.0
 13
92.27070281428428
 23
-21.99999945610768
 33
0.0
  0
MTEXT
  5
7C2
330
584
100
AcDbEntity
  8
AM_5
 62
     0
100
AcDbMText
 10
89.68070281428427
 20
-33.19473908122211
 30
0.0
 40
5.0
 41
0.0
 71
     5
 72
     1
  1
\A1;24
 11
6.123031769111886E-17
 21
1.0
 31
0.0
 73
     1
 44
1.0
  0
POINT
  5
7C3
330
584
100
AcDbEntity
  8
DEFPOINTS
 62
     0
100
AcDbPoint
 10
70.00000286847353
 20
2.000000543892327
 30
0.0
  0
POINT
  5
7C4
330
584
100
AcDbEntity
  8
DEFPOINTS
 62
     0
100
AcDbPoint
 10
70.00000286847353
 20
-21.99999945610767
 30
0.0
  0
POINT
  5
7C5
330
584
100
AcDbEntity
  8
DEFPOINTS
 62
     0
100
AcDbPoint
 10
92.27070281428428
 20
-21.99999945610768
 30
0.0
  0
ENDBLK
  5
58F
330
584
100
AcDbEntity
  8
0
100
AcDbBlockEnd
  0
BLOCK
  5
5C1
330
5B2
100
AcDbEntity
  8
0
100
AcDbBlockBegin
  2
*D7
 70
     1
 71
     0
 10
0.0
 20
0.0
 30
0.0
  3
*D7
  1

  0
LINE
  5
7C6
330
5B2
100
AcDbEntity
  8
AM_5
 62
     0
370
    -2
100
AcDbLine
 10
-0.0000000000000002
 20
-1.198437497019768
 30
0.0
 11
-0.0000000000000084
 21
-42.46722281405103
 31
0.0
  0
LINE
  5
7C7
330
5B2
100
AcDbEntity
  8
AM_5
 62
     0
370
    -2
100
AcDbLine
 10
1.300593416980455
 20
-12.47873804183084
 30
0.0
 11
4.428118776332857
 21
-42.23515494877319
 31
0.0
  0
ARC
  5
7C8
330
5B2
100
AcDbEntity
  8
AM_5
 62
     0
370
    -2
100
AcDbCircle
 10
0.0
 20
-0.1044179339648296
 30
0.0
 40
40.3628048800862
100
AcDbArc
 50
261.4750228953044
 51
270.0
  0
LINE
  5
7C9
330
5B2
100
AcDbEntity
  8
AM_5
 62
     0
370
    -2
100
AcDbLine
 10
-5.98340404951572
 20
-40.02126768151067
 30
0.0
 11
-14.402676409973
 21
-38.7592465387066
 31
0.0
  0
ARC
  5
7CA
330
5B2
100
AcDbEntity
  8
AM_5
 62
     0
370
    -2
100
AcDbCircle
 10
0.0
 20
-0.1044179339648296
 30
0.0
 40
40.3628048800862
100
AcDbArc
 50
261.4809226574502
 51
265.7404613287251
  0
ARC
  5
7CB
330
5B2
100
AcDbEntity
  8
AM_5
 62
     0
370
    -2
100
AcDbCircle
 10
0.0
 20
-0.1044179339648296
 30
0.0
 40
40.3628048800862
100
AcDbArc
 50
280.2595385114942
 51
284.5190771827691
  0
ARC
  5
7CC
330
5B2
100
AcDbEntity
  8
AM_5
 62
     0
370
    -2
100
AcDbCircle
 10
0.0
 20
-0.1044179339648296
 30
0.0
 40
40.3628048800862
100
AcDbArc
 50
270.0
 51
275.9999998402192
  0
SOLID
  5
7CD
330
5B2
100
AcDbEntity
  8
AM_5
 62
     0
100
AcDbTrace
 10
-2.979346195584101
 20
-39.85607942100928
 30
0.0
 11
-3.0165091232958
 21
-40.8553886408226
 31
0.0
 12
-0.0000000000000071
 22
-40.46722281405103
 32
0.0
 13
-0.0000000000000071
 23
-40.46722281405103
 33
0.0
  0
SOLID
  5
7CE
330
5B2
100
AcDbEntity
  8
AM_5
 62
     0
100
AcDbTrace
 10
7.259620603208427
 20
-40.31683951659995
 30
0.0
 11
7.118205003587548
 21
-39.32688920058207
 31
0.0
 12
4.219061855344398
 22
-40.24611115745366
 32
0.0
 13
4.219061855344398
 23
-40.24611115745366
 33
0.0
  0
MTEXT
  5
7CF
330
5B2
100
AcDbEntity
  8
AM_5
 62
     0
100
AcDbMText
 10
-9.80909722741125
 20
-36.82887315393193
 30
0.0
 40
5.0
 41
0.0
 71
     5
 72
     1
  1
\A1;6°
 11
0.9889513344311609
 21
-0.1482405414413553
 31
0.0
 73
     1
 44
1.0
  0
POINT
  5
7D0
330
5B2
100
AcDbEntity
  8
DEFPOINTS
 62
     0
100
AcDbPoint
 10
2.815566863999941
 20
-40.36890105522514
 30
0.0
  0
POINT
  5
7D1
330
5B2
100
AcDbEntity
  8
DEFPOINTS
 62
     0
100
AcDbPoint
 10
0.0004996843636036
 20
-0.1091721132397652
 30
0.0
  0
POINT
  5
7D2
330
5B2
100
AcDbEntity
  8
DEFPOINTS
 62
     0
100
AcDbPoint
 10
0.0
 20
0.0
 30
0.0
  0
POINT
  5
7D3
330
5B2
100
AcDbEntity
  8
DEFPOINTS
 62
     0
100
AcDbPoint
 10
0.0
 20
-0.1984374970197678
 30
0.0
  0
POINT
  5
7D4
330
5B2
100
AcDbEntity
  8
DEFPOINTS
 62
     0
100
AcDbPoint
 10
1.196064956486225
 20
-11.48421614617107
 30
0.0
  0
ENDBLK
  5
5C2
330
5B2
100
AcDbEntity
  8
0
100
AcDbBlockEnd
  0
BLOCK
  5
602
330
5FC
100
AcDbEntity
  8
0
100
AcDbBlockBegin
  2
*D8
 70
     1
 71
     0
 10
0.0
 20
0.0
 30
0.0
  3
*D8
  1

  0
LINE
  5
7D5
330
5FC
100
AcDbEntity
  8
AM_5
 62
     0
370
    -2
100
AcDbLine
 10
54.34428935985519
 20
-38.18642937455526
 30
0.0
 11
62.47379169022273
 21
-23.55013396836888
 31
0.0
  0
LINE
  5
7D6
330
5FC
100
AcDbEntity
  8
AM_5
 62
     0
370
    -2
100
AcDbLine
 10
77.52621404672439
 20
3.550135056153508
 30
0.0
 11
78.98290008122456
 21
6.172741735945998
 31
0.0
  0
MTEXT
  5
7D7
330
5FC
100
AcDbEntity
  8
AM_5
 62
     0
100
AcDbMText
 10
55.3608862506697
 20
-31.02213072039303
 30
0.0
 40
5.0
 41
0.0
 71
     5
 72
     1
  1
\A1;\U+220525
 11
0.4855620115000535
 21
0.8742022265974973
 31
0.0
 73
     1
 44
1.0
  0
LINE
  5
7D8
330
5FC
100
AcDbEntity
  8
AM_5
 62
     0
370
    -2
100
AcDbLine
 10
76.06952801222424
 20
0.9275283763610105
 30
0.0
 11
63.93047772472289
 21
-20.92752728857639
 31
0.0
  0
SOLID
  5
7D9
330
5FC
100
AcDbEntity
  8
AM_5
 62
     0
100
AcDbTrace
 10
77.08911293342564
 20
3.792916061903537
 30
0.0
 11
77.96331516002314
 21
3.307354050403482
 31
0.0
 12
76.06952801222424
 22
0.9275283763610105
 32
0.0
 13
76.06952801222424
 23
0.9275283763610105
 33
0.0
  0
SOLID
  5
7DA
330
5FC
100
AcDbEntity
  8
AM_5
 62
     0
100
AcDbTrace
 10
62.03669057692399
 20
-23.30735296261885
 30
0.0
 11
62.91089280352148
 21
-23.79291497411891
 31
0.0
 12
63.93047772472289
 22
-20.92752728857639
 32
0.0
 13
63.93047772472289
 23
-20.92752728857639
 33
0.0
  0
POINT
  5
7DB
330
5FC
100
AcDbEntity
  8
DEFPOINTS
 62
     0
100
AcDbPoint
 10
63.93047772472289
 20
-20.92752728857639
 30
0.0
  0
POINT
  5
7DC
330
5FC
100
AcDbEntity
  8
DEFPOINTS
 62
     0
100
AcDbPoint
 10
76.06952801222424
 20
0.9275283763610105
 30
0.0
  0
ENDBLK
  5
603
330
5FC
100
AcDbEntity
  8
0
100
AcDbBlockEnd
  0
BLOCK
  5
631
330
627
100
AcDbEntity
  8
0
100
AcDbBlockBegin
  2
*D9
 70
     1
 71
     0
 10
0.0
 20
0.0
 30
0.0
  3
*D9
  1

  0
LINE
  5
7DD
330
627
100
AcDbEntity
  8
AM_5
 62
     0
370
    -2
100
AcDbLine
 10
120.0000028684736
 20
54.89423791381658
 30
0.0
 11
120.0000028684736
 21
38.97462118042279
 31
0.0
  0
LINE
  5
7DE
330
627
100
AcDbEntity
  8
AM_5
 62
     0
370
    -2
100
AcDbLine
 10
0.0000000036931169
 20
64.08592469245193
 30
0.0
 11
0.0000000036931153
 21
38.97462118042279
 31
0.0
  0
LINE
  5
7DF
330
627
100
AcDbEntity
  8
AM_5
 62
     0
370
    -2
100
AcDbLine
 10
117.0000028684736
 20
40.97462118042279
 30
0.0
 11
3.000000003693116
 21
40.97462118042279
 31
0.0
  0
SOLID
  5
7E0
330
627
100
AcDbEntity
  8
AM_5
 62
     0
100
AcDbTrace
 10
117.0000028684736
 20
41.47462118042279
 30
0.0
 11
117.0000028684736
 21
40.47462118042279
 31
0.0
 12
120.0000028684736
 22
40.97462118042279
 32
0.0
 13
120.0000028684736
 23
40.97462118042279
 33
0.0
  0
SOLID
  5
7E1
330
627
100
AcDbEntity
  8
AM_5
 62
     0
100
AcDbTrace
 10
3.000000003693116
 20
41.47462118042279
 30
0.0
 11
3.000000003693116
 21
40.47462118042279
 31
0.0
 12
0.0000000036931154
 22
40.97462118042279
 32
0.0
 13
0.0000000036931154
 23
40.97462118042279
 33
0.0
  0
MTEXT
  5
7E2
330
627
100
AcDbEntity
  8
AM_5
 62
     0
100
AcDbMText
 10
60.00000143608335
 20
43.56462118042279
 30
0.0
 40
5.0
 41
0.0
 71
     5
 72
     1
  1
\A1;120
 73
     1
 44
1.0
  0
POINT
  5
7E3
330
627
100
AcDbEntity
  8
DEFPOINTS
 62
     0
100
AcDbPoint
 10
120.0000028684736
 20
55.89423791381658
 30
0.0
  0
POINT
  5
7E4
330
627
100
AcDbEntity
  8
DEFPOINTS
 62
     0
100
AcDbPoint
 10
0.0000000036931169
 20
65.08592469245193
 30
0.0
  0
POINT
  5
7E5
330
627
100
AcDbEntity
  8
DEFPOINTS
 62
     0
100
AcDbPoint
 10
0.0000000036931154
 20
40.97462118042279
 30
0.0
  0
ENDBLK
  5
632
330
627
100
AcDbEntity
  8
0
100
AcDbBlockEnd
  0
BLOCK
  5
65A
330
64F
100
AcDbEntity
  8
0
100
AcDbBlockBegin
  2
*D10
 70
     1
 71
     0
 10
0.0
 20
0.0
 30
0.0
  3
*D10
  1

  0
LINE
  5
7E6
330
64F
100
AcDbEntity
  8
AM_5
 62
     0
370
    -2
100
AcDbLine
 10
-0.9999999963068831
 20
65.08592469245193
 30
0.0
 11
-10.9708229271248
 21
65.08592469245193
 31
0.0
  0
LINE
  5
7E7
330
64F
100
AcDbEntity
  8
AM_5
 62
     0
370
    -2
100
AcDbLine
 10
0.3318099039543654
 20
65.08592469245193
 30
0.0
 11
-10.9708229271248
 21
65.08592469245193
 31
0.0
  0
LINE
  5
7E8
330
64F
100
AcDbEntity
  8
AM_5
 62
     0
370
    -2
100
AcDbLine
 10
-8.9708229271248
 20
62.08592469245193
 30
0.0
 11
-8.970822927124802
 21
59.08592469245193
 31
0.0
  0
LINE
  5
7E9
330
64F
100
AcDbEntity
  8
AM_5
 62
     0
370
    -2
100
AcDbLine
 10
-8.970822927124798
 20
68.08592469245193
 30
0.0
 11
-8.970822927124798
 21
73.76592469245193
 31
0.0
  0
SOLID
  5
7EA
330
64F
100
AcDbEntity
  8
AM_5
 62
     0
100
AcDbTrace
 10
-9.4708229271248
 20
62.08592469245193
 30
0.0
 11
-8.4708229271248
 21
62.08592469245193
 31
0.0
 12
-8.9708229271248
 22
65.08592469245193
 32
0.0
 13
-8.9708229271248
 23
65.08592469245193
 33
0.0
  0
SOLID
  5
7EB
330
64F
100
AcDbEntity
  8
AM_5
 62
     0
100
AcDbTrace
 10
-9.470822927124798
 20
68.08592469245193
 30
0.0
 11
-8.470822927124798
 21
68.08592469245193
 31
0.0
 12
-8.9708229271248
 22
65.08592469245193
 32
0.0
 13
-8.9708229271248
 23
65.08592469245193
 33
0.0
  0
MTEXT
  5
7EC
330
64F
100
AcDbEntity
  8
AM_5
 62
     0
100
AcDbMText
 10
-11.56082292712481
 20
72.42592469245193
 30
0.0
 40
5.0
 41
0.0
 71
     5
 72
     1
  1
\A1;0
 11
6.123031769111886E-17
 21
1.0
 31
0.0
 73
     1
 44
1.0
  0
POINT
  5
7ED
330
64F
100
AcDbEntity
  8
DEFPOINTS
 62
     0
100
AcDbPoint
 10
0.0000000036931169
 20
65.08592469245193
 30
0.0
  0
POINT
  5
7EE
330
64F
100
AcDbEntity
  8
DEFPOINTS
 62
     0
100
AcDbPoint
 10
1.331809903954365
 20
65.08592469245193
 30
0.0
  0
POINT
  5
7EF
330
64F
100
AcDbEntity
  8
DEFPOINTS
 62
     0
100
AcDbPoint
 10
-8.9708229271248
 20
65.08592469245193
 30
0.0
  0
ENDBLK
  5
65B
330
64F
100
AcDbEntity
  8
0
100
AcDbBlockEnd
  0
BLOCK
  5
681
330
680
100
AcDbEntity
  8
0
100
AcDbBlockBegin
  2
_Open30
 70
     0
 71
     0
 10
0.0
 20
0.0
 30
0.0
  3
_Open30
  1

  0
LINE
  5
682
330
680
100
AcDbEntity
  8
0
 62
     0
370
    -2
100
AcDbLine
 10
-1.0
 20
0.26794919
 30
0.0
 11
0.0
 21
0.0
 31
0.0
  0
LINE
  5
683
330
680
100
AcDbEntity
  8
0
 62
     0
370
    -2
100
AcDbLine
 10
0.0
 20
0.0
 30
0.0
 11
-1.0
 21
-0.26794919
 31
0.0
  0
LINE
  5
684
330
680
100
AcDbEntity
  8
0
 62
     0
370
    -2
100
AcDbLine
 10
0.0
 20
0.0
 30
0.0
 11
-1.0
 21
0.0
 31
0.0
  0
ENDBLK
  5
685
330
680
100
AcDbEntity
  8
0
100
AcDbBlockEnd
  0
ENDSEC
  0
SECTION
  2
ENTITIES
  0
ARC
  5
194
330
22
100
AcDbEntity
  8
1
  6
Continuous
100
AcDbCircle
 10
0.0992187485098839
 20
-0.0992187485098555
 30
0.0
 40
0.0992187485098839
100
AcDbArc
 50
60.99995448507819
 51
186.0000270846672
  0
LINE
  5
195
330
22
100
AcDbEntity
  8
1
  6
Continuous
100
AcDbLine
 10
10.15059090405703
 20
-5.557343415915966
 30
0.0
 11
0.1469535008072853
 21
-0.0122364386916729
 31
0.0
  0
LINE
  5
197
330
22
100
AcDbEntity
  8
1
  6
Continuous
100
AcDbLine
 10
0.0004996843636036
 20
-0.1091721132397652
 30
0.0
 11
1.196064956486225
 21
-11.48421614617107
 31
0.0
  0
LINE
  5
198
330
22
100
AcDbEntity
  8
1
  6
Continuous
100
AcDbLine
 10
1.196064956486225
 20
-11.48421614617107
 30
0.0
 11
11.19970322400332
 21
-17.02932303398848
 31
0.0
  0
ARC
  5
199
330
22
100
AcDbEntity
  8
1
  6
Continuous
100
AcDbCircle
 10
11.24769879132509
 20
-16.94273512810466
 30
0.0
 40
0.0989999994635582
100
AcDbArc
 50
241.0004518454515
 51
5.999414670227008
  0
LINE
  5
19A
330
22
100
AcDbEntity
  8
1
  6
Continuous
100
AcDbLine
 10
11.34615708142519
 20
-16.93238776177165
 30
0.0
 11
10.15059090405703
 21
-5.557343415915966
 31
0.0
  0
CIRCLE
  5
19B
330
22
100
AcDbEntity
  8
1
  6
Continuous
100
AcDbCircle
 10
5.673329837620258
 20
-8.520779065787764
 30
0.0
 40
3.0
  0
CIRCLE
  5
19C
330
22
100
AcDbEntity
  8
1
  6
Continuous
100
AcDbCircle
 10
5.6733293607831
 20
-8.520780973136453
 30
0.0
 40
2.900000095367432
  0
LINE
  5
19D
330
22
100
AcDbEntity
  8
1
  6
CENTER
100
AcDbLine
 10
3.520775087177753
 20
-5.268628053367166
 30
0.0
 11
7.825883872807026
 21
-11.77293341606858
 31
0.0
  0
LINE
  5
19E
330
22
100
AcDbEntity
  8
1
  6
CENTER
100
AcDbLine
 10
2.421175010502338
 20
-10.67333643883467
 30
0.0
 11
8.925483711063862
 21
-6.368225507438183
 31
0.0
  0
LINE
  5
19F
330
22
100
AcDbEntity
  8
1
  6
Continuous
100
AcDbLine
 10
7.339904792606831
 20
-7.777457647025557
 30
0.0
 11
7.008742816746235
 21
-7.277128152549267
 31
0.0
  0
LINE
  5
1A0
330
22
100
AcDbEntity
  8
1
  6
Continuous
100
AcDbLine
 10
4.00675392895937
 20
-9.264104299247265
 30
0.0
 11
4.337915904820079
 21
-9.764433316886453
 31
0.0
  0
LINE
  5
1A1
330
22
100
AcDbEntity
  8
1
  6
Continuous
100
AcDbLine
 10
4.337915904820079
 20
-9.764433316886453
 30
0.0
 11
5.405611045658588
 21
-9.057744435966072
 31
0.0
  0
LINE
  5
1A2
330
22
100
AcDbEntity
  8
1
  6
Continuous
100
AcDbLine
 10
6.272210605442524
 20
-8.484154157340555
 30
0.0
 11
7.339904792606831
 21
-7.777457647025557
 31
0.0
  0
LINE
  5
1A3
330
22
100
AcDbEntity
  8
1
  6
Continuous
100
AcDbLine
 10
7.008742816746235
 20
-7.277128152549267
 30
0.0
 11
5.941047675907612
 21
-7.983816556632547
 31
0.0
  0
LINE
  5
1A4
330
22
100
AcDbEntity
  8
1
  6
Continuous
100
AcDbLine
 10
5.074448116123676
 20
-8.557407788932352
 30
0.0
 11
4.00675392895937
 21
-9.264104299247265
 31
0.0
  0
LINE
  5
1A5
330
22
100
AcDbEntity
  8
1
  6
Continuous
100
AcDbLine
 10
3.928588159382343
 20
-7.986101560294657
 30
0.0
 11
5.074448116123676
 21
-8.557407788932352
 31
0.0
  0
LINE
  5
1A6
330
22
100
AcDbEntity
  8
1
  6
Continuous
100
AcDbLine
 10
6.004491813480854
 20
-9.021109990775557
 30
0.0
 11
7.150351531803608
 21
-9.592416219413252
 31
0.0
  0
LINE
  5
1A7
330
22
100
AcDbEntity
  8
1
  6
Continuous
100
AcDbLine
 10
4.196307189762592
 20
-7.449144773185282
 30
0.0
 11
3.928588159382343
 21
-7.986101560294657
 31
0.0
  0
LINE
  5
1A8
330
22
100
AcDbEntity
  8
1
  6
Continuous
100
AcDbLine
 10
7.150351531803608
 20
-9.592416219413252
 30
0.0
 11
7.418070323765278
 21
-9.05546038597825
 31
0.0
  0
LINE
  5
1A9
330
22
100
AcDbEntity
  8
1
  6
Continuous
100
AcDbLine
 10
7.418070323765278
 20
-9.05546038597825
 30
0.0
 11
6.272210605442524
 21
-8.484154157340555
 31
0.0
  0
LINE
  5
1AA
330
22
100
AcDbEntity
  8
1
  6
Continuous
100
AcDbLine
 10
5.342166908085346
 20
-8.020451001822977
 30
0.0
 11
4.196307189762592
 21
-7.449144773185282
 31
0.0
  0
LINE
  5
1AB
330
22
100
AcDbEntity
  8
1
  6
Continuous
100
AcDbLine
 10
6.082657344639301
 20
-10.29910510033366
 30
0.0
 11
6.004491813480854
 21
-9.021109990775557
 31
0.0
  0
LINE
  5
1AC
330
22
100
AcDbEntity
  8
1
  6
Continuous
100
AcDbLine
 10
5.941047675907612
 20
-7.983816556632547
 30
0.0
 11
5.862882621586323
 21
-6.705821923911572
 31
0.0
  0
LINE
  5
1AD
330
22
100
AcDbEntity
  8
1
  6
Continuous
100
AcDbLine
 10
5.483776576817036
 20
-10.33573954552415
 30
0.0
 11
6.082657344639301
 21
-10.29910510033366
 31
0.0
  0
LINE
  5
1AE
330
22
100
AcDbEntity
  8
1
  6
Continuous
100
AcDbLine
 10
5.862882621586323
 20
-6.705821923911572
 30
0.0
 11
5.264001376926899
 21
-6.742456369102058
 31
0.0
  0
LINE
  5
1AF
330
22
100
AcDbEntity
  8
1
  6
Continuous
100
AcDbLine
 10
5.264001376926899
 20
-6.742456369102058
 30
0.0
 11
5.342166908085346
 21
-8.020451001822977
 31
0.0
  0
LINE
  5
1B0
330
22
100
AcDbEntity
  8
1
  6
Continuous
100
AcDbLine
 10
5.405611045658588
 20
-9.057744435966072
 30
0.0
 11
5.483776576817036
 21
-10.33573954552415
 31
0.0
  0
LINE
  5
1B1
330
22
100
AcDbEntity
  8
1
  6
Continuous
100
AcDbLine
 10
7.577742584049702
 20
-15.02163737267256
 30
0.0
 11
8.826328285038585
 21
-16.90804427117107
 31
0.0
  0
ARC
  5
1B2
330
22
100
AcDbEntity
  8
1
  6
Continuous
100
AcDbCircle
 10
10.49409962445498
 20
-15.80417197197679
 30
0.0
 40
2.0
100
AcDbArc
 50
213.4999648892243
 51
33.50001815707292
  0
LINE
  5
1B3
330
22
100
AcDbEntity
  8
1
  6
Continuous
100
AcDbLine
 10
10.91328526288271
 20
-12.81388991326097
 30
0.0
 11
12.1618719175458
 21
-14.70029681175947
 31
0.0
  0
LINE
  5
1B4
330
22
100
AcDbEntity
  8
1
  6
Continuous
100
AcDbLine
 10
15.00000000369312
 20
-18.19000110329299
 30
0.0
 11
15.00000000369312
 21
-5.999999456107673
 31
0.0
  0
LINE
  5
1C5
330
22
100
AcDbEntity
  8
1
  6
Continuous
100
AcDbLine
 10
1.716526930988266
 20
-11.77271291129597
 30
0.0
 11
2.52869745217231
 21
-19.49999945610765
 31
0.0
  0
LINE
  5
1C6
330
22
100
AcDbEntity
  8
1
  6
CENTER
100
AcDbLine
 10
22.49016094952822
 20
-9.999999456107673
 30
0.0
 11
121.9901609495282
 21
-9.999999456107673
 31
0.0
  0
LINE
  5
1C8
330
22
100
AcDbEntity
  8
1
  6
Continuous
100
AcDbLine
 10
3.68635369092226
 20
-21.99999945610765
 30
0.0
 11
119.5000028684735
 21
-21.99999945610767
 31
0.0
  0
LINE
  5
1C9
330
22
100
AcDbEntity
  8
1
  6
Continuous
100
AcDbLine
 10
21.19016171246767
 20
2.000000543892327
 30
0.0
 11
119.5000028684735
 21
2.000000543892327
 31
0.0
  0
LINE
  5
1CA
330
22
100
AcDbEntity
  8
1
  6
PHANTOM
100
AcDbLine
 10
23.0000009611249
 20
2.500000543892327
 30
0.0
 11
119.0000028684735
 21
2.500000543892327
 31
0.0
  0
LINE
  5
1CB
330
22
100
AcDbEntity
  8
1
  6
CENTER
100
AcDbLine
 10
70.00000286847353
 20
5.908582984137524
 30
0.0
 11
70.00000286847353
 21
-26.33704522028393
 31
0.0
  0
LINE
  5
1CC
330
22
100
AcDbEntity
  8
1
  6
PHANTOM
100
AcDbLine
 10
23.0000009611249
 20
-22.49999945610767
 30
0.0
 11
119.0000028684735
 21
-22.49999945610767
 31
0.0
  0
LINE
  5
1CD
330
22
100
AcDbEntity
  8
1
  6
Continuous
100
AcDbLine
 10
119.0000028684735
 20
2.000000543892327
 30
0.0
 11
119.0000028684735
 21
-6.499999456107673
 31
0.0
  0
LINE
  5
1CE
330
22
100
AcDbEntity
  8
1
  6
Continuous
100
AcDbLine
 10
119.0000028684735
 20
-13.49999945610767
 30
0.0
 11
119.0000028684735
 21
-21.99999945610767
 31
0.0
  0
LINE
  5
1CF
330
22
100
AcDbEntity
  8
1
  6
Continuous
100
AcDbLine
 10
120.0000028684735
 20
1.500000543892327
 30
0.0
 11
120.0000028684735
 21
-21.49999945610767
 31
0.0
  0
LINE
  5
1D0
330
22
100
AcDbEntity
  8
1
  6
Continuous
100
AcDbLine
 10
120.0000028684735
 20
-21.49999945610767
 30
0.0
 11
119.5000028684735
 21
-21.99999945610767
 31
0.0
  0
LINE
  5
1D1
330
22
100
AcDbEntity
  8
1
  6
Continuous
100
AcDbLine
 10
119.5000028684735
 20
2.000000543892327
 30
0.0
 11
120.0000028684735
 21
1.500000543892327
 31
0.0
  0
ARC
  5
1D2
330
22
100
AcDbEntity
  8
1
  6
Continuous
100
AcDbCircle
 10
70.00000286847353
 20
-9.999999456107645
 30
0.0
 40
12.5
100
AcDbArc
 50
16.26020470831195
 51
73.73979529168805
  0
ARC
  5
1D3
330
22
100
AcDbEntity
  8
1
  6
Continuous
100
AcDbCircle
 10
70.00000286847353
 20
-9.999999456107645
 30
0.0
 40
12.5
100
AcDbArc
 50
106.260204708312
 51
163.7397952916879
  0
ARC
  5
1D4
330
22
100
AcDbEntity
  8
1
  6
Continuous
100
AcDbCircle
 10
70.00000286847353
 20
-9.999999456107645
 30
0.0
 40
12.5
100
AcDbArc
 50
196.2602047083119
 51
253.739795291688
  0
ARC
  5
1D5
330
22
100
AcDbEntity
  8
1
  6
Continuous
100
AcDbCircle
 10
70.00000286847353
 20
-9.999999456107645
 30
0.0
 40
12.5
100
AcDbArc
 50
286.260204708312
 51
343.739795291688
  0
LINE
  5
1D6
330
22
100
AcDbEntity
  8
1
  6
Continuous
100
AcDbLine
 10
23.0000009611249
 20
-6.499999456107673
 30
0.0
 11
119.0000028684735
 21
-6.499999456107673
 31
0.0
  0
LINE
  5
1D7
330
22
100
AcDbEntity
  8
1
  6
Continuous
100
AcDbLine
 10
23.0000009611249
 20
-13.49999945610767
 30
0.0
 11
119.0000028684735
 21
-13.49999945610767
 31
0.0
  0
ARC
  5
1D9
330
22
100
AcDbEntity
  8
1
  6
Continuous
100
AcDbCircle
 10
109.6325058708759
 20
-9.999999456107673
 30
0.0
 40
10.0
100
AcDbArc
 50
339.5126848852773
 51
20.48731511472264
  0
LINE
  5
1DC
330
22
100
AcDbEntity
  8
1
  6
Continuous
100
AcDbLine
 10
22.5000009611249
 20
1.999999709427328
 30
0.0
 11
22.5000009611249
 21
-21.99999945610767
 31
0.0
  0
LINE
  5
1DD
330
22
100
AcDbEntity
  8
1
  6
Continuous
100
AcDbLine
 10
23.0000009611249
 20
-22.00000029057267
 30
0.0
 11
23.0000009611249
 21
-13.50000029057267
 31
0.0
  0
LINE
  5
1DE
330
22
100
AcDbEntity
  8
1
  6
Continuous
100
AcDbLine
 10
23.0000009611249
 20
-6.500000290572672
 30
0.0
 11
23.0000009611249
 21
1.999999709427328
 31
0.0
  0
ARC
  5
1DF
330
22
100
AcDbEntity
  8
1
  6
Continuous
100
AcDbCircle
 10
35.0000009611249
 20
-9.999999456107645
 30
0.0
 40
12.5
100
AcDbArc
 50
163.7397952916879
 51
196.2602047083119
  0
ARC
  5
1E0
330
22
100
AcDbEntity
  8
1
  6
Continuous
100
AcDbCircle
 10
14.5075023899899
 20
-0.4999999031424522
 30
0.0
 40
5.000000000000002
100
AcDbArc
 50
270.0
 51
335.0000000000001
  0
LINE
  5
1E1
330
22
100
AcDbEntity
  8
1
  6
Continuous
100
AcDbLine
 10
19.03904132517323
 20
-2.613091211845983
 30
0.0
 11
21.19016094952821
 21
1.999999709427328
 31
0.0
  0
LINE
  5
1E2
330
22
100
AcDbEntity
  8
1
  6
Continuous
100
AcDbLine
 10
10.33477254047602
 20
-5.499999903142481
 30
0.0
 11
14.5075023899899
 21
-5.499999903142481
 31
0.0
  0
ARC
  5
1E3
330
22
100
AcDbEntity
  8
1
  6
Continuous
100
AcDbCircle
 10
10.33477254047602
 20
-0.4999999031424522
 30
0.0
 40
4.999999999999996
100
AcDbArc
 50
266.5101418788902
 51
270.0
  0
LINE
  5
1E4
330
22
100
AcDbEntity
  8
1
  6
Continuous
100
AcDbLine
 10
1.716526930988266
 20
-11.77271291129597
 30
0.0
 11
2.68635380084163
 21
-20.99999945610765
 31
0.0
  0
LINE
  5
1E5
330
22
100
AcDbEntity
  8
1
  6
Continuous
100
AcDbLine
 10
3.68635380084163
 20
-21.99999945610765
 30
0.0
 11
2.68635380084163
 21
-20.99999945610765
 31
0.0
  0
POLYLINE
  5
1E6
330
22
100
AcDbEntity
  8
1
  6
Continuous
100
AcDb2dPolyline
 66
     1
 10
0.0
 20
0.0
 30
0.0
  0
VERTEX
  5
1E7
330
1E6
100
AcDbEntity
  8
1
  6
Continuous
100
AcDbVertex
100
AcDb2dVertex
 10
17.83639520004732
 20
-18.19000110329299
 30
0.0
  0
VERTEX
  5
1E8
330
1E6
100
AcDbEntity
  8
1
  6
Continuous
100
AcDbVertex
100
AcDb2dVertex
 10
18.43888578863243
 20
-17.71401951296045
 30
0.0
  0
VERTEX
  5
1E9
330
1E6
100
AcDbEntity
  8
1
  6
Continuous
100
AcDbVertex
100
AcDb2dVertex
 10
18.99845469990908
 20
-17.03322803814424
 30
0.0
  0
VERTEX
  5
1EA
330
1E6
100
AcDbEntity
  8
1
  6
Continuous
100
AcDbVertex
100
AcDb2dVertex
 10
19.93092311101236
 20
-15.13472767907749
 30
0.0
  0
VERTEX
  5
1EB
330
1E6
100
AcDbEntity
  8
1
  6
Continuous
100
AcDbVertex
100
AcDb2dVertex
 10
20.52996244074802
 20
-12.70944391636326
 30
0.0
  0
VERTEX
  5
1EC
330
1E6
100
AcDbEntity
  8
1
  6
Continuous
100
AcDbVertex
100
AcDb2dVertex
 10
20.73558420459062
 20
-9.999999932944775
 30
0.0
  0
VERTEX
  5
1ED
330
1E6
100
AcDbEntity
  8
1
  6
Continuous
100
AcDbVertex
100
AcDb2dVertex
 10
20.70660567336836
 20
-8.966927032296042
 30
0.0
  0
VERTEX
  5
1EE
330
1E6
100
AcDbEntity
  8
1
  6
Continuous
100
AcDbVertex
100
AcDb2dVertex
 10
20.61997204330874
 20
-7.953712800657655
 30
0.0
  0
VERTEX
  5
1EF
330
1E6
100
AcDbEntity
  8
1
  6
Continuous
100
AcDbVertex
100
AcDb2dVertex
 10
20.47663449465779
 20
-6.971620001024945
 30
0.0
  0
VERTEX
  5
1F0
330
1E6
100
AcDbEntity
  8
1
  6
Continuous
100
AcDbVertex
100
AcDb2dVertex
 10
20.27844464478653
 20
-6.033422540611639
 30
0.0
  0
SEQEND
  5
1F1
330
1E6
100
AcDbEntity
  8
1
  0
LINE
  5
1F2
330
22
100
AcDbEntity
  8
2
  6
Continuous
100
AcDbLine
 10
10.115962035954
 20
65.38592470437283
 30
0.0
 11
14.36292935162783
 21
65.38592470437283
 31
0.0
  0
LINE
  5
1F3
330
22
100
AcDbEntity
  8
2
  6
Continuous
100
AcDbLine
 10
0.0000000037252903
 20
65.08592469245193
 30
0.0
 11
10.15059090405703
 21
65.08592469245193
 31
0.0
  0
LINE
  5
1F4
330
22
100
AcDbEntity
  8
2
  6
Continuous
100
AcDbLine
 10
0.8140226677060127
 20
69.05592472106213
 30
0.0
 11
0.8374323919415474
 21
69.05592472106213
 31
0.0
  0
LINE
  5
1F5
330
22
100
AcDbEntity
  8
2
  6
CENTER
100
AcDbLine
 10
3.480012901127338
 20
63.84491772204635
 30
0.0
 11
3.480012901127338
 21
75.53913456946611
 31
0.0
  0
LINE
  5
1F6
330
22
100
AcDbEntity
  8
2
  6
CENTER
100
AcDbLine
 10
129.7823566804424
 20
65.08592469245191
 30
0.0
 11
19.99016094952822
 21
65.08592469245193
 31
0.0
  0
LINE
  5
201
330
22
100
AcDbEntity
  8
2
  6
Continuous
100
AcDbLine
 10
20.73558420459062
 20
53.08592469245193
 30
0.0
 11
15.26923752995435
 21
64.80854296611349
 31
0.0
  0
ARC
  5
202
330
22
100
AcDbEntity
  8
2
  6
Continuous
100
AcDbCircle
 10
14.3629297429178
 20
64.38592470437283
 30
0.0
 40
1.0
100
AcDbArc
 50
25.00000000000015
 51
90.0
  0
LINE
  5
203
330
22
100
AcDbEntity
  8
2
  6
Continuous
100
AcDbLine
 10
22.5000009611249
 20
73.58592469245193
 30
0.0
 11
22.5000009611249
 21
56.58592469245193
 31
0.0
  0
LINE
  5
204
330
22
100
AcDbEntity
  8
2
  6
Continuous
100
AcDbLine
 10
0.0000000036931169
 20
65.08592469245193
 30
0.0
 11
0.5500448050196951
 21
69.05592469245192
 31
0.0
  0
LINE
  5
205
330
22
100
AcDbEntity
  8
2
  6
Continuous
100
AcDbLine
 10
0.5397439070702035
 20
69.05592469245192
 30
0.0
 11
9.692330940817215
 21
69.05592469245192
 31
0.0
  0
LINE
  5
206
330
22
100
AcDbEntity
  8
2
  6
Continuous
100
AcDbLine
 10
8.786135510063104
 20
75.22561572525734
 30
0.0
 11
8.786135510063104
 21
69.05592469245192
 31
0.0
  0
LINE
  5
207
330
22
100
AcDbEntity
  8
2
  6
Continuous
100
AcDbLine
 10
0.5632847222710211
 20
71.64718478869736
 30
0.0
 11
0.5632847222710211
 21
69.05592469245192
 31
0.0
  0
LINE
  5
208
330
22
100
AcDbEntity
  8
2
  6
Continuous
100
AcDbLine
 10
9.692330940817215
 20
69.05592469245192
 30
0.0
 11
10.15059090405703
 21
65.08592469245193
 31
0.0
  0
LINE
  5
20A
330
22
100
AcDbEntity
  8
2
  6
Continuous
100
AcDbLine
 10
22.50000179558992
 20
73.58592552691692
 30
0.0
 11
22.50000179558992
 21
56.58592385798693
 31
0.0
  0
LINE
  5
20B
330
22
100
AcDbEntity
  8
2
  6
Continuous
100
AcDbLine
 10
120.0000028684735
 20
53.58592469245191
 30
0.0
 11
119.5000028684735
 21
53.08592469245191
 31
0.0
  0
LINE
  5
20C
330
22
100
AcDbEntity
  8
2
  6
Continuous
100
AcDbLine
 10
120.0000028684735
 20
76.58592469245193
 30
0.0
 11
120.0000028684735
 21
53.58592469245191
 31
0.0
  0
LINE
  5
20D
330
22
100
AcDbEntity
  8
2
  6
Continuous
100
AcDbLine
 10
119.5000028684735
 20
77.08592469245193
 30
0.0
 11
120.0000028684735
 21
76.58592469245193
 31
0.0
  0
LINE
  5
20E
330
22
100
AcDbEntity
  8
2
  6
Continuous
100
AcDbLine
 10
20.73558331280958
 20
53.08592469245193
 30
0.0
 11
119.5000028684735
 21
53.08592469245191
 31
0.0
  0
LINE
  5
20F
330
22
100
AcDbEntity
  8
2
  6
PHANTOM
100
AcDbLine
 10
26.5000009611249
 20
52.58592469245193
 30
0.0
 11
119.0000028684735
 21
52.58592469245191
 31
0.0
  0
LINE
  5
210
330
22
100
AcDbEntity
  8
2
  6
Continuous
100
AcDbLine
 10
23.0000009611249
 20
61.58592469245193
 30
0.0
 11
119.0000028684735
 21
61.58592469245191
 31
0.0
  0
LINE
  5
211
330
22
100
AcDbEntity
  8
2
  6
Continuous
100
AcDbLine
 10
23.0000009611249
 20
68.58592469245193
 30
0.0
 11
119.0000028684735
 21
68.58592469245193
 31
0.0
  0
LINE
  5
212
330
22
100
AcDbEntity
  8
2
  6
PHANTOM
100
AcDbLine
 10
26.5000009611249
 20
77.58592469245193
 30
0.0
 11
119.0000028684735
 21
77.58592469245193
 31
0.0
  0
LINE
  5
213
330
22
100
AcDbEntity
  8
2
  6
Continuous
100
AcDbLine
 10
1.53020728379488
 20
77.08592469245193
 30
0.0
 11
119.5000028684735
 21
77.08592469245193
 31
0.0
  0
LINE
  5
214
330
22
100
AcDbEntity
  8
2
  6
Continuous
100
AcDbLine
 10
119.0000028684735
 20
77.08592469245193
 30
0.0
 11
119.0000028684735
 21
68.58592469245193
 31
0.0
  0
LINE
  5
215
330
22
100
AcDbEntity
  8
2
  6
Continuous
100
AcDbLine
 10
119.0000028684735
 20
61.58592469245191
 30
0.0
 11
119.0000028684735
 21
53.08592469245191
 31
0.0
  0
ARC
  5
216
330
22
100
AcDbEntity
  8
2
  6
Continuous
100
AcDbCircle
 10
109.6325058708759
 20
65.08592469245193
 30
0.0
 40
10.0
100
AcDbArc
 50
339.5126848852773
 51
20.48731511472264
  0
POLYLINE
  5
217
330
22
100
AcDbEntity
  8
2
  6
Continuous
100
AcDb2dPolyline
 66
     1
 10
0.0
 20
0.0
 30
0.0
  0
VERTEX
  5
218
330
217
100
AcDbEntity
  8
2
  6
Continuous
100
AcDbVertex
100
AcDb2dVertex
 10
0.5632847222710211
 20
71.64718478869736
 30
0.0
  0
VERTEX
  5
219
330
217
100
AcDbEntity
  8
2
  6
Continuous
100
AcDbVertex
100
AcDb2dVertex
 10
0.5638941613177622
 20
71.65771004381611
 30
0.0
  0
VERTEX
  5
21A
330
217
100
AcDbEntity
  8
2
  6
Continuous
100
AcDbVertex
100
AcDb2dVertex
 10
0.564504909966729
 20
71.66822941756183
 30
0.0
  0
VERTEX
  5
21B
330
217
100
AcDbEntity
  8
2
  6
Continuous
100
AcDbVertex
100
AcDb2dVertex
 10
0.5651169679081249
 20
71.67874289868223
 30
0.0
  0
VERTEX
  5
21C
330
217
100
AcDbEntity
  8
2
  6
Continuous
100
AcDbVertex
100
AcDb2dVertex
 10
0.5657303348325513
 20
71.68925047592563
 30
0.0
  0
VERTEX
  5
21D
330
217
100
AcDbEntity
  8
2
  6
Continuous
100
AcDbVertex
100
AcDb2dVertex
 10
0.5663450104302115
 20
71.69975213803974
 30
0.0
  0
VERTEX
  5
21E
330
217
100
AcDbEntity
  8
2
  6
Continuous
100
AcDbVertex
100
AcDb2dVertex
 10
0.566960994391593
 20
71.71024787377283
 30
0.0
  0
VERTEX
  5
21F
330
217
100
AcDbEntity
  8
2
  6
Continuous
100
AcDbVertex
100
AcDb2dVertex
 10
0.5675782864070698
 20
71.72073767187274
 30
0.0
  0
VERTEX
  5
220
330
217
100
AcDbEntity
  8
2
  6
Continuous
100
AcDbVertex
100
AcDb2dVertex
 10
0.5681968861667883
 20
71.73122152108752
 30
0.0
  0
VERTEX
  5
221
330
217
100
AcDbEntity
  8
2
  6
Continuous
100
AcDbVertex
100
AcDb2dVertex
 10
0.7430962958814007
 20
73.94610846622351
 30
0.0
  0
VERTEX
  5
222
330
217
100
AcDbEntity
  8
2
  6
Continuous
100
AcDbVertex
100
AcDb2dVertex
 10
0.9729349266468148
 20
75.64891514688074
 30
0.0
  0
VERTEX
  5
223
330
217
100
AcDbEntity
  8
2
  6
Continuous
100
AcDbVertex
100
AcDb2dVertex
 10
1.103556058313529
 20
76.26962550825732
 30
0.0
  0
VERTEX
  5
224
330
217
100
AcDbEntity
  8
2
  6
Continuous
100
AcDbVertex
100
AcDb2dVertex
 10
1.241573589987297
 20
76.7207119947719
 30
0.0
  0
VERTEX
  5
225
330
217
100
AcDbEntity
  8
2
  6
Continuous
100
AcDbVertex
100
AcDb2dVertex
 10
1.384557172778727
 20
76.99426964763953
 30
0.0
  0
VERTEX
  5
226
330
217
100
AcDbEntity
  8
2
  6
Continuous
100
AcDbVertex
100
AcDb2dVertex
 10
1.530207294051422
 20
77.08592373877761
 30
0.0
  0
SEQEND
  5
227
330
217
100
AcDbEntity
  8
2
  0
POLYLINE
  5
228
330
22
100
AcDbEntity
  8
2
  6
Continuous
100
AcDb2dPolyline
 66
     1
 10
0.0
 20
0.0
 30
0.0
  0
VERTEX
  5
229
330
228
100
AcDbEntity
  8
2
  6
Continuous
100
AcDbVertex
100
AcDb2dVertex
 10
0.5718754992195727
 20
71.79299443600962
 30
0.0
  0
VERTEX
  5
22A
330
228
100
AcDbEntity
  8
2
  6
Continuous
100
AcDbVertex
100
AcDb2dVertex
 10
0.5812776149400065
 20
71.80243494000675
 30
0.0
  0
VERTEX
  5
22B
330
228
100
AcDbEntity
  8
2
  6
Continuous
100
AcDbVertex
100
AcDb2dVertex
 10
0.5906978270625132
 20
71.81187070186411
 30
0.0
  0
VERTEX
  5
22C
330
228
100
AcDbEntity
  8
2
  6
Continuous
100
AcDbVertex
100
AcDb2dVertex
 10
0.6001361317472629
 20
71.82130171345202
 30
0.0
  0
VERTEX
  5
22D
330
228
100
AcDbEntity
  8
2
  6
Continuous
100
AcDbVertex
100
AcDb2dVertex
 10
0.6095925251545395
 20
71.83072796664072
 30
0.0
  0
VERTEX
  5
22E
330
228
100
AcDbEntity
  8
2
  6
Continuous
100
AcDbVertex
100
AcDb2dVertex
 10
0.6190670034443428
 20
71.84014945330043
 30
0.0
  0
VERTEX
  5
22F
330
228
100
AcDbEntity
  8
2
  6
Continuous
100
AcDbVertex
100
AcDb2dVertex
 10
0.6285595627768998
 20
71.84956616530133
 30
0.0
  0
VERTEX
  5
230
330
228
100
AcDbEntity
  8
2
  6
Continuous
100
AcDbVertex
100
AcDb2dVertex
 10
0.6380701993126081
 20
71.85897809451373
 30
0.0
  0
VERTEX
  5
231
330
228
100
AcDbEntity
  8
2
  6
Continuous
100
AcDbVertex
100
AcDb2dVertex
 10
0.6475989092114105
 20
71.86838523280792
 30
0.0
  0
VERTEX
  5
232
330
228
100
AcDbEntity
  8
2
  6
Continuous
100
AcDbVertex
100
AcDb2dVertex
 10
2.071582340395707
 20
73.07167112711375
 30
0.0
  0
VERTEX
  5
233
330
228
100
AcDbEntity
  8
2
  6
Continuous
100
AcDbVertex
100
AcDb2dVertex
 10
3.777721853430762
 20
74.15481283857204
 30
0.0
  0
VERTEX
  5
234
330
228
100
AcDbEntity
  8
2
  6
Continuous
100
AcDbVertex
100
AcDb2dVertex
 10
5.73647630067228
 20
75.09901445863514
 30
0.0
  0
VERTEX
  5
235
330
228
100
AcDbEntity
  8
2
  6
Continuous
100
AcDbVertex
100
AcDb2dVertex
 10
7.910723579333137
 20
75.88632519168712
 30
0.0
  0
SEQEND
  5
236
330
228
100
AcDbEntity
  8
2
  0
LINE
  5
237
330
22
100
AcDbEntity
  8
2
  6
Continuous
100
AcDbLine
 10
14.53983248025509
 20
76.20992290431263
 30
0.0
 11
10.33477254047602
 21
76.20992290431263
 31
0.0
  0
POLYLINE
  5
238
330
22
100
AcDbEntity
  8
2
  6
Continuous
100
AcDb2dPolyline
 66
     1
 10
0.0
 20
0.0
 30
0.0
  0
VERTEX
  5
239
330
238
100
AcDbEntity
  8
2
  6
Continuous
100
AcDbVertex
100
AcDb2dVertex
 10
7.910724366628301
 20
75.88632519168712
 30
0.0
  0
VERTEX
  5
23A
330
238
100
AcDbEntity
  8
2
  6
Continuous
100
AcDbVertex
100
AcDb2dVertex
 10
8.006985776035435
 20
75.91164588676705
 30
0.0
  0
VERTEX
  5
23B
330
238
100
AcDbEntity
  8
2
  6
Continuous
100
AcDbVertex
100
AcDb2dVertex
 10
8.122353128010388
 20
75.94127350549613
 30
0.0
  0
VERTEX
  5
23C
330
238
100
AcDbEntity
  8
2
  6
Continuous
100
AcDbVertex
100
AcDb2dVertex
 10
8.254453037664575
 20
75.9738373851074
 30
0.0
  0
VERTEX
  5
23D
330
238
100
AcDbEntity
  8
2
  6
Continuous
100
AcDbVertex
100
AcDb2dVertex
 10
8.400912120108899
 20
76.00796686283351
 30
0.0
  0
VERTEX
  5
23E
330
238
100
AcDbEntity
  8
2
  6
Continuous
100
AcDbVertex
100
AcDb2dVertex
 10
8.55935699045483
 20
76.04229127590713
 30
0.0
  0
VERTEX
  5
23F
330
238
100
AcDbEntity
  8
2
  6
Continuous
100
AcDbVertex
100
AcDb2dVertex
 10
8.72741426381333
 20
76.07543996156124
 30
0.0
  0
VERTEX
  5
240
330
238
100
AcDbEntity
  8
2
  6
Continuous
100
AcDbVertex
100
AcDb2dVertex
 10
8.902710555295698
 20
76.10604225702841
 30
0.0
  0
VERTEX
  5
241
330
238
100
AcDbEntity
  8
2
  6
Continuous
100
AcDbVertex
100
AcDb2dVertex
 10
9.08287248001318
 20
76.13272749954143
 30
0.0
  0
VERTEX
  5
242
330
238
100
AcDbEntity
  8
2
  6
Continuous
100
AcDbVertex
100
AcDb2dVertex
 10
9.265370887555037
 20
76.15445550856563
 30
0.0
  0
VERTEX
  5
243
330
238
100
AcDbEntity
  8
2
  6
Continuous
100
AcDbVertex
100
AcDb2dVertex
 10
9.44705356542454
 20
76.17150803249683
 30
0.0
  0
VERTEX
  5
244
330
238
100
AcDbEntity
  8
2
  6
Continuous
100
AcDbVertex
100
AcDb2dVertex
 10
9.624612535602864
 20
76.18449730196323
 30
0.0
  0
VERTEX
  5
245
330
238
100
AcDbEntity
  8
2
  6
Continuous
100
AcDbVertex
100
AcDb2dVertex
 10
9.794739820071527
 20
76.1940355475931
 30
0.0
  0
VERTEX
  5
246
330
238
100
AcDbEntity
  8
2
  6
Continuous
100
AcDbVertex
100
AcDb2dVertex
 10
9.954127440811817
 20
76.20073500001476
 30
0.0
  0
VERTEX
  5
247
330
238
100
AcDbEntity
  8
2
  6
Continuous
100
AcDbVertex
100
AcDb2dVertex
 10
10.09946741980514
 20
76.20520788985624
 30
0.0
  0
VERTEX
  5
248
330
238
100
AcDbEntity
  8
2
  6
Continuous
100
AcDbVertex
100
AcDb2dVertex
 10
10.22745177903272
 20
76.20806644774612
 30
0.0
  0
VERTEX
  5
249
330
238
100
AcDbEntity
  8
2
  6
Continuous
100
AcDbVertex
100
AcDb2dVertex
 10
10.33477254047602
 20
76.20992290431263
 30
0.0
  0
SEQEND
  5
24A
330
238
100
AcDbEntity
  8
2
  0
POLYLINE
  5
24B
330
22
100
AcDbEntity
  8
2
  6
Continuous
100
AcDb2dPolyline
 66
     1
 10
0.0
 20
0.0
 30
0.0
  0
VERTEX
  5
24C
330
24B
100
AcDbEntity
  8
2
  6
Continuous
100
AcDbVertex
100
AcDb2dVertex
 10
18.98841367485125
 20
56.83274303111404
 30
0.0
  0
VERTEX
  5
24D
330
24B
100
AcDbEntity
  8
2
  6
Continuous
100
AcDbVertex
100
AcDb2dVertex
 10
19.4824474265414
 20
57.65812204148043
 30
0.0
  0
VERTEX
  5
24E
330
24B
100
AcDbEntity
  8
2
  6
Continuous
100
AcDbVertex
100
AcDb2dVertex
 10
19.92203738204438
 20
58.56410979749325
 30
0.0
  0
VERTEX
  5
24F
330
24B
100
AcDbEntity
  8
2
  6
Continuous
100
AcDbVertex
100
AcDb2dVertex
 10
20.61825569372053
 20
60.57525261204703
 30
0.0
  0
VERTEX
  5
250
330
24B
100
AcDbEntity
  8
2
  6
Continuous
100
AcDbVertex
100
AcDb2dVertex
 10
21.04624716635351
 20
62.77615433178534
 30
0.0
  0
VERTEX
  5
251
330
24B
100
AcDbEntity
  8
2
  6
Continuous
100
AcDbVertex
100
AcDb2dVertex
 10
21.19050194528433
 20
65.08592290431261
 30
0.0
  0
VERTEX
  5
252
330
24B
100
AcDbEntity
  8
2
  6
Continuous
100
AcDbVertex
100
AcDb2dVertex
 10
20.68441188577435
 20
69.33996023288134
 30
0.0
  0
VERTEX
  5
253
330
24B
100
AcDbEntity
  8
2
  6
Continuous
100
AcDbVertex
100
AcDb2dVertex
 10
19.23309656395406
 20
72.95177873823172
 30
0.0
  0
VERTEX
  5
254
330
24B
100
AcDbEntity
  8
2
  6
Continuous
100
AcDbVertex
100
AcDb2dVertex
 10
18.21822724642789
 20
74.33899024375103
 30
0.0
  0
VERTEX
  5
255
330
24B
100
AcDbEntity
  8
2
  6
Continuous
100
AcDbVertex
100
AcDb2dVertex
 10
17.06321315229843
 20
75.36752490610974
 30
0.0
  0
VERTEX
  5
256
330
24B
100
AcDbEntity
  8
2
  6
Continuous
100
AcDbVertex
100
AcDb2dVertex
 10
15.8129817413847
 20
75.99778880876525
 30
0.0
  0
VERTEX
  5
257
330
24B
100
AcDbEntity
  8
2
  6
Continuous
100
AcDbVertex
100
AcDb2dVertex
 10
14.50750194528433
 20
76.20992290431263
 30
0.0
  0
SEQEND
  5
258
330
24B
100
AcDbEntity
  8
2
  0
LINE
  5
259
330
22
100
AcDbEntity
  8
2
  6
Continuous
100
AcDbLine
 10
22.5000009611249
 20
77.08592373877761
 30
0.0
 11
22.5000009611249
 21
53.08592373877761
 31
0.0
  0
LINE
  5
25A
330
22
100
AcDbEntity
  8
2
  6
Continuous
100
AcDbLine
 10
23.0000009611249
 20
53.08592290431261
 30
0.0
 11
23.0000009611249
 21
61.58592290431261
 31
0.0
  0
LINE
  5
25B
330
22
100
AcDbEntity
  8
2
  6
Continuous
100
AcDbLine
 10
23.0000009611249
 20
68.58592290431261
 30
0.0
 11
23.0000009611249
 21
77.08592290431261
 31
0.0
  0
ARC
  5
25C
330
22
100
AcDbEntity
  8
2
  6
Continuous
100
AcDbCircle
 10
35.0000009611249
 20
65.08592290431261
 30
0.0
 40
12.5
100
AcDbArc
 50
163.7397952916879
 51
196.2602047083119
  0
LINE
  5
25D
330
22
100
AcDbEntity
  8
2
  6
Continuous
100
AcDbLine
 10
14.10428589727422
 20
66.17654215189822
 30
0.0
 11
14.10428589727422
 21
75.22561572525734
 31
0.0
  0
LINE
  5
25E
330
22
100
AcDbEntity
  8
2
  6
Continuous
100
AcDbLine
 10
1.53020728379488
 20
77.08592469245193
 30
0.0
 11
119.5000028684735
 21
77.08592469245193
 31
0.0
  0
LINE
  5
2F1
330
22
100
AcDbEntity
  8
6
  6
Continuous
100
AcDbLine
 10
-50.00983905047178
 20
-17.60192816704515
 30
0.0
 11
-50.00983905047178
 21
0.0000000968575478
 31
0.0
  0
LINE
  5
2F2
330
22
100
AcDbEntity
  8
6
  6
Continuous
100
AcDbLine
 10
-50.30983906239271
 20
-11.63373225182295
 30
0.0
 11
-50.30983906239271
 21
-20.99999945610765
 31
0.0
  0
LINE
  5
2F3
330
22
100
AcDbEntity
  8
6
  6
CENTER
100
AcDbLine
 10
-50.00983905047178
 20
3.363672800362139
 30
0.0
 11
-50.00983905047178
 21
0.0000000968575478
 31
0.0
  0
LINE
  5
2F4
330
22
100
AcDbEntity
  8
6
  6
CENTER
100
AcDbLine
 10
-50.00983905047178
 20
-17.60192816704515
 30
0.0
 11
-50.00983905047178
 21
-23.59948485344646
 31
0.0
  0
LINE
  5
2F5
330
22
100
AcDbEntity
  8
6
  6
Continuous
100
AcDbLine
 10
-53.97983905047181
 20
-0.790462522194133
 30
0.0
 11
-50.00983905047178
 21
0.0000000977133539
 31
0.0
  0
LINE
  5
2F6
330
22
100
AcDbEntity
  8
6
  6
CENTER
100
AcDbLine
 10
-62.96432436808004
 20
-9.999999932944775
 30
0.0
 11
-36.59878646689754
 21
-9.999999932944775
 31
0.0
  0
LINE
  5
2F7
330
22
100
AcDbEntity
  8
6
  6
Continuous
100
AcDbLine
 10
-53.97983905047181
 20
-11.23968135011387
 30
0.0
 11
-53.97983905047181
 21
-0.790462522194133
 31
0.0
  0
LINE
  5
2F8
330
22
100
AcDbEntity
  8
6
  6
Continuous
100
AcDbLine
 10
-50.30983906239271
 20
-17.54219502681187
 30
0.0
 11
-50.00983905047178
 21
-17.60192772086606
 31
0.0
  0
LINE
  5
2F9
330
22
100
AcDbEntity
  8
6
  6
Continuous
100
AcDbLine
 10
-58.52301086685634
 20
-0.8470820580419627
 30
0.0
 11
-53.97983905047181
 21
-0.8470820580419627
 31
0.0
  0
LINE
  5
2FA
330
22
100
AcDbEntity
  8
6
  6
Continuous
100
AcDbLine
 10
-50.00983905047178
 20
-5.499999903142452
 30
0.0
 11
-38.88554133188382
 21
-5.499999903142481
 31
0.0
  0
LINE
  5
2FB
330
22
100
AcDbEntity
  8
6
  6
Continuous
100
AcDbLine
 10
-50.00983905047178
 20
-11.48421614617107
 30
0.0
 11
-53.97983905047181
 21
-11.18090047262427
 31
0.0
  0
LINE
  5
2FC
330
22
100
AcDbEntity
  8
6
  6
CENTER
100
AcDbLine
 10
-55.97983905047181
 20
-8.520780845639479
 30
0.0
 11
-48.00983905047178
 21
-8.520780845639479
 31
0.0
  0
ARC
  5
2FE
330
22
100
AcDbEntity
  8
6
  6
Continuous
100
AcDbCircle
 10
-50.00983905047181
 20
-9.999999932944775
 30
0.0
 40
12.5
100
AcDbArc
 50
16.26020698504171
 51
73.73979529168805
  0
ARC
  5
2FF
330
22
100
AcDbEntity
  8
6
  6
Continuous
100
AcDbCircle
 10
-50.00983905047181
 20
-9.999999932944775
 30
0.0
 40
12.5
100
AcDbArc
 50
106.260204708312
 51
163.7397930149584
  0
ARC
  5
300
330
22
100
AcDbEntity
  8
6
  6
Continuous
100
AcDbCircle
 10
-50.00983905047181
 20
-9.999999932944775
 30
0.0
 40
12.5
100
AcDbArc
 50
196.2602024315822
 51
253.739795291688
  0
ARC
  5
301
330
22
100
AcDbEntity
  8
6
  6
Continuous
100
AcDbCircle
 10
-50.00983905047181
 20
-9.999999932944775
 30
0.0
 40
12.5
100
AcDbArc
 50
286.260204708312
 51
343.7397975684178
  0
LINE
  5
302
330
22
100
AcDbEntity
  8
6
  6
Continuous
100
AcDbLine
 10
-53.50983905047178
 20
2.000000067055254
 30
0.0
 11
-46.50983905047178
 21
2.000000067055254
 31
0.0
  0
LINE
  5
303
330
22
100
AcDbEntity
  8
6
  6
Continuous
100
AcDbLine
 10
-38.00983918954921
 20
-6.499999456107673
 30
0.0
 11
-38.00983891139435
 21
-13.49999945610765
 31
0.0
  0
LINE
  5
304
330
22
100
AcDbEntity
  8
6
  6
Continuous
100
AcDbLine
 10
-46.50983905047178
 20
-21.99999993294478
 30
0.0
 11
-53.50983905047178
 21
-21.99999993294478
 31
0.0
  0
LINE
  5
305
330
22
100
AcDbEntity
  8
6
  6
Continuous
100
AcDbLine
 10
-62.00983918954921
 20
-13.49999945610765
 30
0.0
 11
-62.00983891139435
 21
-6.499999456107645
 31
0.0
  0
ARC
  5
306
330
22
100
AcDbEntity
  8
6
  6
Continuous
100
AcDbCircle
 10
-50.00983905047181
 20
-9.999999932944775
 30
0.0
 40
12.0
100
AcDbArc
 50
267.9773758665286
 51
130.293371048982
  0
LINE
  5
307
330
22
100
AcDbEntity
  8
6
  6
Continuous
100
AcDbLine
 10
-50.30983906239271
 20
-20.99999993294478
 30
0.0
 11
-55.9470100939908
 21
-20.99999993294478
 31
0.0
  0
LINE
  5
42E
330
22
100
AcDbEntity
  8
0
100
AcDbLine
 10
0.1984374970197678
 20
0.0
 30
0.0
 11
0.0
 21
0.0
 31
0.0
  0
LINE
  5
42F
330
22
100
AcDbEntity
  8
0
100
AcDbLine
 10
0.0
 20
0.0
 30
0.0
 11
0.0
 21
-0.1984374970197678
 31
0.0
  0
DIMENSION
  5
442
330
22
100
AcDbEntity
  8
AM_5
100
AcDbDimension
  2
*D2
 10
-22.35466289482724
 20
-9.999999456107659
 30
0.0
 11
-24.94466289482724
 21
-4.99999972805383
 31
0.0
 70
    32
 71
     5
 42
9.999999456107668
  3
Standard$0
100
AcDbAlignedDimension
 13
0.0
 23
0.0
 33
0.0
 14
25.1232994211166
 24
-9.999999456107673
 34
0.0
 50
270.0
100
AcDbRotatedDimension
1001
ACAD
1000
DSTYLE
1002
{
1070
    41
1040
3.0
1070
    42
1040
1.0
1070
    43
1040
5.0
1070
    44
1040
2.0
1070
    46
1040
3.0
1070
    73
1070
     0
1070
    74
1070
     0
1070
    77
1070
     1
1070
    78
1070
     8
1070
   140
1040
5.0
1070
   141
1040
2.0
1070
   145
1040
1.0
1070
   171
1070
     4
1070
   172
1070
     1
1002
}
  0
DIMENSION
  5
45D
330
22
100
AcDbEntity
  8
AM_5
100
AcDbDimension
  2
*D3
 10
0.1469535008072853
 20
-0.0122364386916729
 30
0.0
 11
-13.1602284863513
 21
19.9336212332392
 31
0.0
 70
    34
 71
     5
 42
0.9599310747804098
  3
Standard$2
100
AcDb2LineAngularDimension
 13
0.0004996843636036
 23
-0.1091721132397652
 33
0.0
 14
1.196064956486225
 24
-11.48421614617107
 34
0.0
 15
10.15059090405703
 25
-5.557343415915966
 35
0.0
 16
-8.76238888017625
 26
19.41358590209942
 36
0.0
1001
ACAD
1000
DSTYLE
1002
{
1070
    41
1040
3.0
1070
    42
1040
1.0
1070
    43
1040
5.0
1070
    44
1040
2.0
1070
    46
1040
3.0
1070
    73
1070
     0
1070
    74
1070
     0
1070
    77
1070
     1
1070
    78
1070
     8
1070
   140
1040
5.0
1070
   141
1040
2.0
1070
   145
1040
1.0
1070
   171
1070
     4
1070
   172
1070
     1
1002
}
  0
LINE
  5
4C5
330
22
100
AcDbEntity
  8
AM_5
100
AcDbLine
 10
20.25754576871452
 20
0.0
 30
0.0
 11
0.0
 21
0.0
 31
0.0
  0
DIMENSION
  5
4D6
330
22
100
AcDbEntity
  8
AM_5
100
AcDbDimension
  2
*D4
 10
20.25754576871452
 20
21.81739039447746
 30
0.0
 11
10.12877288435726
 21
24.40739039447746
 31
0.0
 70
    32
 71
     5
 42
20.25754576871452
  3
Standard$0
100
AcDbAlignedDimension
 13
0.0
 23
0.0
 33
0.0
 14
20.25754576871452
 24
0.0
 34
0.0
 50
180.0
100
AcDbRotatedDimension
1001
ACAD
1000
DSTYLE
1002
{
1070
    41
1040
3.0
1070
    42
1040
1.0
1070
    43
1040
5.0
1070
    44
1040
2.0
1070
    46
1040
3.0
1070
    73
1070
     0
1070
    74
1070
     0
1070
    77
1070
     1
1070
    78
1070
     8
1070
   140
1040
5.0
1070
   141
1040
2.0
1070
   145
1040
1.0
1070
   171
1070
     4
1070
   172
1070
     1
1070
   271
1070
     0
1002
}
  0
LINE
  5
53C
330
22
100
AcDbEntity
  8
AM_0
100
AcDbLine
 10
58.00000286847353
 20
-6.499999456107673
 30
0.0
 11
58.00000286847353
 21
-13.49999945610767
 31
0.0
  0
LINE
  5
53D
330
22
100
AcDbEntity
  8
AM_0
100
AcDbLine
 10
82.00000286847353
 20
-6.499999456107673
 30
0.0
 11
82.00000286847353
 21
-13.49999945610767
 31
0.0
  0
DIMENSION
  5
55F
330
22
100
AcDbEntity
  8
AM_5
100
AcDbDimension
  2
*D5
 10
58.00000286847353
 20
23.44463415923167
 30
0.0
 11
70.00000286847353
 21
26.03463415923167
 31
0.0
 70
    32
 71
     5
 42
24.0
  3
Standard$0
100
AcDbAlignedDimension
 13
82.00000286847353
 23
-9.999999456107673
 33
0.0
 14
58.00000286847353
 24
-9.999999456107645
 34
0.0
 50
180.0
100
AcDbRotatedDimension
1001
ACAD
1000
DSTYLE
1002
{
1070
    41
1040
3.0
1070
    42
1040
1.0
1070
    43
1040
5.0
1070
    44
1040
2.0
1070
    46
1040
3.0
1070
    73
1070
     0
1070
    74
1070
     0
1070
    77
1070
     1
1070
    78
1070
     8
1070
   140
1040
5.0
1070
   141
1040
2.0
1070
   145
1040
1.0
1070
   171
1070
     4
1070
   172
1070
     1
1070
   271
1070
     0
1002
}
  0
DIMENSION
  5
583
330
22
100
AcDbEntity
  8
AM_5
100
AcDbDimension
  2
*D6
 10
92.27070281428428
 20
-21.99999945610768
 30
0.0
 11
92.27070281428428
 21
-33.19473908122211
 31
0.0
 70
   160
 71
     5
 42
24.0
  3
Standard$0
100
AcDbAlignedDimension
 13
70.00000286847353
 23
2.000000543892327
 33
0.0
 14
70.00000286847353
 24
-21.99999945610767
 34
0.0
 50
270.0
100
AcDbRotatedDimension
1001
ACAD
1000
DSTYLE
1002
{
1070
    41
1040
3.0
1070
    42
1040
1.0
1070
    43
1040
5.0
1070
    44
1040
2.0
1070
    46
1040
3.0
1070
    73
1070
     0
1070
    74
1070
     0
1070
    77
1070
     1
1070
    78
1070
     8
1070
   140
1040
5.0
1070
   141
1040
2.0
1070
   145
1040
1.0
1070
   171
1070
     4
1070
   172
1070
     1
1070
   271
1070
     0
1002
}
  0
DIMENSION
  5
5B1
330
22
100
AcDbEntity
  8
AM_5
100
AcDbDimension
  2
*D7
 10
1.196064956486225
 20
-11.48421614617107
 30
0.0
 11
-9.809097227411252
 21
-36.82887315393194
 31
0.0
 70
    34
 71
     5
 42
0.1047197523309595
  3
Standard$2
100
AcDb2LineAngularDimension
 13
0.0
 23
0.0
 33
0.0
 14
0.0
 24
-0.1984374970197678
 34
0.0
 15
0.0004996843636036
 25
-0.1091721132397652
 35
0.0
 16
2.815566863999941
 26
-40.36890105522514
 36
0.0
1001
ACAD
1000
DSTYLE
1002
{
1070
    41
1040
3.0
1070
    42
1040
1.0
1070
    43
1040
5.0
1070
    44
1040
2.0
1070
    46
1040
3.0
1070
    73
1070
     0
1070
    74
1070
     0
1070
    77
1070
     1
1070
    78
1070
     8
1070
   140
1040
5.0
1070
   141
1040
2.0
1070
   145
1040
1.0
1070
   171
1070
     4
1070
   172
1070
     1
1070
   271
1070
     0
1002
}
  0
DIMENSION
  5
5FB
330
22
100
AcDbEntity
  8
AM_5
100
AcDbDimension
  2
*D8
 10
76.06952801222424
 20
0.9275283763610105
 30
0.0
 11
57.62507001755722
 21
-32.27973633017817
 31
0.0
 70
   163
 71
     5
 42
24.99999999999998
  3
Standard$3
100
AcDbDiametricDimension
 15
63.93047772472289
 25
-20.92752728857639
 35
0.0
 40
0.0
1001
ACAD
1000
DSTYLE
1002
{
1070
    41
1040
3.0
1070
    42
1040
1.0
1070
    43
1040
5.0
1070
    44
1040
2.0
1070
    46
1040
3.0
1070
    73
1070
     0
1070
    74
1070
     0
1070
    77
1070
     1
1070
    78
1070
     8
1070
   140
1040
5.0
1070
   141
1040
2.0
1070
   145
1040
1.0
1070
   171
1070
     4
1070
   172
1070
     1
1070
   271
1070
     0
1002
}
  0
DIMENSION
  5
626
330
22
100
AcDbEntity
  8
AM_5
100
AcDbDimension
  2
*D9
 10
0.0000000036931154
 20
40.97462118042279
 30
0.0
 11
60.00000143608335
 21
43.56462118042279
 31
0.0
 70
    32
 71
     5
 42
120.0000028647805
  3
Standard$0
100
AcDbAlignedDimension
 13
120.0000028684736
 23
55.89423791381658
 33
0.0
 14
0.0000000036931169
 24
65.08592469245193
 34
0.0
 50
180.0
100
AcDbRotatedDimension
1001
ACAD
1000
DSTYLE
1002
{
1070
    41
1040
3.0
1070
    42
1040
1.0
1070
    43
1040
5.0
1070
    44
1040
2.0
1070
    46
1040
3.0
1070
    73
1070
     0
1070
    74
1070
     0
1070
    77
1070
     1
1070
    78
1070
     8
1070
   140
1040
5.0
1070
   141
1040
2.0
1070
   145
1040
1.0
1070
   171
1070
     4
1070
   172
1070
     1
1070
   271
1070
     0
1002
}
  0
DIMENSION
  5
64E
330
22
100
AcDbEntity
  8
AM_5
100
AcDbDimension
  2
*D10
 10
-8.9708229271248
 20
65.08592469245193
 30
0.0
 11
-11.56082292712481
 21
72.42592469245193
 31
0.0
 70
    32
 71
     5
 42
-1.0
  3
Standard$0
100
AcDbAlignedDimension
 13
0.0000000036931169
 23
65.08592469245193
 33
0.0
 14
1.331809903954365
 24
65.08592469245193
 34
0.0
 50
270.0
100
AcDbRotatedDimension
1001
ACAD
1000
DSTYLE
1002
{
1070
    41
1040
3.0
1070
    42
1040
1.0
1070
    43
1040
5.0
1070
    44
1040
2.0
1070
    46
1040
3.0
1070
    73
1070
     0
1070
    74
1070
     0
1070
    77
1070
     1
1070
    78
1070
     8
1070
   140
1040
5.0
1070
   141
1040
2.0
1070
   145
1040
1.0
1070
   171
1070
     4
1070
   172
1070
     1
1070
   271
1070
     0
1002
}
  0
TEXT
  5
674
330
22
100
AcDbEntity
  8
0
100
AcDbText
 10
11.03415959603319
 20
-77.70637166095008
 30
0.0
 40
5.0
  1
%%uRS25X-SDXL11
100
AcDbText
  0
ACAD_PROXY_ENTITY
  5
78E
330
22
100
AcDbEntity
  8
AM_5
100
AcDbProxyEntity
 90
      498
 91
      571
 95
       25
 70
     0
 92
      668
310
9C020000270000000C00000016000000000000C00C00000013000000010000000C00000016000000000000C00C00000017000000FFFFFFFF3C0000000600000002000000B0F3EF7F8D9146C0E0C1834CCCDA44400000000000000000E32623B3C02443C0E1C1834CCCDA444000000000000000000C00000016000000000000
310
C00C00000010000000FFFFFFFF0C00000012000000FFFFFFFF0C00000017000000000000000C00000014000000010000000C00000013000000020000000C00000016000000000000C00C00000017000000FFFFFFFF3C0000000600000002000000E32623B3C02443C0E1C1834CCCDA44400000000000000000B0F3EF7F8D91
310
41C0E2C1834CCCDA444000000000000000000C00000016000000000000C00C00000010000000FFFFFFFF0C00000012000000FFFFFFFF0C00000017000000000000000C00000014000000010000000C00000013000000030000000C00000016000000000000C00C00000017000000FFFFFFFF3C0000000600000002000000E3
310
2623B3C02443C03880C43BB7A544400000000000000000B0F3EF7F8D9141C0E2C1834CCCDA444000000000000000000C00000016000000000000C00C00000010000000FFFFFFFF0C00000012000000FFFFFFFF0C00000017000000000000000C00000014000000010000000C00000013000000040000000C00000016000000
310
000000C00C00000017000000FFFFFFFF3C0000000600000002000000B0F3EF7F8D9141C0E2C1834CCCDA44400000000000000000E32623B3C02443C08B03435DE10F454000000000000000000C00000016000000000000C00C00000010000000FFFFFFFF0C00000012000000FFFFFFFF0C00000017000000000000000C0000
310
0014000000010000000C00000013000000050000000C00000016000000000000C0
 93
     1473
310
5DCB0215D7FE10841C038B060D333369110219FD35022281B66F19197D35022281B64F2A54051F8000000C800AA2C3CFBDFE36451B00E0C1834CCCDA44409018FFFFFFFF2C3CFBDFE36450700E2C1834CCCDA4440A8FFFFFFFF1FFFFFFFF161E7DEFF1B228D807060C1A6666D222045409C870205A56E6F3C745C01C16C779
310
996911502A0000000000003C2FC65F4D4088A86D9BC68333333333333094041D050000000000003C2FC000000000000F0BF40401015213500500
340
699
340
6A5
330
0
330
0
340
0
340
0
340
689
330
0
330
0
 94
        0
  0
ACAD_PROXY_ENTITY
  5
78F
330
22
100
AcDbEntity
  8
AM_5
100
AcDbProxyEntity
 90
      498
 91
      571
 95
       25
 70
     0
 92
      668
310
9C020000270000000C00000016000000000000C00C00000013000000010000000C00000016000000000000C00C00000017000000FFFFFFFF3C0000000600000002000000B0F3EF7F8D9146C0E0C1834CCCDA44400000000000000000A5F3EF7F8D9146C015F5B67FFF6D414000000000000000000C00000016000000000000
310
C00C00000010000000FFFFFFFF0C00000012000000FFFFFFFF0C00000017000000000000000C00000014000000010000000C00000013000000020000000C00000016000000000000C00C00000017000000FFFFFFFF3C0000000600000002000000A5F3EF7F8D9146C015F5B67FFF6D41400000000000000000A0F3EF7F8D91
310
46C0C483079998B53F4000000000000000000C00000016000000000000C00C00000010000000FFFFFFFF0C00000012000000FFFFFFFF0C00000017000000000000000C00000014000000010000000C00000013000000030000000C00000016000000000000C00C00000017000000FFFFFFFF3C00000006000000020000004E
310
35AF90A2C646C014F5B67FFF6D41400000000000000000A0F3EF7F8D9146C0C483079998B53F4000000000000000000C00000016000000000000C00C00000010000000FFFFFFFF0C00000012000000FFFFFFFF0C00000017000000000000000C00000014000000010000000C00000013000000040000000C00000016000000
310
000000C00C00000017000000FFFFFFFF3C0000000600000002000000A0F3EF7F8D9146C0C483079998B53F400000000000000000FCB1306F785C46C016F5B67FFF6D414000000000000000000C00000016000000000000C00C00000010000000FFFFFFFF0C00000012000000FFFFFFFF0C00000017000000000000000C0000
310
0014000000010000000C00000013000000050000000C00000016000000000000C0
 93
     1537
310
5DCA0F3EF7F8D9146C03337F865D0290F902465F4D4088A06D13C866F4D4088A06D13C0000000000003C2FEA54051F8000000C800AA2C3CFBDFE36451B00E0C1834CCCDA44409018FFFFFFFF283CFBDFE36451B00C483079998B53F40A8FFFFFFFF1FFFFFFFF161E7DEFF1B228D807060C1A6666D222045409C870205A56E6
310
F3C745C0140A3AAC8C8451102A0000000000003C2FD197D35022281B44F28333333333333094041D050000000000003C2FC000000000000F0BF40401015213500500
340
699
340
6A5
330
0
330
0
340
0
340
0
340
689
330
0
330
0
 94
        0
  0
TEXT
  5
790
330
22
100
AcDbEntity
  8
AM_6
100
AcDbText
 10
-45.99772824855785
 20
24.08187771106745
 30
0.0
 40
4.0
  1
0%%D
100
AcDbText
  0
TEXT
  5
791
330
22
100
AcDbEntity
  8
AM_6
100
AcDbText
 10
-33.41282563736434
 20
39.81694046045453
 30
0.0
 40
4.0
  1
0%%D
100
AcDbText
  0
ENDSEC
  0
SECTION
  2
OBJECTS
  0
DICTIONARY
  5
C
330
0
100
AcDbDictionary
281
     1
  3
ACAD_COLOR
350
1B
  3
ACAD_GROUP
350
D
  3
ACAD_LAYOUT
350
19
  3
ACAD_MATERIAL
350
1A
  3
ACAD_MLINESTYLE
350
16
  3
ACAD_PLOTSETTINGS
350
18
  3
ACAD_PLOTSTYLENAME
350
E
  3
ACAD_TABLESTYLE
350
1C
  3
AcAmCatalogState
350
3A3
  3
ACDBHEADERROUNDTRIPXREC
350
7F3
  3
AcDbVariableDictionary
350
3F4
  3
ACDMSYSVARMGR
350
35D
  3
ACGREF_MASTER
350
357
  3
ACGREFACAD_MASTER
350
37F
  3
AcmDictionary
350
3A1
  3
ACME_BOM_MANAGER_NAME
350
351
  3
ACME_COMMAND_HISTORY
350
34E
  3
ACME_SCOPE_NAME
350
34D
  3
ACMESTATEMGR
350
356
  3
AcmeSysVarManager
350
34F
  3
AcmSystemVariableManager
350
3AC
  3
AD_APPL
350
38E
  3
ADSYSVARMGR
350
38D
  3
AmdtNamedDwgMgr
350
37A
  3
AMG
350
383
  3
AMGSNAPSETTINGS
350
3E3
  3
AMI_MASTER
350
382
  3
AUTOCAD_ASSEMBLIES_PROJECT
350
396
  3
Designer_Assemblies_SysVars
350
391
  3
GREFAM_MODULE
350
387
  0
DICTIONARY
  5
53A
330
2
100
AcDbDictionary
280
     1
281
     1
  3
ACAD_LAYERSTATES
360
694
  3
AMLAYER_GROUPCOLORS
360
53B
  0
DICTIONARY
  5
1B
102
{ACAD_REACTORS
330
C
102
}
330
C
100
AcDbDictionary
281
     1
  0
DICTIONARY
  5
D
102
{ACAD_REACTORS
330
C
102
}
330
C
100
AcDbDictionary
281
     1
  0
DICTIONARY
  5
19
102
{ACAD_REACTORS
330
C
102
}
330
C
100
AcDbDictionary
281
     1
  3
Model
350
25
  3
レイアウト1
350
21
  0
DICTIONARY
  5
1A
102
{ACAD_REACTORS
330
C
102
}
330
C
100
AcDbDictionary
281
     1
  0
DICTIONARY
  5
16
102
{ACAD_REACTORS
330
C
102
}
330
C
100
AcDbDictionary
281
     1
  3
Standard
350
17
  0
DICTIONARY
  5
18
102
{ACAD_REACTORS
330
C
102
}
330
C
100
AcDbDictionary
281
     1
  0
ACDBDICTIONARYWDFLT
  5
E
102
{ACAD_REACTORS
330
C
102
}
330
C
100
AcDbDictionary
281
     1
  3
Normal
350
F
100
AcDbDictionaryWithDefault
340
F
  0
DICTIONARY
  5
1C
102
{ACAD_REACTORS
330
C
102
}
330
C
100
AcDbDictionary
281
     1
  3
Standard
350
1D
  0
ACAD_PROXY_OBJECT
  5
3A3
102
{ACAD_REACTORS
330
C
102
}
330
C
100
AcDbProxyObject
 90
      499
 91
      545
 95
       25
 70
     0
 93
      504
310
3FFFFFFFE00A0281402992E2E21BA3239AE483ECB654563CBCEAE4AABC7C0483ECB652E487CC6F6CBB846A445F7AE41BDC1B341A12E272A25C83ECB65400AA
  0
DICTIONARY
  5
7F3
102
{ACAD_REACTORS
330
C
102
}
330
C
100
AcDbDictionary
281
     1
  3
COLORDICT
350
7F4
  3
MATERIALDICT
350
7F5
  0
DICTIONARY
  5
3F4
102
{ACAD_REACTORS
330
C
102
}
330
C
100
AcDbDictionary
281
     1
  3
CTABLESTYLE
350
3F5
  3
DIMASSOC
350
7F1
  3
HIDETEXT
350
7F2
  0
ACAD_PROXY_OBJECT
  5
35D
102
{ACAD_REACTORS
330
C
102
}
330
C
100
AcDbProxyObject
 90
      499
 91
      505
 95
       25
 70
     0
 93
      240
310
4C51A47A0000000000000000000000000000000000000000000000000000
330
35E
330
35F
330
360
330
361
330
362
330
363
330
364
330
365
330
366
330
367
330
368
330
369
330
36A
330
36B
330
36C
330
36D
330
36E
330
36F
330
370
330
371
330
372
330
373
330
374
330
375
330
376
330
377
 94
        0
  0
ACAD_PROXY_OBJECT
  5
357
102
{ACAD_REACTORS
330
C
102
}
330
C
100
AcDbProxyObject
 90
      499
 91
      513
 95
       25
 70
     0
 93
       34
310
0400004280
  0
ACAD_PROXY_OBJECT
  5
37F
102
{ACAD_REACTORS
330
C
102
}
330
C
100
AcDbProxyObject
 90
      499
 91
      522
 95
       25
 70
     0
 93
      114
310
04000041C080000000000000000000
  0
DICTIONARY
  5
3A1
102
{ACAD_REACTORS
330
C
102
}
330
C
100
AcDbDictionary
281
     1
  3
AcmBOMDATA
350
3A2
  3
AcmStdDictionary
350
3AE
  3
AMDTSECTSYM_ARROWCOLOR
350
3CE
  0
ACAD_PROXY_OBJECT
  5
351
102
{ACAD_REACTORS
330
C
102
}
330
C
100
AcDbProxyObject
 90
      499
 91
      507
 95
       25
 70
     0
 93
       50
310
00010040400000
330
0
330
0
330
352
 94
        0
  0
ACAD_PROXY_OBJECT
  5
34E
102
{ACAD_REACTORS
330
C
102
}
330
C
100
AcDbProxyObject
 90
      499
 91
      504
 95
       25
 70
     0
 93
     5822
310
4780506444445444954805055153415645404052D4D5347202D205050413A2020206465736B746F702E6172782046696C6556657273696F6E3A20392E322E302E34014115539113E0141925394D154952014194D1531150D520142111493D411D153D360142111493D411D153D3601415454D05591501014B5354D1C80B481
310
414104E88080819195CDADD1BDC0B985C9E08119A5B1955995C9CDA5BDB8E880E4B8C8B8C0B8D0050E414D4454524553455444424D4F4440805084E202D20554E444F014213880B4815539113C0504554E444F80504554E444F80505505552474540805184D5347202D20436F6D6D616E642043414E43454C4C45442E014B5
310
354D1C80B481414104E88080819195CDADD1BDC0B985C9E08119A5B1955995C9CDA5BDB8E880E4B8C8B8C0B8D00505505552474540405184D5347202D20436F6D6D616E642043414E43454C4C45442E01415454D05591501014B5354D1C80B481414104E88080819195CDADD1BDC0B985C9E08119A5B1955995C9CDA5BDB8E
310
880E4B8C8B8C0B8D0050E414D4454524553455444424D4F4440805084E202D20554E444F014213880B4815539113C0504554E444F80504554E444F8050E414D504F57455244494D5F414E4740405184D5347202D20436F6D6D616E642043414E43454C4C45442E014151549054D1501014B5354D1C80B481414104E8808081
310
9195CDADD1BDC0B985C9E08119A5B1955995C9CDA5BDB8E880E4B8C8B8C0B8D00506524F544154458050844524F5047454F4D80504554E444F80506494E534552548050653454C4543548050844524F5047454F4D80508434F5059434C4950805055153415645404052D4D5347202D205050413A2020206465736B746F702E
310
6172782046696C6556657273696F6E3A20392E322E302E3401411353D591601411693D3D3601415454D05591501014B5354D1C80B481414104E88080819195CDADD1BDC0B985C9E08119A5B1955995C9CDA5BDB8E880E4B8C8B8C0B8D0
  0
ACAD_PROXY_OBJECT
  5
34D
102
{ACAD_REACTORS
330
C
102
}
330
C
100
AcDbProxyObject
 90
      499
 91
      503
 95
       25
 70
     0
 93
      546
310
090000464080000000000000000012F4CE0000000000000000000000000000000000000000000000000000000000000000000000000000000000000000000000AAA406AA80
360
350
360
352
360
358
360
359
360
35A
360
35B
360
35E
360
35F
360
360
360
361
360
362
360
363
360
364
360
365
360
366
360
367
360
368
360
369
360
36A
360
36B
360
36C
360
36D
360
36E
360
36F
360
370
360
371
360
372
360
373
360
374
360
375
360
376
360
377
360
389
360
38A
360
38B
360
38C
360
392
360
393
360
394
360
395
360
39A
360
39B
360
39C
360
39D
360
39E
360
39F
360
3AD
 94
        0
  0
ACAD_PROXY_OBJECT
  5
356
102
{ACAD_REACTORS
330
C
102
}
330
C
100
AcDbProxyObject
 90
      499
 91
      512
 95
       25
 70
     0
 93
       50
310
09000042641280
  0
ACAD_PROXY_OBJECT
  5
34F
102
{ACAD_REACTORS
330
C
102
}
330
C
100
AcDbProxyObject
 90
      499
 91
      505
 95
       25
 70
     0
 93
       32
310
90140A00
330
350
 94
        0
  0
ACAD_PROXY_OBJECT
  5
3AC
102
{ACAD_REACTORS
330
C
102
}
330
C
100
AcDbProxyObject
 90
      499
 91
      505
 95
       25
 70
     0
 93
       32
310
90140A00
330
3AD
 94
        0
  0
ACAD_PROXY_OBJECT
  5
38E
102
{ACAD_REACTORS
330
C
102
}
330
C
100
AcDbProxyObject
 90
      499
 91
      533
 95
       25
 70
     0
 93
       42
310
000900004040
330
389
 94
        0
  0
ACAD_PROXY_OBJECT
  5
38D
102
{ACAD_REACTORS
330
C
102
}
330
C
100
AcDbProxyObject
 90
      499
 91
      505
 95
       25
 70
     0
 93
        8
310
AA
  0
ACAD_PROXY_OBJECT
  5
37A
102
{ACAD_REACTORS
330
C
102
}
330
C
100
AcDbProxyObject
 90
      499
 91
      519
 95
       25
 70
     0
 93
       42
310
000100005E80
330
358
 94
        0
  0
DICTIONARY
  5
383
102
{ACAD_REACTORS
330
C
102
}
330
C
100
AcDbDictionary
281
     1
  3
AcMgSettings
350
384
  3
AMGLAYCFG
350
3B0
  0
DICTIONARY
  5
3E3
102
{ACAD_REACTORS
330
C
102
}
330
C
100
AcDbDictionary
281
     1
  3
DIMENSION
350
3E8
  3
FEA
350
3E7
  3
HATCH (1)
350
3E4
  3
HATCH (2)
350
3E5
  3
SIMPLE WELD
350
3E9
  3
SYMBOLS
350
3E6
  0
ACAD_PROXY_OBJECT
  5
382
102
{ACAD_REACTORS
330
C
102
}
330
C
100
AcDbProxyObject
 90
      499
 91
      525
 95
       25
 70
     0
 93
       34
310
0500004280
  0
ACAD_PROXY_OBJECT
  5
396
102
{ACAD_REACTORS
330
C
102
}
330
C
100
AcDbProxyObject
 90
      499
 91
      537
 95
       25
 70
     0
 93
       98
310
0900004E400000000000000000
330
39D
330
0
330
39E
330
0
330
0
330
0
330
0
330
0
 94
        0
  0
ACAD_PROXY_OBJECT
  5
391
102
{ACAD_REACTORS
330
C
102
}
330
C
100
AcDbProxyObject
 90
      499
 91
      505
 95
       25
 70
     0
 93
       56
310
90441600000000
330
392
330
393
330
394
330
395
 94
        0
  0
ACAD_PROXY_OBJECT
  5
387
102
{ACAD_REACTORS
330
C
102
}
330
C
100
AcDbProxyObject
 90
      499
 91
      527
 95
       25
 70
     0
 93
        8
310
05
  0
DICTIONARY
  5
694
102
{ACAD_REACTORS
330
53A
102
}
330
53A
100
AcDbDictionary
281
     1
  0
DICTIONARY
  5
53B
102
{ACAD_REACTORS
330
53A
102
}
330
53A
100
AcDbDictionary
280
     1
281
     1
  0
LAYOUT
  5
25
102
{ACAD_REACTORS
330
19
102
}
330
19
100
AcDbPlotSettings
  1

  2
Canon LBP-1420
  4
A4
  6

 40
5.873749732971191
 41
5.873747825622559
 42
5.873748779296875
 43
5.873748779296875
 44
209.9733276367188
 45
296.9259948730469
 46
0.0
 47
0.0
 48
0.0
 49
0.0
140
400.0
141
273.0
142
1.0
143
1.402630290955233
 70
 11952
 72
     1
 73
     1
 74
     4
  7
sei_cad.ctb
 75
     0
147
0.7129462456703186
148
0.0
149
0.0
100
AcDbLayout
  1
Model
 70
     1
 71
     0
 10
0.0
 20
0.0
 11
12.0
 21
9.0
 12
0.0
 22
0.0
 32
0.0
 14
0.0
 24
0.0
 34
0.0
 15
0.0
 25
0.0
 35
0.0
146
0.0
 13
0.0
 23
0.0
 33
0.0
 16
1.0
 26
0.0
 36
0.0
 17
0.0
 27
1.0
 37
0.0
 76
     0
330
22
1001
ACAD_PSEXT
1000
Canon LBP-1420
1000
Canon LASER SHOT LBP-1420
1000
10.254.89.243:lp
1000

1070
     0
  0
LAYOUT
  5
21
102
{ACAD_REACTORS
330
19
102
}
330
19
100
AcDbPlotSettings
  1

  2
Canon LBP-1420
  4

  6

 40
0.0
 41
0.0
 42
0.0
 43
0.0
 44
0.0
 45
0.0
 46
0.0
 47
0.0
 48
0.0
 49
0.0
140
0.0
141
0.0
142
1.0
143
1.0
 70
   688
 72
     0
 73
     0
 74
     5
  7
sei_cad.ctb
 75
    16
147
1.0
148
0.0
149
0.0
100
AcDbLayout
  1
レイアウト1
 70
     1
 71
     1
 10
0.0
 20
0.0
 11
12.0
 21
9.0
 12
0.0
 22
0.0
 32
0.0
 14
1.000000000000000E+20
 24
1.000000000000000E+20
 34
1.000000000000000E+20
 15
-1.000000000000000E+20
 25
-1.000000000000000E+20
 35
-1.000000000000000E+20
146
0.0
 13
0.0
 23
0.0
 33
0.0
 16
1.0
 26
0.0
 36
0.0
 17
0.0
 27
1.0
 37
0.0
 76
     0
330
1E
  0
MLINESTYLE
  5
17
102
{ACAD_REACTORS
330
16
102
}
330
16
100
AcDbMlineStyle
  2
STANDARD
 70
     0
  3

 62
   256
 51
90.0
 52
90.0
 71
     2
 49
0.5
 62
   256
  6
BYLAYER
 49
-0.5
 62
   256
  6
BYLAYER
  0
ACDBPLACEHOLDER
  5
F
102
{ACAD_REACTORS
330
E
102
}
330
E
  0
TABLESTYLE
  5
1D
102
{ACAD_REACTORS
330
1C
102
}
330
1C
100
AcDbTableStyle
  3
Standard
 70
     0
 71
     0
 40
0.06
 41
0.06
280
     0
281
     0
  7
STANDARD
140
0.18
170
     2
 62
     0
 63
     7
283
     0
274
    -2
284
     1
 64
     0
275
    -2
285
     1
 65
     0
276
    -2
286
     1
 66
     0
277
    -2
287
     1
 67
     0
278
    -2
288
     1
 68
     0
279
    -2
289
     1
 69
     0
  7
STANDARD
140
0.25
170
     5
 62
     0
 63
     7
283
     0
274
    -2
284
     1
 64
     0
275
    -2
285
     1
 65
     0
276
    -2
286
     1
 66
     0
277
    -2
287
     1
 67
     0
278
    -2
288
     1
 68
     0
279
    -2
289
     1
 69
     0
  7
STANDARD
140
0.18
170
     5
 62
     0
 63
     7
283
     0
274
    -2
284
     1
 64
     0
275
    -2
285
     1
 65
     0
276
    -2
286
     1
 66
     0
277
    -2
287
     1
 67
     0
278
    -2
288
     1
 68
     0
279
    -2
289
     1
 69
     0
  0
XRECORD
  5
7F4
102
{ACAD_REACTORS
330
7F3
102
}
330
7F3
100
AcDbXrecord
280
     1
340
1B
  0
XRECORD
  5
7F5
102
{ACAD_REACTORS
330
7F3
102
}
330
7F3
100
AcDbXrecord
280
     1
340
1A
  0
DICTIONARYVAR
  5
3F5
102
{ACAD_REACTORS
330
3F4
102
}
330
3F4
100
DictionaryVariables
280
     0
  1
STANDARD
  0
DICTIONARYVAR
  5
7F1
102
{ACAD_REACTORS
330
3F4
102
}
330
3F4
100
DictionaryVariables
280
     0
  1
1
  0
DICTIONARYVAR
  5
7F2
102
{ACAD_REACTORS
330
3F4
102
}
330
3F4
100
DictionaryVariables
280
     0
  1
0
  0
ACAD_PROXY_OBJECT
  5
3A2
102
{ACAD_REACTORS
330
3A1
102
}
330
3A1
100
AcDbProxyObject
 90
      499
 91
      544
 95
       25
 70
     0
 93
       76
310
90100057356C1D774120
  0
DICTIONARY
  5
3AE
102
{ACAD_REACTORS
330
3A1
102
}
330
3A1
100
AcDbDictionary
281
     1
  3
ANSI
350
3AF
  3
JIS
350
699
  0
XRECORD
  5
3CE
102
{ACAD_REACTORS
330
3A1
102
}
330
3A1
100
AcDbXrecord
280
     1
 90
-1023410169
  0
ACAD_PROXY_OBJECT
  5
350
330
34D
100
AcDbProxyObject
 90
      499
 91
      506
 95
       25
 70
     0
 93
      156
310
000101439050D35154D6535093D314D256915080
330
34D
 94
        0
  0
ACAD_PROXY_OBJECT
  5
352
330
34D
100
AcDbProxyObject
 90
      499
 91
      508
 95
       25
 70
     0
 93
      120
310
000101422565255A6557080C402B00
330
34D
330
0
330
0
 94
        0
  0
ACAD_PROXY_OBJECT
  5
358
330
34D
100
AcDbProxyObject
 90
      499
 91
      514
 95
       25
 70
     0
 93
      366
310
0001014124FEA55D00507392E322E302E32014124FEA55D00507392E322E302E3240501000041905394D24CCC658
330
34D
330
359
330
35D
 94
        0
  0
ACAD_PROXY_OBJECT
  5
359
330
34D
100
AcDbProxyObject
 90
      499
 91
      515
 95
       25
 70
     0
 93
       48
310
000190140A00
330
34D
330
35A
 94
        0
  0
ACAD_PROXY_OBJECT
  5
35A
330
34D
100
AcDbProxyObject
 90
      499
 91
      516
 95
       25
 70
     0
 93
       48
310
0001AA000000
330
34D
330
21
330
35B
330
0
 94
        0
  0
ACAD_PROXY_OBJECT
  5
35B
330
34D
100
AcDbProxyObject
 90
      499
 91
      517
 95
       25
 70
     0
 93
       28
310
0001AAA0
330
34D
 94
        0
  0
ACAD_PROXY_OBJECT
  5
35E
330
34D
100
AcDbProxyObject
 90
      499
 91
      506
 95
       25
 70
     0
 93
      108
310
000101421053521310D05310D010
330
34D
 94
        0
  0
ACAD_PROXY_OBJECT
  5
35F
330
34D
100
AcDbProxyObject
 90
      499
 91
      506
 95
       25
 70
     0
 93
      124
310
00010142905354915554D15112535010
330
34D
 94
        0
  0
ACAD_PROXY_OBJECT
  5
360
330
34D
100
AcDbProxyObject
 90
      499
 91
      506
 95
       25
 70
     0
 93
      132
310
00010143105354D150D51253D391125360
330
34D
 94
        0
  0
ACAD_PROXY_OBJECT
  5
361
330
34D
100
AcDbProxyObject
 90
      499
 91
      506
 95
       25
 70
     0
 93
      124
310
00010142905355941093D49111549010
330
34D
 94
        0
  0
ACAD_PROXY_OBJECT
  5
362
330
34D
100
AcDbProxyObject
 90
      499
 91
      506
 95
       25
 70
     0
 93
      116
310
0001014290535115D1D0D3D313D4A0
330
34D
 94
        0
  0
ACAD_PROXY_OBJECT
  5
363
330
34D
100
AcDbProxyObject
 90
      499
 91
      506
 95
       25
 70
     0
 93
      148
310
00010143505355925155D49151949154D21010
330
34D
 94
        0
  0
ACAD_PROXY_OBJECT
  5
364
330
34D
100
AcDbProxyObject
 90
      499
 91
      506
 95
       25
 70
     0
 93
      172
310
00010144105350539393D51154149154D15495915010
330
34D
 94
        0
  0
ACAD_PROXY_OBJECT
  5
365
330
34D
100
AcDbProxyObject
 90
      499
 91
      506
 95
       25
 70
     0
 93
      172
310
00010144105350555513D11253505494905391D15010
330
34D
 94
        0
  0
ACAD_PROXY_OBJECT
  5
366
330
34D
100
AcDbProxyObject
 90
      499
 91
      506
 95
       25
 70
     0
 93
      124
310
00010142D05351561514915191125360
330
34D
 94
        0
  0
ACAD_PROXY_OBJECT
  5
367
330
34D
100
AcDbProxyObject
 90
      499
 91
      506
 95
       25
 70
     0
 93
      132
310
00010142D05355105410539393D5115010
330
34D
 94
        0
  0
ACAD_PROXY_OBJECT
  5
368
330
34D
100
AcDbProxyObject
 90
      499
 91
      506
 95
       25
 70
     0
 93
      108
310
00010142105350555513D0D31010
330
34D
 94
        0
  0
ACAD_PROXY_OBJECT
  5
369
330
34D
100
AcDbProxyObject
 90
      499
 91
      506
 95
       25
 70
     0
 93
      108
310
00010142105350D3119150551050
330
34D
 94
        0
  0
ACAD_PROXY_OBJECT
  5
36A
330
34D
100
AcDbProxyObject
 90
      499
 91
      506
 95
       25
 70
     0
 93
      108
310
00010142105350D315925155D3F0
330
34D
 94
        0
  0
ACAD_PROXY_OBJECT
  5
36B
330
34D
100
AcDbProxyObject
 90
      499
 91
      506
 95
       25
 70
     0
 93
      148
310
0001014350535212511156915493D112535010
330
34D
 94
        0
  0
ACAD_PROXY_OBJECT
  5
36C
330
34D
100
AcDbProxyObject
 90
      499
 91
      506
 95
       25
 70
     0
 93
      124
310
00010142905352105510D21254D3D010
330
34D
 94
        0
  0
ACAD_PROXY_OBJECT
  5
36D
330
34D
100
AcDbProxyObject
 90
      499
 91
      506
 95
       25
 70
     0
 93
      148
310
00010143905354D25391D31152105513105660
330
34D
 94
        0
  0
ACAD_PROXY_OBJECT
  5
36E
330
34D
100
AcDbProxyObject
 90
      499
 91
      506
 95
       25
 70
     0
 93
      124
310
00010142D0535115D1D193111254D420
330
34D
 94
        0
  0
ACAD_PROXY_OBJECT
  5
36F
330
34D
100
AcDbProxyObject
 90
      499
 91
      506
 95
       25
 70
     0
 93
      100
310
00010142105350555513D213A0
330
34D
 94
        0
  0
ACAD_PROXY_OBJECT
  5
370
330
34D
100
AcDbProxyObject
 90
      499
 91
      506
 95
       25
 70
     0
 93
      116
310
000101425053521390D3D553951010
330
34D
 94
        0
  0
ACAD_PROXY_OBJECT
  5
371
330
34D
100
AcDbProxyObject
 90
      499
 91
      506
 95
       25
 70
     0
 93
      108
310
0001014210535213941493D29010
330
34D
 94
        0
  0
ACAD_PROXY_OBJECT
  5
372
330
34D
100
AcDbProxyObject
 90
      499
 91
      506
 95
       25
 70
     0
 93
      108
310
0001014210535213951654115070
330
34D
 94
        0
  0
ACAD_PROXY_OBJECT
  5
373
330
34D
100
AcDbProxyObject
 90
      499
 91
      506
 95
       25
 70
     0
 93
      108
310
000101421053521395925155D0F0
330
34D
 94
        0
  0
ACAD_PROXY_OBJECT
  5
374
330
34D
100
AcDbProxyObject
 90
      499
 91
      506
 95
       25
 70
     0
 93
      140
310
00010143505354D150D51253D390D3D41660
330
34D
 94
        0
  0
ACAD_PROXY_OBJECT
  5
375
330
34D
100
AcDbProxyObject
 90
      499
 91
      506
 95
       25
 70
     0
 93
      108
310
00010142105350D3141493D29030
330
34D
 94
        0
  0
ACAD_PROXY_OBJECT
  5
376
330
34D
100
AcDbProxyObject
 90
      499
 91
      518
 95
       25
 70
     0
 93
      212
310
00010143905350555513D2105510D21493D500000000000002E400
330
34D
 94
        0
  0
ACAD_PROXY_OBJECT
  5
377
330
34D
100
AcDbProxyObject
 90
      499
 91
      506
 95
       25
 70
     0
 93
      156
310
00010143905350555513D2105510D21111551010
330
34D
 94
        0
  0
ACAD_PROXY_OBJECT
  5
389
330
34D
100
AcDbProxyObject
 90
      499
 91
      529
 95
       25
 70
     0
 93
      698
310
0001000000009AA6A9AA4051E546875204175672032342030303A35323A303820323030362028555443290141CE4B8C8B8C0B8C80518576564205365702030312031313A30393A313220323031300141CE4B8C8B8C0B8C80
330
34D
330
38A
330
38B
330
38D
330
0
 94
        0
  0
ACAD_PROXY_OBJECT
  5
38A
330
34D
100
AcDbProxyObject
 90
      499
 91
      530
 95
       25
 70
     0
 93
       70
310
0001AAA80820000000
330
34D
330
38A
330
38A
 94
        0
  0
ACAD_PROXY_OBJECT
  5
38B
330
34D
100
AcDbProxyObject
 90
      499
 91
      531
 95
       25
 70
     0
 93
       48
310
000100000000
330
34D
330
0
330
38C
330
0
330
0
 94
        0
  0
ACAD_PROXY_OBJECT
  5
38C
330
34D
100
AcDbProxyObject
 90
      499
 91
      532
 95
       25
 70
     0
 93
       40
310
000100AAAA
330
34D
330
0
 94
        0
  0
ACAD_PROXY_OBJECT
  5
392
330
34D
100
AcDbProxyObject
 90
      499
 91
      536
 95
       25
 70
     0
 93
      180
310
00010143105050D3D35411119390535140504434F4D500
330
34D
 94
        0
  0
ACAD_PROXY_OBJECT
  5
393
330
34D
100
AcDbProxyObject
 90
      499
 91
      536
 95
       25
 70
     0
 93
      212
310
0001014390505193D311115491119390535140506466F6C6465720
330
34D
 94
        0
  0
ACAD_PROXY_OBJECT
  5
394
330
34D
100
AcDbProxyObject
 90
      499
 91
      536
 95
       25
 70
     0
 93
      180
310
00010143105050539393D1119390535140504284156290
330
34D
 94
        0
  0
ACAD_PROXY_OBJECT
  5
395
330
34D
100
AcDbProxyObject
 90
      499
 91
      536
 95
       25
 70
     0
 93
      436
310
00010143905050D3D35415925155D31254D50052295BD96CA0A90B396CA0A894591A496CA0A8DB691A496CA0A89BA96CA0A95E28F95310
330
34D
 94
        0
  0
ACAD_PROXY_OBJECT
  5
39A
330
34D
100
AcDbProxyObject
 90
      499
 91
      538
 95
       25
 70
     0
 93
       32
310
00010000
330
34D
340
397
330
39C
330
397
 94
        0
  0
ACAD_PROXY_OBJECT
  5
39B
330
34D
100
AcDbProxyObject
 90
      499
 91
      539
 95
       25
 70
     0
 93
       18
310
000180
330
34D
 94
        0
  0
ACAD_PROXY_OBJECT
  5
39C
330
34D
100
AcDbProxyObject
 90
      499
 91
      540
 95
       25
 70
     0
 93
      186
310
000101431494CC8D560B54D116130C4C5050055401550000
330
34D
330
39A
330
39B
 94
        0
  0
ACAD_PROXY_OBJECT
  5
39D
330
34D
100
AcDbProxyObject
 90
      499
 91
      541
 95
       25
 70
     0
 93
      178
310
000100AAAAAA9093939E98D56D106940E85ED1109BBBC0
330
34D
330
39C
 94
        0
  0
ACAD_PROXY_OBJECT
  5
39E
330
34D
100
AcDbProxyObject
 90
      499
 91
      542
 95
       25
 70
     0
 93
      108
310
000190140A000000000000AAAAA0
330
34D
330
39F
330
39F
330
39F
330
39F
330
39F
330
0
 94
        0
  0
ACAD_PROXY_OBJECT
  5
39F
330
34D
100
AcDbProxyObject
 90
      499
 91
      543
 95
       25
 70
     0
 93
       51
310
00010000AAAA80
330
34D
330
39E
330
39C
 94
        0
  0
ACAD_PROXY_OBJECT
  5
3AD
330
34D
100
AcDbProxyObject
 90
      499
 91
      536
 95
       25
 70
     0
 93
      148
310
00010142105350D55494D51100504414E53490
330
34D
 94
        0
  0
DICTIONARY
  5
384
102
{ACAD_REACTORS
330
383
102
}
330
383
100
AcDbDictionary
281
     1
  3
DWGSETTINGS
350
385
  3
Shaft
350
420
  3
TRANSSETTINGS
350
386
  0
ACAD_PROXY_OBJECT
  5
3B0
102
{ACAD_REACTORS
330
383
102
}
330
383
100
AcDbProxyObject
 90
      499
 91
      551
 95
       25
 70
     0
 93
    17920
310
41503491013041105357CC201C00030C011E441013141105357CC603800030C011E441013241105357CCA01400030C011E441013341105357CCE01800030C010F9013441105357CD200C00030C010F9013541105357CD600C00030C010F9013641105357CDA00800030C011E9013741105357CDE01000030C010F901384110
310
5357CE200400030C010F9013941105357CE63F400030C0241102324141505357CC4C201C00030C011E902344141505357CC4C600C00030C010F902495041505357CC4CA01C00030C011E40902304E41505357CC13A01C00030C011E902314E41505357CC53A03800030C011E902324E41505357CC93A01400030C011E90233
310
4E41505357CCD3A01800030C010F902344E41505357CD13A00C00030C010F902354E41505357CD53A00C00030C010F902364E41505357CD93A00800030C011E902374E41505357CDD3A01000030C010F902384E41505357CE13A00400030C010F902394E41505357CE53A3F400030C024110332414E41905357CC4C13A01C0
310
0030C011E90334414E41905357CC4C53A00C00030C010F90349504E41905357CC4C93A01C00030C011E409044B4C494E41505357D0D3200400030C010F42504494E464F42105357D410549151A01000030C010F42D055241484D3541905357D093D4A01C00030C011E425045649455742105357D5925155D4E00400030C010
310
F42D06424548494E4441905357D25395A3F400030C0243505545241494C41505357D514A00C00030C010F4250348494441905357D21251201C00030C010F4250356495341905357D59254E01C00030C011E4250650415244494D42505357D41054911253600C00030C010F4250652454644494D42505357D49151911253601
310
000030C010F425534110921395901398000000C0003FFFFFFFE415092139594D06424548494E448000000C0003FFFFFFFE411093D48C9055241484D358010000C30043E411093D48CD055241484D358020000C30047A411093D48D5055241484D358000000C0003FFFFFFFE4110D0530C901348000000C0003FFFFFFFE4110
310
D0530CD01348020000C30047A4110D0530D501348070000C30047A4110D0530DD013481E0000C3004F24110D15393901378000000C0003FFFFFFFE4110D15395D01378000000C0003FFFFFFFE4110D312539044B4C494E8000000C0003FFFFFFFE4110D3D38C501308000000C0003FFFFFFFD034110D3D38C901318000000C
310
0003FFFFFFFD034110D3D38CD01328000000C0003FFFFFFFD034110D3D38D101328000000C0003FFFFFFFD034111115510501348000000C0003FFFFFFFE4111125051D01358000000C0003FFFFFFFE4111125312501358000000C0003FFFFFFFE411112535410650415244494D8000000C0003FFFFFFFE4111125354906524
310
54644494D8000000C0003FFFFFFFE4111915353901388000000C0003FFFFFFFE415191535413901388030000C3003FFFFFFFE4151915354D410234418000000C0003FFFFFFFE4151915354D510234418030000C30043E415191535593901328000000C0003FFFFFFFE415191535595101328030000C30043E4112105510D01
310
388000000C0003FFFFFFFD014112125113901338000000C0003FFFFFFFD034112125115D01338000000C0003FFFFFFFD034112131253901348000000C0003FFFFFFFD01411213D0D3901378000000C0003FFFFFFFE411213D0D5D01378000000C0003FFFFFFFE4112539193D04494E464F8000000C0003FFFFFFFE41131150
310
51101358000000C0003FFFFFFFE419397D0921395902394E8000000C0003FFFFFFFE419397D0D3D38C502304E8000000C0003FFFFFFFD03419397D0D3D38C902314E8000000C0003FFFFFFFD03419397D0D3D38CD02324E8000000C0003FFFFFFFD03419397D0D3D38D102324E8000000C0003FFFFFFFD03419397D0D15393
310
902374E8000000C0003FFFFFFFE419397D0D15395D02374E8000000C0003FFFFFFFE419397D1125312502354E8000000C0003FFFFFFFE419397D2105510D02384E8000000C0003FFFFFFFD01419397D2125113902334E8000000C0003FFFFFFFD03419397D2125115D02334E8000000C0003FFFFFFFD03419397D311505110
310
2354E8000000C0003FFFFFFFE419397D391D25410349504E8000000C0003FFFFFFFE419397D412105390334414E8000000C0003FFFFFFFE419397D510D3D3902304E8000000C0003FFFFFFFD03419397D5121312502344E8000000C0003FFFFFFFD01419397D5131153902304E8000000C0003FFFFFFFD03419397D5941312
310
50332414E8000000C0003FFFFFFFE411391D25410249508000000C0003FFFFFFFE411410530C9055241484D358010000C30043E411410530CD055241484D358020000C30047A411410530D5055241484D358000000C0003FFFFFFFE411412105390234418000000C0003FFFFFFFE411413D4D3901358000000C0003FFFFFFF
310
E411490D1D3901378000000C0003FFFFFFFE411490D1D5D01378000000C0003FFFFFFFE4114D09492D01348070000C300479014114D150D5101348000000C0003FFFFFFFD014114D6508CD01358020000C30047A411354D653501358020000C30047A411510D3D3901308000000C0003FFFFFFFD0341151213125013480000
310
00C0003FFFFFFFD01411512550C9055241484D358010000C30043E411512550CD055241484D358020000C30047A411512550D5055241484D358000000C0003FFFFFFFE4115131153901308000000C0003FFFFFFFD03415514905253105545241494C8000000C0003FFFFFFFE4115149312501348000000C0003FFFFFFFD014
310
11516150C501368030000C30043E411516150C901368030000C30043E411516150CD01368000000C0003FFFFFFFE411516150D501368070000C30047A411516150DD013681E0000C3004F24115925155D04564945578000000C0003FFFFFFFE41159151121034849448000000C0003FFFFFFFD024115915115903564953800
310
0000C0003FFFFFFFD02411594131250232418000000C0003FFFFFFFE4116925690501348000000C0003FFFFFFFD01AAA3F400030C01013F90A4050F4091E40D0F4110F4151E4190F41D1E4391E4793C7F6
340
15
340
15
340
15
340
378
340
15
340
15
340
15
340
27
340
15
340
15
340
27
340
379
340
15
340
15
340
15
340
15
340
378
340
15
340
15
340
15
340
27
340
15
340
15
340
27
340
379
340
15
340
3B4
340
15
340
15
340
15
340
15
340
15
340
378
340
15
340
15
340
15
340
14
340
14
340
14
340
14
340
14
340
14
340
14
340
14
340
14
340
3BA
340
14
340
14
340
14
340
14
340
14
340
14
340
14
340
14
340
14
340
14
340
14
340
14
340
14
340
15
340
14
340
14
340
14
340
14
340
3BB
340
14
340
14
340
3BA
340
14
340
14
340
14
340
14
340
14
340
14
340
14
340
14
340
3BA
340
14
340
14
340
14
340
3BB
340
14
340
14
340
14
340
14
340
14
340
3BB
340
14
340
379
340
14
340
14
340
14
340
14
340
14
340
14
340
3BA
340
14
340
14
340
14
340
14
340
14
340
14
340
3BB
340
14
340
14
340
14
340
14
340
14
340
14
340
14
340
14
340
14
340
14
340
14
340
14
340
14
340
14
340
379
340
3BC
 94
        0
  0
ACAD_PROXY_OBJECT
  5
3E8
102
{ACAD_REACTORS
330
3E3
102
}
330
3E3
100
AcDbProxyObject
 90
      499
 91
      568
 95
       25
 70
     0
 93
      253
310
43D1444494D454E53494F4E2C414D44545F2A5F44494D404A9012A404A9012A8
  0
ACAD_PROXY_OBJECT
  5
3E7
102
{ACAD_REACTORS
330
3E3
102
}
330
3E3
100
AcDbProxyObject
 90
      499
 91
      568
 95
       25
 70
     0
 93
      181
310
43D012A42D05357D191504B505357CA9012A404A9012A8
  0
ACAD_PROXY_OBJECT
  5
3E4
102
{ACAD_REACTORS
330
3E3
102
}
330
3E3
100
AcDbProxyObject
 90
      499
 91
      568
 95
       25
 70
     0
 93
      133
310
43D054841544348404A9012A404A9012A8
  0
ACAD_PROXY_OBJECT
  5
3E5
102
{ACAD_REACTORS
330
3E3
102
}
330
3E3
100
AcDbProxyObject
 90
      499
 91
      568
 95
       25
 70
     0
 93
      549
310
43D044C494E4549CE0B0E138B0A8B4E0B0A8B4E138B105357CE0B105357CE138B0A8B505357CE0B0A8B505357CE139012A404A910494E534552542C5354445041525432448
  0
ACAD_PROXY_OBJECT
  5
3E9
102
{ACAD_REACTORS
330
3E3
102
}
330
3E3
100
AcDbProxyObject
 90
      499
 91
      568
 95
       25
 70
     0
 93
      181
310
43D0341524341105357CD5012A404C906494E534552540
  0
ACAD_PROXY_OBJECT
  5
3E6
102
{ACAD_REACTORS
330
3E3
102
}
330
3E3
100
AcDbProxyObject
 90
      499
 91
      568
 95
       25
 70
     0
 93
     1053
310
43D7841434D46434652414D452C41434D444154554D5441524745542C41434D444154554D49442C41434D57454C4453594D2C41434D5355524653594D2C41434D4645415449442C41434D504152545245462C41434D42414C4C4F4F4E2C414D44544544474553594D2C414D47534352455743414C435441424C45404A9012A
310
404A9012A8
  0
ACAD_PROXY_OBJECT
  5
3AF
102
{ACAD_REACTORS
330
3AE
102
}
330
3AE
100
AcDbProxyObject
 90
      499
 91
      550
 95
       25
 70
     0
 93
     2395
310
5DCB81E85EB51B8BE3F8030000C30041105394D2501640600800030C0200800030C00B81E85EB51B8BE3F48821E8720B1B6A9BAB9332A32BC3A29BA3220480A1282C6DA8C868CA6E8C88120286A0B1B6ABB2B63234B733A9BA3220480A1082C6DA92C8A6E8C88120285A0B1B6A230BA3AB6A9BA3220480A1282C6DA849E9AA
310
6E8C8812028820B6B23A2232BA30B4B629BCB6A9BA3220480A2282DAC8E8A6CAC6E8D2DEDCA6F2DAA6E8C88120288A0B6B23A21B2B73A32B92634B732A9BA3220480A2282DAC8E8A8D0E4CAC2C898D2DCCAA6E8C88120285A0B6B23A2737BA32A9BA3220480A1682C682DACE98C2F2A6E8C88120285A0B1A0B6B3A234B6A9B
310
A3220480A2282C682DACE90DED8CA86D0C2E4E8A6E8C88120286A0B1A0B6B3AA34BA3632A9BA3220480A02812020
340
3BD
360
3BE
360
3BF
360
3C0
360
3C1
360
3C2
360
3C3
360
3C4
360
3C5
360
3C6
360
3C7
360
3C8
360
3D4
360
3D5
360
3E0
360
3E1
340
0
340
0
 94
        0
  0
ACAD_PROXY_OBJECT
  5
699
102
{ACAD_REACTORS
330
3AE
102
}
330
3AE
100
AcDbProxyObject
 90
      499
 91
      572
 95
       25
 70
     0
 93
     2379
310
5DC33333333333309408000000C00040D29254D01640600800030C0200800030C003333333333330940C8121E8720B1B6A9BAB9332A32BC3A29BA3220480A1282C6DA8C868CA6E8C88120286A0B1B6ABB2B63234B733A9BA3220480A1082C6DA92C8A6E8C88120285A0B1B6A230BA3AB6A9BA3220480A1282C6DA849E9AA6E
310
8C88120286A0B1A0B6B3AA34BA3632A9BA3220480A2082DAC8E888CAE8C2D2D8A6F2DAA6E8C88120288A0B6B23A29B2B1BA34B7B729BCB6A9BA3220480A2282DAC8E886CADCE8CAE498D2DCCAA6E8C88120288A0B6B23A2A343932B0B22634B732A9BA3220480A1682DAC8E89CDEE8CAA6E8C88120285A0B1A0B6B3A630BCA
310
9BA3220480A1682C682DACE88D2DAA6E8C88120288A0B1A0B6B3A437B632A1B430B93A29BA3220480C812020
340
689
360
69A
360
69B
360
69C
360
69D
360
69E
360
69F
360
6A0
360
6A1
360
6A2
360
6A3
360
6A4
360
6A5
360
6AB
360
6AC
360
6AD
340
0
340
0
 94
        0
  0
ACAD_PROXY_OBJECT
  5
385
102
{ACAD_REACTORS
330
384
102
}
330
384
100
AcDbProxyObject
 90
      499
 91
      526
 95
       25
 70
     0
 93
     2316
310
4050B44574753455454494E4753A1286829C8E82A4A482B282A02608321A2A720A723A0A849A1ABE1C983E18999AA0C868A9C889282940000000000001C07E83A1A2A72224A0A9A0A8598171ABE1897183E18971AA0E868A9C8892A6A8940000000000001807E8321A2A72622A7250000000000000701FA0C868A9C9E8C8C9
310
40000000000001C07E84A1A624A720A92920ACA0A8118992108698929C8AA8B2A082A0AB098929C8A84A22BA3AAA9A1A0A622A50A0E9882A6A89E849482A02608426A0A5A2AB24A2ABA7E8120CA0A68682988A0C00800010652455649534941501304154D0D0531150540CC4E8C50954494D455354414D504A03675C551722
310
B734141D5915494D253D3905414C4D4B8C0C1107B44574753455454494E4753454E447D0
  0
ACAD_PROXY_OBJECT
  5
420
102
{ACAD_REACTORS
330
384
102
}
330
384
100
AcDbProxyObject
 90
      499
 91
      526
 95
       25
 70
     0
 93
      199
310
405055368616674220F688AE8EA68AA8A8929C8EA68A9C88FA
  0
ACAD_PROXY_OBJECT
  5
386
102
{ACAD_REACTORS
330
384
102
}
330
384
100
AcDbProxyObject
 90
      499
 91
      526
 95
       25
 70
     0
 93
      852
310
4050D5452414E5353455454494E4753A2488A482AE929C8EA8A4829CA69882A8929E9C0C00800050D4F524947494E414C4C595F4F4E0600400008529A7AAA921A2A620A723A0A81A52827212AAA0A48AA68AA4AC8A0C0080001107B44574753455454494E4753454E447D0
  0
ACAD_PROXY_OBJECT
  5
3BE
330
3AF
100
AcDbProxyObject
 90
      499
 91
      552
 95
       25
 70
     0
 93
       96
310
5DC20E80A0280A0280A02808
  0
ACAD_PROXY_OBJECT
  5
3BF
330
3AF
100
AcDbProxyObject
 90
      499
 91
      553
 95
       25
 70
     0
 93
      332
310
5DD0E4050140501405014050140501405014050142501405014050140501405012000000000000000400
340
3C9
 94
        0
  0
ACAD_PROXY_OBJECT
  5
3C0
330
3AF
100
AcDbProxyObject
 90
      499
 91
      554
 95
       25
 70
     0
 93
      403
310
5DCC199999999999E99F91F4050140501405014050140501405014050140501405014050140501405014050140501405014040
340
0
 94
        0
  0
ACAD_PROXY_OBJECT
  5
3C1
330
3AF
100
AcDbProxyObject
 90
      499
 91
      555
 95
       25
 70
     0
 93
       10
310
5DC0
  0
ACAD_PROXY_OBJECT
  5
3C2
330
3AF
100
AcDbProxyObject
 90
      499
 91
      556
 95
       25
 70
     0
 93
      257
310
5DE290EA22A7D90F49F9353333333333727F44D4CCCCCCCCCDC9FC010000618000
340
3CA
340
3CB
 94
        0
  0
ACAD_PROXY_OBJECT
  5
3C3
330
3AF
100
AcDbProxyObject
 90
      499
 91
      557
 95
       25
 70
     0
 93
    13023
310
5DD0E411255115350141236025B6901405014069011309A4F2590CB64FD3347454E545241434F2C4A504E2C302C8D8096DA2C47454E54524154582C25732C2847454E4D53472067656E647767203232322940690120281A8AA2CA0282484A4BE52028120280A03202261349E4B2196C9FA668E8A9CA8A482869E5894A09C58
310
605921292F94588E8A9CA8A482A8B0584AE658508E8A9C9AA68E40CECADCC8EECE406464665280D202405044E414D454050496BC914F4051C40640A8B95C2E97CBE502404CD1D15395149050D3CB1294138B0C0B25AF2453CB11D15395149055160B095CCB0A11D1539354D1C819D95B991DD9C80C8C8D8A50192C3D494628
310
4953424C414E4B28504152543A4E414D45292C424C4F434B3A4E414D452C504152543A4E414D452940480A0A888AA686A480A09251B1DBE80A3A80C81D10782C06030180C8099A3A2A72A2920A1A7962528271618164946C76F9623A2A72A2920AA2C1612B9961423A2A726A9A39033B2B7323BB39019189B94A0248090142
310
14D51053911054911014122D2E29A50147501904A383BFDFEFF5FBFCFD3347454E545241434F2C4A504E2C302C8B4B8A692C47454E54524154582C25732C2847454E4D53472067656E64776720323138294049012028426A0AA22A924A0A62028246EF4BDFA028EA0320B41396D838E9017D9FA668E8A9CA8A482869E5894A
310
09C5860591BBD2F7E588E8A9CA8A482A8B0584AE658508E8A9C9AA68E40CECADCC8EECE406464625280D202405044E4F544540504928D8B4C4051D40641A8B95C2E97CBE5F23F4CD1D15395149050D3CB1294138B0C0B24A362D30B11D15395149055160B095CCB0A11D1539354D1C819D95B991DD9C80C8C8D4A501A40480
310
A0CAC8A9C889EA480A1106F1072706BF02B680A3A80C83D172B85D2F97CBE47E9BA3A2A72A2920A1A79625282716181641BC41C9C1AFC0AD9623A2A72A2920AA2C1612B9961423A2A726A9A39033B2B7323BB39019191A14A0348090141911154D0D48C90141A43825AF880C90147501908A20F0580C0603019013447454E5
310
45241434F2C4A504E2C302C90E096BE20322C47454E54524154582C25732C2847454E4D53472067656E6477672033362940490120284A9AA20A72220A922192028345A5C53490192028EA0321347077FBFDFEBF7F9FA6A8E8A9CA8A482869E5894A09C586059169714D24064588E8A9CA8A482A8B0584AE658508E8A9C9AA6
310
8E40CECADCC8EECE4064646052809202405094D4154455249414C32405068DDE97BF20324051D40642A8272DB071D202FB3F4D11D15395149050D3CB1294138B0C0B2377A5EFC80C8B11D15395149055160B095CCB0A11D1539354D1C819D95B991DD9C80D0C0A501240480A089A82A6A680A091D7F2F9480A3A80A0485A06
310
81172B85D2F97CBE47E9923A2A72A2920A1A796252827161816475FCBE51623A2A72A2920AA2C1612B9961423A2A726A9A39033B2B7323BB3901A1914A024809014154149250D150141226FE29A501475014090C409022E570BA5F2F97C8FD3247454E545241434F2C4A504E2C302C89BF8A692C47454E54524154582C2573
310
2C2847454E4D53472067656E6477672034332940490120281A224A6A02824850CB202028EA028121A81A045CAE174BE5F2F91FA648E8A9CA8A482869E5894A09C58605921432C80588E8A9CA8A482A8B0584AE658508E8A9C9AA68E40CECADCC8EECE406868528092024050E441022E07A17AD46E338FE07800030C0001018
310
ACD56AB55AADF63F2B355AAD56AB7D8FD073D3C4954454D3E405018ACD56AB55AADF63F2B355AAD56AB7D8FD073D3C4954454D3E40501890C7E3F1783CEE3F2431F8FC5E0F3B8FD073D3C4954454D3E40501890C7E3F1783CEE3F2431F8FC5E0F3B8FD073D3C4954454D3E405029012B355AAD56AB7D8FCACD56AB55AADF63
310
F41CF4F125511534F901418F4F1455164F9014062B355AAD56AB7D8FCACD56AB55AADF63F41CF4F125511534F9014061309A4F2590CBA4FC4C2693C96432E93F41CF4F125511534F901901002B355AAD56AB7D8FCACD56AB55AADF63FA2000000000000008204018000618048220681A048120280C88214844882034852034
310
8452028521485214814000000000000F0BF0000000000003C2FD018020000C3008070000C3000EF7D3E365DBA88FC3BDF4F8D976EA23F2E07A17AD46E2F8FF20341A405024150741A4069703D0BD6A3717C7F0040001860100400018601002000186002026280A02
340
0
340
0
 94
        0
  0
ACAD_PROXY_OBJECT
  5
3C4
330
3AF
100
AcDbProxyObject
 90
      499
 91
      558
 95
       25
 70
     0
 93
      994
310
5DC0B81E85EB51B8CE3F4BCF511155105253080F11115510525317D3105091530F971414D0D05311480F11115510525317D05094D4D0D053114F92341C9A9999999999B93F26A666666666724FC000000000000E03F4000000000000004000000000000005100000000000000244081E0000C3002E07A17AD46E338FC0
340
379
340
3BD
 94
        0
  0
ACAD_PROXY_OBJECT
  5
3C5
330
3AF
100
AcDbProxyObject
 90
      499
 91
      559
 95
       25
 70
     0
 93
      823
310
5DC031703D0BD6A3719C7E999EA9A2A1AA24A7A7101E29A2A1AA24A7A72FA620A122A62FA324A929AA1F169E29A2A1AA24A7A72FA620A122A62FA620A9AA1F1353333333333B27E3FFFE01C00030C008840F000061801353333333333B27F1703D0BD6A3719C7E
340
379
340
3BD
 94
        0
  0
ACAD_PROXY_OBJECT
  5
3C6
330
3AF
100
AcDbProxyObject
 90
      499
 91
      560
 95
       25
 70
     0
 93
      280
310
5DC2B8716D9CEF7C33F0A5723F0BD4A2F0FC295C8FC2F528BC3FA199999999999F99FC
  0
ACAD_PROXY_OBJECT
  5
3C7
330
3AF
100
AcDbProxyObject
 90
      499
 91
      561
 95
       25
 70
     0
 93
       14
310
5DE4
340
0
 94
        0
  0
ACAD_PROXY_OBJECT
  5
3C8
330
3AF
100
AcDbProxyObject
 90
      499
 91
      562
 95
       25
 70
     0
 93
     7123
310
5DD084050BA4050AA405024050E836583938376838C815B8367203140405013D3C696628657175616C28486F6C653A7461707065642C223022292C22252563222C486F6C653A6E6F6D696E616C2022202220696628657175616C28486F6C653A756E6974732C223122292C2278222C222D222920222022293E3C6966286571
310
75616C28486F6C653A7461707065642C223022292C486F6C653A6469612C486F6C653A706974636864657363293E207B5C46414D4744543B787D203C696628657175616C28486F6C653A7465726D696E6174696F6E2C223022292C486F6C653A64657074682C228AD192CA22293E5C507B5C46414D4744543B767D2525633C
310
486F6C653A63746469613E207B5C46414D4744543B787D203C486F6C653A637464657074683E406901405034050E836583938376838C815B83672031405FE3D3C696628657175616C28486F6C653A7461707065642C223022292C22252563222C486F6C653A6E6F6D696E616C2022202220696628657175616C28486F6C653
310
A756E6974732C223122292C2278222C222D222920222022293E3C696628657175616C28486F6C653A7461707065642C223022292C486F6C653A6469612C486F6C653A706974636864657363293E207B5C46414D4744543B787D203C696628657175616C28486F6C653A7465726D696E6174696F6E2C223022292C486F6C653
310
A64657074682C228AD192CA22293E5C507B5C46414D4744543B777D2525633C486F6C653A63746469613E2058203C486F6C653A6374616E676C653E252564406901405014050E836583938376838C815B83672031405CF3D3C696628657175616C28486F6C653A7461707065642C223022292C22252563222C486F6C653A6E
310
6F6D696E616C2022202220696628657175616C28486F6C653A756E6974732C223122292C2278222C222D222920222022293E3C696628657175616C28486F6C653A7461707065642C223022292C486F6C653A6469612C486F6C653A706974636864657363293E5C507B5C46414D4744543B787D203C696628657175616C2848
310
6F6C653A7465726D696E6174696F6E2C223022292C486F6C653A64657074682C228AD192CA22293E4069014051E4090E836583938376838C815B83672032405173D3C535444503A444553433E203C535444503A5354443E40690E836583938376838C815B836720314050C3D3C535444503A444553433E40690240515AAABB
310
A060
360
3D2
330
3D2
360
3D3
330
3D3
360
3D1
330
3D1
360
3D0
360
3CF
330
3D0
330
3CF
 94
        0
  0
ACAD_PROXY_OBJECT
  5
3D4
330
3AF
100
AcDbProxyObject
 90
      499
 91
      564
 95
       25
 70
     0
 93
       26
310
5DD02A80
340
3B0
 94
        0
  0
ACAD_PROXY_OBJECT
  5
3D5
330
3AF
100
AcDbProxyObject
 90
      499
 91
      565
 95
       25
 70
     0
 93
      258
310
5DD02000000000000380FC000000000000E03F408F0F9023C3E40DB18CCCFFFF80
340
3D6
340
43E
340
45C
340
5FA
340
5E8
340
0
340
3D9
340
3DA
340
3DF
340
0
 94
        0
  0
ACAD_PROXY_OBJECT
  5
3E0
330
3AF
100
AcDbProxyObject
 90
      499
 91
      566
 95
       25
 70
     0
 93
    13993
310
5DD1D023FFFFFFFD010300002E07A17AD46E2F8FE00800030C01010300002E07A17AD46E2F8FE00800030C00050C8DC0955782CC838A83588367014ED1D15395149050D3CB1294138B0C0B23702555E0B320E2A0D620D9CB11D15395149055160B095CCB0A11D1539354D1C819D95B991A5B5E880CCC0A78000C0000000000
310
00000000000000000000007B14AE47E17AA43F2E07A17AD46E2F8FE00800030C007B14AE47E17AA43F2E07A17AD46E2F8FE00800030C020143CF4F111959985D5B1D151A5D1B194F8050A8C8A8365815B8375838B014E51D15395149050D3CB1294138B0C0B2322A0D96056E0DD60E2CB11D15395149055160B095CCB0A11D
310
1539354D1C819D95B991A5B5E880CCC4A78000C000000000000000000000000000000007B14AE47E17AA43F2E07A17AD46E2F8FE00800030C007B14AE47E17AA43F2E07A17AD46E2F8FE00800030C020143CF4F111959985D5B1D151A5D1B194F90D4410F4450240D0441507431014391244D05449074510C4350F00014123
310
2D24D7C053247454E545241434F2C4A504E2C302C8CB4935F2C47454E54524154582C25732C2847454E4D53472067656E64696D7A20312900010104002214000282465A49AF80A648E8A9CA8A482869E5894A09C586059196926BE588E8A9CA8A482A8B0584AE658508E8A9C9AA68E40CECADCC8D2DAF44062520002020800
310
43E80005028C8A014C11D15395149050D3CB1294138B0C0B23228B11D15395149055160B095CCB0A11D1539354D1C819D95B991A5B5E880C8A4054E3D3C4946284953424C414E4B28486F6C654974656D292C4F726967696E2C20486F6C654974656D293E3C4946284953424C414E4B28486F6C654974656D292C22222C204
310
86F6C65496E646578293E010104002234000280AC00A5E8E8A9CA8A482869E5894A09C586058B0588E8A9CA8A482A8B0584AE658508E8A9C9AA68E40CECADCC8D2DAF4406652000202000040A800050159014BD1D15395149050D3CB1294138B0C0B164B11D15395149055160B095CCB0A11D1539354D1C819D95B991A5B5E
310
880D0A4000404000081D0000A02A40297A3A2A72A2920A1A796252827161816291623A2A72A2920AA2C1612B9961423A2A726A9A39033B2B73234B6BD101B148000808000104A000140A0F4C053047454E545241434F2C4A504E2C302C83D32C47454E54524154582C25732C2847454E4D53472067656E64696D7A20372900
310
0101030020B400028141E980A608E8A9CA8A482869E5894A09C58605907A6588E8A9CA8A482A8B0584AE658508E8A9C9AA68E40CECADCC8D2DAF4407052000202020041E800050490E096BE014CD1D15395149050D3CB1294138B0C0B243825AF8B11D15395149055160B095CCB0A11D1539354D1C819D95B991A5B5E880C8
310
C0A400040010008650000A091B012DB40299A3A2A72A2920A1A79625282716181646C04B6D1623A2A72A2920AA2C1612B9961423A2A726A9A39033B2B73234B6BD10189A148000808280501A00014320D0E0E4E0D9A0D8A0D3A0D60053B47454E545241434F2C4A504E2C302C8343839383668362834E83582C47454E54524
310
154582C25732C2847454E4D53472067656E64696D7A203135290001010500A1D4000281464500A628E8A9CA8A482869E5894A09C5860591914588E8A9CA8A482A8B0584AE658508E8A9C9AA68E40CECADCC8D2DAF440626C52000202080044A800050E8C8A8343839383668362834E8358014F51D15395149050D3CB129413
310
8B0C0B2322A0D0E0E4E0D9A0D8A0D3A0D60B11D15395149055160B095CCB0A11D1539354D1C819D95B991A5B5E880C4DCA4000404140089D0000A0921292F940299A3A2A72A2920A1A796252827161816484A4BE51623A2A72A2920AA2C1612B9961423A2A726A9A39033B2B73234B6BD10189C948000808300114A0001412
310
2D2E29A4053347454E545241434F2C4A504E2C302C8B4B8A692C47454E54524154582C25732C2847454E4D53472067656E64696D7A20323129000100040021B4878030026A6666666667A4FE064D4CCCCCCCCCF49FC049A9999999999E93F809353333333333D27F0226A6666666667A4FE044D4CCCCCCCCCF49FC0D818000
310
00000000000810026A666666666764FE004D4CCCCCCCCCF49FC009A9999999999E93F801353333333333D27F032E07A17AD46E378FE0633B333333333032050F006004D4CCCCCCCCCF49FC0C9A9999999999E93F819353333333333D27F0326A6666666667A4FE064D4CCCCCCCCCF49FC0C9A9999999999E93F81B03000000
310
00000000102004D4CCCCCCCCCEC9FC009A9999999999E93F819353333333333D27F0026A6666666667A4FE065C0F42F5A8DC6F1FC0C6766666666660640A088800000021E000000890000002260000008220E000200890000002060002008100008000
340
0
340
0
340
0
340
0
340
3BD
340
3BD
 94
        0
  0
ACAD_PROXY_OBJECT
  5
3E1
330
3AF
100
AcDbProxyObject
 90
      499
 91
      567
 95
       25
 70
     0
 93
     5214
310
5DD9741105394D2506414E53495F4342905394D257D512551554D15414E53495F54525F5265766973696F6E6C697374614191143202831372E307832322E30696E63682941905394D257D0D1146202832382E307834302E30696E63682941905394D257D191142202831312E307831372E30696E63682941905394D257D091
310
144202832322E307833342E30696E63682941905394D257D111145202833342E307834342E30696E63682941905394D257D1510412028382E357831312E30696E63682941905394D257D050543905B9CDA482557247A25E4C81110D0C414E53495F5449544C45444343505B9CDA482557247A25E4C81050B414E53495F5449
310
544C454143905B9CDA482557247A25E4C81050D0C414E53495F5449544C454143425554C82557247A25E4D0A414E53495F544954555343505B9CDA482557247A25E4C81110B414E53495F5449544C454442110979A97F0838A8358836720415F42525F45505394D257D09497D4995D9A5CDA5BDB9B1A5CDD18510979A97F08
310
38A8358836720415F54525F45505394D257D51497D4995D9A5CDA5BDB9B1A5CDD18510979A97F0838A8358836720445F42525F45505394D257D09497D4995D9A5CDA5BDB9B1A5CDD19110979A97F0838A8358836720445F54525F45505394D257D51497D4995D9A5CDA5BDB9B1A5CDD19110979A97F0838A8358836720415F
310
424C5F45505394D257D09317D4995D9A5CDA5BDB9B1A5CDD18510979A97F0838A8358836720415F544C5F45505394D257D51317D4995D9A5CDA5BDB9B1A5CDD18510979A97F0838A8358836720445F424C5F45505394D257D09317D4995D9A5CDA5BDB9B1A5CDD19110979A97F0838A8358836720445F544C5F45505394D25
310
7D51317D4995D9A5CDA5BDB9B1A5CDD190
  0
ACAD_PROXY_OBJECT
  5
69A
330
699
100
AcDbProxyObject
 90
      499
 91
      573
 95
       25
 70
     0
 93
       86
310
5DEA0C80A0280A0280A034
  0
ACAD_PROXY_OBJECT
  5
69B
330
699
100
AcDbProxyObject
 90
      499
 91
      574
 95
       25
 70
     0
 93
      282
310
5DD0E4050140501405014050140501405014050141101405014041000000000000001000
340
68A
 94
        0
  0
ACAD_PROXY_OBJECT
  5
69C
330
699
100
AcDbProxyObject
 90
      499
 91
      575
 95
       25
 70
     0
 93
      323
310
5DCC199999999999E99F91740501405014050140501405014050140501405014050140501405014040
340
0
 94
        0
  0
ACAD_PROXY_OBJECT
  5
69D
330
699
100
AcDbProxyObject
 90
      499
 91
      576
 95
       25
 70
     0
 93
       10
310
5DC0
  0
ACAD_PROXY_OBJECT
  5
69E
330
699
100
AcDbProxyObject
 90
      499
 91
      577
 95
       25
 70
     0
 93
      257
310
5DE0C16A22A7D90F49F80000000000001081400000000000004204010000618000
340
686
340
687
 94
        0
  0
ACAD_PROXY_OBJECT
  5
69F
330
699
100
AcDbProxyObject
 90
      499
 91
      578
 95
       25
 70
     0
 93
     5277
310
5DD06411255115350141236025B6901405014069010000000000000910240690120281A8AA2CA0282484A4BE52028120280A032020000000000001220480D202405044E414D454050496BC914F4051C40640A80000000000004E4090193C3D3C4946284953424C414E4B28504152543A4E414D45292C424C4F434B3A4E414D
310
452C504152543A4E414D45293E3C41435F44455343524950544E3E40480A109A82A88AA492829880A091BBD2F7E80A3A80C81D0E27A15AF46E08A81203480901411393D5115014124A363B7D0147501904A0000000000000F902406428F4F1050D7D393D5114F901202832B22A72227A92028366EF6EE06F582028EA0320B4
310
0000000000001F20480C879E9E20A1AFAB27222FA620A122A61F20240506445020000000000000490201C00030C00010180000000000003E400000000000000F901073D3C4954454D3E4050180000000000003E400000000000000F901073D3C4954454D3E40501800000000000034400000000000000D101073D3C4954454
310
D3E40501800000000000034400000000000000D101073D3C4954454D3E405029010000000000000F9000000000000003E4041CF4F125511534F901418F4F1455164F9014060000000000000F9000000000000003E4041CF4F125511534F901800000000000034400000000000000D101073D3C4954454D3E40640400000000
310
0000003E400000000000000F90288800000000000020810000001800120881A068120480A032208521122080D21480D211480A1485214852050000000000003C2FC000000000000F0BF40600800030C0200400030C00CDCCCCCCCCCCEC3F3373333333333B0FC3333333333330940C80D069014090341504901A1999999999
310
9984A040100006180400800061804010000618008098A02808
340
0
340
0
 94
        0
  0
ACAD_PROXY_OBJECT
  5
6A0
330
699
100
AcDbProxyObject
 90
      499
 91
      567
 95
       25
 70
     0
 93
     3042
310
5DD9740D29254D064A49535F413342929254D7D512551311505134A49535F42525F5265766973696F6E6C6973744190F4134522028323937783231306D6D2941D29254D7D04D1490E41312028353934783834316D6D2941929254D7D04C50F41344C2028323130783239376D6D2941D29254D7D04D1310E413320283239377
310
83432306D6D2941929254D7D04CD0E41322028343230783539346D6D2941929254D7D04C90F4130202838343178313138396D6D2941929254D7D04C10243129254C82557247A25E4C81050A4A49535F5449544C454143129254C82557247A25E4C81090A4A49535F5449544C45424110E979A97F0838A835883675F42525F4
310
4D29254D7D09497D4995D9A5CDA5BDB9B1A5CDD10E979A97F0838A835883675F54525F44D29254D7D51497D4995D9A5CDA5BDB9B1A5CDD10E979A97F0838A835883675F424C5F44D29254D7D09317D4995D9A5CDA5BDB9B1A5CDD10E979A97F0838A835883675F544C5F44D29254D7D51317D4995D9A5CDA5BDB9B1A5CDD00
  0
ACAD_PROXY_OBJECT
  5
6A1
330
699
100
AcDbProxyObject
 90
      499
 91
      579
 95
       25
 70
     0
 93
      898
310
5DC4000000000000124048CF4F11115510525317D3105091530F880A0F11115510525317D05094D4D0D053114F8A50241C9A9999999999B93F26A666666666724FC000000000000E03F400000000000000400000000000000510000000000000024408070000C300000000000000049000
340
15
340
689
 94
        0
  0
ACAD_PROXY_OBJECT
  5
6A2
330
699
100
AcDbProxyObject
 90
      499
 91
      580
 95
       25
 70
     0
 93
      823
310
5DC0B00000000000002480959E9E29A2A1AA24A7A72FA620A122A62FA324A929AA1F169E29A2A1AA24A7A72FA620A122A62FA620A9AA1F000000000000048803FFFE01C00030C008140380006180000000000000048800000000000000A2000000000000002480
340
27
340
689
 94
        0
  0
ACAD_PROXY_OBJECT
  5
6A3
330
699
100
AcDbProxyObject
 90
      499
 91
      581
 95
       25
 70
     0
 93
      152
310
5DE8273108AC1C5A0640A3D0A5723F0BD1F200
  0
ACAD_PROXY_OBJECT
  5
6A4
330
699
100
AcDbProxyObject
 90
      499
 91
      582
 95
       25
 70
     0
 93
       14
310
5DE0
340
0
 94
        0
  0
ACAD_PROXY_OBJECT
  5
6A5
330
699
100
AcDbProxyObject
 90
      499
 91
      583
 95
       25
 70
     0
 93
     6059
310
5DD084050BA4050AA405024050E836583938376838C815B83672031405983D3C486F6C653A6469613E3C696628657175616C28486F6C653A7465726D696E6174696F6E2C223022292C2220905B82B320222C22208368838A838B22293E3C696628657175616C28486F6C653A7465726D696E6174696F6E2C223022292C486F
310
6C653A64657074682C2222293E2C203C486F6C653A63746469613E2082B482AE82E882CC905B82B3203C486F6C653A637464657074683E406901405034050E836583938376838C815B83672031405EF3D3C486F6C653A6374616E676C653E252564202525633C486F6C653A63746469613E208E4D8C8A2C203C69662865717
310
5616C28486F6C653A7461707065642C223022292C22252563222C486F6C653A6E6F6D696E616C202220782022293E3C696628657175616C28486F6C653A7461707065642C223022292C486F6C653A6469612C486F6C653A706974636864657363293E203C696628657175616C28486F6C653A7465726D696E6174696F6E2C2
310
23022292C22905B82B320222C222022293E3C696628657175616C28486F6C653A7465726D696E6174696F6E2C223022292C486F6C653A64657074682C2222293E406901405014050E836583938376838C815B83672031405C73D3C696628657175616C28486F6C653A7461707065642C223022292C22252563222C486F6C65
310
3A6E6F6D696E616C202220782022293E3C696628657175616C28486F6C653A7461707065642C223022292C486F6C653A6469612C486F6C653A706974636864657363293E203C696628657175616C28486F6C653A7465726D696E6174696F6E2C223022292C22905B82B320222C222022293E3C696628657175616C28486F6C
310
653A7465726D696E6174696F6E2C223022292C486F6C653A64657074682C2222293E4069014051E4090E836583938376838C815B83672032405173D3C535444503A444553433E203C535444503A5354443E40690E836583938376838C815B836720314050C3D3C535444503A444553433E40690240515AAABBA120
360
6A6
330
6A6
360
6A7
330
6A7
360
6A8
330
6A8
360
6A9
360
6AA
330
6A9
330
6AA
 94
        0
  0
ACAD_PROXY_OBJECT
  5
6AB
330
699
100
AcDbProxyObject
 90
      499
 91
      564
 95
       25
 70
     0
 93
       26
310
5DD02A80
340
0
 94
        0
  0
ACAD_PROXY_OBJECT
  5
6AC
330
699
100
AcDbProxyObject
 90
      499
 91
      565
 95
       25
 70
     0
 93
      250
310
5DD020000000000000A1000000000000002440408F0F9023C3E409A0DCFFFF80
340
68B
340
692
340
693
340
68C
340
68D
340
68E
340
68F
340
690
340
691
340
0
 94
        0
  0
ACAD_PROXY_OBJECT
  5
6AD
330
699
100
AcDbProxyObject
 90
      499
 91
      584
 95
       25
 70
     0
 93
    13889
310
5DD1D003FFFFFFFD030300030CCCCCCCCCCCC250200800030C01030300030CCCCCCCCCCCC250200800030C00050C8DC0955782CC838A83588367014ED1D15395149050D3CB1294138B0C0B23702555E0B320E2A0D620D9CB11D15395149055160B095CCB0A11D1539354D1C819D95B991A5B5E880CCC0A78000C0000000000
310
00000000000000000000010CCCCCCCCCCCC250200800030C010CCCCCCCCCCCC250200800030C020143CF4F111959985D5B1D151A5D1B194F8050A8C8A8365815B8375838B014E51D15395149050D3CB1294138B0C0B2322A0D96056E0DD60E2CB11D15395149055160B095CCB0A11D1539354D1C819D95B991A5B5E880CCC4
310
A78000C000000000000000000000000000000010CCCCCCCCCCCC250200800030C010CCCCCCCCCCCC250200800030C020143CF4F111959985D5B1D151A5D1B194F90D44111409034110541D0C4350F4050E44D03449074510F000141232D24D7C053247454E545241434F2C4A504E2C302C8CB4935F2C47454E54524154582C
310
25732C2847454E4D53472067656E64696D7A20312900010104002214000281464500A608E8A9CA8A482869E5894A09C5860591914588E8A9CA8A482A8B0584AE658508E8A9C9AA68E40CECADCC8D2DAF4406452029E9E9E27B934B3B4B71F1E24A31427A91424A9A12620A7259427B934B3B4B7149624A9A12620A7259424B
310
A32B6949496111116111711149F1E24BA32B69F00808200111A000140560052F47454E545241434F2C4A504E2C302C582C47454E54524154582C25732C2847454E4D53472067656E64696D7A20332900010100002054000280AC80A5E8E8A9CA8A482869E5894A09C586058B2588E8A9CA8A482A8B0584AE658508E8A9C9AA
310
68E40CECADCC8D2DAF4406852000202000040E800050152014BD1D15395149050D3CB1294138B0C0B148B11D15395149055160B095CCB0A11D1539354D1C819D95B991A5B5E880D8A400040400008250000A0507A6029823A2A72A2920A1A79625282716181641E99623A2A72A2920AA2C1612B9961423A2A726A9A39033B2
310
B73234B6BD101B948000808180105A000140A0F4C053047454E545241434F2C4A504E2C302C83D32C47454E54524154582C25732C2847454E4D53472067656E64696D7A203829000101010020F400028248704B5F00A668E8A9CA8A482869E5894A09C58605921C12D7C588E8A9CA8A482A8B0584AE658508E8A9C9AA68E40
310
CECADCC8D2DAF440646052000200080043280005048B4B8A69014CD1D15395149050D3CB1294138B0C0B22D2E29A4B11D15395149055160B095CCB0A11D1539354D1C819D95B991A5B5E880C8C4A4000400100086D0000A09196926BE029923A2A72A2920A1A796252827161816465A49AF9623A2A72A2920AA2C1612B9961
310
423A2A726A9A39033B2B73234B6BD10189480A02620202080043E80005048D8096DA014CD1D15395149050D3CB1294138B0C0B236025B68B11D15395149055160B095CCB0A11D1539354D1C819D95B991A5B5E880C4D0A4000404140280D0000A190687072706CD06C5069D06B0029DA3A2A72A2920A1A7962528271618164
310
1A1C1C9C1B341B141A741AC1623A2A72A2920AA2C1612B9961423A2A726A9A39033B2B73234B6BD10189A94800080820050EA000143A322A0D0E0E4E0D9A0D8A0D3A0D60053D47454E545241434F2C4A504E2C302C8C8A8343839383668362834E83582C47454E54524154582C25732C2847454E4D53472067656E64696D7A
310
2031372900010105002274000281464500A628E8A9CA8A482869E5894A09C5860591914588E8A9CA8A482A8B0584AE658508E8A9C9AA68E40CECADCC8D2DAF440626C52000202080044A8000504909497CA014CD1D15395149050D3CB1294138B0C0B242525F28B11D15395149055160B095CCB0A11D1539354D1C819D95B9
310
91A5B5E880C4E4A400040418008A521E000000000000001CA040C00000000000034408080000000000006881010000000000000D102040000000000001A204080000000000003440818000000000000728103000000000000125020600000000004028A040000000000000034408000000000000004881000000000000000D
310
102000000000000001A204000000000000003440818000000000000508143C0000000000000039408180000000000006881030000000000000D102060000000000001A2040C00000000000034408180000000000006881030000000000000E5020600000000000024A040C0000000000805140800000000000000688100000
310
00000000009102000000000000001A2040000000000000034408180000000000006881030000000000000A10284220000000878000002020000008380000020400000081800000208000000828000002028900000000
340
0
340
0
340
0
340
0
340
689
340
689
 94
        0
  0
ACAD_PROXY_OBJECT
  5
3D2
330
3C8
100
AcDbProxyObject
 90
      499
 91
      563
 95
       25
 70
     0
 93
     2256
310
5DE0143A0D960E4E0DDA0E32056E0D9C80C40405013D3C696628657175616C28486F6C653A7461707065642C223022292C22252563222C486F6C653A6E6F6D696E616C2022202220696628657175616C28486F6C653A756E6974732C223122292C2278222C222D222920222022293E3C696628657175616C28486F6C653A74
310
61707065642C223022292C486F6C653A6469612C486F6C653A706974636864657363293E207B5C46414D4744543B787D203C696628657175616C28486F6C653A7465726D696E6174696F6E2C223022292C486F6C653A64657074682C228AD192CA22293E5C507B5C46414D4744543B767D2525633C486F6C653A6374646961
310
3E207B5C46414D4744543B787D203C486F6C653A637464657074683E
  0
ACAD_PROXY_OBJECT
  5
3D3
330
3C8
100
AcDbProxyObject
 90
      499
 91
      563
 95
       25
 70
     0
 93
     2192
310
5DE0143A0D960E4E0DDA0E32056E0D9C80C405FE3D3C696628657175616C28486F6C653A7461707065642C223022292C22252563222C486F6C653A6E6F6D696E616C2022202220696628657175616C28486F6C653A756E6974732C223122292C2278222C222D222920222022293E3C696628657175616C28486F6C653A7461
310
707065642C223022292C486F6C653A6469612C486F6C653A706974636864657363293E207B5C46414D4744543B787D203C696628657175616C28486F6C653A7465726D696E6174696F6E2C223022292C486F6C653A64657074682C228AD192CA22293E5C507B5C46414D4744543B777D2525633C486F6C653A63746469613E
310
2058203C486F6C653A6374616E676C653E252564
  0
ACAD_PROXY_OBJECT
  5
3D1
330
3C8
100
AcDbProxyObject
 90
      499
 91
      563
 95
       25
 70
     0
 93
     1816
310
5DE0143A0D960E4E0DDA0E32056E0D9C80C405CF3D3C696628657175616C28486F6C653A7461707065642C223022292C22252563222C486F6C653A6E6F6D696E616C2022202220696628657175616C28486F6C653A756E6974732C223122292C2278222C222D222920222022293E3C696628657175616C28486F6C653A7461
310
707065642C223022292C486F6C653A6469612C486F6C653A706974636864657363293E5C507B5C46414D4744543B787D203C696628657175616C28486F6C653A7465726D696E6174696F6E2C223022292C486F6C653A64657074682C228AD192CA22293E
  0
ACAD_PROXY_OBJECT
  5
3D0
330
3C8
100
AcDbProxyObject
 90
      499
 91
      563
 95
       25
 70
     0
 93
      344
310
5DE0143A0D960E4E0DDA0E32056E0D9C80C805173D3C535444503A444553433E203C535444503A5354443E
  0
ACAD_PROXY_OBJECT
  5
3CF
330
3C8
100
AcDbProxyObject
 90
      499
 91
      563
 95
       25
 70
     0
 93
      256
310
5DE0143A0D960E4E0DDA0E32056E0D9C80C4050C3D3C535444503A444553433E
  0
ACAD_PROXY_OBJECT
  5
6A6
330
6A5
100
AcDbProxyObject
 90
      499
 91
      563
 95
       25
 70
     0
 93
     1376
310
5DE0143A0D960E4E0DDA0E32056E0D9C80C405983D3C486F6C653A6469613E3C696628657175616C28486F6C653A7465726D696E6174696F6E2C223022292C2220905B82B320222C22208368838A838B22293E3C696628657175616C28486F6C653A7465726D696E6174696F6E2C223022292C486F6C653A64657074682C22
310
22293E2C203C486F6C653A63746469613E2082B482AE82E882CC905B82B3203C486F6C653A637464657074683E
  0
ACAD_PROXY_OBJECT
  5
6A7
330
6A5
100
AcDbProxyObject
 90
      499
 91
      563
 95
       25
 70
     0
 93
     2072
310
5DE0143A0D960E4E0DDA0E32056E0D9C80C405EF3D3C486F6C653A6374616E676C653E252564202525633C486F6C653A63746469613E208E4D8C8A2C203C696628657175616C28486F6C653A7461707065642C223022292C22252563222C486F6C653A6E6F6D696E616C202220782022293E3C696628657175616C28486F6C
310
653A7461707065642C223022292C486F6C653A6469612C486F6C653A706974636864657363293E203C696628657175616C28486F6C653A7465726D696E6174696F6E2C223022292C22905B82B320222C222022293E3C696628657175616C28486F6C653A7465726D696E6174696F6E2C223022292C486F6C653A6465707468
310
2C2222293E
  0
ACAD_PROXY_OBJECT
  5
6A8
330
6A5
100
AcDbProxyObject
 90
      499
 91
      563
 95
       25
 70
     0
 93
     1752
310
5DE0143A0D960E4E0DDA0E32056E0D9C80C405C73D3C696628657175616C28486F6C653A7461707065642C223022292C22252563222C486F6C653A6E6F6D696E616C202220782022293E3C696628657175616C28486F6C653A7461707065642C223022292C486F6C653A6469612C486F6C653A706974636864657363293E20
310
3C696628657175616C28486F6C653A7465726D696E6174696F6E2C223022292C22905B82B320222C222022293E3C696628657175616C28486F6C653A7465726D696E6174696F6E2C223022292C486F6C653A64657074682C2222293E
  0
ACAD_PROXY_OBJECT
  5
6A9
330
6A5
100
AcDbProxyObject
 90
      499
 91
      563
 95
       25
 70
     0
 93
      344
310
5DE0143A0D960E4E0DDA0E32056E0D9C80C805173D3C535444503A444553433E203C535444503A5354443E
  0
ACAD_PROXY_OBJECT
  5
6AA
330
6A5
100
AcDbProxyObject
 90
      499
 91
      563
 95
       25
 70
     0
 93
      256
310
5DE0143A0D960E4E0DDA0E32056E0D9C80C4050C3D3C535444503A444553433E
  0
ENDSEC
  0
EOF
