  0
SECTION
  2
HEADER
  9
$ACADVER
  1
AC1015
  9
$ACADMAINTVER
 70
     6
  9
$DWGCODEPAGE
  3
ANSI_932
  9
$INSBASE
 10
0.0
 20
0.0
 30
0.0
  9
$EXTMIN
 10
-64.71418043660731
 20
-72.90381039739123
 30
-0.0015258207003583
  9
$EXTMAX
 10
159.7792580044586
 20
77.51668770086928
 30
0.0000000349246037
  9
$LIMMIN
 10
0.0
 20
0.0
  9
$LIMMAX
 10
400.0
 20
273.0
  9
$ORTHOMODE
 70
     0
  9
$REGENMODE
 70
     1
  9
$FILLMODE
 70
     1
  9
$QTEXTMODE
 70
     0
  9
$MIRRTEXT
 70
     1
  9
$LTSCALE
 40
1.0
  9
$ATTMODE
 70
     1
  9
$TEXTSIZE
 40
3.0
  9
$TRACEWID
 40
0.5
  9
$TEXTSTYLE
  7
STANDARD
  9
$CLAYER
  8
0
  9
$CELTYPE
  6
ByLayer
  9
$CECOLOR
 62
   256
  9
$CELTSCALE
 40
1.0
  9
$DISPSILH
 70
     0
  9
$DIMSCALE
 40
1.0
  9
$DIMASZ
 40
3.0
  9
$DIMEXO
 40
1.0
  9
$DIMDLI
 40
5.0
  9
$DIMRND
 40
0.0
  9
$DIMDLE
 40
3.0
  9
$DIMEXE
 40
2.0
  9
$DIMTP
 40
0.0
  9
$DIMTM
 40
0.0
  9
$DIMTXT
 40
5.0
  9
$DIMCEN
 40
2.0
  9
$DIMTSZ
 40
0.0
  9
$DIMTOL
 70
     0
  9
$DIMLIM
 70
     0
  9
$DIMTIH
 70
     0
  9
$DIMTOH
 70
     0
  9
$DIMSE1
 70
     0
  9
$DIMSE2
 70
     0
  9
$DIMTAD
 70
     1
  9
$DIMZIN
 70
     8
  9
$DIMBLK
  1

  9
$DIMASO
 70
     1
  9
$DIMSHO
 70
     0
  9
$DIMPOST
  1

  9
$DIMAPOST
  1

  9
$DIMALT
 70
     0
  9
$DIMALTD
 70
     4
  9
$DIMALTF
 40
25.4
  9
$DIMLFAC
 40
1.0
  9
$DIMTOFL
 70
     1
  9
$DIMTVP
 40
1.0
  9
$DIMTIX
 70
     0
  9
$DIMSOXD
 70
     0
  9
$DIMSAH
 70
     0
  9
$DIMBLK1
  1

  9
$DIMBLK2
  1

  9
$DIMSTYLE
  2
Standard
  9
$DIMCLRD
 70
     0
  9
$DIMCLRE
 70
     0
  9
$DIMCLRT
 70
     0
  9
$DIMTFAC
 40
1.0
  9
$DIMGAP
 40
0.09
  9
$DIMJUST
 70
     0
  9
$DIMSD1
 70
     0
  9
$DIMSD2
 70
     0
  9
$DIMTOLJ
 70
     1
  9
$DIMTZIN
 70
     0
  9
$DIMALTZ
 70
     0
  9
$DIMALTTZ
 70
     0
  9
$DIMUPT
 70
     0
  9
$DIMDEC
 70
     0
  9
$DIMTDEC
 70
     4
  9
$DIMALTU
 70
     2
  9
$DIMALTTD
 70
     2
  9
$DIMTXSTY
  7
STANDARD
  9
$DIMAUNIT
 70
     0
  9
$DIMADEC
 70
     0
  9
$DIMALTRND
 40
0.0
  9
$DIMAZIN
 70
     0
  9
$DIMDSEP
 70
    46
  9
$DIMATFIT
 70
     3
  9
$DIMFRAC
 70
     0
  9
$DIMLDRBLK
  1

  9
$DIMLUNIT
 70
     2
  9
$DIMLWD
 70
    -2
  9
$DIMLWE
 70
    -2
  9
$DIMTMOVE
 70
     0
  9
$LUNITS
 70
     2
  9
$LUPREC
 70
     4
  9
$SKETCHINC
 40
1.0
  9
$FILLETRAD
 40
0.0
  9
$AUNITS
 70
     0
  9
$AUPREC
 70
     0
  9
$MENU
  1
acad
  9
$ELEVATION
 40
0.0
  9
$PELEVATION
 40
0.0
  9
$THICKNESS
 40
0.0
  9
$LIMCHECK
 70
     0
  9
$CHAMFERA
 40
0.0
  9
$CHAMFERB
 40
0.0
  9
$CHAMFERC
 40
0.0
  9
$CHAMFERD
 40
0.0
  9
$SKPOLY
 70
     0
  9
$TDCREATE
 40
2453969.586782408
  9
$TDUCREATE
 40
2453969.211782408
  9
$TDUPDATE
 40
2455441.410333113
  9
$TDUUPDATE
 40
2455441.035333113
  9
$TDINDWG
 40
0.0241384606
  9
$TDUSRTIMER
 40
0.0241379167
  9
$USRTIMER
 70
     1
  9
$ANGBASE
 50
0.0
  9
$ANGDIR
 70
     0
  9
$PDMODE
 70
     0
  9
$PDSIZE
 40
0.0
  9
$PLINEWID
 40
0.0
  9
$SPLFRAME
 70
     0
  9
$SPLINETYPE
 70
     6
  9
$SPLINESEGS
 70
    16
  9
$HANDSEED
  5
77C
  9
$SURFTAB1
 70
     6
  9
$SURFTAB2
 70
     6
  9
$SURFTYPE
 70
     6
  9
$SURFU
 70
     6
  9
$SURFV
 70
     6
  9
$UCSBASE
  2

  9
$UCSNAME
  2

  9
$UCSORG
 10
0.0
 20
0.0
 30
0.0
  9
$UCSXDIR
 10
1.0
 20
0.0
 30
0.0
  9
$UCSYDIR
 10
0.0
 20
1.0
 30
0.0
  9
$UCSORTHOREF
  2

  9
$UCSORTHOVIEW
 70
     0
  9
$UCSORGTOP
 10
0.0
 20
0.0
 30
0.0
  9
$UCSORGBOTTOM
 10
0.0
 20
0.0
 30
0.0
  9
$UCSORGLEFT
 10
0.0
 20
0.0
 30
0.0
  9
$UCSORGRIGHT
 10
0.0
 20
0.0
 30
0.0
  9
$UCSORGFRONT
 10
0.0
 20
0.0
 30
0.0
  9
$UCSORGBACK
 10
0.0
 20
0.0
 30
0.0
  9
$PUCSBASE
  2

  9
$PUCSNAME
  2

  9
$PUCSORG
 10
0.0
 20
0.0
 30
0.0
  9
$PUCSXDIR
 10
1.0
 20
0.0
 30
0.0
  9
$PUCSYDIR
 10
0.0
 20
1.0
 30
0.0
  9
$PUCSORTHOREF
  2

  9
$PUCSORTHOVIEW
 70
     0
  9
$PUCSORGTOP
 10
0.0
 20
0.0
 30
0.0
  9
$PUCSORGBOTTOM
 10
0.0
 20
0.0
 30
0.0
  9
$PUCSORGLEFT
 10
0.0
 20
0.0
 30
0.0
  9
$PUCSORGRIGHT
 10
0.0
 20
0.0
 30
0.0
  9
$PUCSORGFRONT
 10
0.0
 20
0.0
 30
0.0
  9
$PUCSORGBACK
 10
0.0
 20
0.0
 30
0.0
  9
$USERI1
 70
     0
  9
$USERI2
 70
     0
  9
$USERI3
 70
     0
  9
$USERI4
 70
     0
  9
$USERI5
 70
     0
  9
$USERR1
 40
0.0
  9
$USERR2
 40
0.0
  9
$USERR3
 40
0.0
  9
$USERR4
 40
0.0
  9
$USERR5
 40
0.0
  9
$WORLDVIEW
 70
     1
  9
$SHADEDGE
 70
     3
  9
$SHADEDIF
 70
    70
  9
$TILEMODE
 70
     1
  9
$MAXACTVP
 70
    64
  9
$PINSBASE
 10
0.0
 20
0.0
 30
0.0
  9
$PLIMCHECK
 70
     0
  9
$PEXTMIN
 10
1.000000000000000E+20
 20
1.000000000000000E+20
 30
1.000000000000000E+20
  9
$PEXTMAX
 10
-1.000000000000000E+20
 20
-1.000000000000000E+20
 30
-1.000000000000000E+20
  9
$PLIMMIN
 10
0.0
 20
0.0
  9
$PLIMMAX
 10
12.0
 20
9.0
  9
$UNITMODE
 70
     0
  9
$VISRETAIN
 70
     1
  9
$PLINEGEN
 70
     0
  9
$PSLTSCALE
 70
     1
  9
$TREEDEPTH
 70
  3020
  9
$CMLSTYLE
  2
Standard
  9
$CMLJUST
 70
     0
  9
$CMLSCALE
 40
1.0
  9
$PROXYGRAPHICS
 70
     1
  9
$MEASUREMENT
 70
     0
  9
$CELWEIGHT
370
    -1
  9
$ENDCAPS
280
     0
  9
$JOINSTYLE
280
     0
  9
$LWDISPLAY
290
     0
  9
$INSUNITS
 70
     0
  9
$HYPERLINKBASE
  1

  9
$STYLESHEET
  1
sei_cad.ctb
  9
$XEDIT
290
     1
  9
$CEPSNTYPE
380
     0
  9
$PSTYLEMODE
290
     1
  9
$FINGERPRINTGUID
  2
{798920FB-AED2-4CD0-B4B3-ED333E5EBA17}
  9
$VERSIONGUID
  2
{BA2B47F6-442F-487A-A14D-175AC6E30045}
  9
$EXTNAMES
290
     1
  9
$PSVPSCALE
 40
0.0
  9
$OLESTARTUP
290
     0
  0
ENDSEC
  0
SECTION
  2
CLASSES
  0
CLASS
  1
ACDBDICTIONARYWDFLT
  2
AcDbDictionaryWithDefault
  3
ObjectDBX Classes
 90
        0
280
     0
281
     0
  0
CLASS
  1
TABLESTYLE
  2
AcDbTableStyle
  3
ObjectDBX Classes
 90
     2047
280
     0
281
     0
  0
CLASS
  1
ACME_DOCUMENT
  2
AcMeDbDoc
  3
AcMeServices
 90
        0
280
     1
281
     0
  0
CLASS
  1
ACMESCOPE
  2
AcMeScope
  3
AcMeServices
 90
        0
280
     1
281
     0
  0
CLASS
  1
ACMECOMMANDHISTORY
  2
AcMeCommandHistory
  3
AcMeServices
 90
        0
280
     1
281
     0
  0
CLASS
  1
ACIMSYSVARMAN
  2
AcImSysVarManager
  3
AcMeServices
 90
        0
280
     1
281
     0
  0
CLASS
  1
ACIMINTSYSVAR
  2
AcImIntSysVar
  3
AcMeServices
 90
        0
280
     1
281
     0
  0
CLASS
  1
ACMEDRAWINGMAN
  2
AcMeDrawingMan
  3
AcMeServices
 90
        0
280
     1
281
     0
  0
CLASS
  1
ACMEVIEW
  2
AcMeView
  3
AcMeServices
 90
        0
280
     1
281
     0
  0
CLASS
  1
ACDBENTITYCACHE
  2
AcMeEntityCache
  3
AcMeServices
 90
        0
280
     1
281
     0
  0
CLASS
  1
GSMANAGER
  2
AcMeGSManager
  3
AcMeServices
 90
        0
280
     1
281
     0
  0
CLASS
  1
AMDTINTERNALREACTOR
  2
AmdtInternalReactor
  3
AcMeServices
 90
        0
280
     1
281
     0
  0
CLASS
  1
ACMESTATEMGR
  2
AcMeStateMgr
  3
AcMeServices
 90
        0
280
     1
281
     0
  0
CLASS
  1
ACGREFMASTER
  2
AcGrefMaster
  3
AcAttribServices
 90
        0
280
     1
281
     0
  0
CLASS
  1
AM_DRAWING_MGR
  2
AcDmDwgMgr
  3
AcMechDwgViewMgmt
 90
        0
280
     1
281
     0
  0
CLASS
  1
AM_DWG_DOCUMENT
  2
AcDmDwgDocument
  3
AcMechDwgViewMgmt
 90
        0
280
     1
281
     0
  0
CLASS
  1
AM_DWG_SHEET
  2
AcDmSheet
  3
AcMechDwgViewMgmt
 90
        0
280
     1
281
     0
  0
CLASS
  1
AM_VIEWDIMPARMAP
  2
AcDmViewDimParMap
  3
AcMechDwgViewMgmt
 90
        0
280
     1
281
     0
  0
CLASS
  1
ACIMREALSYSVAR
  2
AcImRealSysVar
  3
AcMeServices
 90
        0
280
     1
281
     0
  0
CLASS
  1
AM_DWGMGR_NAME
  2
AcDmDwgMgrName
  3
AcMechDwgViewMgmt
 90
        0
280
     1
281
     0
  0
CLASS
  1
ACME_DATABASE
  2
AcMeDbDatabase
  3
AcMeServices
 90
        0
280
     1
281
     0
  0
CLASS
  1
ACRFINSADJUSTERMGR
  2
AcRfInsAdjusterMgr
  3
AcMeServices
 90
        0
280
     1
281
     0
  0
CLASS
  1
ACGREFACADMASTER
  2
AcGrefacadMaster
  3
AcGrefServices
 90
        0
280
     1
281
     0
  0
CLASS
  1
AMDTMENUSTATEMGR
  2
AmdtMenuStateMgr
  3
McadcomServices
 90
        0
280
     1
281
     0
  0
CLASS
  1
AMDTMCOMMENUSTATE
  2
AmdtMcomMenuState
  3
McadcomServices
 90
        0
280
     1
281
     0
  0
CLASS
  1
AMIMASTER
  2
AmiMaster
  3
AmiServices
 90
        0
280
     1
281
     0
  0
CLASS
  1
AMGSETTINGSOBJ
  2
AmgSettingsObj
  3
"AcadM|Product Description: AutoCAD Mechanical 2000|Company: Autodesk"
 90
        0
280
     1
281
     0
  0
CLASS
  1
MAPIAMMOUDLE
  2
MApiAmModule
  3
MApiAmServices
 90
        0
280
     1
281
     0
  0
CLASS
  1
AMDTADMENUSTATE
  2
AmdtAdMenuState
  3
DesignerServices
 90
        0
280
     1
281
     0
  0
CLASS
  1
ADAPPL
  2
AcAdAppl
  3
DesignerServices
 90
        0
280
     1
281
     0
  0
CLASS
  1
DEPMGR
  2
AcAdDepMgr
  3
DesignerServices
 90
        0
280
     1
281
     0
  0
CLASS
  1
PARAMMGR
  2
AcAdParamMgr
  3
DesignerServices
 90
        0
280
     1
281
     0
  0
CLASS
  1
PARAMSCOPE
  2
AcAdParamScope
  3
DesignerServices
 90
        0
280
     1
281
     0
  0
CLASS
  1
NAMEDAPPL
  2
AcAdNamedAppl
  3
DesignerServices
 90
        0
280
     1
281
     0
  0
CLASS
  1
AMDTDMMENUSTATE
  2
AmdtDmMenuState
  3
AcMechDwgViewMgmt
 90
        0
280
     1
281
     0
  0
CLASS
  1
AMDTAMMENUSTATE
  2
AmdtAmMenuState
  3
DesignerAssemblies
 90
        0
280
     1
281
     0
  0
CLASS
  1
ACIMSTRSYSVAR
  2
AcImStrSysVar
  3
AcMeServices
 90
        0
280
     1
281
     0
  0
CLASS
  1
ACAMPROJECT
  2
AcAmProject
  3
DesignerAssemblies
 90
        0
280
     1
281
     0
  0
CLASS
  1
ACAMGRCOMPDEF
  2
AcAmGrCompDef
  3
DesignerAssemblies
 90
        0
280
     1
281
     0
  0
CLASS
  1
ACCMCONTEXT
  2
AcCmContext
  3
DesignerAssemblies
 90
        0
280
     1
281
     0
  0
CLASS
  1
ACAMCOMPDEF
  2
AcAmCompDef
  3
DesignerAssemblies
 90
        0
280
     1
281
     0
  0
CLASS
  1
ACAMCOMPDEFMGR
  2
AcAmCompDefMgr
  3
DesignerAssemblies
 90
        0
280
     1
281
     0
  0
CLASS
  1
AMCONTEXTMGR
  2
AcAmContextMgr
  3
DesignerAssemblies
 90
        0
280
     1
281
     0
  0
CLASS
  1
ACAMCONTEXTMODELER
  2
AcAmContextModeler
  3
DesignerAssemblies
 90
        0
280
     1
281
     0
  0
CLASS
  1
ACMDATADICTIONARY
  2
AcmDataDictionary
  3
"AcmSymBB|Product Description: AutoCAD Mechanical 2004 DX|Company: Autodesk"
 90
        0
280
     1
281
     0
  0
CLASS
  1
CATALOGSTATE
  2
AcAmCatalogState
  3
DesignerAssemblies
 90
        0
280
     1
281
     0
  0
CLASS
  1
ACAMGRCOMPDEFSET
  2
AcAmGrCompDefSet
  3
DesignerAssemblies
 90
        0
280
     1
281
     0
  0
CLASS
  1
AMDTBROWSERDBTAB
  2
AmdtBrowserDbTab
  3
McadcomServices
 90
        0
280
     1
281
     0
  0
CLASS
  1
CBROWSERAPPOBJECT
  2
CBrowserAppObject
  3
McadcomServices
 90
        0
280
     1
281
     0
  0
CLASS
  1
DM_PLACEHOLDER
  2
AcDmSelsetPlaceholder
  3
AcMechDwgViewMgmt
 90
        0
280
     1
281
     0
  0
CLASS
  1
ACMSTANDARDANSI
  2
AcmStandardANSI
  3
"Amdt_StdImp|Product Description: AutoCAD Mechanical 2004 DX|Company: Autodesk"
 90
        0
280
     1
281
     0
  0
CLASS
  1
AMGOBJPROPCFG
  2
AmgObjPropCfg
  3
"AmgLay|Product Description: AutoCAD Mechanical 2000|Company: Autodesk"
 90
        1
280
     1
281
     0
  0
CLASS
  1
ACMSURFSTANDARDANSI
  2
AcmSurfTextStdANSI
  3
"Amdt_StdImp|Product Description: AutoCAD Mechanical 2004 DX|Company: Autodesk"
 90
        0
280
     1
281
     0
  0
CLASS
  1
ACMFCFSTANDARDANSI
  2
AcmFCFStdANSI
  3
"Amdt_StdImp|Product Description: AutoCAD Mechanical 2004 DX|Company: Autodesk"
 90
        0
280
     1
281
     0
  0
CLASS
  1
ACMWELDSTANDARDANSI
  2
AcmWeldingStdANSI
  3
"Amdt_StdImp|Product Description: AutoCAD Mechanical 2004 DX|Company: Autodesk"
 90
        0
280
     1
281
     0
  0
CLASS
  1
ACMIDSTANDARDANSI
  2
AcmIdStdANSI
  3
"Amdt_StdImp|Product Description: AutoCAD Mechanical 2004 DX|Company: Autodesk"
 90
        0
280
     1
281
     0
  0
CLASS
  1
ACMDATUMSTANDARDANSI
  2
AcmDatumStdANSI
  3
"Amdt_StdImp|Product Description: AutoCAD Mechanical 2004 DX|Company: Autodesk"
 90
        0
280
     1
281
     0
  0
CLASS
  1
ACMBOMSTANDARDANSI
  2
AcmBOMStdANSI
  3
"Amdt_StdImp|Product Description: AutoCAD Mechanical 2004 DX|Company: Autodesk"
 90
        0
280
     1
281
     0
  0
CLASS
  1
ACMDETAILSTANDARDANSI
  2
AmdtDetailSymStdANSI
  3
"Amdt_StdImp|Product Description: AutoCAD Mechanical 2004 DX|Company: Autodesk"
 90
        0
280
     1
281
     0
  0
CLASS
  1
ACMSECTIONSTANDARDANSI
  2
AmdtSectionSymStdANSI
  3
"Amdt_StdImp|Product Description: AutoCAD Mechanical 2004 DX|Company: Autodesk"
 90
        0
280
     1
281
     0
  0
CLASS
  1
ACMCENTERLINESTANDARDANSI
  2
AmdtCenterLineStdANSI
  3
"Amdt_StdImp|Product Description: AutoCAD Mechanical 2004 DX|Company: Autodesk"
 90
        0
280
     1
281
     0
  0
CLASS
  1
ACMTHREADLINESTANDARDANSI
  2
AmdtThreadLineStdANSI
  3
"Amdt_StdImp|Product Description: AutoCAD Mechanical 2004 DX|Company: Autodesk"
 90
        0
280
     1
281
     0
  0
CLASS
  1
ACMNOTESTANDARDANSI
  2
AmdtNoteStdANSI
  3
"Amdt_StdImp|Product Description: AutoCAD Mechanical 2004 DX|Company: Autodesk"
 90
        0
280
     1
281
     0
  0
CLASS
  1
AMDTNOTETEMPLATEDB
  2
AmdtNoteTemplateDB
  3
AMDT_STDIMP_MODULE_NAME
 90
        0
280
     1
281
     0
  0
CLASS
  1
ACAMGLAYSTD
  2
AcAmgLayStd
  3
"AcAmgLayStd|Product Description: AutoCAD Mechanical 2000|Company: Autodesk"
 90
        0
280
     1
281
     0
  0
CLASS
  1
ACAMGDIMSTD
  2
AcAmgDimStd
  3
"AcAmgDimStd|Product Description: AutoCAD Mechanical 2000|Company: Autodesk"
 90
        0
280
     1
281
     0
  0
CLASS
  1
ACAMGHOLECHARTSTDANSI
  2
AcAmgHoleChartStdANSI
  3
ACMSYMBB_MODULE_NAME
 90
        0
280
     1
281
     0
  0
CLASS
  1
ACAMGTITLESTD
  2
AcAmgTitleStd
  3
"TITLEAPP"
 90
        0
280
     1
281
     0
  0
CLASS
  1
ACAMGFILTERDAT
  2
AcAmgFilterDat
  3
"AcadM|Product Description: AutoCAD Mechanical 2000|Company: Autodesk"
 90
        0
280
     1
281
     0
  0
CLASS
  1
DICTIONARYVAR
  2
AcDbDictionaryVar
  3
ObjectDBX Classes
 90
        0
280
     0
281
     0
  0
CLASS
  1
AMDTNOTE
  2
AmdtNote
  3
"AcmSymBB|Product Description: AutoCAD Mechanical 2004 DX|Company: Autodesk"
 90
     1023
280
     1
281
     1
  0
CLASS
  1
ACMSTANDARDJIS
  2
AcmStandardJIS
  3
"Amdt_StdImp|Product Description: AutoCAD Mechanical 2004 DX|Company: Autodesk"
 90
        0
280
     1
281
     0
  0
CLASS
  1
ACMSURFSTANDARDJIS
  2
AcmSurfTextStdJIS
  3
"Amdt_StdImp|Product Description: AutoCAD Mechanical 2004 DX|Company: Autodesk"
 90
        0
280
     1
281
     0
  0
CLASS
  1
ACMFCFSTANDARDJIS
  2
AcmFCFStdJIS
  3
"Amdt_StdImp|Product Description: AutoCAD Mechanical 2004 DX|Company: Autodesk"
 90
        0
280
     1
281
     0
  0
CLASS
  1
ACMWELDSTANDARDJIS
  2
AcmWeldingStdJIS
  3
"Amdt_StdImp|Product Description: AutoCAD Mechanical 2004 DX|Company: Autodesk"
 90
        0
280
     1
281
     0
  0
CLASS
  1
ACMIDSTANDARDJIS
  2
AcmIdStdJIS
  3
"Amdt_StdImp|Product Description: AutoCAD Mechanical 2004 DX|Company: Autodesk"
 90
        0
280
     1
281
     0
  0
CLASS
  1
ACMDATUMSTANDARDJIS
  2
AcmDatumStdJIS
  3
"Amdt_StdImp|Product Description: AutoCAD Mechanical 2004 DX|Company: Autodesk"
 90
        0
280
     1
281
     0
  0
CLASS
  1
ACMBOMSTANDARDJIS
  2
AcmBOMStdJIS
  3
"Amdt_StdImp|Product Description: AutoCAD Mechanical 2004 DX|Company: Autodesk"
 90
        0
280
     1
281
     0
  0
CLASS
  1
ACMDETAILSTANDARDJIS
  2
AmdtDetailSymStdJIS
  3
"Amdt_StdImp|Product Description: AutoCAD Mechanical 2004 DX|Company: Autodesk"
 90
        0
280
     1
281
     0
  0
CLASS
  1
ACMSECTIONSTANDARDJIS
  2
AmdtSectionSymStdJIS
  3
"Amdt_StdImp|Product Description: AutoCAD Mechanical 2004 DX|Company: Autodesk"
 90
        0
280
     1
281
     0
  0
CLASS
  1
ACMCENTERLINESTANDARDJIS
  2
AmdtCenterLineStdJIS
  3
"Amdt_StdImp|Product Description: AutoCAD Mechanical 2004 DX|Company: Autodesk"
 90
        0
280
     1
281
     0
  0
CLASS
  1
ACMTHREADLINESTANDARDJIS
  2
AmdtThreadLineStdJIS
  3
"Amdt_StdImp|Product Description: AutoCAD Mechanical 2004 DX|Company: Autodesk"
 90
        0
280
     1
281
     0
  0
CLASS
  1
ACMNOTESTANDARDJIS
  2
AmdtNoteStdJIS
  3
"Amdt_StdImp|Product Description: AutoCAD Mechanical 2004 DX|Company: Autodesk"
 90
        0
280
     1
281
     0
  0
CLASS
  1
ACAMGHOLECHARTSTDJIS
  2
AcAmgHoleChartStdJIS
  3
ACMSYMBB_MODULE_NAME
 90
        0
280
     1
281
     0
  0
CLASS
  1
ACMDATAENTRYBLOCK
  2
AcmDataEntryBlock
  3
"AcmSymBB|Product Description: AutoCAD Mechanical 2004 DX|Company: Autodesk"
 90
        0
280
     1
281
     0
  0
CLASS
  1
ACDBPLACEHOLDER
  2
AcDbPlaceHolder
  3
ObjectDBX Classes
 90
        0
280
     0
281
     0
  0
CLASS
  1
LAYOUT
  2
AcDbLayout
  3
ObjectDBX Classes
 90
        0
280
     0
281
     0
  0
ENDSEC
  0
SECTION
  2
TABLES
  0
TABLE
  2
VPORT
  5
8
330
0
100
AcDbSymbolTable
 70
     3
  0
VPORT
  5
776
330
8
100
AcDbSymbolTableRecord
100
AcDbViewportTableRecord
  2
*Active
 70
     0
 10
0.0
 20
0.0
 11
1.0
 21
1.0
 12
47.53253878392566
 22
2.306438651739029
 13
0.0
 23
0.0
 14
0.5
 24
0.5
 15
0.0
 25
0.0
 16
0.0
 26
0.0
 36
1.0
 17
0.0
 27
0.0
 37
0.0
 40
164.4262320415652
 41
1.372924648786718
 42
50.0
 43
0.0
 44
0.0
 50
0.0
 51
0.0
 71
     0
 72
 10000
 73
     1
 74
     1
 75
     0
 76
     0
 77
     0
 78
     0
281
     0
 65
     0
110
0.0
120
0.0
130
0.0
111
1.0
121
0.0
131
0.0
112
0.0
122
1.0
132
0.0
 79
     0
146
0.0
  0
ENDTAB
  0
TABLE
  2
LTYPE
  5
5
330
0
100
AcDbSymbolTable
 70
    14
  0
LTYPE
  5
13
330
5
100
AcDbSymbolTableRecord
100
AcDbLinetypeTableRecord
  2
ByBlock
 70
     0
  3

 72
    65
 73
     0
 40
0.0
  0
LTYPE
  5
14
330
5
100
AcDbSymbolTableRecord
100
AcDbLinetypeTableRecord
  2
ByLayer
 70
     0
  3

 72
    65
 73
     0
 40
0.0
  0
LTYPE
  5
15
330
5
100
AcDbSymbolTableRecord
100
AcDbLinetypeTableRecord
  2
CONTINUOUS
 70
     0
  3
solid line
 72
    65
 73
     0
 40
0.0
  0
LTYPE
  5
27
330
5
100
AcDbSymbolTableRecord
100
AcDbLinetypeTableRecord
  2
DASHED
 70
     0
  3
-- -- -- -- -- -- -- -- -- -- 
 72
    65
 73
     2
 40
3.0
 49
2.0
 74
     0
 49
-1.0
 74
     0
  0
LTYPE
  5
28
330
5
100
AcDbSymbolTableRecord
100
AcDbLinetypeTableRecord
  2
CENTER
 70
     0
  3
--- - --- - --- - --- - --- - 
 72
    65
 73
     4
 40
6.0
 49
3.0
 74
     0
 49
-1.0
 74
     0
 49
1.0
 74
     0
 49
-1.0
 74
     0
  0
LTYPE
  5
29
330
5
100
AcDbSymbolTableRecord
100
AcDbLinetypeTableRecord
  2
PHANTOM
 70
     0
  3
----- - - ----- - - ----- - - 
 72
    65
 73
     6
 40
8.0
 49
3.0
 74
     0
 49
-1.0
 74
     0
 49
1.0
 74
     0
 49
-1.0
 74
     0
 49
1.0
 74
     0
 49
-1.0
 74
     0
  0
LTYPE
  5
349
330
5
100
AcDbSymbolTableRecord
100
AcDbLinetypeTableRecord
  2
HIDDEN
 70
     0
  3
Hidden __ __ __ __ __ __ __ __ __ __ __ __ __ _
 72
    65
 73
     2
 40
0.375
 49
0.25
 74
     0
 49
-0.125
 74
     0
  0
LTYPE
  5
34A
330
5
100
AcDbSymbolTableRecord
100
AcDbLinetypeTableRecord
  2
PHANTOM2
 70
     0
  3
Phantom (.5x) ___ _ _ ___ _ _ ___ _ _ ___ _ _
 72
    65
 73
     6
 40
1.25
 49
0.625
 74
     0
 49
-0.125
 74
     0
 49
0.125
 74
     0
 49
-0.125
 74
     0
 49
0.125
 74
     0
 49
-0.125
 74
     0
  0
LTYPE
  5
385
330
5
100
AcDbSymbolTableRecord
100
AcDbLinetypeTableRecord
  2
Amconstr
 70
     0
  3
_______________________
 72
    65
 73
     2
 40
9999.0
 49
9999.0
 74
     0
 49
0.0
 74
     0
  0
LTYPE
  5
38B
330
5
100
AcDbSymbolTableRecord
100
AcDbLinetypeTableRecord
  2
CENTER2
 70
     0
  3
Center (.5x) ___ _ ___ _ ___ _ ___ _ ___ _ ___
 72
    65
 73
     4
 40
1.125
 49
0.75
 74
     0
 49
-0.125
 74
     0
 49
0.125
 74
     0
 49
-0.125
 74
     0
  0
LTYPE
  5
38C
330
5
100
AcDbSymbolTableRecord
100
AcDbLinetypeTableRecord
  2
HIDDEN2
 70
     0
  3
Hidden (.5x) _ _ _ _ _ _ _ _ _ _ _ _ _ _ _ _ _
 72
    65
 73
     2
 40
0.1875
 49
0.125
 74
     0
 49
-0.0625
 74
     0
  0
LTYPE
  5
38D
330
5
100
AcDbSymbolTableRecord
100
AcDbLinetypeTableRecord
  2
Amzigzag2
 70
     0
  3
/\/-/\/-/\/-/\/-/\/-/\/
 72
    65
 73
     2
 40
0.4401
 49
0.0001
 74
     4
 75
   135
340
389
 46
0.0016
 50
0.0
 44
0.0
 45
0.0
 49
-0.44
 74
     0
  0
LTYPE
  5
39B
330
5
100
AcDbSymbolTableRecord
100
AcDbLinetypeTableRecord
  2
ACANSTGB
 70
     0
  3
__ . . __ . .
 72
    65
 73
     6
 40
0.35433070866
 49
0.15748031496
 74
     0
 49
-0.03937007874
 74
     0
 49
0.03937007874
 74
     0
 49
-0.03937007874
 74
     0
 49
0.03937007874
 74
     0
 49
-0.03937007874
 74
     0
  0
LTYPE
  5
39C
330
5
100
AcDbSymbolTableRecord
100
AcDbLinetypeTableRecord
  2
ACANSTGL
 70
     0
  3
_ _ _ _ _
 72
    65
 73
     2
 40
0.11811023622
 49
0.07874015748
 74
     0
 49
-0.03937007874
 74
     0
  0
LTYPE
  5
4F2
330
5
100
AcDbSymbolTableRecord
100
AcDbLinetypeTableRecord
  2
ACJISTGB
 70
     0
  3
__ . . __ . .
 72
    65
 73
     6
 40
9.0
 49
4.0
 74
     0
 49
-1.0
 74
     0
 49
1.0
 74
     0
 49
-1.0
 74
     0
 49
1.0
 74
     0
 49
-1.0
 74
     0
  0
LTYPE
  5
4F3
330
5
100
AcDbSymbolTableRecord
100
AcDbLinetypeTableRecord
  2
ACJISTGL
 70
     0
  3
_ _ _ _ _
 72
    65
 73
     2
 40
3.0
 49
2.0
 74
     0
 49
-1.0
 74
     0
  0
ENDTAB
  0
TABLE
  2
LAYER
  5
2
102
{ACAD_XDICTIONARY
360
501
102
}
330
0
100
AcDbSymbolTable
 70
     7
  0
LAYER
  5
10
330
2
100
AcDbSymbolTableRecord
100
AcDbLayerTableRecord
  2
0
 70
     0
 62
     7
  6
CONTINUOUS
370
    -3
390
F
  0
LAYER
  5
2A
330
2
100
AcDbSymbolTableRecord
100
AcDbLayerTableRecord
  2
1
 70
     0
 62
     7
  6
CONTINUOUS
370
    -3
390
F
  0
LAYER
  5
2B
330
2
100
AcDbSymbolTableRecord
100
AcDbLayerTableRecord
  2
2
 70
     0
 62
     7
  6
CONTINUOUS
370
    -3
390
F
  0
LAYER
  5
2D
330
2
100
AcDbSymbolTableRecord
100
AcDbLayerTableRecord
  2
6
 70
     0
 62
     7
  6
CONTINUOUS
370
    -3
390
F
  0
LAYER
  5
31
330
2
100
AcDbSymbolTableRecord
100
AcDbLayerTableRecord
  2
DEFPOINTS
 70
     0
 62
    -7
  6
CONTINUOUS
290
     0
370
    -3
390
F
  0
LAYER
  5
403
330
2
100
AcDbSymbolTableRecord
100
AcDbLayerTableRecord
  2
AM_5
 70
     0
 62
     3
  6
CONTINUOUS
370
    15
390
F
  0
LAYER
  5
4F5
330
2
100
AcDbSymbolTableRecord
100
AcDbLayerTableRecord
  2
AM_6
 70
     0
 62
     2
  6
CONTINUOUS
370
    30
390
F
  0
ENDTAB
  0
TABLE
  2
STYLE
  5
3
330
0
100
AcDbSymbolTable
 70
     6
  0
STYLE
  5
11
330
3
100
AcDbSymbolTableRecord
100
AcDbTextStyleTableRecord
  2
STANDARD
 70
     0
 40
0.0
 41
1.0
 50
0.0
 71
     0
 42
3.0
  3
txt
  4

  0
STYLE
  5
389
330
3
100
AcDbSymbolTableRecord
100
AcDbTextStyleTableRecord
  2

 70
     1
 40
0.0
 41
1.0
 50
0.0
 71
     0
 42
3.0
  3
ltypeshp.shx
  4

  0
STYLE
  5
38E
330
3
100
AcDbSymbolTableRecord
100
AcDbTextStyleTableRecord
  2
ACANSTS
 70
     0
 40
1.0
 41
1.0
 50
0.0
 71
     0
 42
3.0
  3
romans.shx
  4
extfont.shx
  0
STYLE
  5
39A
330
3
100
AcDbSymbolTableRecord
100
AcDbTextStyleTableRecord
  2
ACANSGDT
 70
     0
 40
0.0
 41
1.0
 50
0.0
 71
     0
 42
3.0
  3
amgdtans.shx
  4

  0
STYLE
  5
4F6
330
3
100
AcDbSymbolTableRecord
100
AcDbTextStyleTableRecord
  2
ACJISTS
 70
     0
 40
1.0
 41
1.0
 50
0.0
 71
     0
 42
2.5
  3
isocp.shx
  4
bigfont.shx
  0
STYLE
  5
4F7
330
3
100
AcDbSymbolTableRecord
100
AcDbTextStyleTableRecord
  2
ACJISGDT
 70
     0
 40
0.0
 41
1.0
 50
0.0
 71
     0
 42
2.5
  3
amgdt.shx
  4

  0
ENDTAB
  0
TABLE
  2
VIEW
  5
6
330
0
100
AcDbSymbolTable
 70
     0
  0
ENDTAB
  0
TABLE
  2
UCS
  5
7
330
0
100
AcDbSymbolTable
 70
     0
  0
ENDTAB
  0
TABLE
  2
APPID
  5
9
330
0
100
AcDbSymbolTable
 70
     9
  0
APPID
  5
12
330
9
100
AcDbSymbolTableRecord
100
AcDbRegAppTableRecord
  2
ACAD
 70
     0
  0
APPID
  5
31C
330
9
100
AcDbSymbolTableRecord
100
AcDbRegAppTableRecord
  2
MCAD_NO_VIS
 70
     0
  0
APPID
  5
31D
330
9
100
AcDbSymbolTableRecord
100
AcDbRegAppTableRecord
  2
ACAD_TEMP_GRAPHIC
 70
     0
  0
APPID
  5
34C
330
9
100
AcDbSymbolTableRecord
100
AcDbRegAppTableRecord
  2
AD_DRAW
 70
     0
  0
APPID
  5
34F
330
9
100
AcDbSymbolTableRecord
100
AcDbRegAppTableRecord
  2
ACATTRIBSERVICES
 70
     0
  0
APPID
  5
371
330
9
100
AcDbSymbolTableRecord
100
AcDbRegAppTableRecord
  2
DESIGNERASSEMBLIES
 70
     0
  0
APPID
  5
377
330
9
100
AcDbSymbolTableRecord
100
AcDbRegAppTableRecord
  2
ACADM_DIM_EDIT
 70
     0
  0
APPID
  5
378
330
9
100
AcDbSymbolTableRecord
100
AcDbRegAppTableRecord
  2
AMDT_DM_ADJ
 70
     0
  0
APPID
  5
3BB
330
9
100
AcDbSymbolTableRecord
100
AcDbRegAppTableRecord
  2
ACAD_PSEXT
 70
     0
  0
ENDTAB
  0
TABLE
  2
DIMSTYLE
  5
A
330
0
100
AcDbSymbolTable
 70
    18
100
AcDbDimStyleTable
  0
DIMSTYLE
105
319
330
A
100
AcDbSymbolTableRecord
100
AcDbDimStyleTableRecord
  2
Standard
 70
     0
340
11
  0
DIMSTYLE
105
3A7
330
A
100
AcDbSymbolTableRecord
100
AcDbDimStyleTableRecord
  2
AM_ANSI
 70
     0
  4
mm
 41
0.1
 42
0.05
 43
0.5
 44
0.1
 47
0.1
 48
0.1
 78
     7
 79
     2
140
0.12
141
0.0
146
0.71
147
0.06
176
   256
177
   256
178
     2
274
     4
284
     7
340
11
371
    -1
372
    -1
  0
DIMSTYLE
105
3AA
330
A
100
AcDbSymbolTableRecord
100
AcDbDimStyleTableRecord
  2
AM_ANSI$7
 70
     0
  4
mm
 41
0.1
 42
0.05
 43
0.5
 44
0.1
 47
0.1
 48
0.1
 78
     7
 79
     2
140
0.24
141
0.0
146
0.71
147
0.06
176
   256
177
   256
178
     2
274
     4
284
     7
340
11
371
    -1
372
    -1
  0
DIMSTYLE
105
3AB
330
A
100
AcDbSymbolTableRecord
100
AcDbDimStyleTableRecord
  2
AM_ANSI$SF
 70
     0
  4
mm
 41
0.1
 42
0.05
 43
0.5
 44
0.1
 47
0.1
 48
0.1
 75
     1
 76
     1
 78
     7
 79
     2
140
0.12
141
0.0
146
0.71
147
0.06
176
   256
177
   256
178
     2
274
     4
284
     7
340
11
371
    -1
372
    -1
  0
DIMSTYLE
105
3B0
330
A
100
AcDbSymbolTableRecord
100
AcDbDimStyleTableRecord
  2
AM_ANSI$SH
 70
     0
  4
mm
 41
0.1
 42
0.05
 43
0.5
 44
0.1
 47
0.1
 48
0.1
 75
     1
 76
     1
 78
     7
 79
     2
140
0.12
141
0.0
146
0.71
147
0.06
173
     1
176
   256
177
   256
178
     2
274
     4
284
     7
340
11
343
3AC
371
    -1
372
    -1
  0
DIMSTYLE
105
40F
102
{ACAD_REACTORS
330
413
330
43D
330
461
330
493
330
531
330
557
102
}
330
A
100
AcDbSymbolTableRecord
100
AcDbDimStyleTableRecord
  2
Standard$0
 70
     0
340
11
  0
DIMSTYLE
105
4AD
102
{ACAD_REACTORS
330
4AE
102
}
330
A
100
AcDbSymbolTableRecord
100
AcDbDimStyleTableRecord
  2
Standard$2
 70
     0
340
11
  0
DIMSTYLE
105
4F8
330
A
100
AcDbSymbolTableRecord
100
AcDbDimStyleTableRecord
  2
AM_JIS
 70
     0
  4
"
 41
2.5
 42
0.0
 43
10.0
 44
1.0
 47
0.1
 48
0.1000000001
 73
     0
 74
     0
 77
     3
 78
     1
 79
     2
140
3.8
141
0.0
143
0.0393701
146
0.71
147
1.5
172
     1
176
   256
177
   256
178
     2
179
     1
271
     2
272
     2
275
     1
283
     0
284
     8
340
11
341
4EC
342
4EC
371
    -1
372
    -1
  0
DIMSTYLE
105
4F9
330
A
100
AcDbSymbolTableRecord
100
AcDbDimStyleTableRecord
  2
AM_JIS$3
 70
     0
  4
"
 41
2.5
 42
0.0
 43
10.0
 44
1.0
 47
0.1
 48
0.1000000001
 73
     0
 77
     3
 78
     1
 79
     2
140
3.8
141
0.0
143
0.0393701
146
0.71
147
1.5
172
     1
176
   256
177
   256
178
     2
179
     1
271
     2
272
     2
275
     1
283
     0
284
     8
288
     1
289
     0
340
11
341
4EC
342
4EC
371
    -1
372
    -1
  0
DIMSTYLE
105
4FA
330
A
100
AcDbSymbolTableRecord
100
AcDbDimStyleTableRecord
  2
AM_JIS$4
 70
     0
  4
"
 41
2.5
 42
0.0
 43
10.0
 44
1.0
 47
0.1
 48
0.1000000001
 73
     0
 77
     3
 78
     1
 79
     2
140
3.8
141
0.0
143
0.0393701
146
0.71
147
1.5
172
     1
176
   256
177
   256
178
     2
179
     1
271
     2
272
     2
275
     1
283
     0
284
     8
288
     1
289
     0
340
11
341
4EC
342
4EC
371
    -1
372
    -1
  0
DIMSTYLE
105
4FB
330
A
100
AcDbSymbolTableRecord
100
AcDbDimStyleTableRecord
  2
AM_JIS$6
 70
     0
  4
"
 41
2.5
 42
0.0
 43
10.0
 44
1.0
 47
0.1
 48
0.1000000001
 73
     0
 74
     0
 78
     1
 79
     2
140
3.8
141
0.0
143
0.0393701
146
0.71
147
1.5
172
     1
176
   256
177
   256
178
     2
179
     1
271
     2
272
     2
275
     1
283
     0
284
     8
340
11
341
4EC
342
4EC
371
    -1
372
    -1
  0
DIMSTYLE
105
4FC
330
A
100
AcDbSymbolTableRecord
100
AcDbDimStyleTableRecord
  2
AM_JIS$7
 70
     0
  4
"
 41
2.5
 42
0.0
 43
10.0
 44
1.0
 47
0.1
 48
0.1000000001
 73
     0
 74
     0
 77
     3
 78
     1
 79
     2
140
5.0
141
0.0
143
0.0393701
146
0.71
147
1.5
172
     1
176
   256
177
   256
178
     2
179
     1
271
     2
272
     2
275
     1
283
     0
284
     8
340
11
341
4EC
342
4EC
371
    -1
372
    -1
  0
DIMSTYLE
105
4FD
330
A
100
AcDbSymbolTableRecord
100
AcDbDimStyleTableRecord
  2
AM_JIS$SF
 70
     0
  4
"
 41
2.5
 42
1.0
 43
10.0
 44
1.0
 47
0.1
 48
0.1
 73
     0
 74
     0
 75
     1
 76
     1
 77
     3
 78
     8
 79
     2
140
3.5
141
0.0
143
0.0393701
146
0.71
147
1.5
176
   256
177
   256
178
     2
271
     2
272
     3
274
     4
340
11
341
4EC
342
4EC
343
4EC
344
4EC
371
    -1
372
    -1
  0
DIMSTYLE
105
4FE
330
A
100
AcDbSymbolTableRecord
100
AcDbDimStyleTableRecord
  2
AM_JIS$SH
 70
     0
  4
"
 41
2.5
 42
1.0
 43
10.0
 44
1.0
 47
0.1
 48
0.1
 73
     0
 74
     0
 75
     1
 76
     1
 77
     3
 78
     8
 79
     2
140
3.5
141
0.0
143
0.0393701
144
2.0
146
0.71
147
1.5
173
     1
176
   256
177
   256
178
     2
271
     2
272
     3
274
     4
340
11
341
4EC
342
4EC
343
3AC
344
4EC
371
    -1
372
    -1
  0
DIMSTYLE
105
4FF
330
A
100
AcDbSymbolTableRecord
100
AcDbDimStyleTableRecord
  2
AM_JIS$0
 70
     0
  4
"
 41
2.5
 42
0.0
 43
10.0
 44
1.0
 47
0.1
 48
0.1000000001
 73
     0
 74
     0
 77
     3
 78
     1
 79
     2
140
3.8
141
0.0
143
0.0393701
146
0.71
147
1.5
172
     1
176
     3
177
     3
178
     2
271
     2
272
     2
275
     1
283
     0
284
     8
289
     0
340
11
341
4EC
342
4EC
371
    13
372
    13
  0
DIMSTYLE
105
500
330
A
100
AcDbSymbolTableRecord
100
AcDbDimStyleTableRecord
  2
AM_JIS$2
 70
     0
  4
"
 41
2.5
 42
0.0
 43
10.0
 44
1.0
 47
0.1
 48
0.1000000001
 73
     0
 74
     0
 77
     3
 78
     1
 79
     2
140
3.8
141
0.0
143
0.0393701
146
0.71
147
1.5
172
     1
176
     3
177
     3
178
     2
271
     2
272
     2
275
     1
283
     0
284
     8
289
     0
340
11
341
4EC
342
4EC
371
    13
372
    13
  0
DIMSTYLE
105
586
330
A
100
AcDbSymbolTableRecord
100
AcDbDimStyleTableRecord
  2
Standard$4
 70
     0
340
11
  0
DIMSTYLE
105
59A
102
{ACAD_REACTORS
330
59B
102
}
330
A
100
AcDbSymbolTableRecord
100
AcDbDimStyleTableRecord
  2
Standard$3
 70
     0
340
11
  0
ENDTAB
  0
TABLE
  2
BLOCK_RECORD
  5
1
330
0
100
AcDbSymbolTable
 70
    11
  0
BLOCK_RECORD
  5
22
330
1
100
AcDbSymbolTableRecord
100
AcDbBlockTableRecord
  2
*Model_Space
340
25
  0
BLOCK_RECORD
  5
1E
330
1
100
AcDbSymbolTableRecord
100
AcDbBlockTableRecord
  2
*Paper_Space
340
21
  0
BLOCK_RECORD
  5
368
330
1
100
AcDbSymbolTableRecord
100
AcDbBlockTableRecord
  2
*U0
340
0
  0
BLOCK_RECORD
  5
3AC
330
1
100
AcDbSymbolTableRecord
100
AcDbBlockTableRecord
  2
GENAXEH
340
0
  0
BLOCK_RECORD
  5
414
330
1
100
AcDbSymbolTableRecord
100
AcDbBlockTableRecord
  2
*D2
340
0
  0
BLOCK_RECORD
  5
43E
330
1
100
AcDbSymbolTableRecord
100
AcDbBlockTableRecord
  2
*D3
340
0
  0
BLOCK_RECORD
  5
462
330
1
100
AcDbSymbolTableRecord
100
AcDbBlockTableRecord
  2
*D4
340
0
  0
BLOCK_RECORD
  5
494
330
1
100
AcDbSymbolTableRecord
100
AcDbBlockTableRecord
  2
*D5
340
0
  0
BLOCK_RECORD
  5
4AF
330
1
100
AcDbSymbolTableRecord
100
AcDbBlockTableRecord
  2
*D6
340
0
  0
BLOCK_RECORD
  5
4EC
330
1
100
AcDbSymbolTableRecord
100
AcDbBlockTableRecord
  2
_Open30
340
0
  0
BLOCK_RECORD
  5
532
330
1
100
AcDbSymbolTableRecord
100
AcDbBlockTableRecord
  2
*D8
340
0
  0
BLOCK_RECORD
  5
558
330
1
100
AcDbSymbolTableRecord
100
AcDbBlockTableRecord
  2
*D9
340
0
  0
BLOCK_RECORD
  5
59C
330
1
100
AcDbSymbolTableRecord
100
AcDbBlockTableRecord
  2
*D10
340
0
  0
ENDTAB
  0
ENDSEC
  0
SECTION
  2
BLOCKS
  0
BLOCK
  5
23
330
22
100
AcDbEntity
  8
0
100
AcDbBlockBegin
  2
*Model_Space
 70
     0
 71
     0
 10
0.0
 20
0.0
 30
0.0
  3
*Model_Space
  1

  0
ENDBLK
  5
24
330
22
100
AcDbEntity
  8
0
100
AcDbBlockEnd
  0
BLOCK
  5
1F
330
1E
100
AcDbEntity
 67
     1
  8
0
100
AcDbBlockBegin
  2
*Paper_Space
 70
     0
 71
     0
 10
0.0
 20
0.0
 30
0.0
  3
*Paper_Space
  1

  0
ENDBLK
  5
20
330
1E
100
AcDbEntity
 67
     1
  8
0
100
AcDbBlockEnd
  0
BLOCK
  5
369
330
368
100
AcDbEntity
  8
0
100
AcDbBlockBegin
  2
*U0
 70
     1
 71
     0
 10
0.0
 20
0.0
 30
0.0
  3
*U0
  1

  0
ENDBLK
  5
36A
330
368
100
AcDbEntity
  8
0
100
AcDbBlockEnd
  0
BLOCK
  5
3AE
330
3AC
100
AcDbEntity
  8
0
100
AcDbBlockBegin
  2
GENAXEH
 70
     0
 71
     0
 10
0.0
 20
0.0
 30
0.0
  3
GENAXEH
  1

  0
LINE
  5
3AD
330
3AC
100
AcDbEntity
  8
0
100
AcDbLine
 10
-1.0
 20
0.0
 30
0.0
 11
1.0
 21
0.0
 31
0.0
  0
ENDBLK
  5
3AF
330
3AC
100
AcDbEntity
  8
0
100
AcDbBlockEnd
  0
BLOCK
  5
41E
330
414
100
AcDbEntity
  8
0
100
AcDbBlockBegin
  2
*D2
 70
     1
 71
     0
 10
0.0
 20
0.0
 30
0.0
  3
*D2
  1

  0
LINE
  5
727
330
414
100
AcDbEntity
  8
AM_5
 62
     0
370
    -2
100
AcDbLine
 10
-1.0
 20
0.0000000000000145
 30
0.0
 11
-20.51315114637987
 21
0.00000000000002
 31
0.0
  0
LINE
  5
728
330
414
100
AcDbEntity
  8
AM_5
 62
     0
370
    -2
100
AcDbLine
 10
-1.0
 20
-9.999999999999986
 30
0.0
 11
-20.51315114637987
 21
-9.999999999999979
 31
0.0
  0
LINE
  5
729
330
414
100
AcDbEntity
  8
AM_5
 62
     0
370
    -2
100
AcDbLine
 10
-18.51315114637987
 20
-2.999999999999981
 30
0.0
 11
-18.51315114637987
 21
-6.99999999999998
 31
0.0
  0
SOLID
  5
72A
330
414
100
AcDbEntity
  8
AM_5
 62
     0
100
AcDbTrace
 10
-19.01315114637987
 20
-2.99999999999998
 30
0.0
 11
-18.01315114637987
 21
-2.999999999999981
 31
0.0
 12
-18.51315114637987
 22
0.0000000000000195
 32
0.0
 13
-18.51315114637987
 23
0.0000000000000195
 33
0.0
  0
SOLID
  5
72B
330
414
100
AcDbEntity
  8
AM_5
 62
     0
100
AcDbTrace
 10
-19.01315114637987
 20
-6.99999999999998
 30
0.0
 11
-18.01315114637987
 21
-6.99999999999998
 31
0.0
 12
-18.51315114637987
 22
-9.999999999999981
 32
0.0
 13
-18.51315114637987
 23
-9.999999999999981
 33
0.0
  0
MTEXT
  5
72C
330
414
100
AcDbEntity
  8
AM_5
 62
     0
100
AcDbMText
 10
-21.10315114637987
 20
-4.999999999999983
 30
0.0
 40
5.0
 41
0.0
 71
     5
 72
     1
  1
\A1;10
 11
6.123031769111886E-17
 21
1.0
 31
0.0
 73
     1
 44
1.0
  0
POINT
  5
72D
330
414
100
AcDbEntity
  8
DEFPOINTS
 62
     0
100
AcDbPoint
 10
0.0
 20
0.0000000000000142
 30
0.0
  0
POINT
  5
72E
330
414
100
AcDbEntity
  8
DEFPOINTS
 62
     0
100
AcDbPoint
 10
0.0
 20
-9.999999999999986
 30
0.0
  0
POINT
  5
72F
330
414
100
AcDbEntity
  8
DEFPOINTS
 62
     0
100
AcDbPoint
 10
-18.51315114637987
 20
-9.999999999999981
 30
0.0
  0
ENDBLK
  5
41F
330
414
100
AcDbEntity
  8
0
100
AcDbBlockEnd
  0
BLOCK
  5
448
330
43E
100
AcDbEntity
  8
0
100
AcDbBlockBegin
  2
*D3
 70
     1
 71
     0
 10
0.0
 20
0.0
 30
0.0
  3
*D3
  1

  0
LINE
  5
730
330
43E
100
AcDbEntity
  8
AM_5
 62
     0
370
    -2
100
AcDbLine
 10
91.57473087011732
 20
-8.999999999999957
 30
0.0
 11
91.57473087011732
 21
19.76442626870036
 31
0.0
  0
LINE
  5
731
330
43E
100
AcDbEntity
  8
AM_5
 62
     0
370
    -2
100
AcDbLine
 10
67.57473087011732
 20
-8.999999999999943
 30
0.0
 11
67.57473087011732
 21
19.76442626870036
 31
0.0
  0
LINE
  5
732
330
43E
100
AcDbEntity
  8
AM_5
 62
     0
370
    -2
100
AcDbLine
 10
88.57473087011732
 20
17.76442626870036
 30
0.0
 11
70.57473087011732
 21
17.76442626870036
 31
0.0
  0
SOLID
  5
733
330
43E
100
AcDbEntity
  8
AM_5
 62
     0
100
AcDbTrace
 10
88.57473087011732
 20
18.26442626870036
 30
0.0
 11
88.57473087011732
 21
17.26442626870036
 31
0.0
 12
91.57473087011732
 22
17.76442626870036
 32
0.0
 13
91.57473087011732
 23
17.76442626870036
 33
0.0
  0
SOLID
  5
734
330
43E
100
AcDbEntity
  8
AM_5
 62
     0
100
AcDbTrace
 10
70.57473087011732
 20
18.26442626870036
 30
0.0
 11
70.57473087011732
 21
17.26442626870036
 31
0.0
 12
67.57473087011732
 22
17.76442626870036
 32
0.0
 13
67.57473087011732
 23
17.76442626870036
 33
0.0
  0
MTEXT
  5
735
330
43E
100
AcDbEntity
  8
AM_5
 62
     0
100
AcDbMText
 10
79.57473087011732
 20
20.35442626870036
 30
0.0
 40
5.0
 41
0.0
 71
     5
 72
     1
  1
\A1;24
 73
     1
 44
1.0
  0
POINT
  5
736
330
43E
100
AcDbEntity
  8
DEFPOINTS
 62
     0
100
AcDbPoint
 10
91.57473087011732
 20
-9.999999999999957
 30
0.0
  0
POINT
  5
737
330
43E
100
AcDbEntity
  8
DEFPOINTS
 62
     0
100
AcDbPoint
 10
67.57473087011732
 20
-9.999999999999943
 30
0.0
  0
POINT
  5
738
330
43E
100
AcDbEntity
  8
DEFPOINTS
 62
     0
100
AcDbPoint
 10
67.57473087011732
 20
17.76442626870036
 30
0.0
  0
ENDBLK
  5
449
330
43E
100
AcDbEntity
  8
0
100
AcDbBlockEnd
  0
BLOCK
  5
46C
330
462
100
AcDbEntity
  8
0
100
AcDbBlockBegin
  2
*D4
 70
     1
 71
     0
 10
0.0
 20
0.0
 30
0.0
  3
*D4
  1

  0
LINE
  5
739
330
462
100
AcDbEntity
  8
AM_5
 62
     0
370
    -2
100
AcDbLine
 10
80.57473087011732
 20
1.999999999999986
 30
0.0
 11
108.5088144511979
 21
1.999999999999978
 31
0.0
  0
LINE
  5
73A
330
462
100
AcDbEntity
  8
AM_5
 62
     0
370
    -2
100
AcDbLine
 10
80.57473087011732
 20
-22.00000000000001
 30
0.0
 11
108.5088144511979
 21
-22.00000000000002
 31
0.0
  0
LINE
  5
73B
330
462
100
AcDbEntity
  8
AM_5
 62
     0
370
    -2
100
AcDbLine
 10
106.5088144511979
 20
-1.000000000000022
 30
0.0
 11
106.5088144511979
 21
-19.00000000000002
 31
0.0
  0
LINE
  5
73C
330
462
100
AcDbEntity
  8
AM_5
 62
     0
370
    -2
100
AcDbLine
 10
106.5088144511979
 20
-22.00000000000002
 30
0.0
 11
106.5088144511978
 21
-39.9603450119924
 31
0.0
  0
SOLID
  5
73D
330
462
100
AcDbEntity
  8
AM_5
 62
     0
100
AcDbTrace
 10
106.0088144511979
 20
-1.000000000000022
 30
0.0
 11
107.0088144511979
 21
-1.000000000000022
 31
0.0
 12
106.5088144511979
 22
1.999999999999978
 32
0.0
 13
106.5088144511979
 23
1.999999999999978
 33
0.0
  0
SOLID
  5
73E
330
462
100
AcDbEntity
  8
AM_5
 62
     0
100
AcDbTrace
 10
106.0088144511979
 20
-19.00000000000002
 30
0.0
 11
107.0088144511979
 21
-19.00000000000002
 31
0.0
 12
106.5088144511979
 22
-22.00000000000002
 32
0.0
 13
106.5088144511979
 23
-22.00000000000002
 33
0.0
  0
MTEXT
  5
73F
330
462
100
AcDbEntity
  8
AM_5
 62
     0
100
AcDbMText
 10
103.9188144511979
 20
-35.70367834532571
 30
0.0
 40
5.0
 41
0.0
 71
     5
 72
     1
  1
\A1;24
 11
6.123031769111886E-17
 21
1.0
 31
0.0
 73
     1
 44
1.0
  0
POINT
  5
740
330
462
100
AcDbEntity
  8
DEFPOINTS
 62
     0
100
AcDbPoint
 10
79.57473087011732
 20
1.999999999999986
 30
0.0
  0
POINT
  5
741
330
462
100
AcDbEntity
  8
DEFPOINTS
 62
     0
100
AcDbPoint
 10
79.57473087011732
 20
-22.00000000000001
 30
0.0
  0
POINT
  5
742
330
462
100
AcDbEntity
  8
DEFPOINTS
 62
     0
100
AcDbPoint
 10
106.5088144511979
 20
-22.00000000000002
 30
0.0
  0
ENDBLK
  5
46D
330
462
100
AcDbEntity
  8
0
100
AcDbBlockEnd
  0
BLOCK
  5
49E
330
494
100
AcDbEntity
  8
0
100
AcDbBlockBegin
  2
*D5
 70
     1
 71
     0
 10
0.0
 20
0.0
 30
0.0
  3
*D5
  1

  0
LINE
  5
743
330
494
100
AcDbEntity
  8
AM_5
 62
     0
370
    -2
100
AcDbLine
 10
20.0
 20
3.0
 30
0.0
 11
20.0
 21
19.42505377655282
 31
0.0
  0
LINE
  5
744
330
494
100
AcDbEntity
  8
AM_5
 62
     0
370
    -2
100
AcDbLine
 10
0.0000000000000001
 20
1.0
 30
0.0
 11
0.0000000000000012
 21
19.42505377655282
 31
0.0
  0
LINE
  5
745
330
494
100
AcDbEntity
  8
AM_5
 62
     0
370
    -2
100
AcDbLine
 10
17.0
 20
17.42505377655282
 30
0.0
 11
3.000000000000001
 21
17.42505377655282
 31
0.0
  0
SOLID
  5
746
330
494
100
AcDbEntity
  8
AM_5
 62
     0
100
AcDbTrace
 10
17.0
 20
17.92505377655282
 30
0.0
 11
17.0
 21
16.92505377655282
 31
0.0
 12
20.0
 22
17.42505377655282
 32
0.0
 13
20.0
 23
17.42505377655282
 33
0.0
  0
SOLID
  5
747
330
494
100
AcDbEntity
  8
AM_5
 62
     0
100
AcDbTrace
 10
3.000000000000001
 20
17.92505377655282
 30
0.0
 11
3.000000000000001
 21
16.92505377655282
 31
0.0
 12
0.0000000000000011
 22
17.42505377655282
 32
0.0
 13
0.0000000000000011
 23
17.42505377655282
 33
0.0
  0
MTEXT
  5
748
330
494
100
AcDbEntity
  8
AM_5
 62
     0
100
AcDbMText
 10
10.0
 20
20.01505377655282
 30
0.0
 40
5.0
 41
0.0
 71
     5
 72
     1
  1
\A1;20
 73
     1
 44
1.0
  0
POINT
  5
749
330
494
100
AcDbEntity
  8
DEFPOINTS
 62
     0
100
AcDbPoint
 10
20.0
 20
2.0
 30
0.0
  0
POINT
  5
74A
330
494
100
AcDbEntity
  8
DEFPOINTS
 62
     0
100
AcDbPoint
 10
0.0
 20
0.0
 30
0.0
  0
POINT
  5
74B
330
494
100
AcDbEntity
  8
DEFPOINTS
 62
     0
100
AcDbPoint
 10
0.0000000000000011
 20
17.42505377655282
 30
0.0
  0
ENDBLK
  5
49F
330
494
100
AcDbEntity
  8
0
100
AcDbBlockEnd
  0
BLOCK
  5
4BF
330
4AF
100
AcDbEntity
  8
0
100
AcDbBlockBegin
  2
*D6
 70
     1
 71
     0
 10
0.0
 20
0.0
 30
0.0
  3
*D6
  1

  0
LINE
  5
74C
330
4AF
100
AcDbEntity
  8
AM_5
 62
     0
370
    -2
100
AcDbLine
 10
0.0000000000000025
 20
-1.198437499999997
 30
0.0
 11
0.0000000000000924
 21
-37.05500893654069
 31
0.0
  0
LINE
  5
74D
330
4AF
100
AcDbEntity
  8
AM_5
 62
     0
370
    -2
100
AcDbLine
 10
1.840297544481264
 20
-11.72620609617827
 30
0.0
 11
5.779939043081013
 21
-36.60011776353271
 31
0.0
  0
ARC
  5
74E
330
4AF
100
AcDbEntity
  8
AM_5
 62
     0
370
    -2
100
AcDbCircle
 10
0.0000000000000002
 20
-0.1070274020393022
 30
0.0
 40
34.94798153450139
100
AcDbArc
 50
260.1511254501349
 51
270.0000000000002
  0
LINE
  5
74F
330
4AF
100
AcDbEntity
  8
AM_5
 62
     0
370
    -2
100
AcDbLine
 10
-5.977852645915261
 20
-34.53995773158828
 30
0.0
 11
-14.36571943156926
 21
-33.08375196640026
 31
0.0
  0
ARC
  5
750
330
4AF
100
AcDbEntity
  8
AM_5
 62
     0
370
    -2
100
AcDbCircle
 10
0.0000000000000002
 20
-0.1070274020393022
 30
0.0
 40
34.94798153450139
100
AcDbArc
 50
260.1602238459369
 51
265.0801119229685
  0
ARC
  5
751
330
4AF
100
AcDbEntity
  8
AM_5
 62
     0
370
    -2
100
AcDbCircle
 10
0.0000000000000002
 20
-0.1070274020393022
 30
0.0
 40
34.94798153450139
100
AcDbArc
 50
283.9198901454319
 51
288.8397782224636
  0
ARC
  5
752
330
4AF
100
AcDbEntity
  8
AM_5
 62
     0
370
    -2
100
AcDbCircle
 10
0.0000000000000002
 20
-0.1070274020393022
 30
0.0
 40
34.94798153450139
100
AcDbArc
 50
270.0000000000002
 51
279.0000020684003
  0
SOLID
  5
753
330
4AF
100
AcDbEntity
  8
AM_5
 62
     0
100
AcDbTrace
 10
-2.975774949475988
 20
-34.42670689924441
 30
0.0
 11
-3.018695883222022
 21
-35.42578537136077
 31
0.0
 12
0.000000000000087
 22
-35.05500893654069
 32
0.0
 13
0.000000000000087
 23
-35.05500893654069
 33
0.0
  0
SOLID
  5
754
330
4AF
100
AcDbEntity
  8
AM_5
 62
     0
100
AcDbTrace
 10
8.506602978753058
 20
-34.51872446993701
 30
0.0
 11
8.307920131225217
 21
-33.53866063217019
 31
0.0
 12
5.467070041688676
 22
-34.62474109363713
 32
0.0
 13
5.467070041688676
 23
-34.62474109363713
 33
0.0
  0
MTEXT
  5
755
330
4AF
100
AcDbEntity
  8
AM_5
 62
     0
100
AcDbMText
 10
-9.72876650876924
 20
-31.26002536878551
 30
0.0
 40
5.0
 41
0.0
 71
     5
 72
     1
  1
\A1;9°
 11
0.9852623475709477
 21
-0.1710500115725957
 31
0.0
 73
     1
 44
1.0
  0
POINT
  5
756
330
4AF
100
AcDbEntity
  8
DEFPOINTS
 62
     0
100
AcDbPoint
 10
3.653059640590809
 20
-34.86356014910911
 30
0.0
  0
POINT
  5
757
330
4AF
100
AcDbEntity
  8
DEFPOINTS
 62
     0
100
AcDbPoint
 10
1.683863043785095
 20
-10.73851776123048
 30
0.0
  0
POINT
  5
758
330
4AF
100
AcDbEntity
  8
DEFPOINTS
 62
     0
100
AcDbPoint
 10
0.0
 20
0.0
 30
0.0
  0
POINT
  5
759
330
4AF
100
AcDbEntity
  8
DEFPOINTS
 62
     0
100
AcDbPoint
 10
0.0
 20
-0.1984374999999972
 30
0.0
  0
POINT
  5
75A
330
4AF
100
AcDbEntity
  8
DEFPOINTS
 62
     0
100
AcDbPoint
 10
0.0012215533060953
 20
-0.1147399842738963
 30
0.0
  0
ENDBLK
  5
4C0
330
4AF
100
AcDbEntity
  8
0
100
AcDbBlockEnd
  0
BLOCK
  5
4ED
330
4EC
100
AcDbEntity
  8
0
100
AcDbBlockBegin
  2
_Open30
 70
     0
 71
     0
 10
0.0
 20
0.0
 30
0.0
  3
_Open30
  1

  0
LINE
  5
4EE
330
4EC
100
AcDbEntity
  8
0
 62
     0
370
    -2
100
AcDbLine
 10
-1.0
 20
0.26794919
 30
0.0
 11
0.0
 21
0.0
 31
0.0
  0
LINE
  5
4EF
330
4EC
100
AcDbEntity
  8
0
 62
     0
370
    -2
100
AcDbLine
 10
0.0
 20
0.0
 30
0.0
 11
-1.0
 21
-0.26794919
 31
0.0
  0
LINE
  5
4F0
330
4EC
100
AcDbEntity
  8
0
 62
     0
370
    -2
100
AcDbLine
 10
0.0
 20
0.0
 30
0.0
 11
-1.0
 21
0.0
 31
0.0
  0
ENDBLK
  5
4F1
330
4EC
100
AcDbEntity
  8
0
100
AcDbBlockEnd
  0
BLOCK
  5
53D
330
532
100
AcDbEntity
  8
0
100
AcDbBlockBegin
  2
*D8
 70
     1
 71
     0
 10
0.0
 20
0.0
 30
0.0
  3
*D8
  1

  0
LINE
  5
75B
330
532
100
AcDbEntity
  8
AM_5
 62
     0
370
    -2
100
AcDbLine
 10
-0.9901609458351004
 20
65.0
 30
0.0
 11
-22.65035118877404
 21
65.0
 31
0.0
  0
LINE
  5
75C
330
532
100
AcDbEntity
  8
AM_5
 62
     0
370
    -2
100
AcDbLine
 10
0.7436565681396132
 20
65.0
 30
0.0
 11
-22.65035118877404
 21
65.0
 31
0.0
  0
LINE
  5
75D
330
532
100
AcDbEntity
  8
AM_5
 62
     0
370
    -2
100
AcDbLine
 10
-20.65035118877404
 20
62.00000000000001
 30
0.0
 11
-20.65035118877404
 21
59.00000000000001
 31
0.0
  0
LINE
  5
75E
330
532
100
AcDbEntity
  8
AM_5
 62
     0
370
    -2
100
AcDbLine
 10
-20.65035118877404
 20
68.0
 30
0.0
 11
-20.65035118877404
 21
73.68000000000001
 31
0.0
  0
SOLID
  5
75F
330
532
100
AcDbEntity
  8
AM_5
 62
     0
100
AcDbTrace
 10
-21.15035118877404
 20
62.00000000000001
 30
0.0
 11
-20.15035118877404
 21
62.00000000000001
 31
0.0
 12
-20.65035118877404
 22
65.0
 32
0.0
 13
-20.65035118877404
 23
65.0
 33
0.0
  0
SOLID
  5
760
330
532
100
AcDbEntity
  8
AM_5
 62
     0
100
AcDbTrace
 10
-21.15035118877404
 20
68.0
 30
0.0
 11
-20.15035118877404
 21
68.0
 31
0.0
 12
-20.65035118877404
 22
65.0
 32
0.0
 13
-20.65035118877404
 23
65.0
 33
0.0
  0
MTEXT
  5
761
330
532
100
AcDbEntity
  8
AM_5
 62
     0
100
AcDbMText
 10
-23.24035118877405
 20
72.34
 30
0.0
 40
5.0
 41
0.0
 71
     5
 72
     1
  1
\A1;0
 11
6.123031769111886E-17
 21
1.0
 31
0.0
 73
     1
 44
1.0
  0
POINT
  5
762
330
532
100
AcDbEntity
  8
DEFPOINTS
 62
     0
100
AcDbPoint
 10
0.0098390541648996
 20
65.0
 30
0.0
  0
POINT
  5
763
330
532
100
AcDbEntity
  8
DEFPOINTS
 62
     0
100
AcDbPoint
 10
1.743656568139613
 20
65.0
 30
0.0
  0
POINT
  5
764
330
532
100
AcDbEntity
  8
DEFPOINTS
 62
     0
100
AcDbPoint
 10
-20.65035118877404
 20
65.0
 30
0.0
  0
ENDBLK
  5
53E
330
532
100
AcDbEntity
  8
0
100
AcDbBlockEnd
  0
BLOCK
  5
562
330
558
100
AcDbEntity
  8
0
100
AcDbBlockBegin
  2
*D9
 70
     1
 71
     0
 10
0.0
 20
0.0
 30
0.0
  3
*D9
  1

  0
LINE
  5
765
330
558
100
AcDbEntity
  8
AM_5
 62
     0
370
    -2
100
AcDbLine
 10
150.0098419189453
 20
53.6324956589212
 30
0.0
 11
150.0098419189453
 21
36.52719093923562
 31
0.0
  0
LINE
  5
766
330
558
100
AcDbEntity
  8
AM_5
 62
     0
370
    -2
100
AcDbLine
 10
0.0098390541648995
 20
64.0
 30
0.0
 11
0.0098390541648979
 21
36.52719093923562
 31
0.0
  0
LINE
  5
767
330
558
100
AcDbEntity
  8
AM_5
 62
     0
370
    -2
100
AcDbLine
 10
147.0098419189453
 20
38.52719093923562
 30
0.0
 11
3.009839054164898
 21
38.52719093923562
 31
0.0
  0
SOLID
  5
768
330
558
100
AcDbEntity
  8
AM_5
 62
     0
100
AcDbTrace
 10
147.0098419189453
 20
39.02719093923562
 30
0.0
 11
147.0098419189453
 21
38.02719093923562
 31
0.0
 12
150.0098419189453
 22
38.52719093923562
 32
0.0
 13
150.0098419189453
 23
38.52719093923562
 33
0.0
  0
SOLID
  5
769
330
558
100
AcDbEntity
  8
AM_5
 62
     0
100
AcDbTrace
 10
3.009839054164898
 20
39.02719093923562
 30
0.0
 11
3.009839054164898
 21
38.02719093923562
 31
0.0
 12
0.009839054164898
 22
38.52719093923562
 32
0.0
 13
0.009839054164898
 23
38.52719093923562
 33
0.0
  0
MTEXT
  5
76A
330
558
100
AcDbEntity
  8
AM_5
 62
     0
100
AcDbMText
 10
75.00984048655511
 20
41.11719093923563
 30
0.0
 40
5.0
 41
0.0
 71
     5
 72
     1
  1
\A1;150
 73
     1
 44
1.0
  0
POINT
  5
76B
330
558
100
AcDbEntity
  8
DEFPOINTS
 62
     0
100
AcDbPoint
 10
150.0098419189453
 20
54.6324956589212
 30
0.0
  0
POINT
  5
76C
330
558
100
AcDbEntity
  8
DEFPOINTS
 62
     0
100
AcDbPoint
 10
0.0098390541648996
 20
65.0
 30
0.0
  0
POINT
  5
76D
330
558
100
AcDbEntity
  8
DEFPOINTS
 62
     0
100
AcDbPoint
 10
0.009839054164898
 20
38.52719093923562
 30
0.0
  0
ENDBLK
  5
563
330
558
100
AcDbEntity
  8
0
100
AcDbBlockEnd
  0
BLOCK
  5
5A5
330
59C
100
AcDbEntity
  8
0
100
AcDbBlockBegin
  2
*D10
 70
     1
 71
     0
 10
0.0
 20
0.0
 30
0.0
  3
*D10
  1

  0
LINE
  5
76E
330
59C
100
AcDbEntity
  8
AM_5
 62
     0
370
    -2
100
AcDbLine
 10
59.80281691703503
 20
-43.00191183629642
 30
0.0
 11
71.50592120083866
 21
-23.46789926161292
 31
0.0
  0
LINE
  5
76F
330
59C
100
AcDbEntity
  8
AM_5
 62
     0
370
    -2
100
AcDbLine
 10
87.64354053939607
 20
3.467899261612949
 30
0.0
 11
89.1853513042264
 21
6.041383196953007
 31
0.0
  0
MTEXT
  5
770
330
59C
100
AcDbEntity
  8
AM_5
 62
     0
100
AcDbMText
 10
61.05354291987042
 20
-35.87475750162147
 30
0.0
 40
5.0
 41
0.0
 71
     5
 72
     1
  1
\A1;\U+220525
 11
0.5139369216101085
 21
0.8578279784466844
 31
0.0
 73
     1
 44
1.0
  0
LINE
  5
771
330
59C
100
AcDbEntity
  8
AM_5
 62
     0
370
    -2
100
AcDbLine
 10
86.10172977456574
 20
0.8944153262728989
 30
0.0
 11
73.04773196566897
 21
-20.89441532627287
 31
0.0
  0
SOLID
  5
772
330
59C
100
AcDbEntity
  8
AM_5
 62
     0
100
AcDbTrace
 10
87.21462655017272
 20
3.724867722418004
 30
0.0
 11
88.0724545286194
 21
3.210930800807894
 31
0.0
 12
86.10172977456574
 22
0.8944153262728989
 32
0.0
 13
86.10172977456574
 23
0.8944153262728989
 33
0.0
  0
SOLID
  5
773
330
59C
100
AcDbEntity
  8
AM_5
 62
     0
100
AcDbTrace
 10
71.07700721161531
 20
-23.21093080080787
 30
0.0
 11
71.93483519006199
 21
-23.72486772241798
 31
0.0
 12
73.04773196566897
 22
-20.89441532627287
 32
0.0
 13
73.04773196566897
 23
-20.89441532627287
 33
0.0
  0
POINT
  5
774
330
59C
100
AcDbEntity
  8
DEFPOINTS
 62
     0
100
AcDbPoint
 10
73.04773196566897
 20
-20.89441532627287
 30
0.0
  0
POINT
  5
775
330
59C
100
AcDbEntity
  8
DEFPOINTS
 62
     0
100
AcDbPoint
 10
86.10172977456574
 20
0.8944153262728989
 30
0.0
  0
ENDBLK
  5
5A6
330
59C
100
AcDbEntity
  8
0
100
AcDbBlockEnd
  0
ENDSEC
  0
SECTION
  2
ENTITIES
  0
CIRCLE
  5
186
330
22
100
AcDbEntity
  8
1
  6
Continuous
100
AcDbCircle
 10
4.663171768188477
 20
-9.253090858459487
 30
0.0
 40
1.875
  0
LINE
  5
187
330
22
100
AcDbEntity
  8
1
  6
Continuous
100
AcDbLine
 10
9.325121879577637
 20
-18.3914413452148
 30
0.0
 11
7.642478942871094
 21
-7.767663002014174
 31
0.0
  0
LINE
  5
188
330
22
100
AcDbEntity
  8
1
  6
Continuous
100
AcDbLine
 10
9.155750274658203
 20
-18.47588348388671
 30
0.0
 11
1.683863043785095
 21
-10.73851776123048
 31
0.0
  0
LINE
  5
189
330
22
100
AcDbEntity
  8
1
  6
Continuous
100
AcDbLine
 10
1.683863043785095
 20
-10.73851776123048
 30
0.0
 11
0.0012215533060953
 21
-0.1147399842738963
 31
0.0
  0
LINE
  5
18A
330
22
100
AcDbEntity
  8
1
  6
Continuous
100
AcDbLine
 10
0.1705907434225082
 20
-0.0302956197410964
 30
0.0
 11
7.642478942871094
 21
-7.767663002014174
 31
0.0
  0
CIRCLE
  5
18B
330
22
100
AcDbEntity
  8
1
  6
Continuous
100
AcDbCircle
 10
4.663171768188477
 20
-9.253090858459487
 30
0.0
 40
1.799999952316284
  0
LINE
  5
18C
330
22
100
AcDbEntity
  8
1
  6
CENTER
100
AcDbLine
 10
3.636916399002075
 20
-7.194742202758775
 30
0.0
 11
5.689426898956299
 21
-11.31143951416017
 31
0.0
  0
LINE
  5
18D
330
22
100
AcDbEntity
  8
1
  6
CENTER
100
AcDbLine
 10
6.721519947052002
 20
-8.226836204528766
 30
0.0
 11
2.604822158813477
 21
-10.27934551239009
 31
0.0
  0
LINE
  5
18E
330
22
100
AcDbEntity
  8
1
  6
Continuous
100
AcDbLine
 10
5.558359146118164
 20
-8.583286285400405
 30
0.0
 11
5.736838340759277
 21
-8.941260337829576
 31
0.0
  0
LINE
  5
18F
330
22
100
AcDbEntity
  8
1
  6
Continuous
100
AcDbLine
 10
3.767982244491577
 20
-9.922894477844196
 30
0.0
 11
3.589503765106201
 21
-9.564922332763686
 31
0.0
  0
LINE
  5
190
330
22
100
AcDbEntity
  8
1
  6
Continuous
100
AcDbLine
 10
5.736838340759277
 20
-8.941260337829576
 30
0.0
 11
5.062425136566162
 21
-9.277510643005385
 31
0.0
  0
LINE
  5
191
330
22
100
AcDbEntity
  8
1
  6
Continuous
100
AcDbLine
 10
4.442396640777588
 20
-9.586646080017076
 30
0.0
 11
3.767982244491577
 21
-9.922894477844196
 31
0.0
  0
LINE
  5
192
330
22
100
AcDbEntity
  8
1
  6
Continuous
100
AcDbLine
 10
3.589503765106201
 20
-9.564922332763686
 30
0.0
 11
4.263917446136475
 21
-9.228671073913588
 31
0.0
  0
LINE
  5
193
330
22
100
AcDbEntity
  8
1
  6
Continuous
100
AcDbLine
 10
4.883945941925049
 20
-8.919536590576186
 30
0.0
 11
5.558359146118164
 21
-8.583286285400405
 31
0.0
  0
LINE
  5
194
330
22
100
AcDbEntity
  8
1
  6
Continuous
100
AcDbLine
 10
4.39639139175415
 20
-10.33882999420167
 30
0.0
 11
4.442396640777588
 21
-9.586646080017076
 31
0.0
  0
LINE
  5
195
330
22
100
AcDbEntity
  8
1
  6
Continuous
100
AcDbLine
 10
4.484692096710205
 20
-8.895117759704576
 30
0.0
 11
4.530697822570801
 21
-8.142932891845689
 31
0.0
  0
LINE
  5
196
330
22
100
AcDbEntity
  8
1
  6
Continuous
100
AcDbLine
 10
4.530697822570801
 20
-8.142932891845689
 30
0.0
 11
4.929951190948486
 21
-8.167351722717299
 31
0.0
  0
LINE
  5
197
330
22
100
AcDbEntity
  8
1
  6
Continuous
100
AcDbLine
 10
4.929951190948486
 20
-8.167351722717299
 30
0.0
 11
4.883945941925049
 21
-8.919536590576186
 31
0.0
  0
LINE
  5
198
330
22
100
AcDbEntity
  8
1
  6
Continuous
100
AcDbLine
 10
4.841650485992432
 20
-9.611064910888686
 30
0.0
 11
4.795644283294678
 21
-10.3632488250732
 31
0.0
  0
LINE
  5
199
330
22
100
AcDbEntity
  8
1
  6
Continuous
100
AcDbLine
 10
4.795644283294678
 20
-10.3632488250732
 30
0.0
 11
4.39639139175415
 21
-10.33882999420167
 31
0.0
  0
LINE
  5
19A
330
22
100
AcDbEntity
  8
1
  6
Continuous
100
AcDbLine
 10
3.856283903121948
 20
-8.479182243347182
 30
0.0
 11
4.484692096710205
 21
-8.895117759704576
 31
0.0
  0
LINE
  5
19B
330
22
100
AcDbEntity
  8
1
  6
Continuous
100
AcDbLine
 10
5.062425136566162
 20
-9.277510643005385
 30
0.0
 11
5.690832614898682
 21
-9.693444252014174
 31
0.0
  0
LINE
  5
19C
330
22
100
AcDbEntity
  8
1
  6
Continuous
100
AcDbLine
 10
5.690832614898682
 20
-9.693444252014174
 30
0.0
 11
5.470057964324951
 21
-10.02699851989748
 31
0.0
  0
LINE
  5
19D
330
22
100
AcDbEntity
  8
1
  6
Continuous
100
AcDbLine
 10
5.470057964324951
 20
-10.02699851989748
 30
0.0
 11
4.841650485992432
 21
-9.611064910888686
 31
0.0
  0
LINE
  5
19E
330
22
100
AcDbEntity
  8
1
  6
Continuous
100
AcDbLine
 10
4.263917446136475
 20
-9.228671073913588
 30
0.0
 11
3.635509014129639
 21
-8.812737464904799
 31
0.0
  0
LINE
  5
19F
330
22
100
AcDbEntity
  8
1
  6
Continuous
100
AcDbLine
 10
3.635509014129639
 20
-8.812737464904799
 30
0.0
 11
3.856283903121948
 21
-8.479182243347182
 31
0.0
  0
ARC
  5
1A0
330
22
100
AcDbEntity
  8
1
  6
Continuous
100
AcDbCircle
 10
0.0992187499999773
 20
-0.0992187499999915
 30
0.0
 40
0.0992187500000008
100
AcDbArc
 50
43.99999976610542
 51
189.0000027809323
  0
ARC
  5
1A1
330
22
100
AcDbEntity
  8
1
  6
Continuous
100
AcDbCircle
 10
9.227123655771152
 20
-18.40696233182639
 30
0.0
 40
0.0992187500000003
100
AcDbArc
 50
223.999998533897
 51
9.000001808599079
  0
LINE
  5
1A2
330
22
100
AcDbEntity
  8
1
  6
Continuous
100
AcDbLine
 10
2.192350199765883
 20
-11.26507162500398
 30
0.0
 11
3.89259635408871
 21
-21.99999999999999
 31
0.0
  0
LINE
  5
1A3
330
22
100
AcDbEntity
  8
1
  6
CENTER
100
AcDbLine
 10
0.0
 20
-9.999999999999986
 30
0.0
 11
155.0
 21
-10.00000000000001
 31
0.0
  0
LINE
  5
1A4
330
22
100
AcDbEntity
  8
1
  6
CENTER
100
AcDbLine
 10
79.57473087011732
 20
-26.00000000000001
 30
0.0
 11
79.57473087011732
 21
5.999999999999986
 31
0.0
  0
LINE
  5
1A5
330
22
100
AcDbEntity
  8
1
  6
Continuous
100
AcDbLine
 10
15.0
 20
-19.2398553208824
 30
0.0
 11
15.0
 21
-8.50111601318622
 31
0.0
  0
LINE
  5
1A9
330
22
100
AcDbEntity
  8
1
  6
Continuous
100
AcDbLine
 10
150.0
 20
-21.7
 30
0.0
 11
150.0
 21
1.699999999999974
 31
0.0
  0
LINE
  5
1AA
330
22
100
AcDbEntity
  8
1
  6
PHANTOM
100
AcDbLine
 10
23.20000000000005
 20
2.699999999999989
 30
0.0
 11
149.0
 21
2.699999999999974
 31
0.0
  0
LINE
  5
1AB
330
22
100
AcDbEntity
  8
1
  6
PHANTOM
100
AcDbLine
 10
23.20000000000005
 20
-22.7
 30
0.0
 11
149.0
 21
-22.7
 31
0.0
  0
LINE
  5
1AD
330
22
100
AcDbEntity
  8
1
  6
Continuous
100
AcDbLine
 10
149.0
 20
-22.00000000000001
 30
0.0
 11
149.0
 21
-14.15812457725832
 31
0.0
  0
LINE
  5
1AE
330
22
100
AcDbEntity
  8
1
  6
Continuous
100
AcDbLine
 10
149.0
 20
-5.841875422741609
 30
0.0
 11
149.0
 21
1.999999999999986
 31
0.0
  0
ARC
  5
1BC
330
22
100
AcDbEntity
  8
1
  6
Continuous
100
AcDbCircle
 10
8.928997152044872
 20
-2.495901675957086
 30
0.0
 40
5.0
100
AcDbArc
 50
247.4362218531612
 51
270.0
  0
LINE
  5
1BD
330
22
100
AcDbEntity
  8
1
  6
Continuous
100
AcDbLine
 10
7.597867707743717
 20
-7.72146671182027
 30
0.0
 11
7.530535798497567
 21
-7.296350180277685
 31
0.0
  0
LINE
  5
1BE
330
22
100
AcDbEntity
  8
1
  6
Continuous
100
AcDbLine
 10
7.384017552246405
 20
-7.500018374576584
 30
0.0
 11
7.34244005407345
 21
-7.237508637196711
 31
0.0
  0
LINE
  5
1C0
330
22
100
AcDbEntity
  8
1
  6
Continuous
100
AcDbLine
 10
149.0
 20
2.699999999999974
 30
0.0
 11
149.7
 21
1.999999999999986
 31
0.0
  0
LINE
  5
1C1
330
22
100
AcDbEntity
  8
1
  6
Continuous
100
AcDbLine
 10
149.7
 20
-22.00000000000001
 30
0.0
 11
149.0
 21
-22.7
 31
0.0
  0
LINE
  5
1C2
330
22
100
AcDbEntity
  8
1
  6
Continuous
100
AcDbLine
 10
149.7
 20
-22.00000000000001
 30
0.0
 11
150.0
 21
-21.7
 31
0.0
  0
LINE
  5
1C3
330
22
100
AcDbEntity
  8
1
  6
Continuous
100
AcDbLine
 10
149.7000000000002
 20
1.999999999999986
 30
0.0
 11
150.0
 21
1.699999999999974
 31
0.0
  0
LINE
  5
1C4
330
22
100
AcDbEntity
  8
1
  6
Continuous
100
AcDbLine
 10
20.0
 20
2.0
 30
0.0
 11
149.7
 21
1.999999999999986
 31
0.0
  0
LINE
  5
1C5
330
22
100
AcDbEntity
  8
1
  6
Continuous
100
AcDbLine
 10
3.89259635408871
 20
-21.99999999999999
 30
0.0
 11
149.7
 21
-22.00000000000001
 31
0.0
  0
ARC
  5
1C7
330
22
100
AcDbEntity
  8
1
  6
Continuous
100
AcDbCircle
 10
79.57473087011732
 20
-10.0
 30
0.0
 40
12.7
100
AcDbArc
 50
109.111732137199
 51
160.8882678628011
  0
ARC
  5
1C8
330
22
100
AcDbEntity
  8
1
  6
Continuous
100
AcDbCircle
 10
79.57473087011732
 20
-10.0
 30
0.0
 40
12.69999999999999
100
AcDbArc
 50
199.1117321371989
 51
250.8882678628011
  0
ARC
  5
1C9
330
22
100
AcDbEntity
  8
1
  6
Continuous
100
AcDbCircle
 10
79.57473087011732
 20
-10.0
 30
0.0
 40
12.7
100
AcDbArc
 50
289.1117321371989
 51
340.8882678628011
  0
ARC
  5
1CA
330
22
100
AcDbEntity
  8
1
  6
Continuous
100
AcDbCircle
 10
79.57473087011732
 20
-10.0
 30
0.0
 40
12.69999999999999
100
AcDbArc
 50
19.11173213719889
 51
70.88826786280112
  0
LINE
  5
1CB
330
22
100
AcDbEntity
  8
1
  6
Continuous
100
AcDbLine
 10
91.57473087011732
 20
-14.15812457725831
 30
0.0
 11
91.57473087011732
 21
-5.841875422741609
 31
0.0
  0
LINE
  5
1CC
330
22
100
AcDbEntity
  8
1
  6
Continuous
100
AcDbLine
 10
67.57473087011732
 20
-14.15812457725831
 30
0.0
 11
67.57473087011732
 21
-5.841875422741595
 31
0.0
  0
LINE
  5
1CD
330
22
100
AcDbEntity
  8
1
  6
Continuous
100
AcDbLine
 10
23.20000000000005
 20
-5.841875422741595
 30
0.0
 11
149.0
 21
-5.841875422741609
 31
0.0
  0
LINE
  5
1CE
330
22
100
AcDbEntity
  8
1
  6
Continuous
100
AcDbLine
 10
23.20000000000005
 20
-14.15812457725831
 30
0.0
 11
149.0
 21
-14.15812457725832
 31
0.0
  0
ARC
  5
1CF
330
22
100
AcDbEntity
  8
1
  6
Continuous
100
AcDbCircle
 10
137.0000000000002
 20
-10.0
 30
0.0
 40
12.69999999999994
100
AcDbArc
 50
340.8882678628009
 51
19.11173213719905
  0
LINE
  5
1D2
330
22
100
AcDbEntity
  8
1
  6
Continuous
100
AcDbLine
 10
23.20000000000005
 20
-21.99999999999999
 30
0.0
 11
23.20000000000005
 21
-14.15812457725831
 31
0.0
  0
LINE
  5
1D3
330
22
100
AcDbEntity
  8
1
  6
Continuous
100
AcDbLine
 10
23.20000000000005
 20
-5.841875422741595
 30
0.0
 11
23.20000000000005
 21
2.0
 31
0.0
  0
LINE
  5
1D4
330
22
100
AcDbEntity
  8
1
  6
Continuous
100
AcDbLine
 10
22.5
 20
-21.99999999999999
 30
0.0
 11
22.5
 21
2.0
 31
0.0
  0
ARC
  5
1D5
330
22
100
AcDbEntity
  8
1
  6
Continuous
100
AcDbCircle
 10
35.38103669630334
 20
-10.0
 30
0.0
 40
12.87119477735804
100
AcDbArc
 50
161.1521230863603
 51
198.8478769136397
  0
POLYLINE
  5
1D6
330
22
100
AcDbEntity
  8
1
  6
Continuous
100
AcDb2dPolyline
 66
     1
 10
0.0
 20
0.0
 30
0.0
  0
VERTEX
  5
1D7
330
1D6
100
AcDbEntity
  8
1
  6
Continuous
100
AcDbVertex
100
AcDb2dVertex
 10
15.82951473051412
 20
-20.49999999999999
 30
0.0
  0
VERTEX
  5
1D8
330
1D6
100
AcDbEntity
  8
1
  6
Continuous
100
AcDbVertex
100
AcDb2dVertex
 10
16.78596091907104
 20
-20.29976555166779
 30
0.0
  0
VERTEX
  5
1D9
330
1D6
100
AcDbEntity
  8
1
  6
Continuous
100
AcDbVertex
100
AcDb2dVertex
 10
17.70192995310333
 20
-19.70485625843857
 30
0.0
  0
VERTEX
  5
1DA
330
1D6
100
AcDbEntity
  8
1
  6
Continuous
100
AcDbVertex
100
AcDb2dVertex
 10
19.29167245612064
 20
-17.4246212024588
 30
0.0
  0
VERTEX
  5
1DB
330
1D6
100
AcDbEntity
  8
1
  6
Continuous
100
AcDbVertex
100
AcDb2dVertex
 10
20.35496352511746
 20
-14.0154074029101
 30
0.0
  0
VERTEX
  5
1DC
330
1D6
100
AcDbEntity
  8
1
  6
Continuous
100
AcDbVertex
100
AcDb2dVertex
 10
20.7257451411416
 20
-9.999999999999986
 30
0.0
  0
VERTEX
  5
1DD
330
1D6
100
AcDbEntity
  8
1
  6
Continuous
100
AcDbVertex
100
AcDb2dVertex
 10
20.63113770753466
 20
-7.935548546535884
 30
0.0
  0
VERTEX
  5
1DE
330
1D6
100
AcDbEntity
  8
1
  6
Continuous
100
AcDbVertex
100
AcDb2dVertex
 10
20.35009217201821
 20
-5.959464891928704
 30
0.0
  0
VERTEX
  5
1DF
330
1D6
100
AcDbEntity
  8
1
  6
Continuous
100
AcDbVertex
100
AcDb2dVertex
 10
19.89159611320054
 20
-4.135863411580502
 30
0.0
  0
VERTEX
  5
1E0
330
1D6
100
AcDbEntity
  8
1
  6
Continuous
100
AcDbVertex
100
AcDb2dVertex
 10
19.27356428466999
 20
-2.536746499082582
 30
0.0
  0
SEQEND
  5
1E1
330
1D6
100
AcDbEntity
  8
1
  0
LINE
  5
1E2
330
22
100
AcDbEntity
  8
1
  6
Continuous
100
AcDbLine
 10
20.0
 20
2.0
 30
0.0
 11
16.91817595856014
 21
-4.608992984660574
 31
0.0
  0
ARC
  5
1E3
330
22
100
AcDbEntity
  8
1
  6
Continuous
100
AcDbCircle
 10
12.38663702337692
 20
-2.495901675957086
 30
0.0
 40
4.999999999999996
100
AcDbArc
 50
270.0
 51
334.9999999999998
  0
LINE
  5
1E4
330
22
100
AcDbEntity
  8
1
  6
Continuous
100
AcDbLine
 10
8.928997152044872
 20
-7.495901675957086
 30
0.0
 11
12.38663702337692
 21
-7.495901675957086
 31
0.0
  0
LINE
  5
1E5
330
22
100
AcDbEntity
  8
1
  6
CENTER
100
AcDbLine
 10
0.0
 20
-9.999999999999986
 30
0.0
 11
155.0
 21
-10.00000000000001
 31
0.0
  0
ARC
  5
1E6
330
22
100
AcDbEntity
  8
1
  6
Continuous
100
AcDbCircle
 10
9.455263029096159
 20
-17.8077088429378
 30
0.0
 40
1.25
100
AcDbArc
 50
189.0000000000001
 51
9.000002768538247
  0
LINE
  5
1E7
330
22
100
AcDbEntity
  8
1
  6
Continuous
100
AcDbLine
 10
10.68987345484015
 20
-17.61216576163749
 30
0.0
 11
10.47610212501013
 21
-16.26246670412949
 31
0.0
  0
ARC
  5
1E8
330
22
100
AcDbEntity
  8
1
  6
Continuous
100
AcDbCircle
 10
9.241491699266135
 20
-16.45800978542981
 30
0.0
 40
1.250000000000002
100
AcDbArc
 50
9.000000000000048
 51
43.99999807937051
  0
LINE
  5
1E9
330
22
100
AcDbEntity
  8
1
  6
Continuous
100
AcDbLine
 10
10.14066647879679
 20
-15.58968685249759
 30
0.0
 11
8.634305760140251
 21
-14.029804560183
 31
0.0
  0
LINE
  5
1EA
330
22
100
AcDbEntity
  8
1
  6
Continuous
100
AcDbLine
 10
8.220652603352164
 20
-18.00325192423809
 30
0.0
 11
8.126740202633755
 21
-17.41031236195481
 31
0.0
  0
LINE
  5
1EB
330
22
100
AcDbEntity
  8
2
  6
Continuous
100
AcDbLine
 10
0.009839054197073
 20
65.0
 30
0.0
 11
9.326342582702637
 21
65.0
 31
0.0
  0
LINE
  5
1EC
330
22
100
AcDbEntity
  8
2
  6
CENTER
100
AcDbLine
 10
4.663171768188477
 20
63.00000000000001
 30
0.0
 11
4.663171768188477
 21
77.5
 31
0.0
  0
LINE
  5
1ED
330
22
100
AcDbEntity
  8
2
  6
CENTER
100
AcDbLine
 10
159.7460460482112
 20
64.99999999999999
 30
0.0
 11
20.0
 21
65.0
 31
0.0
  0
LINE
  5
1F8
330
22
100
AcDbEntity
  8
2
  6
Continuous
100
AcDbLine
 10
0.0098390541648996
 20
65.0
 30
0.0
 11
0.4504290965373912
 21
68.18000000000001
 31
0.0
  0
LINE
  5
1F9
330
22
100
AcDbEntity
  8
2
  6
Continuous
100
AcDbLine
 10
150.0098419189453
 20
76.69999999999997
 30
0.0
 11
150.0098419189453
 21
53.3
 31
0.0
  0
LINE
  5
1FA
330
22
100
AcDbEntity
  8
2
  6
Continuous
100
AcDbLine
 10
7.34244005407345
 20
68.18000000000001
 30
0.0
 11
0.4504290965373912
 21
68.18000000000001
 31
0.0
  0
LINE
  5
1FB
330
22
100
AcDbEntity
  8
2
  6
Continuous
100
AcDbLine
 10
7.530535798497567
 20
65.30000000000001
 30
0.0
 11
14.36292973919251
 21
65.30000000000001
 31
0.0
  0
LINE
  5
1FC
330
22
100
AcDbEntity
  8
2
  6
Continuous
100
AcDbLine
 10
15.26923752622918
 20
64.72261826174068
 30
0.0
 11
20.7355841953065
 21
53.0
 31
0.0
  0
ARC
  5
1FD
330
22
100
AcDbEntity
  8
2
  6
Continuous
100
AcDbCircle
 10
14.36292973919251
 20
64.30000000000001
 30
0.0
 40
1.0
100
AcDbArc
 50
25.00000000000007
 51
90.0
  0
LINE
  5
1FF
330
22
100
AcDbEntity
  8
2
  6
Continuous
100
AcDbLine
 10
7.34244005407345
 20
68.18000000000001
 30
0.0
 11
7.34244005407345
 21
66.97999999999999
 31
0.0
  0
LINE
  5
200
330
22
100
AcDbEntity
  8
2
  6
Continuous
100
AcDbLine
 10
0.5729802302964799
 20
77.0
 30
0.0
 11
0.5729802302964799
 21
68.18000000000001
 31
0.0
  0
LINE
  5
201
330
22
100
AcDbEntity
  8
2
  6
Continuous
100
AcDbLine
 10
9.326342582702637
 20
65.0
 30
0.0
 11
9.289507214431751
 21
65.30000000000001
 31
0.0
  0
LINE
  5
202
330
22
100
AcDbEntity
  8
2
  6
Continuous
100
AcDbLine
 10
7.642478942871094
 20
65.0
 30
0.0
 11
7.609547461050852
 21
65.30000000000001
 31
0.0
  0
LINE
  5
203
330
22
100
AcDbEntity
  8
2
  6
Continuous
100
AcDbLine
 10
7.34244005407345
 20
67.73330143874068
 30
0.0
 11
7.293405235575847
 21
68.18000000000001
 31
0.0
  0
LINE
  5
204
330
22
100
AcDbEntity
  8
2
  6
Continuous
100
AcDbLine
 10
7.530535798497567
 20
65.30000000000001
 30
0.0
 11
7.34244005407345
 21
66.97999999999999
 31
0.0
  0
LINE
  5
205
330
22
100
AcDbEntity
  8
2
  6
Continuous
100
AcDbLine
 10
6.806622974033303
 20
74.8897265834436
 30
0.0
 11
6.806622974033303
 21
69.43533397368529
 31
0.0
  0
ARC
  5
206
330
22
100
AcDbEntity
  8
2
  6
Continuous
100
AcDbCircle
 10
137.0098419189454
 20
64.99999999999999
 30
0.0
 40
12.69999999999994
100
AcDbArc
 50
340.8882678628009
 51
19.11173213719905
  0
LINE
  5
207
330
22
100
AcDbEntity
  8
2
  6
Continuous
100
AcDbLine
 10
149.0098419189453
 20
52.99999999999999
 30
0.0
 11
149.0098419189453
 21
60.84187542274169
 31
0.0
  0
LINE
  5
208
330
22
100
AcDbEntity
  8
2
  6
Continuous
100
AcDbLine
 10
149.0098419189453
 20
69.15812457725839
 30
0.0
 11
149.0098419189453
 21
76.99999999999999
 31
0.0
  0
LINE
  5
209
330
22
100
AcDbEntity
  8
2
  6
Continuous
100
AcDbLine
 10
23.20000000000005
 20
69.15812457725841
 30
0.0
 11
149.0098419189453
 21
69.15812457725839
 31
0.0
  0
LINE
  5
20A
330
22
100
AcDbEntity
  8
2
  6
Continuous
100
AcDbLine
 10
0.5729802302964799
 20
77.0
 30
0.0
 11
149.7098419189453
 21
76.99999999999999
 31
0.0
  0
LINE
  5
20B
330
22
100
AcDbEntity
  8
2
  6
Continuous
100
AcDbLine
 10
23.20000000000005
 20
60.84187542274171
 30
0.0
 11
149.0098419189453
 21
60.84187542274169
 31
0.0
  0
LINE
  5
20C
330
22
100
AcDbEntity
  8
2
  6
Continuous
100
AcDbLine
 10
20.7355841953065
 20
53.0
 30
0.0
 11
149.7098419189453
 21
52.99999999999999
 31
0.0
  0
LINE
  5
20D
330
22
100
AcDbEntity
  8
2
  6
Continuous
100
AcDbLine
 10
149.7098419189453
 20
76.99999999999999
 30
0.0
 11
150.0098419189453
 21
76.69999999999997
 31
0.0
  0
LINE
  5
20E
330
22
100
AcDbEntity
  8
2
  6
Continuous
100
AcDbLine
 10
150.0098419189453
 20
53.3
 30
0.0
 11
149.7098419189453
 21
52.99999999999999
 31
0.0
  0
LINE
  5
20F
330
22
100
AcDbEntity
  8
2
  6
Continuous
100
AcDbLine
 10
23.20000000000005
 20
53.0
 30
0.0
 11
23.20000000000005
 21
60.84187542274171
 31
0.0
  0
LINE
  5
210
330
22
100
AcDbEntity
  8
2
  6
Continuous
100
AcDbLine
 10
23.20000000000005
 20
69.15812457725841
 30
0.0
 11
23.20000000000005
 21
77.0
 31
0.0
  0
LINE
  5
211
330
22
100
AcDbEntity
  8
2
  6
Continuous
100
AcDbLine
 10
22.50000286478041
 20
53.0
 30
0.0
 11
22.50000286478041
 21
77.0
 31
0.0
  0
ARC
  5
212
330
22
100
AcDbEntity
  8
2
  6
Continuous
100
AcDbCircle
 10
35.38103669630334
 20
65.0
 30
0.0
 40
12.87119477735804
100
AcDbArc
 50
161.1521230863603
 51
198.8478769136397
  0
POLYLINE
  5
213
330
22
100
AcDbEntity
  8
2
  6
Continuous
100
AcDb2dPolyline
 66
     1
 10
0.0
 20
0.0
 30
0.0
  0
VERTEX
  5
214
330
213
100
AcDbEntity
  8
2
  6
Continuous
100
AcDbVertex
100
AcDb2dVertex
 10
18.44477895661635
 20
57.89154776816258
 30
0.0
  0
VERTEX
  5
215
330
213
100
AcDbEntity
  8
2
  6
Continuous
100
AcDbVertex
100
AcDb2dVertex
 10
19.11314381320449
 20
59.4987343786074
 30
0.0
  0
VERTEX
  5
216
330
213
100
AcDbEntity
  8
2
  6
Continuous
100
AcDbVertex
100
AcDb2dVertex
 10
19.60225051294992
 20
61.24786074788281
 30
0.0
  0
VERTEX
  5
217
330
213
100
AcDbEntity
  8
2
  6
Continuous
100
AcDbVertex
100
AcDb2dVertex
 10
19.89980733358414
 20
63.09458035914008
 30
0.0
  0
VERTEX
  5
218
330
213
100
AcDbEntity
  8
2
  6
Continuous
100
AcDbVertex
100
AcDb2dVertex
 10
19.99963702337686
 20
65.0
 30
0.0
  0
VERTEX
  5
219
330
213
100
AcDbEntity
  8
2
  6
Continuous
100
AcDbVertex
100
AcDb2dVertex
 10
19.42311994675708
 20
69.48807821719552
 30
0.0
  0
VERTEX
  5
21A
330
213
100
AcDbEntity
  8
2
  6
Continuous
100
AcDbVertex
100
AcDb2dVertex
 10
18.71921538144454
 20
71.51639565078881
 30
0.0
  0
VERTEX
  5
21B
330
213
100
AcDbEntity
  8
2
  6
Continuous
100
AcDbVertex
100
AcDb2dVertex
 10
17.76984094854993
 20
73.29860518400531
 30
0.0
  0
VERTEX
  5
21C
330
213
100
AcDbEntity
  8
2
  6
Continuous
100
AcDbVertex
100
AcDb2dVertex
 10
16.61374337046743
 20
74.76213576911633
 30
0.0
  0
VERTEX
  5
21D
330
213
100
AcDbEntity
  8
2
  6
Continuous
100
AcDbVertex
100
AcDb2dVertex
 10
15.29799860036303
 20
75.84725648086049
 30
0.0
  0
VERTEX
  5
21E
330
213
100
AcDbEntity
  8
2
  6
Continuous
100
AcDbVertex
100
AcDb2dVertex
 10
13.8737861611462
 20
76.51219509660703
 30
0.0
  0
VERTEX
  5
21F
330
213
100
AcDbEntity
  8
2
  6
Continuous
100
AcDbVertex
100
AcDb2dVertex
 10
12.38663702337692
 20
76.73599999999999
 30
0.0
  0
SEQEND
  5
220
330
213
100
AcDbEntity
  8
2
  0
LINE
  5
221
330
22
100
AcDbEntity
  8
2
  6
Continuous
100
AcDbLine
 10
12.38663702337692
 20
76.73599999999999
 30
0.0
 11
8.919158097879631
 21
76.73599999999999
 31
0.0
  0
POLYLINE
  5
222
330
22
100
AcDbEntity
  8
2
  6
Continuous
100
AcDb2dPolyline
 66
     1
 10
0.0
 20
0.0
 30
0.0
  0
VERTEX
  5
223
330
222
100
AcDbEntity
  8
2
  6
Continuous
100
AcDbVertex
100
AcDb2dVertex
 10
5.322458982040416
 20
76.32868087009831
 30
0.0
  0
VERTEX
  5
224
330
222
100
AcDbEntity
  8
2
  6
Continuous
100
AcDbVertex
100
AcDb2dVertex
 10
6.178916659776519
 20
76.52700469198081
 30
0.0
  0
VERTEX
  5
225
330
222
100
AcDbEntity
  8
2
  6
Continuous
100
AcDbVertex
100
AcDb2dVertex
 10
6.965502379804775
 20
76.64941354124858
 30
0.0
  0
VERTEX
  5
226
330
222
100
AcDbEntity
  8
2
  6
Continuous
100
AcDbVertex
100
AcDb2dVertex
 10
7.828966734497044
 20
76.71386963093818
 30
0.0
  0
VERTEX
  5
227
330
222
100
AcDbEntity
  8
2
  6
Continuous
100
AcDbVertex
100
AcDb2dVertex
 10
8.919158097879972
 20
76.73599999999999
 30
0.0
  0
SEQEND
  5
228
330
222
100
AcDbEntity
  8
2
  0
POLYLINE
  5
229
330
22
100
AcDbEntity
  8
2
  6
Continuous
100
AcDb2dPolyline
 66
     1
 10
0.0
 20
0.0
 30
0.0
  0
VERTEX
  5
22A
330
229
100
AcDbEntity
  8
2
  6
Continuous
100
AcDbVertex
100
AcDb2dVertex
 10
0.5631411761315803
 20
73.28292096799149
 30
0.0
  0
VERTEX
  5
22B
330
229
100
AcDbEntity
  8
2
  6
Continuous
100
AcDbVertex
100
AcDb2dVertex
 10
1.620237009632433
 20
74.25423543437211
 30
0.0
  0
VERTEX
  5
22C
330
229
100
AcDbEntity
  8
2
  6
Continuous
100
AcDbVertex
100
AcDb2dVertex
 10
2.776551843329116
 20
75.09295928414659
 30
0.0
  0
VERTEX
  5
22D
330
229
100
AcDbEntity
  8
2
  6
Continuous
100
AcDbVertex
100
AcDb2dVertex
 10
4.015976877680714
 20
75.787434073453
 30
0.0
  0
VERTEX
  5
22E
330
229
100
AcDbEntity
  8
2
  6
Continuous
100
AcDbVertex
100
AcDb2dVertex
 10
5.322458982040416
 20
76.32868087009831
 30
0.0
  0
SEQEND
  5
22F
330
229
100
AcDbEntity
  8
2
  0
LINE
  5
230
330
22
100
AcDbEntity
  8
2
  6
Continuous
100
AcDbLine
 10
16.26161076048197
 20
73.05070990094157
 30
0.0
 11
16.26161076048197
 21
64.25232052697947
 31
0.0
  0
LINE
  5
2C3
330
22
100
AcDbEntity
  8
6
  6
Continuous
100
AcDbLine
 10
-50.0
 20
-18.5061810818264
 30
0.0
 11
-50.0
 21
0.0000000000000142
 31
0.0
  0
LINE
  5
2C4
330
22
100
AcDbEntity
  8
6
  6
Continuous
100
AcDbLine
 10
-50.29999999999996
 20
-21.99999999999999
 30
0.0
 11
-50.29999999999996
 21
-11.20164197361619
 31
0.0
  0
LINE
  5
2C5
330
22
100
AcDbEntity
  8
6
  6
Continuous
100
AcDbLine
 10
-53.18000000000006
 20
-0.9250081770490937
 30
0.0
 11
-53.18000000000006
 21
-10.8975827575034
 31
0.0
  0
LINE
  5
2C6
330
22
100
AcDbEntity
  8
6
  6
Continuous
100
AcDbLine
 10
-50.0
 20
-10.73851776123048
 30
0.0
 11
-53.18000000000006
 21
-10.52460510697277
 31
0.0
  0
LINE
  5
2C7
330
22
100
AcDbEntity
  8
6
  6
Continuous
100
AcDbLine
 10
-50.0
 20
0.0000000000000142
 30
0.0
 11
-53.18000000000006
 21
-0.9250081770490937
 31
0.0
  0
LINE
  5
2C8
330
22
100
AcDbEntity
  8
6
  6
CENTER
100
AcDbLine
 10
-62.43353919514789
 20
-9.253090858459487
 30
0.0
 11
-48.0
 21
-9.253090858459487
 31
0.0
  0
LINE
  5
2C9
330
22
100
AcDbEntity
  8
6
  6
DASHED
100
AcDbLine
 10
-62.45068237421253
 20
-7.495901675957086
 30
0.0
 11
-53.18000000000006
 21
-7.495901675957086
 31
0.0
  0
LINE
  5
2CB
330
22
100
AcDbEntity
  8
6
  6
Continuous
100
AcDbLine
 10
-59.00123832757845
 20
-1.040775224935302
 30
0.0
 11
-53.18000000000006
 21
-1.040775224935302
 31
0.0
  0
LINE
  5
2CC
330
22
100
AcDbEntity
  8
6
  6
Continuous
100
AcDbLine
 10
-53.18000000000006
 20
-10.8975827575034
 30
0.0
 11
-51.98000000000002
 21
-10.8975827575034
 31
0.0
  0
LINE
  5
2CD
330
22
100
AcDbEntity
  8
6
  6
Continuous
100
AcDbLine
 10
-50.0
 20
-18.5061810818264
 30
0.0
 11
-50.29999999999996
 21
-18.40173573184008
 31
0.0
  0
LINE
  5
2CE
330
22
100
AcDbEntity
  8
6
  6
Continuous
100
AcDbLine
 10
-51.98000000000002
 20
-10.8975827575034
 30
0.0
 11
-50.29999999999996
 21
-11.20164197361619
 31
0.0
  0
ARC
  5
2CF
330
22
100
AcDbEntity
  8
6
  6
Continuous
100
AcDbCircle
 10
-50.0
 20
-9.999999999999986
 30
0.0
 40
12.7
100
AcDbArc
 50
19.11173213719897
 51
70.88826786280104
  0
ARC
  5
2D0
330
22
100
AcDbEntity
  8
6
  6
Continuous
100
AcDbCircle
 10
-50.0
 20
-9.999999999999986
 30
0.0
 40
12.7
100
AcDbArc
 50
109.111732137199
 51
250.888267862801
  0
ARC
  5
2D1
330
22
100
AcDbEntity
  8
6
  6
Continuous
100
AcDbCircle
 10
-50.0
 20
-9.999999999999986
 30
0.0
 40
12.7
100
AcDbArc
 50
289.111732137199
 51
340.8882678628011
  0
LINE
  5
2D2
330
22
100
AcDbEntity
  8
6
  6
CENTER
100
AcDbLine
 10
-64.70000000000005
 20
-9.999999999999986
 30
0.0
 11
-35.29999999999996
 21
-9.999999999999986
 31
0.0
  0
LINE
  5
2D3
330
22
100
AcDbEntity
  8
6
  6
CENTER
100
AcDbLine
 10
-50.0
 20
-24.7
 30
0.0
 11
-50.0
 21
4.700000000000003
 31
0.0
  0
LINE
  5
2D4
330
22
100
AcDbEntity
  8
6
  6
Continuous
100
AcDbLine
 10
-38.0
 20
-5.84187542274158
 30
0.0
 11
-38.0
 21
-14.15812457725831
 31
0.0
  0
LINE
  5
2D5
330
22
100
AcDbEntity
  8
6
  6
Continuous
100
AcDbLine
 10
-54.15812457725838
 20
2.000000000000014
 30
0.0
 11
-45.84187542274162
 21
2.000000000000014
 31
0.0
  0
LINE
  5
2D6
330
22
100
AcDbEntity
  8
6
  6
Continuous
100
AcDbLine
 10
-45.84187542274162
 20
-21.99999999999999
 30
0.0
 11
-54.15812457725838
 21
-21.99999999999999
 31
0.0
  0
LINE
  5
2D7
330
22
100
AcDbEntity
  8
6
  6
Continuous
100
AcDbLine
 10
-50.0
 20
-7.495901675957086
 30
0.0
 11
-38.26417912613158
 21
-7.495901675957086
 31
0.0
  0
ARC
  5
2D8
330
22
100
AcDbEntity
  8
6
  6
Continuous
100
AcDbCircle
 10
-50.0
 20
-9.999999999999986
 30
0.0
 40
12.0
100
AcDbArc
 50
268.5674562624336
 51
131.7031106946987
  0
LINE
  5
3FF
330
22
100
AcDbEntity
  8
0
100
AcDbLine
 10
0.1984374999999545
 20
0.0
 30
0.0
 11
0.0
 21
0.0
 31
0.0
  0
LINE
  5
400
330
22
100
AcDbEntity
  8
0
100
AcDbLine
 10
0.0
 20
0.0
 30
0.0
 11
0.0
 21
-0.1984374999999972
 31
0.0
  0
DIMENSION
  5
413
330
22
100
AcDbEntity
  8
AM_5
100
AcDbDimension
  2
*D2
 10
-18.51315114637987
 20
-9.999999999999981
 30
0.0
 11
-21.10315114637987
 21
-4.999999999999983
 31
0.0
 70
    32
 71
     5
 42
10.0
  3
Standard$0
100
AcDbAlignedDimension
 13
0.0
 23
0.0000000000000142
 33
0.0
 14
0.0
 24
-9.999999999999986
 34
0.0
 50
270.0
100
AcDbRotatedDimension
1001
ACAD
1000
DSTYLE
1002
{
1070
    41
1040
3.0
1070
    42
1040
1.0
1070
    43
1040
5.0
1070
    44
1040
2.0
1070
    46
1040
3.0
1070
    73
1070
     0
1070
    74
1070
     0
1070
    77
1070
     1
1070
    78
1070
     8
1070
   140
1040
5.0
1070
   141
1040
2.0
1070
   145
1040
1.0
1070
   171
1070
     4
1070
   172
1070
     1
1002
}
  0
DIMENSION
  5
43D
330
22
100
AcDbEntity
  8
AM_5
100
AcDbDimension
  2
*D3
 10
67.57473087011732
 20
17.76442626870036
 30
0.0
 11
79.57473087011732
 21
20.35442626870036
 31
0.0
 70
    32
 71
     5
 42
24.0
  3
Standard$0
100
AcDbAlignedDimension
 13
91.57473087011732
 23
-9.999999999999957
 33
0.0
 14
67.57473087011732
 24
-9.999999999999943
 34
0.0
 50
180.0
100
AcDbRotatedDimension
1001
ACAD
1000
DSTYLE
1002
{
1070
    41
1040
3.0
1070
    42
1040
1.0
1070
    43
1040
5.0
1070
    44
1040
2.0
1070
    46
1040
3.0
1070
    73
1070
     0
1070
    74
1070
     0
1070
    77
1070
     1
1070
    78
1070
     8
1070
   140
1040
5.0
1070
   141
1040
2.0
1070
   145
1040
1.0
1070
   171
1070
     4
1070
   172
1070
     1
1002
}
  0
DIMENSION
  5
461
330
22
100
AcDbEntity
  8
AM_5
100
AcDbDimension
  2
*D4
 10
106.5088144511979
 20
-22.00000000000002
 30
0.0
 11
106.5088144511979
 21
-35.70367834532571
 31
0.0
 70
   160
 71
     5
 42
24.0
  3
Standard$0
100
AcDbAlignedDimension
 13
79.57473087011732
 23
1.999999999999986
 33
0.0
 14
79.57473087011732
 24
-22.00000000000001
 34
0.0
 50
270.0
100
AcDbRotatedDimension
1001
ACAD
1000
DSTYLE
1002
{
1070
    41
1040
3.0
1070
    42
1040
1.0
1070
    43
1040
5.0
1070
    44
1040
2.0
1070
    46
1040
3.0
1070
    73
1070
     0
1070
    74
1070
     0
1070
    77
1070
     1
1070
    78
1070
     8
1070
   140
1040
5.0
1070
   141
1040
2.0
1070
   145
1040
1.0
1070
   171
1070
     4
1070
   172
1070
     1
1002
}
  0
DIMENSION
  5
493
330
22
100
AcDbEntity
  8
AM_5
100
AcDbDimension
  2
*D5
 10
0.0000000000000011
 20
17.42505377655282
 30
0.0
 11
10.0
 21
20.01505377655282
 31
0.0
 70
    32
 71
     5
 42
20.0
  3
Standard$0
100
AcDbAlignedDimension
 13
20.0
 23
2.0
 33
0.0
 14
0.0
 24
0.0
 34
0.0
 50
180.0
100
AcDbRotatedDimension
1001
ACAD
1000
DSTYLE
1002
{
1070
    41
1040
3.0
1070
    42
1040
1.0
1070
    43
1040
5.0
1070
    44
1040
2.0
1070
    46
1040
3.0
1070
    73
1070
     0
1070
    74
1070
     0
1070
    77
1070
     1
1070
    78
1070
     8
1070
   140
1040
5.0
1070
   141
1040
2.0
1070
   145
1040
1.0
1070
   171
1070
     4
1070
   172
1070
     1
1002
}
  0
DIMENSION
  5
4AE
330
22
100
AcDbEntity
  8
AM_5
100
AcDbDimension
  2
*D6
 10
0.0012215533060953
 20
-0.1147399842738963
 30
0.0
 11
-9.72876650876924
 21
-31.26002536878551
 31
0.0
 70
    34
 71
     5
 42
0.1570796687798817
  3
Standard$2
100
AcDb2LineAngularDimension
 13
0.0
 23
0.0
 33
0.0
 14
0.0
 24
-0.1984374999999972
 34
0.0
 15
1.683863043785095
 25
-10.73851776123048
 35
0.0
 16
3.653059640590809
 26
-34.86356014910911
 36
0.0
1001
ACAD
1000
DSTYLE
1002
{
1070
    41
1040
3.0
1070
    42
1040
1.0
1070
    43
1040
5.0
1070
    44
1040
2.0
1070
    46
1040
3.0
1070
    73
1070
     0
1070
    74
1070
     0
1070
    77
1070
     1
1070
    78
1070
     8
1070
   140
1040
5.0
1070
   141
1040
2.0
1070
   145
1040
1.0
1070
   171
1070
     4
1070
   172
1070
     1
1002
}
  0
DIMENSION
  5
531
330
22
100
AcDbEntity
  8
AM_5
100
AcDbDimension
  2
*D8
 10
-20.65035118877404
 20
65.0
 30
0.0
 11
-23.24035118877405
 21
72.34
 31
0.0
 70
    32
 71
     5
 42
-1.0
  3
Standard$0
100
AcDbAlignedDimension
 13
0.0098390541648996
 23
65.0
 33
0.0
 14
1.743656568139613
 24
65.0
 34
0.0
 50
270.0
100
AcDbRotatedDimension
1001
ACAD
1000
DSTYLE
1002
{
1070
    41
1040
3.0
1070
    42
1040
1.0
1070
    43
1040
5.0
1070
    44
1040
2.0
1070
    46
1040
3.0
1070
    73
1070
     0
1070
    74
1070
     0
1070
    77
1070
     1
1070
    78
1070
     8
1070
   140
1040
5.0
1070
   141
1040
2.0
1070
   145
1040
1.0
1070
   171
1070
     4
1070
   172
1070
     1
1002
}
  0
DIMENSION
  5
557
330
22
100
AcDbEntity
  8
AM_5
100
AcDbDimension
  2
*D9
 10
0.009839054164898
 20
38.52719093923562
 30
0.0
 11
75.00984048655511
 21
41.11719093923563
 31
0.0
 70
    32
 71
     5
 42
150.0000028647804
  3
Standard$0
100
AcDbAlignedDimension
 13
150.0098419189453
 23
54.6324956589212
 33
0.0
 14
0.0098390541648996
 24
65.0
 34
0.0
 50
180.0
100
AcDbRotatedDimension
1001
ACAD
1000
DSTYLE
1002
{
1070
    41
1040
3.0
1070
    42
1040
1.0
1070
    43
1040
5.0
1070
    44
1040
2.0
1070
    46
1040
3.0
1070
    73
1070
     0
1070
    74
1070
     0
1070
    77
1070
     1
1070
    78
1070
     8
1070
   140
1040
5.0
1070
   141
1040
2.0
1070
   145
1040
1.0
1070
   171
1070
     4
1070
   172
1070
     1
1002
}
  0
DIMENSION
  5
59B
330
22
100
AcDbEntity
  8
AM_5
100
AcDbDimension
  2
*D10
 10
86.10172977456574
 20
0.8944153262728989
 30
0.0
 11
63.27531738404733
 21
-37.20585412859165
 31
0.0
 70
   163
 71
     5
 42
25.39999999999999
  3
Standard$3
100
AcDbDiametricDimension
 15
73.04773196566897
 25
-20.89441532627287
 35
0.0
 40
0.0
1001
ACAD
1000
DSTYLE
1002
{
1070
    41
1040
3.0
1070
    42
1040
1.0
1070
    43
1040
5.0
1070
    44
1040
2.0
1070
    46
1040
3.0
1070
    73
1070
     0
1070
    74
1070
     0
1070
    77
1070
     1
1070
    78
1070
     8
1070
   140
1040
5.0
1070
   141
1040
2.0
1070
   145
1040
1.0
1070
   171
1070
     4
1070
   172
1070
     1
1070
   271
1070
     0
1002
}
  0
TEXT
  5
5EC
330
22
100
AcDbEntity
  8
0
100
AcDbText
 10
17.12560808899161
 20
-71.89325537828047
 30
0.0
 40
5.0
  1
%%uRS25X-SVXL11
100
AcDbText
  0
ACAD_PROXY_ENTITY
  5
703
330
22
100
AcDbEntity
  8
AM_5
100
AcDbProxyEntity
 90
      498
 91
      570
 95
       25
 70
     0
 92
      668
310
9C020000270000000C00000016000000000000C00C00000013000000010000000C00000016000000000000C00C00000017000000FFFFFFFF3C000000060000000200000070FFC99D8ACE42C0204AF2C1A8DF3C4000000000000000004665FAA17BC33EC0234AF2C1A8DF3C4000000000000000000C00000016000000000000
310
C00C00000010000000FFFFFFFF0C00000012000000FFFFFFFF0C00000017000000000000000C00000014000000010000000C00000013000000020000000C00000016000000000000C00C00000017000000FFFFFFFF3C00000006000000020000004665FAA17BC33EC0234AF2C1A8DF3C400000000000000000E0FE933B159D
310
3BC0244AF2C1A8DF3C4000000000000000000C00000016000000000000C00C00000010000000FFFFFFFF0C00000012000000FFFFFFFF0C00000017000000000000000C00000014000000010000000C00000013000000030000000C00000016000000000000C00C00000017000000FFFFFFFF3C000000060000000200000046
310
65FAA17BC33EC0D0C673A07E753C400000000000000000E0FE933B159D3BC0244AF2C1A8DF3C4000000000000000000C00000016000000000000C00C00000010000000FFFFFFFF0C00000012000000FFFFFFFF0C00000017000000000000000C00000014000000010000000C00000013000000040000000C00000016000000
310
000000C00C00000017000000FFFFFFFF3C0000000600000002000000E0FE933B159D3BC0244AF2C1A8DF3C4000000000000000004665FAA17BC33EC075CD70E3D2493D4000000000000000000C00000016000000000000C00C00000010000000FFFFFFFF0C00000012000000FFFFFFFF0C00000017000000000000000C0000
310
0014000000010000000C00000013000000050000000C00000016000000000000C0
 93
     1473
310
5DCE05A6E3ABD8B3AC00912BCB06A37CF10219FD35022281B66F19197D35022281B64F2A54051F8000000C800AA1C3FF26762B390B00204AF2C1A8DF3C409018FFFFFFFF383FA4CEC5674EF00244AF2C1A8DF3C40A8FFFFFFFF1FFFFFFFF0E1FF933B159C858010257960D46F9E2045409C870E0653004F10442C0101F497D
310
76DC8F902A0000000000003C2FC65F4D4088A86D9BC68333333333333094041D050000000000003C2FC000000000000F0BF40401015213500500
340
507
340
513
330
0
330
0
340
0
340
0
340
4F6
330
0
330
0
 94
        0
  0
ACAD_PROXY_ENTITY
  5
704
330
22
100
AcDbEntity
  8
AM_5
100
AcDbProxyEntity
 90
      498
 91
      570
 95
       25
 70
     0
 92
      668
310
9C020000270000000C00000016000000000000C00C00000013000000010000000C00000016000000000000C00C00000017000000FFFFFFFF3C000000060000000200000070FFC99D8ACE42C0204AF2C1A8DF3C40000000000000000065FFC99D8ACE42C08AB058280F06364000000000000000000C00000016000000000000
310
C00C00000010000000FFFFFFFF0C00000012000000FFFFFFFF0C00000017000000000000000C00000014000000010000000C00000013000000020000000C00000016000000000000C00C00000017000000FFFFFFFF3C000000060000000200000065FFC99D8ACE42C08AB058280F063640000000000000000060FFC99D8ACE
310
42C0244AF2C1A8DF324000000000000000000C00000016000000000000C00C00000010000000FFFFFFFF0C00000012000000FFFFFFFF0C00000017000000000000000C00000014000000010000000C00000013000000030000000C00000016000000000000C00C00000017000000FFFFFFFF3C00000006000000020000000E
310
4189AE9F0343C089B058280F063640000000000000000060FFC99D8ACE42C0244AF2C1A8DF324000000000000000000C00000016000000000000C00C00000010000000FFFFFFFF0C00000012000000FFFFFFFF0C00000017000000000000000C00000014000000010000000C00000013000000040000000C00000016000000
310
000000C00C00000017000000FFFFFFFF3C000000060000000200000060FFC99D8ACE42C0244AF2C1A8DF32400000000000000000BCBD0A8D759942C08CB058280F06364000000000000000000C00000016000000000000C00C00000010000000FFFFFFFF0C00000012000000FFFFFFFF0C00000017000000000000000C0000
310
0014000000010000000C00000013000000050000000C00000016000000000000C0
 93
     1537
310
5DC60FFC99D8ACE42C00B29B33014338C502465F4D4088A06D13C866F4D4088A06D13C0000000000003C2FEA54051F8000000C800AA1C3FF26762B390B00204AF2C1A8DF3C409018FFFFFFFF183FF26762B390B00244AF2C1A8DF3240A8FFFFFFFF1FFFFFFFF0E1FF933B159C858010257960D46F9E2045409C870E0653004
310
F10442C00005EFE39D530ED02A0000000000003C2FD197D35022281B44F28333333333333094041D050000000000003C2FC000000000000F0BF40401015213500500
340
507
340
513
330
0
330
0
340
0
340
0
340
4F6
330
0
330
0
 94
        0
  0
TEXT
  5
705
330
22
100
AcDbEntity
  8
AM_6
100
AcDbText
 10
-38.4742027544284
 20
11.24618679054103
 30
0.0
 40
4.0
  1
0%%D
100
AcDbText
  0
TEXT
  5
706
330
22
100
AcDbEntity
  8
AM_6
100
AcDbText
 10
-25.88930014323489
 20
26.98124953992812
 30
0.0
 40
4.0
  1
0%%D
100
AcDbText
  0
ENDSEC
  0
SECTION
  2
OBJECTS
  0
DICTIONARY
  5
C
330
0
100
AcDbDictionary
281
     1
  3
ACAD_COLOR
350
1B
  3
ACAD_GROUP
350
D
  3
ACAD_LAYOUT
350
19
  3
ACAD_MATERIAL
350
1A
  3
ACAD_MLINESTYLE
350
16
  3
ACAD_PLOTSETTINGS
350
18
  3
ACAD_PLOTSTYLENAME
350
E
  3
ACAD_TABLESTYLE
350
1C
  3
AcAmCatalogState
350
374
  3
ACDBHEADERROUNDTRIPXREC
350
779
  3
AcDbVariableDictionary
350
3C5
  3
ACDMSYSVARMGR
350
32E
  3
ACGREF_MASTER
350
328
  3
ACGREFACAD_MASTER
350
350
  3
AcmDictionary
350
372
  3
ACME_BOM_MANAGER_NAME
350
322
  3
ACME_COMMAND_HISTORY
350
31F
  3
ACME_SCOPE_NAME
350
31E
  3
ACMESTATEMGR
350
327
  3
AcmeSysVarManager
350
320
  3
AcmSystemVariableManager
350
37D
  3
AD_APPL
350
35F
  3
ADSYSVARMGR
350
35E
  3
AmdtNamedDwgMgr
350
34B
  3
AMG
350
354
  3
AMGSNAPSETTINGS
350
3B4
  3
AMI_MASTER
350
353
  3
AUTOCAD_ASSEMBLIES_PROJECT
350
367
  3
Designer_Assemblies_SysVars
350
362
  3
GREFAM_MODULE
350
358
  0
DICTIONARY
  5
501
330
2
100
AcDbDictionary
280
     1
281
     1
  3
ACAD_LAYERSTATES
360
502
  0
DICTIONARY
  5
1B
102
{ACAD_REACTORS
330
C
102
}
330
C
100
AcDbDictionary
281
     1
  0
DICTIONARY
  5
D
102
{ACAD_REACTORS
330
C
102
}
330
C
100
AcDbDictionary
281
     1
  0
DICTIONARY
  5
19
102
{ACAD_REACTORS
330
C
102
}
330
C
100
AcDbDictionary
281
     1
  3
Model
350
25
  3
レイアウト1
350
21
  0
DICTIONARY
  5
1A
102
{ACAD_REACTORS
330
C
102
}
330
C
100
AcDbDictionary
281
     1
  0
DICTIONARY
  5
16
102
{ACAD_REACTORS
330
C
102
}
330
C
100
AcDbDictionary
281
     1
  3
Standard
350
17
  0
DICTIONARY
  5
18
102
{ACAD_REACTORS
330
C
102
}
330
C
100
AcDbDictionary
281
     1
  0
ACDBDICTIONARYWDFLT
  5
E
102
{ACAD_REACTORS
330
C
102
}
330
C
100
AcDbDictionary
281
     1
  3
Normal
350
F
100
AcDbDictionaryWithDefault
340
F
  0
DICTIONARY
  5
1C
102
{ACAD_REACTORS
330
C
102
}
330
C
100
AcDbDictionary
281
     1
  3
Standard
350
1D
  0
ACAD_PROXY_OBJECT
  5
374
102
{ACAD_REACTORS
330
C
102
}
330
C
100
AcDbProxyObject
 90
      499
 91
      545
 95
       25
 70
     0
 93
      504
310
3FFFFFFFE00A0281402992E2E21BA3239AE483ECB654563CBCEAE4AABC7C0483ECB652E487CC6F6CBB846A445F7AE41BDC1B341A12E272A25C83ECB65400AA
  0
DICTIONARY
  5
779
102
{ACAD_REACTORS
330
C
102
}
330
C
100
AcDbDictionary
281
     1
  3
COLORDICT
350
77A
  3
MATERIALDICT
350
77B
  0
DICTIONARY
  5
3C5
102
{ACAD_REACTORS
330
C
102
}
330
C
100
AcDbDictionary
281
     1
  3
CTABLESTYLE
350
3C6
  3
DIMASSOC
350
777
  3
HIDETEXT
350
778
  0
ACAD_PROXY_OBJECT
  5
32E
102
{ACAD_REACTORS
330
C
102
}
330
C
100
AcDbProxyObject
 90
      499
 91
      505
 95
       25
 70
     0
 93
      240
310
4C51A47A0000000000000000000000000000000000000000000000000000
330
32F
330
330
330
331
330
332
330
333
330
334
330
335
330
336
330
337
330
338
330
339
330
33A
330
33B
330
33C
330
33D
330
33E
330
33F
330
340
330
341
330
342
330
343
330
344
330
345
330
346
330
347
330
348
 94
        0
  0
ACAD_PROXY_OBJECT
  5
328
102
{ACAD_REACTORS
330
C
102
}
330
C
100
AcDbProxyObject
 90
      499
 91
      513
 95
       25
 70
     0
 93
       34
310
0400004280
  0
ACAD_PROXY_OBJECT
  5
350
102
{ACAD_REACTORS
330
C
102
}
330
C
100
AcDbProxyObject
 90
      499
 91
      522
 95
       25
 70
     0
 93
      114
310
04000041C080000000000000000000
  0
DICTIONARY
  5
372
102
{ACAD_REACTORS
330
C
102
}
330
C
100
AcDbDictionary
281
     1
  3
AcmBOMDATA
350
373
  3
AcmStdDictionary
350
37F
  3
AMDTSECTSYM_ARROWCOLOR
350
39F
  0
ACAD_PROXY_OBJECT
  5
322
102
{ACAD_REACTORS
330
C
102
}
330
C
100
AcDbProxyObject
 90
      499
 91
      507
 95
       25
 70
     0
 93
       50
310
00010040400000
330
0
330
0
330
323
 94
        0
  0
ACAD_PROXY_OBJECT
  5
31F
102
{ACAD_REACTORS
330
C
102
}
330
C
100
AcDbProxyObject
 90
      499
 91
      504
 95
       25
 70
     0
 93
     6578
310
478050644444544495440405184D5347202D20436F6D6D616E642043414E43454C4C45442E014194D1531150D510201461354D1C80B4810DBDB5B585B990810D05390D1531311510B8052D4D5347202D205050413A2020206465736B746F702E6172782046696C6556657273696F6E3A20392E322E302E34014194D1531150
310
D510101461354D1C80B4810DBDB5B585B990810D05390D1531311510B8050653454C4543548050653454C454354805055153415645408052D4D5347202D205050413A2020206465736B746F702E6172782046696C6556657273696F6E3A20392E322E302E3401461354D1C80B4810DBDB5B585B990810D05390D1531311510
310
B80505505552474540805184D5347202D20436F6D6D616E642043414E43454C4C45442E014B5354D1C80B481414104E88080819195CDADD1BDC0B985C9E08119A5B1955995C9CDA5BDB8E880E4B8C8B8C0B8D0050E414D4454524553455444424D4F4440805084E202D20554E444F014213880B4815539113C0504554E444F
310
80504554E444F80506524F544154458050844524F5047454F4D805045A4F4F4D805044D4F564540405184D5347202D20436F6D6D616E642043414E43454C4C45442E01411693D3D3601411312539150101461354D1C80B4810DBDB5B585B990810D05390D1531311510B805055153415645404052D4D5347202D205050413A
310
2020206465736B746F702E6172782046696C6556657273696F6E3A20392E322E302E34014390535115149154D15511109353D1102014213880B4815539113C05084E202D20554E444F014115539113E014115539113E014151549054D160142541054D51150D31254201415454D05591501014B5354D1C80B481414104E880
310
80819195CDADD1BDC0B985C9E08119A5B1955995C9CDA5BDB8E880E4B8C8B8C0B8D0050E414D4454524553455444424D4F4440805084E202D20554E444F014213880B4815539113C0504554E444F80504554E444F805044D4F5645805045A4F4F4D805044C494E4540405184D5347202D20436F6D6D616E642043414E43454
310
C4C45442E01415454D05591501014B5354D1C80B481414104E88080819195CDADD1BDC0B985C9E08119A5B1955995C9CDA5BDB8E880E4B8C8B8C0B8D00
  0
ACAD_PROXY_OBJECT
  5
31E
102
{ACAD_REACTORS
330
C
102
}
330
C
100
AcDbProxyObject
 90
      499
 91
      503
 95
       25
 70
     0
 93
      546
310
090000464080000000000000000012F4CE0000000000000000000000000000000000000000000000000000000000000000000000000000000000000000000000AAA406AA80
360
321
360
323
360
329
360
32A
360
32B
360
32C
360
32F
360
330
360
331
360
332
360
333
360
334
360
335
360
336
360
337
360
338
360
339
360
33A
360
33B
360
33C
360
33D
360
33E
360
33F
360
340
360
341
360
342
360
343
360
344
360
345
360
346
360
347
360
348
360
35A
360
35B
360
35C
360
35D
360
363
360
364
360
365
360
366
360
36B
360
36C
360
36D
360
36E
360
36F
360
370
360
37E
 94
        0
  0
ACAD_PROXY_OBJECT
  5
327
102
{ACAD_REACTORS
330
C
102
}
330
C
100
AcDbProxyObject
 90
      499
 91
      512
 95
       25
 70
     0
 93
       50
310
09000042641280
  0
ACAD_PROXY_OBJECT
  5
320
102
{ACAD_REACTORS
330
C
102
}
330
C
100
AcDbProxyObject
 90
      499
 91
      505
 95
       25
 70
     0
 93
       32
310
90140A00
330
321
 94
        0
  0
ACAD_PROXY_OBJECT
  5
37D
102
{ACAD_REACTORS
330
C
102
}
330
C
100
AcDbProxyObject
 90
      499
 91
      505
 95
       25
 70
     0
 93
       32
310
90140A00
330
37E
 94
        0
  0
ACAD_PROXY_OBJECT
  5
35F
102
{ACAD_REACTORS
330
C
102
}
330
C
100
AcDbProxyObject
 90
      499
 91
      533
 95
       25
 70
     0
 93
       42
310
000900004040
330
35A
 94
        0
  0
ACAD_PROXY_OBJECT
  5
35E
102
{ACAD_REACTORS
330
C
102
}
330
C
100
AcDbProxyObject
 90
      499
 91
      505
 95
       25
 70
     0
 93
        8
310
AA
  0
ACAD_PROXY_OBJECT
  5
34B
102
{ACAD_REACTORS
330
C
102
}
330
C
100
AcDbProxyObject
 90
      499
 91
      519
 95
       25
 70
     0
 93
       42
310
000100005E80
330
329
 94
        0
  0
DICTIONARY
  5
354
102
{ACAD_REACTORS
330
C
102
}
330
C
100
AcDbDictionary
281
     1
  3
AcMgSettings
350
355
  3
AMGLAYCFG
350
381
  0
DICTIONARY
  5
3B4
102
{ACAD_REACTORS
330
C
102
}
330
C
100
AcDbDictionary
281
     1
  3
DIMENSION
350
3B9
  3
FEA
350
3B8
  3
HATCH (1)
350
3B5
  3
HATCH (2)
350
3B6
  3
SIMPLE WELD
350
3BA
  3
SYMBOLS
350
3B7
  0
ACAD_PROXY_OBJECT
  5
353
102
{ACAD_REACTORS
330
C
102
}
330
C
100
AcDbProxyObject
 90
      499
 91
      525
 95
       25
 70
     0
 93
       34
310
0500004280
  0
ACAD_PROXY_OBJECT
  5
367
102
{ACAD_REACTORS
330
C
102
}
330
C
100
AcDbProxyObject
 90
      499
 91
      537
 95
       25
 70
     0
 93
       98
310
0900004E400000000000000000
330
36E
330
0
330
36F
330
0
330
0
330
0
330
0
330
0
 94
        0
  0
ACAD_PROXY_OBJECT
  5
362
102
{ACAD_REACTORS
330
C
102
}
330
C
100
AcDbProxyObject
 90
      499
 91
      505
 95
       25
 70
     0
 93
       56
310
90441600000000
330
363
330
364
330
365
330
366
 94
        0
  0
ACAD_PROXY_OBJECT
  5
358
102
{ACAD_REACTORS
330
C
102
}
330
C
100
AcDbProxyObject
 90
      499
 91
      527
 95
       25
 70
     0
 93
        8
310
05
  0
DICTIONARY
  5
502
102
{ACAD_REACTORS
330
501
102
}
330
501
100
AcDbDictionary
281
     1
  0
LAYOUT
  5
25
102
{ACAD_REACTORS
330
19
102
}
330
19
100
AcDbPlotSettings
  1

  2
Canon LBP-1420
  4
A4
  6

 40
5.873749732971191
 41
5.873747825622559
 42
5.873748779296875
 43
5.873748779296875
 44
209.9733276367188
 45
296.9259948730469
 46
0.0
 47
0.0
 48
0.0
 49
0.0
140
400.0
141
273.0
142
1.0
143
1.402630290955233
 70
 11952
 72
     1
 73
     1
 74
     4
  7
sei_cad.ctb
 75
     0
147
0.7129462456703186
148
0.0
149
0.0
100
AcDbLayout
  1
Model
 70
     1
 71
     0
 10
0.0
 20
0.0
 11
12.0
 21
9.0
 12
0.0
 22
0.0
 32
0.0
 14
0.0
 24
0.0
 34
0.0
 15
0.0
 25
0.0
 35
0.0
146
0.0
 13
0.0
 23
0.0
 33
0.0
 16
1.0
 26
0.0
 36
0.0
 17
0.0
 27
1.0
 37
0.0
 76
     0
330
22
1001
ACAD_PSEXT
1000
Canon LBP-1420
1000
Canon LASER SHOT LBP-1420
1000
10.254.89.243:lp
1000

1070
     0
  0
LAYOUT
  5
21
102
{ACAD_REACTORS
330
19
102
}
330
19
100
AcDbPlotSettings
  1

  2
Canon LBP-1420
  4

  6

 40
0.0
 41
0.0
 42
0.0
 43
0.0
 44
0.0
 45
0.0
 46
0.0
 47
0.0
 48
0.0
 49
0.0
140
0.0
141
0.0
142
1.0
143
1.0
 70
   688
 72
     0
 73
     0
 74
     5
  7
sei_cad.ctb
 75
    16
147
1.0
148
0.0
149
0.0
100
AcDbLayout
  1
レイアウト1
 70
     1
 71
     1
 10
0.0
 20
0.0
 11
12.0
 21
9.0
 12
0.0
 22
0.0
 32
0.0
 14
1.000000000000000E+20
 24
1.000000000000000E+20
 34
1.000000000000000E+20
 15
-1.000000000000000E+20
 25
-1.000000000000000E+20
 35
-1.000000000000000E+20
146
0.0
 13
0.0
 23
0.0
 33
0.0
 16
1.0
 26
0.0
 36
0.0
 17
0.0
 27
1.0
 37
0.0
 76
     0
330
1E
  0
MLINESTYLE
  5
17
102
{ACAD_REACTORS
330
16
102
}
330
16
100
AcDbMlineStyle
  2
STANDARD
 70
     0
  3

 62
   256
 51
90.0
 52
90.0
 71
     2
 49
0.5
 62
   256
  6
BYLAYER
 49
-0.5
 62
   256
  6
BYLAYER
  0
ACDBPLACEHOLDER
  5
F
102
{ACAD_REACTORS
330
E
102
}
330
E
  0
TABLESTYLE
  5
1D
102
{ACAD_REACTORS
330
1C
102
}
330
1C
100
AcDbTableStyle
  3
Standard
 70
     0
 71
     0
 40
0.06
 41
0.06
280
     0
281
     0
  7
STANDARD
140
0.18
170
     2
 62
     0
 63
     7
283
     0
274
    -2
284
     1
 64
     0
275
    -2
285
     1
 65
     0
276
    -2
286
     1
 66
     0
277
    -2
287
     1
 67
     0
278
    -2
288
     1
 68
     0
279
    -2
289
     1
 69
     0
  7
STANDARD
140
0.25
170
     5
 62
     0
 63
     7
283
     0
274
    -2
284
     1
 64
     0
275
    -2
285
     1
 65
     0
276
    -2
286
     1
 66
     0
277
    -2
287
     1
 67
     0
278
    -2
288
     1
 68
     0
279
    -2
289
     1
 69
     0
  7
STANDARD
140
0.18
170
     5
 62
     0
 63
     7
283
     0
274
    -2
284
     1
 64
     0
275
    -2
285
     1
 65
     0
276
    -2
286
     1
 66
     0
277
    -2
287
     1
 67
     0
278
    -2
288
     1
 68
     0
279
    -2
289
     1
 69
     0
  0
XRECORD
  5
77A
102
{ACAD_REACTORS
330
779
102
}
330
779
100
AcDbXrecord
280
     1
340
1B
  0
XRECORD
  5
77B
102
{ACAD_REACTORS
330
779
102
}
330
779
100
AcDbXrecord
280
     1
340
1A
  0
DICTIONARYVAR
  5
3C6
102
{ACAD_REACTORS
330
3C5
102
}
330
3C5
100
DictionaryVariables
280
     0
  1
STANDARD
  0
DICTIONARYVAR
  5
777
102
{ACAD_REACTORS
330
3C5
102
}
330
3C5
100
DictionaryVariables
280
     0
  1
1
  0
DICTIONARYVAR
  5
778
102
{ACAD_REACTORS
330
3C5
102
}
330
3C5
100
DictionaryVariables
280
     0
  1
0
  0
ACAD_PROXY_OBJECT
  5
373
102
{ACAD_REACTORS
330
372
102
}
330
372
100
AcDbProxyObject
 90
      499
 91
      544
 95
       25
 70
     0
 93
       76
310
90100057356C1D774120
  0
DICTIONARY
  5
37F
102
{ACAD_REACTORS
330
372
102
}
330
372
100
AcDbDictionary
281
     1
  3
ANSI
350
380
  3
JIS
350
507
  0
XRECORD
  5
39F
102
{ACAD_REACTORS
330
372
102
}
330
372
100
AcDbXrecord
280
     1
 90
-1023410169
  0
ACAD_PROXY_OBJECT
  5
321
330
31E
100
AcDbProxyObject
 90
      499
 91
      506
 95
       25
 70
     0
 93
      156
310
000101439050D35154D6535093D314D256915080
330
31E
 94
        0
  0
ACAD_PROXY_OBJECT
  5
323
330
31E
100
AcDbProxyObject
 90
      499
 91
      508
 95
       25
 70
     0
 93
      120
310
000101422565255A6557080C402B00
330
31E
330
0
330
0
 94
        0
  0
ACAD_PROXY_OBJECT
  5
329
330
31E
100
AcDbProxyObject
 90
      499
 91
      514
 95
       25
 70
     0
 93
      366
310
0001014124FEA55D00507392E322E302E32014124FEA55D00507392E322E302E3240501000041905394D24CCC658
330
31E
330
32A
330
32E
 94
        0
  0
ACAD_PROXY_OBJECT
  5
32A
330
31E
100
AcDbProxyObject
 90
      499
 91
      515
 95
       25
 70
     0
 93
       48
310
000190140A00
330
31E
330
32B
 94
        0
  0
ACAD_PROXY_OBJECT
  5
32B
330
31E
100
AcDbProxyObject
 90
      499
 91
      516
 95
       25
 70
     0
 93
       48
310
0001AA000000
330
31E
330
21
330
32C
330
0
 94
        0
  0
ACAD_PROXY_OBJECT
  5
32C
330
31E
100
AcDbProxyObject
 90
      499
 91
      517
 95
       25
 70
     0
 93
       28
310
0001AAA0
330
31E
 94
        0
  0
ACAD_PROXY_OBJECT
  5
32F
330
31E
100
AcDbProxyObject
 90
      499
 91
      506
 95
       25
 70
     0
 93
      108
310
000101421053521310D05310D010
330
31E
 94
        0
  0
ACAD_PROXY_OBJECT
  5
330
330
31E
100
AcDbProxyObject
 90
      499
 91
      506
 95
       25
 70
     0
 93
      124
310
00010142905354915554D15112535010
330
31E
 94
        0
  0
ACAD_PROXY_OBJECT
  5
331
330
31E
100
AcDbProxyObject
 90
      499
 91
      506
 95
       25
 70
     0
 93
      132
310
00010143105354D150D51253D391125360
330
31E
 94
        0
  0
ACAD_PROXY_OBJECT
  5
332
330
31E
100
AcDbProxyObject
 90
      499
 91
      506
 95
       25
 70
     0
 93
      124
310
00010142905355941093D49111549010
330
31E
 94
        0
  0
ACAD_PROXY_OBJECT
  5
333
330
31E
100
AcDbProxyObject
 90
      499
 91
      506
 95
       25
 70
     0
 93
      116
310
0001014290535115D1D0D3D313D4A0
330
31E
 94
        0
  0
ACAD_PROXY_OBJECT
  5
334
330
31E
100
AcDbProxyObject
 90
      499
 91
      506
 95
       25
 70
     0
 93
      148
310
00010143505355925155D49151949154D21010
330
31E
 94
        0
  0
ACAD_PROXY_OBJECT
  5
335
330
31E
100
AcDbProxyObject
 90
      499
 91
      506
 95
       25
 70
     0
 93
      172
310
00010144105350539393D51154149154D15495915010
330
31E
 94
        0
  0
ACAD_PROXY_OBJECT
  5
336
330
31E
100
AcDbProxyObject
 90
      499
 91
      506
 95
       25
 70
     0
 93
      172
310
00010144105350555513D11253505494905391D15010
330
31E
 94
        0
  0
ACAD_PROXY_OBJECT
  5
337
330
31E
100
AcDbProxyObject
 90
      499
 91
      506
 95
       25
 70
     0
 93
      124
310
00010142D05351561514915191125360
330
31E
 94
        0
  0
ACAD_PROXY_OBJECT
  5
338
330
31E
100
AcDbProxyObject
 90
      499
 91
      506
 95
       25
 70
     0
 93
      132
310
00010142D05355105410539393D5115010
330
31E
 94
        0
  0
ACAD_PROXY_OBJECT
  5
339
330
31E
100
AcDbProxyObject
 90
      499
 91
      506
 95
       25
 70
     0
 93
      108
310
00010142105350555513D0D31010
330
31E
 94
        0
  0
ACAD_PROXY_OBJECT
  5
33A
330
31E
100
AcDbProxyObject
 90
      499
 91
      506
 95
       25
 70
     0
 93
      108
310
00010142105350D3119150551050
330
31E
 94
        0
  0
ACAD_PROXY_OBJECT
  5
33B
330
31E
100
AcDbProxyObject
 90
      499
 91
      506
 95
       25
 70
     0
 93
      108
310
00010142105350D315925155D3F0
330
31E
 94
        0
  0
ACAD_PROXY_OBJECT
  5
33C
330
31E
100
AcDbProxyObject
 90
      499
 91
      506
 95
       25
 70
     0
 93
      148
310
0001014350535212511156915493D112535010
330
31E
 94
        0
  0
ACAD_PROXY_OBJECT
  5
33D
330
31E
100
AcDbProxyObject
 90
      499
 91
      506
 95
       25
 70
     0
 93
      124
310
00010142905352105510D21254D3D010
330
31E
 94
        0
  0
ACAD_PROXY_OBJECT
  5
33E
330
31E
100
AcDbProxyObject
 90
      499
 91
      506
 95
       25
 70
     0
 93
      148
310
00010143905354D25391D31152105513105660
330
31E
 94
        0
  0
ACAD_PROXY_OBJECT
  5
33F
330
31E
100
AcDbProxyObject
 90
      499
 91
      506
 95
       25
 70
     0
 93
      124
310
00010142D0535115D1D193111254D420
330
31E
 94
        0
  0
ACAD_PROXY_OBJECT
  5
340
330
31E
100
AcDbProxyObject
 90
      499
 91
      506
 95
       25
 70
     0
 93
      100
310
00010142105350555513D213A0
330
31E
 94
        0
  0
ACAD_PROXY_OBJECT
  5
341
330
31E
100
AcDbProxyObject
 90
      499
 91
      506
 95
       25
 70
     0
 93
      116
310
000101425053521390D3D553951010
330
31E
 94
        0
  0
ACAD_PROXY_OBJECT
  5
342
330
31E
100
AcDbProxyObject
 90
      499
 91
      506
 95
       25
 70
     0
 93
      108
310
0001014210535213941493D29010
330
31E
 94
        0
  0
ACAD_PROXY_OBJECT
  5
343
330
31E
100
AcDbProxyObject
 90
      499
 91
      506
 95
       25
 70
     0
 93
      108
310
0001014210535213951654115070
330
31E
 94
        0
  0
ACAD_PROXY_OBJECT
  5
344
330
31E
100
AcDbProxyObject
 90
      499
 91
      506
 95
       25
 70
     0
 93
      108
310
000101421053521395925155D0F0
330
31E
 94
        0
  0
ACAD_PROXY_OBJECT
  5
345
330
31E
100
AcDbProxyObject
 90
      499
 91
      506
 95
       25
 70
     0
 93
      140
310
00010143505354D150D51253D390D3D41660
330
31E
 94
        0
  0
ACAD_PROXY_OBJECT
  5
346
330
31E
100
AcDbProxyObject
 90
      499
 91
      506
 95
       25
 70
     0
 93
      108
310
00010142105350D3141493D29030
330
31E
 94
        0
  0
ACAD_PROXY_OBJECT
  5
347
330
31E
100
AcDbProxyObject
 90
      499
 91
      518
 95
       25
 70
     0
 93
      212
310
00010143905350555513D2105510D21493D500000000000002E400
330
31E
 94
        0
  0
ACAD_PROXY_OBJECT
  5
348
330
31E
100
AcDbProxyObject
 90
      499
 91
      506
 95
       25
 70
     0
 93
      156
310
00010143905350555513D2105510D21111551010
330
31E
 94
        0
  0
ACAD_PROXY_OBJECT
  5
35A
330
31E
100
AcDbProxyObject
 90
      499
 91
      529
 95
       25
 70
     0
 93
      698
310
0001000000009AA6A9AA4051E546875204175672032342030303A35323A353920323030362028555443290141CE4B8C8B8C0B8C80518576564205365702030312030393A35303A353220323031300141CE4B8C8B8C0B8C80
330
31E
330
35B
330
35C
330
35E
330
0
 94
        0
  0
ACAD_PROXY_OBJECT
  5
35B
330
31E
100
AcDbProxyObject
 90
      499
 91
      530
 95
       25
 70
     0
 93
       70
310
0001AAA80820000000
330
31E
330
35B
330
35B
 94
        0
  0
ACAD_PROXY_OBJECT
  5
35C
330
31E
100
AcDbProxyObject
 90
      499
 91
      531
 95
       25
 70
     0
 93
       48
310
000100000000
330
31E
330
0
330
35D
330
0
330
0
 94
        0
  0
ACAD_PROXY_OBJECT
  5
35D
330
31E
100
AcDbProxyObject
 90
      499
 91
      532
 95
       25
 70
     0
 93
       40
310
000100AAAA
330
31E
330
0
 94
        0
  0
ACAD_PROXY_OBJECT
  5
363
330
31E
100
AcDbProxyObject
 90
      499
 91
      536
 95
       25
 70
     0
 93
      180
310
00010143105050D3D35411119390535140504434F4D500
330
31E
 94
        0
  0
ACAD_PROXY_OBJECT
  5
364
330
31E
100
AcDbProxyObject
 90
      499
 91
      536
 95
       25
 70
     0
 93
      212
310
0001014390505193D311115491119390535140506466F6C6465720
330
31E
 94
        0
  0
ACAD_PROXY_OBJECT
  5
365
330
31E
100
AcDbProxyObject
 90
      499
 91
      536
 95
       25
 70
     0
 93
      180
310
00010143105050539393D1119390535140504284156290
330
31E
 94
        0
  0
ACAD_PROXY_OBJECT
  5
366
330
31E
100
AcDbProxyObject
 90
      499
 91
      536
 95
       25
 70
     0
 93
      436
310
00010143905050D3D35415925155D31254D50052295BD96CA0A90B396CA0A894591A496CA0A8DB691A496CA0A89BA96CA0A95E28F95310
330
31E
 94
        0
  0
ACAD_PROXY_OBJECT
  5
36B
330
31E
100
AcDbProxyObject
 90
      499
 91
      538
 95
       25
 70
     0
 93
       32
310
00010000
330
31E
340
368
330
36D
330
368
 94
        0
  0
ACAD_PROXY_OBJECT
  5
36C
330
31E
100
AcDbProxyObject
 90
      499
 91
      539
 95
       25
 70
     0
 93
       18
310
000180
330
31E
 94
        0
  0
ACAD_PROXY_OBJECT
  5
36D
330
31E
100
AcDbProxyObject
 90
      499
 91
      540
 95
       25
 70
     0
 93
      186
310
000101431494CC8D560B54D596130C4C5050055401550000
330
31E
330
36B
330
36C
 94
        0
  0
ACAD_PROXY_OBJECT
  5
36E
330
31E
100
AcDbProxyObject
 90
      499
 91
      541
 95
       25
 70
     0
 93
      178
310
000100AAAAAAB2E2FA6C78F21811685CAF24362078C540
330
31E
330
36D
 94
        0
  0
ACAD_PROXY_OBJECT
  5
36F
330
31E
100
AcDbProxyObject
 90
      499
 91
      542
 95
       25
 70
     0
 93
      108
310
000190140A000000000000AAAAA0
330
31E
330
370
330
370
330
370
330
370
330
370
330
0
 94
        0
  0
ACAD_PROXY_OBJECT
  5
370
330
31E
100
AcDbProxyObject
 90
      499
 91
      543
 95
       25
 70
     0
 93
       51
310
00010000AAAA80
330
31E
330
36F
330
36D
 94
        0
  0
ACAD_PROXY_OBJECT
  5
37E
330
31E
100
AcDbProxyObject
 90
      499
 91
      536
 95
       25
 70
     0
 93
      148
310
00010142105350D55494D51100504414E53490
330
31E
 94
        0
  0
DICTIONARY
  5
355
102
{ACAD_REACTORS
330
354
102
}
330
354
100
AcDbDictionary
281
     1
  3
DWGSETTINGS
350
356
  3
Shaft
350
3F0
  3
TRANSSETTINGS
350
357
  0
ACAD_PROXY_OBJECT
  5
381
102
{ACAD_REACTORS
330
354
102
}
330
354
100
AcDbProxyObject
 90
      499
 91
      551
 95
       25
 70
     0
 93
    17920
310
41503491013041105357CC201C00030C011E441013141105357CC603800030C011E441013241105357CCA01400030C011E441013341105357CCE01800030C010F9013441105357CD200C00030C010F9013541105357CD600C00030C010F9013641105357CDA00800030C011E9013741105357CDE01000030C010F901384110
310
5357CE200400030C010F9013941105357CE63F400030C0241102324141505357CC4C201C00030C011E902344141505357CC4C600C00030C010F902495041505357CC4CA01C00030C011E40902304E41505357CC13A01C00030C011E902314E41505357CC53A03800030C011E902324E41505357CC93A01400030C011E90233
310
4E41505357CCD3A01800030C010F902344E41505357CD13A00C00030C010F902354E41505357CD53A00C00030C010F902364E41505357CD93A00800030C011E902374E41505357CDD3A01000030C010F902384E41505357CE13A00400030C010F902394E41505357CE53A3F400030C024110332414E41905357CC4C13A01C0
310
0030C011E90334414E41905357CC4C53A00C00030C010F90349504E41905357CC4C93A01C00030C011E409044B4C494E41505357D0D3200400030C010F42504494E464F42105357D410549151A01000030C010F42D055241484D3541905357D093D4A01C00030C011E425045649455742105357D5925155D4E00400030C010
310
F42D06424548494E4441905357D25395A3F400030C0243505545241494C41505357D514A00C00030C010F4250348494441905357D21251201C00030C010F4250356495341905357D59254E01C00030C011E4250650415244494D42505357D41054911253600C00030C010F4250652454644494D42505357D49151911253601
310
000030C010F425534110921395901398000000C0003FFFFFFFE415092139594D06424548494E448000000C0003FFFFFFFE411093D48C9055241484D358010000C30043E411093D48CD055241484D358020000C30047A411093D48D5055241484D358000000C0003FFFFFFFE4110D0530C901348000000C0003FFFFFFFE4110
310
D0530CD01348020000C30047A4110D0530D501348070000C30047A4110D0530DD013481E0000C3004F24110D15393901378000000C0003FFFFFFFE4110D15395D01378000000C0003FFFFFFFE4110D312539044B4C494E8000000C0003FFFFFFFE4110D3D38C501308000000C0003FFFFFFFD034110D3D38C901318000000C
310
0003FFFFFFFD034110D3D38CD01328000000C0003FFFFFFFD034110D3D38D101328000000C0003FFFFFFFD034111115510501348000000C0003FFFFFFFE4111125051D01358000000C0003FFFFFFFE4111125312501358000000C0003FFFFFFFE411112535410650415244494D8000000C0003FFFFFFFE4111125354906524
310
54644494D8000000C0003FFFFFFFE4111915353901388000000C0003FFFFFFFE415191535413901388030000C3003FFFFFFFE4151915354D410234418000000C0003FFFFFFFE4151915354D510234418030000C30043E415191535593901328000000C0003FFFFFFFE415191535595101328030000C30043E4112105510D01
310
388000000C0003FFFFFFFD014112125113901338000000C0003FFFFFFFD034112125115D01338000000C0003FFFFFFFD034112131253901348000000C0003FFFFFFFD01411213D0D3901378000000C0003FFFFFFFE411213D0D5D01378000000C0003FFFFFFFE4112539193D04494E464F8000000C0003FFFFFFFE41131150
310
51101358000000C0003FFFFFFFE419397D0921395902394E8000000C0003FFFFFFFE419397D0D3D38C502304E8000000C0003FFFFFFFD03419397D0D3D38C902314E8000000C0003FFFFFFFD03419397D0D3D38CD02324E8000000C0003FFFFFFFD03419397D0D3D38D102324E8000000C0003FFFFFFFD03419397D0D15393
310
902374E8000000C0003FFFFFFFE419397D0D15395D02374E8000000C0003FFFFFFFE419397D1125312502354E8000000C0003FFFFFFFE419397D2105510D02384E8000000C0003FFFFFFFD01419397D2125113902334E8000000C0003FFFFFFFD03419397D2125115D02334E8000000C0003FFFFFFFD03419397D311505110
310
2354E8000000C0003FFFFFFFE419397D391D25410349504E8000000C0003FFFFFFFE419397D412105390334414E8000000C0003FFFFFFFE419397D510D3D3902304E8000000C0003FFFFFFFD03419397D5121312502344E8000000C0003FFFFFFFD01419397D5131153902304E8000000C0003FFFFFFFD03419397D5941312
310
50332414E8000000C0003FFFFFFFE411391D25410249508000000C0003FFFFFFFE411410530C9055241484D358010000C30043E411410530CD055241484D358020000C30047A411410530D5055241484D358000000C0003FFFFFFFE411412105390234418000000C0003FFFFFFFE411413D4D3901358000000C0003FFFFFFF
310
E411490D1D3901378000000C0003FFFFFFFE411490D1D5D01378000000C0003FFFFFFFE4114D09492D01348070000C300479014114D150D5101348000000C0003FFFFFFFD014114D6508CD01358020000C30047A411354D653501358020000C30047A411510D3D3901308000000C0003FFFFFFFD0341151213125013480000
310
00C0003FFFFFFFD01411512550C9055241484D358010000C30043E411512550CD055241484D358020000C30047A411512550D5055241484D358000000C0003FFFFFFFE4115131153901308000000C0003FFFFFFFD03415514905253105545241494C8000000C0003FFFFFFFE4115149312501348000000C0003FFFFFFFD014
310
11516150C501368030000C30043E411516150C901368030000C30043E411516150CD01368000000C0003FFFFFFFE411516150D501368070000C30047A411516150DD013681E0000C3004F24115925155D04564945578000000C0003FFFFFFFE41159151121034849448000000C0003FFFFFFFD024115915115903564953800
310
0000C0003FFFFFFFD02411594131250232418000000C0003FFFFFFFE4116925690501348000000C0003FFFFFFFD01AAA3F400030C01013F90A4050F4091E40D0F4110F4151E4190F41D1E4391E4793C7F6
340
15
340
15
340
15
340
349
340
15
340
15
340
15
340
28
340
15
340
15
340
28
340
34A
340
15
340
15
340
15
340
15
340
349
340
15
340
15
340
15
340
28
340
15
340
15
340
28
340
34A
340
15
340
385
340
15
340
15
340
15
340
15
340
15
340
349
340
15
340
15
340
15
340
14
340
14
340
14
340
14
340
14
340
14
340
14
340
14
340
14
340
38B
340
14
340
14
340
14
340
14
340
14
340
14
340
14
340
14
340
14
340
14
340
14
340
14
340
14
340
15
340
14
340
14
340
14
340
14
340
38C
340
14
340
14
340
38B
340
14
340
14
340
14
340
14
340
14
340
14
340
14
340
14
340
38B
340
14
340
14
340
14
340
38C
340
14
340
14
340
14
340
14
340
14
340
38C
340
14
340
34A
340
14
340
14
340
14
340
14
340
14
340
14
340
38B
340
14
340
14
340
14
340
14
340
14
340
14
340
38C
340
14
340
14
340
14
340
14
340
14
340
14
340
14
340
14
340
14
340
14
340
14
340
14
340
14
340
14
340
34A
340
38D
 94
        0
  0
ACAD_PROXY_OBJECT
  5
3B9
102
{ACAD_REACTORS
330
3B4
102
}
330
3B4
100
AcDbProxyObject
 90
      499
 91
      568
 95
       25
 70
     0
 93
      253
310
43D1444494D454E53494F4E2C414D44545F2A5F44494D404A9012A404A9012A8
  0
ACAD_PROXY_OBJECT
  5
3B8
102
{ACAD_REACTORS
330
3B4
102
}
330
3B4
100
AcDbProxyObject
 90
      499
 91
      568
 95
       25
 70
     0
 93
      181
310
43D012A42D05357D191504B505357CA9012A404A9012A8
  0
ACAD_PROXY_OBJECT
  5
3B5
102
{ACAD_REACTORS
330
3B4
102
}
330
3B4
100
AcDbProxyObject
 90
      499
 91
      568
 95
       25
 70
     0
 93
      133
310
43D054841544348404A9012A404A9012A8
  0
ACAD_PROXY_OBJECT
  5
3B6
102
{ACAD_REACTORS
330
3B4
102
}
330
3B4
100
AcDbProxyObject
 90
      499
 91
      568
 95
       25
 70
     0
 93
      549
310
43D044C494E4549CE0B0E138B0A8B4E0B0A8B4E138B105357CE0B105357CE138B0A8B505357CE0B0A8B505357CE139012A404A910494E534552542C5354445041525432448
  0
ACAD_PROXY_OBJECT
  5
3BA
102
{ACAD_REACTORS
330
3B4
102
}
330
3B4
100
AcDbProxyObject
 90
      499
 91
      568
 95
       25
 70
     0
 93
      181
310
43D0341524341105357CD5012A404C906494E534552540
  0
ACAD_PROXY_OBJECT
  5
3B7
102
{ACAD_REACTORS
330
3B4
102
}
330
3B4
100
AcDbProxyObject
 90
      499
 91
      568
 95
       25
 70
     0
 93
     1053
310
43D7841434D46434652414D452C41434D444154554D5441524745542C41434D444154554D49442C41434D57454C4453594D2C41434D5355524653594D2C41434D4645415449442C41434D504152545245462C41434D42414C4C4F4F4E2C414D44544544474553594D2C414D47534352455743414C435441424C45404A9012A
310
404A9012A8
  0
ACAD_PROXY_OBJECT
  5
380
102
{ACAD_REACTORS
330
37F
102
}
330
37F
100
AcDbProxyObject
 90
      499
 91
      550
 95
       25
 70
     0
 93
     2395
310
5DCB81E85EB51B8BE3F8030000C30041105394D2501640600800030C0200800030C00B81E85EB51B8BE3F48821E8720B1B6A9BAB9332A32BC3A29BA3220480A1282C6DA8C868CA6E8C88120286A0B1B6ABB2B63234B733A9BA3220480A1082C6DA92C8A6E8C88120285A0B1B6A230BA3AB6A9BA3220480A1282C6DA849E9AA
310
6E8C8812028820B6B23A2232BA30B4B629BCB6A9BA3220480A2282DAC8E8A6CAC6E8D2DEDCA6F2DAA6E8C88120288A0B6B23A21B2B73A32B92634B732A9BA3220480A2282DAC8E8A8D0E4CAC2C898D2DCCAA6E8C88120285A0B6B23A2737BA32A9BA3220480A1682C682DACE98C2F2A6E8C88120285A0B1A0B6B3A234B6A9B
310
A3220480A2282C682DACE90DED8CA86D0C2E4E8A6E8C88120286A0B1A0B6B3AA34BA3632A9BA3220480A02812020
340
38E
360
38F
360
390
360
391
360
392
360
393
360
394
360
395
360
396
360
397
360
398
360
399
360
3A5
360
3A6
360
3B1
360
3B2
340
0
340
0
 94
        0
  0
ACAD_PROXY_OBJECT
  5
507
102
{ACAD_REACTORS
330
37F
102
}
330
37F
100
AcDbProxyObject
 90
      499
 91
      571
 95
       25
 70
     0
 93
     2379
310
5DC33333333333309408000000C00040D29254D01640600800030C0200800030C003333333333330940C8121E8720B1B6A9BAB9332A32BC3A29BA3220480A1282C6DA8C868CA6E8C88120286A0B1B6ABB2B63234B733A9BA3220480A1082C6DA92C8A6E8C88120285A0B1B6A230BA3AB6A9BA3220480A1282C6DA849E9AA6E
310
8C88120286A0B1A0B6B3AA34BA3632A9BA3220480A2082DAC8E888CAE8C2D2D8A6F2DAA6E8C88120288A0B6B23A29B2B1BA34B7B729BCB6A9BA3220480A2282DAC8E886CADCE8CAE498D2DCCAA6E8C88120288A0B6B23A2A343932B0B22634B732A9BA3220480A1682DAC8E89CDEE8CAA6E8C88120285A0B1A0B6B3A630BCA
310
9BA3220480A1682C682DACE88D2DAA6E8C88120288A0B1A0B6B3A437B632A1B430B93A29BA3220480C812020
340
4F6
360
508
360
509
360
50A
360
50B
360
50C
360
50D
360
50E
360
50F
360
510
360
511
360
512
360
513
360
519
360
51A
360
51B
340
0
340
0
 94
        0
  0
ACAD_PROXY_OBJECT
  5
356
102
{ACAD_REACTORS
330
355
102
}
330
355
100
AcDbProxyObject
 90
      499
 91
      526
 95
       25
 70
     0
 93
     2420
310
4050B44574753455454494E4753A1286829C8E82A4A482B282A0472608321A2A720A723A0A849A1ABE1C983E18999AA0C868A9C889282940000000000001C07E83A1A2A72224A0A9A0A8598171ABE1897183E18971AA0E868A9C8892A6A8940000000000001807E8321A2A72622A7250000000000000701FA0C868A9C9E8C8
310
C940000000000001C07E84A1A624A720A92920ACA0A87181718991ABE1817191ABE18171AA108698929C8AA8B2A082A0AB098929C8A84A22BA3AAA9A1A0A622A50A0E9882A6A89E849482A02608426A0A5A2AB24A2ABA7E8120CA0A68682988A0C00800010652455649534941501304154D0D0531150540CC4E8C50954494D
310
455354414D504A0D7BF8451722B734141D5915494D253D3905414C4D4B8C0C1107B44574753455454494E4753454E447D0
  0
ACAD_PROXY_OBJECT
  5
3F0
102
{ACAD_REACTORS
330
355
102
}
330
355
100
AcDbProxyObject
 90
      499
 91
      526
 95
       25
 70
     0
 93
      199
310
405055368616674220F688AE8EA68AA8A8929C8EA68A9C88FA
  0
ACAD_PROXY_OBJECT
  5
357
102
{ACAD_REACTORS
330
355
102
}
330
355
100
AcDbProxyObject
 90
      499
 91
      526
 95
       25
 70
     0
 93
      852
310
4050D5452414E5353455454494E4753A2488A482AE929C8EA8A4829CA69882A8929E9C0C00800050D4F524947494E414C4C595F4F4E0600400008529A7AAA921A2A620A723A0A81A52827212AAA0A48AA68AA4AC8A0C0080001107B44574753455454494E4753454E447D0
  0
ACAD_PROXY_OBJECT
  5
38F
330
380
100
AcDbProxyObject
 90
      499
 91
      552
 95
       25
 70
     0
 93
       96
310
5DC20E80A0280A0280A02808
  0
ACAD_PROXY_OBJECT
  5
390
330
380
100
AcDbProxyObject
 90
      499
 91
      553
 95
       25
 70
     0
 93
      332
310
5DD0E4050140501405014050140501405014050142501405014050140501405012000000000000000400
340
39A
 94
        0
  0
ACAD_PROXY_OBJECT
  5
391
330
380
100
AcDbProxyObject
 90
      499
 91
      554
 95
       25
 70
     0
 93
      403
310
5DCC199999999999E99F91F4050140501405014050140501405014050140501405014050140501405014050140501405014040
340
0
 94
        0
  0
ACAD_PROXY_OBJECT
  5
392
330
380
100
AcDbProxyObject
 90
      499
 91
      555
 95
       25
 70
     0
 93
       10
310
5DC0
  0
ACAD_PROXY_OBJECT
  5
393
330
380
100
AcDbProxyObject
 90
      499
 91
      556
 95
       25
 70
     0
 93
      257
310
5DE290EA22A7D90F49F9353333333333727F44D4CCCCCCCCCDC9FC010000618000
340
39B
340
39C
 94
        0
  0
ACAD_PROXY_OBJECT
  5
394
330
380
100
AcDbProxyObject
 90
      499
 91
      557
 95
       25
 70
     0
 93
    13023
310
5DD0E411255115350141236025B6901405014069011309A4F2590CB64FD3347454E545241434F2C4A504E2C302C8D8096DA2C47454E54524154582C25732C2847454E4D53472067656E647767203232322940690120281A8AA2CA0282484A4BE52028120280A03202261349E4B2196C9FA668E8A9CA8A482869E5894A09C58
310
605921292F94588E8A9CA8A482A8B0584AE658508E8A9C9AA68E40CECADCC8EECE406464665280D202405044E414D454050496BC914F4051C40640A8B95C2E97CBE502404CD1D15395149050D3CB1294138B0C0B25AF2453CB11D15395149055160B095CCB0A11D1539354D1C819D95B991DD9C80C8C8D8A50192C3D494628
310
4953424C414E4B28504152543A4E414D45292C424C4F434B3A4E414D452C504152543A4E414D452940480A0A888AA686A480A09251B1DBE80A3A80C81D10782C06030180C8099A3A2A72A2920A1A7962528271618164946C76F9623A2A72A2920AA2C1612B9961423A2A726A9A39033B2B7323BB39019189B94A0248090142
310
14D51053911054911014122D2E29A50147501904A383BFDFEFF5FBFCFD3347454E545241434F2C4A504E2C302C8B4B8A692C47454E54524154582C25732C2847454E4D53472067656E64776720323138294049012028426A0AA22A924A0A62028246EF4BDFA028EA0320B41396D838E9017D9FA668E8A9CA8A482869E5894A
310
09C5860591BBD2F7E588E8A9CA8A482A8B0584AE658508E8A9C9AA68E40CECADCC8EECE406464625280D202405044E4F544540504928D8B4C4051D40641A8B95C2E97CBE5F23F4CD1D15395149050D3CB1294138B0C0B24A362D30B11D15395149055160B095CCB0A11D1539354D1C819D95B991DD9C80C8C8D4A501A40480
310
A0CAC8A9C889EA480A1106F1072706BF02B680A3A80C83D172B85D2F97CBE47E9BA3A2A72A2920A1A79625282716181641BC41C9C1AFC0AD9623A2A72A2920AA2C1612B9961423A2A726A9A39033B2B7323BB39019191A14A0348090141911154D0D48C90141A43825AF880C90147501908A20F0580C0603019013447454E5
310
45241434F2C4A504E2C302C90E096BE20322C47454E54524154582C25732C2847454E4D53472067656E6477672033362940490120284A9AA20A72220A922192028345A5C53490192028EA0321347077FBFDFEBF7F9FA6A8E8A9CA8A482869E5894A09C586059169714D24064588E8A9CA8A482A8B0584AE658508E8A9C9AA6
310
8E40CECADCC8EECE4064646052809202405094D4154455249414C32405068DDE97BF20324051D40642A8272DB071D202FB3F4D11D15395149050D3CB1294138B0C0B2377A5EFC80C8B11D15395149055160B095CCB0A11D1539354D1C819D95B991DD9C80D0C0A501240480A089A82A6A680A091D7F2F9480A3A80A0485A06
310
81172B85D2F97CBE47E9923A2A72A2920A1A796252827161816475FCBE51623A2A72A2920AA2C1612B9961423A2A726A9A39033B2B7323BB3901A1914A024809014154149250D150141226FE29A501475014090C409022E570BA5F2F97C8FD3247454E545241434F2C4A504E2C302C89BF8A692C47454E54524154582C2573
310
2C2847454E4D53472067656E6477672034332940490120281A224A6A02824850CB202028EA028121A81A045CAE174BE5F2F91FA648E8A9CA8A482869E5894A09C58605921432C80588E8A9CA8A482A8B0584AE658508E8A9C9AA68E40CECADCC8EECE406868528092024050E441022E07A17AD46E338FE07800030C0001018
310
ACD56AB55AADF63F2B355AAD56AB7D8FD073D3C4954454D3E405018ACD56AB55AADF63F2B355AAD56AB7D8FD073D3C4954454D3E40501890C7E3F1783CEE3F2431F8FC5E0F3B8FD073D3C4954454D3E40501890C7E3F1783CEE3F2431F8FC5E0F3B8FD073D3C4954454D3E405029012B355AAD56AB7D8FCACD56AB55AADF63
310
F41CF4F125511534F901418F4F1455164F9014062B355AAD56AB7D8FCACD56AB55AADF63F41CF4F125511534F9014061309A4F2590CBA4FC4C2693C96432E93F41CF4F125511534F901901002B355AAD56AB7D8FCACD56AB55AADF63FA2000000000000008204018000618048220681A048120280C88214844882034852034
310
8452028521485214814000000000000F0BF0000000000003C2FD018020000C3008070000C3000EF7D3E365DBA88FC3BDF4F8D976EA23F2E07A17AD46E2F8FF20341A405024150741A4069703D0BD6A3717C7F0040001860100400018601002000186002026280A02
340
0
340
0
 94
        0
  0
ACAD_PROXY_OBJECT
  5
395
330
380
100
AcDbProxyObject
 90
      499
 91
      558
 95
       25
 70
     0
 93
      994
310
5DC0B81E85EB51B8CE3F4BCF511155105253080F11115510525317D3105091530F971414D0D05311480F11115510525317D05094D4D0D053114F92341C9A9999999999B93F26A666666666724FC000000000000E03F4000000000000004000000000000005100000000000000244081E0000C3002E07A17AD46E338FC0
340
34A
340
38E
 94
        0
  0
ACAD_PROXY_OBJECT
  5
396
330
380
100
AcDbProxyObject
 90
      499
 91
      559
 95
       25
 70
     0
 93
      823
310
5DC031703D0BD6A3719C7E999EA9A2A1AA24A7A7101E29A2A1AA24A7A72FA620A122A62FA324A929AA1F169E29A2A1AA24A7A72FA620A122A62FA620A9AA1F1353333333333B27E3FFFE01C00030C008840F000061801353333333333B27F1703D0BD6A3719C7E
340
34A
340
38E
 94
        0
  0
ACAD_PROXY_OBJECT
  5
397
330
380
100
AcDbProxyObject
 90
      499
 91
      560
 95
       25
 70
     0
 93
      280
310
5DC2B8716D9CEF7C33F0A5723F0BD4A2F0FC295C8FC2F528BC3FA199999999999F99FC
  0
ACAD_PROXY_OBJECT
  5
398
330
380
100
AcDbProxyObject
 90
      499
 91
      561
 95
       25
 70
     0
 93
       14
310
5DE4
340
0
 94
        0
  0
ACAD_PROXY_OBJECT
  5
399
330
380
100
AcDbProxyObject
 90
      499
 91
      562
 95
       25
 70
     0
 93
     7123
310
5DD084050BA4050AA405024050E836583938376838C815B8367203140405013D3C696628657175616C28486F6C653A7461707065642C223022292C22252563222C486F6C653A6E6F6D696E616C2022202220696628657175616C28486F6C653A756E6974732C223122292C2278222C222D222920222022293E3C6966286571
310
75616C28486F6C653A7461707065642C223022292C486F6C653A6469612C486F6C653A706974636864657363293E207B5C46414D4744543B787D203C696628657175616C28486F6C653A7465726D696E6174696F6E2C223022292C486F6C653A64657074682C228AD192CA22293E5C507B5C46414D4744543B767D2525633C
310
486F6C653A63746469613E207B5C46414D4744543B787D203C486F6C653A637464657074683E406901405034050E836583938376838C815B83672031405FE3D3C696628657175616C28486F6C653A7461707065642C223022292C22252563222C486F6C653A6E6F6D696E616C2022202220696628657175616C28486F6C653
310
A756E6974732C223122292C2278222C222D222920222022293E3C696628657175616C28486F6C653A7461707065642C223022292C486F6C653A6469612C486F6C653A706974636864657363293E207B5C46414D4744543B787D203C696628657175616C28486F6C653A7465726D696E6174696F6E2C223022292C486F6C653
310
A64657074682C228AD192CA22293E5C507B5C46414D4744543B777D2525633C486F6C653A63746469613E2058203C486F6C653A6374616E676C653E252564406901405014050E836583938376838C815B83672031405CF3D3C696628657175616C28486F6C653A7461707065642C223022292C22252563222C486F6C653A6E
310
6F6D696E616C2022202220696628657175616C28486F6C653A756E6974732C223122292C2278222C222D222920222022293E3C696628657175616C28486F6C653A7461707065642C223022292C486F6C653A6469612C486F6C653A706974636864657363293E5C507B5C46414D4744543B787D203C696628657175616C2848
310
6F6C653A7465726D696E6174696F6E2C223022292C486F6C653A64657074682C228AD192CA22293E4069014051E4090E836583938376838C815B83672032405173D3C535444503A444553433E203C535444503A5354443E40690E836583938376838C815B836720314050C3D3C535444503A444553433E40690240515AAABB
310
A060
360
3A3
330
3A3
360
3A4
330
3A4
360
3A2
330
3A2
360
3A1
360
3A0
330
3A1
330
3A0
 94
        0
  0
ACAD_PROXY_OBJECT
  5
3A5
330
380
100
AcDbProxyObject
 90
      499
 91
      564
 95
       25
 70
     0
 93
       26
310
5DD02A80
340
381
 94
        0
  0
ACAD_PROXY_OBJECT
  5
3A6
330
380
100
AcDbProxyObject
 90
      499
 91
      565
 95
       25
 70
     0
 93
      258
310
5DD02000000000000380FC000000000000E03F408F0F9023C3E40DB18CCCFFFF80
340
3A7
340
40F
340
4AD
340
59A
340
586
340
0
340
3AA
340
3AB
340
3B0
340
0
 94
        0
  0
ACAD_PROXY_OBJECT
  5
3B1
330
380
100
AcDbProxyObject
 90
      499
 91
      566
 95
       25
 70
     0
 93
    13993
310
5DD1D023FFFFFFFD010300002E07A17AD46E2F8FE00800030C01010300002E07A17AD46E2F8FE00800030C00050C8DC0955782CC838A83588367014ED1D15395149050D3CB1294138B0C0B23702555E0B320E2A0D620D9CB11D15395149055160B095CCB0A11D1539354D1C819D95B991A5B5E880CCC0A78000C0000000000
310
00000000000000000000007B14AE47E17AA43F2E07A17AD46E2F8FE00800030C007B14AE47E17AA43F2E07A17AD46E2F8FE00800030C020143CF4F111959985D5B1D151A5D1B194F8050A8C8A8365815B8375838B014E51D15395149050D3CB1294138B0C0B2322A0D96056E0DD60E2CB11D15395149055160B095CCB0A11D
310
1539354D1C819D95B991A5B5E880CCC4A78000C000000000000000000000000000000007B14AE47E17AA43F2E07A17AD46E2F8FE00800030C007B14AE47E17AA43F2E07A17AD46E2F8FE00800030C020143CF4F111959985D5B1D151A5D1B194F90D4410F4450240D0441507431014391244D05449074510C4350F00014123
310
2D24D7C053247454E545241434F2C4A504E2C302C8CB4935F2C47454E54524154582C25732C2847454E4D53472067656E64696D7A20312900010104002214000282465A49AF80A648E8A9CA8A482869E5894A09C586059196926BE588E8A9CA8A482A8B0584AE658508E8A9C9AA68E40CECADCC8D2DAF44062520002020800
310
43E80005028C8A014C11D15395149050D3CB1294138B0C0B23228B11D15395149055160B095CCB0A11D1539354D1C819D95B991A5B5E880C8A4054E3D3C4946284953424C414E4B28486F6C654974656D292C4F726967696E2C20486F6C654974656D293E3C4946284953424C414E4B28486F6C654974656D292C22222C204
310
86F6C65496E646578293E010104002234000280AC00A5E8E8A9CA8A482869E5894A09C586058B0588E8A9CA8A482A8B0584AE658508E8A9C9AA68E40CECADCC8D2DAF4406652000202000040A800050159014BD1D15395149050D3CB1294138B0C0B164B11D15395149055160B095CCB0A11D1539354D1C819D95B991A5B5E
310
880D0A4000404000081D0000A02A40297A3A2A72A2920A1A796252827161816291623A2A72A2920AA2C1612B9961423A2A726A9A39033B2B73234B6BD101B148000808000104A000140A0F4C053047454E545241434F2C4A504E2C302C83D32C47454E54524154582C25732C2847454E4D53472067656E64696D7A20372900
310
0101030020B400028141E980A608E8A9CA8A482869E5894A09C58605907A6588E8A9CA8A482A8B0584AE658508E8A9C9AA68E40CECADCC8D2DAF4407052000202020041E800050490E096BE014CD1D15395149050D3CB1294138B0C0B243825AF8B11D15395149055160B095CCB0A11D1539354D1C819D95B991A5B5E880C8
310
C0A400040010008650000A091B012DB40299A3A2A72A2920A1A79625282716181646C04B6D1623A2A72A2920AA2C1612B9961423A2A726A9A39033B2B73234B6BD10189A148000808280501A00014320D0E0E4E0D9A0D8A0D3A0D60053B47454E545241434F2C4A504E2C302C8343839383668362834E83582C47454E54524
310
154582C25732C2847454E4D53472067656E64696D7A203135290001010500A1D4000281464500A628E8A9CA8A482869E5894A09C5860591914588E8A9CA8A482A8B0584AE658508E8A9C9AA68E40CECADCC8D2DAF440626C52000202080044A800050E8C8A8343839383668362834E8358014F51D15395149050D3CB129413
310
8B0C0B2322A0D0E0E4E0D9A0D8A0D3A0D60B11D15395149055160B095CCB0A11D1539354D1C819D95B991A5B5E880C4DCA4000404140089D0000A0921292F940299A3A2A72A2920A1A796252827161816484A4BE51623A2A72A2920AA2C1612B9961423A2A726A9A39033B2B73234B6BD10189C948000808300114A0001412
310
2D2E29A4053347454E545241434F2C4A504E2C302C8B4B8A692C47454E54524154582C25732C2847454E4D53472067656E64696D7A20323129000100040021B4878030026A6666666667A4FE064D4CCCCCCCCCF49FC049A9999999999E93F809353333333333D27F0226A6666666667A4FE044D4CCCCCCCCCF49FC0D818000
310
00000000000810026A666666666764FE004D4CCCCCCCCCF49FC009A9999999999E93F801353333333333D27F032E07A17AD46E378FE0633B333333333032050F006004D4CCCCCCCCCF49FC0C9A9999999999E93F819353333333333D27F0326A6666666667A4FE064D4CCCCCCCCCF49FC0C9A9999999999E93F81B03000000
310
00000000102004D4CCCCCCCCCEC9FC009A9999999999E93F819353333333333D27F0026A6666666667A4FE065C0F42F5A8DC6F1FC0C6766666666660640A088800000021E000000890000002260000008220E000200890000002060002008100008000
340
0
340
0
340
0
340
0
340
38E
340
38E
 94
        0
  0
ACAD_PROXY_OBJECT
  5
3B2
330
380
100
AcDbProxyObject
 90
      499
 91
      567
 95
       25
 70
     0
 93
     5214
310
5DD9741105394D2506414E53495F4342905394D257D512551554D15414E53495F54525F5265766973696F6E6C697374614191143202831372E307832322E30696E63682941905394D257D0D1146202832382E307834302E30696E63682941905394D257D191142202831312E307831372E30696E63682941905394D257D091
310
144202832322E307833342E30696E63682941905394D257D111145202833342E307834342E30696E63682941905394D257D1510412028382E357831312E30696E63682941905394D257D050543905B9CDA482557247A25E4C81110D0C414E53495F5449544C45444343505B9CDA482557247A25E4C81050B414E53495F5449
310
544C454143905B9CDA482557247A25E4C81050D0C414E53495F5449544C454143425554C82557247A25E4D0A414E53495F544954555343505B9CDA482557247A25E4C81110B414E53495F5449544C454442110979A97F0838A8358836720415F42525F45505394D257D09497D4995D9A5CDA5BDB9B1A5CDD18510979A97F08
310
38A8358836720415F54525F45505394D257D51497D4995D9A5CDA5BDB9B1A5CDD18510979A97F0838A8358836720445F42525F45505394D257D09497D4995D9A5CDA5BDB9B1A5CDD19110979A97F0838A8358836720445F54525F45505394D257D51497D4995D9A5CDA5BDB9B1A5CDD19110979A97F0838A8358836720415F
310
424C5F45505394D257D09317D4995D9A5CDA5BDB9B1A5CDD18510979A97F0838A8358836720415F544C5F45505394D257D51317D4995D9A5CDA5BDB9B1A5CDD18510979A97F0838A8358836720445F424C5F45505394D257D09317D4995D9A5CDA5BDB9B1A5CDD19110979A97F0838A8358836720445F544C5F45505394D25
310
7D51317D4995D9A5CDA5BDB9B1A5CDD190
  0
ACAD_PROXY_OBJECT
  5
508
330
507
100
AcDbProxyObject
 90
      499
 91
      572
 95
       25
 70
     0
 93
       86
310
5DEA0C80A0280A0280A034
  0
ACAD_PROXY_OBJECT
  5
509
330
507
100
AcDbProxyObject
 90
      499
 91
      573
 95
       25
 70
     0
 93
      282
310
5DD0E4050140501405014050140501405014050141101405014041000000000000001000
340
4F7
 94
        0
  0
ACAD_PROXY_OBJECT
  5
50A
330
507
100
AcDbProxyObject
 90
      499
 91
      574
 95
       25
 70
     0
 93
      323
310
5DCC199999999999E99F91740501405014050140501405014050140501405014050140501405014040
340
0
 94
        0
  0
ACAD_PROXY_OBJECT
  5
50B
330
507
100
AcDbProxyObject
 90
      499
 91
      575
 95
       25
 70
     0
 93
       10
310
5DC0
  0
ACAD_PROXY_OBJECT
  5
50C
330
507
100
AcDbProxyObject
 90
      499
 91
      576
 95
       25
 70
     0
 93
      257
310
5DE0C16A22A7D90F49F80000000000001081400000000000004204010000618000
340
4F2
340
4F3
 94
        0
  0
ACAD_PROXY_OBJECT
  5
50D
330
507
100
AcDbProxyObject
 90
      499
 91
      577
 95
       25
 70
     0
 93
     5277
310
5DD06411255115350141236025B6901405014069010000000000000910240690120281A8AA2CA0282484A4BE52028120280A032020000000000001220480D202405044E414D454050496BC914F4051C40640A80000000000004E4090193C3D3C4946284953424C414E4B28504152543A4E414D45292C424C4F434B3A4E414D
310
452C504152543A4E414D45293E3C41435F44455343524950544E3E40480A109A82A88AA492829880A091BBD2F7E80A3A80C81D0E27A15AF46E08A81203480901411393D5115014124A363B7D0147501904A0000000000000F902406428F4F1050D7D393D5114F901202832B22A72227A92028366EF6EE06F582028EA0320B4
310
0000000000001F20480C879E9E20A1AFAB27222FA620A122A61F20240506445020000000000000490201C00030C00010180000000000003E400000000000000F901073D3C4954454D3E4050180000000000003E400000000000000F901073D3C4954454D3E40501800000000000034400000000000000D101073D3C4954454
310
D3E40501800000000000034400000000000000D101073D3C4954454D3E405029010000000000000F9000000000000003E4041CF4F125511534F901418F4F1455164F9014060000000000000F9000000000000003E4041CF4F125511534F901800000000000034400000000000000D101073D3C4954454D3E40640400000000
310
0000003E400000000000000F90288800000000000020810000001800120881A068120480A032208521122080D21480D211480A1485214852050000000000003C2FC000000000000F0BF40600800030C0200400030C00CDCCCCCCCCCCEC3F3373333333333B0FC3333333333330940C80D069014090341504901A1999999999
310
9984A040100006180400800061804010000618008098A02808
340
0
340
0
 94
        0
  0
ACAD_PROXY_OBJECT
  5
50E
330
507
100
AcDbProxyObject
 90
      499
 91
      567
 95
       25
 70
     0
 93
     3042
310
5DD9740D29254D064A49535F413342929254D7D512551311505134A49535F42525F5265766973696F6E6C6973744190F4134522028323937783231306D6D2941D29254D7D04D1490E41312028353934783834316D6D2941929254D7D04C50F41344C2028323130783239376D6D2941D29254D7D04D1310E413320283239377
310
83432306D6D2941929254D7D04CD0E41322028343230783539346D6D2941929254D7D04C90F4130202838343178313138396D6D2941929254D7D04C10243129254C82557247A25E4C81050A4A49535F5449544C454143129254C82557247A25E4C81090A4A49535F5449544C45424110E979A97F0838A835883675F42525F4
310
4D29254D7D09497D4995D9A5CDA5BDB9B1A5CDD10E979A97F0838A835883675F54525F44D29254D7D51497D4995D9A5CDA5BDB9B1A5CDD10E979A97F0838A835883675F424C5F44D29254D7D09317D4995D9A5CDA5BDB9B1A5CDD10E979A97F0838A835883675F544C5F44D29254D7D51317D4995D9A5CDA5BDB9B1A5CDD00
  0
ACAD_PROXY_OBJECT
  5
50F
330
507
100
AcDbProxyObject
 90
      499
 91
      578
 95
       25
 70
     0
 93
      898
310
5DC4000000000000124048CF4F11115510525317D3105091530F880A0F11115510525317D05094D4D0D053114F8A50241C9A9999999999B93F26A666666666724FC000000000000E03F400000000000000400000000000000510000000000000024408070000C300000000000000049000
340
15
340
4F6
 94
        0
  0
ACAD_PROXY_OBJECT
  5
510
330
507
100
AcDbProxyObject
 90
      499
 91
      579
 95
       25
 70
     0
 93
      823
310
5DC0B00000000000002480959E9E29A2A1AA24A7A72FA620A122A62FA324A929AA1F169E29A2A1AA24A7A72FA620A122A62FA620A9AA1F000000000000048803FFFE01C00030C008140380006180000000000000048800000000000000A2000000000000002480
340
28
340
4F6
 94
        0
  0
ACAD_PROXY_OBJECT
  5
511
330
507
100
AcDbProxyObject
 90
      499
 91
      580
 95
       25
 70
     0
 93
      152
310
5DE8273108AC1C5A0640A3D0A5723F0BD1F200
  0
ACAD_PROXY_OBJECT
  5
512
330
507
100
AcDbProxyObject
 90
      499
 91
      581
 95
       25
 70
     0
 93
       14
310
5DE0
340
0
 94
        0
  0
ACAD_PROXY_OBJECT
  5
513
330
507
100
AcDbProxyObject
 90
      499
 91
      582
 95
       25
 70
     0
 93
     6059
310
5DD084050BA4050AA405024050E836583938376838C815B83672031405983D3C486F6C653A6469613E3C696628657175616C28486F6C653A7465726D696E6174696F6E2C223022292C2220905B82B320222C22208368838A838B22293E3C696628657175616C28486F6C653A7465726D696E6174696F6E2C223022292C486F
310
6C653A64657074682C2222293E2C203C486F6C653A63746469613E2082B482AE82E882CC905B82B3203C486F6C653A637464657074683E406901405034050E836583938376838C815B83672031405EF3D3C486F6C653A6374616E676C653E252564202525633C486F6C653A63746469613E208E4D8C8A2C203C69662865717
310
5616C28486F6C653A7461707065642C223022292C22252563222C486F6C653A6E6F6D696E616C202220782022293E3C696628657175616C28486F6C653A7461707065642C223022292C486F6C653A6469612C486F6C653A706974636864657363293E203C696628657175616C28486F6C653A7465726D696E6174696F6E2C2
310
23022292C22905B82B320222C222022293E3C696628657175616C28486F6C653A7465726D696E6174696F6E2C223022292C486F6C653A64657074682C2222293E406901405014050E836583938376838C815B83672031405C73D3C696628657175616C28486F6C653A7461707065642C223022292C22252563222C486F6C65
310
3A6E6F6D696E616C202220782022293E3C696628657175616C28486F6C653A7461707065642C223022292C486F6C653A6469612C486F6C653A706974636864657363293E203C696628657175616C28486F6C653A7465726D696E6174696F6E2C223022292C22905B82B320222C222022293E3C696628657175616C28486F6C
310
653A7465726D696E6174696F6E2C223022292C486F6C653A64657074682C2222293E4069014051E4090E836583938376838C815B83672032405173D3C535444503A444553433E203C535444503A5354443E40690E836583938376838C815B836720314050C3D3C535444503A444553433E40690240515AAABBA120
360
514
330
514
360
515
330
515
360
516
330
516
360
517
360
518
330
517
330
518
 94
        0
  0
ACAD_PROXY_OBJECT
  5
519
330
507
100
AcDbProxyObject
 90
      499
 91
      564
 95
       25
 70
     0
 93
       26
310
5DD02A80
340
0
 94
        0
  0
ACAD_PROXY_OBJECT
  5
51A
330
507
100
AcDbProxyObject
 90
      499
 91
      565
 95
       25
 70
     0
 93
      250
310
5DD020000000000000A1000000000000002440408F0F9023C3E409A0DCFFFF80
340
4F8
340
4FF
340
500
340
4F9
340
4FA
340
4FB
340
4FC
340
4FD
340
4FE
340
0
 94
        0
  0
ACAD_PROXY_OBJECT
  5
51B
330
507
100
AcDbProxyObject
 90
      499
 91
      583
 95
       25
 70
     0
 93
    13889
310
5DD1D003FFFFFFFD030300030CCCCCCCCCCCC250200800030C01030300030CCCCCCCCCCCC250200800030C00050C8DC0955782CC838A83588367014ED1D15395149050D3CB1294138B0C0B23702555E0B320E2A0D620D9CB11D15395149055160B095CCB0A11D1539354D1C819D95B991A5B5E880CCC0A78000C0000000000
310
00000000000000000000010CCCCCCCCCCCC250200800030C010CCCCCCCCCCCC250200800030C020143CF4F111959985D5B1D151A5D1B194F8050A8C8A8365815B8375838B014E51D15395149050D3CB1294138B0C0B2322A0D96056E0DD60E2CB11D15395149055160B095CCB0A11D1539354D1C819D95B991A5B5E880CCC4
310
A78000C000000000000000000000000000000010CCCCCCCCCCCC250200800030C010CCCCCCCCCCCC250200800030C020143CF4F111959985D5B1D151A5D1B194F90D44111409034110541D0C4350F4050E44D03449074510F000141232D24D7C053247454E545241434F2C4A504E2C302C8CB4935F2C47454E54524154582C
310
25732C2847454E4D53472067656E64696D7A20312900010104002214000281464500A608E8A9CA8A482869E5894A09C5860591914588E8A9CA8A482A8B0584AE658508E8A9C9AA68E40CECADCC8D2DAF4406452029E9E9E27B934B3B4B71F1E24A31427A91424A9A12620A7259427B934B3B4B7149624A9A12620A7259424B
310
A32B6949496111116111711149F1E24BA32B69F00808200111A000140560052F47454E545241434F2C4A504E2C302C582C47454E54524154582C25732C2847454E4D53472067656E64696D7A20332900010100002054000280AC80A5E8E8A9CA8A482869E5894A09C586058B2588E8A9CA8A482A8B0584AE658508E8A9C9AA
310
68E40CECADCC8D2DAF4406852000202000040E800050152014BD1D15395149050D3CB1294138B0C0B148B11D15395149055160B095CCB0A11D1539354D1C819D95B991A5B5E880D8A400040400008250000A0507A6029823A2A72A2920A1A79625282716181641E99623A2A72A2920AA2C1612B9961423A2A726A9A39033B2
310
B73234B6BD101B948000808180105A000140A0F4C053047454E545241434F2C4A504E2C302C83D32C47454E54524154582C25732C2847454E4D53472067656E64696D7A203829000101010020F400028248704B5F00A668E8A9CA8A482869E5894A09C58605921C12D7C588E8A9CA8A482A8B0584AE658508E8A9C9AA68E40
310
CECADCC8D2DAF440646052000200080043280005048B4B8A69014CD1D15395149050D3CB1294138B0C0B22D2E29A4B11D15395149055160B095CCB0A11D1539354D1C819D95B991A5B5E880C8C4A4000400100086D0000A09196926BE029923A2A72A2920A1A796252827161816465A49AF9623A2A72A2920AA2C1612B9961
310
423A2A726A9A39033B2B73234B6BD10189480A02620202080043E80005048D8096DA014CD1D15395149050D3CB1294138B0C0B236025B68B11D15395149055160B095CCB0A11D1539354D1C819D95B991A5B5E880C4D0A4000404140280D0000A190687072706CD06C5069D06B0029DA3A2A72A2920A1A7962528271618164
310
1A1C1C9C1B341B141A741AC1623A2A72A2920AA2C1612B9961423A2A726A9A39033B2B73234B6BD10189A94800080820050EA000143A322A0D0E0E4E0D9A0D8A0D3A0D60053D47454E545241434F2C4A504E2C302C8C8A8343839383668362834E83582C47454E54524154582C25732C2847454E4D53472067656E64696D7A
310
2031372900010105002274000281464500A628E8A9CA8A482869E5894A09C5860591914588E8A9CA8A482A8B0584AE658508E8A9C9AA68E40CECADCC8D2DAF440626C52000202080044A8000504909497CA014CD1D15395149050D3CB1294138B0C0B242525F28B11D15395149055160B095CCB0A11D1539354D1C819D95B9
310
91A5B5E880C4E4A400040418008A521E000000000000001CA040C00000000000034408080000000000006881010000000000000D102040000000000001A204080000000000003440818000000000000728103000000000000125020600000000004028A040000000000000034408000000000000004881000000000000000D
310
102000000000000001A204000000000000003440818000000000000508143C0000000000000039408180000000000006881030000000000000D102060000000000001A2040C00000000000034408180000000000006881030000000000000E5020600000000000024A040C0000000000805140800000000000000688100000
310
00000000009102000000000000001A2040000000000000034408180000000000006881030000000000000A10284220000000878000002020000008380000020400000081800000208000000828000002028900000000
340
0
340
0
340
0
340
0
340
4F6
340
4F6
 94
        0
  0
ACAD_PROXY_OBJECT
  5
3A3
330
399
100
AcDbProxyObject
 90
      499
 91
      563
 95
       25
 70
     0
 93
     2256
310
5DE0143A0D960E4E0DDA0E32056E0D9C80C40405013D3C696628657175616C28486F6C653A7461707065642C223022292C22252563222C486F6C653A6E6F6D696E616C2022202220696628657175616C28486F6C653A756E6974732C223122292C2278222C222D222920222022293E3C696628657175616C28486F6C653A74
310
61707065642C223022292C486F6C653A6469612C486F6C653A706974636864657363293E207B5C46414D4744543B787D203C696628657175616C28486F6C653A7465726D696E6174696F6E2C223022292C486F6C653A64657074682C228AD192CA22293E5C507B5C46414D4744543B767D2525633C486F6C653A6374646961
310
3E207B5C46414D4744543B787D203C486F6C653A637464657074683E
  0
ACAD_PROXY_OBJECT
  5
3A4
330
399
100
AcDbProxyObject
 90
      499
 91
      563
 95
       25
 70
     0
 93
     2192
310
5DE0143A0D960E4E0DDA0E32056E0D9C80C405FE3D3C696628657175616C28486F6C653A7461707065642C223022292C22252563222C486F6C653A6E6F6D696E616C2022202220696628657175616C28486F6C653A756E6974732C223122292C2278222C222D222920222022293E3C696628657175616C28486F6C653A7461
310
707065642C223022292C486F6C653A6469612C486F6C653A706974636864657363293E207B5C46414D4744543B787D203C696628657175616C28486F6C653A7465726D696E6174696F6E2C223022292C486F6C653A64657074682C228AD192CA22293E5C507B5C46414D4744543B777D2525633C486F6C653A63746469613E
310
2058203C486F6C653A6374616E676C653E252564
  0
ACAD_PROXY_OBJECT
  5
3A2
330
399
100
AcDbProxyObject
 90
      499
 91
      563
 95
       25
 70
     0
 93
     1816
310
5DE0143A0D960E4E0DDA0E32056E0D9C80C405CF3D3C696628657175616C28486F6C653A7461707065642C223022292C22252563222C486F6C653A6E6F6D696E616C2022202220696628657175616C28486F6C653A756E6974732C223122292C2278222C222D222920222022293E3C696628657175616C28486F6C653A7461
310
707065642C223022292C486F6C653A6469612C486F6C653A706974636864657363293E5C507B5C46414D4744543B787D203C696628657175616C28486F6C653A7465726D696E6174696F6E2C223022292C486F6C653A64657074682C228AD192CA22293E
  0
ACAD_PROXY_OBJECT
  5
3A1
330
399
100
AcDbProxyObject
 90
      499
 91
      563
 95
       25
 70
     0
 93
      344
310
5DE0143A0D960E4E0DDA0E32056E0D9C80C805173D3C535444503A444553433E203C535444503A5354443E
  0
ACAD_PROXY_OBJECT
  5
3A0
330
399
100
AcDbProxyObject
 90
      499
 91
      563
 95
       25
 70
     0
 93
      256
310
5DE0143A0D960E4E0DDA0E32056E0D9C80C4050C3D3C535444503A444553433E
  0
ACAD_PROXY_OBJECT
  5
514
330
513
100
AcDbProxyObject
 90
      499
 91
      563
 95
       25
 70
     0
 93
     1376
310
5DE0143A0D960E4E0DDA0E32056E0D9C80C405983D3C486F6C653A6469613E3C696628657175616C28486F6C653A7465726D696E6174696F6E2C223022292C2220905B82B320222C22208368838A838B22293E3C696628657175616C28486F6C653A7465726D696E6174696F6E2C223022292C486F6C653A64657074682C22
310
22293E2C203C486F6C653A63746469613E2082B482AE82E882CC905B82B3203C486F6C653A637464657074683E
  0
ACAD_PROXY_OBJECT
  5
515
330
513
100
AcDbProxyObject
 90
      499
 91
      563
 95
       25
 70
     0
 93
     2072
310
5DE0143A0D960E4E0DDA0E32056E0D9C80C405EF3D3C486F6C653A6374616E676C653E252564202525633C486F6C653A63746469613E208E4D8C8A2C203C696628657175616C28486F6C653A7461707065642C223022292C22252563222C486F6C653A6E6F6D696E616C202220782022293E3C696628657175616C28486F6C
310
653A7461707065642C223022292C486F6C653A6469612C486F6C653A706974636864657363293E203C696628657175616C28486F6C653A7465726D696E6174696F6E2C223022292C22905B82B320222C222022293E3C696628657175616C28486F6C653A7465726D696E6174696F6E2C223022292C486F6C653A6465707468
310
2C2222293E
  0
ACAD_PROXY_OBJECT
  5
516
330
513
100
AcDbProxyObject
 90
      499
 91
      563
 95
       25
 70
     0
 93
     1752
310
5DE0143A0D960E4E0DDA0E32056E0D9C80C405C73D3C696628657175616C28486F6C653A7461707065642C223022292C22252563222C486F6C653A6E6F6D696E616C202220782022293E3C696628657175616C28486F6C653A7461707065642C223022292C486F6C653A6469612C486F6C653A706974636864657363293E20
310
3C696628657175616C28486F6C653A7465726D696E6174696F6E2C223022292C22905B82B320222C222022293E3C696628657175616C28486F6C653A7465726D696E6174696F6E2C223022292C486F6C653A64657074682C2222293E
  0
ACAD_PROXY_OBJECT
  5
517
330
513
100
AcDbProxyObject
 90
      499
 91
      563
 95
       25
 70
     0
 93
      344
310
5DE0143A0D960E4E0DDA0E32056E0D9C80C805173D3C535444503A444553433E203C535444503A5354443E
  0
ACAD_PROXY_OBJECT
  5
518
330
513
100
AcDbProxyObject
 90
      499
 91
      563
 95
       25
 70
     0
 93
      256
310
5DE0143A0D960E4E0DDA0E32056E0D9C80C4050C3D3C535444503A444553433E
  0
ENDSEC
  0
EOF
