  0
SECTION
  2
HEADER
  9
$ACADVER
  1
AC1014
  9
$ACADMAINTVER
 70
     9
  9
$DWGCODEPAGE
  3
ANSI_932
  9
$INSBASE
 10
0.0
 20
0.0
 30
0.0
  9
$EXTMIN
 10
-135.4771378827975
 20
-30.714592934991
 30
-0.00000001
  9
$EXTMAX
 10
30.09857578293098
 20
35.82076226685675
 30
0.00000001
  9
$LIMMIN
 10
-148.9339351260341
 20
-51.80378398796268
  9
$LIMMAX
 10
45.58137005731282
 20
73.48361573809945
  9
$ORTHOMODE
 70
     0
  9
$REGENMODE
 70
     1
  9
$FILLMODE
 70
     1
  9
$QTEXTMODE
 70
     0
  9
$MIRRTEXT
 70
     0
  9
$DRAGMODE
 70
     2
  9
$LTSCALE
 40
1.0
  9
$OSMODE
 70
  2103
  9
$ATTMODE
 70
     1
  9
$TEXTSIZE
 40
2.5
  9
$TRACEWID
 40
1.0
  9
$TEXTSTYLE
  7
STANDARD
  9
$CLAYER
  8
AM_0
  9
$CELTYPE
  6
BYLAYER
  9
$CECOLOR
 62
   256
  9
$CELTSCALE
 40
1.0
  9
$DELOBJ
 70
     1
  9
$DISPSILH
 70
     0
  9
$DIMSCALE
 40
0.5
  9
$DIMASZ
 40
2.5
  9
$DIMEXO
 40
1.0
  9
$DIMDLI
 40
12.0
  9
$DIMRND
 40
0.0
  9
$DIMDLE
 40
0.0
  9
$DIMEXE
 40
1.0
  9
$DIMTP
 40
0.1
  9
$DIMTM
 40
0.1
  9
$DIMTXT
 40
3.2
  9
$DIMCEN
 40
0.0
  9
$DIMTSZ
 40
0.0
  9
$DIMTOL
 70
     0
  9
$DIMLIM
 70
     0
  9
$DIMTIH
 70
     0
  9
$DIMTOH
 70
     0
  9
$DIMSE1
 70
     0
  9
$DIMSE2
 70
     0
  9
$DIMTAD
 70
     3
  9
$DIMZIN
 70
     8
  9
$DIMBLK
  1
OPEN30
  9
$DIMASO
 70
     1
  9
$DIMSHO
 70
     1
  9
$DIMPOST
  1

  9
$DIMAPOST
  1
"
  9
$DIMALT
 70
     0
  9
$DIMALTD
 70
     2
  9
$DIMALTF
 40
0.0393701
  9
$DIMLFAC
 40
1.0
  9
$DIMTOFL
 70
     1
  9
$DIMTVP
 40
0.0
  9
$DIMTIX
 70
     0
  9
$DIMSOXD
 70
     0
  9
$DIMSAH
 70
     0
  9
$DIMBLK1
  1

  9
$DIMBLK2
  1

  9
$DIMSTYLE
  2
AM_JIS
  9
$DIMCLRD
 70
   256
  9
$DIMCLRE
 70
   256
  9
$DIMCLRT
 70
     2
  9
$DIMTFAC
 40
0.71
  9
$DIMGAP
 40
1.5
  9
$DIMJUST
 70
     0
  9
$DIMSD1
 70
     0
  9
$DIMSD2
 70
     0
  9
$DIMTOLJ
 70
     0
  9
$DIMTZIN
 70
     0
  9
$DIMALTZ
 70
     0
  9
$DIMALTTZ
 70
     0
  9
$DIMFIT
 70
     3
  9
$DIMUPT
 70
     0
  9
$DIMUNIT
 70
     2
  9
$DIMDEC
 70
     3
  9
$DIMTDEC
 70
     3
  9
$DIMALTU
 70
     2
  9
$DIMALTTD
 70
     2
  9
$DIMTXSTY
  7
ASAMI
  9
$DIMAUNIT
 70
     0
  9
$LUNITS
 70
     2
  9
$LUPREC
 70
     2
  9
$SKETCHINC
 40
1.0
  9
$FILLETRAD
 40
0.4
  9
$AUNITS
 70
     0
  9
$AUPREC
 70
     0
  9
$MENU
  1
.
  9
$ELEVATION
 40
0.0
  9
$PELEVATION
 40
0.0
  9
$THICKNESS
 40
0.0
  9
$LIMCHECK
 70
     1
  9
$BLIPMODE
 70
     0
  9
$CHAMFERA
 40
1.0
  9
$CHAMFERB
 40
1.0
  9
$CHAMFERC
 40
20.0
  9
$CHAMFERD
 40
0.0
  9
$SKPOLY
 70
     0
  9
$TDCREATE
 40
2452802.716478761
  9
$TDUPDATE
 40
2452941.600230925
  9
$TDINDWG
 40
0.7529726852
  9
$TDUSRTIMER
 40
0.7529726852
  9
$USRTIMER
 70
     1
  9
$ANGBASE
 50
0.0
  9
$ANGDIR
 70
     0
  9
$PDMODE
 70
     0
  9
$PDSIZE
 40
0.0
  9
$PLINEWID
 40
0.0
  9
$COORDS
 70
     0
  9
$SPLFRAME
 70
     0
  9
$SPLINETYPE
 70
     6
  9
$SPLINESEGS
 70
     8
  9
$ATTDIA
 70
     1
  9
$ATTREQ
 70
     1
  9
$HANDLING
 70
 12289
  9
$HANDSEED
  5
76BD
  9
$SURFTAB1
 70
     6
  9
$SURFTAB2
 70
     6
  9
$SURFTYPE
 70
     6
  9
$SURFU
 70
     6
  9
$SURFV
 70
     6
  9
$UCSNAME
  2

  9
$UCSORG
 10
-0.0000000000002682
 20
0.000000000000161
 30
0.0
  9
$UCSXDIR
 10
1.0
 20
0.000000000000002
 30
0.0
  9
$UCSYDIR
 10
-0.000000000000002
 20
1.0
 30
0.0
  9
$PUCSNAME
  2

  9
$PUCSORG
 10
0.0
 20
0.0
 30
0.0
  9
$PUCSXDIR
 10
1.0
 20
0.0
 30
0.0
  9
$PUCSYDIR
 10
0.0
 20
1.0
 30
0.0
  9
$USERI1
 70
     0
  9
$USERI2
 70
     0
  9
$USERI3
 70
     0
  9
$USERI4
 70
     0
  9
$USERI5
 70
     0
  9
$USERR1
 40
0.0
  9
$USERR2
 40
0.0
  9
$USERR3
 40
0.0
  9
$USERR4
 40
0.0
  9
$USERR5
 40
0.0
  9
$WORLDVIEW
 70
     1
  9
$SHADEDGE
 70
     3
  9
$SHADEDIF
 70
    70
  9
$TILEMODE
 70
     1
  9
$MAXACTVP
 70
    64
  9
$PINSBASE
 10
0.0
 20
0.0
 30
0.0
  9
$PLIMCHECK
 70
     0
  9
$PEXTMIN
 10
1.000000000000000E+20
 20
1.000000000000000E+20
 30
1.000000000000000E+20
  9
$PEXTMAX
 10
-1.000000000000000E+20
 20
-1.000000000000000E+20
 30
-1.000000000000000E+20
  9
$PLIMMIN
 10
0.0
 20
0.0
  9
$PLIMMAX
 10
841.0
 20
594.0
  9
$UNITMODE
 70
     0
  9
$VISRETAIN
 70
     1
  9
$PLINEGEN
 70
     0
  9
$PSLTSCALE
 70
     0
  9
$TREEDEPTH
 70
  3020
  9
$PICKSTYLE
 70
     0
  9
$CMLSTYLE
  2
STANDARD
  9
$CMLJUST
 70
     0
  9
$CMLSCALE
 40
20.0
  9
$PROXYGRAPHICS
 70
     1
  9
$MEASUREMENT
 70
     1
  0
ENDSEC
  0
SECTION
  2
CLASSES
  0
CLASS
  1
ACDBDICTIONARYWDFLT
  2
AcDbDictionaryWithDefault
  3
AutoCAD 2000
 90
        0
280
     0
281
     0
  0
CLASS
  1
ACDBPLACEHOLDER
  2
AcDbPlaceHolder
  3
AutoCAD 2000
 90
        0
280
     0
281
     0
  0
CLASS
  1
LAYOUT
  2
AcDbLayout
  3
AutoCAD 2000
 90
        0
280
     0
281
     0
  0
CLASS
  1
AMGSETTINGSOBJ
  2
AmgSettingsObj
  3
"AcadM|Product Description: AutoCAD Mechanical 2000|Company: Autodesk"
 90
        0
280
     0
281
     0
  0
CLASS
  1
ACME_DOCUMENT
  2
AcMeDbDoc
  3
AcMeServices
 90
        0
280
     0
281
     0
  0
CLASS
  1
ACMESCOPE
  2
AcMeScope
  3
AcMeServices
 90
        0
280
     0
281
     0
  0
CLASS
  1
ACMECOMMANDHISTORY
  2
AcMeCommandHistory
  3
AcMeServices
 90
        0
280
     0
281
     0
  0
CLASS
  1
DICTIONARYVAR
  2
AcDbDictionaryVar
  3
AutoCAD 2000
 90
        0
280
     0
281
     0
  0
CLASS
  1
ACIMSYSVARMAN
  2
AcImSysVarManager
  3
AcMeServices
 90
        0
280
     0
281
     0
  0
CLASS
  1
ACIMREALSYSVAR
  2
AcImRealSysVar
  3
AcMeServices
 90
        0
280
     0
281
     0
  0
CLASS
  1
ACIMINTSYSVAR
  2
AcImIntSysVar
  3
AcMeServices
 90
        0
280
     0
281
     0
  0
CLASS
  1
ACMEDRAWINGMAN
  2
AcMeDrawingMan
  3
AcMeServices
 90
        0
280
     0
281
     0
  0
CLASS
  1
ACMEVIEW
  2
AcMeView
  3
AcMeServices
 90
        0
280
     0
281
     0
  0
CLASS
  1
ACDBENTITYCACHE
  2
AcMeEntityCache
  3
AcMeServices
 90
        0
280
     0
281
     0
  0
CLASS
  1
GSMANAGER
  2
AcMeGSManager
  3
AcMeServices
 90
        0
280
     0
281
     0
  0
CLASS
  1
AmdtInternalReactor
  2
AmdtInternalReactor
  3
AcMeServices
 90
        0
280
     0
281
     0
  0
CLASS
  1
ACMESTATEMGR
  2
AcMeStateMgr
  3
AcMeServices
 90
        0
280
     0
281
     0
  0
CLASS
  1
ACME_DATABASE
  2
AcMeDbDatabase
  3
AcMeServices
 90
        0
280
     0
281
     0
  0
CLASS
  1
ACRFINSADJUSTERMGR
  2
AcRfInsAdjusterMgr
  3
AcMeServices
 90
        0
280
     0
281
     0
  0
CLASS
  1
ACMDATADICTIONARY
  2
AcmDataDictionary
  3
"AcmSymBB|Product Description: AutoCAD Mechanical 2000|Company: Autodesk"
 90
        0
280
     0
281
     0
  0
CLASS
  1
ACMDATAENTRYBLOCK
  2
AcmDataEntryBlock
  3
"AcmSymBB|Product Description: AutoCAD Mechanical 2000|Company: Autodesk"
 90
        0
280
     0
281
     0
  0
CLASS
  1
AMGOBJPROPCFG
  2
AmgObjPropCfg
  3
"AmgLay|Product Description: AutoCAD Mechanical 2000|Company: Autodesk"
 90
        1
280
     0
281
     0
  0
CLASS
  1
ACAMGFILTERDAT
  2
AcAmgFilterDat
  3
"AcadM|Product Description: AutoCAD Mechanical 2000|Company: Autodesk"
 90
        0
280
     0
281
     0
  0
CLASS
  1
LAYER_INDEX
  2
AcDbLayerIndex
  3
AutoCAD 2000
 90
        0
280
     0
281
     0
  0
CLASS
  1
IDBUFFER
  2
AcDbIdBuffer
  3
AutoCAD 2000
 90
        0
280
     0
281
     0
  0
CLASS
  1
ACIMSTRSYSVAR
  2
AcImStrSysVar
  3
AcMeServices
 90
        0
280
     0
281
     0
  0
CLASS
  1
ACMSTANDARDJIS
  2
AcmStandardJIS
  3
"AcmSymBB|Product Description: AutoCAD Mechanical 2000|Company: Autodesk"
 90
        0
280
     0
281
     0
  0
CLASS
  1
ACMSURFSTANDARDJIS
  2
AcmSurfTextStdJIS
  3
"AcmSymBB|Product Description: AutoCAD Mechanical 2000|Company: Autodesk"
 90
        0
280
     0
281
     0
  0
CLASS
  1
ACMFCFSTANDARDJIS
  2
AcmFCFStdJIS
  3
"AcmSymBB|Product Description: AutoCAD Mechanical 2000|Company: Autodesk"
 90
        0
280
     0
281
     0
  0
CLASS
  1
ACMWELDSTANDARDJIS
  2
AcmWeldingStdJIS
  3
"AcmSymBB|Product Description: AutoCAD Mechanical 2000|Company: Autodesk"
 90
        0
280
     0
281
     0
  0
CLASS
  1
ACMIDSTANDARDJIS
  2
AcmIdStdJIS
  3
"AcmSymBB|Product Description: AutoCAD Mechanical 2000|Company: Autodesk"
 90
        0
280
     0
281
     0
  0
CLASS
  1
ACMDATUMSTANDARDJIS
  2
AcmDatumStdJIS
  3
"AcmSymBB|Product Description: AutoCAD Mechanical 2000|Company: Autodesk"
 90
        0
280
     0
281
     0
  0
CLASS
  1
ACMBOMSTANDARDJIS
  2
AcmBOMStdJIS
  3
"AcmSymBB|Product Description: AutoCAD Mechanical 2000|Company: Autodesk"
 90
        0
280
     0
281
     0
  0
CLASS
  1
ACMSTANDARDANSI
  2
AcmStandardANSI
  3
"AcmSymBB|Product Description: AutoCAD Mechanical 2000|Company: Autodesk"
 90
        0
280
     0
281
     0
  0
CLASS
  1
ACMSURFSTANDARDANSI
  2
AcmSurfTextStdANSI
  3
"AcmSymBB|Product Description: AutoCAD Mechanical 2000|Company: Autodesk"
 90
        0
280
     0
281
     0
  0
CLASS
  1
ACMFCFSTANDARDANSI
  2
AcmFCFStdANSI
  3
"AcmSymBB|Product Description: AutoCAD Mechanical 2000|Company: Autodesk"
 90
        0
280
     0
281
     0
  0
CLASS
  1
ACMWELDSTANDARDANSI
  2
AcmWeldingStdANSI
  3
"AcmSymBB|Product Description: AutoCAD Mechanical 2000|Company: Autodesk"
 90
        0
280
     0
281
     0
  0
CLASS
  1
ACMIDSTANDARDANSI
  2
AcmIdStdANSI
  3
"AcmSymBB|Product Description: AutoCAD Mechanical 2000|Company: Autodesk"
 90
        0
280
     0
281
     0
  0
CLASS
  1
ACMDATUMSTANDARDANSI
  2
AcmDatumStdANSI
  3
"AcmSymBB|Product Description: AutoCAD Mechanical 2000|Company: Autodesk"
 90
        0
280
     0
281
     0
  0
CLASS
  1
ACMBOMSTANDARDANSI
  2
AcmBOMStdANSI
  3
"AcmSymBB|Product Description: AutoCAD Mechanical 2000|Company: Autodesk"
 90
        0
280
     0
281
     0
  0
CLASS
  1
ACMSTANDARDBSI
  2
AcmStandardBSI
  3
"AcmSymBB|Product Description: AutoCAD Mechanical 2000|Company: Autodesk"
 90
        0
280
     0
281
     0
  0
CLASS
  1
ACMSURFSTANDARDBSI
  2
AcmSurfTextStdBSI
  3
"AcmSymBB|Product Description: AutoCAD Mechanical 2000|Company: Autodesk"
 90
        0
280
     0
281
     0
  0
CLASS
  1
ACMFCFSTANDARDBSI
  2
AcmFCFStdBSI
  3
"AcmSymBB|Product Description: AutoCAD Mechanical 2000|Company: Autodesk"
 90
        0
280
     0
281
     0
  0
CLASS
  1
ACMWELDSTANDARDBSI
  2
AcmWeldingStdBSI
  3
"AcmSymBB|Product Description: AutoCAD Mechanical 2000|Company: Autodesk"
 90
        0
280
     0
281
     0
  0
CLASS
  1
ACMIDSTANDARDBSI
  2
AcmIdStdBSI
  3
"AcmSymBB|Product Description: AutoCAD Mechanical 2000|Company: Autodesk"
 90
        0
280
     0
281
     0
  0
CLASS
  1
ACMDATUMSTANDARDBSI
  2
AcmDatumStdBSI
  3
"AcmSymBB|Product Description: AutoCAD Mechanical 2000|Company: Autodesk"
 90
        0
280
     0
281
     0
  0
CLASS
  1
ACMBOMSTANDARDBSI
  2
AcmBOMStdBSI
  3
"AcmSymBB|Product Description: AutoCAD Mechanical 2000|Company: Autodesk"
 90
        0
280
     0
281
     0
  0
CLASS
  1
STDPART2D
  2
AmgStdPart
  3
"AmgStdPart|Product Description: AutoCAD Mechanical 2000|Company: Autodesk"
 90
     1023
280
     0
281
     1
  0
CLASS
  1
PLOTSETTINGS
  2
AcDbPlotSettings
  3
AutoCAD 2000
 90
        0
280
     0
281
     0
  0
CLASS
  1
LONG_TRANSACTION
  2
AcDbLongTransaction
  3
AutoCAD 2000
 90
        0
280
     0
281
     0
  0
CLASS
  1
LWPOLYLINE
  2
AcDbPolyline
  3
AutoCAD 2000
 90
        0
280
     0
281
     1
  0
CLASS
  1
HATCH
  2
AcDbHatch
  3
AutoCAD 2000
 90
        0
280
     0
281
     1
  0
CLASS
  1
XRECORD
  2
AcDbXrecord
  3
AutoCAD 2000
 90
        0
280
     0
281
     0
  0
ENDSEC
  0
SECTION
  2
TABLES
  0
TABLE
  2
VPORT
  5
8
330
0
100
AcDbSymbolTable
 70
     3
  0
VPORT
  5
765A
330
8
100
AcDbSymbolTableRecord
100
AcDbViewportTableRecord
  2
*ACTIVE
 70
     0
 10
0.0
 20
0.0
 11
1.0
 21
1.0
 12
-42.16442035927475
 22
28.28674106507847
 13
0.0
 23
0.0
 14
2.5
 24
2.5
 15
10.0
 25
10.0
 16
0.0
 26
0.0
 36
1.0
 17
0.0
 27
0.0
 37
0.0
 40
128.2247264770369
 41
1.609042553191489
 42
50.0
 43
0.0
 44
0.0
 50
0.0
 51
0.0
 71
     0
 72
   100
 73
     1
 74
     3
 75
     0
 76
     0
 77
     0
 78
     0
  0
ENDTAB
  0
TABLE
  2
LTYPE
  5
5
330
0
100
AcDbSymbolTable
 70
    10
  0
LTYPE
  5
14
330
5
100
AcDbSymbolTableRecord
100
AcDbLinetypeTableRecord
  2
BYBLOCK
 70
     0
  3

 72
    65
 73
     0
 40
0.0
  0
LTYPE
  5
15
330
5
100
AcDbSymbolTableRecord
100
AcDbLinetypeTableRecord
  2
BYLAYER
 70
     0
  3

 72
    65
 73
     0
 40
0.0
  0
LTYPE
  5
16
330
5
100
AcDbSymbolTableRecord
100
AcDbLinetypeTableRecord
  2
CONTINUOUS
 70
     0
  3
Solid line
 72
    65
 73
     0
 40
0.0
  0
LTYPE
  5
4B
330
5
100
AcDbSymbolTableRecord
100
AcDbLinetypeTableRecord
  2
AM_ISO02W050
 70
     0
  3
__ __ __ __ __ __ __ __ __ __ __ __ __ __ __
 72
    65
 73
     2
 40
7.5
 49
6.0
 74
     0
 49
-1.5
 74
     0
  0
LTYPE
  5
4C
330
5
100
AcDbSymbolTableRecord
100
AcDbLinetypeTableRecord
  2
AM_ISO08W050
 70
     0
  3
____ . ____ . ____ . ____ . ____ . ____ . ____
 72
    65
 73
     4
 40
18.0
 49
12.0
 74
     0
 49
-1.5
 74
     0
 49
3.0
 74
     0
 49
-1.5
 74
     0
  0
LTYPE
  5
4D
330
5
100
AcDbSymbolTableRecord
100
AcDbLinetypeTableRecord
  2
AM_ISO09W050
 70
     0
  3
_____ . . _____ . . _____ . . ____ .. ____
 72
    65
 73
     6
 40
22.5
 49
12.0
 74
     0
 49
-1.5
 74
     0
 49
3.0
 74
     0
 49
-1.5
 74
     0
 49
3.0
 74
     0
 49
-1.5
 74
     0
  0
LTYPE
  5
4E
330
5
100
AcDbSymbolTableRecord
100
AcDbLinetypeTableRecord
  2
AMCONSTR
 70
     0
  3
_______________________
 72
    65
 73
     2
 40
9999.0
 49
9999.0
 74
     0
 49
0.0
 74
     0
  0
LTYPE
  5
4F
330
5
100
AcDbSymbolTableRecord
100
AcDbLinetypeTableRecord
  2
AM_ISO02W050X2
 70
     0
  3
 _ _ _ _ _ _ _ _ _ _ _ _
 72
    65
 73
     2
 40
3.75
 49
3.0
 74
     0
 49
-0.75
 74
     0
  0
LTYPE
  5
50
330
5
100
AcDbSymbolTableRecord
100
AcDbLinetypeTableRecord
  2
AM_ISO08W050X2
 70
     0
  3
__ . __ . __ . __ . __ . __
 72
    65
 73
     4
 40
9.0
 49
6.0
 74
     0
 49
-0.75
 74
     0
 49
1.5
 74
     0
 49
-0.75
 74
     0
  0
LTYPE
  5
53
330
5
100
AcDbSymbolTableRecord
100
AcDbLinetypeTableRecord
  2
AMZIGZAG
 70
     0
  3
/\/-/\/-/\/-/\/-/\/-/\/
 72
    65
 73
     2
 40
11.00009999999999
 49
0.0001
 74
     4
 75
   135
340
52
 46
0.04
 50
0.0
 44
0.0
 45
0.0
 49
-11.0
 74
     0
  0
LTYPE
  5
166
330
5
100
AcDbSymbolTableRecord
100
AcDbLinetypeTableRecord
  2
ACJISTGL
 70
     0
  3
_ _ _ _ _
 72
    65
 73
     2
 40
3.0
 49
2.0
 74
     0
 49
-1.0
 74
     0
  0
LTYPE
  5
26A
330
5
100
AcDbSymbolTableRecord
100
AcDbLinetypeTableRecord
  2
ACJISTGB
 70
     0
  3
__ . . __ . .
 72
    65
 73
     6
 40
9.0
 49
4.0
 74
     0
 49
-1.0
 74
     0
 49
1.0
 74
     0
 49
-1.0
 74
     0
 49
1.0
 74
     0
 49
-1.0
 74
     0
  0
ENDTAB
  0
TABLE
  2
LAYER
  5
2
330
0
100
AcDbSymbolTable
 70
     9
  0
LAYER
  5
10
330
2
100
AcDbSymbolTableRecord
100
AcDbLayerTableRecord
  2
0
 70
     0
 62
     7
  6
CONTINUOUS
  0
LAYER
  5
3F9
330
2
100
AcDbSymbolTableRecord
100
AcDbLayerTableRecord
  2
AM_0
 70
     0
 62
     7
  6
CONTINUOUS
  0
LAYER
  5
BA4
330
2
100
AcDbSymbolTableRecord
100
AcDbLayerTableRecord
  2
AM_5
 70
     0
 62
     3
  6
CONTINUOUS
  0
LAYER
  5
BA6
330
2
100
AcDbSymbolTableRecord
100
AcDbLayerTableRecord
  2
AM_7
 70
     0
 62
     4
  6
AM_ISO08W050
  0
LAYER
  5
E64
330
2
100
AcDbSymbolTableRecord
100
AcDbLayerTableRecord
  2
AM_6
 70
     0
 62
     2
  6
CONTINUOUS
  0
LAYER
  5
F4D
330
2
100
AcDbSymbolTableRecord
100
AcDbLayerTableRecord
  2
DEFPOINTS
 70
     0
 62
     7
  6
CONTINUOUS
  0
LAYER
  5
2382
330
2
100
AcDbSymbolTableRecord
100
AcDbLayerTableRecord
  2
AM_3
 70
     0
 62
     6
  6
ACJISTGL
  0
LAYER
  5
4E80
330
2
100
AcDbSymbolTableRecord
100
AcDbLayerTableRecord
  2
AM_11
 70
     0
 62
     3
  6
AM_ISO09W050
  0
LAYER
  5
6941
330
2
100
AcDbSymbolTableRecord
100
AcDbLayerTableRecord
  2
PV0001_1
 70
     0
 62
     7
  6
CONTINUOUS
  0
ENDTAB
  0
TABLE
  2
STYLE
  5
3
330
0
100
AcDbSymbolTable
 70
     5
  0
STYLE
  5
11
330
3
100
AcDbSymbolTableRecord
100
AcDbTextStyleTableRecord
  2
STANDARD
 70
     0
 40
0.0
 41
1.0
 50
0.0
 71
     0
 42
2.5
  3
simplex.shx
  4
EXTFONT.SHX
  0
STYLE
  5
52
330
3
100
AcDbSymbolTableRecord
100
AcDbTextStyleTableRecord
  2

 70
     1
 40
0.0
 41
1.0
 50
0.0
 71
     0
 42
2.5
  3
ltypeshp.shx
  4

  0
STYLE
  5
6B
330
3
100
AcDbSymbolTableRecord
100
AcDbTextStyleTableRecord
  2
ASAMI
 70
     0
 40
0.0
 41
1.0
 50
0.0
 71
     0
 42
2.5
  3
simplex.shx
  4
EXTFONT.SHX
  0
STYLE
  5
262
330
3
100
AcDbSymbolTableRecord
100
AcDbTextStyleTableRecord
  2
ACJISTS
 70
     0
 40
1.0
 41
1.0
 50
0.0
 71
     0
 42
2.5
  3
simplex.shx
  4
bigfont.shx
  0
STYLE
  5
269
330
3
100
AcDbSymbolTableRecord
100
AcDbTextStyleTableRecord
  2
ACJISGDT
 70
     0
 40
0.0
 41
1.0
 50
0.0
 71
     0
 42
2.5
  3
amgdtans.shx
  4

  0
ENDTAB
  0
TABLE
  2
VIEW
  5
6
330
0
100
AcDbSymbolTable
 70
     0
  0
ENDTAB
  0
TABLE
  2
UCS
  5
7
330
0
100
AcDbSymbolTable
 70
     0
  0
ENDTAB
  0
TABLE
  2
APPID
  5
9
330
0
100
AcDbSymbolTable
 70
    24
  0
APPID
  5
12
330
9
100
AcDbSymbolTableRecord
100
AcDbRegAppTableRecord
  2
ACAD
 70
     0
  0
APPID
  5
30
330
9
100
AcDbSymbolTableRecord
100
AcDbRegAppTableRecord
  2
MCAD_NO_VIS
 70
     0
  0
APPID
  5
31
330
9
100
AcDbSymbolTableRecord
100
AcDbRegAppTableRecord
  2
ACAD_TEMP_GRAPHIC
 70
     0
  0
APPID
  5
2C2
330
9
100
AcDbSymbolTableRecord
100
AcDbRegAppTableRecord
  2
GENIUS_GENDTOL_13
 70
     0
  0
APPID
  5
339
330
9
100
AcDbSymbolTableRecord
100
AcDbRegAppTableRecord
  2
GENIUS_GENODEF_13
 70
     0
  0
APPID
  5
33A
330
9
100
AcDbSymbolTableRecord
100
AcDbRegAppTableRecord
  2
GENIUS_GENOBJ-N-RSBK_13
 70
     0
  0
APPID
  5
33B
330
9
100
AcDbSymbolTableRecord
100
AcDbRegAppTableRecord
  2
GENIUS_GENOBJ-N-LIB_13
 70
     0
  0
APPID
  5
33C
330
9
100
AcDbSymbolTableRecord
100
AcDbRegAppTableRecord
  2
GENIUS_GENSCALE_13
 70
     0
  0
APPID
  5
378
330
9
100
AcDbSymbolTableRecord
100
AcDbRegAppTableRecord
  2
GENIUS_GENDIMSH_14
 70
     0
  0
APPID
  5
BB0
330
9
100
AcDbSymbolTableRecord
100
AcDbRegAppTableRecord
  2
GENIUS_GENOBJ-N-CEN_13
 70
     0
  0
APPID
  5
BB1
330
9
100
AcDbSymbolTableRecord
100
AcDbRegAppTableRecord
  2
GENIUS_GENFIL_13
 70
     0
  0
APPID
  5
BB2
330
9
100
AcDbSymbolTableRecord
100
AcDbRegAppTableRecord
  2
GENIUS_GENOBJ-N-CHA_13
 70
     0
  0
APPID
  5
1FAF
330
9
100
AcDbSymbolTableRecord
100
AcDbRegAppTableRecord
  2
GENIUS_GENOBJ-N-CRS_13
 70
     0
  0
APPID
  5
1FB0
330
9
100
AcDbSymbolTableRecord
100
AcDbRegAppTableRecord
  2
GENIUS_GENOENT_13
 70
     0
  0
APPID
  5
1FB1
330
9
100
AcDbSymbolTableRecord
100
AcDbRegAppTableRecord
  2
GENIUS_GENOREF_13
 70
     0
  0
APPID
  5
1FB2
330
9
100
AcDbSymbolTableRecord
100
AcDbRegAppTableRecord
  2
GENIUS_GENOLIS_13
 70
     0
  0
APPID
  5
1FB7
330
9
100
AcDbSymbolTableRecord
100
AcDbRegAppTableRecord
  2
GENIUS_GENOBJ-N-FIL_13
 70
     0
  0
APPID
  5
22A8
330
9
100
AcDbSymbolTableRecord
100
AcDbRegAppTableRecord
  2
GEVID1056506048
 70
     0
  0
APPID
  5
22A9
330
9
100
AcDbSymbolTableRecord
100
AcDbRegAppTableRecord
  2
GEVDC
 70
     0
  0
APPID
  5
22AC
330
9
100
AcDbSymbolTableRecord
100
AcDbRegAppTableRecord
  2
GENIUS_GENBH_13
 70
     0
  0
APPID
  5
22B8
330
9
100
AcDbSymbolTableRecord
100
AcDbRegAppTableRecord
  2
GENIUS_GENOBJ-NBEHI-BHF_13
 70
     0
  0
APPID
  5
22BA
330
9
100
AcDbSymbolTableRecord
100
AcDbRegAppTableRecord
  2
GENIUS_GENOBJ-NBEHI-BHB_13
 70
     0
  0
APPID
  5
35C9
330
9
100
AcDbSymbolTableRecord
100
AcDbRegAppTableRecord
  2
GENIUS_GENREC_14
 70
     0
  0
APPID
  5
35CA
330
9
100
AcDbSymbolTableRecord
100
AcDbRegAppTableRecord
  2
GENIUS_GENOBJ-N-REC_13
 70
     0
  0
ENDTAB
  0
TABLE
  2
DIMSTYLE
  5
A
330
0
100
AcDbSymbolTable
 70
     9
  0
DIMSTYLE
105
58
330
A
100
AcDbSymbolTableRecord
100
AcDbDimStyleTableRecord
  2
AM_JIS
 70
     0
  3

  4
"
  5
OPEN30
  6

  7

 40
0.5
 41
2.5
 42
1.0
 43
12.0
 44
1.0
 45
0.0
 46
0.0
 47
0.1
 48
0.1
140
3.2
141
0.0
142
0.0
143
0.0393701
144
1.0
145
0.0
146
0.71
147
1.5
 71
     0
 72
     0
 73
     0
 74
     0
 75
     0
 76
     0
 77
     3
 78
     8
170
     0
171
     2
172
     1
173
     0
174
     0
175
     0
176
   256
177
   256
178
     2
270
     2
271
     3
272
     3
273
     2
274
     2
340
6B
275
     0
280
     0
281
     0
282
     0
283
     0
284
     0
285
     0
286
     0
287
     3
288
     0
  0
DIMSTYLE
105
5F
330
A
100
AcDbSymbolTableRecord
100
AcDbDimStyleTableRecord
  2
AM_JIS$3
 70
     0
  3

  4
"
  5
OPEN30
  6

  7

 40
0.5
 41
2.5
 42
1.0
 43
10.0
 44
1.0
 45
0.0
 46
0.0
 47
0.1
 48
0.1
140
3.2
141
0.0
142
0.0
143
0.0393701
144
1.0
145
0.0
146
0.71
147
1.5
 71
     0
 72
     0
 73
     0
 74
     1
 75
     0
 76
     0
 77
     3
 78
     8
170
     0
171
     2
172
     0
173
     0
174
     0
175
     0
176
   256
177
   256
178
     2
270
     2
271
     2
272
     3
273
     2
274
     2
340
6B
275
     0
280
     0
281
     0
282
     0
283
     0
284
     0
285
     0
286
     0
287
     0
288
     1
  0
DIMSTYLE
105
60
330
A
100
AcDbSymbolTableRecord
100
AcDbDimStyleTableRecord
  2
AM_JIS$4
 70
     0
  3

  4
"
  5
OPEN30
  6

  7

 40
0.5
 41
2.5
 42
1.0
 43
10.0
 44
1.0
 45
0.0
 46
0.0
 47
0.1
 48
0.1
140
3.2
141
0.0
142
0.0
143
0.0393701
144
1.0
145
0.0
146
0.71
147
1.5
 71
     0
 72
     0
 73
     0
 74
     1
 75
     0
 76
     0
 77
     3
 78
     8
170
     0
171
     2
172
     0
173
     0
174
     0
175
     0
176
   256
177
   256
178
     2
270
     2
271
     2
272
     3
273
     2
274
     2
340
6B
275
     0
280
     0
281
     0
282
     0
283
     0
284
     0
285
     0
286
     0
287
     0
288
     1
  0
DIMSTYLE
105
61
330
A
100
AcDbSymbolTableRecord
100
AcDbDimStyleTableRecord
  2
AM_JIS$6
 70
     0
  3

  4
"
  5
OPEN30
  6

  7

 40
0.5
 41
2.5
 42
1.0
 43
10.0
 44
1.0
 45
0.0
 46
0.0
 47
0.1
 48
0.1
140
3.2
141
0.0
142
0.0
143
0.0393701
144
1.0
145
0.0
146
0.71
147
1.5
 71
     0
 72
     0
 73
     0
 74
     0
 75
     0
 76
     0
 77
     0
 78
     8
170
     0
171
     2
172
     1
173
     0
174
     0
175
     0
176
   256
177
   256
178
     2
270
     2
271
     2
272
     2
273
     2
274
     2
340
6B
275
     0
280
     0
281
     0
282
     0
283
     0
284
     0
285
     0
286
     0
287
     3
288
     0
  0
DIMSTYLE
105
62
330
A
100
AcDbSymbolTableRecord
100
AcDbDimStyleTableRecord
  2
AM_JIS$7
 70
     0
  3

  4
"
  5
OPEN30
  6

  7

 40
0.5
 41
2.5
 42
1.0
 43
10.0
 44
1.0
 45
0.0
 46
0.0
 47
0.1
 48
0.1
140
3.2
141
0.0
142
0.0
143
0.0393701
144
1.0
145
0.0
146
0.71
147
1.5
 71
     0
 72
     0
 73
     0
 74
     0
 75
     0
 76
     0
 77
     3
 78
     8
170
     0
171
     2
172
     1
173
     0
174
     0
175
     0
176
   256
177
   256
178
     2
270
     2
271
     2
272
     3
273
     2
274
     2
340
6B
275
     0
280
     0
281
     0
282
     0
283
     0
284
     0
285
     0
286
     0
287
     3
288
     0
  0
DIMSTYLE
105
63
330
A
100
AcDbSymbolTableRecord
100
AcDbDimStyleTableRecord
  2
AM_JIS$SF
 70
     0
  3

  4
"
  5
OPEN30
  6

  7

 40
0.5
 41
2.5
 42
1.0
 43
10.0
 44
1.0
 45
0.0
 46
0.0
 47
0.1
 48
0.1
140
3.2
141
0.0
142
0.0
143
0.0393701
144
1.0
145
0.0
146
0.71
147
1.5
 71
     0
 72
     0
 73
     0
 74
     0
 75
     1
 76
     1
 77
     3
 78
     8
170
     0
171
     2
172
     1
173
     0
174
     0
175
     0
176
   256
177
   256
178
     2
270
     2
271
     2
272
     2
273
     2
274
     2
340
6B
275
     0
280
     0
281
     0
282
     0
283
     0
284
     0
285
     0
286
     0
287
     3
288
     0
  0
DIMSTYLE
105
68
330
A
100
AcDbSymbolTableRecord
100
AcDbDimStyleTableRecord
  2
AM_JIS$SH
 70
     0
  3

  4
"
  5

  6
GENAXEH
  7
OPEN30
 40
0.5
 41
2.5
 42
1.0
 43
10.0
 44
1.0
 45
0.0
 46
0.0
 47
0.1
 48
0.1
140
3.2
141
0.0
142
0.0
143
0.0393701
144
2.0
145
0.0
146
0.71
147
1.5
 71
     0
 72
     0
 73
     0
 74
     0
 75
     1
 76
     1
 77
     3
 78
     8
170
     0
171
     2
172
     1
173
     1
174
     0
175
     0
176
   256
177
   256
178
     2
270
     2
271
     2
272
     2
273
     2
274
     2
340
6B
275
     0
280
     0
281
     0
282
     0
283
     0
284
     0
285
     0
286
     0
287
     3
288
     0
  0
DIMSTYLE
105
B34
330
A
100
AcDbSymbolTableRecord
100
AcDbDimStyleTableRecord
  2
AM_JIS$2
 70
     0
  3

  4
"
  5
OPEN30
  6

  7

 40
0.5
 41
2.5
 42
1.0
 43
12.0
 44
1.0
 45
0.0
 46
0.0
 47
0.1
 48
0.1
140
3.2
141
0.0
142
0.0
143
0.0393701
144
1.0
145
0.0
146
0.71
147
1.5
 71
     0
 72
     0
 73
     0
 74
     0
 75
     0
 76
     0
 77
     3
 78
     8
170
     0
171
     2
172
     1
173
     0
174
     0
175
     0
176
   256
177
   256
178
     2
270
     2
271
     3
272
     3
273
     2
274
     2
340
6B
275
     0
280
     0
281
     0
282
     0
283
     0
284
     0
285
     0
286
     0
287
     3
288
     0
  0
DIMSTYLE
105
3B48
102
{ACAD_REACTORS
330
728C
330
71FC
330
7337
330
73CC
330
748A
330
751A
102
}
330
A
100
AcDbSymbolTableRecord
100
AcDbDimStyleTableRecord
  2
AM_JIS$0
 70
     0
  3

  4
"
  5
OPEN30
  6

  7

 40
1.0
 41
2.5
 42
0.0
 43
10.0
 44
1.0
 45
0.0
 46
0.0
 47
0.1
 48
0.1000000001
140
3.799999999999999
141
0.0
142
0.0
143
0.0393701
144
1.0
145
0.0
146
0.71
147
1.5
 71
     0
 72
     0
 73
     0
 74
     0
 75
     0
 76
     0
 77
     3
 78
     1
170
     0
171
     2
172
     1
173
     0
174
     0
175
     0
176
     3
177
     3
178
     2
270
     2
271
     2
272
     2
273
     2
274
     2
340
11
275
     1
280
     0
281
     0
282
     0
283
     0
284
     8
285
     0
286
     0
287
     0
288
     0
  0
ENDTAB
  0
TABLE
  2
BLOCK_RECORD
  5
1
330
0
100
AcDbSymbolTable
 70
    13
  0
BLOCK_RECORD
  5
1F
102
{ACAD_XDICTIONARY
360
74
102
}
330
1
100
AcDbSymbolTableRecord
100
AcDbBlockTableRecord
  2
*MODEL_SPACE
  0
BLOCK_RECORD
  5
101
102
{ACAD_XDICTIONARY
360
7683
102
}
330
1
100
AcDbSymbolTableRecord
100
AcDbBlockTableRecord
  2
*PAPER_SPACE
  0
BLOCK_RECORD
  5
59
330
1
100
AcDbSymbolTableRecord
100
AcDbBlockTableRecord
  2
_OPEN30
  0
BLOCK_RECORD
  5
64
330
1
100
AcDbSymbolTableRecord
100
AcDbBlockTableRecord
  2
GENAXEH
  0
BLOCK_RECORD
  5
689C
330
1
100
AcDbSymbolTableRecord
100
AcDbBlockTableRecord
  2
*U5
  0
BLOCK_RECORD
  5
68A0
330
1
100
AcDbSymbolTableRecord
100
AcDbBlockTableRecord
  2
*U6
  0
BLOCK_RECORD
  5
71FD
330
1
100
AcDbSymbolTableRecord
100
AcDbBlockTableRecord
  2
*D7
  0
BLOCK_RECORD
  5
728D
330
1
100
AcDbSymbolTableRecord
100
AcDbBlockTableRecord
  2
*D8
  0
BLOCK_RECORD
  5
7338
330
1
100
AcDbSymbolTableRecord
100
AcDbBlockTableRecord
  2
*D9
  0
BLOCK_RECORD
  5
73CD
330
1
100
AcDbSymbolTableRecord
100
AcDbBlockTableRecord
  2
*D10
  0
BLOCK_RECORD
  5
748B
330
1
100
AcDbSymbolTableRecord
100
AcDbBlockTableRecord
  2
*D11
  0
BLOCK_RECORD
  5
751B
330
1
100
AcDbSymbolTableRecord
100
AcDbBlockTableRecord
  2
*D12
  0
ENDTAB
  0
ENDSEC
  0
SECTION
  2
BLOCKS
  0
BLOCK
  5
20
330
1F
100
AcDbEntity
  8
0
100
AcDbBlockBegin
  2
*MODEL_SPACE
 70
     0
 10
0.0
 20
0.0
 30
0.0
  3
*MODEL_SPACE
  1

  0
ENDBLK
  5
21
330
1F
100
AcDbEntity
  8
0
100
AcDbBlockEnd
  0
BLOCK
  5
103
330
101
100
AcDbEntity
 67
     1
  8
0
100
AcDbBlockBegin
  2
*PAPER_SPACE
 70
     0
 10
0.0
 20
0.0
 30
0.0
  3
*PAPER_SPACE
  1

  0
ENDBLK
  5
104
330
101
100
AcDbEntity
 67
     1
  8
0
100
AcDbBlockEnd
  0
BLOCK
  5
5D
330
59
100
AcDbEntity
  8
0
100
AcDbBlockBegin
  2
_OPEN30
 70
     0
 10
0.0
 20
0.0
 30
0.0
  3
_OPEN30
  1

  0
LINE
  5
5A
330
59
100
AcDbEntity
  8
0
 62
     0
100
AcDbLine
 10
-1.0
 20
0.26794919
 30
0.0
 11
0.0
 21
0.0
 31
0.0
  0
LINE
  5
5B
330
59
100
AcDbEntity
  8
0
 62
     0
100
AcDbLine
 10
0.0
 20
0.0
 30
0.0
 11
-1.0
 21
-0.26794919
 31
0.0
  0
LINE
  5
5C
330
59
100
AcDbEntity
  8
0
 62
     0
100
AcDbLine
 10
0.0
 20
0.0
 30
0.0
 11
-1.0
 21
0.0
 31
0.0
  0
ENDBLK
  5
5E
330
59
100
AcDbEntity
  8
0
100
AcDbBlockEnd
  0
BLOCK
  5
66
330
64
100
AcDbEntity
  8
0
100
AcDbBlockBegin
  2
GENAXEH
 70
     0
 10
0.0
 20
0.0
 30
0.0
  3
GENAXEH
  1

  0
LINE
  5
65
330
64
100
AcDbEntity
  8
0
100
AcDbLine
 10
-1.0
 20
0.0
 30
0.0
 11
1.0
 21
0.0
 31
0.0
  0
ENDBLK
  5
67
330
64
100
AcDbEntity
  8
0
100
AcDbBlockEnd
  0
BLOCK
  5
689E
330
689C
100
AcDbEntity
  8
0
100
AcDbBlockBegin
  2
*U5
 70
     1
 10
0.0
 20
0.0
 30
0.0
  3
*U5
  1

  0
LEADER
  5
689D
330
689C
100
AcDbEntity
  8
0
  6
CONTINUOUS
 48
0.5
100
AcDbLeader
  3
AM_JIS$7
 76
     2
 10
-35.56723785400299
 20
61.482246398925
 30
0.0
 10
-35.56723785400299
 20
51.482246398925
 30
0.0
1001
ACAD
1000
DSTYLE
1002
{
1070
     6
1000
OPEN30
1070
   173
1070
     1
1070
   176
1070
     0
1070
   341
1005
59
1002
}
  0
ENDBLK
  5
689F
330
689C
100
AcDbEntity
  8
0
100
AcDbBlockEnd
  0
BLOCK
  5
68A2
330
68A0
100
AcDbEntity
  8
0
100
AcDbBlockBegin
  2
*U6
 70
     1
 10
0.0
 20
0.0
 30
0.0
  3
*U6
  1

  0
LEADER
  5
68A1
330
68A0
100
AcDbEntity
  8
0
  6
CONTINUOUS
 48
0.5
100
AcDbLeader
  3
AM_JIS$7
 76
     2
 10
-25.567237854003
 20
51.482246398925
 30
0.0
 10
-35.56723785400299
 20
51.482246398925
 30
0.0
1001
ACAD
1000
DSTYLE
1002
{
1070
     6
1000
OPEN30
1070
   173
1070
     1
1070
   176
1070
     0
1070
   341
1005
59
1002
}
  0
ENDBLK
  5
68A3
330
68A0
100
AcDbEntity
  8
0
100
AcDbBlockEnd
  0
BLOCK
  5
7207
330
71FD
100
AcDbEntity
  8
0
100
AcDbBlockBegin
  2
*D7
 70
     1
 10
0.0
 20
0.0
 30
0.0
  3
*D7
  1

  0
LINE
  5
7685
330
71FD
100
AcDbEntity
  8
AM_5
100
AcDbLine
 10
-120.5003554456383
 20
35.82076226685589
 30
0.0
 11
-133.6271378827974
 21
35.82076226685586
 31
0.0
  0
LINE
  5
7686
330
71FD
100
AcDbEntity
  8
AM_5
100
AcDbLine
 10
-120.5003554456381
 20
23.95576249573687
 30
0.0
 11
-133.6271378827974
 21
23.95576249573685
 31
0.0
  0
LINE
  5
7687
330
71FD
100
AcDbEntity
  8
AM_5
100
AcDbLine
 10
-133.1271378827974
 20
34.57076226685587
 30
0.0
 11
-133.1271378827974
 21
25.20576249573685
 31
0.0
  0
INSERT
  5
7688
330
71FD
100
AcDbEntity
  8
AM_5
100
AcDbBlockReference
  2
_OPEN30
 10
-133.1271378827974
 20
35.82076226685587
 30
0.0
 41
1.25
 42
1.25
 43
1.25
 50
90.0000000000001
  0
INSERT
  5
7689
330
71FD
100
AcDbEntity
  8
AM_5
100
AcDbBlockReference
  2
_OPEN30
 10
-133.1271378827974
 20
23.95576249573685
 30
0.0
 41
1.25
 42
1.25
 43
1.25
 50
270.0000000000001
  0
MTEXT
  5
768A
330
71FD
100
AcDbEntity
  8
AM_5
 62
     2
100
AcDbMText
 10
-134.6771378827974
 20
29.88826238129636
 30
0.0
 40
1.6
 41
0.0
 71
     5
 72
     1
  1
12
  7
ASAMI
 11
-0.000000000000002
 21
1.0
 31
0.0
  0
POINT
  5
768B
330
71FD
100
AcDbEntity
  8
DEFPOINTS
 62
     0
100
AcDbPoint
 10
-120.0003554456382
 20
35.82076226685616
 30
0.0
  0
POINT
  5
768C
330
71FD
100
AcDbEntity
  8
DEFPOINTS
 62
     0
100
AcDbPoint
 10
-120.0003554456381
 20
23.95576249573714
 30
0.0
  0
POINT
  5
768D
330
71FD
100
AcDbEntity
  8
DEFPOINTS
 62
     0
100
AcDbPoint
 10
-133.1271378827973
 20
23.95576249573714
 30
0.0
  0
ENDBLK
  5
7208
330
71FD
100
AcDbEntity
  8
0
100
AcDbBlockEnd
  0
BLOCK
  5
7297
330
728D
100
AcDbEntity
  8
0
100
AcDbBlockBegin
  2
*D8
 70
     1
 10
0.0
 20
0.0
 30
0.0
  3
*D8
  1

  0
LINE
  5
768E
330
728D
100
AcDbEntity
  8
AM_5
100
AcDbLine
 10
-120.500355445638
 20
2.364935531036098
 30
0.0
 11
-133.6271378827975
 21
2.364935531036073
 31
0.0
  0
LINE
  5
768F
330
728D
100
AcDbEntity
  8
AM_5
100
AcDbLine
 10
-120.500355445638
 20
-9.500069962127879
 30
0.0
 11
-133.6271378827975
 21
-9.500069962127904
 31
0.0
  0
LINE
  5
7690
330
728D
100
AcDbEntity
  8
AM_5
100
AcDbLine
 10
-133.1271378827975
 20
1.114935531036074
 30
0.0
 11
-133.1271378827975
 21
-8.250069962127904
 31
0.0
  0
INSERT
  5
7691
330
728D
100
AcDbEntity
  8
AM_5
100
AcDbBlockReference
  2
_OPEN30
 10
-133.1271378827975
 20
2.364935531036074
 30
0.0
 41
1.25
 42
1.25
 43
1.25
 50
90.0000000000001
  0
INSERT
  5
7692
330
728D
100
AcDbEntity
  8
AM_5
100
AcDbBlockReference
  2
_OPEN30
 10
-133.1271378827975
 20
-9.500069962127904
 30
0.0
 41
1.25
 42
1.25
 43
1.25
 50
270.0000000000001
  0
MTEXT
  5
7693
330
728D
100
AcDbEntity
  8
AM_5
 62
     2
100
AcDbMText
 10
-134.6771378827975
 20
-3.567567215545912
 30
0.0
 40
1.6
 41
0.0
 71
     5
 72
     1
  1
12
  7
ASAMI
 11
-0.000000000000002
 21
1.0
 31
0.0
  0
POINT
  5
7694
330
728D
100
AcDbEntity
  8
DEFPOINTS
 62
     0
100
AcDbPoint
 10
-120.000355445638
 20
2.364935531036366
 30
0.0
  0
POINT
  5
7695
330
728D
100
AcDbEntity
  8
DEFPOINTS
 62
     0
100
AcDbPoint
 10
-120.000355445638
 20
-9.500069962127611
 30
0.0
  0
POINT
  5
7696
330
728D
100
AcDbEntity
  8
DEFPOINTS
 62
     0
100
AcDbPoint
 10
-133.1271378827975
 20
-9.500069962127607
 30
0.0
  0
ENDBLK
  5
7298
330
728D
100
AcDbEntity
  8
0
100
AcDbBlockEnd
  0
BLOCK
  5
7342
330
7338
100
AcDbEntity
  8
0
100
AcDbBlockBegin
  2
*D9
 70
     1
 10
0.0
 20
0.0
 30
0.0
  3
*D9
  1

  0
LINE
  5
7697
330
7338
100
AcDbEntity
  8
AM_5
100
AcDbLine
 10
-120.000355445638
 20
2.864935531036123
 30
0.0
 11
-120.000355445638
 21
16.75589062661198
 31
0.0
  0
LINE
  5
7698
330
7338
100
AcDbEntity
  8
AM_5
100
AcDbLine
 10
-0.0003932112930195
 20
0.5000190640238174
 30
0.0
 11
-0.0003932112930225
 21
16.75589062661201
 31
0.0
  0
LINE
  5
7699
330
7338
100
AcDbEntity
  8
AM_5
100
AcDbLine
 10
-118.750355445638
 20
16.25589062661198
 30
0.0
 11
-1.250393211293022
 21
16.25589062661201
 31
0.0
  0
INSERT
  5
769A
330
7338
100
AcDbEntity
  8
AM_5
100
AcDbBlockReference
  2
_OPEN30
 10
-120.000355445638
 20
16.25589062661198
 30
0.0
 41
1.25
 42
1.25
 43
1.25
 50
180.0
  0
INSERT
  5
769B
330
7338
100
AcDbEntity
  8
AM_5
100
AcDbBlockReference
  2
_OPEN30
 10
-0.0003932112930224
 20
16.25589062661201
 30
0.0
 41
1.25
 42
1.25
 43
1.25
  0
MTEXT
  5
769C
330
7338
100
AcDbEntity
  8
AM_5
 62
     2
100
AcDbMText
 10
-60.00037432846554
 20
17.805890626612
 30
0.0
 40
1.6
 41
0.0
 71
     5
 72
     1
  1
120
  7
ASAMI
  0
POINT
  5
769D
330
7338
100
AcDbEntity
  8
DEFPOINTS
 62
     0
100
AcDbPoint
 10
-120.000355445638
 20
2.364935531036366
 30
0.0
  0
POINT
  5
769E
330
7338
100
AcDbEntity
  8
DEFPOINTS
 62
     0
100
AcDbPoint
 10
-0.0003932112930194
 20
0.0000190640238174
 30
0.0
  0
POINT
  5
769F
330
7338
100
AcDbEntity
  8
DEFPOINTS
 62
     0
100
AcDbPoint
 10
-0.0003932112929895
 20
16.25589062661201
 30
0.0
  0
ENDBLK
  5
7343
330
7338
100
AcDbEntity
  8
0
100
AcDbBlockEnd
  0
BLOCK
  5
73D9
330
73CD
100
AcDbEntity
  8
0
100
AcDbBlockBegin
  2
*D10
 70
     1
 10
0.0
 20
0.0
 30
0.0
  3
*D10
  1

  0
LINE
  5
76A0
330
73CD
100
AcDbEntity
  8
AM_5
100
AcDbLine
 10
-0.0002792410949405
 20
0.4996594633722822
 30
0.0
 11
-0.0002792410949422
 21
10.00122703494294
 31
0.0
  0
LINE
  5
76A1
330
73CD
100
AcDbEntity
  8
AM_5
100
AcDbLine
 10
-3.605950080648073
 20
3.001227034942949
 30
0.0
 11
-3.605950080648075
 21
10.00122703494294
 31
0.0
  0
LINE
  5
76A2
330
73CD
100
AcDbEntity
  8
AM_5
100
AcDbLine
 10
1.249720758905058
 20
9.501227034942949
 30
0.0
 11
2.499720758905057
 21
9.501227034942949
 31
0.0
  0
LINE
  5
76A3
330
73CD
100
AcDbEntity
  8
AM_5
100
AcDbLine
 10
-4.855950080648075
 20
9.501227034942948
 30
0.0
 11
-10.95833103302902
 21
9.501227034942946
 31
0.0
  0
LINE
  5
76A4
330
73CD
100
AcDbEntity
  8
AM_5
100
AcDbLine
 10
-0.0002792410949421
 20
9.501227034942949
 30
0.0
 11
-3.605950080648074
 21
9.501227034942949
 31
0.0
  0
INSERT
  5
76A5
330
73CD
100
AcDbEntity
  8
AM_5
100
AcDbBlockReference
  2
_OPEN30
 10
-0.0002792410949421
 20
9.501227034942949
 30
0.0
 41
1.25
 42
1.25
 43
1.25
 50
180.0
  0
INSERT
  5
76A6
330
73CD
100
AcDbEntity
  8
AM_5
100
AcDbBlockReference
  2
_OPEN30
 10
-3.605950080648074
 20
9.501227034942949
 30
0.0
 41
1.25
 42
1.25
 43
1.25
  0
MTEXT
  5
76A7
330
73CD
100
AcDbEntity
  8
AM_5
 62
     2
100
AcDbMText
 10
-8.532140556838552
 20
11.05122703494294
 30
0.0
 40
1.6
 41
0.0
 71
     5
 72
     1
  1
3.5
  7
ASAMI
  0
POINT
  5
76A8
330
73CD
100
AcDbEntity
  8
DEFPOINTS
 62
     0
100
AcDbPoint
 10
-0.0002792410949404
 20
-0.0003405366277178
 30
0.0
  0
POINT
  5
76A9
330
73CD
100
AcDbEntity
  8
DEFPOINTS
 62
     0
100
AcDbPoint
 10
-3.605950080648068
 20
2.501227034942957
 30
0.0
  0
POINT
  5
76AA
330
73CD
100
AcDbEntity
  8
DEFPOINTS
 62
     0
100
AcDbPoint
 10
-3.605950080648055
 20
9.501227034942957
 30
0.0
  0
ENDBLK
  5
73DA
330
73CD
100
AcDbEntity
  8
0
100
AcDbBlockEnd
  0
BLOCK
  5
7495
330
748B
100
AcDbEntity
  8
0
100
AcDbBlockBegin
  2
*D11
 70
     1
 10
0.0
 20
0.0
 30
0.0
  3
*D11
  1

  0
LINE
  5
76AB
330
748B
100
AcDbEntity
  8
AM_5
100
AcDbLine
 10
-0.5407569043783035
 20
35.82076226685673
 30
0.0
 11
12.16184257489315
 21
35.82076226685675
 31
0.0
  0
LINE
  5
76AC
330
748B
100
AcDbEntity
  8
AM_5
100
AcDbLine
 10
0.4996292955727815
 20
23.79844819520074
 30
0.0
 11
12.16184257489318
 21
23.79844819520077
 31
0.0
  0
LINE
  5
76AD
330
748B
100
AcDbEntity
  8
AM_5
100
AcDbLine
 10
11.66184257489315
 20
34.57076226685675
 30
0.0
 11
11.66184257489317
 21
25.04844819520077
 31
0.0
  0
INSERT
  5
76AE
330
748B
100
AcDbEntity
  8
AM_5
100
AcDbBlockReference
  2
_OPEN30
 10
11.66184257489315
 20
35.82076226685675
 30
0.0
 41
1.25
 42
1.25
 43
1.25
 50
90.0000000000001
  0
INSERT
  5
76AF
330
748B
100
AcDbEntity
  8
AM_5
100
AcDbBlockReference
  2
_OPEN30
 10
11.66184257489317
 20
23.79844819520077
 30
0.0
 41
1.25
 42
1.25
 43
1.25
 50
270.0000000000001
  0
MTEXT
  5
76B0
330
748B
100
AcDbEntity
  8
AM_5
 62
     2
100
AcDbMText
 10
10.11184257489316
 20
29.80960523102876
 30
0.0
 40
1.6
 41
0.0
 71
     5
 72
     1
  1
12
  7
ASAMI
 11
-0.000000000000002
 21
1.0
 31
0.0
  0
POINT
  5
76B1
330
748B
100
AcDbEntity
  8
DEFPOINTS
 62
     0
100
AcDbPoint
 10
-1.040756904378223
 20
35.82076226685673
 30
0.0
  0
POINT
  5
76B2
330
748B
100
AcDbEntity
  8
DEFPOINTS
 62
     0
100
AcDbPoint
 10
-0.0003707044271657
 20
23.79844819520074
 30
0.0
  0
POINT
  5
76B3
330
748B
100
AcDbEntity
  8
DEFPOINTS
 62
     0
100
AcDbPoint
 10
11.66184257489323
 20
23.79844819520074
 30
0.0
  0
ENDBLK
  5
7496
330
748B
100
AcDbEntity
  8
0
100
AcDbBlockEnd
  0
BLOCK
  5
7525
330
751B
100
AcDbEntity
  8
0
100
AcDbBlockBegin
  2
*D12
 70
     1
 10
0.0
 20
0.0
 30
0.0
  3
*D12
  1

  0
LINE
  5
76B4
330
751B
100
AcDbEntity
  8
AM_5
100
AcDbLine
 10
0.4997207589050597
 20
-0.0003405366277169
 30
0.0
 11
7.499720758905066
 21
-0.0003405366277033
 31
0.0
  0
LINE
  5
76B5
330
751B
100
AcDbEntity
  8
AM_5
100
AcDbLine
 10
-5.500729285969986
 20
-9.500069962127041
 30
0.0
 11
7.499720758905085
 21
-9.500069962127016
 31
0.0
  0
LINE
  5
76B6
330
751B
100
AcDbEntity
  8
AM_5
100
AcDbLine
 10
6.999720758905069
 20
-1.250340536627704
 30
0.0
 11
6.999720758905083
 21
-8.250069962127016
 31
0.0
  0
INSERT
  5
76B7
330
751B
100
AcDbEntity
  8
AM_5
100
AcDbBlockReference
  2
_OPEN30
 10
6.999720758905066
 20
-0.0003405366277043
 30
0.0
 41
1.25
 42
1.25
 43
1.25
 50
90.0000000000001
  0
INSERT
  5
76B8
330
751B
100
AcDbEntity
  8
AM_5
100
AcDbBlockReference
  2
_OPEN30
 10
6.999720758905085
 20
-9.500069962127016
 30
0.0
 41
1.25
 42
1.25
 43
1.25
 50
270.0000000000001
  0
MTEXT
  5
76B9
330
751B
100
AcDbEntity
  8
AM_5
 62
     2
100
AcDbMText
 10
5.449720758905075
 20
-4.750205249377363
 30
0.0
 40
1.6
 41
0.0
 71
     5
 72
     1
  1
9.5
  7
ASAMI
 11
-0.000000000000002
 21
1.0
 31
0.0
  0
POINT
  5
76BA
330
751B
100
AcDbEntity
  8
DEFPOINTS
 62
     0
100
AcDbPoint
 10
-0.0002792410949404
 20
-0.0003405366277178
 30
0.0
  0
POINT
  5
76BB
330
751B
100
AcDbEntity
  8
DEFPOINTS
 62
     0
100
AcDbPoint
 10
-6.000729285970006
 20
-9.500069962127028
 30
0.0
  0
POINT
  5
76BC
330
751B
100
AcDbEntity
  8
DEFPOINTS
 62
     0
100
AcDbPoint
 10
6.999720758905064
 20
-9.500069962127032
 30
0.0
  0
ENDBLK
  5
7526
330
751B
100
AcDbEntity
  8
0
100
AcDbBlockEnd
  0
ENDSEC
  0
SECTION
  2
ENTITIES
  0
TEXT
  5
388D
330
1F
100
AcDbEntity
  8
AM_6
100
AcDbText
 10
-75.40306004801149
 20
-30.71459293499095
 30
0.0
 40
2.5
  1
SBT35 R1212
 50
359.9999999999998
 51
359.9999999999998
 72
     4
 11
-63.58163147658292
 21
-29.46459293499097
 31
0.0
100
AcDbText
  0
MTEXT
  5
68AC
330
1F
100
AcDbEntity
  8
AM_6
100
AcDbMText
 10
27.24831387816908
 20
2.734751514691241
 30
0.0
 40
2.5
 41
0.0
 71
     4
 72
     5
  1
\T1.40;\W0.59;０°
1001
ACAD
1000
MTEXTBEGIN
1070
    73
1070
     1
1070
    44
1040
1.0
1070
    74
1070
     0
1000
MTEXTEND
  0
INSERT
  5
68AD
330
1F
100
AcDbEntity
  8
AM_5
100
AcDbBlockReference
  2
*U6
 10
-7.78038779724353
 20
67.5703234479937
 30
0.0
 50
180.0000000000002
  0
INSERT
  5
68AE
330
1F
100
AcDbEntity
  8
AM_5
100
AcDbBlockReference
  2
*U5
 10
-7.78038779724353
 20
67.5703234479937
 30
0.0
 50
180.0000000000002
  0
MTEXT
  5
68AF
330
1F
100
AcDbEntity
  8
AM_6
100
AcDbMText
 10
13.74021286960211
 20
16.06896330192397
 30
0.0
 40
2.5
 41
0.0
 71
     4
 72
     5
  1
\T1.40;\W0.59;０°
1001
ACAD
1000
MTEXTBEGIN
1070
    73
1070
     1
1070
    44
1040
1.0
1070
    74
1070
     0
1000
MTEXTEND
  0
LINE
  5
70CF
330
1F
100
AcDbEntity
  8
AM_0
  6
CONTINUOUS
100
AcDbLine
 10
-120.0003554456381
 20
23.95576249573714
 30
0.0
 11
-10.35215064217116
 21
23.95576249573765
 31
0.0
  0
LINE
  5
70D0
330
1F
100
AcDbEntity
  8
AM_0
  6
CONTINUOUS
100
AcDbLine
 10
-120.0003554456382
 20
35.82076226685616
 30
0.0
 11
-1.040756904378223
 21
35.82076226685673
 31
0.0
  0
LINE
  5
70D1
330
1F
100
AcDbEntity
  8
AM_0
  6
CONTINUOUS
100
AcDbLine
 10
-120.000355445638
 20
2.36493553103638
 30
0.0
 11
-10.19235678841205
 21
2.364935531036934
 31
0.0
  0
LINE
  5
70D2
330
1F
100
AcDbEntity
  8
AM_0
  6
CONTINUOUS
100
AcDbLine
 10
-120.000355445638
 20
-9.500069962127597
 30
0.0
 11
-6.000729285970006
 21
-9.500069962127028
 31
0.0
  0
SPLINE
  5
70D5
330
1F
100
AcDbEntity
  8
AM_0
  6
CONTINUOUS
100
AcDbSpline
210
0.0
220
0.0
230
1.0
 70
     8
 71
     3
 72
    11
 73
     7
 74
     5
 42
0.0000000001
 43
0.0000000001
 44
0.0000000001
 40
0.0
 40
0.0
 40
0.0
 40
0.0
 40
0.3053495458862813
 40
0.6090677011162427
 40
0.9122014610445116
 40
1.215926359892112
 40
1.215926359892112
 40
1.215926359892112
 40
1.215926359892112
 10
-14.19675513435916
 20
23.77075730774963
 30
0.0
 10
-14.09495274618303
 20
23.76889870034781
 30
0.0
 10
-13.89189186932924
 20
23.76519141552374
 30
0.0
 10
-13.58900972804562
 20
23.73567281456177
 30
0.0
 10
-13.28867061419278
 20
23.69007686349632
 30
0.0
 10
-13.09165437592633
 20
23.64388289447102
 30
0.0
 10
-12.99305030037517
 20
23.62076341126568
 30
0.0
 11
-14.19675513435916
 21
23.77075730774963
 31
0.0
 11
-13.89155646492516
 21
23.76115952942966
 31
0.0
 11
-13.58915015389017
 21
23.73296128724164
 31
0.0
 11
-13.28965064217116
 21
23.68616258118767
 31
0.0
 11
-12.99305030037517
 21
23.62076341126568
 31
0.0
  0
ELLIPSE
  5
70D6
330
1F
100
AcDbEntity
  8
AM_0
  6
CONTINUOUS
100
AcDbEllipse
 10
-15.78295966316714
 20
23.24925767396063
 30
0.0
 11
-1.896492049586
 21
-0.1337280274840098
 31
0.0
210
0.0
220
0.0
230
1.0
 40
0.2889730838709999
 41
4.082271919852237
 42
4.242542844803482
  0
ELLIPSE
  5
70D7
330
1F
100
AcDbEntity
  8
AM_0
  6
CONTINUOUS
100
AcDbEllipse
 10
0.8238442308748439
 20
23.24926530335572
 30
0.0
 11
1.896492000735002
 21
-0.1337202461009901
 31
0.0
210
0.0
220
0.0
230
1.0
 40
0.2889688793720999
 41
2.040892139963529
 42
2.201592711410446
  0
ELLIPSE
  5
70D8
330
1F
100
AcDbEntity
  8
AM_0
  6
CONTINUOUS
100
AcDbEllipse
 10
0.0028450853678415
 20
23.29505692933172
 30
0.0
 11
0.0934066661119984
 21
-0.5547866911840021
 31
0.0
210
0.0
220
0.0
230
1.0
 40
0.3048412151278
 41
2.650500175188083
 42
3.072993516544243
  0
ELLIPSE
  5
70D9
330
1F
100
AcDbEntity
  8
AM_0
  6
CONTINUOUS
100
AcDbEllipse
 10
0.0028450853678415
 20
23.29505692933172
 30
0.0
 11
0.0934066661119984
 21
-0.5547866911840021
 31
0.0
210
0.0
220
0.0
230
1.0
 40
0.3048412151278
 41
3.072993516544243
 42
3.316136242903666
  0
ELLIPSE
  5
70DA
330
1F
100
AcDbEntity
  8
AM_0
  6
CONTINUOUS
100
AcDbEllipse
 10
-6.246353828207158
 20
23.64356004212468
 30
0.0
 11
1.607803346695995
 21
-0.089630033892994
 31
0.0
210
0.0
220
0.0
230
1.0
 40
0.3415521847403
 41
1.328242974362026
 42
1.570794224482556
  0
ELLIPSE
  5
70DB
330
1F
100
AcDbEntity
  8
AM_0
  6
CONTINUOUS
100
AcDbEllipse
 10
-6.246353828207158
 20
23.64356004212468
 30
0.0
 11
1.607803346695995
 21
-0.089630033892994
 31
0.0
210
0.0
220
0.0
230
1.0
 40
0.3415521847403
 41
1.570794224482556
 42
2.89960991404758
  0
SPLINE
  5
70DC
330
1F
100
AcDbEntity
  8
AM_0
  6
CONTINUOUS
100
AcDbSpline
210
0.0
220
0.0
230
1.0
 70
     8
 71
     3
 72
    11
 73
     7
 74
     5
 42
0.0000000001
 43
0.0000000001
 44
0.0000000001
 40
0.0
 40
0.0
 40
0.0
 40
0.0
 40
0.3053571715106181
 40
0.6090677302999096
 40
0.9122014902281689
 40
1.215926389076755
 40
1.215926389076755
 40
1.215926389076755
 40
1.215926389076755
 10
-0.762352668539176
 20
23.77075730774974
 30
0.0
 10
-0.8641576117147504
 20
23.76889886954858
 30
0.0
 10
-1.067218523520132
 20
23.76519201461708
 30
0.0
 10
-1.3701005621101
 20
23.7356722281016
 30
0.0
 10
-1.670437193287981
 20
23.69007691509215
 30
0.0
 10
-1.867453428500365
 20
23.64388291168084
 30
0.0
 10
-1.966057502523167
 20
23.62076341126571
 30
0.0
 11
-0.762352668539176
 21
23.77075730774974
 31
0.0
 11
-1.067558967367173
 21
23.76115952942972
 31
0.0
 11
-1.369957649007172
 21
23.7329612872417
 31
0.0
 11
-1.669457160726164
 21
23.6861625811877
 31
0.0
 11
-1.966057502523167
 21
23.62076341126571
 31
0.0
  0
LINE
  5
70DE
330
1F
100
AcDbEntity
  8
AM_0
  6
CONTINUOUS
100
AcDbLine
 10
-12.16256018807017
 20
23.62076341126568
 30
0.0
 11
-11.41735144783517
 21
23.62076341126568
 31
0.0
  0
LINE
  5
70DF
330
1F
100
AcDbEntity
  8
AM_0
  6
CONTINUOUS
100
AcDbLine
 10
-0.5476691358241901
 20
27.62073480103573
 30
0.0
 11
-0.0003707044271657
 21
23.79844819520074
 31
0.0
  0
LINE
  5
70E0
330
1F
100
AcDbEntity
  8
AM_0
  6
CONTINUOUS
100
AcDbLine
 10
-0.1375472180991686
 20
23.82077371094773
 30
0.0
 11
-0.5627448194171869
 21
27.62075387452272
 31
0.0
  0
LINE
  5
70E1
330
1F
100
AcDbEntity
  8
AM_0
  6
CONTINUOUS
100
AcDbLine
 10
-3.605969154134168
 20
23.84147607300873
 30
0.0
 11
-4.35837241341218
 21
27.42078172181273
 31
0.0
  0
LINE
  5
70E2
330
1F
100
AcDbEntity
  8
AM_0
  6
CONTINUOUS
100
AcDbLine
 10
-10.05605384041416
 20
23.62076341126568
 30
0.0
 11
-10.05605384041417
 21
27.27075730774966
 31
0.0
  0
LINE
  5
70E3
330
1F
100
AcDbEntity
  8
AM_0
  6
CONTINUOUS
100
AcDbLine
 10
-10.35215064217119
 20
27.62074815247668
 30
0.0
 11
-10.35215064217116
 21
23.95576249573765
 31
0.0
  0
LINE
  5
70E4
330
1F
100
AcDbEntity
  8
AM_0
  6
CONTINUOUS
100
AcDbLine
 10
-4.407555305257186
 20
27.62074815247673
 30
0.0
 11
-0.5627524488121872
 21
27.62074815247673
 31
0.0
  0
LINE
  5
70E5
330
1F
100
AcDbEntity
  8
AM_0
  6
CONTINUOUS
100
AcDbLine
 10
-1.040756904378223
 20
35.82076226685673
 30
0.0
 11
-1.040756904378195
 21
27.62074815247673
 31
0.0
  0
LINE
  5
70E6
330
1F
100
AcDbEntity
  8
AM_0
  6
CONTINUOUS
100
AcDbLine
 10
-0.5627524488121872
 20
27.62074815247673
 30
0.0
 11
-0.5476538770351987
 21
27.62074815247673
 31
0.0
  0
LINE
  5
70E7
330
1F
100
AcDbEntity
  8
AM_0
  6
CONTINUOUS
100
AcDbLine
 10
-4.407555305257229
 20
35.82076226685673
 30
0.0
 11
-4.407555305257186
 21
27.62074815247673
 31
0.0
  0
LINE
  5
70E8
330
1F
100
AcDbEntity
  8
AM_0
  6
CONTINUOUS
100
AcDbLine
 10
-4.358360969320184
 20
27.42076646302372
 30
0.0
 11
-9.843956672445184
 21
27.42076646302367
 31
0.0
  0
LINE
  5
70E9
330
1F
100
AcDbEntity
  8
AM_0
  6
CONTINUOUS
100
AcDbLine
 10
-4.407555305257186
 20
27.62074815247673
 30
0.0
 11
-10.35215064217119
 21
27.62074815247668
 31
0.0
  0
LINE
  5
70EA
330
1F
100
AcDbEntity
  8
AM_0
  6
CONTINUOUS
100
AcDbLine
 10
-4.054051124349182
 20
27.62077485535671
 30
0.0
 11
-4.358360969320184
 21
27.4207702777207
 31
0.0
  0
LINE
  5
70EB
330
1F
100
AcDbEntity
  8
AM_0
  6
CONTINUOUS
100
AcDbLine
 10
-10.06614752937819
 20
27.62077485535668
 30
0.0
 11
-10.35214301277717
 21
27.31327783082067
 31
0.0
  0
LINE
  5
70EC
330
1F
100
AcDbEntity
  8
AM_0
  6
CONTINUOUS
100
AcDbLine
 10
-10.05605384041417
 20
27.27075730774966
 30
0.0
 11
-10.35215064217117
 21
27.27075730774966
 31
0.0
  0
LINE
  5
70ED
330
1F
100
AcDbEntity
  8
AM_0
  6
CONTINUOUS
100
AcDbLine
 10
-9.76104804207419
 20
27.62073480103568
 30
0.0
 11
-9.843952857748174
 21
27.42073022339868
 31
0.0
  0
LINE
  5
70EE
330
1F
100
AcDbEntity
  8
AM_0
  6
CONTINUOUS
100
AcDbLine
 10
-9.843956672445184
 20
27.42078935120669
 30
0.0
 11
-10.05605384041417
 21
27.27078782532767
 31
0.0
  0
LINE
  5
70EF
330
1F
100
AcDbEntity
  8
AM_0
  6
CONTINUOUS
100
AcDbLine
 10
-3.462555610433167
 20
23.62076341126571
 30
0.0
 11
-1.966057502523167
 21
23.62076341126571
 31
0.0
  0
LINE
  5
70F0
330
1F
100
AcDbEntity
  8
AM_0
  6
CONTINUOUS
100
AcDbLine
 10
-0.1375662915851699
 20
23.82074700806673
 30
0.0
 11
-3.605965339437172
 21
23.84144746277873
 31
0.0
  0
LINE
  5
70F1
330
1F
100
AcDbEntity
  8
AM_0
  6
CONTINUOUS
100
AcDbLine
 10
-0.762352668539176
 20
23.77075730774974
 30
0.0
 11
-0.2629553907071731
 21
23.77075730774974
 31
0.0
  0
LINE
  5
70F2
330
1F
100
AcDbEntity
  8
AM_0
  6
CONTINUOUS
100
AcDbLine
 10
-0.1183516614581741
 20
23.83655892823274
 30
0.0
 11
-0.1375510327961642
 21
23.82076035950773
 31
0.0
  0
LINE
  5
70F3
330
1F
100
AcDbEntity
  8
AM_0
  6
CONTINUOUS
100
AcDbLine
 10
-7.996453010335169
 20
23.62076341126571
 30
0.0
 11
-3.462555610433167
 21
23.62076341126571
 31
0.0
  0
LINE
  5
70F4
330
1F
100
AcDbEntity
  8
AM_0
  6
CONTINUOUS
100
AcDbLine
 10
-3.462555610433167
 20
23.62076722596272
 30
0.0
 11
-7.799656593099168
 21
23.86266862366771
 31
0.0
  0
LINE
  5
70F5
330
1F
100
AcDbEntity
  8
AM_0
  6
CONTINUOUS
100
AcDbLine
 10
-3.605957710042158
 20
23.84146653626571
 30
0.0
 11
-5.830158912435162
 21
24.1550651690777
 31
0.0
  0
LINE
  5
70F6
330
1F
100
AcDbEntity
  8
AM_0
  6
CONTINUOUS
100
AcDbLine
 10
-11.10625525642916
 20
23.62076341126568
 30
0.0
 11
-11.41735144783517
 21
23.62076341126568
 31
0.0
  0
LINE
  5
70F7
330
1F
100
AcDbEntity
  8
AM_0
  6
CONTINUOUS
100
AcDbLine
 10
-11.41735144783517
 20
23.95576249573765
 30
0.0
 11
-11.41735144783517
 21
23.62076341126568
 31
0.0
  0
LINE
  5
70F8
330
1F
100
AcDbEntity
  8
AM_0
  6
CONTINUOUS
100
AcDbLine
 10
-11.10625525642916
 20
23.62076341126568
 30
0.0
 11
-10.39165564705416
 21
23.62076341126568
 31
0.0
  0
LINE
  5
70F9
330
1F
100
AcDbEntity
  8
AM_0
  6
CONTINUOUS
100
AcDbLine
 10
-11.10625525642916
 20
23.95576249573765
 30
0.0
 11
-11.10625525642916
 21
23.62076341126568
 31
0.0
  0
LINE
  5
70FA
330
1F
100
AcDbEntity
  8
AM_0
  6
CONTINUOUS
100
AcDbLine
 10
-10.05605384041416
 20
23.62076341126568
 30
0.0
 11
-10.39165564705416
 21
23.62076341126568
 31
0.0
  0
LINE
  5
70FB
330
1F
100
AcDbEntity
  8
AM_0
  6
CONTINUOUS
100
AcDbLine
 10
-10.39165564705416
 20
23.95576249573765
 30
0.0
 11
-10.39165564705416
 21
23.62076341126568
 31
0.0
  0
LINE
  5
70FC
330
1F
100
AcDbEntity
  8
AM_0
  6
CONTINUOUS
100
AcDbLine
 10
-7.996453010335169
 20
23.62076341126571
 30
0.0
 11
-10.05605384041416
 21
23.62076341126568
 31
0.0
  0
LINE
  5
70FD
330
1F
100
AcDbEntity
  8
AM_0
  6
CONTINUOUS
100
AcDbLine
 10
-7.99646063973017
 20
23.62074052308169
 30
0.0
 11
-7.799652778402158
 21
23.86265527222768
 31
0.0
  0
ARC
  5
70FE
330
1F
100
AcDbEntity
  8
AM_0
  6
CONTINUOUS
100
AcDbCircle
 10
-14.17705603767913
 20
18.77075730774963
 30
0.0
 40
4.9963688850403
100
AcDbArc
 50
76.09725672298619
 51
90.15698939359259
  0
LINE
  5
70FF
330
1F
100
AcDbEntity
  8
AM_0
  6
CONTINUOUS
100
AcDbLine
 10
-12.97655554939816
 20
23.62076341126568
 30
0.0
 11
-12.99305030037517
 21
23.62076341126568
 31
0.0
  0
LINE
  5
7100
330
1F
100
AcDbEntity
  8
AM_0
  6
CONTINUOUS
100
AcDbLine
 10
-14.19075843025717
 20
23.77075730774963
 30
0.0
 11
-14.69616004158517
 21
23.77075730774963
 31
0.0
  0
LINE
  5
7101
330
1F
100
AcDbEntity
  8
AM_0
  6
CONTINUOUS
100
AcDbLine
 10
-12.33215399910517
 20
23.62076341126568
 30
0.0
 11
-12.97655554939816
 21
23.62076341126568
 31
0.0
  0
LINE
  5
7102
330
1F
100
AcDbEntity
  8
AM_0
  6
CONTINUOUS
100
AcDbLine
 10
-14.93612357308017
 20
23.95575677369167
 30
0.0
 11
-14.95871802498416
 21
23.79844628785265
 31
0.0
  0
LINE
  5
7103
330
1F
100
AcDbEntity
  8
AM_0
  6
CONTINUOUS
100
AcDbLine
 10
-12.16256018807017
 20
23.95576249573765
 30
0.0
 11
-12.16256018807017
 21
23.62076341126568
 31
0.0
  0
LINE
  5
7104
330
1F
100
AcDbEntity
  8
AM_0
  6
CONTINUOUS
100
AcDbLine
 10
-12.31359168221016
 20
23.95576058838968
 30
0.0
 11
-12.33218070198617
 21
23.62071191285265
 31
0.0
  0
LINE
  5
7105
330
1F
100
AcDbEntity
  8
AM_0
  6
CONTINUOUS
100
AcDbLine
 10
-12.33215399910517
 20
23.62076341126568
 30
0.0
 11
-12.16256018807017
 21
23.62076341126568
 31
0.0
  0
ELLIPSE
  5
7106
330
1F
100
AcDbEntity
  8
AM_0
  6
CONTINUOUS
100
AcDbEllipse
 10
0.8238442308749576
 20
-0.0720685583190175
 30
0.0
 11
1.896942159307002
 21
-0.1059496008169893
 31
0.0
210
0.0
220
0.0
230
0.9999999999999998
 40
0.0152069285625
 41
2.020907836866782
 42
2.191843440494027
  0
ELLIPSE
  5
7107
330
1F
100
AcDbEntity
  8
AM_0
  6
CONTINUOUS
100
AcDbEllipse
 10
0.0028450853679551
 20
0.2267290491029854
 30
0.0
 11
0.1817779442370014
 21
-0.6499557820419986
 31
0.0
210
0.0
220
0.0
230
1.0
 40
0.1004551620655
 41
4.379476657949071
 42
5.041043942650423
  0
ELLIPSE
  5
7108
330
1F
100
AcDbEntity
  8
AM_0
  6
CONTINUOUS
100
AcDbEllipse
 10
-15.78295203377304
 20
-1.725365982635111
 30
0.0
 11
1.896942112622
 21
-0.1059418857009908
 31
0.0
210
0.0
220
0.0
230
1.0
 40
0.0152107186534
 41
5.162470702008239
 42
5.333262315992868
  0
ELLIPSE
  5
7109
330
1F
100
AcDbEntity
  8
AM_0
  6
CONTINUOUS
100
AcDbEllipse
 10
-14.96195670296203
 20
-2.024171219451105
 30
0.0
 11
0.1817741686330013
 21
-0.6499557239300052
 31
0.0
210
0.0
220
0.0
230
0.9999999999999998
 40
0.1004607642831
 41
1.237876398208892
 42
1.899455492354258
  0
SPLINE
  5
710A
330
1F
100
AcDbEntity
  8
AM_0
  6
CONTINUOUS
100
AcDbSpline
210
0.0
220
0.0
230
1.0
 70
     8
 71
     3
 72
    11
 73
     7
 74
     5
 42
0.0000000001
 43
0.0000000001
 44
0.0000000001
 40
0.0
 40
0.0
 40
0.0
 40
0.0
 40
0.3123363436077649
 40
0.6216499293788023
 40
0.9278053946093251
 40
1.230837701604206
 40
1.230837701604206
 40
1.230837701604206
 40
1.230837701604206
 10
-14.19675513435904
 20
-1.949776993377085
 30
0.0
 10
-14.09503339654215
 20
-1.971958747947486
 30
0.0
 10
-13.89257437304288
 20
-2.016107584432248
 30
0.0
 10
-13.59020879854624
 20
-2.08108710889598
 30
0.0
 10
-13.29070143055851
 20
-2.144600427729937
 30
0.0
 10
-13.09192765542759
 20
-2.18611476641024
 30
0.0
 10
-12.99305030037504
 20
-2.206765518768094
 30
0.0
 11
-14.19675513435904
 21
-1.949776993377085
 31
0.0
 11
-13.89155646492504
 21
-2.016167984588093
 31
0.0
 11
-13.58915015389004
 21
-2.081170425994088
 31
0.0
 11
-13.28965064217103
 21
-2.144662247283093
 31
0.0
 11
-12.99305030037504
 21
-2.206765518768094
 31
0.0
  0
ELLIPSE
  5
710B
330
1F
100
AcDbEntity
  8
AM_0
  6
CONTINUOUS
100
AcDbEllipse
 10
-14.17705603767904
 20
-1.574471817596091
 30
0.0
 11
4.993133510122
 21
-0.2618406570179739
 31
0.0
210
0.0
220
0.0
230
1.0
 40
0.0524004224591
 41
4.712389565276203
 42
4.958214444020834
  0
SPLINE
  5
710C
330
1F
100
AcDbEntity
  8
AM_0
  6
CONTINUOUS
100
AcDbSpline
210
0.0
220
0.0
230
1.0
 70
     8
 71
     3
 72
    11
 73
     7
 74
     5
 42
0.0000000001
 43
0.0000000001
 44
0.0000000001
 40
0.0
 40
0.0
 40
0.0
 40
0.0
 40
0.3123665196731773
 40
0.621650217005453
 40
0.9278310209833271
 40
1.230860201219552
 40
1.230860201219552
 40
1.230860201219552
 40
1.230860201219552
 10
-0.7623526685390481
 20
0.1522280115059686
 30
0.0
 10
-0.8640717247768254
 20
0.1744696185853602
 30
0.0
 10
-1.066505946760552
 20
0.2187333248299352
 30
0.0
 10
-1.36893533293855
 20
0.2834562093819415
 30
0.0
 10
-1.6683857089109
 20
0.3472250859738323
 30
0.0
 10
-1.867176372318455
 20
0.3886954404146356
 30
0.0
 10
-1.966057502523039
 20
0.4093233484199743
 30
0.0
 11
-0.7623526685390481
 21
0.1522280115059686
 31
0.0
 11
-1.067558967367045
 21
0.21872581423996
 31
0.0
 11
-1.369957649007044
 21
0.2836214441229714
 31
0.0
 11
-1.669457160726036
 21
0.3472353357239655
 31
0.0
 11
-1.966057502523039
 21
0.4093233484199743
 31
0.0
  0
ELLIPSE
  5
710D
330
1F
100
AcDbEntity
  8
AM_0
  6
CONTINUOUS
100
AcDbEllipse
 10
-0.7820555799160438
 20
-0.2229703527520286
 30
0.0
 11
4.993137319585998
 21
-0.2618408567869789
 31
0.0
210
0.0
220
0.0
230
1.0
 40
0.052400424204
 41
1.570796147933489
 42
1.816629494373064
  0
ELLIPSE
  5
710E
330
1F
100
AcDbEntity
  8
AM_0
  6
CONTINUOUS
100
AcDbEllipse
 10
-6.432854377523025
 20
-5.128571854217057
 30
0.0
 11
9.875137716000017
 21
-3.594550393979953
 31
0.0
210
0.0
220
0.0
230
1.0
 40
0.0523358254031
 41
2.493798791897179
 42
2.581161240609961
  0
ELLIPSE
  5
710F
330
1F
100
AcDbEntity
  8
AM_0
  6
CONTINUOUS
100
AcDbEllipse
 10
-8.526257240072066
 20
3.331129683868923
 30
0.0
 11
9.875133274384015
 21
-3.594551443597959
 31
0.0
210
0.0
220
0.0
230
0.9999999999999998
 40
0.0523359691797
 41
5.636521402881054
 42
5.724007901297726
  0
ELLIPSE
  5
7110
330
1F
100
AcDbEntity
  8
AM_0
  6
CONTINUOUS
100
AcDbEllipse
 10
-9.122357093587023
 20
-4.149674759490068
 30
0.0
 11
9.875133274384015
 21
-3.594551443597945
 31
0.0
210
0.0
220
0.0
230
1.0
 40
0.0523359691797
 41
1.83282467208505
 42
1.992752612413392
  0
ELLIPSE
  5
7111
330
1F
100
AcDbEntity
  8
AM_0
  6
CONTINUOUS
100
AcDbEllipse
 10
-5.836754524007059
 20
2.352125777618951
 30
0.0
 11
9.875137716000017
 21
-3.594550393979953
 31
0.0
210
0.0
220
0.0
230
1.0
 40
0.0523358254031
 41
4.974407736330377
 42
5.13432074678062
  0
LINE
  5
7116
330
1F
100
AcDbEntity
  8
AM_0
  6
CONTINUOUS
100
AcDbLine
 10
-5.083550178304033
 20
-4.298730240447056
 30
0.0
 11
-6.000729285970006
 21
-9.500062332733065
 31
0.0
  0
LINE
  5
7117
330
1F
100
AcDbEntity
  8
AM_0
  6
CONTINUOUS
100
AcDbLine
 10
-14.84075232674203
 20
-2.219804154022099
 30
0.0
 11
-9.128964149251029
 21
-4.298798904998065
 31
0.0
  0
LINE
  5
7118
330
1F
100
AcDbEntity
  8
AM_0
  6
CONTINUOUS
100
AcDbLine
 10
-14.82153769661505
 20
-2.298737869842099
 30
0.0
 11
-11.35313483406602
 21
-4.298737869842085
 31
0.0
  0
LINE
  5
7119
330
1F
100
AcDbEntity
  8
AM_0
  6
CONTINUOUS
100
AcDbLine
 10
-11.49654456307004
 20
-2.720185623748093
 30
0.0
 11
-7.15943595100904
 21
-4.298783646209059
 31
0.0
  0
LINE
  5
711A
330
1F
100
AcDbEntity
  8
AM_0
  6
CONTINUOUS
100
AcDbLine
 10
-12.16255255867504
 20
-2.095292435272085
 30
0.0
 11
-11.41734763313803
 21
-2.134393082244088
 31
0.0
  0
LINE
  5
711B
330
1F
100
AcDbEntity
  8
AM_0
  6
CONTINUOUS
100
AcDbLine
 10
-6.962567054525035
 20
-4.298806534393065
 30
0.0
 11
-11.49656363655602
 21
-2.720208511932085
 31
0.0
  0
LINE
  5
711C
330
1F
100
AcDbEntity
  8
AM_0
  6
CONTINUOUS
100
AcDbLine
 10
-11.00255652596004
 20
-1.298776016815097
 30
0.0
 11
-14.55875464607804
 21
-1.298776016815111
 31
0.0
  0
LINE
  5
711D
330
1F
100
AcDbEntity
  8
AM_0
  6
CONTINUOUS
100
AcDbLine
 10
-14.55875464607802
 20
-4.298776016815111
 30
0.0
 11
-11.35315772225004
 21
-4.298776016815097
 31
0.0
  0
LINE
  5
711E
330
1F
100
AcDbEntity
  8
AM_0
  6
CONTINUOUS
100
AcDbLine
 10
-0.1183783643390477
 20
0.4223009485169627
 30
0.0
 11
-5.830170356527059
 21
2.501204146759945
 31
0.0
  0
LINE
  5
711F
330
1F
100
AcDbEntity
  8
AM_0
  6
CONTINUOUS
100
AcDbLine
 10
-0.1375624768880463
 20
0.501249923126963
 30
0.0
 11
-3.605965339437059
 21
2.501249923126948
 31
0.0
  0
LINE
  5
7120
330
1F
100
AcDbEntity
  8
AM_0
  6
CONTINUOUS
100
AcDbLine
 10
-2.796543800130049
 20
0.2978502649239658
 30
0.0
 11
-3.541741096273039
 21
0.3369509118959542
 31
0.0
  0
LINE
  5
7121
330
1F
100
AcDbEntity
  8
AM_0
  6
CONTINUOUS
100
AcDbLine
 10
-0.1183287732750493
 20
0.4223238367009686
 30
0.0
 11
-0.1375281446130394
 21
0.5012117761539657
 31
0.0
  0
LINE
  5
7122
330
1F
100
AcDbEntity
  8
AM_0
  6
CONTINUOUS
100
AcDbLine
 10
-0.7682311170250494
 20
0.0387178796699601
 30
0.0
 11
-0.7623297803550422
 21
0.152212752716963
 31
0.0
  0
LINE
  5
7123
330
1F
100
AcDbEntity
  8
AM_0
  6
CONTINUOUS
100
AcDbLine
 10
-0.7682540052080462
 20
0.0387560266419627
 30
0.0
 11
-0.2629592054040408
 21
0.0122591394349598
 31
0.0
  0
LINE
  5
7124
330
1F
100
AcDbEntity
  8
AM_0
  6
CONTINUOUS
100
AcDbLine
 10
-2.626953803792044
 20
0.1282717126779715
 30
0.0
 11
-2.796555244222044
 21
0.2978731531069627
 31
0.0
  0
LINE
  5
7125
330
1F
100
AcDbEntity
  8
AM_0
  6
CONTINUOUS
100
AcDbLine
 10
-2.626957618490049
 20
0.1282106775209684
 30
0.0
 11
-1.982559882894047
 21
0.0945116418769772
 31
0.0
  0
LINE
  5
7126
330
1F
100
AcDbEntity
  8
AM_0
  6
CONTINUOUS
100
AcDbLine
 10
-1.982510291830049
 20
0.0945269006659828
 30
0.0
 11
-1.966011726156036
 21
0.4093080896309829
 31
0.0
  0
CIRCLE
  5
7129
330
1F
100
AcDbEntity
  8
AM_0
  6
CONTINUOUS
100
AcDbCircle
 10
-7.479553901449047
 20
-0.8987668615410626
 30
0.0
 40
2.4200000762939
  0
LINE
  5
712E
330
1F
100
AcDbEntity
  8
AM_0
  6
CONTINUOUS
100
AcDbLine
 10
-11.10626670052104
 20
-1.88688026486109
 30
0.0
 11
-10.39166709114605
 21
2.165617598907928
 31
0.0
  0
LINE
  5
712F
330
1F
100
AcDbEntity
  8
AM_0
  6
CONTINUOUS
100
AcDbLine
 10
-3.85288687874404
 20
0.0893999475409544
 30
0.0
 11
-4.567486488119026
 21
-3.963113175018065
 31
0.0
  0
LINE
  5
7131
330
1F
100
AcDbEntity
  8
AM_0
  6
CONTINUOUS
100
AcDbLine
 10
-7.79966040779605
 20
2.501227034942942
 30
0.0
 11
-5.830155097738053
 21
2.501227034942957
 31
0.0
  0
LINE
  5
7132
330
1F
100
AcDbEntity
  8
AM_0
  6
CONTINUOUS
100
AcDbLine
 10
-3.462555610433053
 20
0.9226747888489512
 30
0.0
 11
-7.79966040779605
 21
2.501280440704931
 31
0.0
  0
LINE
  5
7133
330
1F
100
AcDbEntity
  8
AM_0
  6
CONTINUOUS
100
AcDbLine
 10
-7.99643775154605
 20
2.501234664337943
 30
0.0
 11
-3.462540351644062
 21
0.9226366418769487
 31
0.0
  0
ARC
  5
7134
330
1F
100
AcDbEntity
  8
AM_0
  6
CONTINUOUS
100
AcDbCircle
 10
-3.55745764900703
 20
0.0373293298649458
 30
0.0
 40
0.3000110685825
100
AcDbArc
 50
87.00026037432341
 51
169.9975525218629
  0
LINE
  5
7136
330
1F
100
AcDbEntity
  8
AM_0
  6
CONTINUOUS
100
AcDbLine
 10
-3.605950080648067
 20
2.501227034942957
 30
0.0
 11
-5.830155097738053
 21
2.501227034942957
 31
0.0
  0
LINE
  5
7138
330
1F
100
AcDbEntity
  8
AM_0
  6
CONTINUOUS
100
AcDbLine
 10
-7.996453010335056
 20
2.501227034942942
 30
0.0
 11
-7.79966040779605
 21
2.501227034942942
 31
0.0
  0
LINE
  5
7139
330
1F
100
AcDbEntity
  8
AM_0
  6
CONTINUOUS
100
AcDbLine
 10
-7.996453010335056
 20
2.501227034942942
 30
0.0
 11
-10.05605384041406
 21
2.501227034942942
 31
0.0
  0
LINE
  5
713A
330
1F
100
AcDbEntity
  8
AM_0
  6
CONTINUOUS
100
AcDbLine
 10
-10.05605765511105
 20
2.501234664337943
 30
0.0
 11
-10.39165564705406
 21
2.16563285769692
 31
0.0
  0
LINE
  5
713B
330
1F
100
AcDbEntity
  8
AM_0
  6
CONTINUOUS
100
AcDbLine
 10
-10.39167472054105
 20
2.165648116485925
 30
0.0
 11
-10.35657950569706
 21
2.36492790164192
 31
0.0
  0
LINE
  5
713D
330
1F
100
AcDbEntity
  8
AM_0
  6
CONTINUOUS
100
AcDbLine
 10
-11.35315772225004
 20
-4.298776016815097
 30
0.0
 11
-5.083550178304033
 21
-4.298776016815068
 31
0.0
  0
LINE
  5
7141
330
1F
100
AcDbEntity
  8
AM_0
  6
CONTINUOUS
100
AcDbLine
 10
-6.962555610433039
 20
-4.298776016815068
 30
0.0
 11
-7.159455024496022
 21
-4.298776016815068
 31
0.0
  0
LINE
  5
7142
330
1F
100
AcDbEntity
  8
AM_0
  6
CONTINUOUS
100
AcDbLine
 10
-6.962555610433039
 20
-4.298776016815068
 30
0.0
 11
-4.903053962484033
 21
-4.298776016815068
 31
0.0
  0
LINE
  5
7143
330
1F
100
AcDbEntity
  8
AM_0
  6
CONTINUOUS
100
AcDbLine
 10
-4.903046333089033
 20
-4.298768387420068
 30
0.0
 11
-4.56745215584301
 21
-3.963075028045068
 31
0.0
  0
ARC
  5
7144
330
1F
100
AcDbEntity
  8
AM_0
  6
CONTINUOUS
100
AcDbCircle
 10
-11.40165015389004
 20
-1.834771500213093
 30
0.0
 40
0.3000110685825
100
AcDbArc
 50
267.0002585530916
 51
349.9975481393091
  0
ARC
  5
7148
330
1F
100
AcDbEntity
  8
AM_0
  6
CONTINUOUS
100
AcDbCircle
 10
-14.55875464607804
 20
-2.798776016815111
 30
0.0
 40
1.5
100
AcDbArc
 50
90.00001798609082
 51
270.000002504479
  0
LINE
  5
7149
330
1F
100
AcDbEntity
  8
AM_0
  6
CONTINUOUS
100
AcDbLine
 10
-14.84078284432004
 20
-2.219804154022099
 30
0.0
 11
-14.82158347298203
 21
-2.298798904998108
 31
0.0
  0
LINE
  5
714A
330
1F
100
AcDbEntity
  8
AM_0
  6
CONTINUOUS
100
AcDbLine
 10
-14.19077368904603
 20
-1.836160050018094
 30
0.0
 11
-14.19677420784503
 21
-1.949738846404088
 31
0.0
  0
LINE
  5
714B
330
1F
100
AcDbEntity
  8
AM_0
  6
CONTINUOUS
100
AcDbLine
 10
-14.19076224495503
 20
-1.836190567596091
 30
0.0
 11
-14.69616385628304
 21
-1.809693680389102
 31
0.0
  0
LINE
  5
714C
330
1F
100
AcDbEntity
  8
AM_0
  6
CONTINUOUS
100
AcDbLine
 10
-12.33219596077503
 20
-1.925790176971091
 30
0.0
 11
-12.16259833504204
 21
-2.095292435272085
 31
0.0
  0
LINE
  5
714D
330
1F
100
AcDbEntity
  8
AM_0
  6
CONTINUOUS
100
AcDbLine
 10
-12.33213111092103
 20
-1.925752029998093
 30
0.0
 11
-12.97654029060904
 21
-1.891946182830096
 31
0.0
  0
LINE
  5
714E
330
1F
100
AcDbEntity
  8
AM_0
  6
CONTINUOUS
100
AcDbLine
 10
-12.97658225227904
 20
-1.891946182830096
 30
0.0
 11
-12.99308081795303
 21
-2.206742630584088
 31
0.0
  0
LINE
  5
7150
330
1F
100
AcDbEntity
  8
AM_0
  6
CONTINUOUS
100
AcDbLine
 10
-120.0003554456382
 20
35.82076226685616
 30
0.0
 11
-120.0003554456381
 21
23.95576249573714
 31
0.0
  0
LINE
  5
7152
330
1F
100
AcDbEntity
  8
AM_0
  6
CONTINUOUS
100
AcDbLine
 10
-120.000355445638
 20
-9.500069962127597
 30
0.0
 11
-120.000355445638
 21
2.36493553103638
 31
0.0
  0
DIMENSION
  5
71FC
330
1F
100
AcDbEntity
  8
AM_5
100
AcDbDimension
  2
*D7
 10
-133.1271378827973
 20
23.95576249573714
 30
0.0
 11
-134.6771378827974
 21
29.88826238129663
 31
0.0
 70
    32
  1
<>
 51
359.9999999999998
  3
AM_JIS$0
100
AcDbAlignedDimension
 13
-120.0003554456382
 23
35.82076226685616
 33
0.0
 14
-120.0003554456381
 24
23.95576249573714
 34
0.0
 50
270.0000000000002
100
AcDbRotatedDimension
1001
GENIUS_GENDTOL_13
1000

1000
h7
1000

1040
0.0
1001
ACAD
1000
DSTYLE
1002
{
1070
   287
1070
     3
1070
    40
1040
0.5
1070
    42
1040
1.0
1070
    43
1040
12.0
1070
    48
1040
0.1
1070
    78
1070
     8
1070
   140
1040
3.2
1070
   176
1070
   256
1070
   177
1070
   256
1070
   271
1070
     0
1070
   272
1070
     3
1070
   275
1070
     0
1070
   284
1070
     0
1070
   289
1070
     3
1070
   340
1005
6B
1070
   371
1070
    -1
1070
   372
1070
    -1
1002
}
  0
DIMENSION
  5
728C
330
1F
100
AcDbEntity
  8
AM_5
100
AcDbDimension
  2
*D8
 10
-133.1271378827975
 20
-9.500069962127607
 30
0.0
 11
-134.6771378827975
 21
-3.56756721554564
 31
0.0
 70
    32
  1
<>
 51
359.9999999999998
  3
AM_JIS$0
100
AcDbAlignedDimension
 13
-120.000355445638
 23
2.364935531036366
 33
0.0
 14
-120.000355445638
 24
-9.500069962127611
 34
0.0
 50
270.0000000000002
100
AcDbRotatedDimension
1001
GENIUS_GENDTOL_13
1000

1000
h7
1000

1040
0.0
1001
ACAD
1000
DSTYLE
1002
{
1070
   287
1070
     3
1070
    40
1040
0.5
1070
    42
1040
1.0
1070
    43
1040
12.0
1070
    48
1040
0.1
1070
    78
1070
     8
1070
   140
1040
3.2
1070
   176
1070
   256
1070
   177
1070
   256
1070
   271
1070
     0
1070
   272
1070
     3
1070
   275
1070
     0
1070
   284
1070
     0
1070
   289
1070
     3
1070
   340
1005
6B
1070
   371
1070
    -1
1070
   372
1070
    -1
1002
}
  0
DIMENSION
  5
7337
330
1F
100
AcDbEntity
  8
AM_5
100
AcDbDimension
  2
*D9
 10
-0.0003932112929895
 20
16.25589062661201
 30
0.0
 11
-60.00037432846551
 21
17.80589062661212
 31
0.0
 70
    32
  1
<>
 51
359.9999999999998
  3
AM_JIS$0
100
AcDbAlignedDimension
 13
-120.000355445638
 23
2.364935531036366
 33
0.0
 14
-0.0003932112930194
 24
0.0000190640238174
 34
0.0
 50
180.0
100
AcDbRotatedDimension
1001
GENIUS_GENDTOL_13
1000

1000
h7
1000

1040
0.0
1001
ACAD
1000
DSTYLE
1002
{
1070
   287
1070
     3
1070
    40
1040
0.5
1070
    42
1040
1.0
1070
    43
1040
12.0
1070
    48
1040
0.1
1070
    78
1070
     8
1070
   140
1040
3.2
1070
   176
1070
   256
1070
   177
1070
   256
1070
   271
1070
     0
1070
   272
1070
     3
1070
   275
1070
     0
1070
   284
1070
     0
1070
   289
1070
     3
1070
   340
1005
6B
1070
   371
1070
    -1
1070
   372
1070
    -1
1002
}
  0
DIMENSION
  5
73CC
330
1F
100
AcDbEntity
  8
AM_5
100
AcDbDimension
  2
*D10
 10
-3.605950080648055
 20
9.501227034942957
 30
0.0
 11
-8.532140556838529
 21
11.05122703494296
 31
0.0
 70
    32
  1
3.5
 51
359.9999999999998
  3
AM_JIS$0
100
AcDbAlignedDimension
 13
-0.0002792410949404
 23
-0.0003405366277178
 33
0.0
 14
-3.605950080648068
 24
2.501227034942957
 34
0.0
 50
180.0
100
AcDbRotatedDimension
1001
GENIUS_GENDTOL_13
1000

1000
h7
1000

1040
0.0
1001
ACAD
1000
DSTYLE
1002
{
1070
   287
1070
     3
1070
    40
1040
0.5
1070
    42
1040
1.0
1070
    43
1040
12.0
1070
    48
1040
0.1
1070
    78
1070
     8
1070
   140
1040
3.2
1070
   176
1070
   256
1070
   177
1070
   256
1070
   271
1070
     0
1070
   272
1070
     3
1070
   275
1070
     0
1070
   284
1070
     0
1070
   289
1070
     3
1070
   340
1005
6B
1070
   371
1070
    -1
1070
   372
1070
    -1
1002
}
  0
DIMENSION
  5
748A
330
1F
100
AcDbEntity
  8
AM_5
100
AcDbDimension
  2
*D11
 10
11.66184257489323
 20
23.79844819520074
 30
0.0
 11
10.11184257489322
 21
29.80960523102874
 31
0.0
 70
    32
  1
<>
 51
359.9999999999998
  3
AM_JIS$0
100
AcDbAlignedDimension
 13
-1.040756904378223
 23
35.82076226685673
 33
0.0
 14
-0.0003707044271657
 24
23.79844819520074
 34
0.0
 50
90.0000000000003
100
AcDbRotatedDimension
1001
GENIUS_GENDTOL_13
1000

1000
h7
1000

1040
0.0
1001
ACAD
1000
DSTYLE
1002
{
1070
   287
1070
     3
1070
    40
1040
0.5
1070
    42
1040
1.0
1070
    43
1040
12.0
1070
    48
1040
0.1
1070
    78
1070
     8
1070
   140
1040
3.2
1070
   176
1070
   256
1070
   177
1070
   256
1070
   271
1070
     0
1070
   272
1070
     3
1070
   275
1070
     0
1070
   284
1070
     0
1070
   289
1070
     3
1070
   340
1005
6B
1070
   371
1070
    -1
1070
   372
1070
    -1
1002
}
  0
DIMENSION
  5
751A
330
1F
100
AcDbEntity
  8
AM_5
100
AcDbDimension
  2
*D12
 10
6.999720758905064
 20
-9.500069962127032
 30
0.0
 11
5.449720758905066
 21
-4.750205249377374
 31
0.0
 70
    32
  1
<>
 51
359.9999999999998
  3
AM_JIS$0
100
AcDbAlignedDimension
 13
-0.0002792410949404
 23
-0.0003405366277178
 33
0.0
 14
-6.000729285970006
 24
-9.500069962127028
 34
0.0
 50
90.0000000000003
100
AcDbRotatedDimension
1001
GENIUS_GENDTOL_13
1000

1000
h7
1000

1040
0.0
1001
ACAD
1000
DSTYLE
1002
{
1070
   287
1070
     3
1070
    40
1040
0.5
1070
    42
1040
1.0
1070
    43
1040
12.0
1070
    48
1040
0.1
1070
    78
1070
     8
1070
   140
1040
3.2
1070
   176
1070
   256
1070
   177
1070
   256
1070
   271
1070
     1
1070
   272
1070
     3
1070
   275
1070
     0
1070
   284
1070
     0
1070
   289
1070
     3
1070
   340
1005
6B
1070
   371
1070
    -1
1070
   372
1070
    -1
1002
}
  0
VIEWPORT
  5
110
330
101
100
AcDbEntity
 67
     1
  8
0
100
AcDbViewport
 10
420.5
 20
297.0
 30
0.0
 40
948.9782706766916
 41
628.452
 68
     1
 69
     1
1001
ACAD
1000
MVIEW
1002
{
1070
    16
1010
0.0
1020
0.0
1030
0.0
1010
0.0
1020
0.0
1030
1.0
1040
0.0
1040
628.452
1040
420.5
1040
297.0
1040
50.0
1040
0.0
1040
0.0
1070
     0
1070
   100
1070
     1
1070
     1
1070
     0
1070
     0
1070
     0
1070
     0
1040
0.0
1040
0.0
1040
0.0
1040
10.0
1040
10.0
1040
10.0
1040
10.0
1070
     0
1002
{
1002
}
1002
}
  0
ENDSEC
  0
SECTION
  2
OBJECTS
  0
DICTIONARY
  5
C
330
0
100
AcDbDictionary
  3
ACAD_GROUP
350
D
  3
ACAD_LAYOUT
350
1A
  3
ACAD_MLINESTYLE
350
17
  3
ACAD_PLOTSETTINGS
350
19
  3
ACAD_PLOTSTYLENAME
350
E
  3
ACDBVARIABLEDICTIONARY
350
34
  3
ACMDICTIONARY
350
43
  3
AMG
350
2B
  3
AMGSNAPSETTINGS
350
6E
  3
DWGPROPS
350
764D
  3
ACDBHEADERROUNDTRIPXREC
350
765B
  0
DICTIONARY
  5
74
330
1F
100
AcDbDictionary
280
     1
  3
ACAD_INDEX
360
764F
  3
ACAD_LAYOUTSELFREF
360
767E
  0
DICTIONARY
  5
7683
330
101
100
AcDbDictionary
280
     1
  3
ACAD_LAYOUTSELFREF
360
7684
  0
DICTIONARY
  5
D
102
{ACAD_REACTORS
330
C
102
}
330
C
100
AcDbDictionary
  0
DICTIONARY
  5
1A
102
{ACAD_REACTORS
330
C
102
}
330
C
100
AcDbDictionary
  0
DICTIONARY
  5
17
102
{ACAD_REACTORS
330
C
102
}
330
C
100
AcDbDictionary
  3
STANDARD
350
18
  0
DICTIONARY
  5
19
102
{ACAD_REACTORS
330
C
102
}
330
C
100
AcDbDictionary
  3
ASAMI
350
399D
  0
ACDBDICTIONARYWDFLT
  5
E
102
{ACAD_REACTORS
330
C
102
}
330
C
100
AcDbDictionary
281
     1
  3
Normal
350
F
100
AcDbDictionaryWithDefault
340
F
  0
DICTIONARY
  5
34
102
{ACAD_REACTORS
330
C
102
}
330
C
100
AcDbDictionary
  3
INDEXCTL
350
35
  3
SORTENTS
350
B5E
  0
DICTIONARY
  5
43
102
{ACAD_REACTORS
330
C
102
}
330
C
100
AcDbDictionary
  3
ACMSTDDICTIONARY
350
260
  0
DICTIONARY
  5
2B
102
{ACAD_REACTORS
330
C
102
}
330
C
100
AcDbDictionary
  3
ACMGSETTINGS
350
2C
  0
DICTIONARY
  5
6E
102
{ACAD_REACTORS
330
C
102
}
330
C
100
AcDbDictionary
  0
XRECORD
  5
764D
102
{ACAD_REACTORS
330
C
102
}
330
C
100
AcDbXrecord
  1
DWGPROPS COOKIE
  2

  3

  4

  6

  7

  8

  9

300
AmdtFileType=82
301
=
302
=
303
=
304
=
305
=
306
=
307
=
308
=
309
=
 40
0.7529216898148148
 41
2452802.716478761
 42
2452937.999552847
  1

 90
        1
  0
DICTIONARY
  5
765B
102
{ACAD_REACTORS
330
C
102
}
330
C
100
AcDbDictionary
  3
TSTACKALIGN
350
765C
  3
TSTACKSIZE
350
765D
  3
HYPERLINKBASE
350
765E
  3
STYLESHEET
350
765F
  3
LAYOUTDICT
350
7660
  3
PLOTSETDICT
350
7661
  3
PLOTSTYLNAMDICT
350
7662
  3
LWETCUNION
350
7663
  3
INSUNITS
350
7664
  3
CEPSNTYPE
350
7665
  3
FINGERPRINTGUID
350
7666
  3
VERSIONGUID
350
7667
  3
PSVPSCALE
350
7668
  3
DIMSTYLEDATA
350
7669
  3
PUCSORTHOREF
350
766A
  3
PUCSORTHOVIEW
350
766B
  3
PUCSBASE
350
766C
  3
PUCSORGTOP
350
766D
  3
PUCSORGBOTTOM
350
766E
  3
PUCSORGLEFT
350
766F
  3
PUCSORGRIGHT
350
7670
  3
PUCSORGFRONT
350
7671
  3
PUCSORGBACK
350
7672
  3
UCSORTHOREF
350
7673
  3
UCSORTHOVIEW
350
7674
  3
UCSBASE
350
7675
  3
UCSORGTOP
350
7676
  3
UCSORGBOTTOM
350
7677
  3
UCSORGLEFT
350
7678
  3
UCSORGRIGHT
350
7679
  3
UCSORGFRONT
350
767A
  3
UCSORGBACK
350
767B
  0
DICTIONARY
  5
764F
102
{ACAD_REACTORS
330
74
102
}
330
74
100
AcDbDictionary
  3
*A1
350
7650
  0
XRECORD
  5
767E
102
{ACAD_REACTORS
330
74
102
}
330
74
100
AcDbXrecord
340
1F
  0
XRECORD
  5
7684
102
{ACAD_REACTORS
330
7683
102
}
330
7683
100
AcDbXrecord
340
101
  0
MLINESTYLE
  5
18
102
{ACAD_REACTORS
330
17
102
}
330
17
100
AcDbMlineStyle
  2
STANDARD
 70
     0
  3

 62
   256
 51
90.0
 52
90.0
 71
     2
 49
0.5
 62
   256
  6
BYLAYER
 49
-0.5
 62
   256
  6
BYLAYER
  0
PLOTSETTINGS
  5
399D
102
{ACAD_REACTORS
330
19
102
}
330
19
100
AcDbPlotSettings
  1
asami
  2
RICOH imagio MF1540
  4
A4
  6

 40
5.831416606903076
 41
7.651742935180664
 42
4.90008544921875
 43
5.789077758789062
 44
296.9683227539062
 45
209.9733276367187
 46
0.0
 47
0.0
 48
-156.6707931774246
 49
-74.57609991074048
140
58.59973180214831
141
60.61068161925596
142
1.0
143
1.095343097833084
 70
  1712
 72
     1
 73
     1
 74
     4
  7
asami.ctb
 75
     0
147
0.9129559514076438
148
156.6707931774246
149
74.57609991074048
  0
ACDBPLACEHOLDER
  5
F
102
{ACAD_REACTORS
330
E
102
}
330
E
100
AcDbPlaceHolder
280
     0
  0
DICTIONARYVAR
  5
35
102
{ACAD_REACTORS
330
34
102
}
330
34
100
DictionaryVariables
280
     0
  1
1
  0
DICTIONARYVAR
  5
B5E
102
{ACAD_REACTORS
330
34
102
}
330
34
100
DictionaryVariables
280
     0
  1
96
  0
DICTIONARY
  5
260
102
{ACAD_REACTORS
330
43
102
}
330
43
100
AcDbDictionary
  0
DICTIONARY
  5
2C
102
{ACAD_REACTORS
330
2B
102
}
330
2B
100
AcDbDictionary
  3
DWGSETTINGS
350
2D
  0
XRECORD
  5
765C
102
{ACAD_REACTORS
330
765B
102
}
330
765B
100
AcDbXrecord
 90
        1
  0
XRECORD
  5
765D
102
{ACAD_REACTORS
330
765B
102
}
330
765B
100
AcDbXrecord
 90
       70
  0
XRECORD
  5
765E
102
{ACAD_REACTORS
330
765B
102
}
330
765B
100
AcDbXrecord
  1

  0
XRECORD
  5
765F
102
{ACAD_REACTORS
330
765B
102
}
330
765B
100
AcDbXrecord
  1
asami.ctb
  0
XRECORD
  5
7660
102
{ACAD_REACTORS
330
765B
102
}
330
765B
100
AcDbXrecord
340
1A
  0
XRECORD
  5
7661
102
{ACAD_REACTORS
330
765B
102
}
330
765B
100
AcDbXrecord
340
19
  0
XRECORD
  5
7662
102
{ACAD_REACTORS
330
765B
102
}
330
765B
100
AcDbXrecord
340
E
  0
XRECORD
  5
7663
102
{ACAD_REACTORS
330
765B
102
}
330
765B
100
AcDbXrecord
 90
    10781
  0
XRECORD
  5
7664
102
{ACAD_REACTORS
330
765B
102
}
330
765B
100
AcDbXrecord
 90
        4
  0
XRECORD
  5
7665
102
{ACAD_REACTORS
330
765B
102
}
330
765B
100
AcDbXrecord
 90
        0
  0
XRECORD
  5
7666
102
{ACAD_REACTORS
330
765B
102
}
330
765B
100
AcDbXrecord
  1
{AFB28963-8C59-40AE-9337-C84526B81ACE}
  0
XRECORD
  5
7667
102
{ACAD_REACTORS
330
765B
102
}
330
765B
100
AcDbXrecord
  1
{2E8EF996-296B-49DD-A726-051DA24D8C54}
  0
XRECORD
  5
7668
102
{ACAD_REACTORS
330
765B
102
}
330
765B
100
AcDbXrecord
 40
0.0
  0
XRECORD
  5
7669
102
{ACAD_REACTORS
330
765B
102
}
330
765B
100
AcDbXrecord
1000
DSTYLE
1002
{
1070
    79
 70
     2
1070
   341
340
59
1070
   342
340
59
1070
   371
 70
    -1
1070
   372
 70
    -1
1002
}
  0
XRECORD
  5
766A
102
{ACAD_REACTORS
330
765B
102
}
330
765B
100
AcDbXrecord
340
0
  0
XRECORD
  5
766B
102
{ACAD_REACTORS
330
765B
102
}
330
765B
100
AcDbXrecord
 70
     0
  0
XRECORD
  5
766C
102
{ACAD_REACTORS
330
765B
102
}
330
765B
100
AcDbXrecord
340
0
  0
XRECORD
  5
766D
102
{ACAD_REACTORS
330
765B
102
}
330
765B
100
AcDbXrecord
 10
0.0
 20
0.0
 30
0.0
  0
XRECORD
  5
766E
102
{ACAD_REACTORS
330
765B
102
}
330
765B
100
AcDbXrecord
 10
0.0
 20
0.0
 30
0.0
  0
XRECORD
  5
766F
102
{ACAD_REACTORS
330
765B
102
}
330
765B
100
AcDbXrecord
 10
0.0
 20
0.0
 30
0.0
  0
XRECORD
  5
7670
102
{ACAD_REACTORS
330
765B
102
}
330
765B
100
AcDbXrecord
 10
0.0
 20
0.0
 30
0.0
  0
XRECORD
  5
7671
102
{ACAD_REACTORS
330
765B
102
}
330
765B
100
AcDbXrecord
 10
0.0
 20
0.0
 30
0.0
  0
XRECORD
  5
7672
102
{ACAD_REACTORS
330
765B
102
}
330
765B
100
AcDbXrecord
 10
0.0
 20
0.0
 30
0.0
  0
XRECORD
  5
7673
102
{ACAD_REACTORS
330
765B
102
}
330
765B
100
AcDbXrecord
340
0
  0
XRECORD
  5
7674
102
{ACAD_REACTORS
330
765B
102
}
330
765B
100
AcDbXrecord
 70
     0
  0
XRECORD
  5
7675
102
{ACAD_REACTORS
330
765B
102
}
330
765B
100
AcDbXrecord
340
0
  0
XRECORD
  5
7676
102
{ACAD_REACTORS
330
765B
102
}
330
765B
100
AcDbXrecord
 10
0.0
 20
0.0
 30
0.0
  0
XRECORD
  5
7677
102
{ACAD_REACTORS
330
765B
102
}
330
765B
100
AcDbXrecord
 10
0.0
 20
0.0
 30
0.0
  0
XRECORD
  5
7678
102
{ACAD_REACTORS
330
765B
102
}
330
765B
100
AcDbXrecord
 10
0.0
 20
0.0
 30
0.0
  0
XRECORD
  5
7679
102
{ACAD_REACTORS
330
765B
102
}
330
765B
100
AcDbXrecord
 10
0.0
 20
0.0
 30
0.0
  0
XRECORD
  5
767A
102
{ACAD_REACTORS
330
765B
102
}
330
765B
100
AcDbXrecord
 10
0.0
 20
0.0
 30
0.0
  0
XRECORD
  5
767B
102
{ACAD_REACTORS
330
765B
102
}
330
765B
100
AcDbXrecord
 10
0.0
 20
0.0
 30
0.0
  0
LAYER_INDEX
  5
7650
102
{ACAD_REACTORS
330
764F
102
}
330
764F
100
AcDbIndex
 40
2452941.600230925
100
AcDbLayerIndex
  8
0
360
7651
 90
        0
  8
AM_0
360
7652
 90
      107
  8
AM_5
360
7653
 90
        8
  8
AM_7
360
7654
 90
        0
  8
AM_6
360
7655
 90
        3
  8
Defpoints
360
7656
 90
        0
  8
AM_3
360
7657
 90
        0
  8
AM_11
360
7658
 90
        0
  8
PV0001_1
360
7659
 90
        0
  0
XRECORD
  5
2D
102
{ACAD_REACTORS
330
2C
102
}
330
2C
100
AcDbXrecord
  1
VERSION
140
15.0
  1
PRODUCT
  2
AutoCAD Mechanical 2000
  0
IDBUFFER
  5
7651
330
0
100
AcDbIdBuffer
  0
IDBUFFER
  5
7652
330
0
100
AcDbIdBuffer
330
7102
330
7103
330
7104
330
7105
330
7106
330
7107
330
7108
330
7109
330
710A
330
710B
330
710C
330
710D
330
710E
330
710F
330
7110
330
7111
330
7116
330
7117
330
7118
330
7119
330
711A
330
711B
330
711C
330
711D
330
711E
330
711F
330
7120
330
7121
330
7122
330
7123
330
7124
330
7125
330
7126
330
7129
330
712E
330
712F
330
7131
330
7132
330
7133
330
7134
330
7136
330
7138
330
7139
330
713A
330
713B
330
713D
330
7141
330
7142
330
7143
330
7144
330
7148
330
7149
330
714A
330
714B
330
714C
330
714D
330
714E
330
7150
330
7152
330
70CF
330
70D0
330
70D1
330
70D2
330
70D5
330
70D6
330
70D7
330
70D8
330
70D9
330
70DA
330
70DB
330
70DC
330
70DE
330
70DF
330
70E0
330
70E1
330
70E2
330
70E3
330
70E4
330
70E5
330
70E6
330
70E7
330
70E8
330
70E9
330
70EA
330
70EB
330
70EC
330
70ED
330
70EE
330
70EF
330
70F0
330
70F1
330
70F2
330
70F3
330
70F4
330
70F5
330
70F6
330
70F7
330
70F8
330
70F9
330
70FA
330
70FB
330
70FC
330
70FD
330
70FE
330
70FF
330
7100
330
7101
  0
IDBUFFER
  5
7653
330
0
100
AcDbIdBuffer
330
68AD
330
68AE
330
71FC
330
728C
330
7337
330
73CC
330
748A
330
751A
  0
IDBUFFER
  5
7654
330
0
100
AcDbIdBuffer
  0
IDBUFFER
  5
7655
330
0
100
AcDbIdBuffer
330
388D
330
68AC
330
68AF
  0
IDBUFFER
  5
7656
330
0
100
AcDbIdBuffer
  0
IDBUFFER
  5
7657
330
0
100
AcDbIdBuffer
  0
IDBUFFER
  5
7658
330
0
100
AcDbIdBuffer
  0
IDBUFFER
  5
7659
330
0
100
AcDbIdBuffer
  0
ENDSEC
  0
EOF
