  0
SECTION
  2
HEADER
  9
$ACADVER
  1
AC1014
  9
$ACADMAINTVER
 70
     9
  9
$DWGCODEPAGE
  3
ANSI_932
  9
$INSBASE
 10
0.0
 20
0.0
 30
0.0
  9
$EXTMIN
 10
-137.2862941278694
 20
-34.78020543710501
 30
-0.00000001
  9
$EXTMAX
 10
30.09857578293098
 20
46.29863454691157
 30
0.00000001
  9
$LIMMIN
 10
-152.4203500435704
 20
-57.14521086330336
  9
$LIMMAX
 10
41.87456283985818
 20
85.33552582668219
  9
$ORTHOMODE
 70
     0
  9
$REGENMODE
 70
     1
  9
$FILLMODE
 70
     1
  9
$QTEXTMODE
 70
     0
  9
$MIRRTEXT
 70
     0
  9
$DRAGMODE
 70
     2
  9
$LTSCALE
 40
1.0
  9
$OSMODE
 70
  2103
  9
$ATTMODE
 70
     1
  9
$TEXTSIZE
 40
2.5
  9
$TRACEWID
 40
1.0
  9
$TEXTSTYLE
  7
STANDARD
  9
$CLAYER
  8
AM_0
  9
$CELTYPE
  6
BYLAYER
  9
$CECOLOR
 62
   256
  9
$CELTSCALE
 40
1.0
  9
$DELOBJ
 70
     1
  9
$DISPSILH
 70
     0
  9
$DIMSCALE
 40
0.5
  9
$DIMASZ
 40
2.5
  9
$DIMEXO
 40
1.0
  9
$DIMDLI
 40
12.0
  9
$DIMRND
 40
0.0
  9
$DIMDLE
 40
0.0
  9
$DIMEXE
 40
1.0
  9
$DIMTP
 40
0.1
  9
$DIMTM
 40
0.1
  9
$DIMTXT
 40
3.2
  9
$DIMCEN
 40
0.0
  9
$DIMTSZ
 40
0.0
  9
$DIMTOL
 70
     0
  9
$DIMLIM
 70
     0
  9
$DIMTIH
 70
     0
  9
$DIMTOH
 70
     0
  9
$DIMSE1
 70
     0
  9
$DIMSE2
 70
     0
  9
$DIMTAD
 70
     3
  9
$DIMZIN
 70
     8
  9
$DIMBLK
  1
OPEN30
  9
$DIMASO
 70
     1
  9
$DIMSHO
 70
     1
  9
$DIMPOST
  1

  9
$DIMAPOST
  1
"
  9
$DIMALT
 70
     0
  9
$DIMALTD
 70
     2
  9
$DIMALTF
 40
0.0393701
  9
$DIMLFAC
 40
1.0
  9
$DIMTOFL
 70
     1
  9
$DIMTVP
 40
0.0
  9
$DIMTIX
 70
     0
  9
$DIMSOXD
 70
     0
  9
$DIMSAH
 70
     0
  9
$DIMBLK1
  1

  9
$DIMBLK2
  1

  9
$DIMSTYLE
  2
AM_JIS
  9
$DIMCLRD
 70
   256
  9
$DIMCLRE
 70
   256
  9
$DIMCLRT
 70
     2
  9
$DIMTFAC
 40
0.71
  9
$DIMGAP
 40
1.5
  9
$DIMJUST
 70
     0
  9
$DIMSD1
 70
     0
  9
$DIMSD2
 70
     0
  9
$DIMTOLJ
 70
     0
  9
$DIMTZIN
 70
     0
  9
$DIMALTZ
 70
     0
  9
$DIMALTTZ
 70
     0
  9
$DIMFIT
 70
     3
  9
$DIMUPT
 70
     0
  9
$DIMUNIT
 70
     2
  9
$DIMDEC
 70
     3
  9
$DIMTDEC
 70
     3
  9
$DIMALTU
 70
     2
  9
$DIMALTTD
 70
     2
  9
$DIMTXSTY
  7
ASAMI
  9
$DIMAUNIT
 70
     0
  9
$LUNITS
 70
     2
  9
$LUPREC
 70
     2
  9
$SKETCHINC
 40
1.0
  9
$FILLETRAD
 40
0.4
  9
$AUNITS
 70
     0
  9
$AUPREC
 70
     0
  9
$MENU
  1
.
  9
$ELEVATION
 40
0.0
  9
$PELEVATION
 40
0.0
  9
$THICKNESS
 40
0.0
  9
$LIMCHECK
 70
     1
  9
$BLIPMODE
 70
     0
  9
$CHAMFERA
 40
1.0
  9
$CHAMFERB
 40
1.0
  9
$CHAMFERC
 40
20.0
  9
$CHAMFERD
 40
0.0
  9
$SKPOLY
 70
     0
  9
$TDCREATE
 40
2452802.716478761
  9
$TDUPDATE
 40
2452941.600399479
  9
$TDINDWG
 40
0.7554550463
  9
$TDUSRTIMER
 40
0.7554550463
  9
$USRTIMER
 70
     1
  9
$ANGBASE
 50
0.0
  9
$ANGDIR
 70
     0
  9
$PDMODE
 70
     0
  9
$PDSIZE
 40
0.0
  9
$PLINEWID
 40
0.0
  9
$COORDS
 70
     0
  9
$SPLFRAME
 70
     0
  9
$SPLINETYPE
 70
     6
  9
$SPLINESEGS
 70
     8
  9
$ATTDIA
 70
     1
  9
$ATTREQ
 70
     1
  9
$HANDLING
 70
 12289
  9
$HANDSEED
  5
7CF1
  9
$SURFTAB1
 70
     6
  9
$SURFTAB2
 70
     6
  9
$SURFTYPE
 70
     6
  9
$SURFU
 70
     6
  9
$SURFV
 70
     6
  9
$UCSNAME
  2

  9
$UCSORG
 10
-0.0000000000002682
 20
0.000000000000161
 30
0.0
  9
$UCSXDIR
 10
1.0
 20
0.000000000000002
 30
0.0
  9
$UCSYDIR
 10
-0.000000000000002
 20
1.0
 30
0.0
  9
$PUCSNAME
  2

  9
$PUCSORG
 10
0.0
 20
0.0
 30
0.0
  9
$PUCSXDIR
 10
1.0
 20
0.0
 30
0.0
  9
$PUCSYDIR
 10
0.0
 20
1.0
 30
0.0
  9
$USERI1
 70
     0
  9
$USERI2
 70
     0
  9
$USERI3
 70
     0
  9
$USERI4
 70
     0
  9
$USERI5
 70
     0
  9
$USERR1
 40
0.0
  9
$USERR2
 40
0.0
  9
$USERR3
 40
0.0
  9
$USERR4
 40
0.0
  9
$USERR5
 40
0.0
  9
$WORLDVIEW
 70
     1
  9
$SHADEDGE
 70
     3
  9
$SHADEDIF
 70
    70
  9
$TILEMODE
 70
     1
  9
$MAXACTVP
 70
    64
  9
$PINSBASE
 10
0.0
 20
0.0
 30
0.0
  9
$PLIMCHECK
 70
     0
  9
$PEXTMIN
 10
1.000000000000000E+20
 20
1.000000000000000E+20
 30
1.000000000000000E+20
  9
$PEXTMAX
 10
-1.000000000000000E+20
 20
-1.000000000000000E+20
 30
-1.000000000000000E+20
  9
$PLIMMIN
 10
0.0
 20
0.0
  9
$PLIMMAX
 10
841.0
 20
594.0
  9
$UNITMODE
 70
     0
  9
$VISRETAIN
 70
     1
  9
$PLINEGEN
 70
     0
  9
$PSLTSCALE
 70
     0
  9
$TREEDEPTH
 70
  3020
  9
$PICKSTYLE
 70
     0
  9
$CMLSTYLE
  2
STANDARD
  9
$CMLJUST
 70
     0
  9
$CMLSCALE
 40
20.0
  9
$PROXYGRAPHICS
 70
     1
  9
$MEASUREMENT
 70
     1
  0
ENDSEC
  0
SECTION
  2
CLASSES
  0
CLASS
  1
ACDBDICTIONARYWDFLT
  2
AcDbDictionaryWithDefault
  3
AutoCAD 2000
 90
        0
280
     0
281
     0
  0
CLASS
  1
ACDBPLACEHOLDER
  2
AcDbPlaceHolder
  3
AutoCAD 2000
 90
        0
280
     0
281
     0
  0
CLASS
  1
LAYOUT
  2
AcDbLayout
  3
AutoCAD 2000
 90
        0
280
     0
281
     0
  0
CLASS
  1
AMGSETTINGSOBJ
  2
AmgSettingsObj
  3
"AcadM|Product Description: AutoCAD Mechanical 2000|Company: Autodesk"
 90
        0
280
     0
281
     0
  0
CLASS
  1
ACME_DOCUMENT
  2
AcMeDbDoc
  3
AcMeServices
 90
        0
280
     0
281
     0
  0
CLASS
  1
ACMESCOPE
  2
AcMeScope
  3
AcMeServices
 90
        0
280
     0
281
     0
  0
CLASS
  1
ACMECOMMANDHISTORY
  2
AcMeCommandHistory
  3
AcMeServices
 90
        0
280
     0
281
     0
  0
CLASS
  1
DICTIONARYVAR
  2
AcDbDictionaryVar
  3
AutoCAD 2000
 90
        0
280
     0
281
     0
  0
CLASS
  1
ACIMSYSVARMAN
  2
AcImSysVarManager
  3
AcMeServices
 90
        0
280
     0
281
     0
  0
CLASS
  1
ACIMREALSYSVAR
  2
AcImRealSysVar
  3
AcMeServices
 90
        0
280
     0
281
     0
  0
CLASS
  1
ACIMINTSYSVAR
  2
AcImIntSysVar
  3
AcMeServices
 90
        0
280
     0
281
     0
  0
CLASS
  1
ACMEDRAWINGMAN
  2
AcMeDrawingMan
  3
AcMeServices
 90
        0
280
     0
281
     0
  0
CLASS
  1
ACMEVIEW
  2
AcMeView
  3
AcMeServices
 90
        0
280
     0
281
     0
  0
CLASS
  1
ACDBENTITYCACHE
  2
AcMeEntityCache
  3
AcMeServices
 90
        0
280
     0
281
     0
  0
CLASS
  1
GSMANAGER
  2
AcMeGSManager
  3
AcMeServices
 90
        0
280
     0
281
     0
  0
CLASS
  1
AmdtInternalReactor
  2
AmdtInternalReactor
  3
AcMeServices
 90
        0
280
     0
281
     0
  0
CLASS
  1
ACMESTATEMGR
  2
AcMeStateMgr
  3
AcMeServices
 90
        0
280
     0
281
     0
  0
CLASS
  1
ACME_DATABASE
  2
AcMeDbDatabase
  3
AcMeServices
 90
        0
280
     0
281
     0
  0
CLASS
  1
ACRFINSADJUSTERMGR
  2
AcRfInsAdjusterMgr
  3
AcMeServices
 90
        0
280
     0
281
     0
  0
CLASS
  1
ACMDATADICTIONARY
  2
AcmDataDictionary
  3
"AcmSymBB|Product Description: AutoCAD Mechanical 2000|Company: Autodesk"
 90
        0
280
     0
281
     0
  0
CLASS
  1
ACMDATAENTRYBLOCK
  2
AcmDataEntryBlock
  3
"AcmSymBB|Product Description: AutoCAD Mechanical 2000|Company: Autodesk"
 90
        0
280
     0
281
     0
  0
CLASS
  1
AMGOBJPROPCFG
  2
AmgObjPropCfg
  3
"AmgLay|Product Description: AutoCAD Mechanical 2000|Company: Autodesk"
 90
        1
280
     0
281
     0
  0
CLASS
  1
ACAMGFILTERDAT
  2
AcAmgFilterDat
  3
"AcadM|Product Description: AutoCAD Mechanical 2000|Company: Autodesk"
 90
        0
280
     0
281
     0
  0
CLASS
  1
LAYER_INDEX
  2
AcDbLayerIndex
  3
AutoCAD 2000
 90
        0
280
     0
281
     0
  0
CLASS
  1
IDBUFFER
  2
AcDbIdBuffer
  3
AutoCAD 2000
 90
        0
280
     0
281
     0
  0
CLASS
  1
ACIMSTRSYSVAR
  2
AcImStrSysVar
  3
AcMeServices
 90
        0
280
     0
281
     0
  0
CLASS
  1
ACMSTANDARDJIS
  2
AcmStandardJIS
  3
"AcmSymBB|Product Description: AutoCAD Mechanical 2000|Company: Autodesk"
 90
        0
280
     0
281
     0
  0
CLASS
  1
ACMSURFSTANDARDJIS
  2
AcmSurfTextStdJIS
  3
"AcmSymBB|Product Description: AutoCAD Mechanical 2000|Company: Autodesk"
 90
        0
280
     0
281
     0
  0
CLASS
  1
ACMFCFSTANDARDJIS
  2
AcmFCFStdJIS
  3
"AcmSymBB|Product Description: AutoCAD Mechanical 2000|Company: Autodesk"
 90
        0
280
     0
281
     0
  0
CLASS
  1
ACMWELDSTANDARDJIS
  2
AcmWeldingStdJIS
  3
"AcmSymBB|Product Description: AutoCAD Mechanical 2000|Company: Autodesk"
 90
        0
280
     0
281
     0
  0
CLASS
  1
ACMIDSTANDARDJIS
  2
AcmIdStdJIS
  3
"AcmSymBB|Product Description: AutoCAD Mechanical 2000|Company: Autodesk"
 90
        0
280
     0
281
     0
  0
CLASS
  1
ACMDATUMSTANDARDJIS
  2
AcmDatumStdJIS
  3
"AcmSymBB|Product Description: AutoCAD Mechanical 2000|Company: Autodesk"
 90
        0
280
     0
281
     0
  0
CLASS
  1
ACMBOMSTANDARDJIS
  2
AcmBOMStdJIS
  3
"AcmSymBB|Product Description: AutoCAD Mechanical 2000|Company: Autodesk"
 90
        0
280
     0
281
     0
  0
CLASS
  1
ACMSTANDARDANSI
  2
AcmStandardANSI
  3
"AcmSymBB|Product Description: AutoCAD Mechanical 2000|Company: Autodesk"
 90
        0
280
     0
281
     0
  0
CLASS
  1
ACMSURFSTANDARDANSI
  2
AcmSurfTextStdANSI
  3
"AcmSymBB|Product Description: AutoCAD Mechanical 2000|Company: Autodesk"
 90
        0
280
     0
281
     0
  0
CLASS
  1
ACMFCFSTANDARDANSI
  2
AcmFCFStdANSI
  3
"AcmSymBB|Product Description: AutoCAD Mechanical 2000|Company: Autodesk"
 90
        0
280
     0
281
     0
  0
CLASS
  1
ACMWELDSTANDARDANSI
  2
AcmWeldingStdANSI
  3
"AcmSymBB|Product Description: AutoCAD Mechanical 2000|Company: Autodesk"
 90
        0
280
     0
281
     0
  0
CLASS
  1
ACMIDSTANDARDANSI
  2
AcmIdStdANSI
  3
"AcmSymBB|Product Description: AutoCAD Mechanical 2000|Company: Autodesk"
 90
        0
280
     0
281
     0
  0
CLASS
  1
ACMDATUMSTANDARDANSI
  2
AcmDatumStdANSI
  3
"AcmSymBB|Product Description: AutoCAD Mechanical 2000|Company: Autodesk"
 90
        0
280
     0
281
     0
  0
CLASS
  1
ACMBOMSTANDARDANSI
  2
AcmBOMStdANSI
  3
"AcmSymBB|Product Description: AutoCAD Mechanical 2000|Company: Autodesk"
 90
        0
280
     0
281
     0
  0
CLASS
  1
ACMSTANDARDBSI
  2
AcmStandardBSI
  3
"AcmSymBB|Product Description: AutoCAD Mechanical 2000|Company: Autodesk"
 90
        0
280
     0
281
     0
  0
CLASS
  1
ACMSURFSTANDARDBSI
  2
AcmSurfTextStdBSI
  3
"AcmSymBB|Product Description: AutoCAD Mechanical 2000|Company: Autodesk"
 90
        0
280
     0
281
     0
  0
CLASS
  1
ACMFCFSTANDARDBSI
  2
AcmFCFStdBSI
  3
"AcmSymBB|Product Description: AutoCAD Mechanical 2000|Company: Autodesk"
 90
        0
280
     0
281
     0
  0
CLASS
  1
ACMWELDSTANDARDBSI
  2
AcmWeldingStdBSI
  3
"AcmSymBB|Product Description: AutoCAD Mechanical 2000|Company: Autodesk"
 90
        0
280
     0
281
     0
  0
CLASS
  1
ACMIDSTANDARDBSI
  2
AcmIdStdBSI
  3
"AcmSymBB|Product Description: AutoCAD Mechanical 2000|Company: Autodesk"
 90
        0
280
     0
281
     0
  0
CLASS
  1
ACMDATUMSTANDARDBSI
  2
AcmDatumStdBSI
  3
"AcmSymBB|Product Description: AutoCAD Mechanical 2000|Company: Autodesk"
 90
        0
280
     0
281
     0
  0
CLASS
  1
ACMBOMSTANDARDBSI
  2
AcmBOMStdBSI
  3
"AcmSymBB|Product Description: AutoCAD Mechanical 2000|Company: Autodesk"
 90
        0
280
     0
281
     0
  0
CLASS
  1
STDPART2D
  2
AmgStdPart
  3
"AmgStdPart|Product Description: AutoCAD Mechanical 2000|Company: Autodesk"
 90
     1023
280
     0
281
     1
  0
CLASS
  1
PLOTSETTINGS
  2
AcDbPlotSettings
  3
AutoCAD 2000
 90
        0
280
     0
281
     0
  0
CLASS
  1
LONG_TRANSACTION
  2
AcDbLongTransaction
  3
AutoCAD 2000
 90
        0
280
     0
281
     0
  0
CLASS
  1
LWPOLYLINE
  2
AcDbPolyline
  3
AutoCAD 2000
 90
        0
280
     0
281
     1
  0
CLASS
  1
HATCH
  2
AcDbHatch
  3
AutoCAD 2000
 90
        0
280
     0
281
     1
  0
CLASS
  1
XRECORD
  2
AcDbXrecord
  3
AutoCAD 2000
 90
        0
280
     0
281
     0
  0
ENDSEC
  0
SECTION
  2
TABLES
  0
TABLE
  2
VPORT
  5
8
330
0
100
AcDbSymbolTable
 70
     3
  0
VPORT
  5
7C8E
330
8
100
AcDbSymbolTableRecord
100
AcDbViewportTableRecord
  2
*ACTIVE
 70
     0
 10
0.0
 20
0.0
 11
1.0
 21
1.0
 12
-45.63090967185527
 22
24.6624400742885
 13
0.0
 23
0.0
 14
2.5
 24
2.5
 15
10.0
 25
10.0
 16
0.0
 26
0.0
 36
1.0
 17
0.0
 27
0.0
 37
0.0
 40
208.8703355302089
 41
1.609042553191489
 42
50.0
 43
0.0
 44
0.0
 50
0.0
 51
0.0
 71
     0
 72
   100
 73
     1
 74
     3
 75
     0
 76
     0
 77
     0
 78
     0
  0
ENDTAB
  0
TABLE
  2
LTYPE
  5
5
330
0
100
AcDbSymbolTable
 70
    10
  0
LTYPE
  5
14
330
5
100
AcDbSymbolTableRecord
100
AcDbLinetypeTableRecord
  2
BYBLOCK
 70
     0
  3

 72
    65
 73
     0
 40
0.0
  0
LTYPE
  5
15
330
5
100
AcDbSymbolTableRecord
100
AcDbLinetypeTableRecord
  2
BYLAYER
 70
     0
  3

 72
    65
 73
     0
 40
0.0
  0
LTYPE
  5
16
330
5
100
AcDbSymbolTableRecord
100
AcDbLinetypeTableRecord
  2
CONTINUOUS
 70
     0
  3
Solid line
 72
    65
 73
     0
 40
0.0
  0
LTYPE
  5
4B
330
5
100
AcDbSymbolTableRecord
100
AcDbLinetypeTableRecord
  2
AM_ISO02W050
 70
     0
  3
__ __ __ __ __ __ __ __ __ __ __ __ __ __ __
 72
    65
 73
     2
 40
7.5
 49
6.0
 74
     0
 49
-1.5
 74
     0
  0
LTYPE
  5
4C
330
5
100
AcDbSymbolTableRecord
100
AcDbLinetypeTableRecord
  2
AM_ISO08W050
 70
     0
  3
____ . ____ . ____ . ____ . ____ . ____ . ____
 72
    65
 73
     4
 40
18.0
 49
12.0
 74
     0
 49
-1.5
 74
     0
 49
3.0
 74
     0
 49
-1.5
 74
     0
  0
LTYPE
  5
4D
330
5
100
AcDbSymbolTableRecord
100
AcDbLinetypeTableRecord
  2
AM_ISO09W050
 70
     0
  3
_____ . . _____ . . _____ . . ____ .. ____
 72
    65
 73
     6
 40
22.5
 49
12.0
 74
     0
 49
-1.5
 74
     0
 49
3.0
 74
     0
 49
-1.5
 74
     0
 49
3.0
 74
     0
 49
-1.5
 74
     0
  0
LTYPE
  5
4E
330
5
100
AcDbSymbolTableRecord
100
AcDbLinetypeTableRecord
  2
AMCONSTR
 70
     0
  3
_______________________
 72
    65
 73
     2
 40
9999.0
 49
9999.0
 74
     0
 49
0.0
 74
     0
  0
LTYPE
  5
4F
330
5
100
AcDbSymbolTableRecord
100
AcDbLinetypeTableRecord
  2
AM_ISO02W050X2
 70
     0
  3
 _ _ _ _ _ _ _ _ _ _ _ _
 72
    65
 73
     2
 40
3.75
 49
3.0
 74
     0
 49
-0.75
 74
     0
  0
LTYPE
  5
50
330
5
100
AcDbSymbolTableRecord
100
AcDbLinetypeTableRecord
  2
AM_ISO08W050X2
 70
     0
  3
__ . __ . __ . __ . __ . __
 72
    65
 73
     4
 40
9.0
 49
6.0
 74
     0
 49
-0.75
 74
     0
 49
1.5
 74
     0
 49
-0.75
 74
     0
  0
LTYPE
  5
53
330
5
100
AcDbSymbolTableRecord
100
AcDbLinetypeTableRecord
  2
AMZIGZAG
 70
     0
  3
/\/-/\/-/\/-/\/-/\/-/\/
 72
    65
 73
     2
 40
11.00009999999999
 49
0.0001
 74
     4
 75
   135
340
52
 46
0.04
 50
0.0
 44
0.0
 45
0.0
 49
-11.0
 74
     0
  0
LTYPE
  5
166
330
5
100
AcDbSymbolTableRecord
100
AcDbLinetypeTableRecord
  2
ACJISTGL
 70
     0
  3
_ _ _ _ _
 72
    65
 73
     2
 40
3.0
 49
2.0
 74
     0
 49
-1.0
 74
     0
  0
LTYPE
  5
26A
330
5
100
AcDbSymbolTableRecord
100
AcDbLinetypeTableRecord
  2
ACJISTGB
 70
     0
  3
__ . . __ . .
 72
    65
 73
     6
 40
9.0
 49
4.0
 74
     0
 49
-1.0
 74
     0
 49
1.0
 74
     0
 49
-1.0
 74
     0
 49
1.0
 74
     0
 49
-1.0
 74
     0
  0
ENDTAB
  0
TABLE
  2
LAYER
  5
2
330
0
100
AcDbSymbolTable
 70
     9
  0
LAYER
  5
10
330
2
100
AcDbSymbolTableRecord
100
AcDbLayerTableRecord
  2
0
 70
     0
 62
     7
  6
CONTINUOUS
  0
LAYER
  5
3F9
330
2
100
AcDbSymbolTableRecord
100
AcDbLayerTableRecord
  2
AM_0
 70
     0
 62
     7
  6
CONTINUOUS
  0
LAYER
  5
BA4
330
2
100
AcDbSymbolTableRecord
100
AcDbLayerTableRecord
  2
AM_5
 70
     0
 62
     3
  6
CONTINUOUS
  0
LAYER
  5
BA6
330
2
100
AcDbSymbolTableRecord
100
AcDbLayerTableRecord
  2
AM_7
 70
     0
 62
     4
  6
AM_ISO08W050
  0
LAYER
  5
E64
330
2
100
AcDbSymbolTableRecord
100
AcDbLayerTableRecord
  2
AM_6
 70
     0
 62
     2
  6
CONTINUOUS
  0
LAYER
  5
F4D
330
2
100
AcDbSymbolTableRecord
100
AcDbLayerTableRecord
  2
DEFPOINTS
 70
     0
 62
     7
  6
CONTINUOUS
  0
LAYER
  5
2382
330
2
100
AcDbSymbolTableRecord
100
AcDbLayerTableRecord
  2
AM_3
 70
     0
 62
     6
  6
ACJISTGL
  0
LAYER
  5
4E80
330
2
100
AcDbSymbolTableRecord
100
AcDbLayerTableRecord
  2
AM_11
 70
     0
 62
     3
  6
AM_ISO09W050
  0
LAYER
  5
6941
330
2
100
AcDbSymbolTableRecord
100
AcDbLayerTableRecord
  2
PV0001_1
 70
     0
 62
     7
  6
CONTINUOUS
  0
ENDTAB
  0
TABLE
  2
STYLE
  5
3
330
0
100
AcDbSymbolTable
 70
     5
  0
STYLE
  5
11
330
3
100
AcDbSymbolTableRecord
100
AcDbTextStyleTableRecord
  2
STANDARD
 70
     0
 40
0.0
 41
1.0
 50
0.0
 71
     0
 42
2.5
  3
simplex.shx
  4
EXTFONT.SHX
  0
STYLE
  5
52
330
3
100
AcDbSymbolTableRecord
100
AcDbTextStyleTableRecord
  2

 70
     1
 40
0.0
 41
1.0
 50
0.0
 71
     0
 42
2.5
  3
ltypeshp.shx
  4

  0
STYLE
  5
6B
330
3
100
AcDbSymbolTableRecord
100
AcDbTextStyleTableRecord
  2
ASAMI
 70
     0
 40
0.0
 41
1.0
 50
0.0
 71
     0
 42
2.5
  3
simplex.shx
  4
EXTFONT.SHX
  0
STYLE
  5
262
330
3
100
AcDbSymbolTableRecord
100
AcDbTextStyleTableRecord
  2
ACJISTS
 70
     0
 40
1.0
 41
1.0
 50
0.0
 71
     0
 42
2.5
  3
simplex.shx
  4
bigfont.shx
  0
STYLE
  5
269
330
3
100
AcDbSymbolTableRecord
100
AcDbTextStyleTableRecord
  2
ACJISGDT
 70
     0
 40
0.0
 41
1.0
 50
0.0
 71
     0
 42
2.5
  3
amgdtans.shx
  4

  0
ENDTAB
  0
TABLE
  2
VIEW
  5
6
330
0
100
AcDbSymbolTable
 70
     0
  0
ENDTAB
  0
TABLE
  2
UCS
  5
7
330
0
100
AcDbSymbolTable
 70
     0
  0
ENDTAB
  0
TABLE
  2
APPID
  5
9
330
0
100
AcDbSymbolTable
 70
    24
  0
APPID
  5
12
330
9
100
AcDbSymbolTableRecord
100
AcDbRegAppTableRecord
  2
ACAD
 70
     0
  0
APPID
  5
30
330
9
100
AcDbSymbolTableRecord
100
AcDbRegAppTableRecord
  2
MCAD_NO_VIS
 70
     0
  0
APPID
  5
31
330
9
100
AcDbSymbolTableRecord
100
AcDbRegAppTableRecord
  2
ACAD_TEMP_GRAPHIC
 70
     0
  0
APPID
  5
2C2
330
9
100
AcDbSymbolTableRecord
100
AcDbRegAppTableRecord
  2
GENIUS_GENDTOL_13
 70
     0
  0
APPID
  5
339
330
9
100
AcDbSymbolTableRecord
100
AcDbRegAppTableRecord
  2
GENIUS_GENODEF_13
 70
     0
  0
APPID
  5
33A
330
9
100
AcDbSymbolTableRecord
100
AcDbRegAppTableRecord
  2
GENIUS_GENOBJ-N-RSBK_13
 70
     0
  0
APPID
  5
33B
330
9
100
AcDbSymbolTableRecord
100
AcDbRegAppTableRecord
  2
GENIUS_GENOBJ-N-LIB_13
 70
     0
  0
APPID
  5
33C
330
9
100
AcDbSymbolTableRecord
100
AcDbRegAppTableRecord
  2
GENIUS_GENSCALE_13
 70
     0
  0
APPID
  5
378
330
9
100
AcDbSymbolTableRecord
100
AcDbRegAppTableRecord
  2
GENIUS_GENDIMSH_14
 70
     0
  0
APPID
  5
BB0
330
9
100
AcDbSymbolTableRecord
100
AcDbRegAppTableRecord
  2
GENIUS_GENOBJ-N-CEN_13
 70
     0
  0
APPID
  5
BB1
330
9
100
AcDbSymbolTableRecord
100
AcDbRegAppTableRecord
  2
GENIUS_GENFIL_13
 70
     0
  0
APPID
  5
BB2
330
9
100
AcDbSymbolTableRecord
100
AcDbRegAppTableRecord
  2
GENIUS_GENOBJ-N-CHA_13
 70
     0
  0
APPID
  5
1FAF
330
9
100
AcDbSymbolTableRecord
100
AcDbRegAppTableRecord
  2
GENIUS_GENOBJ-N-CRS_13
 70
     0
  0
APPID
  5
1FB0
330
9
100
AcDbSymbolTableRecord
100
AcDbRegAppTableRecord
  2
GENIUS_GENOENT_13
 70
     0
  0
APPID
  5
1FB1
330
9
100
AcDbSymbolTableRecord
100
AcDbRegAppTableRecord
  2
GENIUS_GENOREF_13
 70
     0
  0
APPID
  5
1FB2
330
9
100
AcDbSymbolTableRecord
100
AcDbRegAppTableRecord
  2
GENIUS_GENOLIS_13
 70
     0
  0
APPID
  5
1FB7
330
9
100
AcDbSymbolTableRecord
100
AcDbRegAppTableRecord
  2
GENIUS_GENOBJ-N-FIL_13
 70
     0
  0
APPID
  5
22A8
330
9
100
AcDbSymbolTableRecord
100
AcDbRegAppTableRecord
  2
GEVID1056506048
 70
     0
  0
APPID
  5
22A9
330
9
100
AcDbSymbolTableRecord
100
AcDbRegAppTableRecord
  2
GEVDC
 70
     0
  0
APPID
  5
22AC
330
9
100
AcDbSymbolTableRecord
100
AcDbRegAppTableRecord
  2
GENIUS_GENBH_13
 70
     0
  0
APPID
  5
22B8
330
9
100
AcDbSymbolTableRecord
100
AcDbRegAppTableRecord
  2
GENIUS_GENOBJ-NBEHI-BHF_13
 70
     0
  0
APPID
  5
22BA
330
9
100
AcDbSymbolTableRecord
100
AcDbRegAppTableRecord
  2
GENIUS_GENOBJ-NBEHI-BHB_13
 70
     0
  0
APPID
  5
35C9
330
9
100
AcDbSymbolTableRecord
100
AcDbRegAppTableRecord
  2
GENIUS_GENREC_14
 70
     0
  0
APPID
  5
35CA
330
9
100
AcDbSymbolTableRecord
100
AcDbRegAppTableRecord
  2
GENIUS_GENOBJ-N-REC_13
 70
     0
  0
ENDTAB
  0
TABLE
  2
DIMSTYLE
  5
A
330
0
100
AcDbSymbolTable
 70
     9
  0
DIMSTYLE
105
58
330
A
100
AcDbSymbolTableRecord
100
AcDbDimStyleTableRecord
  2
AM_JIS
 70
     0
  3

  4
"
  5
OPEN30
  6

  7

 40
0.5
 41
2.5
 42
1.0
 43
12.0
 44
1.0
 45
0.0
 46
0.0
 47
0.1
 48
0.1
140
3.2
141
0.0
142
0.0
143
0.0393701
144
1.0
145
0.0
146
0.71
147
1.5
 71
     0
 72
     0
 73
     0
 74
     0
 75
     0
 76
     0
 77
     3
 78
     8
170
     0
171
     2
172
     1
173
     0
174
     0
175
     0
176
   256
177
   256
178
     2
270
     2
271
     3
272
     3
273
     2
274
     2
340
6B
275
     0
280
     0
281
     0
282
     0
283
     0
284
     0
285
     0
286
     0
287
     3
288
     0
  0
DIMSTYLE
105
5F
330
A
100
AcDbSymbolTableRecord
100
AcDbDimStyleTableRecord
  2
AM_JIS$3
 70
     0
  3

  4
"
  5
OPEN30
  6

  7

 40
0.5
 41
2.5
 42
1.0
 43
10.0
 44
1.0
 45
0.0
 46
0.0
 47
0.1
 48
0.1
140
3.2
141
0.0
142
0.0
143
0.0393701
144
1.0
145
0.0
146
0.71
147
1.5
 71
     0
 72
     0
 73
     0
 74
     1
 75
     0
 76
     0
 77
     3
 78
     8
170
     0
171
     2
172
     0
173
     0
174
     0
175
     0
176
   256
177
   256
178
     2
270
     2
271
     2
272
     3
273
     2
274
     2
340
6B
275
     0
280
     0
281
     0
282
     0
283
     0
284
     0
285
     0
286
     0
287
     0
288
     1
  0
DIMSTYLE
105
60
330
A
100
AcDbSymbolTableRecord
100
AcDbDimStyleTableRecord
  2
AM_JIS$4
 70
     0
  3

  4
"
  5
OPEN30
  6

  7

 40
0.5
 41
2.5
 42
1.0
 43
10.0
 44
1.0
 45
0.0
 46
0.0
 47
0.1
 48
0.1
140
3.2
141
0.0
142
0.0
143
0.0393701
144
1.0
145
0.0
146
0.71
147
1.5
 71
     0
 72
     0
 73
     0
 74
     1
 75
     0
 76
     0
 77
     3
 78
     8
170
     0
171
     2
172
     0
173
     0
174
     0
175
     0
176
   256
177
   256
178
     2
270
     2
271
     2
272
     3
273
     2
274
     2
340
6B
275
     0
280
     0
281
     0
282
     0
283
     0
284
     0
285
     0
286
     0
287
     0
288
     1
  0
DIMSTYLE
105
61
330
A
100
AcDbSymbolTableRecord
100
AcDbDimStyleTableRecord
  2
AM_JIS$6
 70
     0
  3

  4
"
  5
OPEN30
  6

  7

 40
0.5
 41
2.5
 42
1.0
 43
10.0
 44
1.0
 45
0.0
 46
0.0
 47
0.1
 48
0.1
140
3.2
141
0.0
142
0.0
143
0.0393701
144
1.0
145
0.0
146
0.71
147
1.5
 71
     0
 72
     0
 73
     0
 74
     0
 75
     0
 76
     0
 77
     0
 78
     8
170
     0
171
     2
172
     1
173
     0
174
     0
175
     0
176
   256
177
   256
178
     2
270
     2
271
     2
272
     2
273
     2
274
     2
340
6B
275
     0
280
     0
281
     0
282
     0
283
     0
284
     0
285
     0
286
     0
287
     3
288
     0
  0
DIMSTYLE
105
62
330
A
100
AcDbSymbolTableRecord
100
AcDbDimStyleTableRecord
  2
AM_JIS$7
 70
     0
  3

  4
"
  5
OPEN30
  6

  7

 40
0.5
 41
2.5
 42
1.0
 43
10.0
 44
1.0
 45
0.0
 46
0.0
 47
0.1
 48
0.1
140
3.2
141
0.0
142
0.0
143
0.0393701
144
1.0
145
0.0
146
0.71
147
1.5
 71
     0
 72
     0
 73
     0
 74
     0
 75
     0
 76
     0
 77
     3
 78
     8
170
     0
171
     2
172
     1
173
     0
174
     0
175
     0
176
   256
177
   256
178
     2
270
     2
271
     2
272
     3
273
     2
274
     2
340
6B
275
     0
280
     0
281
     0
282
     0
283
     0
284
     0
285
     0
286
     0
287
     3
288
     0
  0
DIMSTYLE
105
63
330
A
100
AcDbSymbolTableRecord
100
AcDbDimStyleTableRecord
  2
AM_JIS$SF
 70
     0
  3

  4
"
  5
OPEN30
  6

  7

 40
0.5
 41
2.5
 42
1.0
 43
10.0
 44
1.0
 45
0.0
 46
0.0
 47
0.1
 48
0.1
140
3.2
141
0.0
142
0.0
143
0.0393701
144
1.0
145
0.0
146
0.71
147
1.5
 71
     0
 72
     0
 73
     0
 74
     0
 75
     1
 76
     1
 77
     3
 78
     8
170
     0
171
     2
172
     1
173
     0
174
     0
175
     0
176
   256
177
   256
178
     2
270
     2
271
     2
272
     2
273
     2
274
     2
340
6B
275
     0
280
     0
281
     0
282
     0
283
     0
284
     0
285
     0
286
     0
287
     3
288
     0
  0
DIMSTYLE
105
68
330
A
100
AcDbSymbolTableRecord
100
AcDbDimStyleTableRecord
  2
AM_JIS$SH
 70
     0
  3

  4
"
  5

  6
GENAXEH
  7
OPEN30
 40
0.5
 41
2.5
 42
1.0
 43
10.0
 44
1.0
 45
0.0
 46
0.0
 47
0.1
 48
0.1
140
3.2
141
0.0
142
0.0
143
0.0393701
144
2.0
145
0.0
146
0.71
147
1.5
 71
     0
 72
     0
 73
     0
 74
     0
 75
     1
 76
     1
 77
     3
 78
     8
170
     0
171
     2
172
     1
173
     1
174
     0
175
     0
176
   256
177
   256
178
     2
270
     2
271
     2
272
     2
273
     2
274
     2
340
6B
275
     0
280
     0
281
     0
282
     0
283
     0
284
     0
285
     0
286
     0
287
     3
288
     0
  0
DIMSTYLE
105
B34
330
A
100
AcDbSymbolTableRecord
100
AcDbDimStyleTableRecord
  2
AM_JIS$2
 70
     0
  3

  4
"
  5
OPEN30
  6

  7

 40
0.5
 41
2.5
 42
1.0
 43
12.0
 44
1.0
 45
0.0
 46
0.0
 47
0.1
 48
0.1
140
3.2
141
0.0
142
0.0
143
0.0393701
144
1.0
145
0.0
146
0.71
147
1.5
 71
     0
 72
     0
 73
     0
 74
     0
 75
     0
 76
     0
 77
     3
 78
     8
170
     0
171
     2
172
     1
173
     0
174
     0
175
     0
176
   256
177
   256
178
     2
270
     2
271
     3
272
     3
273
     2
274
     2
340
6B
275
     0
280
     0
281
     0
282
     0
283
     0
284
     0
285
     0
286
     0
287
     3
288
     0
  0
DIMSTYLE
105
3B48
102
{ACAD_REACTORS
330
78B3
330
7823
330
795E
330
79F3
330
7AB1
330
7B45
102
}
330
A
100
AcDbSymbolTableRecord
100
AcDbDimStyleTableRecord
  2
AM_JIS$0
 70
     0
  3

  4
"
  5
OPEN30
  6

  7

 40
1.0
 41
2.5
 42
0.0
 43
10.0
 44
1.0
 45
0.0
 46
0.0
 47
0.1
 48
0.1000000001
140
3.799999999999999
141
0.0
142
0.0
143
0.0393701
144
1.0
145
0.0
146
0.71
147
1.5
 71
     0
 72
     0
 73
     0
 74
     0
 75
     0
 76
     0
 77
     3
 78
     1
170
     0
171
     2
172
     1
173
     0
174
     0
175
     0
176
     3
177
     3
178
     2
270
     2
271
     2
272
     2
273
     2
274
     2
340
11
275
     1
280
     0
281
     0
282
     0
283
     0
284
     8
285
     0
286
     0
287
     0
288
     0
  0
ENDTAB
  0
TABLE
  2
BLOCK_RECORD
  5
1
330
0
100
AcDbSymbolTable
 70
    13
  0
BLOCK_RECORD
  5
1F
102
{ACAD_XDICTIONARY
360
74
102
}
330
1
100
AcDbSymbolTableRecord
100
AcDbBlockTableRecord
  2
*MODEL_SPACE
  0
BLOCK_RECORD
  5
101
102
{ACAD_XDICTIONARY
360
7CB7
102
}
330
1
100
AcDbSymbolTableRecord
100
AcDbBlockTableRecord
  2
*PAPER_SPACE
  0
BLOCK_RECORD
  5
59
330
1
100
AcDbSymbolTableRecord
100
AcDbBlockTableRecord
  2
_OPEN30
  0
BLOCK_RECORD
  5
64
330
1
100
AcDbSymbolTableRecord
100
AcDbBlockTableRecord
  2
GENAXEH
  0
BLOCK_RECORD
  5
689C
330
1
100
AcDbSymbolTableRecord
100
AcDbBlockTableRecord
  2
*U5
  0
BLOCK_RECORD
  5
68A0
330
1
100
AcDbSymbolTableRecord
100
AcDbBlockTableRecord
  2
*U6
  0
BLOCK_RECORD
  5
7824
330
1
100
AcDbSymbolTableRecord
100
AcDbBlockTableRecord
  2
*D7
  0
BLOCK_RECORD
  5
78B4
330
1
100
AcDbSymbolTableRecord
100
AcDbBlockTableRecord
  2
*D8
  0
BLOCK_RECORD
  5
795F
330
1
100
AcDbSymbolTableRecord
100
AcDbBlockTableRecord
  2
*D9
  0
BLOCK_RECORD
  5
79F4
330
1
100
AcDbSymbolTableRecord
100
AcDbBlockTableRecord
  2
*D10
  0
BLOCK_RECORD
  5
7AB2
330
1
100
AcDbSymbolTableRecord
100
AcDbBlockTableRecord
  2
*D11
  0
BLOCK_RECORD
  5
7B46
330
1
100
AcDbSymbolTableRecord
100
AcDbBlockTableRecord
  2
*D12
  0
ENDTAB
  0
ENDSEC
  0
SECTION
  2
BLOCKS
  0
BLOCK
  5
20
330
1F
100
AcDbEntity
  8
0
100
AcDbBlockBegin
  2
*MODEL_SPACE
 70
     0
 10
0.0
 20
0.0
 30
0.0
  3
*MODEL_SPACE
  1

  0
ENDBLK
  5
21
330
1F
100
AcDbEntity
  8
0
100
AcDbBlockEnd
  0
BLOCK
  5
103
330
101
100
AcDbEntity
 67
     1
  8
0
100
AcDbBlockBegin
  2
*PAPER_SPACE
 70
     0
 10
0.0
 20
0.0
 30
0.0
  3
*PAPER_SPACE
  1

  0
ENDBLK
  5
104
330
101
100
AcDbEntity
 67
     1
  8
0
100
AcDbBlockEnd
  0
BLOCK
  5
5D
330
59
100
AcDbEntity
  8
0
100
AcDbBlockBegin
  2
_OPEN30
 70
     0
 10
0.0
 20
0.0
 30
0.0
  3
_OPEN30
  1

  0
LINE
  5
5A
330
59
100
AcDbEntity
  8
0
 62
     0
100
AcDbLine
 10
-1.0
 20
0.26794919
 30
0.0
 11
0.0
 21
0.0
 31
0.0
  0
LINE
  5
5B
330
59
100
AcDbEntity
  8
0
 62
     0
100
AcDbLine
 10
0.0
 20
0.0
 30
0.0
 11
-1.0
 21
-0.26794919
 31
0.0
  0
LINE
  5
5C
330
59
100
AcDbEntity
  8
0
 62
     0
100
AcDbLine
 10
0.0
 20
0.0
 30
0.0
 11
-1.0
 21
0.0
 31
0.0
  0
ENDBLK
  5
5E
330
59
100
AcDbEntity
  8
0
100
AcDbBlockEnd
  0
BLOCK
  5
66
330
64
100
AcDbEntity
  8
0
100
AcDbBlockBegin
  2
GENAXEH
 70
     0
 10
0.0
 20
0.0
 30
0.0
  3
GENAXEH
  1

  0
LINE
  5
65
330
64
100
AcDbEntity
  8
0
100
AcDbLine
 10
-1.0
 20
0.0
 30
0.0
 11
1.0
 21
0.0
 31
0.0
  0
ENDBLK
  5
67
330
64
100
AcDbEntity
  8
0
100
AcDbBlockEnd
  0
BLOCK
  5
689E
330
689C
100
AcDbEntity
  8
0
100
AcDbBlockBegin
  2
*U5
 70
     1
 10
0.0
 20
0.0
 30
0.0
  3
*U5
  1

  0
LEADER
  5
689D
330
689C
100
AcDbEntity
  8
0
  6
CONTINUOUS
 48
0.5
100
AcDbLeader
  3
AM_JIS$7
 76
     2
 10
-35.56723785400299
 20
61.482246398925
 30
0.0
 10
-35.56723785400299
 20
51.482246398925
 30
0.0
1001
ACAD
1000
DSTYLE
1002
{
1070
     6
1000
OPEN30
1070
   173
1070
     1
1070
   176
1070
     0
1070
   341
1005
59
1002
}
  0
ENDBLK
  5
689F
330
689C
100
AcDbEntity
  8
0
100
AcDbBlockEnd
  0
BLOCK
  5
68A2
330
68A0
100
AcDbEntity
  8
0
100
AcDbBlockBegin
  2
*U6
 70
     1
 10
0.0
 20
0.0
 30
0.0
  3
*U6
  1

  0
LEADER
  5
68A1
330
68A0
100
AcDbEntity
  8
0
  6
CONTINUOUS
 48
0.5
100
AcDbLeader
  3
AM_JIS$7
 76
     2
 10
-25.567237854003
 20
51.482246398925
 30
0.0
 10
-35.56723785400299
 20
51.482246398925
 30
0.0
1001
ACAD
1000
DSTYLE
1002
{
1070
     6
1000
OPEN30
1070
   173
1070
     1
1070
   176
1070
     0
1070
   341
1005
59
1002
}
  0
ENDBLK
  5
68A3
330
68A0
100
AcDbEntity
  8
0
100
AcDbBlockEnd
  0
BLOCK
  5
782E
330
7824
100
AcDbEntity
  8
0
100
AcDbBlockBegin
  2
*D7
 70
     1
 10
0.0
 20
0.0
 30
0.0
  3
*D7
  1

  0
LINE
  5
7CB9
330
7824
100
AcDbEntity
  8
AM_5
100
AcDbLine
 10
-120.499972284667
 20
46.29861852510082
 30
0.0
 11
-135.4362941278694
 21
46.29861852510079
 31
0.0
  0
LINE
  5
7CBA
330
7824
100
AcDbEntity
  8
AM_5
100
AcDbLine
 10
-120.4999701479246
 20
30.43361875398337
 30
0.0
 11
-135.4362941278693
 21
30.43361875398334
 31
0.0
  0
LINE
  5
7CBB
330
7824
100
AcDbEntity
  8
AM_5
100
AcDbLine
 10
-134.9362941278694
 20
45.04861852510079
 30
0.0
 11
-134.9362941278693
 21
31.68361875398334
 31
0.0
  0
INSERT
  5
7CBC
330
7824
100
AcDbEntity
  8
AM_5
100
AcDbBlockReference
  2
_OPEN30
 10
-134.9362941278694
 20
46.29861852510079
 30
0.0
 41
1.25
 42
1.25
 43
1.25
 50
90.0000000000001
  0
INSERT
  5
7CBD
330
7824
100
AcDbEntity
  8
AM_5
100
AcDbBlockReference
  2
_OPEN30
 10
-134.9362941278693
 20
30.43361875398334
 30
0.0
 41
1.25
 42
1.25
 43
1.25
 50
270.0000000000001
  0
MTEXT
  5
7CBE
330
7824
100
AcDbEntity
  8
AM_5
 62
     2
100
AcDbMText
 10
-136.4862941278694
 20
38.36611863954206
 30
0.0
 40
1.6
 41
0.0
 71
     5
 72
     1
  1
16
  7
ASAMI
 11
-0.000000000000002
 21
1.0
 31
0.0
  0
POINT
  5
7CBF
330
7824
100
AcDbEntity
  8
DEFPOINTS
 62
     0
100
AcDbPoint
 10
-119.9999722846669
 20
46.29861852510109
 30
0.0
  0
POINT
  5
7CC0
330
7824
100
AcDbEntity
  8
DEFPOINTS
 62
     0
100
AcDbPoint
 10
-119.9999701479245
 20
30.43361875398364
 30
0.0
  0
POINT
  5
7CC1
330
7824
100
AcDbEntity
  8
DEFPOINTS
 62
     0
100
AcDbPoint
 10
-134.9362941278693
 20
30.43361875398364
 30
0.0
  0
ENDBLK
  5
782F
330
7824
100
AcDbEntity
  8
0
100
AcDbBlockEnd
  0
BLOCK
  5
78BE
330
78B4
100
AcDbEntity
  8
0
100
AcDbBlockBegin
  2
*D8
 70
     1
 10
0.0
 20
0.0
 30
0.0
  3
*D8
  1

  0
LINE
  5
7CC2
330
78B4
100
AcDbEntity
  8
AM_5
100
AcDbLine
 10
-120.4999663675514
 20
2.364900305082005
 30
0.0
 11
-135.4362919911264
 21
2.364900305081976
 31
0.0
  0
LINE
  5
7CC3
330
78B4
100
AcDbEntity
  8
AM_5
100
AcDbLine
 10
-120.4999642308082
 20
-13.50010518808186
 30
0.0
 11
-135.4362919911264
 21
-13.50010518808189
 31
0.0
  0
LINE
  5
7CC4
330
78B4
100
AcDbEntity
  8
AM_5
100
AcDbLine
 10
-134.9362919911264
 20
1.114900305081977
 30
0.0
 11
-134.9362919911264
 21
-12.25010518808189
 31
0.0
  0
INSERT
  5
7CC5
330
78B4
100
AcDbEntity
  8
AM_5
100
AcDbBlockReference
  2
_OPEN30
 10
-134.9362919911264
 20
2.364900305081977
 30
0.0
 41
1.25
 42
1.25
 43
1.25
 50
90.0000000000001
  0
INSERT
  5
7CC6
330
78B4
100
AcDbEntity
  8
AM_5
100
AcDbBlockReference
  2
_OPEN30
 10
-134.9362919911264
 20
-13.50010518808189
 30
0.0
 41
1.25
 42
1.25
 43
1.25
 50
270.0000000000001
  0
MTEXT
  5
7CC7
330
78B4
100
AcDbEntity
  8
AM_5
 62
     2
100
AcDbMText
 10
-136.4862919911264
 20
-5.567602441499955
 30
0.0
 40
1.6
 41
0.0
 71
     5
 72
     1
  1
16
  7
ASAMI
 11
-0.000000000000002
 21
1.0
 31
0.0
  0
POINT
  5
7CC8
330
78B4
100
AcDbEntity
  8
DEFPOINTS
 62
     0
100
AcDbPoint
 10
-119.9999663675513
 20
2.364900305082272
 30
0.0
  0
POINT
  5
7CC9
330
78B4
100
AcDbEntity
  8
DEFPOINTS
 62
     0
100
AcDbPoint
 10
-119.9999642308082
 20
-13.50010518808159
 30
0.0
  0
POINT
  5
7CCA
330
78B4
100
AcDbEntity
  8
DEFPOINTS
 62
     0
100
AcDbPoint
 10
-134.9362919911264
 20
-13.50010518808159
 30
0.0
  0
ENDBLK
  5
78BF
330
78B4
100
AcDbEntity
  8
0
100
AcDbBlockEnd
  0
BLOCK
  5
7969
330
795F
100
AcDbEntity
  8
0
100
AcDbBlockBegin
  2
*D9
 70
     1
 10
0.0
 20
0.0
 30
0.0
  3
*D9
  1

  0
LINE
  5
7CCB
330
795F
100
AcDbEntity
  8
AM_5
100
AcDbLine
 10
-119.9999664348927
 20
2.864900305082011
 30
0.0
 11
-119.9999687137445
 21
19.78504271759608
 31
0.0
  0
LINE
  5
7CCC
330
795F
100
AcDbEntity
  8
AM_5
100
AcDbLine
 10
0.0003931439554704
 20
0.4999809360293552
 30
0.0
 11
0.0003905465875819
 21
19.78505887957794
 31
0.0
  0
LINE
  5
7CCD
330
795F
100
AcDbEntity
  8
AM_5
100
AcDbLine
 10
-118.7499686464032
 20
19.28504288594956
 30
0.0
 11
-1.249609386071017
 21
19.28505871122447
 31
0.0
  0
INSERT
  5
7CCE
330
795F
100
AcDbEntity
  8
AM_5
100
AcDbBlockReference
  2
_OPEN30
 10
-119.9999686464031
 20
19.28504271759609
 30
0.0
 41
1.25
 42
1.25
 43
1.25
 50
180.0000077167547
  0
INSERT
  5
7CCF
330
795F
100
AcDbEntity
  8
AM_5
100
AcDbBlockReference
  2
_OPEN30
 10
0.0003906139289713
 20
19.28505887957795
 30
0.0
 41
1.25
 42
1.25
 43
1.25
 50
0.000007716754793
  0
MTEXT
  5
7CD0
330
795F
100
AcDbEntity
  8
AM_5
 62
     2
100
AcDbMText
 10
-59.99978922499542
 20
20.83505079858701
 30
0.0
 40
1.6
 41
0.0
 71
     5
 72
     1
  1
120
  7
ASAMI
 11
0.9999999999999911
 21
0.000000134682779
 31
0.0
  0
POINT
  5
7CD1
330
795F
100
AcDbEntity
  8
DEFPOINTS
 62
     0
100
AcDbPoint
 10
-119.9999663675513
 20
2.364900305082259
 30
0.0
  0
POINT
  5
7CD2
330
795F
100
AcDbEntity
  8
DEFPOINTS
 62
     0
100
AcDbPoint
 10
0.0003932112968599
 20
-0.0000190639706403
 30
0.0
  0
POINT
  5
7CD3
330
795F
100
AcDbEntity
  8
DEFPOINTS
 62
     0
100
AcDbPoint
 10
0.0003906139290103
 20
19.28505887957795
 30
0.0
  0
ENDBLK
  5
796A
330
795F
100
AcDbEntity
  8
0
100
AcDbBlockEnd
  0
BLOCK
  5
7A00
330
79F4
100
AcDbEntity
  8
0
100
AcDbBlockBegin
  2
*D10
 70
     1
 10
0.0
 20
0.0
 30
0.0
  3
*D10
  1

  0
LINE
  5
7CD4
330
79F4
100
AcDbEntity
  8
AM_5
100
AcDbLine
 10
0.0001139029051148
 20
0.4996403993630833
 30
0.0
 11
0.0001120549740411
 21
14.22025779323226
 31
0.0
  0
LINE
  5
7CD5
330
79F4
100
AcDbEntity
  8
AM_5
100
AcDbLine
 10
-3.60555727356597
 20
3.001207485312308
 30
0.0
 11
-3.605558784578935
 21
14.22025730761044
 31
0.0
  0
LINE
  5
7CD6
330
79F4
100
AcDbEntity
  8
AM_5
100
AcDbLine
 10
1.250112122315426
 20
13.72025796158575
 30
0.0
 11
2.500112122315415
 21
13.72025812993925
 31
0.0
  0
LINE
  5
7CD7
330
79F4
100
AcDbEntity
  8
AM_5
100
AcDbLine
 10
-4.855558717237527
 20
13.72025713925695
 30
0.0
 11
-10.95793966961842
 21
13.72025631737124
 31
0.0
  0
LINE
  5
7CD8
330
79F4
100
AcDbEntity
  8
AM_5
100
AcDbLine
 10
0.0001121223154377
 20
13.72025779323226
 30
0.0
 11
-3.605558717237539
 21
13.72025730761044
 31
0.0
  0
INSERT
  5
7CD9
330
79F4
100
AcDbEntity
  8
AM_5
100
AcDbBlockReference
  2
_OPEN30
 10
0.0001121223154377
 20
13.72025779323226
 30
0.0
 41
1.25
 42
1.25
 43
1.25
 50
180.0000077167556
  0
INSERT
  5
7CDA
330
79F4
100
AcDbEntity
  8
AM_5
100
AcDbBlockReference
  2
_OPEN30
 10
-3.605558717237539
 20
13.72025730761044
 30
0.0
 41
1.25
 42
1.25
 43
1.25
 50
0.0000077167556073
  0
MTEXT
  5
7CDB
330
79F4
100
AcDbEntity
  8
AM_5
 62
     2
100
AcDbMText
 10
-8.531749402186298
 20
15.27025664413733
 30
0.0
 40
1.6
 41
0.0
 71
     5
 72
     1
  1
3.5
  7
ASAMI
 11
0.9999999999999911
 21
0.0000001346827932
 31
0.0
  0
POINT
  5
7CDC
330
79F4
100
AcDbEntity
  8
DEFPOINTS
 62
     0
100
AcDbPoint
 10
0.0001139702465114
 20
-0.0003596006369122
 30
0.0
  0
POINT
  5
7CDD
330
79F4
100
AcDbEntity
  8
DEFPOINTS
 62
     0
100
AcDbPoint
 10
-3.605557206224568
 20
2.501207485312321
 30
0.0
  0
POINT
  5
7CDE
330
79F4
100
AcDbEntity
  8
DEFPOINTS
 62
     0
100
AcDbPoint
 10
-3.605558717237511
 20
13.72025730761045
 30
0.0
  0
ENDBLK
  5
7A01
330
79F4
100
AcDbEntity
  8
0
100
AcDbBlockEnd
  0
BLOCK
  5
7ABC
330
7AB2
100
AcDbEntity
  8
0
100
AcDbBlockBegin
  2
*D11
 70
     1
 10
0.0
 20
0.0
 30
0.0
  3
*D11
  1

  0
LINE
  5
7CDF
330
7AB2
100
AcDbEntity
  8
AM_5
100
AcDbLine
 10
-0.5403699287140539
 20
46.29863454691154
 30
0.0
 11
12.14417619176797
 21
46.29863454691157
 31
0.0
  0
LINE
  5
7CE0
330
7AB2
100
AcDbEntity
  8
AM_5
100
AcDbLine
 10
0.4996255491770828
 20
30.27628907338765
 30
0.0
 11
12.144176191768
 21
30.27628907338768
 31
0.0
  0
LINE
  5
7CE1
330
7AB2
100
AcDbEntity
  8
AM_5
100
AcDbLine
 10
11.64417619176797
 20
45.04863454691157
 30
0.0
 11
11.644176191768
 21
31.52628907338768
 31
0.0
  0
INSERT
  5
7CE2
330
7AB2
100
AcDbEntity
  8
AM_5
100
AcDbBlockReference
  2
_OPEN30
 10
11.64417619176797
 20
46.29863454691157
 30
0.0
 41
1.25
 42
1.25
 43
1.25
 50
90.0000000000001
  0
INSERT
  5
7CE3
330
7AB2
100
AcDbEntity
  8
AM_5
100
AcDbBlockReference
  2
_OPEN30
 10
11.644176191768
 20
30.27628907338768
 30
0.0
 41
1.25
 42
1.25
 43
1.25
 50
270.0000000000001
  0
MTEXT
  5
7CE4
330
7AB2
100
AcDbEntity
  8
AM_5
 62
     2
100
AcDbMText
 10
10.09417619176798
 20
38.28746181014962
 30
0.0
 40
1.6
 41
0.0
 71
     5
 72
     1
  1
16
  7
ASAMI
 11
-0.000000000000002
 21
1.0
 31
0.0
  0
POINT
  5
7CE5
330
7AB2
100
AcDbEntity
  8
DEFPOINTS
 62
     0
100
AcDbPoint
 10
-1.040369928713951
 20
46.29863454691154
 30
0.0
  0
POINT
  5
7CE6
330
7AB2
100
AcDbEntity
  8
DEFPOINTS
 62
     0
100
AcDbPoint
 10
-0.00037445082285
 20
30.27628907338765
 30
0.0
  0
POINT
  5
7CE7
330
7AB2
100
AcDbEntity
  8
DEFPOINTS
 62
     0
100
AcDbPoint
 10
11.64417619176807
 20
30.27628907338765
 30
0.0
  0
ENDBLK
  5
7ABD
330
7AB2
100
AcDbEntity
  8
0
100
AcDbBlockEnd
  0
BLOCK
  5
7B50
330
7B46
100
AcDbEntity
  8
0
100
AcDbBlockBegin
  2
*D12
 70
     1
 10
0.0
 20
0.0
 30
0.0
  3
*D12
  1

  0
LINE
  5
7CE8
330
7B46
100
AcDbEntity
  8
AM_5
100
AcDbLine
 10
0.5003932112968599
 20
-0.0000190639706394
 30
0.0
 11
12.14417800999484
 21
-0.0000190639706168
 31
0.0
  0
LINE
  5
7CE9
330
7B46
100
AcDbEntity
  8
AM_5
100
AcDbLine
 10
-6.205675595558269
 20
-13.50008992929141
 30
0.0
 11
12.14417800999487
 21
-13.50008992929137
 31
0.0
  0
LINE
  5
7CEA
330
7B46
100
AcDbEntity
  8
AM_5
100
AcDbLine
 10
11.64417800999484
 20
-1.250019063970617
 30
0.0
 11
11.64417800999486
 21
-12.25008992929137
 31
0.0
  0
INSERT
  5
7CEB
330
7B46
100
AcDbEntity
  8
AM_5
100
AcDbBlockReference
  2
_OPEN30
 10
11.64417800999484
 20
-0.0000190639706178
 30
0.0
 41
1.25
 42
1.25
 43
1.25
 50
90.0000000000001
  0
INSERT
  5
7CEC
330
7B46
100
AcDbEntity
  8
AM_5
100
AcDbBlockReference
  2
_OPEN30
 10
11.64417800999487
 20
-13.50008992929137
 30
0.0
 41
1.25
 42
1.25
 43
1.25
 50
270.0000000000001
  0
MTEXT
  5
7CED
330
7B46
100
AcDbEntity
  8
AM_5
 62
     2
100
AcDbMText
 10
10.09417800999485
 20
-6.750054496631001
 30
0.0
 40
1.6
 41
0.0
 71
     5
 72
     1
  1
13.5
  7
ASAMI
 11
-0.000000000000002
 21
1.0
 31
0.0
  0
POINT
  5
7CEE
330
7B46
100
AcDbEntity
  8
DEFPOINTS
 62
     0
100
AcDbPoint
 10
0.0003932112968599
 20
-0.0000190639706403
 30
0.0
  0
POINT
  5
7CEF
330
7B46
100
AcDbEntity
  8
DEFPOINTS
 62
     0
100
AcDbPoint
 10
-6.705675595558298
 20
-13.50008992929139
 30
0.0
  0
POINT
  5
7CF0
330
7B46
100
AcDbEntity
  8
DEFPOINTS
 62
     0
100
AcDbPoint
 10
11.64417800999484
 20
-13.5000899292914
 30
0.0
  0
ENDBLK
  5
7B51
330
7B46
100
AcDbEntity
  8
0
100
AcDbBlockEnd
  0
ENDSEC
  0
SECTION
  2
ENTITIES
  0
TEXT
  5
388D
330
1F
100
AcDbEntity
  8
AM_6
100
AcDbText
 10
-74.37832212298399
 20
-34.78020543710494
 30
0.0
 40
2.5
  1
SBT35 R1616
 50
359.9999999999998
 51
359.9999999999998
 72
     4
 11
-62.61641736107922
 21
-33.53020543710496
 31
0.0
100
AcDbText
  0
MTEXT
  5
68AC
330
1F
100
AcDbEntity
  8
AM_6
100
AcDbMText
 10
27.24831387816908
 20
2.734751514691241
 30
0.0
 40
2.5
 41
0.0
 71
     4
 72
     5
  1
\T1.40;\W0.59;０°
1001
ACAD
1000
MTEXTBEGIN
1070
    73
1070
     1
1070
    44
1040
1.0
1070
    74
1070
     0
1000
MTEXTEND
  0
INSERT
  5
68AD
330
1F
100
AcDbEntity
  8
AM_5
100
AcDbBlockReference
  2
*U6
 10
-7.78038779724353
 20
67.5703234479937
 30
0.0
 50
180.0000000000002
  0
INSERT
  5
68AE
330
1F
100
AcDbEntity
  8
AM_5
100
AcDbBlockReference
  2
*U5
 10
-7.78038779724353
 20
67.5703234479937
 30
0.0
 50
180.0000000000002
  0
MTEXT
  5
68AF
330
1F
100
AcDbEntity
  8
AM_6
100
AcDbMText
 10
13.74021286960211
 20
16.06896330192397
 30
0.0
 40
2.5
 41
0.0
 71
     4
 72
     5
  1
\T1.40;\W0.59;０°
1001
ACAD
1000
MTEXTBEGIN
1070
    73
1070
     1
1070
    44
1040
1.0
1070
    74
1070
     0
1000
MTEXTEND
  0
LINE
  5
76F8
330
1F
100
AcDbEntity
  8
PV0001_1
  6
CONTINUOUS
100
AcDbLine
 10
-119.9999722846669
 20
46.2986185251011
 30
0.0
 11
-1.040369928713952
 21
46.29863454691154
 31
0.0
  0
LINE
  5
76F9
330
1F
100
AcDbEntity
  8
PV0001_1
  6
CONTINUOUS
100
AcDbLine
 10
-119.9999642308082
 20
-13.50010518808159
 30
0.0
 11
-6.705675595558298
 21
-13.50008992929139
 31
0.0
  0
LINE
  5
76FA
330
1F
100
AcDbEntity
  8
PV0001_1
  6
CONTINUOUS
100
AcDbLine
 10
-119.9999701479245
 20
30.43361875398365
 30
0.0
 11
-10.35176152976451
 21
30.43363352170966
 31
0.0
  0
LINE
  5
76FB
330
1F
100
AcDbEntity
  8
PV0001_1
  6
CONTINUOUS
100
AcDbLine
 10
-119.9999663675513
 20
2.364900305082272
 30
0.0
 11
-10.19196389563138
 21
2.364915094329745
 31
0.0
  0
SPLINE
  5
76FE
330
1F
100
AcDbEntity
  8
PV0001_1
  6
CONTINUOUS
 48
0.5
100
AcDbSpline
210
0.0
220
0.0
230
1.0
 70
     8
 71
     3
 72
    11
 73
     7
 74
     5
 42
0.0000000001
 43
0.0000000001
 44
0.0000000001
 40
0.0
 40
0.0
 40
0.0
 40
0.0
 40
0.3053495458863519
 40
0.6090677011162105
 40
0.9122014610446434
 40
1.215926359893202
 40
1.215926359893202
 40
1.215926359893202
 40
1.215926359893202
 10
-14.19636599703549
 20
30.24862781591965
 30
0.0
 10
-14.09456360860905
 20
30.24676922222827
 30
0.0
 10
-13.89150273125602
 20
30.24306196475183
 30
0.0
 10
-13.58862058599646
 20
30.21354340458542
 30
0.0
 10
-13.28828146600263
 20
30.16794749396812
 30
0.0
 10
-13.09126522151421
 20
30.12175355147785
 30
0.0
 10
-12.99266114284891
 20
30.09863408155293
 30
0.0
 11
-14.19636599703549
 21
30.24862781591965
 31
0.0
 11
-13.89116732630881
 21
30.23903007870363
 31
0.0
 11
-13.588761011476
 21
30.21083187724558
 31
0.0
 11
-13.28926149345401
 21
30.164033211528
 31
0.0
 11
-12.99266114284891
 21
30.09863408155293
 31
0.0
  0
ELLIPSE
  5
76FF
330
1F
100
AcDbEntity
  8
PV0001_1
  6
CONTINUOUS
 48
0.5
100
AcDbEllipse
 10
-15.78257045560644
 20
29.72712796849619
 30
0.0
 11
-1.896492031575121
 21
-0.1337282829088283
 31
0.0
210
0.0
220
0.0
230
1.0
 40
0.2889730838709999
 41
4.082271919852237
 42
4.242542844803482
  0
ELLIPSE
  5
7700
330
1F
100
AcDbEntity
  8
PV0001_1
  6
CONTINUOUS
 48
0.5
100
AcDbEllipse
 10
0.8242334384353835
 20
29.72713783454072
 30
0.0
 11
1.896492018743797
 21
-0.1337199906761793
 31
0.0
210
0.0
220
0.0
230
1.0
 40
0.2889688793720999
 41
2.040892139963529
 42
2.201592711410446
  0
ELLIPSE
  5
7701
330
1F
100
AcDbEntity
  8
PV0001_1
  6
CONTINUOUS
 48
0.5
100
AcDbEllipse
 10
0.0032342867600459
 20
29.77292934994328
 30
0.0
 11
0.093406740832218
 21
-0.5547866786047258
 31
0.0
210
0.0
220
0.0
230
0.9999999999999998
 40
0.3048412151278001
 41
2.650500175188083
 42
3.072993516544243
  0
ELLIPSE
  5
7702
330
1F
100
AcDbEntity
  8
PV0001_1
  6
CONTINUOUS
 48
0.5
100
AcDbEllipse
 10
0.0032342867600459
 20
29.77292934994328
 30
0.0
 11
0.093406740832218
 21
-0.5547866786047258
 31
0.0
210
0.0
220
0.0
230
0.9999999999999998
 40
0.3048412151278001
 41
3.072993516544243
 42
3.316136242903666
  0
ELLIPSE
  5
7703
330
1F
100
AcDbEntity
  8
PV0001_1
  6
CONTINUOUS
 48
0.5
100
AcDbEllipse
 10
-6.245964673751283
 20
30.12143162107681
 30
0.0
 11
1.607803358766608
 21
-0.0896298173495667
 31
0.0
210
0.0
220
0.0
230
0.9999999999999998
 40
0.3415521847403
 41
1.328242974362026
 42
1.570794224482556
  0
ELLIPSE
  5
7704
330
1F
100
AcDbEntity
  8
PV0001_1
  6
CONTINUOUS
 48
0.5
100
AcDbEllipse
 10
-6.245964673751283
 20
30.12143162107681
 30
0.0
 11
1.607803358766608
 21
-0.0896298173495667
 31
0.0
210
0.0
220
0.0
230
0.9999999999999998
 40
0.3415521847403
 41
1.570794224482556
 42
2.89960991404758
  0
SPLINE
  5
7705
330
1F
100
AcDbEntity
  8
PV0001_1
  6
CONTINUOUS
 48
0.5
100
AcDbSpline
210
0.0
220
0.0
230
1.0
 70
     8
 71
     3
 72
    11
 73
     7
 74
     5
 42
0.0000000001
 43
0.0000000001
 44
0.0000000001
 40
0.0
 40
0.0
 40
0.0
 40
0.0
 40
0.3053571715116533
 40
0.6090677303008466
 40
0.912201490229266
 40
1.215926389077861
 40
1.215926389077861
 40
1.215926389077861
 40
1.215926389077861
 10
-0.7619635312145992
 20
30.24862962530234
 30
0.0
 10
-0.8637684741401905
 20
30.24677117338926
 30
0.0
 10
-1.066829385446578
 20
30.24306429110787
 30
0.0
 10
-1.36971142006134
 20
30.21354446380183
 30
0.0
 10
-1.670048045098039
 20
30.16794911034007
 30
0.0
 10
-1.867064274088973
 20
30.1217550803943
 30
0.0
 10
-1.965668344997995
 20
30.09863556669903
 30
0.0
 11
-0.7619635312145992
 21
30.24862962530234
 31
0.0
 11
-1.067169828750943
 21
30.23903180587531
 31
0.0
 11
-1.36956850659312
 21
30.21083352296044
 31
0.0
 11
-1.669068012009136
 21
30.16403477656801
 31
0.0
 11
-1.965668344997995
 21
30.09863556669903
 31
0.0
  0
LINE
  5
7706
330
1F
100
AcDbEntity
  8
PV0001_1
  6
CONTINUOUS
 48
0.5
100
AcDbLine
 10
-0.1371809756928659
 20
30.29862322446381
 30
0.0
 11
-3.605580026331844
 21
30.31932321204216
 31
0.0
  0
LINE
  5
7707
330
1F
100
AcDbEntity
  8
PV0001_1
  6
CONTINUOUS
 48
0.5
100
AcDbLine
 10
-4.407166686461062
 20
34.0986199790823
 30
0.0
 11
-0.562363830016091
 21
34.09862049691104
 31
0.0
  0
LINE
  5
7709
330
1F
100
AcDbEntity
  8
PV0001_1
  6
CONTINUOUS
 48
0.5
100
AcDbLine
 10
-0.5472805170262891
 20
34.0986071475025
 30
0.0
 11
0.0000184291666496
 21
30.2763225227272
 31
0.0
  0
LINE
  5
770A
330
1F
100
AcDbEntity
  8
PV0001_1
  6
CONTINUOUS
 48
0.5
100
AcDbLine
 10
-0.1371542728144366
 20
30.29864229795443
 30
0.0
 11
-0.5623562006218439
 21
34.09862621895807
 31
0.0
  0
LINE
  5
770B
330
1F
100
AcDbEntity
  8
PV0001_1
  6
CONTINUOUS
 48
0.5
100
AcDbLine
 10
-0.562363830016091
 20
34.09862049691104
 30
0.0
 11
-0.5472652582390883
 21
34.09862049894455
 31
0.0
  0
LINE
  5
770C
330
1F
100
AcDbEntity
  8
PV0001_1
  6
CONTINUOUS
 48
0.5
100
AcDbLine
 10
-0.7619635312145992
 20
30.24862962530234
 30
0.0
 11
-0.2625662533825963
 21
30.24862969256257
 31
0.0
  0
LINE
  5
770D
330
1F
100
AcDbEntity
  8
PV0001_1
  6
CONTINUOUS
 48
0.5
100
AcDbLine
 10
-0.1179663476946988
 20
30.31442942517169
 30
0.0
 11
-0.1371657169046418
 21
30.29862894651186
 31
0.0
  0
LINE
  5
770E
330
1F
100
AcDbEntity
  8
PV0001_1
  6
CONTINUOUS
 48
0.5
100
AcDbLine
 10
-1.040369928713952
 20
46.29863454691154
 30
0.0
 11
-1.040368285582085
 21
34.09862043253205
 31
0.0
  0
LINE
  5
770F
330
1F
100
AcDbEntity
  8
PV0001_1
  6
CONTINUOUS
 48
0.5
100
AcDbLine
 10
-4.407168329592929
 20
46.29863409346175
 30
0.0
 11
-4.407166686461062
 21
34.0986199790823
 31
0.0
  0
LINE
  5
7710
330
1F
100
AcDbEntity
  8
PV0001_1
  6
CONTINUOUS
 48
0.5
100
AcDbLine
 10
-7.996063852809934
 20
30.09863475450858
 30
0.0
 11
-10.05566468288793
 21
30.09863447711582
 31
0.0
  0
LINE
  5
7711
330
1F
100
AcDbEntity
  8
PV0001_1
  6
CONTINUOUS
 48
0.5
100
AcDbLine
 10
-4.357972323589942
 20
33.89863829625493
 30
0.0
 11
-9.843568026714899
 21
33.89863755743961
 31
0.0
  0
LINE
  5
7712
330
1F
100
AcDbEntity
  8
PV0001_1
  6
CONTINUOUS
 48
0.5
100
AcDbLine
 10
-4.407166686461062
 20
34.0986199790823
 30
0.0
 11
-10.35176202337498
 21
34.09861917844763
 31
0.0
  0
LINE
  5
7713
330
1F
100
AcDbEntity
  8
PV0001_1
  6
CONTINUOUS
 48
0.5
100
AcDbLine
 10
-3.605580026335184
 20
30.31934800757416
 30
0.0
 11
-4.357983767683004
 21
33.89865355504237
 31
0.0
  0
LINE
  5
7714
330
1F
100
AcDbEntity
  8
PV0001_1
  6
CONTINUOUS
 48
0.5
100
AcDbLine
 10
-4.053662505556639
 20
34.09864672957421
 30
0.0
 11
-4.357972323590454
 21
33.89864211095191
 31
0.0
  0
LINE
  5
7715
330
1F
100
AcDbEntity
  8
PV0001_1
  6
CONTINUOUS
 48
0.5
100
AcDbLine
 10
-7.996063852809934
 20
30.09863475450858
 30
0.0
 11
-3.462166452907974
 21
30.0986353651465
 31
0.0
  0
LINE
  5
7716
330
1F
100
AcDbEntity
  8
PV0001_1
  6
CONTINUOUS
 48
0.5
100
AcDbLine
 10
-3.462170267605765
 20
30.09864108719201
 30
0.0
 11
-7.799271282851657
 21
30.34054190076416
 31
0.0
  0
LINE
  5
7717
330
1F
100
AcDbEntity
  8
PV0001_1
  6
CONTINUOUS
 48
0.5
100
AcDbLine
 10
-3.605568582241895
 20
30.31933847083273
 30
0.0
 11
-5.829773641568204
 21
30.63293680408357
 31
0.0
  0
LINE
  5
7718
330
1F
100
AcDbEntity
  8
PV0001_1
  6
CONTINUOUS
 48
0.5
100
AcDbLine
 10
-3.462166452907974
 20
30.0986353651465
 30
0.0
 11
-1.965668344997988
 21
30.09863556669903
 31
0.0
  0
LINE
  5
7719
330
1F
100
AcDbEntity
  8
PV0001_1
  6
CONTINUOUS
 48
0.5
100
AcDbLine
 10
-7.99607148220185
 20
30.09861186632456
 30
0.0
 11
-7.799259838757345
 21
30.34052473462871
 31
0.0
  0
LINE
  5
771A
330
1F
100
AcDbEntity
  8
PV0001_1
  6
CONTINUOUS
 48
0.5
100
AcDbLine
 10
-10.05566468288793
 20
30.09863447711582
 30
0.0
 11
-10.05566517447926
 21
33.74862837360073
 31
0.0
  0
LINE
  5
771B
330
1F
100
AcDbEntity
  8
PV0001_1
  6
CONTINUOUS
 48
0.5
100
AcDbLine
 10
-10.35176202337498
 20
34.09861917844763
 30
0.0
 11
-10.35176152976451
 21
30.43363352170966
 31
0.0
  0
LINE
  5
771C
330
1F
100
AcDbEntity
  8
PV0001_1
  6
CONTINUOUS
 48
0.5
100
AcDbLine
 10
-10.06575509588859
 20
34.09864591984883
 30
0.0
 11
-10.35175435257027
 21
33.79115076414267
 31
0.0
  0
LINE
  5
771D
330
1F
100
AcDbEntity
  8
PV0001_1
  6
CONTINUOUS
 48
0.5
100
AcDbLine
 10
-10.05566517447926
 20
33.74862837360073
 30
0.0
 11
-10.35176197623723
 21
33.74862833372161
 31
0.0
  0
LINE
  5
771E
330
1F
100
AcDbEntity
  8
PV0001_1
  6
CONTINUOUS
 48
0.5
100
AcDbLine
 10
-9.760663237973455
 20
34.09860781396647
 30
0.0
 11
-9.843568026710025
 21
33.89860131781562
 31
0.0
  0
LINE
  5
771F
330
1F
100
AcDbEntity
  8
PV0001_1
  6
CONTINUOUS
 48
0.5
100
AcDbLine
 10
-9.843564212020249
 20
33.89866235297212
 30
0.0
 11
-10.05566135978687
 21
33.74866270587624
 31
0.0
  0
ARC
  5
7720
330
1F
100
AcDbEntity
  8
PV0001_1
  6
CONTINUOUS
 48
0.5
100
AcDbCircle
 10
-14.17666622694157
 20
25.24862781857278
 30
0.0
 40
4.9963688850403
100
AcDbArc
 50
76.09726443974081
 51
90.1569971103474
  0
LINE
  5
7721
330
1F
100
AcDbEntity
  8
PV0001_1
  6
CONTINUOUS
 48
0.5
100
AcDbLine
 10
-12.97616639187291
 20
30.09863408377448
 30
0.0
 11
-12.99266114284891
 21
30.09863408155293
 31
0.0
  0
LINE
  5
7722
330
1F
100
AcDbEntity
  8
PV0001_1
  6
CONTINUOUS
 48
0.5
100
AcDbLine
 10
-12.33176484157989
 20
30.09863417056429
 30
0.0
 11
-12.97616639187291
 21
30.09863408377448
 31
0.0
  0
LINE
  5
7723
330
1F
100
AcDbEntity
  8
PV0001_1
  6
CONTINUOUS
 48
0.5
100
AcDbLine
 10
-11.10586609890392
 20
30.09863433567174
 30
0.0
 11
-11.41696229030991
 21
30.09863429377243
 31
0.0
  0
LINE
  5
7724
330
1F
100
AcDbEntity
  8
PV0001_1
  6
CONTINUOUS
 48
0.5
100
AcDbLine
 10
-11.41696233542851
 20
30.43363337824546
 30
0.0
 11
-11.41696229030991
 21
30.09863429377243
 31
0.0
  0
LINE
  5
7725
330
1F
100
AcDbEntity
  8
PV0001_1
  6
CONTINUOUS
 48
0.5
100
AcDbLine
 10
-12.1621710305449
 20
30.09863419340566
 30
0.0
 11
-11.41696229030991
 21
30.09863429377243
 31
0.0
  0
LINE
  5
7726
330
1F
100
AcDbEntity
  8
PV0001_1
  6
CONTINUOUS
 48
0.5
100
AcDbLine
 10
-12.1621710756635
 20
30.43363327787865
 30
0.0
 11
-12.1621710305449
 21
30.09863419340566
 31
0.0
  0
LINE
  5
7727
330
1F
100
AcDbEntity
  8
PV0001_1
  6
CONTINUOUS
 48
0.5
100
AcDbLine
 10
-12.31319875510676
 20
30.43363516488684
 30
0.0
 11
-12.33178772975648
 21
30.0985864868452
 31
0.0
  0
LINE
  5
7728
330
1F
100
AcDbEntity
  8
PV0001_1
  6
CONTINUOUS
 48
0.5
100
AcDbLine
 10
-12.33176484157989
 20
30.09863417056429
 30
0.0
 11
-12.1621710305449
 21
30.09863419340566
 31
0.0
  0
LINE
  5
7729
330
1F
100
AcDbEntity
  8
PV0001_1
  6
CONTINUOUS
 48
0.5
100
AcDbLine
 10
-11.10586609890392
 20
30.09863433567174
 30
0.0
 11
-10.39126648952891
 21
30.09863443191604
 31
0.0
  0
LINE
  5
772A
330
1F
100
AcDbEntity
  8
PV0001_1
  6
CONTINUOUS
 48
0.5
100
AcDbLine
 10
-11.10586614402253
 20
30.43363342014477
 30
0.0
 11
-11.10586609890392
 21
30.09863433567174
 31
0.0
  0
LINE
  5
772B
330
1F
100
AcDbEntity
  8
PV0001_1
  6
CONTINUOUS
 48
0.5
100
AcDbLine
 10
-10.05566468288793
 20
30.09863447711582
 30
0.0
 11
-10.39126648952891
 21
30.09863443191604
 31
0.0
  0
LINE
  5
772C
330
1F
100
AcDbEntity
  8
PV0001_1
  6
CONTINUOUS
 48
0.5
100
AcDbLine
 10
-10.39126653464752
 20
30.43363351638904
 30
0.0
 11
-10.39126648952891
 21
30.09863443191604
 31
0.0
  0
LINE
  5
772D
330
1F
100
AcDbEntity
  8
PV0001_1
  6
CONTINUOUS
 48
0.5
100
AcDbLine
 10
-14.19036929293349
 20
30.24862781672728
 30
0.0
 11
-14.69577090426147
 21
30.24862774865836
 31
0.0
  0
LINE
  5
772E
330
1F
100
AcDbEntity
  8
PV0001_1
  6
CONTINUOUS
 48
0.5
100
AcDbLine
 10
-14.93573446067196
 20
30.43362908963043
 30
0.0
 11
-14.95832889139022
 21
30.27632050809534
 31
0.0
  0
ELLIPSE
  5
772F
330
1F
100
AcDbEntity
  8
PV0001_1
  6
CONTINUOUS
 48
0.5
100
AcDbEllipse
 10
0.8242374518780248
 20
-0.0720875113326116
 30
0.0
 11
1.89694217357557
 21
-0.1059493453325556
 31
0.0
210
0.0
220
0.0
230
1.0
 40
0.0152069285625
 41
2.020907836866782
 42
2.191843440494027
  0
ELLIPSE
  5
7730
330
1F
100
AcDbEntity
  8
PV0001_1
  6
CONTINUOUS
 48
0.5
100
AcDbEllipse
 10
0.0032382661271395
 20
0.2267099855149297
 30
0.0
 11
0.1817780317748507
 21
-0.649955757560643
 31
0.0
210
0.0
220
0.0
230
1.0
 40
0.1004551620655
 41
4.379476657949071
 42
5.041043942650423
  0
ELLIPSE
  5
7731
330
1F
100
AcDbEntity
  8
PV0001_1
  6
CONTINUOUS
 48
0.5
100
AcDbEllipse
 10
-15.78255859010013
 20
-1.725387172298155
 30
0.0
 11
1.89694212689053
 21
-0.1059416302155544
 31
0.0
210
0.0
220
0.0
230
1.0
 40
0.0152107186534
 41
5.162470702008239
 42
5.333262315992868
  0
ELLIPSE
  5
7732
330
1F
100
AcDbEntity
  8
PV0001_1
  6
CONTINUOUS
 48
0.5
100
AcDbEllipse
 10
-14.96156321904521
 20
-2.024192298541208
 30
0.0
 11
0.1817742561708428
 21
-0.649955699448149
 31
0.0
210
0.0
220
0.0
230
0.9999999999999998
 40
0.1004607642831
 41
1.237876398208892
 42
1.899455492354258
  0
SPLINE
  5
7733
330
1F
100
AcDbEntity
  8
PV0001_1
  6
CONTINUOUS
 48
0.5
100
AcDbSpline
210
0.0
220
0.0
230
1.0
 70
     8
 71
     3
 72
    11
 73
     7
 74
     5
 42
0.0000000001
 43
0.0000000001
 44
0.0000000001
 40
0.0
 40
0.0
 40
0.0
 40
0.0
 40
0.3123363436077628
 40
0.6216499293788075
 40
0.9278053946093153
 40
1.230837701604968
 40
1.230837701604968
 40
1.230837701604968
 40
1.230837701604968
 10
-14.19636166046185
 20
-1.949797969407754
 30
0.0
 10
-14.09463991965745
 20
-1.971979710277979
 30
0.0
 10
-13.89218089021208
 20
-2.01612851949498
 30
0.0
 10
-13.58981530696383
 20
-2.081108003235209
 30
0.0
 10
-13.29030793042178
 20
-2.144621281731103
 30
0.0
 10
-13.09153414969914
 20
-2.186135593639082
 30
0.0
 10
-12.99265679186494
 20
-2.206786332679428
 30
0.0
 11
-14.19636166046185
 21
-1.949797969407754
 31
0.0
 11
-13.89116298208612
 21
-2.016188919513723
 31
0.0
 11
-13.58875666229641
 21
-2.081191320190811
 31
0.0
 11
-13.28925714202616
 21
-2.144683101142376
 31
0.0
 11
-12.99265679186494
 21
-2.206786332679428
 31
0.0
  0
ELLIPSE
  5
7734
330
1F
100
AcDbEntity
  8
PV0001_1
  6
CONTINUOUS
 48
0.5
100
AcDbEllipse
 10
-14.17666261432899
 20
-1.574492790972612
 30
0.0
 11
4.993133545387383
 21
-0.261839984529869
 31
0.0
210
0.0
220
0.0
230
0.9999999999999998
 40
0.0524004224591
 41
4.712389565276203
 42
4.958214444020834
  0
SPLINE
  5
7735
330
1F
100
AcDbEntity
  8
PV0001_1
  6
CONTINUOUS
 48
0.5
100
AcDbSpline
210
0.0
220
0.0
230
1.0
 70
     8
 71
     3
 72
    11
 73
     7
 74
     5
 42
0.0000000001
 43
0.0000000001
 44
0.0000000001
 40
0.0
 40
0.0
 40
0.0
 40
0.0
 40
0.3123665196743647
 40
0.6216502170064324
 40
0.9278310209845233
 40
1.230860201220538
 40
1.230860201220538
 40
1.230860201220538
 40
1.230860201220538
 10
-0.7619594777448544
 20
0.1522088448579524
 30
0.0
 10
-0.8636785369784782
 20
0.1744504382380875
 30
0.0
 10
-1.066112764923881
 20
0.2187141172192523
 30
0.0
 10
-1.368542159819837
 20
0.2834369610369227
 30
0.0
 10
-1.667992544380171
 20
0.3472057973004187
 30
0.0
 10
-1.866783213373298
 20
0.3886761249664508
 30
0.0
 10
-1.965664346356151
 20
0.4093040196536464
 30
0.0
 11
-0.7619594777448544
 21
0.1522088448579524
 31
0.0
 11
-1.067165785529953
 21
0.2187066064869185
 31
0.0
 11
-1.369564475910275
 21
0.2836021956410377
 31
0.0
 11
-1.669063996196969
 21
0.3472160469056007
 31
0.0
 11
-1.965664346356151
 21
0.4093040196536464
 31
0.0
  0
ELLIPSE
  5
7736
330
1F
100
AcDbEntity
  8
PV0001_1
  6
CONTINUOUS
 48
0.5
100
AcDbEllipse
 10
-0.7816623385890882
 20
-0.2229895220536804
 30
0.0
 11
4.993137354850404
 21
-0.2618401842973661
 31
0.0
210
0.0
220
0.0
230
0.9999999999999998
 40
0.052400424204
 41
1.570796147933489
 42
1.816629494373064
  0
ELLIPSE
  5
7737
330
1F
100
AcDbEntity
  8
PV0001_1
  6
CONTINUOUS
 48
0.5
100
AcDbEllipse
 10
-6.432460475496961
 20
-5.128591784582923
 30
0.0
 11
9.875138200123968
 21
-3.594549063969937
 31
0.0
210
0.0
220
0.0
230
0.9999999999999998
 40
0.0523358254031
 41
2.493798791897179
 42
2.581161240609961
  0
ELLIPSE
  5
7738
330
1F
100
AcDbEntity
  8
PV0001_1
  6
CONTINUOUS
 48
0.5
100
AcDbEllipse
 10
-8.525864477422098
 20
3.331109471557653
 30
0.0
 11
9.875133758508104
 21
-3.594550113587533
 31
0.0
210
0.0
220
0.0
230
0.9999999999999998
 40
0.0523359691797
 41
5.636521402881054
 42
5.724007901297726
  0
ELLIPSE
  5
7739
330
1F
100
AcDbEntity
  8
PV0001_1
  6
CONTINUOUS
 48
0.5
100
AcDbEllipse
 10
-9.121963323401539
 20
-4.149695052086684
 30
0.0
 11
9.875133758508104
 21
-3.594550113587518
 31
0.0
210
0.0
220
0.0
230
1.0
 40
0.0523359691797
 41
1.83282467208505
 42
1.992752612413392
  0
ELLIPSE
  5
773A
330
1F
100
AcDbEntity
  8
PV0001_1
  6
CONTINUOUS
 48
0.5
100
AcDbEllipse
 10
-5.836361629502158
 20
2.35210592753738
 30
0.0
 11
9.875138200123961
 21
-3.594549063969923
 31
0.0
210
0.0
220
0.0
230
0.9999999999999998
 40
0.0523358254031
 41
4.974407736330377
 42
5.13432074678062
  0
LINE
  5
773C
330
1F
100
AcDbEntity
  8
PV0001_1
  6
CONTINUOUS
 48
0.5
100
AcDbLine
 10
-0.1179852099210539
 20
0.4222894979962178
 30
0.0
 11
-5.829777482100462
 21
2.501184297564151
 31
0.0
  0
LINE
  5
773D
330
1F
100
AcDbEntity
  8
PV0001_1
  6
CONTINUOUS
 48
0.5
100
AcDbLine
 10
-0.1371731477990981
 20
0.5012308406269313
 30
0.0
 11
-3.605572465016644
 21
2.501230373493271
 31
0.0
  0
LINE
  5
773E
330
1F
100
AcDbEntity
  8
PV0001_1
  6
CONTINUOUS
 48
0.5
100
AcDbLine
 10
-0.7678379109439906
 20
0.0386987122302429
 30
0.0
 11
-0.7619365895597899
 21
0.1521935860720447
 31
0.0
  0
LINE
  5
773F
330
1F
100
AcDbEntity
  8
PV0001_1
  6
CONTINUOUS
 48
0.5
100
AcDbLine
 10
-0.7678531697381406
 20
0.0387368592011797
 30
0.0
 11
-0.2625583663644679
 21
0.0122400400486953
 31
0.0
  0
LINE
  5
7743
330
1F
100
AcDbEntity
  8
PV0001_1
  6
CONTINUOUS
 48
0.5
100
AcDbLine
 10
-0.1179356188601393
 20
0.4223123861868885
 30
0.0
 11
-0.1371311861249982
 21
0.5012003230545759
 31
0.0
  0
LINE
  5
7744
330
1F
100
AcDbEntity
  8
PV0001_1
  6
CONTINUOUS
 48
0.5
100
AcDbLine
 10
-5.083156388043358
 20
-4.298749989085905
 30
0.0
 11
-6.705675595559336
 21
-13.50008229989639
 31
0.0
  0
CIRCLE
  5
7747
330
1F
100
AcDbEntity
  8
PV0001_1
  6
CONTINUOUS
 48
0.5
100
AcDbCircle
 10
-7.479160569104871
 20
-0.8987869328803839
 30
0.0
 40
2.4200000762939
  0
LINE
  5
774E
330
1F
100
AcDbEntity
  8
PV0001_1
  6
CONTINUOUS
 48
0.5
100
AcDbLine
 10
-11.10587704979198
 20
-1.886900824656677
 30
0.0
 11
-10.39127798621866
 21
2.165597135357558
 31
0.0
  0
LINE
  5
774F
330
1F
100
AcDbEntity
  8
PV0001_1
  6
CONTINUOUS
 48
0.5
100
AcDbLine
 10
-3.852489864791985
 20
0.0893879940467173
 30
0.0
 11
-4.567092743061232
 21
-3.963125224757007
 31
0.0
  0
LINE
  5
7750
330
1F
100
AcDbEntity
  8
PV0001_1
  6
CONTINUOUS
 48
0.5
100
AcDbLine
 10
-7.996060135911514
 20
2.501206893987173
 30
0.0
 11
-10.05566096598949
 21
2.501206616594402
 31
0.0
  0
LINE
  5
7751
330
1F
100
AcDbEntity
  8
PV0001_1
  6
CONTINUOUS
 48
0.5
100
AcDbLine
 10
-3.605557206224569
 20
2.501207485312335
 30
0.0
 11
-5.829762223314526
 21
2.501207185750203
 31
0.0
  0
LINE
  5
7752
330
1F
100
AcDbEntity
  8
PV0001_1
  6
CONTINUOUS
 48
0.5
100
AcDbLine
 10
-3.462162523404723
 20
0.9226476291360938
 30
0.0
 11
-7.799271348076681
 21
2.501252696858216
 31
0.0
  0
LINE
  5
7753
330
1F
100
AcDbEntity
  8
PV0001_1
  6
CONTINUOUS
 48
0.5
100
AcDbLine
 10
-7.996048691821536
 20
2.501214523382714
 30
0.0
 11
-3.462147264610573
 21
0.9226094821661519
 31
0.0
  0
ARC
  5
7754
330
1F
100
AcDbEntity
  8
PV0001_1
  6
CONTINUOUS
 48
0.5
100
AcDbCircle
 10
-3.557064442738957
 20
0.0373097867654337
 30
0.0
 40
0.3000110685825
100
AcDbArc
 50
87.00026809107823
 51
169.9975602386177
  0
LINE
  5
7755
330
1F
100
AcDbEntity
  8
PV0001_1
  6
CONTINUOUS
 48
0.5
100
AcDbLine
 10
-2.796154443646623
 20
0.2978308243049099
 30
0.0
 11
-3.541347930358819
 21
0.3369313709131916
 31
0.0
  0
LINE
  5
7756
330
1F
100
AcDbEntity
  8
PV0001_1
  6
CONTINUOUS
 48
0.5
100
AcDbLine
 10
-2.626560609772321
 20
0.1282522949002782
 30
0.0
 11
-2.796162073044721
 21
0.2978537124878926
 31
0.0
  0
LINE
  5
7757
330
1F
100
AcDbEntity
  8
PV0001_1
  6
CONTINUOUS
 48
0.5
100
AcDbLine
 10
-2.626572053855079
 20
0.1281836303477348
 30
0.0
 11
-1.982174313720401
 21
0.0944846814930287
 31
0.0
  0
LINE
  5
7758
330
1F
100
AcDbEntity
  8
PV0001_1
  6
CONTINUOUS
 48
0.5
100
AcDbLine
 10
-1.982120907962491
 20
0.0945075696832163
 30
0.0
 11
-1.965622384684104
 21
0.4092887608702825
 31
0.0
  0
LINE
  5
775A
330
1F
100
AcDbEntity
  8
PV0001_1
  6
CONTINUOUS
 48
0.5
100
AcDbLine
 10
-7.799267533372523
 20
2.501206920491753
 30
0.0
 11
-5.829762223314526
 21
2.501207185750203
 31
0.0
  0
LINE
  5
775B
330
1F
100
AcDbEntity
  8
PV0001_1
  6
CONTINUOUS
 48
0.5
100
AcDbLine
 10
-7.996060135911514
 20
2.501206893987173
 30
0.0
 11
-7.799267533372523
 21
2.501206920491753
 31
0.0
  0
LINE
  5
775C
330
1F
100
AcDbEntity
  8
PV0001_1
  6
CONTINUOUS
 48
0.5
100
AcDbLine
 10
-10.05566859538449
 20
2.501206616593364
 30
0.0
 11
-10.39126654212871
 21
2.165612394148084
 31
0.0
  0
LINE
  5
775D
330
1F
100
AcDbEntity
  8
PV0001_1
  6
CONTINUOUS
 48
0.5
100
AcDbLine
 10
-10.39128180091874
 20
2.165620023540029
 30
0.0
 11
-10.3561866129153
 21
2.364899813422766
 31
0.0
  0
LINE
  5
775F
330
1F
100
AcDbEntity
  8
PV0001_1
  6
CONTINUOUS
 48
0.5
100
AcDbLine
 10
-11.49615098541211
 20
-2.720206236106847
 30
0.0
 11
-7.15903834604415
 21
-4.298803674433472
 31
0.0
  0
LINE
  5
7760
330
1F
100
AcDbEntity
  8
PV0001_1
  6
CONTINUOUS
 48
0.5
100
AcDbLine
 10
-6.962169449555043
 20
-4.298834165496614
 30
0.0
 11
-11.49617005889399
 21
-2.72023675368743
 31
0.0
  0
LINE
  5
7761
330
1F
100
AcDbEntity
  8
PV0001_1
  6
CONTINUOUS
 48
0.5
100
AcDbLine
 10
-11.35276393198214
 20
-4.298796609861113
 30
0.0
 11
-5.083156388037204
 21
-4.298795765452908
 31
0.0
  0
LINE
  5
7762
330
1F
100
AcDbEntity
  8
PV0001_1
  6
CONTINUOUS
 48
0.5
100
AcDbLine
 10
-4.902644913430245
 20
-4.298780482352114
 30
0.0
 11
-4.567050781396369
 21
-3.963087077778368
 31
0.0
  0
LINE
  5
7769
330
1F
100
AcDbEntity
  8
PV0001_1
  6
CONTINUOUS
 48
0.5
100
AcDbLine
 10
-6.962161820166182
 20
-4.298796018522594
 30
0.0
 11
-7.159061234228184
 21
-4.298796045041555
 31
0.0
  0
LINE
  5
776A
330
1F
100
AcDbEntity
  8
PV0001_1
  6
CONTINUOUS
 48
0.5
100
AcDbLine
 10
-6.962161820166182
 20
-4.298796018522594
 30
0.0
 11
-4.90266017221719
 21
-4.29879574114318
 31
0.0
  0
LINE
  5
776B
330
1F
100
AcDbEntity
  8
PV0001_1
  6
CONTINUOUS
 48
0.5
100
AcDbLine
 10
-14.84035881647681
 20
-2.219825216787072
 30
0.0
 11
-9.128570358981088
 21
-4.298819198484537
 31
0.0
  0
LINE
  5
776C
330
1F
100
AcDbEntity
  8
PV0001_1
  6
CONTINUOUS
 48
0.5
100
AcDbLine
 10
-14.8211479904158
 20
-2.298758930019687
 30
0.0
 11
-11.35274485850129
 21
-4.29875846288553
 31
0.0
  0
LINE
  5
776D
330
1F
100
AcDbEntity
  8
PV0001_1
  6
CONTINUOUS
 48
0.5
100
AcDbLine
 10
-11.00216313974149
 20
-1.2987965626412
 30
0.0
 11
-14.55836125985846
 21
-1.298797041599854
 31
0.0
  0
LINE
  5
776E
330
1F
100
AcDbEntity
  8
PV0001_1
  6
CONTINUOUS
 48
0.5
100
AcDbLine
 10
-14.55836085581013
 20
-4.298797041599812
 30
0.0
 11
-11.35276393198214
 21
-4.298796609861113
 31
0.0
  0
ARC
  5
776F
330
1F
100
AcDbEntity
  8
PV0001_1
  6
CONTINUOUS
 48
0.5
100
AcDbCircle
 10
-11.40125669548212
 20
-1.834792099791229
 30
0.0
 40
0.3000110685825
100
AcDbArc
 50
267.0002662698462
 51
349.9975558560639
  0
LINE
  5
7770
330
1F
100
AcDbEntity
  8
PV0001_1
  6
CONTINUOUS
 48
0.5
100
AcDbLine
 10
-12.16215906517943
 20
-2.095313137329668
 30
0.0
 11
-11.41695413437626
 21
-2.134413683936401
 31
0.0
  0
LINE
  5
7771
330
1F
100
AcDbEntity
  8
PV0001_1
  6
CONTINUOUS
 48
0.5
100
AcDbLine
 10
-12.33180249010846
 20
-1.925810901876729
 30
0.0
 11
-12.16220484154643
 21
-2.095313137335821
 31
0.0
  0
LINE
  5
7772
330
1F
100
AcDbEntity
  8
PV0001_1
  6
CONTINUOUS
 48
0.5
100
AcDbLine
 10
-12.33173764026063
 20
-1.925765125501001
 30
0.0
 11
-12.97614682450068
 21
-1.89196699451881
 31
0.0
  0
LINE
  5
7773
330
1F
100
AcDbEntity
  8
PV0001_1
  6
CONTINUOUS
 48
0.5
100
AcDbLine
 10
-12.97618878617067
 20
-1.891966994524466
 30
0.0
 11
-12.99268730944498
 21
-2.206771073894529
 31
0.0
  0
ARC
  5
7774
330
1F
100
AcDbEntity
  8
PV0001_1
  6
CONTINUOUS
 48
0.5
100
AcDbCircle
 10
-14.55836105783429
 20
-2.79879704159984
 30
0.0
 40
1.5
100
AcDbArc
 50
90.00002570284543
 51
270.000010221234
  0
LINE
  5
7775
330
1F
100
AcDbEntity
  8
PV0001_1
  6
CONTINUOUS
 48
0.5
100
AcDbLine
 10
-14.84038933405481
 20
-2.219825216791178
 30
0.0
 11
-14.82118995207759
 21
-2.298819965182346
 31
0.0
  0
LINE
  5
7776
330
1F
100
AcDbEntity
  8
PV0001_1
  6
CONTINUOUS
 48
0.5
100
AcDbLine
 10
-14.1903802304511
 20
-1.836181025242169
 30
0.0
 11
-14.19638073395298
 21
-1.949759822437314
 31
0.0
  0
LINE
  5
7777
330
1F
100
AcDbEntity
  8
PV0001_1
  6
CONTINUOUS
 48
0.5
100
AcDbLine
 10
-14.19037260105298
 20
-1.836211542819128
 30
0.0
 11
-14.69577421595067
 21
-1.809707094287034
 31
0.0
  0
LINE
  5
7779
330
1F
100
AcDbEntity
  8
PV0001_1
  6
CONTINUOUS
 48
0.5
100
AcDbLine
 10
-119.9999722846669
 20
46.2986185251011
 30
0.0
 11
-119.9999701479245
 21
30.43361875398365
 31
0.0
  0
LINE
  5
777B
330
1F
100
AcDbEntity
  8
PV0001_1
  6
CONTINUOUS
 48
0.5
100
AcDbLine
 10
-119.9999642308082
 20
-13.50010518808159
 30
0.0
 11
-119.9999663675513
 21
2.364900305082272
 31
0.0
  0
DIMENSION
  5
7823
330
1F
100
AcDbEntity
  8
AM_5
100
AcDbDimension
  2
*D7
 10
-134.9362941278693
 20
30.43361875398364
 30
0.0
 11
-136.4862941278693
 21
38.36611863954234
 31
0.0
 70
    32
  1
<>
 51
359.9999999999998
  3
AM_JIS$0
100
AcDbAlignedDimension
 13
-119.9999722846669
 23
46.29861852510109
 33
0.0
 14
-119.9999701479245
 24
30.43361875398364
 34
0.0
 50
270.0000077167552
100
AcDbRotatedDimension
1001
GENIUS_GENDTOL_13
1000

1000
h7
1000

1040
0.0
1001
ACAD
1000
DSTYLE
1002
{
1070
   287
1070
     3
1070
    40
1040
0.5
1070
    42
1040
1.0
1070
    43
1040
12.0
1070
    48
1040
0.1
1070
    78
1070
     8
1070
   140
1040
3.2
1070
   176
1070
   256
1070
   177
1070
   256
1070
   271
1070
     0
1070
   272
1070
     3
1070
   275
1070
     0
1070
   284
1070
     0
1070
   289
1070
     3
1070
   340
1005
6B
1070
   371
1070
    -1
1070
   372
1070
    -1
1002
}
  0
DIMENSION
  5
78B3
330
1F
100
AcDbEntity
  8
AM_5
100
AcDbDimension
  2
*D8
 10
-134.9362919911264
 20
-13.50010518808159
 30
0.0
 11
-136.4862919911264
 21
-5.567602441499679
 31
0.0
 70
    32
  1
<>
 51
359.9999999999998
  3
AM_JIS$0
100
AcDbAlignedDimension
 13
-119.9999663675513
 23
2.364900305082272
 33
0.0
 14
-119.9999642308082
 24
-13.50010518808159
 34
0.0
 50
270.000007716755
100
AcDbRotatedDimension
1001
GENIUS_GENDTOL_13
1000

1000
h7
1000

1040
0.0
1001
ACAD
1000
DSTYLE
1002
{
1070
   287
1070
     3
1070
    40
1040
0.5
1070
    42
1040
1.0
1070
    43
1040
12.0
1070
    48
1040
0.1
1070
    78
1070
     8
1070
   140
1040
3.2
1070
   176
1070
   256
1070
   177
1070
   256
1070
   271
1070
     0
1070
   272
1070
     3
1070
   275
1070
     0
1070
   284
1070
     0
1070
   289
1070
     3
1070
   340
1005
6B
1070
   371
1070
    -1
1070
   372
1070
    -1
1002
}
  0
DIMENSION
  5
795E
330
1F
100
AcDbEntity
  8
AM_5
100
AcDbDimension
  2
*D9
 10
0.0003906139290103
 20
19.28505887957795
 30
0.0
 11
-59.99978922499537
 21
20.83505079858713
 31
0.0
 70
    32
  1
<>
 51
359.9999999999998
  3
AM_JIS$0
100
AcDbAlignedDimension
 13
-119.9999663675513
 23
2.364900305082258
 33
0.0
 14
0.0003932112968599
 24
-0.0000190639706403
 34
0.0
 50
180.0000077167547
100
AcDbRotatedDimension
1001
GENIUS_GENDTOL_13
1000

1000
h7
1000

1040
0.0
1001
ACAD
1000
DSTYLE
1002
{
1070
   287
1070
     3
1070
    40
1040
0.5
1070
    42
1040
1.0
1070
    43
1040
12.0
1070
    48
1040
0.1
1070
    78
1070
     8
1070
   140
1040
3.2
1070
   176
1070
   256
1070
   177
1070
   256
1070
   271
1070
     0
1070
   272
1070
     3
1070
   275
1070
     0
1070
   284
1070
     0
1070
   289
1070
     3
1070
   340
1005
6B
1070
   371
1070
    -1
1070
   372
1070
    -1
1002
}
  0
DIMENSION
  5
79F3
330
1F
100
AcDbEntity
  8
AM_5
100
AcDbDimension
  2
*D10
 10
-3.605558717237511
 20
13.72025730761045
 30
0.0
 11
-8.531749402186267
 21
15.27025664413735
 31
0.0
 70
    32
  1
3.5
 51
359.9999999999998
  3
AM_JIS$0
100
AcDbAlignedDimension
 13
0.0001139702465114
 23
-0.0003596006369122
 33
0.0
 14
-3.605557206224569
 24
2.50120748531232
 34
0.0
 50
180.0000077167556
100
AcDbRotatedDimension
1001
GENIUS_GENDTOL_13
1000

1000
h7
1000

1040
0.0
1001
ACAD
1000
DSTYLE
1002
{
1070
   287
1070
     3
1070
    40
1040
0.5
1070
    42
1040
1.0
1070
    43
1040
12.0
1070
    48
1040
0.1
1070
    78
1070
     8
1070
   140
1040
3.2
1070
   176
1070
   256
1070
   177
1070
   256
1070
   271
1070
     0
1070
   272
1070
     3
1070
   275
1070
     0
1070
   284
1070
     0
1070
   289
1070
     3
1070
   340
1005
6B
1070
   371
1070
    -1
1070
   372
1070
    -1
1002
}
  0
DIMENSION
  5
7AB1
330
1F
100
AcDbEntity
  8
AM_5
100
AcDbDimension
  2
*D11
 10
11.64417619176807
 20
30.27628907338765
 30
0.0
 11
10.09417619176806
 21
38.2874618101496
 31
0.0
 70
    32
  1
<>
 51
359.9999999999998
  3
AM_JIS$0
100
AcDbAlignedDimension
 13
-1.040369928713951
 23
46.29863454691154
 33
0.0
 14
-0.00037445082285
 24
30.27628907338765
 34
0.0
 50
90.00000771675509
100
AcDbRotatedDimension
1001
GENIUS_GENDTOL_13
1000

1000
h7
1000

1040
0.0
1001
ACAD
1000
DSTYLE
1002
{
1070
   287
1070
     3
1070
    40
1040
0.5
1070
    42
1040
1.0
1070
    43
1040
12.0
1070
    48
1040
0.1
1070
    78
1070
     8
1070
   140
1040
3.2
1070
   176
1070
   256
1070
   177
1070
   256
1070
   271
1070
     0
1070
   272
1070
     3
1070
   275
1070
     0
1070
   284
1070
     0
1070
   289
1070
     3
1070
   340
1005
6B
1070
   371
1070
    -1
1070
   372
1070
    -1
1002
}
  0
DIMENSION
  5
7B45
330
1F
100
AcDbEntity
  8
AM_5
100
AcDbDimension
  2
*D12
 10
11.64417800999484
 20
-13.5000899292914
 30
0.0
 11
10.09417800999484
 21
-6.750054496631022
 31
0.0
 70
    32
  1
<>
 51
359.9999999999998
  3
AM_JIS$0
100
AcDbAlignedDimension
 13
0.0003932112968599
 23
-0.0000190639706403
 33
0.0
 14
-6.705675595558298
 24
-13.50008992929139
 34
0.0
 50
90.00000771675509
100
AcDbRotatedDimension
1001
GENIUS_GENDTOL_13
1000

1000
h7
1000

1040
0.0
1001
ACAD
1000
DSTYLE
1002
{
1070
   287
1070
     3
1070
    40
1040
0.5
1070
    42
1040
1.0
1070
    43
1040
12.0
1070
    48
1040
0.1
1070
    78
1070
     8
1070
   140
1040
3.2
1070
   176
1070
   256
1070
   177
1070
   256
1070
   271
1070
     1
1070
   272
1070
     3
1070
   275
1070
     0
1070
   284
1070
     0
1070
   289
1070
     3
1070
   340
1005
6B
1070
   371
1070
    -1
1070
   372
1070
    -1
1002
}
  0
VIEWPORT
  5
110
330
101
100
AcDbEntity
 67
     1
  8
0
100
AcDbViewport
 10
420.5
 20
297.0
 30
0.0
 40
948.9782706766916
 41
628.452
 68
     1
 69
     1
1001
ACAD
1000
MVIEW
1002
{
1070
    16
1010
0.0
1020
0.0
1030
0.0
1010
0.0
1020
0.0
1030
1.0
1040
0.0
1040
628.452
1040
420.5
1040
297.0
1040
50.0
1040
0.0
1040
0.0
1070
     0
1070
   100
1070
     1
1070
     1
1070
     0
1070
     0
1070
     0
1070
     0
1040
0.0
1040
0.0
1040
0.0
1040
10.0
1040
10.0
1040
10.0
1040
10.0
1070
     0
1002
{
1002
}
1002
}
  0
ENDSEC
  0
SECTION
  2
OBJECTS
  0
DICTIONARY
  5
C
330
0
100
AcDbDictionary
  3
ACAD_GROUP
350
D
  3
ACAD_LAYOUT
350
1A
  3
ACAD_MLINESTYLE
350
17
  3
ACAD_PLOTSETTINGS
350
19
  3
ACAD_PLOTSTYLENAME
350
E
  3
ACDBVARIABLEDICTIONARY
350
34
  3
ACMDICTIONARY
350
43
  3
AMG
350
2B
  3
AMGSNAPSETTINGS
350
6E
  3
DWGPROPS
350
7C81
  3
ACDBHEADERROUNDTRIPXREC
350
7C8F
  0
DICTIONARY
  5
74
330
1F
100
AcDbDictionary
280
     1
  3
ACAD_INDEX
360
7C83
  3
ACAD_LAYOUTSELFREF
360
7CB2
  0
DICTIONARY
  5
7CB7
330
101
100
AcDbDictionary
280
     1
  3
ACAD_LAYOUTSELFREF
360
7CB8
  0
DICTIONARY
  5
D
102
{ACAD_REACTORS
330
C
102
}
330
C
100
AcDbDictionary
  0
DICTIONARY
  5
1A
102
{ACAD_REACTORS
330
C
102
}
330
C
100
AcDbDictionary
  0
DICTIONARY
  5
17
102
{ACAD_REACTORS
330
C
102
}
330
C
100
AcDbDictionary
  3
STANDARD
350
18
  0
DICTIONARY
  5
19
102
{ACAD_REACTORS
330
C
102
}
330
C
100
AcDbDictionary
  3
ASAMI
350
399D
  0
ACDBDICTIONARYWDFLT
  5
E
102
{ACAD_REACTORS
330
C
102
}
330
C
100
AcDbDictionary
281
     1
  3
Normal
350
F
100
AcDbDictionaryWithDefault
340
F
  0
DICTIONARY
  5
34
102
{ACAD_REACTORS
330
C
102
}
330
C
100
AcDbDictionary
  3
INDEXCTL
350
35
  3
SORTENTS
350
B5E
  0
DICTIONARY
  5
43
102
{ACAD_REACTORS
330
C
102
}
330
C
100
AcDbDictionary
  3
ACMSTDDICTIONARY
350
260
  0
DICTIONARY
  5
2B
102
{ACAD_REACTORS
330
C
102
}
330
C
100
AcDbDictionary
  3
ACMGSETTINGS
350
2C
  0
DICTIONARY
  5
6E
102
{ACAD_REACTORS
330
C
102
}
330
C
100
AcDbDictionary
  0
XRECORD
  5
7C81
102
{ACAD_REACTORS
330
C
102
}
330
C
100
AcDbXrecord
  1
DWGPROPS COOKIE
  2

  3

  4

  6

  7

  8

  9

300
AmdtFileType=82
301
=
302
=
303
=
304
=
305
=
306
=
307
=
308
=
309
=
 40
0.7554016898148149
 41
2452802.716478761
 42
2452938.000316099
  1

 90
        1
  0
DICTIONARY
  5
7C8F
102
{ACAD_REACTORS
330
C
102
}
330
C
100
AcDbDictionary
  3
TSTACKALIGN
350
7C90
  3
TSTACKSIZE
350
7C91
  3
HYPERLINKBASE
350
7C92
  3
STYLESHEET
350
7C93
  3
LAYOUTDICT
350
7C94
  3
PLOTSETDICT
350
7C95
  3
PLOTSTYLNAMDICT
350
7C96
  3
LWETCUNION
350
7C97
  3
INSUNITS
350
7C98
  3
CEPSNTYPE
350
7C99
  3
FINGERPRINTGUID
350
7C9A
  3
VERSIONGUID
350
7C9B
  3
PSVPSCALE
350
7C9C
  3
DIMSTYLEDATA
350
7C9D
  3
PUCSORTHOREF
350
7C9E
  3
PUCSORTHOVIEW
350
7C9F
  3
PUCSBASE
350
7CA0
  3
PUCSORGTOP
350
7CA1
  3
PUCSORGBOTTOM
350
7CA2
  3
PUCSORGLEFT
350
7CA3
  3
PUCSORGRIGHT
350
7CA4
  3
PUCSORGFRONT
350
7CA5
  3
PUCSORGBACK
350
7CA6
  3
UCSORTHOREF
350
7CA7
  3
UCSORTHOVIEW
350
7CA8
  3
UCSBASE
350
7CA9
  3
UCSORGTOP
350
7CAA
  3
UCSORGBOTTOM
350
7CAB
  3
UCSORGLEFT
350
7CAC
  3
UCSORGRIGHT
350
7CAD
  3
UCSORGFRONT
350
7CAE
  3
UCSORGBACK
350
7CAF
  0
DICTIONARY
  5
7C83
102
{ACAD_REACTORS
330
74
102
}
330
74
100
AcDbDictionary
  3
*A1
350
7C84
  0
XRECORD
  5
7CB2
102
{ACAD_REACTORS
330
74
102
}
330
74
100
AcDbXrecord
340
1F
  0
XRECORD
  5
7CB8
102
{ACAD_REACTORS
330
7CB7
102
}
330
7CB7
100
AcDbXrecord
340
101
  0
MLINESTYLE
  5
18
102
{ACAD_REACTORS
330
17
102
}
330
17
100
AcDbMlineStyle
  2
STANDARD
 70
     0
  3

 62
   256
 51
90.0
 52
90.0
 71
     2
 49
0.5
 62
   256
  6
BYLAYER
 49
-0.5
 62
   256
  6
BYLAYER
  0
PLOTSETTINGS
  5
399D
102
{ACAD_REACTORS
330
19
102
}
330
19
100
AcDbPlotSettings
  1
asami
  2
RICOH imagio MF1540
  4
A4
  6

 40
5.831416606903076
 41
7.651742935180664
 42
4.90008544921875
 43
5.789077758789062
 44
296.9683227539062
 45
209.9733276367187
 46
0.0
 47
0.0
 48
-156.6707931774246
 49
-74.57609991074048
140
58.59973180214831
141
60.61068161925596
142
1.0
143
1.095343097833084
 70
  1712
 72
     1
 73
     1
 74
     4
  7
asami.ctb
 75
     0
147
0.9129559514076438
148
156.6707931774246
149
74.57609991074048
  0
ACDBPLACEHOLDER
  5
F
102
{ACAD_REACTORS
330
E
102
}
330
E
100
AcDbPlaceHolder
280
     0
  0
DICTIONARYVAR
  5
35
102
{ACAD_REACTORS
330
34
102
}
330
34
100
DictionaryVariables
280
     0
  1
1
  0
DICTIONARYVAR
  5
B5E
102
{ACAD_REACTORS
330
34
102
}
330
34
100
DictionaryVariables
280
     0
  1
96
  0
DICTIONARY
  5
260
102
{ACAD_REACTORS
330
43
102
}
330
43
100
AcDbDictionary
  0
DICTIONARY
  5
2C
102
{ACAD_REACTORS
330
2B
102
}
330
2B
100
AcDbDictionary
  3
DWGSETTINGS
350
2D
  0
XRECORD
  5
7C90
102
{ACAD_REACTORS
330
7C8F
102
}
330
7C8F
100
AcDbXrecord
 90
        1
  0
XRECORD
  5
7C91
102
{ACAD_REACTORS
330
7C8F
102
}
330
7C8F
100
AcDbXrecord
 90
       70
  0
XRECORD
  5
7C92
102
{ACAD_REACTORS
330
7C8F
102
}
330
7C8F
100
AcDbXrecord
  1

  0
XRECORD
  5
7C93
102
{ACAD_REACTORS
330
7C8F
102
}
330
7C8F
100
AcDbXrecord
  1
asami.ctb
  0
XRECORD
  5
7C94
102
{ACAD_REACTORS
330
7C8F
102
}
330
7C8F
100
AcDbXrecord
340
1A
  0
XRECORD
  5
7C95
102
{ACAD_REACTORS
330
7C8F
102
}
330
7C8F
100
AcDbXrecord
340
19
  0
XRECORD
  5
7C96
102
{ACAD_REACTORS
330
7C8F
102
}
330
7C8F
100
AcDbXrecord
340
E
  0
XRECORD
  5
7C97
102
{ACAD_REACTORS
330
7C8F
102
}
330
7C8F
100
AcDbXrecord
 90
    10781
  0
XRECORD
  5
7C98
102
{ACAD_REACTORS
330
7C8F
102
}
330
7C8F
100
AcDbXrecord
 90
        4
  0
XRECORD
  5
7C99
102
{ACAD_REACTORS
330
7C8F
102
}
330
7C8F
100
AcDbXrecord
 90
        0
  0
XRECORD
  5
7C9A
102
{ACAD_REACTORS
330
7C8F
102
}
330
7C8F
100
AcDbXrecord
  1
{AFB28963-8C59-40AE-9337-C84526B81ACE}
  0
XRECORD
  5
7C9B
102
{ACAD_REACTORS
330
7C8F
102
}
330
7C8F
100
AcDbXrecord
  1
{8317921B-0B29-48FB-BF55-7326C3CE5546}
  0
XRECORD
  5
7C9C
102
{ACAD_REACTORS
330
7C8F
102
}
330
7C8F
100
AcDbXrecord
 40
0.0
  0
XRECORD
  5
7C9D
102
{ACAD_REACTORS
330
7C8F
102
}
330
7C8F
100
AcDbXrecord
1000
DSTYLE
1002
{
1070
    79
 70
     2
1070
   341
340
59
1070
   342
340
59
1070
   371
 70
    -1
1070
   372
 70
    -1
1002
}
  0
XRECORD
  5
7C9E
102
{ACAD_REACTORS
330
7C8F
102
}
330
7C8F
100
AcDbXrecord
340
0
  0
XRECORD
  5
7C9F
102
{ACAD_REACTORS
330
7C8F
102
}
330
7C8F
100
AcDbXrecord
 70
     0
  0
XRECORD
  5
7CA0
102
{ACAD_REACTORS
330
7C8F
102
}
330
7C8F
100
AcDbXrecord
340
0
  0
XRECORD
  5
7CA1
102
{ACAD_REACTORS
330
7C8F
102
}
330
7C8F
100
AcDbXrecord
 10
0.0
 20
0.0
 30
0.0
  0
XRECORD
  5
7CA2
102
{ACAD_REACTORS
330
7C8F
102
}
330
7C8F
100
AcDbXrecord
 10
0.0
 20
0.0
 30
0.0
  0
XRECORD
  5
7CA3
102
{ACAD_REACTORS
330
7C8F
102
}
330
7C8F
100
AcDbXrecord
 10
0.0
 20
0.0
 30
0.0
  0
XRECORD
  5
7CA4
102
{ACAD_REACTORS
330
7C8F
102
}
330
7C8F
100
AcDbXrecord
 10
0.0
 20
0.0
 30
0.0
  0
XRECORD
  5
7CA5
102
{ACAD_REACTORS
330
7C8F
102
}
330
7C8F
100
AcDbXrecord
 10
0.0
 20
0.0
 30
0.0
  0
XRECORD
  5
7CA6
102
{ACAD_REACTORS
330
7C8F
102
}
330
7C8F
100
AcDbXrecord
 10
0.0
 20
0.0
 30
0.0
  0
XRECORD
  5
7CA7
102
{ACAD_REACTORS
330
7C8F
102
}
330
7C8F
100
AcDbXrecord
340
0
  0
XRECORD
  5
7CA8
102
{ACAD_REACTORS
330
7C8F
102
}
330
7C8F
100
AcDbXrecord
 70
     0
  0
XRECORD
  5
7CA9
102
{ACAD_REACTORS
330
7C8F
102
}
330
7C8F
100
AcDbXrecord
340
0
  0
XRECORD
  5
7CAA
102
{ACAD_REACTORS
330
7C8F
102
}
330
7C8F
100
AcDbXrecord
 10
0.0
 20
0.0
 30
0.0
  0
XRECORD
  5
7CAB
102
{ACAD_REACTORS
330
7C8F
102
}
330
7C8F
100
AcDbXrecord
 10
0.0
 20
0.0
 30
0.0
  0
XRECORD
  5
7CAC
102
{ACAD_REACTORS
330
7C8F
102
}
330
7C8F
100
AcDbXrecord
 10
0.0
 20
0.0
 30
0.0
  0
XRECORD
  5
7CAD
102
{ACAD_REACTORS
330
7C8F
102
}
330
7C8F
100
AcDbXrecord
 10
0.0
 20
0.0
 30
0.0
  0
XRECORD
  5
7CAE
102
{ACAD_REACTORS
330
7C8F
102
}
330
7C8F
100
AcDbXrecord
 10
0.0
 20
0.0
 30
0.0
  0
XRECORD
  5
7CAF
102
{ACAD_REACTORS
330
7C8F
102
}
330
7C8F
100
AcDbXrecord
 10
0.0
 20
0.0
 30
0.0
  0
LAYER_INDEX
  5
7C84
102
{ACAD_REACTORS
330
7C83
102
}
330
7C83
100
AcDbIndex
 40
2452941.600399479
100
AcDbLayerIndex
  8
0
360
7C85
 90
        0
  8
AM_0
360
7C86
 90
        0
  8
AM_5
360
7C87
 90
        8
  8
AM_7
360
7C88
 90
        0
  8
AM_6
360
7C89
 90
        3
  8
Defpoints
360
7C8A
 90
        0
  8
AM_3
360
7C8B
 90
        0
  8
AM_11
360
7C8C
 90
        0
  8
PV0001_1
360
7C8D
 90
      107
  0
XRECORD
  5
2D
102
{ACAD_REACTORS
330
2C
102
}
330
2C
100
AcDbXrecord
  1
VERSION
140
15.0
  1
PRODUCT
  2
AutoCAD Mechanical 2000
  0
IDBUFFER
  5
7C85
330
0
100
AcDbIdBuffer
  0
IDBUFFER
  5
7C86
330
0
100
AcDbIdBuffer
  0
IDBUFFER
  5
7C87
330
0
100
AcDbIdBuffer
330
68AD
330
68AE
330
7823
330
78B3
330
795E
330
79F3
330
7AB1
330
7B45
  0
IDBUFFER
  5
7C88
330
0
100
AcDbIdBuffer
  0
IDBUFFER
  5
7C89
330
0
100
AcDbIdBuffer
330
388D
330
68AC
330
68AF
  0
IDBUFFER
  5
7C8A
330
0
100
AcDbIdBuffer
  0
IDBUFFER
  5
7C8B
330
0
100
AcDbIdBuffer
  0
IDBUFFER
  5
7C8C
330
0
100
AcDbIdBuffer
  0
IDBUFFER
  5
7C8D
330
0
100
AcDbIdBuffer
330
772B
330
772C
330
772D
330
772E
330
772F
330
7730
330
7731
330
7732
330
7733
330
7734
330
7735
330
7736
330
7737
330
7738
330
7739
330
773A
330
773C
330
773D
330
773E
330
773F
330
7743
330
7744
330
7747
330
774E
330
774F
330
7750
330
7751
330
7752
330
7753
330
7754
330
7755
330
7756
330
7757
330
7758
330
775A
330
775B
330
775C
330
775D
330
775F
330
7760
330
7761
330
7762
330
7769
330
776A
330
776B
330
776C
330
776D
330
776E
330
776F
330
7770
330
7771
330
7772
330
7773
330
7774
330
7775
330
7776
330
7777
330
7779
330
777B
330
76F8
330
76F9
330
76FA
330
76FB
330
76FE
330
76FF
330
7700
330
7701
330
7702
330
7703
330
7704
330
7705
330
7706
330
7707
330
7709
330
770A
330
770B
330
770C
330
770D
330
770E
330
770F
330
7710
330
7711
330
7712
330
7713
330
7714
330
7715
330
7716
330
7717
330
7718
330
7719
330
771A
330
771B
330
771C
330
771D
330
771E
330
771F
330
7720
330
7721
330
7722
330
7723
330
7724
330
7725
330
7726
330
7727
330
7728
330
7729
330
772A
  0
ENDSEC
  0
EOF
