  0
SECTION
  2
HEADER
  9
$ACADVER
  1
AC1015
  9
$ACADMAINTVER
 70
    20
  9
$DWGCODEPAGE
  3
ANSI_932
  9
$INSBASE
 10
0.0
 20
0.0
 30
0.0
  9
$EXTMIN
 10
-28.38077920727358
 20
-48.36348932245582
 30
-0.0000000349181948
  9
$EXTMAX
 10
112.3001145895704
 20
20.00565352067429
 30
0.0000000814935747
  9
$LIMMIN
 10
-125.3273195990943
 20
-61.10903758602964
  9
$LIMMAX
 10
44.62811126559967
 20
50.51627752776109
  9
$ORTHOMODE
 70
     0
  9
$REGENMODE
 70
     1
  9
$FILLMODE
 70
     1
  9
$QTEXTMODE
 70
     0
  9
$MIRRTEXT
 70
     0
  9
$LTSCALE
 40
1.0
  9
$ATTMODE
 70
     1
  9
$TEXTSIZE
 40
2.5
  9
$TRACEWID
 40
1.0
  9
$TEXTSTYLE
  7
STANDARD
  9
$CLAYER
  8
AM_0
  9
$CELTYPE
  6
BYLAYER
  9
$CECOLOR
 62
   256
  9
$CELTSCALE
 40
1.0
  9
$DISPSILH
 70
     0
  9
$DIMSCALE
 40
0.5
  9
$DIMASZ
 40
2.5
  9
$DIMEXO
 40
1.0
  9
$DIMDLI
 40
12.0
  9
$DIMRND
 40
0.0
  9
$DIMDLE
 40
0.0
  9
$DIMEXE
 40
1.0
  9
$DIMTP
 40
0.1
  9
$DIMTM
 40
0.1
  9
$DIMTXT
 40
3.2
  9
$DIMCEN
 40
0.0
  9
$DIMTSZ
 40
0.0
  9
$DIMTOL
 70
     0
  9
$DIMLIM
 70
     0
  9
$DIMTIH
 70
     0
  9
$DIMTOH
 70
     0
  9
$DIMSE1
 70
     0
  9
$DIMSE2
 70
     0
  9
$DIMTAD
 70
     3
  9
$DIMZIN
 70
     8
  9
$DIMBLK
  1
OPEN30
  9
$DIMASO
 70
     1
  9
$DIMSHO
 70
     1
  9
$DIMPOST
  1

  9
$DIMAPOST
  1
"
  9
$DIMALT
 70
     0
  9
$DIMALTD
 70
     2
  9
$DIMALTF
 40
0.0393701
  9
$DIMLFAC
 40
1.0
  9
$DIMTOFL
 70
     1
  9
$DIMTVP
 40
0.0
  9
$DIMTIX
 70
     0
  9
$DIMSOXD
 70
     0
  9
$DIMSAH
 70
     0
  9
$DIMBLK1
  1

  9
$DIMBLK2
  1

  9
$DIMSTYLE
  2
AM_JIS
  9
$DIMCLRD
 70
   256
  9
$DIMCLRE
 70
   256
  9
$DIMCLRT
 70
     2
  9
$DIMTFAC
 40
0.71
  9
$DIMGAP
 40
1.5
  9
$DIMJUST
 70
     0
  9
$DIMSD1
 70
     0
  9
$DIMSD2
 70
     0
  9
$DIMTOLJ
 70
     0
  9
$DIMTZIN
 70
     0
  9
$DIMALTZ
 70
     0
  9
$DIMALTTZ
 70
     0
  9
$DIMUPT
 70
     0
  9
$DIMDEC
 70
     3
  9
$DIMTDEC
 70
     3
  9
$DIMALTU
 70
     2
  9
$DIMALTTD
 70
     2
  9
$DIMTXSTY
  7
ASAMI
  9
$DIMAUNIT
 70
     0
  9
$DIMADEC
 70
     0
  9
$DIMALTRND
 40
0.0
  9
$DIMAZIN
 70
     2
  9
$DIMDSEP
 70
    46
  9
$DIMATFIT
 70
     3
  9
$DIMFRAC
 70
     0
  9
$DIMLDRBLK
  1
OPEN30
  9
$DIMLUNIT
 70
     2
  9
$DIMLWD
 70
    -1
  9
$DIMLWE
 70
    -1
  9
$DIMTMOVE
 70
     0
  9
$LUNITS
 70
     2
  9
$LUPREC
 70
     2
  9
$SKETCHINC
 40
1.0
  9
$FILLETRAD
 40
0.8
  9
$AUNITS
 70
     0
  9
$AUPREC
 70
     0
  9
$MENU
  1
.
  9
$ELEVATION
 40
0.0
  9
$PELEVATION
 40
0.0
  9
$THICKNESS
 40
0.0
  9
$LIMCHECK
 70
     1
  9
$CHAMFERA
 40
1.0
  9
$CHAMFERB
 40
1.0
  9
$CHAMFERC
 40
20.0
  9
$CHAMFERD
 40
0.0
  9
$SKPOLY
 70
     0
  9
$TDCREATE
 40
2452802.716478762
  9
$TDUCREATE
 40
2452802.341478762
  9
$TDUPDATE
 40
2455601.472189479
  9
$TDUUPDATE
 40
2455601.097189479
  9
$TDINDWG
 40
0.7964789931
  9
$TDUSRTIMER
 40
0.7964789931
  9
$USRTIMER
 70
     1
  9
$ANGBASE
 50
0.0
  9
$ANGDIR
 70
     0
  9
$PDMODE
 70
     0
  9
$PDSIZE
 40
0.0
  9
$PLINEWID
 40
0.0
  9
$SPLFRAME
 70
     0
  9
$SPLINETYPE
 70
     6
  9
$SPLINESEGS
 70
     8
  9
$HANDSEED
  5
6469
  9
$SURFTAB1
 70
     6
  9
$SURFTAB2
 70
     6
  9
$SURFTYPE
 70
     6
  9
$SURFU
 70
     6
  9
$SURFV
 70
     6
  9
$UCSBASE
  2

  9
$UCSNAME
  2

  9
$UCSORG
 10
-0.0000000000002682
 20
0.000000000000161
 30
0.0
  9
$UCSXDIR
 10
1.0
 20
0.000000000000002
 30
0.0
  9
$UCSYDIR
 10
-0.000000000000002
 20
1.0
 30
0.0
  9
$UCSORTHOREF
  2

  9
$UCSORTHOVIEW
 70
     0
  9
$UCSORGTOP
 10
0.0
 20
0.0
 30
0.0
  9
$UCSORGBOTTOM
 10
0.0
 20
0.0
 30
0.0
  9
$UCSORGLEFT
 10
0.0
 20
0.0
 30
0.0
  9
$UCSORGRIGHT
 10
0.0
 20
0.0
 30
0.0
  9
$UCSORGFRONT
 10
0.0
 20
0.0
 30
0.0
  9
$UCSORGBACK
 10
0.0
 20
0.0
 30
0.0
  9
$PUCSBASE
  2

  9
$PUCSNAME
  2

  9
$PUCSORG
 10
0.0
 20
0.0
 30
0.0
  9
$PUCSXDIR
 10
1.0
 20
0.0
 30
0.0
  9
$PUCSYDIR
 10
0.0
 20
1.0
 30
0.0
  9
$PUCSORTHOREF
  2

  9
$PUCSORTHOVIEW
 70
     0
  9
$PUCSORGTOP
 10
0.0
 20
0.0
 30
0.0
  9
$PUCSORGBOTTOM
 10
0.0
 20
0.0
 30
0.0
  9
$PUCSORGLEFT
 10
0.0
 20
0.0
 30
0.0
  9
$PUCSORGRIGHT
 10
0.0
 20
0.0
 30
0.0
  9
$PUCSORGFRONT
 10
0.0
 20
0.0
 30
0.0
  9
$PUCSORGBACK
 10
0.0
 20
0.0
 30
0.0
  9
$USERI1
 70
     0
  9
$USERI2
 70
     0
  9
$USERI3
 70
     0
  9
$USERI4
 70
     0
  9
$USERI5
 70
     0
  9
$USERR1
 40
0.0
  9
$USERR2
 40
0.0
  9
$USERR3
 40
0.0
  9
$USERR4
 40
0.0
  9
$USERR5
 40
0.0
  9
$WORLDVIEW
 70
     1
  9
$SHADEDGE
 70
     3
  9
$SHADEDIF
 70
    70
  9
$TILEMODE
 70
     1
  9
$MAXACTVP
 70
    64
  9
$PINSBASE
 10
0.0
 20
0.0
 30
0.0
  9
$PLIMCHECK
 70
     0
  9
$PEXTMIN
 10
1.000000000000000E+20
 20
1.000000000000000E+20
 30
1.000000000000000E+20
  9
$PEXTMAX
 10
-1.000000000000000E+20
 20
-1.000000000000000E+20
 30
-1.000000000000000E+20
  9
$PLIMMIN
 10
0.0
 20
0.0
  9
$PLIMMAX
 10
841.0
 20
594.0
  9
$UNITMODE
 70
     0
  9
$VISRETAIN
 70
     1
  9
$PLINEGEN
 70
     0
  9
$PSLTSCALE
 70
     0
  9
$TREEDEPTH
 70
  3020
  9
$CMLSTYLE
  2
STANDARD
  9
$CMLJUST
 70
     0
  9
$CMLSCALE
 40
20.0
  9
$PROXYGRAPHICS
 70
     1
  9
$MEASUREMENT
 70
     1
  9
$CELWEIGHT
370
    -1
  9
$ENDCAPS
280
     0
  9
$JOINSTYLE
280
     0
  9
$LWDISPLAY
290
     0
  9
$INSUNITS
 70
     4
  9
$HYPERLINKBASE
  1

  9
$STYLESHEET
  1
ASAMI.CTB
  9
$XEDIT
290
     1
  9
$CEPSNTYPE
380
     0
  9
$PSTYLEMODE
290
     1
  9
$FINGERPRINTGUID
  2
{AFB28963-8C59-40AE-9337-C84526B81ACE}
  9
$VERSIONGUID
  2
{E285B5E4-37E8-48C6-9E3C-0ADD9B8A1CDA}
  9
$EXTNAMES
290
     1
  9
$PSVPSCALE
 40
0.0
  9
$OLESTARTUP
290
     0
  0
ENDSEC
  0
SECTION
  2
CLASSES
  0
CLASS
  1
ACDBDICTIONARYWDFLT
  2
AcDbDictionaryWithDefault
  3
ObjectDBX Classes
 90
        0
280
     0
281
     0
  0
CLASS
  1
ACDBPLACEHOLDER
  2
AcDbPlaceHolder
  3
ObjectDBX Classes
 90
        0
280
     0
281
     0
  0
CLASS
  1
LAYOUT
  2
AcDbLayout
  3
ObjectDBX Classes
 90
        0
280
     0
281
     0
  0
CLASS
  1
AMGSETTINGSOBJ
  2
AmgSettingsObj
  3
"AcadM|Product Description: AutoCAD Mechanical 2000|Company: Autodesk"
 90
        0
280
     0
281
     0
  0
CLASS
  1
ACME_DOCUMENT
  2
AcMeDbDoc
  3
AcMeServices
 90
        0
280
     0
281
     0
  0
CLASS
  1
ACMESCOPE
  2
AcMeScope
  3
AcMeServices
 90
        0
280
     0
281
     0
  0
CLASS
  1
ACMECOMMANDHISTORY
  2
AcMeCommandHistory
  3
AcMeServices
 90
        0
280
     0
281
     0
  0
CLASS
  1
DICTIONARYVAR
  2
AcDbDictionaryVar
  3
ObjectDBX Classes
 90
        0
280
     0
281
     0
  0
CLASS
  1
ACIMSYSVARMAN
  2
AcImSysVarManager
  3
AcMeServices
 90
        0
280
     0
281
     0
  0
CLASS
  1
ACIMREALSYSVAR
  2
AcImRealSysVar
  3
AcMeServices
 90
        0
280
     0
281
     0
  0
CLASS
  1
ACIMINTSYSVAR
  2
AcImIntSysVar
  3
AcMeServices
 90
        0
280
     0
281
     0
  0
CLASS
  1
ACMEDRAWINGMAN
  2
AcMeDrawingMan
  3
AcMeServices
 90
        0
280
     0
281
     0
  0
CLASS
  1
ACMEVIEW
  2
AcMeView
  3
AcMeServices
 90
        0
280
     0
281
     0
  0
CLASS
  1
ACDBENTITYCACHE
  2
AcMeEntityCache
  3
AcMeServices
 90
        0
280
     0
281
     0
  0
CLASS
  1
GSMANAGER
  2
AcMeGSManager
  3
AcMeServices
 90
        0
280
     0
281
     0
  0
CLASS
  1
AMDTINTERNALREACTOR
  2
AmdtInternalReactor
  3
AcMeServices
 90
        0
280
     0
281
     0
  0
CLASS
  1
ACMESTATEMGR
  2
AcMeStateMgr
  3
AcMeServices
 90
        0
280
     0
281
     0
  0
CLASS
  1
ACME_DATABASE
  2
AcMeDbDatabase
  3
AcMeServices
 90
        0
280
     0
281
     0
  0
CLASS
  1
ACRFINSADJUSTERMGR
  2
AcRfInsAdjusterMgr
  3
AcMeServices
 90
        0
280
     0
281
     0
  0
CLASS
  1
ACMDATADICTIONARY
  2
AcmDataDictionary
  3
"AcmSymBB|Product Description: AutoCAD Mechanical 2004 DX|Company: Autodesk"
 90
        0
280
     0
281
     0
  0
CLASS
  1
ACMDATAENTRYBLOCK
  2
AcmDataEntryBlock
  3
"AcmSymBB|Product Description: AutoCAD Mechanical 2004 DX|Company: Autodesk"
 90
    32768
280
     0
281
     0
  0
CLASS
  1
AMGOBJPROPCFG
  2
AmgObjPropCfg
  3
"AmgLay|Product Description: AutoCAD Mechanical 2000|Company: Autodesk"
 90
        1
280
     0
281
     0
  0
CLASS
  1
ACAMGFILTERDAT
  2
AcAmgFilterDat
  3
"AcadM|Product Description: AutoCAD Mechanical 2000|Company: Autodesk"
 90
    32768
280
     0
281
     0
  0
CLASS
  1
LAYER_INDEX
  2
AcDbLayerIndex
  3
ObjectDBX Classes
 90
        0
280
     0
281
     0
  0
CLASS
  1
IDBUFFER
  2
AcDbIdBuffer
  3
ObjectDBX Classes
 90
        0
280
     0
281
     0
  0
CLASS
  1
ACIMSTRSYSVAR
  2
AcImStrSysVar
  3
AcMeServices
 90
        0
280
     0
281
     0
  0
CLASS
  1
ACMSTANDARDJIS
  2
AcmStandardJIS
  3
"Amdt_StdImp|Product Description: AutoCAD Mechanical 2004 DX|Company: Autodesk"
 90
    32768
280
     0
281
     0
  0
CLASS
  1
ACMSURFSTANDARDJIS
  2
AcmSurfTextStdJIS
  3
"Amdt_StdImp|Product Description: AutoCAD Mechanical 2004 DX|Company: Autodesk"
 90
    32768
280
     0
281
     0
  0
CLASS
  1
ACMFCFSTANDARDJIS
  2
AcmFCFStdJIS
  3
"Amdt_StdImp|Product Description: AutoCAD Mechanical 2004 DX|Company: Autodesk"
 90
    32768
280
     0
281
     0
  0
CLASS
  1
ACMWELDSTANDARDJIS
  2
AcmWeldingStdJIS
  3
"Amdt_StdImp|Product Description: AutoCAD Mechanical 2004 DX|Company: Autodesk"
 90
    32768
280
     0
281
     0
  0
CLASS
  1
ACMIDSTANDARDJIS
  2
AcmIdStdJIS
  3
"Amdt_StdImp|Product Description: AutoCAD Mechanical 2004 DX|Company: Autodesk"
 90
    32768
280
     0
281
     0
  0
CLASS
  1
ACMDATUMSTANDARDJIS
  2
AcmDatumStdJIS
  3
"Amdt_StdImp|Product Description: AutoCAD Mechanical 2004 DX|Company: Autodesk"
 90
    32768
280
     0
281
     0
  0
CLASS
  1
ACMBOMSTANDARDJIS
  2
AcmBOMStdJIS
  3
"Amdt_StdImp|Product Description: AutoCAD Mechanical 2004 DX|Company: Autodesk"
 90
    32768
280
     0
281
     0
  0
CLASS
  1
ACMSTANDARDANSI
  2
AcmStandardANSI
  3
"Amdt_StdImp|Product Description: AutoCAD Mechanical 2004 DX|Company: Autodesk"
 90
    32768
280
     0
281
     0
  0
CLASS
  1
ACMSURFSTANDARDANSI
  2
AcmSurfTextStdANSI
  3
"Amdt_StdImp|Product Description: AutoCAD Mechanical 2004 DX|Company: Autodesk"
 90
    32768
280
     0
281
     0
  0
CLASS
  1
ACMFCFSTANDARDANSI
  2
AcmFCFStdANSI
  3
"Amdt_StdImp|Product Description: AutoCAD Mechanical 2004 DX|Company: Autodesk"
 90
    32768
280
     0
281
     0
  0
CLASS
  1
ACMWELDSTANDARDANSI
  2
AcmWeldingStdANSI
  3
"Amdt_StdImp|Product Description: AutoCAD Mechanical 2004 DX|Company: Autodesk"
 90
    32768
280
     0
281
     0
  0
CLASS
  1
ACMIDSTANDARDANSI
  2
AcmIdStdANSI
  3
"Amdt_StdImp|Product Description: AutoCAD Mechanical 2004 DX|Company: Autodesk"
 90
    32768
280
     0
281
     0
  0
CLASS
  1
ACMDATUMSTANDARDANSI
  2
AcmDatumStdANSI
  3
"Amdt_StdImp|Product Description: AutoCAD Mechanical 2004 DX|Company: Autodesk"
 90
    32768
280
     0
281
     0
  0
CLASS
  1
ACMBOMSTANDARDANSI
  2
AcmBOMStdANSI
  3
"Amdt_StdImp|Product Description: AutoCAD Mechanical 2004 DX|Company: Autodesk"
 90
    32768
280
     0
281
     0
  0
CLASS
  1
ACMSTANDARDBSI
  2
AcmStandardBSI
  3
"Amdt_StdImp|Product Description: AutoCAD Mechanical 2004 DX|Company: Autodesk"
 90
    32768
280
     0
281
     0
  0
CLASS
  1
ACMSURFSTANDARDBSI
  2
AcmSurfTextStdBSI
  3
"Amdt_StdImp|Product Description: AutoCAD Mechanical 2004 DX|Company: Autodesk"
 90
    32768
280
     0
281
     0
  0
CLASS
  1
ACMFCFSTANDARDBSI
  2
AcmFCFStdBSI
  3
"Amdt_StdImp|Product Description: AutoCAD Mechanical 2004 DX|Company: Autodesk"
 90
    32768
280
     0
281
     0
  0
CLASS
  1
ACMWELDSTANDARDBSI
  2
AcmWeldingStdBSI
  3
"Amdt_StdImp|Product Description: AutoCAD Mechanical 2004 DX|Company: Autodesk"
 90
    32768
280
     0
281
     0
  0
CLASS
  1
ACMIDSTANDARDBSI
  2
AcmIdStdBSI
  3
"Amdt_StdImp|Product Description: AutoCAD Mechanical 2004 DX|Company: Autodesk"
 90
    32768
280
     0
281
     0
  0
CLASS
  1
ACMDATUMSTANDARDBSI
  2
AcmDatumStdBSI
  3
"Amdt_StdImp|Product Description: AutoCAD Mechanical 2004 DX|Company: Autodesk"
 90
    32768
280
     0
281
     0
  0
CLASS
  1
ACMBOMSTANDARDBSI
  2
AcmBOMStdBSI
  3
"Amdt_StdImp|Product Description: AutoCAD Mechanical 2004 DX|Company: Autodesk"
 90
    32768
280
     0
281
     0
  0
CLASS
  1
STDPART2D
  2
AmgStdPart
  3
"AmgStdPart|Product Description: AutoCAD Mechanical 2000|Company: Autodesk"
 90
    33791
280
     0
281
     1
  0
CLASS
  1
PLOTSETTINGS
  2
AcDbPlotSettings
  3
ObjectDBX Classes
 90
        0
280
     0
281
     0
  0
CLASS
  1
TABLESTYLE
  2
AcDbTableStyle
  3
ObjectDBX Classes
 90
     2047
280
     0
281
     0
  0
CLASS
  1
ACGREFMASTER
  2
AcGrefMaster
  3
AcAttribServices
 90
        0
280
     0
281
     0
  0
CLASS
  1
AM_DRAWING_MGR
  2
AcDmDwgMgr
  3
AcMechDwgViewMgmt
 90
        0
280
     0
281
     0
  0
CLASS
  1
AM_DWG_DOCUMENT
  2
AcDmDwgDocument
  3
AcMechDwgViewMgmt
 90
        0
280
     0
281
     0
  0
CLASS
  1
AM_DWG_SHEET
  2
AcDmSheet
  3
AcMechDwgViewMgmt
 90
        0
280
     0
281
     0
  0
CLASS
  1
AM_VIEWDIMPARMAP
  2
AcDmViewDimParMap
  3
AcMechDwgViewMgmt
 90
        0
280
     0
281
     0
  0
CLASS
  1
AM_DWGMGR_NAME
  2
AcDmDwgMgrName
  3
AcMechDwgViewMgmt
 90
        0
280
     0
281
     0
  0
CLASS
  1
ACGREFACADMASTER
  2
AcGrefacadMaster
  3
AcGrefServices
 90
        0
280
     0
281
     0
  0
CLASS
  1
AMDTMENUSTATEMGR
  2
AmdtMenuStateMgr
  3
McadcomServices
 90
        0
280
     0
281
     0
  0
CLASS
  1
AMDTMCOMMENUSTATE
  2
AmdtMcomMenuState
  3
McadcomServices
 90
        0
280
     0
281
     0
  0
CLASS
  1
AMIMASTER
  2
AmiMaster
  3
AmiServices
 90
        0
280
     0
281
     0
  0
CLASS
  1
MAPIAMMOUDLE
  2
MApiAmModule
  3
MApiAmServices
 90
        0
280
     0
281
     0
  0
CLASS
  1
AMDTADMENUSTATE
  2
AmdtAdMenuState
  3
DesignerServices
 90
        0
280
     0
281
     0
  0
CLASS
  1
ADAPPL
  2
AcAdAppl
  3
DesignerServices
 90
        0
280
     0
281
     0
  0
CLASS
  1
DEPMGR
  2
AcAdDepMgr
  3
DesignerServices
 90
        0
280
     0
281
     0
  0
CLASS
  1
PARAMMGR
  2
AcAdParamMgr
  3
DesignerServices
 90
        0
280
     0
281
     0
  0
CLASS
  1
PARAMSCOPE
  2
AcAdParamScope
  3
DesignerServices
 90
        0
280
     0
281
     0
  0
CLASS
  1
NAMEDAPPL
  2
AcAdNamedAppl
  3
DesignerServices
 90
        0
280
     0
281
     0
  0
CLASS
  1
AMDTDMMENUSTATE
  2
AmdtDmMenuState
  3
AcMechDwgViewMgmt
 90
        0
280
     0
281
     0
  0
CLASS
  1
AMDTAMMENUSTATE
  2
AmdtAmMenuState
  3
DesignerAssemblies
 90
        0
280
     0
281
     0
  0
CLASS
  1
ACAMPROJECT
  2
AcAmProject
  3
DesignerAssemblies
 90
        0
280
     0
281
     0
  0
CLASS
  1
ACAMGRCOMPDEF
  2
AcAmGrCompDef
  3
DesignerAssemblies
 90
        0
280
     0
281
     0
  0
CLASS
  1
ACCMCONTEXT
  2
AcCmContext
  3
DesignerAssemblies
 90
        0
280
     0
281
     0
  0
CLASS
  1
ACAMCOMPDEF
  2
AcAmCompDef
  3
DesignerAssemblies
 90
        0
280
     0
281
     0
  0
CLASS
  1
ACAMCOMPDEFMGR
  2
AcAmCompDefMgr
  3
DesignerAssemblies
 90
        0
280
     0
281
     0
  0
CLASS
  1
AMCONTEXTMGR
  2
AcAmContextMgr
  3
DesignerAssemblies
 90
        0
280
     0
281
     0
  0
CLASS
  1
ACAMCONTEXTMODELER
  2
AcAmContextModeler
  3
DesignerAssemblies
 90
        0
280
     0
281
     0
  0
CLASS
  1
CATALOGSTATE
  2
AcAmCatalogState
  3
DesignerAssemblies
 90
        0
280
     0
281
     0
  0
CLASS
  1
ACAMGRCOMPDEFSET
  2
AcAmGrCompDefSet
  3
DesignerAssemblies
 90
        0
280
     0
281
     0
  0
CLASS
  1
AMDTBROWSERDBTAB
  2
AmdtBrowserDbTab
  3
McadcomServices
 90
        0
280
     0
281
     0
  0
CLASS
  1
CBROWSERAPPOBJECT
  2
CBrowserAppObject
  3
McadcomServices
 90
        0
280
     0
281
     0
  0
CLASS
  1
DM_PLACEHOLDER
  2
AcDmSelsetPlaceholder
  3
AcMechDwgViewMgmt
 90
        0
280
     0
281
     0
  0
CLASS
  1
ACMSTANDARDISO
  2
AcmStandardISO
  3
"Amdt_StdImp|Product Description: AutoCAD Mechanical 2004 DX|Company: Autodesk"
 90
        0
280
     0
281
     0
  0
CLASS
  1
AMDTEDGESTANDARDISO13715
  2
AmdtEdgeStdISO13715
  3
"Amdt_StdImp|Product Description: AutoCAD Mechanical 2004 DX|Company: Autodesk"
 90
        0
280
     0
281
     0
  0
CLASS
  1
ACMSURFSTANDARDISO
  2
AcmSurfTextStdISO
  3
"Amdt_StdImp|Product Description: AutoCAD Mechanical 2004 DX|Company: Autodesk"
 90
        0
280
     0
281
     0
  0
CLASS
  1
ACMFCFSTANDARDISO
  2
AcmFCFStdISO
  3
"Amdt_StdImp|Product Description: AutoCAD Mechanical 2004 DX|Company: Autodesk"
 90
        0
280
     0
281
     0
  0
CLASS
  1
ACMWELDSTANDARDISO
  2
AcmWeldingStdISO
  3
"Amdt_StdImp|Product Description: AutoCAD Mechanical 2004 DX|Company: Autodesk"
 90
        0
280
     0
281
     0
  0
CLASS
  1
ACMIDSTANDARDISO
  2
AcmIdStdISO
  3
"Amdt_StdImp|Product Description: AutoCAD Mechanical 2004 DX|Company: Autodesk"
 90
        0
280
     0
281
     0
  0
CLASS
  1
ACMDATUMSTANDARDISO
  2
AcmDatumStdISO
  3
"Amdt_StdImp|Product Description: AutoCAD Mechanical 2004 DX|Company: Autodesk"
 90
        0
280
     0
281
     0
  0
CLASS
  1
ACMBOMSTANDARDISO
  2
AcmBOMStdISO
  3
"Amdt_StdImp|Product Description: AutoCAD Mechanical 2004 DX|Company: Autodesk"
 90
        0
280
     0
281
     0
  0
CLASS
  1
ACMDETAILSTANDARDISO
  2
AmdtDetailSymStdISO
  3
"Amdt_StdImp|Product Description: AutoCAD Mechanical 2004 DX|Company: Autodesk"
 90
        0
280
     0
281
     0
  0
CLASS
  1
ACMSECTIONSTANDARDISO
  2
AmdtSectionSymStdISO
  3
"Amdt_StdImp|Product Description: AutoCAD Mechanical 2004 DX|Company: Autodesk"
 90
        0
280
     0
281
     0
  0
CLASS
  1
ACMCENTERLINESTANDARDISO
  2
AmdtCenterLineStdISO
  3
"Amdt_StdImp|Product Description: AutoCAD Mechanical 2004 DX|Company: Autodesk"
 90
        0
280
     0
281
     0
  0
CLASS
  1
ACMTHREADLINESTANDARDISO
  2
AmdtThreadLineStdISO
  3
"Amdt_StdImp|Product Description: AutoCAD Mechanical 2004 DX|Company: Autodesk"
 90
        0
280
     0
281
     0
  0
CLASS
  1
ACMNOTESTANDARDISO
  2
AmdtNoteStdISO
  3
"Amdt_StdImp|Product Description: AutoCAD Mechanical 2004 DX|Company: Autodesk"
 90
        0
280
     0
281
     0
  0
CLASS
  1
AMDTNOTETEMPLATEDB
  2
AmdtNoteTemplateDB
  3
AMDT_STDIMP_MODULE_NAME
 90
        0
280
     0
281
     0
  0
CLASS
  1
ACAMGLAYSTD
  2
AcAmgLayStd
  3
"AcAmgLayStd|Product Description: AutoCAD Mechanical 2000|Company: Autodesk"
 90
        0
280
     0
281
     0
  0
CLASS
  1
ACAMGDIMSTD
  2
AcAmgDimStd
  3
"AcAmgDimStd|Product Description: AutoCAD Mechanical 2000|Company: Autodesk"
 90
        0
280
     0
281
     0
  0
CLASS
  1
ACAMGHOLECHARTSTDISO
  2
AcAmgHoleChartStdISO
  3
ACMSYMBB_MODULE_NAME
 90
        0
280
     0
281
     0
  0
CLASS
  1
ACAMGTITLESTD
  2
AcAmgTitleStd
  3
"TITLEAPP"
 90
        0
280
     0
281
     0
  0
CLASS
  1
SORTENTSTABLE
  2
AcDbSortentsTable
  3
ObjectDBX Classes
 90
        0
280
     0
281
     0
  0
CLASS
  1
ACRFATTGENMGR
  2
AcRfAttGeneralMgr
  3
AcAttribServices
 90
        0
280
     0
281
     0
  0
ENDSEC
  0
SECTION
  2
TABLES
  0
TABLE
  2
VPORT
  5
8
330
0
100
AcDbSymbolTable
 70
    17
  0
VPORT
  5
645E
330
8
100
AcDbSymbolTableRecord
100
AcDbViewportTableRecord
  2
*Active
 70
     0
 10
0.0
 20
0.0
 11
1.0
 21
1.0
 12
41.95966769114842
 22
-14.17891790089077
 13
0.0
 23
0.0
 14
2.5
 24
2.5
 15
10.0
 25
10.0
 16
0.0
 26
0.0
 36
1.0
 17
0.0
 27
0.0
 37
0.0
 40
68.85517940362629
 41
2.166073546856464
 42
50.0
 43
0.0
 44
0.0
 50
0.0
 51
0.0
 71
     0
 72
   100
 73
     1
 74
     3
 75
     0
 76
     0
 77
     0
 78
     0
281
     0
 65
     0
110
-0.0000000000002682
120
0.000000000000161
130
0.0
111
1.0
121
0.000000000000002
131
0.0
112
-0.000000000000002
122
1.0
132
0.0
 79
     0
146
0.0
  0
ENDTAB
  0
TABLE
  2
LTYPE
  5
5
330
0
100
AcDbSymbolTable
 70
    14
  0
LTYPE
  5
14
330
5
100
AcDbSymbolTableRecord
100
AcDbLinetypeTableRecord
  2
BYBLOCK
 70
     0
  3

 72
    65
 73
     0
 40
0.0
  0
LTYPE
  5
15
330
5
100
AcDbSymbolTableRecord
100
AcDbLinetypeTableRecord
  2
BYLAYER
 70
     0
  3

 72
    65
 73
     0
 40
0.0
  0
LTYPE
  5
16
330
5
100
AcDbSymbolTableRecord
100
AcDbLinetypeTableRecord
  2
CONTINUOUS
 70
     0
  3
Solid line
 72
    65
 73
     0
 40
0.0
  0
LTYPE
  5
4B
330
5
100
AcDbSymbolTableRecord
100
AcDbLinetypeTableRecord
  2
AM_ISO02W050
 70
     0
  3
__ __ __ __ __ __ __ __ __ __ __ __ __ __ __
 72
    65
 73
     2
 40
7.5
 49
6.0
 74
     0
 49
-1.5
 74
     0
  0
LTYPE
  5
4C
330
5
100
AcDbSymbolTableRecord
100
AcDbLinetypeTableRecord
  2
AM_ISO08W050
 70
     0
  3
____ . ____ . ____ . ____ . ____ . ____ . ____
 72
    65
 73
     4
 40
18.0
 49
12.0
 74
     0
 49
-1.5
 74
     0
 49
3.0
 74
     0
 49
-1.5
 74
     0
  0
LTYPE
  5
4D
330
5
100
AcDbSymbolTableRecord
100
AcDbLinetypeTableRecord
  2
AM_ISO09W050
 70
     0
  3
_____ . . _____ . . _____ . . ____ .. ____
 72
    65
 73
     6
 40
22.5
 49
12.0
 74
     0
 49
-1.5
 74
     0
 49
3.0
 74
     0
 49
-1.5
 74
     0
 49
3.0
 74
     0
 49
-1.5
 74
     0
  0
LTYPE
  5
4E
330
5
100
AcDbSymbolTableRecord
100
AcDbLinetypeTableRecord
  2
AMCONSTR
 70
     0
  3
_______________________
 72
    65
 73
     2
 40
9999.0
 49
9999.0
 74
     0
 49
0.0
 74
     0
  0
LTYPE
  5
4F
330
5
100
AcDbSymbolTableRecord
100
AcDbLinetypeTableRecord
  2
AM_ISO02W050X2
 70
     0
  3
 _ _ _ _ _ _ _ _ _ _ _ _
 72
    65
 73
     2
 40
3.75
 49
3.0
 74
     0
 49
-0.75
 74
     0
  0
LTYPE
  5
50
330
5
100
AcDbSymbolTableRecord
100
AcDbLinetypeTableRecord
  2
AM_ISO08W050X2
 70
     0
  3
__ . __ . __ . __ . __ . __
 72
    65
 73
     4
 40
9.0
 49
6.0
 74
     0
 49
-0.75
 74
     0
 49
1.5
 74
     0
 49
-0.75
 74
     0
  0
LTYPE
  5
53
330
5
100
AcDbSymbolTableRecord
100
AcDbLinetypeTableRecord
  2
AMZIGZAG
 70
     0
  3
/\/-/\/-/\/-/\/-/\/-/\/
 72
    65
 73
     2
 40
11.00009999999999
 49
0.0001
 74
     4
 75
   135
340
52
 46
0.04
 50
0.0
 44
0.0
 45
0.0
 49
-11.0
 74
     0
  0
LTYPE
  5
6238
330
5
100
AcDbSymbolTableRecord
100
AcDbLinetypeTableRecord
  2
HIDDEN
 70
     0
  3
Hidden __ __ __ __ __ __ __ __ __ __ __ __ __ _
 72
    65
 73
     2
 40
9.524999999999996
 49
6.349999999999998
 74
     0
 49
-3.174999999999998
 74
     0
  0
LTYPE
  5
6239
330
5
100
AcDbSymbolTableRecord
100
AcDbLinetypeTableRecord
  2
PHANTOM2
 70
     0
  3
Phantom (.5x) ___ _ _ ___ _ _ ___ _ _ ___ _ _
 72
    65
 73
     6
 40
31.75
 49
15.875
 74
     0
 49
-3.174999999999998
 74
     0
 49
3.174999999999998
 74
     0
 49
-3.174999999999998
 74
     0
 49
3.174999999999998
 74
     0
 49
-3.174999999999998
 74
     0
  0
LTYPE
  5
623A
330
5
100
AcDbSymbolTableRecord
100
AcDbLinetypeTableRecord
  2
CENTER
 70
     0
  3
Center ____ _ ____ _ ____ _ ____ _ ____ _ ____
 72
    65
 73
     4
 40
50.8
 49
31.75
 74
     0
 49
-6.349999999999998
 74
     0
 49
6.349999999999998
 74
     0
 49
-6.349999999999998
 74
     0
  0
LTYPE
  5
627A
330
5
100
AcDbSymbolTableRecord
100
AcDbLinetypeTableRecord
  2
ACISOWELD
 70
     0
  3
_ _ _ _ _
 72
    65
 73
     2
 40
2.0
 49
2.0
 74
     0
 49
-1.0
 74
     0
  0
LTYPE
  5
627B
330
5
100
AcDbSymbolTableRecord
100
AcDbLinetypeTableRecord
  2
ACISOTGB
 70
     0
  3
__ . . __ . .
 72
    65
 73
     6
 40
9.0
 49
4.0
 74
     0
 49
-1.0
 74
     0
 49
1.0
 74
     0
 49
-1.0
 74
     0
 49
1.0
 74
     0
 49
-1.0
 74
     0
  0
LTYPE
  5
627C
330
5
100
AcDbSymbolTableRecord
100
AcDbLinetypeTableRecord
  2
ACISOTGL
 70
     0
  3
_ _ _ _ _
 72
    65
 73
     2
 40
3.0
 49
2.0
 74
     0
 49
-1.0
 74
     0
  0
ENDTAB
  0
TABLE
  2
LAYER
  5
2
330
0
100
AcDbSymbolTable
 70
     8
  0
LAYER
  5
10
330
2
100
AcDbSymbolTableRecord
100
AcDbLayerTableRecord
  2
0
 70
     0
 62
     7
  6
CONTINUOUS
370
    -3
390
F
  0
LAYER
  5
3F9
330
2
100
AcDbSymbolTableRecord
100
AcDbLayerTableRecord
  2
AM_0
 70
     0
 62
     7
  6
CONTINUOUS
370
    -3
390
F
  0
LAYER
  5
BA4
330
2
100
AcDbSymbolTableRecord
100
AcDbLayerTableRecord
  2
AM_5
 70
     0
 62
     3
  6
CONTINUOUS
370
    -3
390
F
  0
LAYER
  5
BA6
330
2
100
AcDbSymbolTableRecord
100
AcDbLayerTableRecord
  2
AM_7
 70
     0
 62
     4
  6
AM_ISO08W050
370
    -3
390
F
  0
LAYER
  5
E64
330
2
100
AcDbSymbolTableRecord
100
AcDbLayerTableRecord
  2
AM_6
 70
     0
 62
     2
  6
CONTINUOUS
370
    -3
390
F
  0
LAYER
  5
F4D
330
2
100
AcDbSymbolTableRecord
100
AcDbLayerTableRecord
  2
DEFPOINTS
 70
     0
 62
     7
  6
CONTINUOUS
290
     0
370
    -3
390
F
  0
LAYER
  5
4E80
330
2
100
AcDbSymbolTableRecord
100
AcDbLayerTableRecord
  2
AM_11
 70
     0
 62
     3
  6
AM_ISO09W050
370
    -3
390
F
  0
LAYER
  5
644F
330
2
100
AcDbSymbolTableRecord
100
AcDbLayerTableRecord
  2
AM_CL
 70
     0
 62
     1
  6
AMCONSTR
370
    25
390
F
  0
ENDTAB
  0
TABLE
  2
STYLE
  5
3
330
0
100
AcDbSymbolTable
 70
     5
  0
STYLE
  5
11
330
3
100
AcDbSymbolTableRecord
100
AcDbTextStyleTableRecord
  2
STANDARD
 70
     0
 40
0.0
 41
1.0
 50
0.0
 71
     0
 42
2.5
  3
simplex.shx
  4
EXTFONT.SHX
  0
STYLE
  5
52
330
3
100
AcDbSymbolTableRecord
100
AcDbTextStyleTableRecord
  2

 70
     1
 40
0.0
 41
1.0
 50
0.0
 71
     0
 42
2.5
  3
ltypeshp.shx
  4

  0
STYLE
  5
6B
330
3
100
AcDbSymbolTableRecord
100
AcDbTextStyleTableRecord
  2
ASAMI
 70
     0
 40
0.0
 41
1.0
 50
0.0
 71
     0
 42
2.5
  3
simplex.shx
  4
EXTFONT.SHX
  0
STYLE
  5
626C
330
3
100
AcDbSymbolTableRecord
100
AcDbTextStyleTableRecord
  2
ACISOTS
 70
     0
 40
1.0
 41
1.0
 50
0.0
 71
     0
 42
2.5
  3
isocp.shx
  4
extfont.shx
  0
STYLE
  5
6279
330
3
100
AcDbSymbolTableRecord
100
AcDbTextStyleTableRecord
  2
ACISOGDT
 70
     0
 40
0.0
 41
1.0
 50
0.0
 71
     0
 42
2.5
  3
amgdt.shx
  4

  0
ENDTAB
  0
TABLE
  2
VIEW
  5
6
330
0
100
AcDbSymbolTable
 70
     0
  0
ENDTAB
  0
TABLE
  2
UCS
  5
7
330
0
100
AcDbSymbolTable
 70
     0
  0
ENDTAB
  0
TABLE
  2
APPID
  5
9
330
0
100
AcDbSymbolTable
 70
    31
  0
APPID
  5
12
330
9
100
AcDbSymbolTableRecord
100
AcDbRegAppTableRecord
  2
ACAD
 70
     0
  0
APPID
  5
30
330
9
100
AcDbSymbolTableRecord
100
AcDbRegAppTableRecord
  2
MCAD_NO_VIS
 70
     0
  0
APPID
  5
31
330
9
100
AcDbSymbolTableRecord
100
AcDbRegAppTableRecord
  2
ACAD_TEMP_GRAPHIC
 70
     0
  0
APPID
  5
2C2
330
9
100
AcDbSymbolTableRecord
100
AcDbRegAppTableRecord
  2
GENIUS_GENDTOL_13
 70
     0
  0
APPID
  5
339
330
9
100
AcDbSymbolTableRecord
100
AcDbRegAppTableRecord
  2
GENIUS_GENODEF_13
 70
     0
  0
APPID
  5
33A
330
9
100
AcDbSymbolTableRecord
100
AcDbRegAppTableRecord
  2
GENIUS_GENOBJ-N-RSBK_13
 70
     0
  0
APPID
  5
33B
330
9
100
AcDbSymbolTableRecord
100
AcDbRegAppTableRecord
  2
GENIUS_GENOBJ-N-LIB_13
 70
     0
  0
APPID
  5
33C
330
9
100
AcDbSymbolTableRecord
100
AcDbRegAppTableRecord
  2
GENIUS_GENSCALE_13
 70
     0
  0
APPID
  5
378
330
9
100
AcDbSymbolTableRecord
100
AcDbRegAppTableRecord
  2
GENIUS_GENDIMSH_14
 70
     0
  0
APPID
  5
BB0
330
9
100
AcDbSymbolTableRecord
100
AcDbRegAppTableRecord
  2
GENIUS_GENOBJ-N-CEN_13
 70
     0
  0
APPID
  5
BB1
330
9
100
AcDbSymbolTableRecord
100
AcDbRegAppTableRecord
  2
GENIUS_GENFIL_13
 70
     0
  0
APPID
  5
BB2
330
9
100
AcDbSymbolTableRecord
100
AcDbRegAppTableRecord
  2
GENIUS_GENOBJ-N-CHA_13
 70
     0
  0
APPID
  5
1FAF
330
9
100
AcDbSymbolTableRecord
100
AcDbRegAppTableRecord
  2
GENIUS_GENOBJ-N-CRS_13
 70
     0
  0
APPID
  5
1FB0
330
9
100
AcDbSymbolTableRecord
100
AcDbRegAppTableRecord
  2
GENIUS_GENOENT_13
 70
     0
  0
APPID
  5
1FB1
330
9
100
AcDbSymbolTableRecord
100
AcDbRegAppTableRecord
  2
GENIUS_GENOREF_13
 70
     0
  0
APPID
  5
1FB2
330
9
100
AcDbSymbolTableRecord
100
AcDbRegAppTableRecord
  2
GENIUS_GENOLIS_13
 70
     0
  0
APPID
  5
1FB7
330
9
100
AcDbSymbolTableRecord
100
AcDbRegAppTableRecord
  2
GENIUS_GENOBJ-N-FIL_13
 70
     0
  0
APPID
  5
22A8
330
9
100
AcDbSymbolTableRecord
100
AcDbRegAppTableRecord
  2
GEVID1056506048
 70
     0
  0
APPID
  5
22A9
330
9
100
AcDbSymbolTableRecord
100
AcDbRegAppTableRecord
  2
GEVDC
 70
     0
  0
APPID
  5
22AC
330
9
100
AcDbSymbolTableRecord
100
AcDbRegAppTableRecord
  2
GENIUS_GENBH_13
 70
     0
  0
APPID
  5
22B8
330
9
100
AcDbSymbolTableRecord
100
AcDbRegAppTableRecord
  2
GENIUS_GENOBJ-NBEHI-BHF_13
 70
     0
  0
APPID
  5
22BA
330
9
100
AcDbSymbolTableRecord
100
AcDbRegAppTableRecord
  2
GENIUS_GENOBJ-NBEHI-BHB_13
 70
     0
  0
APPID
  5
35C9
330
9
100
AcDbSymbolTableRecord
100
AcDbRegAppTableRecord
  2
GENIUS_GENREC_14
 70
     0
  0
APPID
  5
35CA
330
9
100
AcDbSymbolTableRecord
100
AcDbRegAppTableRecord
  2
GENIUS_GENOBJ-N-REC_13
 70
     0
  0
APPID
  5
623C
330
9
100
AcDbSymbolTableRecord
100
AcDbRegAppTableRecord
  2
AD_DRAW
 70
     0
  0
APPID
  5
623F
330
9
100
AcDbSymbolTableRecord
100
AcDbRegAppTableRecord
  2
ACATTRIBSERVICES
 70
     0
  0
APPID
  5
625D
330
9
100
AcDbSymbolTableRecord
100
AcDbRegAppTableRecord
  2
DESIGNERASSEMBLIES
 70
     0
  0
APPID
  5
6262
330
9
100
AcDbSymbolTableRecord
100
AcDbRegAppTableRecord
  2
ACADM_DIM_EDIT
 70
     0
  0
APPID
  5
6263
330
9
100
AcDbSymbolTableRecord
100
AcDbRegAppTableRecord
  2
AMDT_DM_ADJ
 70
     0
  0
APPID
  5
628F
330
9
100
AcDbSymbolTableRecord
100
AcDbRegAppTableRecord
  2
GENIUS_GENSCREG_15
 70
     0
  0
APPID
  5
6290
330
9
100
AcDbSymbolTableRecord
100
AcDbRegAppTableRecord
  2
GENIUS_GENOBJ-N-SDF_13
 70
     0
  0
ENDTAB
  0
TABLE
  2
DIMSTYLE
  5
A
330
0
100
AcDbSymbolTable
 70
    11
100
AcDbDimStyleTable
 71
     1
340
58
  0
DIMSTYLE
105
58
330
A
100
AcDbSymbolTableRecord
100
AcDbDimStyleTableRecord
  2
AM_JIS
 70
     0
  4
"
 40
0.5
 41
2.5
 42
1.0
 43
12.0
 44
1.0
 47
0.1
 48
0.1
 73
     0
 74
     0
 77
     3
 78
     8
140
3.2
141
0.0
143
0.0393701
146
0.71
147
1.5
172
     1
176
   256
177
   256
178
     2
271
     3
272
     3
283
     0
340
6B
341
59
342
59
  0
DIMSTYLE
105
62
330
A
100
AcDbSymbolTableRecord
100
AcDbDimStyleTableRecord
  2
AM_JIS$7
 70
     0
  4
"
 40
0.5
 41
2.5
 42
1.0
 43
10.0
 44
1.0
 47
0.1
 48
0.1
 73
     0
 74
     0
 77
     3
 78
     8
140
3.2
141
0.0
143
0.0393701
146
0.71
147
1.5
172
     1
176
   256
177
   256
178
     2
271
     2
272
     3
283
     0
340
6B
341
59
342
59
  0
DIMSTYLE
105
B34
102
{ACAD_REACTORS
330
5B3F
102
}
330
A
100
AcDbSymbolTableRecord
100
AcDbDimStyleTableRecord
  2
AM_JIS$2
 70
     0
  4
"
 40
0.5
 41
2.5
 42
1.0
 43
12.0
 44
1.0
 47
0.1
 48
0.1
 73
     0
 74
     0
 77
     3
 78
     8
140
3.2
141
0.0
143
0.0393701
146
0.71
147
1.5
172
     1
176
   256
177
   256
178
     2
271
     3
272
     3
283
     0
340
6B
341
59
342
59
  0
DIMSTYLE
105
3B48
102
{ACAD_REACTORS
330
53CD
330
55FE
330
556E
330
58BC
330
5F39
330
6362
102
}
330
A
100
AcDbSymbolTableRecord
100
AcDbDimStyleTableRecord
  2
AM_JIS$0
 70
     0
  4
"
 41
2.5
 42
0.0
 43
10.0
 44
1.0
 47
0.1
 48
0.1000000001
 73
     0
 74
     0
 77
     3
 78
     1
140
3.799999999999998
141
0.0
143
0.0393701
146
0.71
147
1.5
172
     1
176
     3
177
     3
178
     2
271
     2
272
     2
275
     1
283
     0
284
     8
340
11
341
59
342
59
  0
DIMSTYLE
105
6286
330
A
100
AcDbSymbolTableRecord
100
AcDbDimStyleTableRecord
  2
AM_ISO
 70
     0
  4
"
 41
2.5
 42
1.0
 43
10.0
 44
1.0
 47
0.1
 48
0.1
 73
     0
 74
     0
 77
     1
 78
     8
 79
     2
140
3.5
141
0.0
143
0.0393701
146
0.71
147
1.5
172
     1
176
   256
177
   256
178
     2
271
     2
272
     3
274
     4
283
     0
284
     8
340
11
371
    -1
372
    -1
  0
DIMSTYLE
105
6287
330
A
100
AcDbSymbolTableRecord
100
AcDbDimStyleTableRecord
  2
AM_ISO$3
 70
     0
  4
"
 41
2.5
 42
1.0
 43
10.0
 44
1.0
 47
0.1
 48
0.1
 73
     0
 77
     1
 78
     8
 79
     2
140
3.5
141
0.0
143
0.0393701
146
0.71
147
1.5
176
   256
177
   256
178
     2
271
     2
272
     3
274
     4
283
     0
284
     8
288
     1
289
     0
340
11
371
    -1
372
    -1
  0
DIMSTYLE
105
6288
330
A
100
AcDbSymbolTableRecord
100
AcDbDimStyleTableRecord
  2
AM_ISO$4
 70
     0
  4
"
 41
2.5
 42
1.0
 43
10.0
 44
1.0
 47
0.1
 48
0.1
 73
     0
 77
     1
 78
     8
 79
     2
140
3.5
141
0.0
143
0.0393701
146
0.71
147
1.5
176
   256
177
   256
178
     2
271
     2
272
     3
274
     4
283
     0
284
     8
288
     1
289
     0
340
11
371
    -1
372
    -1
  0
DIMSTYLE
105
6289
330
A
100
AcDbSymbolTableRecord
100
AcDbDimStyleTableRecord
  2
AM_ISO$6
 70
     0
  4
"
 41
2.5
 42
1.0
 43
10.0
 44
1.0
 47
0.1
 48
0.1
 73
     0
 74
     0
 78
     8
 79
     2
140
3.5
141
0.0
143
0.0393701
146
0.71
147
1.5
172
     1
176
   256
177
   256
178
     2
271
     2
272
     3
274
     4
283
     0
284
     8
340
11
371
    -1
372
    -1
  0
DIMSTYLE
105
628A
330
A
100
AcDbSymbolTableRecord
100
AcDbDimStyleTableRecord
  2
AM_ISO$7
 70
     0
  4
"
 41
2.5
 42
1.0
 43
10.0
 44
1.0
 47
0.1
 48
0.1
 73
     0
 74
     0
 77
     1
 78
     8
 79
     2
140
5.0
141
0.0
143
0.0393701
146
0.71
147
1.5
172
     1
176
   256
177
   256
178
     2
271
     2
272
     3
274
     4
283
     0
284
     8
340
11
371
    -1
372
    -1
  0
DIMSTYLE
105
628B
330
A
100
AcDbSymbolTableRecord
100
AcDbDimStyleTableRecord
  2
AM_ISO$SF
 70
     0
  4
"
 41
2.5
 42
1.0
 43
10.0
 44
1.0
 47
0.1
 48
0.1
 73
     0
 74
     0
 75
     1
 76
     1
 77
     1
 78
     8
 79
     2
140
3.5
141
0.0
143
0.0393701
146
0.71
147
1.5
172
     1
176
   256
177
   256
178
     2
271
     2
272
     3
274
     4
283
     0
284
     8
340
11
371
    -1
372
    -1
  0
DIMSTYLE
105
628C
330
A
100
AcDbSymbolTableRecord
100
AcDbDimStyleTableRecord
  2
AM_ISO$SH
 70
     0
  4
"
 41
2.5
 42
1.0
 43
10.0
 44
1.0
 47
0.1
 48
0.1
 73
     0
 74
     0
 75
     1
 76
     1
 77
     1
 78
     8
 79
     2
140
3.5
141
0.0
143
0.0393701
144
2.0
146
0.71
147
1.5
172
     1
173
     1
176
   256
177
   256
178
     2
271
     2
272
     3
274
     4
283
     0
284
     8
340
11
343
64
371
    -1
372
    -1
  0
ENDTAB
  0
TABLE
  2
BLOCK_RECORD
  5
1
330
0
100
AcDbSymbolTable
 70
    12
  0
BLOCK_RECORD
  5
1F
102
{ACAD_XDICTIONARY
360
74
102
}
330
1
100
AcDbSymbolTableRecord
100
AcDbBlockTableRecord
  2
*MODEL_SPACE
340
6205
  0
BLOCK_RECORD
  5
101
102
{ACAD_XDICTIONARY
360
61B2
102
}
330
1
100
AcDbSymbolTableRecord
100
AcDbBlockTableRecord
  2
*PAPER_SPACE
340
6206
  0
BLOCK_RECORD
  5
59
330
1
100
AcDbSymbolTableRecord
100
AcDbBlockTableRecord
  2
_OPEN30
340
0
102
{BLKREFS
331
6295
331
6296
331
629E
331
629F
331
62A7
331
62A8
331
62B0
331
62B1
331
62D3
331
62D4
331
62DD
331
62DE
331
63B1
331
63B2
102
}
  0
BLOCK_RECORD
  5
64
330
1
100
AcDbSymbolTableRecord
100
AcDbBlockTableRecord
  2
GENAXEH
340
0
  0
BLOCK_RECORD
  5
53CE
330
1
100
AcDbSymbolTableRecord
100
AcDbBlockTableRecord
  2
*D2
340
0
  0
BLOCK_RECORD
  5
556F
330
1
100
AcDbSymbolTableRecord
100
AcDbBlockTableRecord
  2
*D3
340
0
  0
BLOCK_RECORD
  5
55FF
330
1
100
AcDbSymbolTableRecord
100
AcDbBlockTableRecord
  2
*D4
340
0
  0
BLOCK_RECORD
  5
58BD
330
1
100
AcDbSymbolTableRecord
100
AcDbBlockTableRecord
  2
*D5
340
0
  0
BLOCK_RECORD
  5
5B40
330
1
100
AcDbSymbolTableRecord
100
AcDbBlockTableRecord
  2
*D6
340
0
  0
BLOCK_RECORD
  5
5F3A
330
1
100
AcDbSymbolTableRecord
100
AcDbBlockTableRecord
  2
*D7
340
0
  0
BLOCK_RECORD
  5
60EF
330
1
100
AcDbSymbolTableRecord
100
AcDbBlockTableRecord
  2
*U8
340
0
102
{BLKREFS
331
6101
102
}
  0
BLOCK_RECORD
  5
60F3
330
1
100
AcDbSymbolTableRecord
100
AcDbBlockTableRecord
  2
*U9
340
0
102
{BLKREFS
331
6100
102
}
  0
BLOCK_RECORD
  5
6363
330
1
100
AcDbSymbolTableRecord
100
AcDbBlockTableRecord
  2
*D10
340
0
  0
ENDTAB
  0
ENDSEC
  0
SECTION
  2
BLOCKS
  0
BLOCK
  5
20
330
1F
100
AcDbEntity
  8
0
100
AcDbBlockBegin
  2
*MODEL_SPACE
 70
     0
 10
0.0
 20
0.0
 30
0.0
  3
*MODEL_SPACE
  1

  0
ENDBLK
  5
21
330
1F
100
AcDbEntity
  8
0
100
AcDbBlockEnd
  0
BLOCK
  5
103
330
101
100
AcDbEntity
 67
     1
  8
0
100
AcDbBlockBegin
  2
*PAPER_SPACE
 70
     0
 10
0.0
 20
0.0
 30
0.0
  3
*PAPER_SPACE
  1

  0
ENDBLK
  5
104
330
101
100
AcDbEntity
 67
     1
  8
0
100
AcDbBlockEnd
  0
BLOCK
  5
5D
330
59
100
AcDbEntity
  8
0
100
AcDbBlockBegin
  2
_OPEN30
 70
     0
 10
0.0
 20
0.0
 30
0.0
  3
_OPEN30
  1

  0
LINE
  5
5A
330
59
100
AcDbEntity
  8
0
 62
     0
100
AcDbLine
 10
-1.0
 20
0.26794919
 30
0.0
 11
0.0
 21
0.0
 31
0.0
  0
LINE
  5
5B
330
59
100
AcDbEntity
  8
0
 62
     0
100
AcDbLine
 10
0.0
 20
0.0
 30
0.0
 11
-1.0
 21
-0.26794919
 31
0.0
  0
LINE
  5
5C
330
59
100
AcDbEntity
  8
0
 62
     0
100
AcDbLine
 10
0.0
 20
0.0
 30
0.0
 11
-1.0
 21
0.0
 31
0.0
  0
ENDBLK
  5
5E
330
59
100
AcDbEntity
  8
0
100
AcDbBlockEnd
  0
BLOCK
  5
66
330
64
100
AcDbEntity
  8
0
100
AcDbBlockBegin
  2
GENAXEH
 70
     0
 10
0.0
 20
0.0
 30
0.0
  3
GENAXEH
  1

  0
LINE
  5
65
330
64
100
AcDbEntity
  8
0
100
AcDbLine
 10
-1.0
 20
0.0
 30
0.0
 11
1.0
 21
0.0
 31
0.0
  0
ENDBLK
  5
67
330
64
100
AcDbEntity
  8
0
100
AcDbBlockEnd
  0
BLOCK
  5
53D8
330
53CE
100
AcDbEntity
  8
0
100
AcDbBlockBegin
  2
*D2
 70
     1
 10
0.0
 20
0.0
 30
0.0
  3
*D2
  1

  0
LINE
  5
6292
330
53CE
100
AcDbEntity
  8
AM_5
100
AcDbLine
 10
100.0
 20
3.500000000000703
 30
0.0
 11
100.0
 21
-16.11926234461221
 31
0.0
  0
LINE
  5
6293
330
53CE
100
AcDbEntity
  8
AM_5
100
AcDbLine
 10
-0.0000000000001043
 20
-0.4999999999998296
 30
0.0
 11
-0.0000000000000598
 21
-16.1192623446125
 31
0.0
  0
LINE
  5
6294
330
53CE
100
AcDbEntity
  8
AM_5
100
AcDbLine
 10
98.75000000000005
 20
-15.61926234461221
 30
0.0
 11
1.249999999999938
 21
-15.61926234461249
 31
0.0
  0
INSERT
  5
6295
330
53CE
100
AcDbEntity
  8
AM_5
100
AcDbBlockReference
  2
_OPEN30
 10
100.0
 20
-15.6192623446122
 30
0.0
 41
1.25
 42
1.25
 43
1.25
 50
0.0000000000001527
  0
INSERT
  5
6296
330
53CE
100
AcDbEntity
  8
AM_5
100
AcDbBlockReference
  2
_OPEN30
 10
-0.0000000000000612
 20
-15.6192623446125
 30
0.0
 41
1.25
 42
1.25
 43
1.25
 50
180.0000000000001
  0
MTEXT
  5
6297
330
53CE
100
AcDbEntity
  8
AM_5
 62
     2
100
AcDbMText
 10
50.0
 20
-14.06926234461235
 30
0.0
 40
1.6
 41
0.0
 71
     5
 72
     1
  1
100
  7
ASAMI
 73
     1
 44
1.0
1001
ACAD
1000
MTEXTBEGIN
1070
    73
1070
     1
1070
    44
1040
1.0
1070
    74
1070
     0
1000
MTEXTEND
  0
POINT
  5
6298
330
53CE
100
AcDbEntity
  8
DEFPOINTS
 62
     0
100
AcDbPoint
 10
100.0
 20
4.000000000000413
 30
0.0
  0
POINT
  5
6299
330
53CE
100
AcDbEntity
  8
DEFPOINTS
 62
     0
100
AcDbPoint
 10
-0.0000000000001057
 20
0.0000000000001705
 30
0.0
  0
POINT
  5
629A
330
53CE
100
AcDbEntity
  8
DEFPOINTS
 62
     0
100
AcDbPoint
 10
-0.0000000000001067
 20
-15.6192623446125
 30
0.0
  0
ENDBLK
  5
53D9
330
53CE
100
AcDbEntity
  8
0
100
AcDbBlockEnd
  0
BLOCK
  5
5579
330
556F
100
AcDbEntity
  8
0
100
AcDbBlockBegin
  2
*D3
 70
     1
 10
0.0
 20
0.0
 30
0.0
  3
*D3
  1

  0
LINE
  5
629B
330
556F
100
AcDbEntity
  8
AM_5
100
AcDbLine
 10
100.5000000000002
 20
-39.62266879493117
 30
0.0
 11
112.2837990510328
 21
-39.62266879493114
 31
0.0
  0
LINE
  5
629C
330
556F
100
AcDbEntity
  8
AM_5
100
AcDbLine
 10
100.5000000000001
 20
-23.62266879493116
 30
0.0
 11
112.2837990510327
 21
-23.62266879493113
 31
0.0
  0
LINE
  5
629D
330
556F
100
AcDbEntity
  8
AM_5
100
AcDbLine
 10
111.7837990510328
 20
-38.37266879493114
 30
0.0
 11
111.7837990510327
 21
-24.87266879493113
 31
0.0
  0
INSERT
  5
629E
330
556F
100
AcDbEntity
  8
AM_5
100
AcDbBlockReference
  2
_OPEN30
 10
111.7837990510328
 20
-39.62266879493114
 30
0.0
 41
1.25
 42
1.25
 43
1.25
 50
270.0000000000002
  0
INSERT
  5
629F
330
556F
100
AcDbEntity
  8
AM_5
100
AcDbBlockReference
  2
_OPEN30
 10
111.7837990510327
 20
-23.62266879493113
 30
0.0
 41
1.25
 42
1.25
 43
1.25
 50
90.00000000000015
  0
MTEXT
  5
62A0
330
556F
100
AcDbEntity
  8
AM_5
 62
     2
100
AcDbMText
 10
110.2337990510328
 20
-31.62266879493115
 30
0.0
 40
1.6
 41
0.0
 71
     5
 72
     1
  1
16
  7
ASAMI
 11
-0.0000000000000028
 21
1.0
 31
0.0
 73
     1
 44
1.0
1001
ACAD
1000
MTEXTBEGIN
1070
    73
1070
     1
1070
    44
1040
1.0
1070
    74
1070
     0
1000
MTEXTEND
  0
POINT
  5
62A1
330
556F
100
AcDbEntity
  8
DEFPOINTS
 62
     0
100
AcDbPoint
 10
100.0000000000001
 20
-39.62266879493149
 30
0.0
  0
POINT
  5
62A2
330
556F
100
AcDbEntity
  8
DEFPOINTS
 62
     0
100
AcDbPoint
 10
100.0000000000001
 20
-23.62266879493148
 30
0.0
  0
POINT
  5
62A3
330
556F
100
AcDbEntity
  8
DEFPOINTS
 62
     0
100
AcDbPoint
 10
111.7837990510327
 20
-23.62266879493148
 30
0.0
  0
ENDBLK
  5
557A
330
556F
100
AcDbEntity
  8
0
100
AcDbBlockEnd
  0
BLOCK
  5
5609
330
55FF
100
AcDbEntity
  8
0
100
AcDbBlockBegin
  2
*D4
 70
     1
 10
0.0
 20
0.0
 30
0.0
  3
*D4
  1

  0
LINE
  5
62A4
330
55FF
100
AcDbEntity
  8
AM_5
100
AcDbLine
 10
100.5
 20
4.000000000000725
 30
0.0
 11
112.2837990510328
 21
4.000000000000758
 31
0.0
  0
LINE
  5
62A5
330
55FF
100
AcDbEntity
  8
AM_5
100
AcDbLine
 10
100.4999999999998
 20
20.00000000000072
 30
0.0
 11
112.2837990510327
 21
20.00000000000075
 31
0.0
  0
LINE
  5
62A6
330
55FF
100
AcDbEntity
  8
AM_5
100
AcDbLine
 10
111.7837990510327
 20
5.250000000000756
 30
0.0
 11
111.7837990510327
 21
18.75000000000075
 31
0.0
  0
INSERT
  5
62A7
330
55FF
100
AcDbEntity
  8
AM_5
100
AcDbBlockReference
  2
_OPEN30
 10
111.7837990510327
 20
4.000000000000756
 30
0.0
 41
1.25
 42
1.25
 43
1.25
 50
270.0000000000002
  0
INSERT
  5
62A8
330
55FF
100
AcDbEntity
  8
AM_5
100
AcDbBlockReference
  2
_OPEN30
 10
111.7837990510327
 20
20.00000000000075
 30
0.0
 41
1.25
 42
1.25
 43
1.25
 50
90.00000000000015
  0
MTEXT
  5
62A9
330
55FF
100
AcDbEntity
  8
AM_5
 62
     2
100
AcDbMText
 10
110.2337990510327
 20
12.00000000000075
 30
0.0
 40
1.6
 41
0.0
 71
     5
 72
     1
  1
16
  7
ASAMI
 11
-0.0000000000000028
 21
1.0
 31
0.0
 73
     1
 44
1.0
1001
ACAD
1000
MTEXTBEGIN
1070
    73
1070
     1
1070
    44
1040
1.0
1070
    74
1070
     0
1000
MTEXTEND
  0
POINT
  5
62AA
330
55FF
100
AcDbEntity
  8
DEFPOINTS
 62
     0
100
AcDbPoint
 10
100.0
 20
4.000000000000413
 30
0.0
  0
POINT
  5
62AB
330
55FF
100
AcDbEntity
  8
DEFPOINTS
 62
     0
100
AcDbPoint
 10
99.99999999999987
 20
20.00000000000041
 30
0.0
  0
POINT
  5
62AC
330
55FF
100
AcDbEntity
  8
DEFPOINTS
 62
     0
100
AcDbPoint
 10
111.7837990510328
 20
20.0000000000004
 30
0.0
  0
ENDBLK
  5
560A
330
55FF
100
AcDbEntity
  8
0
100
AcDbBlockEnd
  0
BLOCK
  5
58C7
330
58BD
100
AcDbEntity
  8
0
100
AcDbBlockBegin
  2
*D5
 70
     1
 10
0.0
 20
0.0
 30
0.0
  3
*D5
  1

  0
LINE
  5
62AD
330
58BD
100
AcDbEntity
  8
AM_5
100
AcDbLine
 10
-0.4999999999999434
 20
0.0000000000001833
 30
0.0
 11
-11.35774625145616
 21
0.0000000000001526
 31
0.0
  0
LINE
  5
62AE
330
58BD
100
AcDbEntity
  8
AM_5
100
AcDbLine
 10
9.751020511445366
 20
20.00000000000024
 30
0.0
 11
-11.35774625145622
 21
20.00000000000019
 31
0.0
  0
LINE
  5
62AF
330
58BD
100
AcDbEntity
  8
AM_5
100
AcDbLine
 10
-10.85774625145616
 20
1.250000000000154
 30
0.0
 11
-10.85774625145621
 21
18.75000000000017
 31
0.0
  0
INSERT
  5
62B0
330
58BD
100
AcDbEntity
  8
AM_5
100
AcDbBlockReference
  2
_OPEN30
 10
-10.85774625145616
 20
0.000000000000154
 30
0.0
 41
1.25
 42
1.25
 43
1.25
 50
270.0000000000002
  0
INSERT
  5
62B1
330
58BD
100
AcDbEntity
  8
AM_5
100
AcDbBlockReference
  2
_OPEN30
 10
-10.85774625145622
 20
20.00000000000019
 30
0.0
 41
1.25
 42
1.25
 43
1.25
 50
90.00000000000015
  0
MTEXT
  5
62B2
330
58BD
100
AcDbEntity
  8
AM_5
 62
     2
100
AcDbMText
 10
-12.40774625145619
 20
10.00000000000016
 30
0.0
 40
1.6
 41
0.0
 71
     5
 72
     1
  1
20
  7
ASAMI
 11
-0.0000000000000028
 21
1.0
 31
0.0
 73
     1
 44
1.0
1001
ACAD
1000
MTEXTBEGIN
1070
    73
1070
     1
1070
    44
1040
1.0
1070
    74
1070
     0
1000
MTEXTEND
  0
POINT
  5
62B3
330
58BD
100
AcDbEntity
  8
DEFPOINTS
 62
     0
100
AcDbPoint
 10
0.0000000000000568
 20
0.0000000000001847
 30
0.0
  0
POINT
  5
62B4
330
58BD
100
AcDbEntity
  8
DEFPOINTS
 62
     0
100
AcDbPoint
 10
10.25102051144543
 20
20.00000000000021
 30
0.0
  0
POINT
  5
62B5
330
58BD
100
AcDbEntity
  8
DEFPOINTS
 62
     0
100
AcDbPoint
 10
-10.85774625145615
 20
20.00000000000022
 30
0.0
  0
ENDBLK
  5
58C8
330
58BD
100
AcDbEntity
  8
0
100
AcDbBlockEnd
  0
BLOCK
  5
5B50
330
5B40
100
AcDbEntity
  8
0
100
AcDbBlockBegin
  2
*D6
 70
     1
 10
0.0
 20
0.0
 30
0.0
  3
*D6
  1

  0
LINE
  5
62DA
330
5B40
100
AcDbEntity
  8
AM_5
370
    -2
100
AcDbLine
 10
0.0000000000000598
 20
-0.5730472137306168
 30
0.0
 11
0.0000000000001226
 21
-12.31654705560163
 31
0.0
  0
LINE
  5
62DB
330
5B40
100
AcDbEntity
  8
AM_5
370
    -2
100
AcDbLine
 10
10.05318149992237
 20
0.8065469556967244
 30
0.0
 11
12.19690386049632
 21
0.9941100360257067
 31
0.0
  0
ARC
  5
62DC
330
5B40
100
AcDbEntity
  8
AM_5
370
    -2
100
AcDbCircle
 10
0.0000000000000561
 20
-0.0730472137305963
 30
0.0
 40
11.74349984187104
100
AcDbArc
 50
276.101552230126
 51
358.8987574673087
  0
INSERT
  5
62DD
330
5B40
100
AcDbEntity
  8
AM_5
370
    -2
100
AcDbBlockReference
  2
_OPEN30
 10
0.0000000000001199
 20
-11.81654705560164
 30
0.0
 41
1.25
 42
1.25
 43
1.25
 50
183.0507761150632
  0
INSERT
  5
62DE
330
5B40
100
AcDbEntity
  8
AM_5
370
    -2
100
AcDbBlockReference
  2
_OPEN30
 10
11.69880674700657
 20
0.950529472316842
 30
0.0
 41
1.25
 42
1.25
 43
1.25
 50
91.9495335823716
  0
MTEXT
  5
62DF
330
5B40
100
AcDbEntity
  8
AM_5
 62
     2
100
AcDbMText
 10
7.515455028101825
 20
-6.959655576836831
 30
0.0
 40
1.6
 41
0.0
 71
     5
 72
     1
  1
95°
  7
ASAMI
 11
0.6755882150327453
 21
0.7372791626710126
 31
0.0
 73
     1
 44
1.0
1001
ACAD
1000
MTEXTBEGIN
1070
    73
1070
     1
1070
    44
1040
1.0
1070
    74
1070
     0
1000
MTEXTEND
  0
POINT
  5
62E0
330
5B40
100
AcDbEntity
  8
DEFPOINTS
 62
     0
100
AcDbPoint
 10
6.165080396752087
 20
-10.06812461401164
 30
0.0
  0
POINT
  5
62E1
330
5B40
100
AcDbEntity
  8
DEFPOINTS
 62
     0
100
AcDbPoint
 10
9.555084386432618
 20
0.7629663919878312
 30
0.0
  0
POINT
  5
62E2
330
5B40
100
AcDbEntity
  8
DEFPOINTS
 62
     0
100
AcDbPoint
 10
0.0000000000000538
 20
0.8000043241921174
 30
0.0
  0
POINT
  5
62E3
330
5B40
100
AcDbEntity
  8
DEFPOINTS
 62
     0
100
AcDbPoint
 10
0.0000000000000571
 20
-0.0730472137306166
 30
0.0
  0
POINT
  5
62E4
330
5B40
100
AcDbEntity
  8
DEFPOINTS
 62
     0
100
AcDbPoint
 10
0.8697289019342381
 20
0.0030489426085308
 30
0.0
  0
ENDBLK
  5
5B51
330
5B40
100
AcDbEntity
  8
0
100
AcDbBlockEnd
  0
BLOCK
  5
5F44
330
5F3A
100
AcDbEntity
  8
0
100
AcDbBlockBegin
  2
*D7
 70
     1
 10
0.0
 20
0.0
 30
0.0
  3
*D7
  1

  0
LINE
  5
62D0
330
5F3A
100
AcDbEntity
  8
AM_5
100
AcDbLine
 10
0.2999812751665268
 20
-39.62266879493169
 30
0.0
 11
-11.35774625145606
 21
-39.62266879493172
 31
0.0
  0
LINE
  5
62D1
330
5F3A
100
AcDbEntity
  8
AM_5
100
AcDbLine
 10
-0.5000019073484318
 20
-23.6226728957313
 30
0.0
 11
-11.35774625145611
 21
-23.62267289573133
 31
0.0
  0
LINE
  5
62D2
330
5F3A
100
AcDbEntity
  8
AM_5
100
AcDbLine
 10
-10.85774625145607
 20
-38.37266879493171
 30
0.0
 11
-10.85774625145611
 21
-24.87267289573133
 31
0.0
  0
INSERT
  5
62D3
330
5F3A
100
AcDbEntity
  8
AM_5
100
AcDbBlockReference
  2
_OPEN30
 10
-10.85774625145606
 20
-39.62266879493171
 30
0.0
 41
1.25
 42
1.25
 43
1.25
 50
270.0000000000002
  0
INSERT
  5
62D4
330
5F3A
100
AcDbEntity
  8
AM_5
100
AcDbBlockReference
  2
_OPEN30
 10
-10.85774625145611
 20
-23.62267289573133
 30
0.0
 41
1.25
 42
1.25
 43
1.25
 50
90.00000000000015
  0
MTEXT
  5
62D5
330
5F3A
100
AcDbEntity
  8
AM_5
 62
     2
100
AcDbMText
 10
-12.40774625145609
 20
-31.62267084533153
 30
0.0
 40
1.6
 41
0.0
 71
     5
 72
     1
  1
16
  7
ASAMI
 11
-0.0000000000000028
 21
1.0
 31
0.0
 73
     1
 44
1.0
1001
ACAD
1000
MTEXTBEGIN
1070
    73
1070
     1
1070
    44
1040
1.0
1070
    74
1070
     0
1000
MTEXTEND
  0
POINT
  5
62D6
330
5F3A
100
AcDbEntity
  8
DEFPOINTS
 62
     0
100
AcDbPoint
 10
0.7999812751664038
 20
-39.62266879493169
 30
0.0
  0
POINT
  5
62D7
330
5F3A
100
AcDbEntity
  8
DEFPOINTS
 62
     0
100
AcDbPoint
 10
-0.0000019073485052
 20
-23.6226728957313
 30
0.0
  0
POINT
  5
62D8
330
5F3A
100
AcDbEntity
  8
DEFPOINTS
 62
     0
100
AcDbPoint
 10
-10.85774625145618
 20
-23.6226728957313
 30
0.0
  0
ENDBLK
  5
5F45
330
5F3A
100
AcDbEntity
  8
0
100
AcDbBlockEnd
  0
BLOCK
  5
60F1
330
60EF
100
AcDbEntity
  8
0
100
AcDbBlockBegin
  2
*U8
 70
     1
 10
0.0
 20
0.0
 30
0.0
  3
*U8
  1

  0
LEADER
  5
60F0
330
60EF
100
AcDbEntity
  8
0
  6
Continuous
 48
0.5
100
AcDbLeader
  3
AM_JIS$7
 76
     2
 10
-35.56723785400299
 20
61.482246398925
 30
0.0
 10
-35.56723785400299
 20
51.482246398925
 30
0.0
1001
ACAD
1000
DSTYLE
1002
{
1070
     6
1000
OPEN30
1070
   173
1070
     1
1070
   176
1070
     0
1070
   341
1005
59
1002
}
  0
ENDBLK
  5
60F2
330
60EF
100
AcDbEntity
  8
0
100
AcDbBlockEnd
  0
BLOCK
  5
60F5
330
60F3
100
AcDbEntity
  8
0
100
AcDbBlockBegin
  2
*U9
 70
     1
 10
0.0
 20
0.0
 30
0.0
  3
*U9
  1

  0
LEADER
  5
60F4
330
60F3
100
AcDbEntity
  8
0
  6
Continuous
 48
0.5
100
AcDbLeader
  3
AM_JIS$7
 76
     2
 10
-25.567237854003
 20
51.482246398925
 30
0.0
 10
-35.56723785400299
 20
51.482246398925
 30
0.0
1001
ACAD
1000
DSTYLE
1002
{
1070
     6
1000
OPEN30
1070
   173
1070
     1
1070
   176
1070
     0
1070
   341
1005
59
1002
}
  0
ENDBLK
  5
60F6
330
60F3
100
AcDbEntity
  8
0
100
AcDbBlockEnd
  0
BLOCK
  5
6376
330
6363
100
AcDbEntity
  8
0
100
AcDbBlockBegin
  2
*D10
 70
     1
 10
0.0
 20
0.0
 30
0.0
  3
*D10
  1

  0
LINE
  5
63AE
330
6363
100
AcDbEntity
  8
AM_5
100
AcDbLine
 10
15.00000000000003
 20
3.500000000000228
 30
0.0
 11
15.00000000000003
 21
-16.11926234461249
 31
0.0
  0
LINE
  5
63AF
330
6363
100
AcDbEntity
  8
AM_5
100
AcDbLine
 10
0.0000000000000568
 20
-0.4999999999998197
 30
0.0
 11
0.0000000000000559
 21
-16.11926234461249
 31
0.0
  0
LINE
  5
63B0
330
6363
100
AcDbEntity
  8
AM_5
100
AcDbLine
 10
13.75000000000003
 20
-15.61926234461249
 30
0.0
 11
1.250000000000055
 21
-15.61926234461249
 31
0.0
  0
INSERT
  5
63B1
330
6363
100
AcDbEntity
  8
AM_5
100
AcDbBlockReference
  2
_OPEN30
 10
15.00000000000003
 20
-15.61926234461249
 30
0.0
 41
1.25
 42
1.25
 43
1.25
  0
INSERT
  5
63B2
330
6363
100
AcDbEntity
  8
AM_5
100
AcDbBlockReference
  2
_OPEN30
 10
0.0000000000000559
 20
-15.61926234461249
 30
0.0
 41
1.25
 42
1.25
 43
1.25
 50
180.0
  0
MTEXT
  5
63B3
330
6363
100
AcDbEntity
  8
AM_5
 62
     2
100
AcDbMText
 10
7.500000000000044
 20
-14.06926234461248
 30
0.0
 40
1.6
 41
0.0
 71
     5
 72
     1
  1
15
  7
ASAMI
 73
     1
 44
1.0
1001
ACAD
1000
MTEXTBEGIN
1070
    73
1070
     1
1070
    44
1040
1.0
1070
    74
1070
     0
1000
MTEXTEND
  0
POINT
  5
63B4
330
6363
100
AcDbEntity
  8
DEFPOINTS
 62
     0
100
AcDbPoint
 10
15.00000000000003
 20
4.000000000000228
 30
0.0
  0
POINT
  5
63B5
330
6363
100
AcDbEntity
  8
DEFPOINTS
 62
     0
100
AcDbPoint
 10
0.0000000000000568
 20
0.0000000000001803
 30
0.0
  0
POINT
  5
63B6
330
6363
100
AcDbEntity
  8
DEFPOINTS
 62
     0
100
AcDbPoint
 10
0.0000000000000559
 20
-15.61926234461249
 30
0.0
  0
ENDBLK
  5
6377
330
6363
100
AcDbEntity
  8
0
100
AcDbBlockEnd
  0
ENDSEC
  0
SECTION
  2
ENTITIES
  0
TEXT
  5
388D
330
1F
100
AcDbEntity
  8
AM_6
100
AcDbText
 10
36.01040026632484
 20
-48.35505708019685
 30
0.0
 40
2.5
  1
SCLCR1616-09
 50
359.9999999999998
 51
359.9999999999998
 72
     4
 11
49.76040026632484
 21
-47.10505708019689
 31
0.0
100
AcDbText
  0
LINE
  5
5073
330
1F
100
AcDbEntity
  8
AM_0
  6
Continuous
100
AcDbLine
 10
100.0000000000001
 20
-39.62266879493149
 30
0.0
 11
100.0000000000001
 21
-23.62266879493148
 31
0.0
  0
LINE
  5
5075
330
1F
100
AcDbEntity
  8
AM_0
  6
Continuous
100
AcDbLine
 10
9.616578060802952
 20
-23.92266879493166
 30
0.0
 11
9.409156758007952
 21
-25.59268210345676
 31
0.0
  0
LINE
  5
5077
330
1F
100
AcDbEntity
  8
AM_0
  6
Continuous
100
AcDbLine
 10
-0.0000019073485052
 20
-23.6226728957313
 30
0.0
 11
0.4874618053436983
 21
-27.59268222266608
 31
0.0
  0
LINE
  5
507A
330
1F
100
AcDbEntity
  8
AM_0
  6
Continuous
100
AcDbLine
 10
0.7999812751663768
 20
-27.5926822226661
 30
0.0
 11
0.7999812751664038
 21
-39.62266879493169
 31
0.0
  0
LINE
  5
507C
330
1F
100
AcDbEntity
  8
AM_0
  6
Continuous
100
AcDbLine
 10
9.409157711681956
 20
-27.5926822226661
 30
0.0
 11
0.4874618053436965
 21
-27.5926822226661
 31
0.0
  0
LINE
  5
507E
330
1F
100
AcDbEntity
  8
AM_0
  6
Continuous
100
AcDbLine
 10
9.409157711681942
 20
-25.59268216306137
 30
0.0
 11
9.409157711681956
 21
-27.5926822226661
 31
0.0
  0
LINE
  5
5081
330
1F
100
AcDbEntity
  8
AM_0
  6
Continuous
100
AcDbLine
 10
100.0
 20
4.000000000000413
 30
0.0
 11
99.99999999999987
 21
20.00000000000041
 31
0.0
  0
LINE
  5
5082
330
1F
100
AcDbEntity
  8
AM_0
  6
Continuous
100
AcDbLine
 10
1.531427693578371
 20
9.622333901068902
 30
0.0
 11
2.023785272206096
 21
15.25000405067884
 31
0.0
  0
LINE
  5
5083
330
1F
100
AcDbEntity
  8
AM_0
  6
Continuous
100
AcDbLine
 10
18.11165728449713
 20
20.00000000000023
 30
0.0
 11
18.11165728449718
 21
4.000000000000233
 31
0.0
  0
LINE
  5
5084
330
1F
100
AcDbEntity
  8
AM_0
  6
Continuous
100
AcDbLine
 10
18.27664294123614
 20
20.00000000000023
 30
0.0
 11
18.27664294123616
 21
4.000000000000233
 31
0.0
  0
LINE
  5
5085
330
1F
100
AcDbEntity
  8
AM_0
  6
Continuous
100
AcDbLine
 10
18.05557210746339
 20
-23.62266879493164
 30
0.0
 11
100.0000000000001
 21
-23.62266879493148
 31
0.0
  0
LINE
  5
5086
330
1F
100
AcDbEntity
  8
AM_0
  6
Continuous
100
AcDbLine
 10
15.00000000000003
 20
4.000000000000228
 30
0.0
 11
100.0
 21
4.000000000000413
 31
0.0
  0
LINE
  5
508B
330
1F
100
AcDbEntity
  8
AM_0
  6
Continuous
100
AcDbLine
 10
9.962917327882095
 20
-23.92266879493166
 30
0.0
 11
17.75556723004624
 21
-23.92266879493166
 31
0.0
  0
LINE
  5
508C
330
1F
100
AcDbEntity
  8
AM_0
  6
Continuous
100
AcDbLine
 10
9.616578060802952
 20
-23.92266879493166
 30
0.0
 11
9.962917327882095
 21
-23.92266879493166
 31
0.0
  0
LINE
  5
508D
330
1F
100
AcDbEntity
  8
AM_0
  6
Continuous
100
AcDbLine
 10
10.31659877093868
 20
-23.62268100196297
 30
0.0
 11
-0.0000009120123521
 21
-23.62268100196298
 31
0.0
  0
LINE
  5
508E
330
1F
100
AcDbEntity
  8
AM_0
  6
Continuous
100
AcDbLine
 10
10.31659877093868
 20
-23.62268100196297
 30
0.0
 11
10.29680231294502
 21
-23.92266992741997
 31
0.0
  0
LINE
  5
508F
330
1F
100
AcDbEntity
  8
AM_0
  6
Continuous
100
AcDbLine
 10
18.05557210746339
 20
-23.62266879493164
 30
0.0
 11
17.75556723004624
 21
-23.92266879493167
 31
0.0
  0
LINE
  5
5094
330
1F
100
AcDbEntity
  8
AM_0
  6
Continuous
100
AcDbLine
 10
13.74544042844116
 20
1.827037034901511
 30
0.0
 11
9.616578060802906
 21
1.465783939072309
 31
0.0
  0
LINE
  5
5098
330
1F
100
AcDbEntity
  8
AM_0
  6
Continuous
100
AcDbLine
 10
0.0030442407348831
 20
0.8697289093402259
 30
0.0
 11
0.7629152923477136
 21
9.555095908589864
 31
0.0
  0
LINE
  5
5099
330
1F
100
AcDbEntity
  8
AM_7
  6
Continuous
100
AcDbLine
 10
5.159004369343517
 20
10.76376777635012
 30
0.0
 11
5.159004369343535
 21
-0.3128416346419689
 31
0.0
  0
LINE
  5
509A
330
1F
100
AcDbEntity
  8
AM_0
  6
Continuous
100
AcDbLine
 10
9.555084386432618
 20
0.7629663919878312
 30
0.0
 11
0.8697289019342381
 21
0.0030489426085309
 31
0.0
  0
LINE
  5
509F
330
1F
100
AcDbEntity
  8
AM_0
  6
Continuous
100
AcDbLine
 10
9.555089154804631
 20
0.7629740213828457
 30
0.0
 11
10.3149695965578
 21
9.448305172621036
 31
0.0
  0
LINE
  5
50A4
330
1F
100
AcDbEntity
  8
AM_7
  6
Continuous
100
AcDbLine
 10
-0.3385224785969862
 20
5.159031150288853
 30
0.0
 11
10.64714627067468
 21
5.159031150288839
 31
0.0
  0
LINE
  5
50A5
330
1F
100
AcDbEntity
  8
AM_0
  6
Continuous
100
AcDbLine
 10
9.448287633503497
 20
10.31498650736819
 30
0.0
 11
0.7629129081619225
 21
9.555095908589864
 31
0.0
  0
ARC
  5
50A6
330
1F
100
AcDbEntity
  8
AM_0
  6
Continuous
100
AcDbCircle
 10
8.959004560077616
 20
8.959026572651834
 30
0.0
 40
2.0
100
AcDbArc
 50
305.8498794306097
 51
144.1503859823812
  0
LINE
  5
50A9
330
1F
100
AcDbEntity
  8
AM_0
  6
Continuous
100
AcDbLine
 10
15.00000000000003
 20
4.000000000000228
 30
0.0
 11
13.74544042844116
 21
1.827037034901511
 31
0.0
  0
LINE
  5
50AB
330
1F
100
AcDbEntity
  8
AM_0
  6
Continuous
100
AcDbLine
 10
2.023786225880413
 20
15.25000405067884
 30
0.0
 11
10.25102051144543
 21
20.00000000000021
 31
0.0
  0
ARC
  5
5173
330
1F
100
AcDbEntity
  8
AM_0
  6
Continuous
100
AcDbCircle
 10
9.51801393708998
 20
9.518030898448747
 30
0.0
 40
0.8
100
AcDbArc
 50
354.9999186434097
 51
95.00012289358169
1001
GENIUS_GENODEF_13
1002
{
1000
HIER
1070
     0
1002
}
1002
{
1000
MANEDIT
1070
     0
1002
}
1002
{
1000
NOSEL
1070
     0
1002
}
1002
{
1000
BEHIND
1070
     0
1002
}
1002
{
1000
REACTOR
1002
}
1001
GENIUS_GENOBJ-N-FIL_13
1002
{
1000
OWNER
1000
GEN
1002
}
  0
ARC
  5
5176
330
1F
100
AcDbEntity
  8
AM_0
  6
Continuous
100
AcDbCircle
 10
0.8000000000000536
 20
0.8000043241921172
 30
0.0
 40
0.8
100
AcDbArc
 50
175.0000006506359
 51
275.0003096974344
1001
GENIUS_GENODEF_13
1002
{
1000
HIER
1070
     0
1002
}
1002
{
1000
MANEDIT
1070
     0
1002
}
1002
{
1000
NOSEL
1070
     0
1002
}
1002
{
1000
BEHIND
1070
     0
1002
}
1002
{
1000
REACTOR
1002
}
1001
GENIUS_GENOBJ-N-FIL_13
1002
{
1000
OWNER
1000
GEN
1002
}
  0
LINE
  5
5178
330
1F
100
AcDbEntity
  8
AM_11
100
AcDbLine
 10
0.0000000000000537
 20
0.8000043241921174
 30
0.0
 11
0.0000000000000568
 21
0.00000000000018
 31
0.0
  0
LINE
  5
5179
330
1F
100
AcDbEntity
  8
AM_11
  6
Continuous
100
AcDbLine
 10
0.8000043241919907
 20
0.0000043242154907
 30
0.0
 11
0.0000000000000568
 21
0.00000000000018
 31
0.0
  0
CIRCLE
  5
5258
330
1F
100
AcDbEntity
  8
AM_0
100
AcDbCircle
 10
5.159004369343526
 20
5.159031150288839
 30
0.0
 40
2.799999999999998
  0
DIMENSION
  5
53CD
330
1F
100
AcDbEntity
  8
AM_5
100
AcDbDimension
  2
*D2
 10
-0.0000000000001067
 20
-15.6192623446125
 30
0.0
 11
49.99999999999993
 21
-14.0692623446125
 31
0.0
 70
    32
  1
<>
 71
     5
 42
100.0000000000001
 51
359.9999999999998
  3
AM_JIS$0
100
AcDbAlignedDimension
 13
100.0
 23
4.000000000000413
 33
0.0
 14
-0.0000000000001057
 24
0.0000000000001705
 34
0.0
100
AcDbRotatedDimension
1001
GENIUS_GENDTOL_13
1000

1000
h7
1000

1040
0.0
1001
ACAD
1000
DSTYLE
1002
{
1070
   287
1070
     3
1070
    40
1040
0.5
1070
    42
1040
1.0
1070
    43
1040
12.0
1070
    48
1040
0.1
1070
    78
1070
     8
1070
   140
1040
3.2
1070
   176
1070
   256
1070
   177
1070
   256
1070
   271
1070
     3
1070
   272
1070
     3
1070
   275
1070
     0
1070
   284
1070
     0
1070
   289
1070
     3
1070
   340
1005
6B
1070
   371
1070
    -1
1070
   372
1070
    -1
1002
}
  0
LINE
  5
555E
330
1F
100
AcDbEntity
  8
AM_0
  6
Continuous
100
AcDbLine
 10
0.7999812751664038
 20
-39.62266879493169
 30
0.0
 11
100.0000000000001
 21
-39.62266879493149
 31
0.0
  0
LINE
  5
5562
330
1F
100
AcDbEntity
  8
AM_0
  6
Continuous
100
AcDbLine
 10
10.25102051144544
 20
20.00000000000022
 30
0.0
 11
99.99999999999987
 21
20.00000000000041
 31
0.0
  0
DIMENSION
  5
556E
330
1F
100
AcDbEntity
  8
AM_5
100
AcDbDimension
  2
*D3
 10
111.7837990510327
 20
-23.62266879493148
 30
0.0
 11
110.2337990510327
 21
-31.62266879493147
 31
0.0
 70
    32
  1
<>
 71
     5
 42
16.0
 51
359.9999999999998
  3
AM_JIS$0
100
AcDbAlignedDimension
 13
100.0000000000001
 23
-39.62266879493149
 33
0.0
 14
100.0000000000001
 24
-23.62266879493148
 34
0.0
 50
90.00000000000012
100
AcDbRotatedDimension
1001
GENIUS_GENDTOL_13
1000

1000
h7
1000

1040
0.0
1001
ACAD
1000
DSTYLE
1002
{
1070
   287
1070
     3
1070
    40
1040
0.5
1070
    42
1040
1.0
1070
    43
1040
12.0
1070
    48
1040
0.1
1070
    78
1070
     8
1070
   140
1040
3.2
1070
   176
1070
   256
1070
   177
1070
   256
1070
   271
1070
     3
1070
   272
1070
     3
1070
   275
1070
     0
1070
   284
1070
     0
1070
   289
1070
     3
1070
   340
1005
6B
1070
   371
1070
    -1
1070
   372
1070
    -1
1002
}
  0
DIMENSION
  5
55FE
330
1F
100
AcDbEntity
  8
AM_5
100
AcDbDimension
  2
*D4
 10
111.7837990510328
 20
20.0000000000004
 30
0.0
 11
110.2337990510328
 21
12.00000000000043
 31
0.0
 70
    32
  1
<>
 71
     5
 42
15.99999999999999
 51
359.9999999999998
  3
AM_JIS$0
100
AcDbAlignedDimension
 13
100.0
 23
4.000000000000413
 33
0.0
 14
99.99999999999987
 24
20.00000000000041
 34
0.0
 50
90.00000000000012
100
AcDbRotatedDimension
1001
GENIUS_GENDTOL_13
1000

1000
h7
1000

1040
0.0
1001
ACAD
1000
DSTYLE
1002
{
1070
   287
1070
     3
1070
    40
1040
0.5
1070
    42
1040
1.0
1070
    43
1040
12.0
1070
    48
1040
0.1
1070
    78
1070
     8
1070
   140
1040
3.2
1070
   176
1070
   256
1070
   177
1070
   256
1070
   271
1070
     3
1070
   272
1070
     3
1070
   275
1070
     0
1070
   284
1070
     0
1070
   289
1070
     3
1070
   340
1005
6B
1070
   371
1070
    -1
1070
   372
1070
    -1
1002
}
  0
DIMENSION
  5
58BC
330
1F
100
AcDbEntity
  8
AM_5
100
AcDbDimension
  2
*D5
 10
-10.85774625145615
 20
20.00000000000022
 30
0.0
 11
-12.40774625145616
 21
10.0000000000002
 31
0.0
 70
    32
  1
<>
 71
     5
 42
20.00000000000003
 51
359.9999999999998
  3
AM_JIS$0
100
AcDbAlignedDimension
 13
0.0000000000000568
 23
0.0000000000001847
 33
0.0
 14
10.25102051144543
 24
20.00000000000021
 34
0.0
 50
270.0000000000001
100
AcDbRotatedDimension
1001
GENIUS_GENDTOL_13
1000

1000
h7
1000

1040
0.0
1001
ACAD
1000
DSTYLE
1002
{
1070
   287
1070
     3
1070
    40
1040
0.5
1070
    42
1040
1.0
1070
    43
1040
12.0
1070
    48
1040
0.1
1070
    78
1070
     8
1070
   140
1040
3.2
1070
   176
1070
   256
1070
   177
1070
   256
1070
   271
1070
     3
1070
   272
1070
     3
1070
   275
1070
     0
1070
   284
1070
     0
1070
   289
1070
     3
1070
   340
1005
6B
1070
   371
1070
    -1
1070
   372
1070
    -1
1002
}
  0
DIMENSION
  5
5B3F
330
1F
100
AcDbEntity
  8
AM_5
100
AcDbDimension
  2
*D6
 10
0.8697289019342381
 20
0.0030489426085309
 30
0.0
 11
7.515455028101806
 21
-6.959655576836852
 31
0.0
 70
    34
  1
<>
 71
     5
 42
1.658068194634524
 51
359.9999999999998
  3
AM_JIS$2
100
AcDb2LineAngularDimension
 13
0.0000000000000537
 23
0.8000043241921174
 33
0.0
 14
0.0000000000000571
 24
-0.0730472137306166
 34
0.0
 15
9.555084386432618
 25
0.7629663919878312
 35
0.0
 16
6.165080396752087
 26
-10.06812461401164
 36
0.0
1001
GENIUS_GENDTOL_13
1000

1000
h7
1000

1040
0.0
1001
ACAD
1000
DSTYLE
1002
{
1070
   271
1070
     2
1002
}
  0
DIMENSION
  5
5F39
330
1F
100
AcDbEntity
  8
AM_5
100
AcDbDimension
  2
*D7
 10
-10.85774625145618
 20
-23.6226728957313
 30
0.0
 11
-12.40774625145618
 21
-31.62267084533149
 31
0.0
 70
    32
  1
<>
 71
     5
 42
15.99999589920038
 51
359.9999999999998
  3
AM_JIS$0
100
AcDbAlignedDimension
 13
0.7999812751664038
 23
-39.62266879493169
 33
0.0
 14
-0.0000019073485052
 24
-23.6226728957313
 34
0.0
 50
270.0000000000001
100
AcDbRotatedDimension
1001
GENIUS_GENDTOL_13
1000

1000
h7
1000

1040
0.0
1001
ACAD
1000
DSTYLE
1002
{
1070
   287
1070
     3
1070
    40
1040
0.5
1070
    42
1040
1.0
1070
    43
1040
12.0
1070
    48
1040
0.1
1070
    78
1070
     8
1070
   140
1040
3.2
1070
   176
1070
   256
1070
   177
1070
   256
1070
   271
1070
     3
1070
   272
1070
     3
1070
   275
1070
     0
1070
   284
1070
     0
1070
   289
1070
     3
1070
   340
1005
6B
1070
   371
1070
    -1
1070
   372
1070
    -1
1002
}
  0
LINE
  5
6015
330
1F
100
AcDbEntity
  8
AM_0
100
AcDbLine
 10
15.00000000000009
 20
-23.92266879493166
 30
0.0
 11
15.00000000000012
 21
-39.62266879493166
 31
0.0
  0
LINE
  5
60D0
330
1F
100
AcDbEntity
  8
AM_0
100
AcDbLine
 10
15.00000000000009
 20
-23.92266879493166
 30
0.0
 11
15.00000000000013
 21
-39.62266879493166
 31
0.0
  0
MTEXT
  5
60FF
330
1F
100
AcDbEntity
  8
AM_6
100
AcDbMText
 10
-16.84879503951753
 20
-14.34336870465238
 30
0.0
 40
2.5
 41
0.0
 71
     4
 72
     5
  1
\T1.40;\W0.59;０°
 73
     1
 44
1.0
1001
ACAD
1000
MTEXTBEGIN
1070
    73
1070
     1
1070
    44
1040
1.0
1070
    74
1070
     0
1000
MTEXTEND
  0
INSERT
  5
6100
330
1F
100
AcDbEntity
  8
AM_5
100
AcDbBlockReference
  2
*U9
 10
7.724604674446156
 20
-65.75223858734364
 30
0.0
 50
0.0000000000002398
  0
INSERT
  5
6101
330
1F
100
AcDbEntity
  8
AM_5
100
AcDbBlockReference
  2
*U8
 10
7.724604674446156
 20
-65.75223858734364
 30
0.0
 50
0.0000000000002398
  0
MTEXT
  5
6102
330
1F
100
AcDbEntity
  8
AM_6
100
AcDbMText
 10
-28.65854032414521
 20
-2.184191750199897
 30
0.0
 40
2.5
 41
0.0
 71
     4
 72
     5
  1
\T1.40;\W0.59;０°
 73
     1
 44
1.0
1001
ACAD
1000
MTEXTBEGIN
1070
    73
1070
     1
1070
    44
1040
1.0
1070
    74
1070
     0
1000
MTEXTEND
  0
DIMENSION
  5
6362
330
1F
100
AcDbEntity
  8
AM_5
100
AcDbDimension
  2
*D10
 10
0.0000000000000559
 20
-15.61926234461249
 30
0.0
 11
7.500000000000044
 21
-14.06926234461248
 31
0.0
 70
    32
  1
<>
 71
     5
 42
14.99999999999998
  3
AM_JIS$0
100
AcDbAlignedDimension
 13
15.00000000000003
 23
4.000000000000228
 33
0.0
 14
0.0000000000000568
 24
0.0000000000001803
 34
0.0
 50
0.0000000000001018
100
AcDbRotatedDimension
1001
GENIUS_GENDTOL_13
1000

1000
h7
1000

1040
0.0
1001
ACAD
1000
DSTYLE
1002
{
1070
   287
1070
     3
1070
    40
1040
0.5
1070
    42
1040
1.0
1070
    43
1040
12.0
1070
    48
1040
0.1
1070
    78
1070
     8
1070
   140
1040
3.2
1070
   176
1070
   256
1070
   177
1070
   256
1070
   271
1070
     3
1070
   272
1070
     3
1070
   275
1070
     0
1070
   284
1070
     0
1070
   289
1070
     3
1070
   340
1005
6B
1070
   371
1070
    -1
1070
   372
1070
    -1
1002
}
  0
LINE
  5
645A
330
1F
100
AcDbEntity
  8
AM_0
100
AcDbLine
 10
13.7454404284412
 20
-23.92266879493166
 30
0.0
 11
13.74544042844123
 21
-39.62266879493166
 31
0.0
  0
LINE
  5
645B
330
1F
100
AcDbEntity
  8
AM_0
100
AcDbLine
 10
13.7454404284412
 20
-23.92266879493166
 30
0.0
 11
13.74544042844125
 21
-39.62266879493166
 31
0.0
  0
VIEWPORT
  5
110
102
{ACAD_XDICTIONARY
360
6461
102
}
330
101
100
AcDbEntity
 67
     1
  8
0
100
AcDbViewport
 10
420.5
 20
297.0
 30
0.0
 40
948.9782706766916
 41
628.452
 68
     1
 69
     1
 12
420.5
 22
297.0
 13
0.0
 23
0.0
 14
10.0
 24
10.0
 15
10.0
 25
10.0
 16
0.0
 26
0.0
 36
1.0
 17
0.0
 27
0.0
 37
0.0
 42
50.0
 43
0.0
 44
0.0
 45
628.452
 50
0.0
 51
0.0
 72
   100
 90
    32800
  1

281
     0
 71
     1
 74
     0
110
-0.0000000000002682
120
0.000000000000161
130
0.0
111
1.0
121
0.000000000000002
131
0.0
112
-0.000000000000002
122
1.0
132
0.0
 79
     0
146
0.0
1001
GENIUS_GENOBJ-N-SDF_13
1002
{
1000
OWNER
1000
GEN
1002
}
1001
GENIUS_GENODEF_13
1002
{
1000
HIER
1070
     0
1002
}
1002
{
1000
MANEDIT
1070
     0
1002
}
1002
{
1000
NOSEL
1070
     0
1002
}
1002
{
1000
BEHIND
1070
     0
1002
}
1002
{
1000
OTHER
1070
     0
1002
}
1002
{
1000
REACTOR
1002
}
1001
GENIUS_GENSCREG_15
1000
PF
1040
1.0
1000
DF
1040
1.0
1000
MIN
1011
-53.98913533834582
1021
-17.226
1031
0.0
1000
MAX
1011
894.9891353383458
1021
611.226
1031
0.0
1000
FLAGS
1070
     2
  0
ENDSEC
  0
SECTION
  2
OBJECTS
  0
DICTIONARY
  5
C
330
0
100
AcDbDictionary
281
     1
  3
ACAD_COLOR
350
6202
  3
ACAD_GROUP
350
D
  3
ACAD_LAYOUT
350
1A
  3
ACAD_MATERIAL
350
6201
  3
ACAD_MLINESTYLE
350
17
  3
ACAD_PLOTSETTINGS
350
19
  3
ACAD_PLOTSTYLENAME
350
E
  3
ACAD_TABLESTYLE
350
6203
  3
ACDBHEADERROUNDTRIPXREC
350
6460
  3
ACDBVARIABLEDICTIONARY
350
34
  3
ACMDICTIONARY
350
43
  3
AMG
350
2B
  3
AMGSNAPSETTINGS
350
6E
  3
DWGPROPS
350
645F
  0
DICTIONARY
  5
74
330
1F
100
AcDbDictionary
280
     1
281
     1
  3
ACAD_INDEX
360
63B8
  3
ACAD_LAYOUTSELFREF
360
61AD
  3
ACAD_SORTENTS
360
63AD
  0
DICTIONARY
  5
61B2
330
101
100
AcDbDictionary
280
     1
281
     1
  3
ACAD_LAYOUTSELFREF
360
61B3
  0
DICTIONARY
  5
6461
330
110
100
AcDbDictionary
280
     1
281
     1
  3
ACAD_XREC_ROUNDTRIP
360
6462
  0
DICTIONARY
  5
6202
102
{ACAD_REACTORS
330
C
102
}
330
C
100
AcDbDictionary
281
     1
  0
DICTIONARY
  5
D
102
{ACAD_REACTORS
330
C
102
}
330
C
100
AcDbDictionary
281
     1
  0
DICTIONARY
  5
1A
102
{ACAD_REACTORS
330
C
102
}
330
C
100
AcDbDictionary
281
     1
  3
Model
350
6205
  3
レイアウト1
350
6206
  0
DICTIONARY
  5
6201
102
{ACAD_REACTORS
330
C
102
}
330
C
100
AcDbDictionary
281
     1
  0
DICTIONARY
  5
17
102
{ACAD_REACTORS
330
C
102
}
330
C
100
AcDbDictionary
281
     1
  3
STANDARD
350
18
  0
DICTIONARY
  5
19
102
{ACAD_REACTORS
330
C
102
}
330
C
100
AcDbDictionary
281
     1
  3
ASAMI
350
399D
  0
ACDBDICTIONARYWDFLT
  5
E
102
{ACAD_REACTORS
330
C
102
}
330
C
100
AcDbDictionary
281
     1
  3
Normal
350
F
100
AcDbDictionaryWithDefault
340
F
  0
DICTIONARY
  5
6203
102
{ACAD_REACTORS
330
C
102
}
330
C
100
AcDbDictionary
281
     1
  3
Standard
350
6204
  0
DICTIONARY
  5
6460
102
{ACAD_REACTORS
330
C
102
}
330
C
100
AcDbDictionary
281
     1
  0
DICTIONARY
  5
34
102
{ACAD_REACTORS
330
C
102
}
330
C
100
AcDbDictionary
281
     1
  3
CTABLESTYLE
350
63C1
  3
DIMASSOC
350
63C2
  3
INDEXCTL
350
35
  3
PROJECTNAME
350
63C3
  3
SORTENTS
350
B5E
  0
DICTIONARY
  5
43
102
{ACAD_REACTORS
330
C
102
}
330
C
100
AcDbDictionary
281
     1
  3
ACMSTDDICTIONARY
350
260
  3
AMDTSECTSYM_ARROWCOLOR
350
627E
  0
DICTIONARY
  5
2B
102
{ACAD_REACTORS
330
C
102
}
330
C
100
AcDbDictionary
281
     1
  0
DICTIONARY
  5
6E
102
{ACAD_REACTORS
330
C
102
}
330
C
100
AcDbDictionary
281
     1
  0
XRECORD
  5
645F
102
{ACAD_REACTORS
330
C
102
}
330
C
100
AcDbXrecord
280
     1
  1
DWGPROPS COOKIE
  2

  3

  4

  6

  7

  8

  9

300
AmdtFileType=82
301
=
302
=
303
=
304
=
305
=
306
=
307
=
308
=
309
=
 40
0.7964784490740741
 41
2452802.716478762
 42
2455601.472189479
  1

 90
        1
  0
DICTIONARY
  5
63B8
102
{ACAD_REACTORS
330
74
102
}
330
74
100
AcDbDictionary
281
     1
  3
*A1
350
63B9
  0
XRECORD
  5
61AD
102
{ACAD_REACTORS
330
74
102
}
330
74
100
AcDbXrecord
280
     1
340
1F
  0
SORTENTSTABLE
  5
63AD
102
{ACAD_REACTORS
330
74
102
}
330
74
100
AcDbSortentsTable
330
1F
331
6102
  5
6102
331
508D
  5
508D
331
5077
  5
5077
331
5562
  5
5562
331
5099
  5
5099
331
5083
  5
5083
331
556E
  5
556E
331
507A
  5
507A
331
5086
  5
5086
331
5258
  5
5258
331
509F
  5
509F
331
50A5
  5
50A5
331
58BC
  5
58BC
331
50AB
  5
50AB
331
5073
  5
5073
331
6362
  5
6362
331
508F
  5
508F
331
555E
  5
555E
331
508C
  5
508C
331
6101
  5
6101
331
5173
  5
5173
331
5B3F
  5
5B3F
331
5176
  5
5176
331
507C
  5
507C
331
5179
  5
5179
331
5098
  5
5098
331
60FF
  5
60FF
331
6015
  5
6015
331
5085
  5
5085
331
5082
  5
5082
331
50A4
  5
50A4
331
5F39
  5
5F39
331
388D
  5
388D
331
60D0
  5
60D0
331
6100
  5
6100
331
50A9
  5
50A9
331
5075
  5
5075
331
55FE
  5
55FE
331
508E
  5
508E
331
5094
  5
5094
331
5081
  5
5081
331
5178
  5
5178
331
507E
  5
507E
331
5084
  5
5084
331
50A6
  5
50A6
331
53CD
  5
53CD
331
509A
  5
509A
331
508B
  5
508B
  0
XRECORD
  5
61B3
102
{ACAD_REACTORS
330
61B2
102
}
330
61B2
100
AcDbXrecord
280
     1
340
101
  0
XRECORD
  5
6462
102
{ACAD_REACTORS
330
6461
102
}
330
6461
100
AcDbXrecord
280
     1
102
SHADEPLOT
 70
     0
  0
LAYOUT
  5
6205
102
{ACAD_XDICTIONARY
360
6465
102
}
102
{ACAD_REACTORS
330
1A
102
}
330
1A
100
AcDbPlotSettings
  1

  2
SII LP-1010 (C2 VR)2R
  4

  6

 40
0.0
 41
0.0
 42
0.0
 43
0.0
 44
0.0
 45
0.0
 46
0.0
 47
0.0
 48
0.0
 49
0.0
140
0.0
141
0.0
142
1.0
143
1.0
 70
  1712
 72
     0
 73
     0
 74
     0
  7
sei_cad.ctb
 75
     0
147
1.0
148
0.0
149
0.0
100
AcDbLayout
  1
Model
 70
     1
 71
     0
 10
0.0
 20
0.0
 11
12.0
 21
9.0
 12
0.0
 22
0.0
 32
0.0
 14
0.0
 24
0.0
 34
0.0
 15
0.0
 25
0.0
 35
0.0
146
0.0
 13
0.0
 23
0.0
 33
0.0
 16
1.0
 26
0.0
 36
0.0
 17
0.0
 27
1.0
 37
0.0
 76
     0
330
1F
  0
LAYOUT
  5
6206
102
{ACAD_XDICTIONARY
360
6467
102
}
102
{ACAD_REACTORS
330
1A
102
}
330
1A
100
AcDbPlotSettings
  1

  2
SII LP-1010 (C2 VR)2R
  4

  6

 40
0.0
 41
0.0
 42
0.0
 43
0.0
 44
0.0
 45
0.0
 46
0.0
 47
0.0
 48
0.0
 49
0.0
140
0.0
141
0.0
142
1.0
143
1.0
 70
   688
 72
     0
 73
     0
 74
     5
  7
sei_cad.ctb
 75
    16
147
1.0
148
0.0
149
0.0
100
AcDbLayout
  1
レイアウト1
 70
     0
 71
     1
 10
0.0
 20
0.0
 11
841.0
 21
594.0
 12
0.0
 22
0.0
 32
0.0
 14
1.000000000000000E+20
 24
1.000000000000000E+20
 34
1.000000000000000E+20
 15
-1.000000000000000E+20
 25
-1.000000000000000E+20
 35
-1.000000000000000E+20
146
0.0
 13
0.0
 23
0.0
 33
0.0
 16
1.0
 26
0.0
 36
0.0
 17
0.0
 27
1.0
 37
0.0
 76
     0
330
101
331
110
  0
MLINESTYLE
  5
18
102
{ACAD_REACTORS
330
17
102
}
330
17
100
AcDbMlineStyle
  2
STANDARD
 70
     0
  3

 62
   256
 51
90.0
 52
90.0
 71
     2
 49
0.5
 62
   256
  6
BYLAYER
 49
-0.5
 62
   256
  6
BYLAYER
  0
PLOTSETTINGS
  5
399D
102
{ACAD_XDICTIONARY
360
6463
102
}
102
{ACAD_REACTORS
330
19
102
}
330
19
100
AcDbPlotSettings
  1
asami
  2
RICOH imagio MF1540
  4
A4
  6

 40
5.831416606903076
 41
7.651742935180664
 42
4.90008544921875
 43
5.789077758789062
 44
296.9683227539062
 45
209.9733276367186
 46
0.0
 47
0.0
 48
-156.6707931774246
 49
-74.57609991074048
140
58.59973180214831
141
60.61068161925597
142
1.0
143
1.095343097833084
 70
  1712
 72
     1
 73
     1
 74
     4
  7
asami.ctb
 75
     0
147
0.9129559514076438
148
156.6707931774246
149
74.57609991074048
  0
ACDBPLACEHOLDER
  5
F
102
{ACAD_REACTORS
330
E
102
}
330
E
  0
TABLESTYLE
  5
6204
102
{ACAD_REACTORS
330
6203
102
}
330
6203
100
AcDbTableStyle
  3
Standard
 70
     0
 71
     0
 40
1.5
 41
1.5
280
     0
281
     0
  7
STANDARD
140
4.5
170
     2
 62
     0
 63
     7
283
     0
274
    -2
284
     1
 64
     0
275
    -2
285
     1
 65
     0
276
    -2
286
     1
 66
     0
277
    -2
287
     1
 67
     0
278
    -2
288
     1
 68
     0
279
    -2
289
     1
 69
     0
  7
STANDARD
140
6.0
170
     5
 62
     0
 63
     7
283
     0
274
    -2
284
     1
 64
     0
275
    -2
285
     1
 65
     0
276
    -2
286
     1
 66
     0
277
    -2
287
     1
 67
     0
278
    -2
288
     1
 68
     0
279
    -2
289
     1
 69
     0
  7
STANDARD
140
4.5
170
     5
 62
     0
 63
     7
283
     0
274
    -2
284
     1
 64
     0
275
    -2
285
     1
 65
     0
276
    -2
286
     1
 66
     0
277
    -2
287
     1
 67
     0
278
    -2
288
     1
 68
     0
279
    -2
289
     1
 69
     0
  0
DICTIONARYVAR
  5
63C1
102
{ACAD_REACTORS
330
34
102
}
330
34
100
DictionaryVariables
280
     0
  1
STANDARD
  0
DICTIONARYVAR
  5
63C2
102
{ACAD_REACTORS
330
34
102
}
330
34
100
DictionaryVariables
280
     0
  1
1
  0
DICTIONARYVAR
  5
35
102
{ACAD_REACTORS
330
34
102
}
330
34
100
DictionaryVariables
280
     0
  1
1
  0
DICTIONARYVAR
  5
63C3
102
{ACAD_REACTORS
330
34
102
}
330
34
100
DictionaryVariables
280
     0
  1

  0
DICTIONARYVAR
  5
B5E
102
{ACAD_REACTORS
330
34
102
}
330
34
100
DictionaryVariables
280
     0
  1
96
  0
DICTIONARY
  5
260
102
{ACAD_REACTORS
330
43
102
}
330
43
100
AcDbDictionary
281
     1
  0
XRECORD
  5
627E
102
{ACAD_REACTORS
330
43
102
}
330
43
100
AcDbXrecord
280
     1
 90
-1023410169
  0
LAYER_INDEX
  5
63B9
102
{ACAD_REACTORS
330
63B8
102
}
330
63B8
100
AcDbIndex
 40
2455601.472189479
100
AcDbLayerIndex
  8
0
360
63BA
 90
        0
  8
AM_0
360
63BB
 90
       34
  8
AM_5
360
63BC
 90
        9
  8
AM_7
360
63BD
 90
        2
  8
AM_6
360
63BE
 90
        3
  8
DEFPOINTS
360
63BF
 90
        0
  8
AM_11
360
63C0
 90
        2
  8
AM_CL
360
645D
 90
        0
  0
DICTIONARY
  5
6465
330
6205
100
AcDbDictionary
280
     1
281
     1
  3
ACAD_XREC_ROUNDTRIP
360
6466
  0
DICTIONARY
  5
6467
330
6206
100
AcDbDictionary
280
     1
281
     1
  3
ACAD_XREC_ROUNDTRIP
360
6468
  0
DICTIONARY
  5
6463
330
399D
100
AcDbDictionary
280
     1
281
     1
  3
ACAD_XREC_ROUNDTRIP
360
6464
  0
IDBUFFER
  5
63BA
330
0
100
AcDbIdBuffer
  0
IDBUFFER
  5
63BB
330
0
100
AcDbIdBuffer
330
645A
330
645B
330
5073
330
5075
330
5077
330
507A
330
507C
330
507E
330
5081
330
5082
330
5083
330
5084
330
5085
330
5086
330
508B
330
508C
330
508D
330
508E
330
508F
330
5094
330
5098
330
509A
330
509F
330
50A5
330
50A6
330
50A9
330
50AB
330
5173
330
5176
330
5258
330
555E
330
5562
330
6015
330
60D0
  0
IDBUFFER
  5
63BC
330
0
100
AcDbIdBuffer
330
53CD
330
556E
330
55FE
330
58BC
330
5B3F
330
5F39
330
6100
330
6101
330
6362
  0
IDBUFFER
  5
63BD
330
0
100
AcDbIdBuffer
330
5099
330
50A4
  0
IDBUFFER
  5
63BE
330
0
100
AcDbIdBuffer
330
388D
330
60FF
330
6102
  0
IDBUFFER
  5
63BF
330
0
100
AcDbIdBuffer
  0
IDBUFFER
  5
63C0
330
0
100
AcDbIdBuffer
330
5178
330
5179
  0
IDBUFFER
  5
645D
330
0
100
AcDbIdBuffer
  0
XRECORD
  5
6466
102
{ACAD_REACTORS
330
6465
102
}
330
6465
100
AcDbXrecord
280
     1
102
SHADEPLOT
 70
     0
102
SHADEPLOTRESLEVEL
 70
     2
102
SHADEPLOTCUSTOMDPI
 70
   300
  0
XRECORD
  5
6468
102
{ACAD_REACTORS
330
6467
102
}
330
6467
100
AcDbXrecord
280
     1
102
SHADEPLOT
 70
     0
102
SHADEPLOTRESLEVEL
 70
     2
102
SHADEPLOTCUSTOMDPI
 70
   300
  0
XRECORD
  5
6464
102
{ACAD_REACTORS
330
6463
102
}
330
6463
100
AcDbXrecord
280
     1
102
SHADEPLOT
 70
     0
102
SHADEPLOTRESLEVEL
 70
     2
102
SHADEPLOTCUSTOMDPI
 70
   300
  0
ENDSEC
  0
EOF
