  0
SECTION
  2
HEADER
  9
$ACADVER
  1
AC1014
  9
$ACADMAINTVER
 70
     9
  9
$DWGCODEPAGE
  3
ANSI_932
  9
$INSBASE
 10
0.0
 20
0.0
 30
0.0
  9
$EXTMIN
 10
-109.3499908506857
 20
-29.87266605662104
 30
0.0
  9
$EXTMAX
 10
26.56912756949076
 20
26.24012080659587
 30
0.0
  9
$LIMMIN
 10
-122.158286865764
 20
-47.65393676995882
  9
$LIMMAX
 10
36.35967499582557
 20
47.13131651953005
  9
$ORTHOMODE
 70
     0
  9
$REGENMODE
 70
     1
  9
$FILLMODE
 70
     1
  9
$QTEXTMODE
 70
     0
  9
$MIRRTEXT
 70
     0
  9
$DRAGMODE
 70
     2
  9
$LTSCALE
 40
1.0
  9
$OSMODE
 70
  2103
  9
$ATTMODE
 70
     1
  9
$TEXTSIZE
 40
2.5
  9
$TRACEWID
 40
1.0
  9
$TEXTSTYLE
  7
STANDARD
  9
$CLAYER
  8
AM_0
  9
$CELTYPE
  6
BYLAYER
  9
$CECOLOR
 62
   256
  9
$CELTSCALE
 40
1.0
  9
$DELOBJ
 70
     1
  9
$DISPSILH
 70
     0
  9
$DIMSCALE
 40
0.5
  9
$DIMASZ
 40
2.5
  9
$DIMEXO
 40
1.0
  9
$DIMDLI
 40
12.0
  9
$DIMRND
 40
0.0
  9
$DIMDLE
 40
0.0
  9
$DIMEXE
 40
1.0
  9
$DIMTP
 40
0.1
  9
$DIMTM
 40
0.1
  9
$DIMTXT
 40
3.2
  9
$DIMCEN
 40
0.0
  9
$DIMTSZ
 40
0.0
  9
$DIMTOL
 70
     0
  9
$DIMLIM
 70
     0
  9
$DIMTIH
 70
     0
  9
$DIMTOH
 70
     0
  9
$DIMSE1
 70
     0
  9
$DIMSE2
 70
     0
  9
$DIMTAD
 70
     3
  9
$DIMZIN
 70
     8
  9
$DIMBLK
  1
OPEN30
  9
$DIMASO
 70
     1
  9
$DIMSHO
 70
     1
  9
$DIMPOST
  1

  9
$DIMAPOST
  1
"
  9
$DIMALT
 70
     0
  9
$DIMALTD
 70
     2
  9
$DIMALTF
 40
0.0393701
  9
$DIMLFAC
 40
1.0
  9
$DIMTOFL
 70
     1
  9
$DIMTVP
 40
0.0
  9
$DIMTIX
 70
     0
  9
$DIMSOXD
 70
     0
  9
$DIMSAH
 70
     0
  9
$DIMBLK1
  1

  9
$DIMBLK2
  1

  9
$DIMSTYLE
  2
AM_JIS
  9
$DIMCLRD
 70
   256
  9
$DIMCLRE
 70
   256
  9
$DIMCLRT
 70
     2
  9
$DIMTFAC
 40
0.71
  9
$DIMGAP
 40
1.5
  9
$DIMJUST
 70
     0
  9
$DIMSD1
 70
     0
  9
$DIMSD2
 70
     0
  9
$DIMTOLJ
 70
     0
  9
$DIMTZIN
 70
     0
  9
$DIMALTZ
 70
     0
  9
$DIMALTTZ
 70
     0
  9
$DIMFIT
 70
     3
  9
$DIMUPT
 70
     0
  9
$DIMUNIT
 70
     2
  9
$DIMDEC
 70
     3
  9
$DIMTDEC
 70
     3
  9
$DIMALTU
 70
     2
  9
$DIMALTTD
 70
     2
  9
$DIMTXSTY
  7
ASAMI
  9
$DIMAUNIT
 70
     0
  9
$LUNITS
 70
     2
  9
$LUPREC
 70
     2
  9
$SKETCHINC
 40
1.0
  9
$FILLETRAD
 40
0.4
  9
$AUNITS
 70
     0
  9
$AUPREC
 70
     0
  9
$MENU
  1
.
  9
$ELEVATION
 40
0.0
  9
$PELEVATION
 40
0.0
  9
$THICKNESS
 40
0.0
  9
$LIMCHECK
 70
     1
  9
$BLIPMODE
 70
     0
  9
$CHAMFERA
 40
1.0
  9
$CHAMFERB
 40
1.0
  9
$CHAMFERC
 40
20.0
  9
$CHAMFERD
 40
0.0
  9
$SKPOLY
 70
     0
  9
$TDCREATE
 40
2452802.716478761
  9
$TDUPDATE
 40
2452941.601983495
  9
$TDINDWG
 40
0.7354644676
  9
$TDUSRTIMER
 40
0.7354644676
  9
$USRTIMER
 70
     1
  9
$ANGBASE
 50
0.0
  9
$ANGDIR
 70
     0
  9
$PDMODE
 70
     0
  9
$PDSIZE
 40
0.0
  9
$PLINEWID
 40
0.0
  9
$COORDS
 70
     0
  9
$SPLFRAME
 70
     0
  9
$SPLINETYPE
 70
     6
  9
$SPLINESEGS
 70
     8
  9
$ATTDIA
 70
     1
  9
$ATTREQ
 70
     1
  9
$HANDLING
 70
 12289
  9
$HANDSEED
  5
694B
  9
$SURFTAB1
 70
     6
  9
$SURFTAB2
 70
     6
  9
$SURFTYPE
 70
     6
  9
$SURFU
 70
     6
  9
$SURFV
 70
     6
  9
$UCSNAME
  2

  9
$UCSORG
 10
-0.0000000000002682
 20
0.000000000000161
 30
0.0
  9
$UCSXDIR
 10
1.0
 20
0.000000000000002
 30
0.0
  9
$UCSYDIR
 10
-0.000000000000002
 20
1.0
 30
0.0
  9
$PUCSNAME
  2

  9
$PUCSORG
 10
0.0
 20
0.0
 30
0.0
  9
$PUCSXDIR
 10
1.0
 20
0.0
 30
0.0
  9
$PUCSYDIR
 10
0.0
 20
1.0
 30
0.0
  9
$USERI1
 70
     0
  9
$USERI2
 70
     0
  9
$USERI3
 70
     0
  9
$USERI4
 70
     0
  9
$USERI5
 70
     0
  9
$USERR1
 40
0.0
  9
$USERR2
 40
0.0
  9
$USERR3
 40
0.0
  9
$USERR4
 40
0.0
  9
$USERR5
 40
0.0
  9
$WORLDVIEW
 70
     1
  9
$SHADEDGE
 70
     3
  9
$SHADEDIF
 70
    70
  9
$TILEMODE
 70
     1
  9
$MAXACTVP
 70
    64
  9
$PINSBASE
 10
0.0
 20
0.0
 30
0.0
  9
$PLIMCHECK
 70
     0
  9
$PEXTMIN
 10
1.000000000000000E+20
 20
1.000000000000000E+20
 30
1.000000000000000E+20
  9
$PEXTMAX
 10
-1.000000000000000E+20
 20
-1.000000000000000E+20
 30
-1.000000000000000E+20
  9
$PLIMMIN
 10
0.0
 20
0.0
  9
$PLIMMAX
 10
841.0
 20
594.0
  9
$UNITMODE
 70
     0
  9
$VISRETAIN
 70
     1
  9
$PLINEGEN
 70
     0
  9
$PSLTSCALE
 70
     0
  9
$TREEDEPTH
 70
  3020
  9
$PICKSTYLE
 70
     0
  9
$CMLSTYLE
  2
STANDARD
  9
$CMLJUST
 70
     0
  9
$CMLSCALE
 40
20.0
  9
$PROXYGRAPHICS
 70
     1
  9
$MEASUREMENT
 70
     1
  0
ENDSEC
  0
SECTION
  2
CLASSES
  0
CLASS
  1
ACDBDICTIONARYWDFLT
  2
AcDbDictionaryWithDefault
  3
AutoCAD 2000
 90
        0
280
     0
281
     0
  0
CLASS
  1
ACDBPLACEHOLDER
  2
AcDbPlaceHolder
  3
AutoCAD 2000
 90
        0
280
     0
281
     0
  0
CLASS
  1
LAYOUT
  2
AcDbLayout
  3
AutoCAD 2000
 90
        0
280
     0
281
     0
  0
CLASS
  1
AMGSETTINGSOBJ
  2
AmgSettingsObj
  3
"AcadM|Product Description: AutoCAD Mechanical 2000|Company: Autodesk"
 90
        0
280
     0
281
     0
  0
CLASS
  1
ACME_DOCUMENT
  2
AcMeDbDoc
  3
AcMeServices
 90
        0
280
     0
281
     0
  0
CLASS
  1
ACMESCOPE
  2
AcMeScope
  3
AcMeServices
 90
        0
280
     0
281
     0
  0
CLASS
  1
ACMECOMMANDHISTORY
  2
AcMeCommandHistory
  3
AcMeServices
 90
        0
280
     0
281
     0
  0
CLASS
  1
DICTIONARYVAR
  2
AcDbDictionaryVar
  3
AutoCAD 2000
 90
        0
280
     0
281
     0
  0
CLASS
  1
ACIMSYSVARMAN
  2
AcImSysVarManager
  3
AcMeServices
 90
        0
280
     0
281
     0
  0
CLASS
  1
ACIMREALSYSVAR
  2
AcImRealSysVar
  3
AcMeServices
 90
        0
280
     0
281
     0
  0
CLASS
  1
ACIMINTSYSVAR
  2
AcImIntSysVar
  3
AcMeServices
 90
        0
280
     0
281
     0
  0
CLASS
  1
ACMEDRAWINGMAN
  2
AcMeDrawingMan
  3
AcMeServices
 90
        0
280
     0
281
     0
  0
CLASS
  1
ACMEVIEW
  2
AcMeView
  3
AcMeServices
 90
        0
280
     0
281
     0
  0
CLASS
  1
ACDBENTITYCACHE
  2
AcMeEntityCache
  3
AcMeServices
 90
        0
280
     0
281
     0
  0
CLASS
  1
GSMANAGER
  2
AcMeGSManager
  3
AcMeServices
 90
        0
280
     0
281
     0
  0
CLASS
  1
AmdtInternalReactor
  2
AmdtInternalReactor
  3
AcMeServices
 90
        0
280
     0
281
     0
  0
CLASS
  1
ACMESTATEMGR
  2
AcMeStateMgr
  3
AcMeServices
 90
        0
280
     0
281
     0
  0
CLASS
  1
ACME_DATABASE
  2
AcMeDbDatabase
  3
AcMeServices
 90
        0
280
     0
281
     0
  0
CLASS
  1
ACRFINSADJUSTERMGR
  2
AcRfInsAdjusterMgr
  3
AcMeServices
 90
        0
280
     0
281
     0
  0
CLASS
  1
ACMDATADICTIONARY
  2
AcmDataDictionary
  3
"AcmSymBB|Product Description: AutoCAD Mechanical 2000|Company: Autodesk"
 90
        0
280
     0
281
     0
  0
CLASS
  1
ACMDATAENTRYBLOCK
  2
AcmDataEntryBlock
  3
"AcmSymBB|Product Description: AutoCAD Mechanical 2000|Company: Autodesk"
 90
        0
280
     0
281
     0
  0
CLASS
  1
AMGOBJPROPCFG
  2
AmgObjPropCfg
  3
"AmgLay|Product Description: AutoCAD Mechanical 2000|Company: Autodesk"
 90
        1
280
     0
281
     0
  0
CLASS
  1
ACAMGFILTERDAT
  2
AcAmgFilterDat
  3
"AcadM|Product Description: AutoCAD Mechanical 2000|Company: Autodesk"
 90
        0
280
     0
281
     0
  0
CLASS
  1
LAYER_INDEX
  2
AcDbLayerIndex
  3
AutoCAD 2000
 90
        0
280
     0
281
     0
  0
CLASS
  1
IDBUFFER
  2
AcDbIdBuffer
  3
AutoCAD 2000
 90
        0
280
     0
281
     0
  0
CLASS
  1
ACIMSTRSYSVAR
  2
AcImStrSysVar
  3
AcMeServices
 90
        0
280
     0
281
     0
  0
CLASS
  1
ACMSTANDARDJIS
  2
AcmStandardJIS
  3
"AcmSymBB|Product Description: AutoCAD Mechanical 2000|Company: Autodesk"
 90
        0
280
     0
281
     0
  0
CLASS
  1
ACMSURFSTANDARDJIS
  2
AcmSurfTextStdJIS
  3
"AcmSymBB|Product Description: AutoCAD Mechanical 2000|Company: Autodesk"
 90
        0
280
     0
281
     0
  0
CLASS
  1
ACMFCFSTANDARDJIS
  2
AcmFCFStdJIS
  3
"AcmSymBB|Product Description: AutoCAD Mechanical 2000|Company: Autodesk"
 90
        0
280
     0
281
     0
  0
CLASS
  1
ACMWELDSTANDARDJIS
  2
AcmWeldingStdJIS
  3
"AcmSymBB|Product Description: AutoCAD Mechanical 2000|Company: Autodesk"
 90
        0
280
     0
281
     0
  0
CLASS
  1
ACMIDSTANDARDJIS
  2
AcmIdStdJIS
  3
"AcmSymBB|Product Description: AutoCAD Mechanical 2000|Company: Autodesk"
 90
        0
280
     0
281
     0
  0
CLASS
  1
ACMDATUMSTANDARDJIS
  2
AcmDatumStdJIS
  3
"AcmSymBB|Product Description: AutoCAD Mechanical 2000|Company: Autodesk"
 90
        0
280
     0
281
     0
  0
CLASS
  1
ACMBOMSTANDARDJIS
  2
AcmBOMStdJIS
  3
"AcmSymBB|Product Description: AutoCAD Mechanical 2000|Company: Autodesk"
 90
        0
280
     0
281
     0
  0
CLASS
  1
ACMSTANDARDANSI
  2
AcmStandardANSI
  3
"AcmSymBB|Product Description: AutoCAD Mechanical 2000|Company: Autodesk"
 90
        0
280
     0
281
     0
  0
CLASS
  1
ACMSURFSTANDARDANSI
  2
AcmSurfTextStdANSI
  3
"AcmSymBB|Product Description: AutoCAD Mechanical 2000|Company: Autodesk"
 90
        0
280
     0
281
     0
  0
CLASS
  1
ACMFCFSTANDARDANSI
  2
AcmFCFStdANSI
  3
"AcmSymBB|Product Description: AutoCAD Mechanical 2000|Company: Autodesk"
 90
        0
280
     0
281
     0
  0
CLASS
  1
ACMWELDSTANDARDANSI
  2
AcmWeldingStdANSI
  3
"AcmSymBB|Product Description: AutoCAD Mechanical 2000|Company: Autodesk"
 90
        0
280
     0
281
     0
  0
CLASS
  1
ACMIDSTANDARDANSI
  2
AcmIdStdANSI
  3
"AcmSymBB|Product Description: AutoCAD Mechanical 2000|Company: Autodesk"
 90
        0
280
     0
281
     0
  0
CLASS
  1
ACMDATUMSTANDARDANSI
  2
AcmDatumStdANSI
  3
"AcmSymBB|Product Description: AutoCAD Mechanical 2000|Company: Autodesk"
 90
        0
280
     0
281
     0
  0
CLASS
  1
ACMBOMSTANDARDANSI
  2
AcmBOMStdANSI
  3
"AcmSymBB|Product Description: AutoCAD Mechanical 2000|Company: Autodesk"
 90
        0
280
     0
281
     0
  0
CLASS
  1
ACMSTANDARDBSI
  2
AcmStandardBSI
  3
"AcmSymBB|Product Description: AutoCAD Mechanical 2000|Company: Autodesk"
 90
        0
280
     0
281
     0
  0
CLASS
  1
ACMSURFSTANDARDBSI
  2
AcmSurfTextStdBSI
  3
"AcmSymBB|Product Description: AutoCAD Mechanical 2000|Company: Autodesk"
 90
        0
280
     0
281
     0
  0
CLASS
  1
ACMFCFSTANDARDBSI
  2
AcmFCFStdBSI
  3
"AcmSymBB|Product Description: AutoCAD Mechanical 2000|Company: Autodesk"
 90
        0
280
     0
281
     0
  0
CLASS
  1
ACMWELDSTANDARDBSI
  2
AcmWeldingStdBSI
  3
"AcmSymBB|Product Description: AutoCAD Mechanical 2000|Company: Autodesk"
 90
        0
280
     0
281
     0
  0
CLASS
  1
ACMIDSTANDARDBSI
  2
AcmIdStdBSI
  3
"AcmSymBB|Product Description: AutoCAD Mechanical 2000|Company: Autodesk"
 90
        0
280
     0
281
     0
  0
CLASS
  1
ACMDATUMSTANDARDBSI
  2
AcmDatumStdBSI
  3
"AcmSymBB|Product Description: AutoCAD Mechanical 2000|Company: Autodesk"
 90
        0
280
     0
281
     0
  0
CLASS
  1
ACMBOMSTANDARDBSI
  2
AcmBOMStdBSI
  3
"AcmSymBB|Product Description: AutoCAD Mechanical 2000|Company: Autodesk"
 90
        0
280
     0
281
     0
  0
CLASS
  1
STDPART2D
  2
AmgStdPart
  3
"AmgStdPart|Product Description: AutoCAD Mechanical 2000|Company: Autodesk"
 90
     1023
280
     0
281
     1
  0
CLASS
  1
PLOTSETTINGS
  2
AcDbPlotSettings
  3
AutoCAD 2000
 90
        0
280
     0
281
     0
  0
CLASS
  1
LONG_TRANSACTION
  2
AcDbLongTransaction
  3
AutoCAD 2000
 90
        0
280
     0
281
     0
  0
CLASS
  1
LWPOLYLINE
  2
AcDbPolyline
  3
AutoCAD 2000
 90
        0
280
     0
281
     1
  0
CLASS
  1
HATCH
  2
AcDbHatch
  3
AutoCAD 2000
 90
        0
280
     0
281
     1
  0
CLASS
  1
XRECORD
  2
AcDbXrecord
  3
AutoCAD 2000
 90
        0
280
     0
281
     0
  0
ENDSEC
  0
SECTION
  2
TABLES
  0
TABLE
  2
VPORT
  5
8
330
0
100
AcDbSymbolTable
 70
     3
  0
VPORT
  5
68DD
330
8
100
AcDbSymbolTableRecord
100
AcDbViewportTableRecord
  2
*ACTIVE
 70
     0
 10
0.0
 20
0.0
 11
1.0
 21
1.0
 12
-30.8378928558604
 22
6.035075834748766
 13
0.0
 23
0.0
 14
2.5
 24
2.5
 15
10.0
 25
10.0
 16
0.0
 26
0.0
 36
1.0
 17
0.0
 27
0.0
 37
0.0
 40
111.2554947030892
 41
1.609042553191489
 42
50.0
 43
0.0
 44
0.0
 50
0.0
 51
0.0
 71
     0
 72
   100
 73
     1
 74
     3
 75
     0
 76
     0
 77
     0
 78
     0
  0
ENDTAB
  0
TABLE
  2
LTYPE
  5
5
330
0
100
AcDbSymbolTable
 70
    10
  0
LTYPE
  5
14
330
5
100
AcDbSymbolTableRecord
100
AcDbLinetypeTableRecord
  2
BYBLOCK
 70
     0
  3

 72
    65
 73
     0
 40
0.0
  0
LTYPE
  5
15
330
5
100
AcDbSymbolTableRecord
100
AcDbLinetypeTableRecord
  2
BYLAYER
 70
     0
  3

 72
    65
 73
     0
 40
0.0
  0
LTYPE
  5
16
330
5
100
AcDbSymbolTableRecord
100
AcDbLinetypeTableRecord
  2
CONTINUOUS
 70
     0
  3
Solid line
 72
    65
 73
     0
 40
0.0
  0
LTYPE
  5
4B
330
5
100
AcDbSymbolTableRecord
100
AcDbLinetypeTableRecord
  2
AM_ISO02W050
 70
     0
  3
__ __ __ __ __ __ __ __ __ __ __ __ __ __ __
 72
    65
 73
     2
 40
7.5
 49
6.0
 74
     0
 49
-1.5
 74
     0
  0
LTYPE
  5
4C
330
5
100
AcDbSymbolTableRecord
100
AcDbLinetypeTableRecord
  2
AM_ISO08W050
 70
     0
  3
____ . ____ . ____ . ____ . ____ . ____ . ____
 72
    65
 73
     4
 40
18.0
 49
12.0
 74
     0
 49
-1.5
 74
     0
 49
3.0
 74
     0
 49
-1.5
 74
     0
  0
LTYPE
  5
4D
330
5
100
AcDbSymbolTableRecord
100
AcDbLinetypeTableRecord
  2
AM_ISO09W050
 70
     0
  3
_____ . . _____ . . _____ . . ____ .. ____
 72
    65
 73
     6
 40
22.5
 49
12.0
 74
     0
 49
-1.5
 74
     0
 49
3.0
 74
     0
 49
-1.5
 74
     0
 49
3.0
 74
     0
 49
-1.5
 74
     0
  0
LTYPE
  5
4E
330
5
100
AcDbSymbolTableRecord
100
AcDbLinetypeTableRecord
  2
AMCONSTR
 70
     0
  3
_______________________
 72
    65
 73
     2
 40
9999.0
 49
9999.0
 74
     0
 49
0.0
 74
     0
  0
LTYPE
  5
4F
330
5
100
AcDbSymbolTableRecord
100
AcDbLinetypeTableRecord
  2
AM_ISO02W050X2
 70
     0
  3
 _ _ _ _ _ _ _ _ _ _ _ _
 72
    65
 73
     2
 40
3.75
 49
3.0
 74
     0
 49
-0.75
 74
     0
  0
LTYPE
  5
50
330
5
100
AcDbSymbolTableRecord
100
AcDbLinetypeTableRecord
  2
AM_ISO08W050X2
 70
     0
  3
__ . __ . __ . __ . __ . __
 72
    65
 73
     4
 40
9.0
 49
6.0
 74
     0
 49
-0.75
 74
     0
 49
1.5
 74
     0
 49
-0.75
 74
     0
  0
LTYPE
  5
53
330
5
100
AcDbSymbolTableRecord
100
AcDbLinetypeTableRecord
  2
AMZIGZAG
 70
     0
  3
/\/-/\/-/\/-/\/-/\/-/\/
 72
    65
 73
     2
 40
11.00009999999999
 49
0.0001
 74
     4
 75
   135
340
52
 46
0.04
 50
0.0
 44
0.0
 45
0.0
 49
-11.0
 74
     0
  0
LTYPE
  5
166
330
5
100
AcDbSymbolTableRecord
100
AcDbLinetypeTableRecord
  2
ACJISTGL
 70
     0
  3
_ _ _ _ _
 72
    65
 73
     2
 40
3.0
 49
2.0
 74
     0
 49
-1.0
 74
     0
  0
LTYPE
  5
26A
330
5
100
AcDbSymbolTableRecord
100
AcDbLinetypeTableRecord
  2
ACJISTGB
 70
     0
  3
__ . . __ . .
 72
    65
 73
     6
 40
9.0
 49
4.0
 74
     0
 49
-1.0
 74
     0
 49
1.0
 74
     0
 49
-1.0
 74
     0
 49
1.0
 74
     0
 49
-1.0
 74
     0
  0
ENDTAB
  0
TABLE
  2
LAYER
  5
2
330
0
100
AcDbSymbolTable
 70
     9
  0
LAYER
  5
10
330
2
100
AcDbSymbolTableRecord
100
AcDbLayerTableRecord
  2
0
 70
     0
 62
     7
  6
CONTINUOUS
  0
LAYER
  5
3F9
330
2
100
AcDbSymbolTableRecord
100
AcDbLayerTableRecord
  2
AM_0
 70
     0
 62
     7
  6
CONTINUOUS
  0
LAYER
  5
BA4
330
2
100
AcDbSymbolTableRecord
100
AcDbLayerTableRecord
  2
AM_5
 70
     0
 62
     3
  6
CONTINUOUS
  0
LAYER
  5
BA5
330
2
100
AcDbSymbolTableRecord
100
AcDbLayerTableRecord
  2
AM_11
 70
     0
 62
     3
  6
AM_ISO09W050
  0
LAYER
  5
BA6
330
2
100
AcDbSymbolTableRecord
100
AcDbLayerTableRecord
  2
AM_7
 70
     0
 62
     4
  6
AM_ISO08W050
  0
LAYER
  5
E64
330
2
100
AcDbSymbolTableRecord
100
AcDbLayerTableRecord
  2
AM_6
 70
     0
 62
     2
  6
CONTINUOUS
  0
LAYER
  5
F4D
330
2
100
AcDbSymbolTableRecord
100
AcDbLayerTableRecord
  2
DEFPOINTS
 70
     0
 62
     7
  6
CONTINUOUS
  0
LAYER
  5
2382
330
2
100
AcDbSymbolTableRecord
100
AcDbLayerTableRecord
  2
AM_3
 70
     0
 62
     6
  6
ACJISTGL
  0
LAYER
  5
3B47
330
2
100
AcDbSymbolTableRecord
100
AcDbLayerTableRecord
  2
PV0001_1
 70
     0
 62
     7
  6
CONTINUOUS
  0
ENDTAB
  0
TABLE
  2
STYLE
  5
3
330
0
100
AcDbSymbolTable
 70
     5
  0
STYLE
  5
11
330
3
100
AcDbSymbolTableRecord
100
AcDbTextStyleTableRecord
  2
STANDARD
 70
     0
 40
0.0
 41
1.0
 50
0.0
 71
     0
 42
2.5
  3
simplex.shx
  4
EXTFONT.SHX
  0
STYLE
  5
52
330
3
100
AcDbSymbolTableRecord
100
AcDbTextStyleTableRecord
  2

 70
     1
 40
0.0
 41
1.0
 50
0.0
 71
     0
 42
2.5
  3
ltypeshp.shx
  4

  0
STYLE
  5
6B
330
3
100
AcDbSymbolTableRecord
100
AcDbTextStyleTableRecord
  2
ASAMI
 70
     0
 40
0.0
 41
1.0
 50
0.0
 71
     0
 42
2.5
  3
simplex.shx
  4
EXTFONT.SHX
  0
STYLE
  5
262
330
3
100
AcDbSymbolTableRecord
100
AcDbTextStyleTableRecord
  2
ACJISTS
 70
     0
 40
1.0
 41
1.0
 50
0.0
 71
     0
 42
2.5
  3
simplex.shx
  4
bigfont.shx
  0
STYLE
  5
269
330
3
100
AcDbSymbolTableRecord
100
AcDbTextStyleTableRecord
  2
ACJISGDT
 70
     0
 40
0.0
 41
1.0
 50
0.0
 71
     0
 42
2.5
  3
amgdtans.shx
  4

  0
ENDTAB
  0
TABLE
  2
VIEW
  5
6
330
0
100
AcDbSymbolTable
 70
     0
  0
ENDTAB
  0
TABLE
  2
UCS
  5
7
330
0
100
AcDbSymbolTable
 70
     0
  0
ENDTAB
  0
TABLE
  2
APPID
  5
9
330
0
100
AcDbSymbolTable
 70
    24
  0
APPID
  5
12
330
9
100
AcDbSymbolTableRecord
100
AcDbRegAppTableRecord
  2
ACAD
 70
     0
  0
APPID
  5
30
330
9
100
AcDbSymbolTableRecord
100
AcDbRegAppTableRecord
  2
MCAD_NO_VIS
 70
     0
  0
APPID
  5
31
330
9
100
AcDbSymbolTableRecord
100
AcDbRegAppTableRecord
  2
ACAD_TEMP_GRAPHIC
 70
     0
  0
APPID
  5
2C2
330
9
100
AcDbSymbolTableRecord
100
AcDbRegAppTableRecord
  2
GENIUS_GENDTOL_13
 70
     0
  0
APPID
  5
339
330
9
100
AcDbSymbolTableRecord
100
AcDbRegAppTableRecord
  2
GENIUS_GENODEF_13
 70
     0
  0
APPID
  5
33A
330
9
100
AcDbSymbolTableRecord
100
AcDbRegAppTableRecord
  2
GENIUS_GENOBJ-N-RSBK_13
 70
     0
  0
APPID
  5
33B
330
9
100
AcDbSymbolTableRecord
100
AcDbRegAppTableRecord
  2
GENIUS_GENOBJ-N-LIB_13
 70
     0
  0
APPID
  5
33C
330
9
100
AcDbSymbolTableRecord
100
AcDbRegAppTableRecord
  2
GENIUS_GENSCALE_13
 70
     0
  0
APPID
  5
378
330
9
100
AcDbSymbolTableRecord
100
AcDbRegAppTableRecord
  2
GENIUS_GENDIMSH_14
 70
     0
  0
APPID
  5
BB0
330
9
100
AcDbSymbolTableRecord
100
AcDbRegAppTableRecord
  2
GENIUS_GENOBJ-N-CEN_13
 70
     0
  0
APPID
  5
BB1
330
9
100
AcDbSymbolTableRecord
100
AcDbRegAppTableRecord
  2
GENIUS_GENFIL_13
 70
     0
  0
APPID
  5
BB2
330
9
100
AcDbSymbolTableRecord
100
AcDbRegAppTableRecord
  2
GENIUS_GENOBJ-N-CHA_13
 70
     0
  0
APPID
  5
1FAF
330
9
100
AcDbSymbolTableRecord
100
AcDbRegAppTableRecord
  2
GENIUS_GENOBJ-N-CRS_13
 70
     0
  0
APPID
  5
1FB0
330
9
100
AcDbSymbolTableRecord
100
AcDbRegAppTableRecord
  2
GENIUS_GENOENT_13
 70
     0
  0
APPID
  5
1FB1
330
9
100
AcDbSymbolTableRecord
100
AcDbRegAppTableRecord
  2
GENIUS_GENOREF_13
 70
     0
  0
APPID
  5
1FB2
330
9
100
AcDbSymbolTableRecord
100
AcDbRegAppTableRecord
  2
GENIUS_GENOLIS_13
 70
     0
  0
APPID
  5
1FB7
330
9
100
AcDbSymbolTableRecord
100
AcDbRegAppTableRecord
  2
GENIUS_GENOBJ-N-FIL_13
 70
     0
  0
APPID
  5
22A8
330
9
100
AcDbSymbolTableRecord
100
AcDbRegAppTableRecord
  2
GEVID1056506048
 70
     0
  0
APPID
  5
22A9
330
9
100
AcDbSymbolTableRecord
100
AcDbRegAppTableRecord
  2
GEVDC
 70
     0
  0
APPID
  5
22AC
330
9
100
AcDbSymbolTableRecord
100
AcDbRegAppTableRecord
  2
GENIUS_GENBH_13
 70
     0
  0
APPID
  5
22B8
330
9
100
AcDbSymbolTableRecord
100
AcDbRegAppTableRecord
  2
GENIUS_GENOBJ-NBEHI-BHF_13
 70
     0
  0
APPID
  5
22BA
330
9
100
AcDbSymbolTableRecord
100
AcDbRegAppTableRecord
  2
GENIUS_GENOBJ-NBEHI-BHB_13
 70
     0
  0
APPID
  5
35C9
330
9
100
AcDbSymbolTableRecord
100
AcDbRegAppTableRecord
  2
GENIUS_GENREC_14
 70
     0
  0
APPID
  5
35CA
330
9
100
AcDbSymbolTableRecord
100
AcDbRegAppTableRecord
  2
GENIUS_GENOBJ-N-REC_13
 70
     0
  0
ENDTAB
  0
TABLE
  2
DIMSTYLE
  5
A
330
0
100
AcDbSymbolTable
 70
     9
  0
DIMSTYLE
105
58
330
A
100
AcDbSymbolTableRecord
100
AcDbDimStyleTableRecord
  2
AM_JIS
 70
     0
  3

  4
"
  5
OPEN30
  6

  7

 40
0.5
 41
2.5
 42
1.0
 43
12.0
 44
1.0
 45
0.0
 46
0.0
 47
0.1
 48
0.1
140
3.2
141
0.0
142
0.0
143
0.0393701
144
1.0
145
0.0
146
0.71
147
1.5
 71
     0
 72
     0
 73
     0
 74
     0
 75
     0
 76
     0
 77
     3
 78
     8
170
     0
171
     2
172
     1
173
     0
174
     0
175
     0
176
   256
177
   256
178
     2
270
     2
271
     3
272
     3
273
     2
274
     2
340
6B
275
     0
280
     0
281
     0
282
     0
283
     0
284
     0
285
     0
286
     0
287
     3
288
     0
  0
DIMSTYLE
105
5F
330
A
100
AcDbSymbolTableRecord
100
AcDbDimStyleTableRecord
  2
AM_JIS$3
 70
     0
  3

  4
"
  5
OPEN30
  6

  7

 40
0.5
 41
2.5
 42
1.0
 43
10.0
 44
1.0
 45
0.0
 46
0.0
 47
0.1
 48
0.1
140
3.2
141
0.0
142
0.0
143
0.0393701
144
1.0
145
0.0
146
0.71
147
1.5
 71
     0
 72
     0
 73
     0
 74
     1
 75
     0
 76
     0
 77
     3
 78
     8
170
     0
171
     2
172
     0
173
     0
174
     0
175
     0
176
   256
177
   256
178
     2
270
     2
271
     2
272
     3
273
     2
274
     2
340
6B
275
     0
280
     0
281
     0
282
     0
283
     0
284
     0
285
     0
286
     0
287
     0
288
     1
  0
DIMSTYLE
105
60
330
A
100
AcDbSymbolTableRecord
100
AcDbDimStyleTableRecord
  2
AM_JIS$4
 70
     0
  3

  4
"
  5
OPEN30
  6

  7

 40
0.5
 41
2.5
 42
1.0
 43
10.0
 44
1.0
 45
0.0
 46
0.0
 47
0.1
 48
0.1
140
3.2
141
0.0
142
0.0
143
0.0393701
144
1.0
145
0.0
146
0.71
147
1.5
 71
     0
 72
     0
 73
     0
 74
     1
 75
     0
 76
     0
 77
     3
 78
     8
170
     0
171
     2
172
     0
173
     0
174
     0
175
     0
176
   256
177
   256
178
     2
270
     2
271
     2
272
     3
273
     2
274
     2
340
6B
275
     0
280
     0
281
     0
282
     0
283
     0
284
     0
285
     0
286
     0
287
     0
288
     1
  0
DIMSTYLE
105
61
330
A
100
AcDbSymbolTableRecord
100
AcDbDimStyleTableRecord
  2
AM_JIS$6
 70
     0
  3

  4
"
  5
OPEN30
  6

  7

 40
0.5
 41
2.5
 42
1.0
 43
10.0
 44
1.0
 45
0.0
 46
0.0
 47
0.1
 48
0.1
140
3.2
141
0.0
142
0.0
143
0.0393701
144
1.0
145
0.0
146
0.71
147
1.5
 71
     0
 72
     0
 73
     0
 74
     0
 75
     0
 76
     0
 77
     0
 78
     8
170
     0
171
     2
172
     1
173
     0
174
     0
175
     0
176
   256
177
   256
178
     2
270
     2
271
     2
272
     2
273
     2
274
     2
340
6B
275
     0
280
     0
281
     0
282
     0
283
     0
284
     0
285
     0
286
     0
287
     3
288
     0
  0
DIMSTYLE
105
62
330
A
100
AcDbSymbolTableRecord
100
AcDbDimStyleTableRecord
  2
AM_JIS$7
 70
     0
  3

  4
"
  5
OPEN30
  6

  7

 40
0.5
 41
2.5
 42
1.0
 43
10.0
 44
1.0
 45
0.0
 46
0.0
 47
0.1
 48
0.1
140
3.2
141
0.0
142
0.0
143
0.0393701
144
1.0
145
0.0
146
0.71
147
1.5
 71
     0
 72
     0
 73
     0
 74
     0
 75
     0
 76
     0
 77
     3
 78
     8
170
     0
171
     2
172
     1
173
     0
174
     0
175
     0
176
   256
177
   256
178
     2
270
     2
271
     2
272
     3
273
     2
274
     2
340
6B
275
     0
280
     0
281
     0
282
     0
283
     0
284
     0
285
     0
286
     0
287
     3
288
     0
  0
DIMSTYLE
105
63
330
A
100
AcDbSymbolTableRecord
100
AcDbDimStyleTableRecord
  2
AM_JIS$SF
 70
     0
  3

  4
"
  5
OPEN30
  6

  7

 40
0.5
 41
2.5
 42
1.0
 43
10.0
 44
1.0
 45
0.0
 46
0.0
 47
0.1
 48
0.1
140
3.2
141
0.0
142
0.0
143
0.0393701
144
1.0
145
0.0
146
0.71
147
1.5
 71
     0
 72
     0
 73
     0
 74
     0
 75
     1
 76
     1
 77
     3
 78
     8
170
     0
171
     2
172
     1
173
     0
174
     0
175
     0
176
   256
177
   256
178
     2
270
     2
271
     2
272
     2
273
     2
274
     2
340
6B
275
     0
280
     0
281
     0
282
     0
283
     0
284
     0
285
     0
286
     0
287
     3
288
     0
  0
DIMSTYLE
105
68
330
A
100
AcDbSymbolTableRecord
100
AcDbDimStyleTableRecord
  2
AM_JIS$SH
 70
     0
  3

  4
"
  5

  6
GENAXEH
  7
OPEN30
 40
0.5
 41
2.5
 42
1.0
 43
10.0
 44
1.0
 45
0.0
 46
0.0
 47
0.1
 48
0.1
140
3.2
141
0.0
142
0.0
143
0.0393701
144
2.0
145
0.0
146
0.71
147
1.5
 71
     0
 72
     0
 73
     0
 74
     0
 75
     1
 76
     1
 77
     3
 78
     8
170
     0
171
     2
172
     1
173
     1
174
     0
175
     0
176
   256
177
   256
178
     2
270
     2
271
     2
272
     2
273
     2
274
     2
340
6B
275
     0
280
     0
281
     0
282
     0
283
     0
284
     0
285
     0
286
     0
287
     3
288
     0
  0
DIMSTYLE
105
B34
102
{ACAD_REACTORS
330
6465
330
654B
102
}
330
A
100
AcDbSymbolTableRecord
100
AcDbDimStyleTableRecord
  2
AM_JIS$2
 70
     0
  3

  4
"
  5
OPEN30
  6

  7

 40
0.5
 41
2.5
 42
1.0
 43
12.0
 44
1.0
 45
0.0
 46
0.0
 47
0.1
 48
0.1
140
3.2
141
0.0
142
0.0
143
0.0393701
144
1.0
145
0.0
146
0.71
147
1.5
 71
     0
 72
     0
 73
     0
 74
     0
 75
     0
 76
     0
 77
     3
 78
     8
170
     0
171
     2
172
     1
173
     0
174
     0
175
     0
176
   256
177
   256
178
     2
270
     2
271
     3
272
     3
273
     2
274
     2
340
6B
275
     0
280
     0
281
     0
282
     0
283
     0
284
     0
285
     0
286
     0
287
     3
288
     0
  0
DIMSTYLE
105
3B48
102
{ACAD_REACTORS
330
630D
330
6230
330
63CE
330
664B
330
6765
102
}
330
A
100
AcDbSymbolTableRecord
100
AcDbDimStyleTableRecord
  2
AM_JIS$0
 70
     0
  3

  4
"
  5
OPEN30
  6

  7

 40
1.0
 41
2.5
 42
0.0
 43
10.0
 44
1.0
 45
0.0
 46
0.0
 47
0.1
 48
0.1000000001
140
3.799999999999999
141
0.0
142
0.0
143
0.0393701
144
1.0
145
0.0
146
0.71
147
1.5
 71
     0
 72
     0
 73
     0
 74
     0
 75
     0
 76
     0
 77
     3
 78
     1
170
     0
171
     2
172
     1
173
     0
174
     0
175
     0
176
     3
177
     3
178
     2
270
     2
271
     2
272
     2
273
     2
274
     2
340
11
275
     1
280
     0
281
     0
282
     0
283
     0
284
     8
285
     0
286
     0
287
     0
288
     0
  0
ENDTAB
  0
TABLE
  2
BLOCK_RECORD
  5
1
330
0
100
AcDbSymbolTable
 70
    14
  0
BLOCK_RECORD
  5
1F
102
{ACAD_XDICTIONARY
360
74
102
}
330
1
100
AcDbSymbolTableRecord
100
AcDbBlockTableRecord
  2
*MODEL_SPACE
  0
BLOCK_RECORD
  5
101
102
{ACAD_XDICTIONARY
360
6906
102
}
330
1
100
AcDbSymbolTableRecord
100
AcDbBlockTableRecord
  2
*PAPER_SPACE
  0
BLOCK_RECORD
  5
59
330
1
100
AcDbSymbolTableRecord
100
AcDbBlockTableRecord
  2
_OPEN30
  0
BLOCK_RECORD
  5
64
330
1
100
AcDbSymbolTableRecord
100
AcDbBlockTableRecord
  2
GENAXEH
  0
BLOCK_RECORD
  5
4BC2
330
1
100
AcDbSymbolTableRecord
100
AcDbBlockTableRecord
  2
*U5
  0
BLOCK_RECORD
  5
4BC6
330
1
100
AcDbSymbolTableRecord
100
AcDbBlockTableRecord
  2
*U6
  0
BLOCK_RECORD
  5
6231
330
1
100
AcDbSymbolTableRecord
100
AcDbBlockTableRecord
  2
*D7
  0
BLOCK_RECORD
  5
630E
330
1
100
AcDbSymbolTableRecord
100
AcDbBlockTableRecord
  2
*D8
  0
BLOCK_RECORD
  5
63CF
330
1
100
AcDbSymbolTableRecord
100
AcDbBlockTableRecord
  2
*D9
  0
BLOCK_RECORD
  5
6466
330
1
100
AcDbSymbolTableRecord
100
AcDbBlockTableRecord
  2
*D10
  0
BLOCK_RECORD
  5
654C
330
1
100
AcDbSymbolTableRecord
100
AcDbBlockTableRecord
  2
*D11
  0
BLOCK_RECORD
  5
664C
330
1
100
AcDbSymbolTableRecord
100
AcDbBlockTableRecord
  2
*D12
  0
BLOCK_RECORD
  5
6766
330
1
100
AcDbSymbolTableRecord
100
AcDbBlockTableRecord
  2
*D13
  0
ENDTAB
  0
ENDSEC
  0
SECTION
  2
BLOCKS
  0
BLOCK
  5
20
330
1F
100
AcDbEntity
  8
0
100
AcDbBlockBegin
  2
*MODEL_SPACE
 70
     0
 10
0.0
 20
0.0
 30
0.0
  3
*MODEL_SPACE
  1

  0
ENDBLK
  5
21
330
1F
100
AcDbEntity
  8
0
100
AcDbBlockEnd
  0
BLOCK
  5
103
330
101
100
AcDbEntity
 67
     1
  8
0
100
AcDbBlockBegin
  2
*PAPER_SPACE
 70
     0
 10
0.0
 20
0.0
 30
0.0
  3
*PAPER_SPACE
  1

  0
ENDBLK
  5
104
330
101
100
AcDbEntity
 67
     1
  8
0
100
AcDbBlockEnd
  0
BLOCK
  5
5D
330
59
100
AcDbEntity
  8
0
100
AcDbBlockBegin
  2
_OPEN30
 70
     0
 10
0.0
 20
0.0
 30
0.0
  3
_OPEN30
  1

  0
LINE
  5
5A
330
59
100
AcDbEntity
  8
0
 62
     0
100
AcDbLine
 10
-1.0
 20
0.26794919
 30
0.0
 11
0.0
 21
0.0
 31
0.0
  0
LINE
  5
5B
330
59
100
AcDbEntity
  8
0
 62
     0
100
AcDbLine
 10
0.0
 20
0.0
 30
0.0
 11
-1.0
 21
-0.26794919
 31
0.0
  0
LINE
  5
5C
330
59
100
AcDbEntity
  8
0
 62
     0
100
AcDbLine
 10
0.0
 20
0.0
 30
0.0
 11
-1.0
 21
0.0
 31
0.0
  0
ENDBLK
  5
5E
330
59
100
AcDbEntity
  8
0
100
AcDbBlockEnd
  0
BLOCK
  5
66
330
64
100
AcDbEntity
  8
0
100
AcDbBlockBegin
  2
GENAXEH
 70
     0
 10
0.0
 20
0.0
 30
0.0
  3
GENAXEH
  1

  0
LINE
  5
65
330
64
100
AcDbEntity
  8
0
100
AcDbLine
 10
-1.0
 20
0.0
 30
0.0
 11
1.0
 21
0.0
 31
0.0
  0
ENDBLK
  5
67
330
64
100
AcDbEntity
  8
0
100
AcDbBlockEnd
  0
BLOCK
  5
4BC4
330
4BC2
100
AcDbEntity
  8
0
100
AcDbBlockBegin
  2
*U5
 70
     1
 10
0.0
 20
0.0
 30
0.0
  3
*U5
  1

  0
LEADER
  5
4BC3
330
4BC2
100
AcDbEntity
  8
0
  6
CONTINUOUS
 48
0.5
100
AcDbLeader
  3
AM_JIS$7
 76
     2
 10
-35.56723785400299
 20
61.482246398925
 30
0.0
 10
-35.56723785400299
 20
51.482246398925
 30
0.0
1001
ACAD
1000
DSTYLE
1002
{
1070
     6
1000
OPEN30
1070
   173
1070
     1
1070
   176
1070
     0
1070
   341
1005
59
1002
}
  0
ENDBLK
  5
4BC5
330
4BC2
100
AcDbEntity
  8
0
100
AcDbBlockEnd
  0
BLOCK
  5
4BC8
330
4BC6
100
AcDbEntity
  8
0
100
AcDbBlockBegin
  2
*U6
 70
     1
 10
0.0
 20
0.0
 30
0.0
  3
*U6
  1

  0
LEADER
  5
4BC7
330
4BC6
100
AcDbEntity
  8
0
  6
CONTINUOUS
 48
0.5
100
AcDbLeader
  3
AM_JIS$7
 76
     2
 10
-25.567237854003
 20
51.482246398925
 30
0.0
 10
-35.56723785400299
 20
51.482246398925
 30
0.0
1001
ACAD
1000
DSTYLE
1002
{
1070
     6
1000
OPEN30
1070
   173
1070
     1
1070
   176
1070
     0
1070
   341
1005
59
1002
}
  0
ENDBLK
  5
4BC9
330
4BC6
100
AcDbEntity
  8
0
100
AcDbBlockEnd
  0
BLOCK
  5
623B
330
6231
100
AcDbEntity
  8
0
100
AcDbBlockBegin
  2
*D7
 70
     1
 10
0.0
 20
0.0
 30
0.0
  3
*D7
  1

  0
LINE
  5
6908
330
6231
100
AcDbEntity
  8
AM_5
100
AcDbLine
 10
-100.4999908506857
 20
26.02463237275784
 30
0.0
 11
-107.4999908506858
 21
26.02463237275783
 31
0.0
  0
LINE
  5
6909
330
6231
100
AcDbEntity
  8
AM_5
100
AcDbLine
 10
-100.4999908506858
 20
18.02463237275784
 30
0.0
 11
-107.4999908506858
 21
18.02463237275782
 31
0.0
  0
LINE
  5
690A
330
6231
100
AcDbEntity
  8
AM_5
100
AcDbLine
 10
-106.9999908506858
 20
24.77463237275783
 30
0.0
 11
-106.9999908506858
 21
19.27463237275782
 31
0.0
  0
INSERT
  5
690B
330
6231
100
AcDbEntity
  8
AM_5
100
AcDbBlockReference
  2
_OPEN30
 10
-106.9999908506858
 20
26.02463237275783
 30
0.0
 41
1.25
 42
1.25
 43
1.25
 50
90.0000000000001
  0
INSERT
  5
690C
330
6231
100
AcDbEntity
  8
AM_5
100
AcDbBlockReference
  2
_OPEN30
 10
-106.9999908506858
 20
18.02463237275782
 30
0.0
 41
1.25
 42
1.25
 43
1.25
 50
270.0000000000001
  0
MTEXT
  5
690D
330
6231
100
AcDbEntity
  8
AM_5
 62
     2
100
AcDbMText
 10
-108.5499908506857
 20
22.02463237275782
 30
0.0
 40
1.6
 41
0.0
 71
     5
 72
     1
  1
8
  7
ASAMI
 11
-0.000000000000002
 21
1.0
 31
0.0
  0
POINT
  5
690E
330
6231
100
AcDbEntity
  8
DEFPOINTS
 62
     0
100
AcDbPoint
 10
-99.99999085068569
 20
26.02463237275806
 30
0.0
  0
POINT
  5
690F
330
6231
100
AcDbEntity
  8
DEFPOINTS
 62
     0
100
AcDbPoint
 10
-99.99999085068578
 20
18.02463237275806
 30
0.0
  0
POINT
  5
6910
330
6231
100
AcDbEntity
  8
DEFPOINTS
 62
     0
100
AcDbPoint
 10
-106.9999908506857
 20
18.02463237275806
 30
0.0
  0
ENDBLK
  5
623C
330
6231
100
AcDbEntity
  8
0
100
AcDbBlockEnd
  0
BLOCK
  5
6318
330
630E
100
AcDbEntity
  8
0
100
AcDbBlockBegin
  2
*D8
 70
     1
 10
0.0
 20
0.0
 30
0.0
  3
*D8
  1

  0
LINE
  5
6911
330
630E
100
AcDbEntity
  8
AM_5
100
AcDbLine
 10
-100.4999908506857
 20
-0.5000003874303573
 30
0.0
 11
-107.4999908506857
 21
-0.5000003874303708
 31
0.0
  0
LINE
  5
6912
330
630E
100
AcDbEntity
  8
AM_5
100
AcDbLine
 10
-100.4999908506857
 20
-8.500000387430356
 30
0.0
 11
-107.4999908506857
 21
-8.50000038743037
 31
0.0
  0
LINE
  5
6913
330
630E
100
AcDbEntity
  8
AM_5
100
AcDbLine
 10
-106.9999908506857
 20
-1.750000387430369
 30
0.0
 11
-106.9999908506857
 21
-7.250000387430369
 31
0.0
  0
INSERT
  5
6914
330
630E
100
AcDbEntity
  8
AM_5
100
AcDbBlockReference
  2
_OPEN30
 10
-106.9999908506857
 20
-0.5000003874303698
 30
0.0
 41
1.25
 42
1.25
 43
1.25
 50
90.0000000000001
  0
INSERT
  5
6915
330
630E
100
AcDbEntity
  8
AM_5
100
AcDbBlockReference
  2
_OPEN30
 10
-106.9999908506857
 20
-8.500000387430368
 30
0.0
 41
1.25
 42
1.25
 43
1.25
 50
270.0000000000001
  0
MTEXT
  5
6916
330
630E
100
AcDbEntity
  8
AM_5
 62
     2
100
AcDbMText
 10
-108.5499908506857
 20
-4.500000387430368
 30
0.0
 40
1.6
 41
0.0
 71
     5
 72
     1
  1
8
  7
ASAMI
 11
-0.000000000000002
 21
1.0
 31
0.0
  0
POINT
  5
6917
330
630E
100
AcDbEntity
  8
DEFPOINTS
 62
     0
100
AcDbPoint
 10
-99.99999085068575
 20
-0.5000003874301342
 30
0.0
  0
POINT
  5
6918
330
630E
100
AcDbEntity
  8
DEFPOINTS
 62
     0
100
AcDbPoint
 10
-99.9999908506858
 20
-8.500000387430134
 30
0.0
  0
POINT
  5
6919
330
630E
100
AcDbEntity
  8
DEFPOINTS
 62
     0
100
AcDbPoint
 10
-106.9999908506857
 20
-8.500000387430132
 30
0.0
  0
ENDBLK
  5
6319
330
630E
100
AcDbEntity
  8
0
100
AcDbBlockEnd
  0
BLOCK
  5
63D9
330
63CF
100
AcDbEntity
  8
0
100
AcDbBlockBegin
  2
*D9
 70
     1
 10
0.0
 20
0.0
 30
0.0
  3
*D9
  1

  0
LINE
  5
691A
330
63CF
100
AcDbEntity
  8
AM_5
100
AcDbLine
 10
-0.0000000000002683
 20
0.5000000000001635
 30
0.0
 11
-0.0000000000002706
 21
12.64348777951847
 31
0.0
  0
LINE
  5
691B
330
63CF
100
AcDbEntity
  8
AM_5
100
AcDbLine
 10
-99.99999085068576
 20
-0.0000003874303363
 30
0.0
 11
-99.99999085068576
 21
12.64348777951844
 31
0.0
  0
LINE
  5
691C
330
63CF
100
AcDbEntity
  8
AM_5
100
AcDbLine
 10
-1.25000000000027
 20
12.14348777951847
 30
0.0
 11
-98.74999085068576
 21
12.14348777951844
 31
0.0
  0
INSERT
  5
691D
330
63CF
100
AcDbEntity
  8
AM_5
100
AcDbBlockReference
  2
_OPEN30
 10
-0.0000000000002705
 20
12.14348777951847
 30
0.0
 41
1.25
 42
1.25
 43
1.25
  0
INSERT
  5
691E
330
63CF
100
AcDbEntity
  8
AM_5
100
AcDbBlockReference
  2
_OPEN30
 10
-99.99999085068576
 20
12.14348777951844
 30
0.0
 41
1.25
 42
1.25
 43
1.25
 50
180.0
  0
MTEXT
  5
691F
330
63CF
100
AcDbEntity
  8
AM_5
 62
     2
100
AcDbMText
 10
-49.99999542534302
 20
13.69348777951846
 30
0.0
 40
1.6
 41
0.0
 71
     5
 72
     1
  1
100
  7
ASAMI
  0
POINT
  5
6920
330
63CF
100
AcDbEntity
  8
DEFPOINTS
 62
     0
100
AcDbPoint
 10
-0.0000000000002682
 20
0.0000000000001634
 30
0.0
  0
POINT
  5
6921
330
63CF
100
AcDbEntity
  8
DEFPOINTS
 62
     0
100
AcDbPoint
 10
-99.99999085068576
 20
-0.5000003874301342
 30
0.0
  0
POINT
  5
6922
330
63CF
100
AcDbEntity
  8
DEFPOINTS
 62
     0
100
AcDbPoint
 10
-99.99999085068573
 20
12.14348777951865
 30
0.0
  0
ENDBLK
  5
63DA
330
63CF
100
AcDbEntity
  8
0
100
AcDbBlockEnd
  0
BLOCK
  5
6475
330
6466
100
AcDbEntity
  8
0
100
AcDbBlockBegin
  2
*D10
 70
     1
 10
0.0
 20
0.0
 30
0.0
  3
*D10
  1

  0
LINE
  5
6923
330
6466
100
AcDbEntity
  8
AM_5
100
AcDbLine
 10
-0.0000000000002707
 20
0.507042472069752
 30
0.0
 11
-0.0000000000003171
 21
9.963071814640777
 31
0.0
  0
LINE
  5
6924
330
6466
100
AcDbEntity
  8
AM_5
100
AcDbLine
 10
-7.889364771151412
 20
-0.1306672238108546
 30
0.0
 11
-9.954512983999418
 21
-0.1667146041246088
 31
0.0
  0
ARC
  5
6925
330
6466
100
AcDbEntity
  8
AM_5
100
AcDbCircle
 10
-0.0000000000002683
 20
0.007042472069752
 30
0.0
 40
9.456029342571028
100
AcDbArc
 50
97.57949990553127
 51
173.4205024290411
  0
INSERT
  5
6926
330
6466
100
AcDbEntity
  8
AM_5
100
AcDbBlockReference
  2
_OPEN30
 10
-0.0000000000003153
 20
9.463071814640779
 30
0.0
 41
1.25
 42
1.25
 43
1.25
 50
3.789749952765757
  0
INSERT
  5
6927
330
6466
100
AcDbEntity
  8
AM_5
100
AcDbBlockReference
  2
_OPEN30
 10
-9.45458913677678
 20
-0.1579883805360867
 30
0.0
 41
1.25
 42
1.25
 43
1.25
 50
267.2102523818066
  0
MTEXT
  5
6928
330
6466
100
AcDbEntity
  8
AM_5
 62
     2
100
AcDbMText
 10
-7.85005552915503
 20
7.721270241504696
 30
0.0
 40
1.6
 41
0.0
 71
     5
 72
     1
  1
90%%d
  7
ASAMI
 11
0.7009092497688084
 21
0.7132504634337971
 31
0.0
  0
POINT
  5
6929
330
6466
100
AcDbEntity
  8
DEFPOINTS
 62
     0
100
AcDbPoint
 10
-4.775577111654187
 20
8.168559131258257
 30
0.0
  0
POINT
  5
692A
330
6466
100
AcDbEntity
  8
DEFPOINTS
 62
     0
100
AcDbPoint
 10
-0.4069809019567754
 20
-0.0000614225863274
 30
0.0
  0
POINT
  5
692B
330
6466
100
AcDbEntity
  8
DEFPOINTS
 62
     0
100
AcDbPoint
 10
-0.0000000000002669
 20
-0.4000000059603366
 30
0.0
  0
POINT
  5
692C
330
6466
100
AcDbEntity
  8
DEFPOINTS
 62
     0
100
AcDbPoint
 10
-0.0000000000002682
 20
0.0000000000001634
 30
0.0
  0
POINT
  5
692D
330
6466
100
AcDbEntity
  8
DEFPOINTS
 62
     0
100
AcDbPoint
 10
-7.389440923928775
 20
-0.1219410002223209
 30
0.0
  0
ENDBLK
  5
6476
330
6466
100
AcDbEntity
  8
0
100
AcDbBlockEnd
  0
BLOCK
  5
655B
330
654C
100
AcDbEntity
  8
0
100
AcDbBlockBegin
  2
*D11
 70
     1
 10
0.0
 20
0.0
 30
0.0
  3
*D11
  1

  0
LINE
  5
692E
330
654C
100
AcDbEntity
  8
AM_5
100
AcDbLine
 10
-4.253117182229471
 20
-6.827803432206369
 30
0.0
 11
-7.938748508579731
 21
-12.29197475738758
 31
0.0
  0
LINE
  5
692F
330
654C
100
AcDbEntity
  8
AM_5
100
AcDbLine
 10
-0.0000000000002628
 20
-1.022300007699229
 30
0.0
 11
-0.0000000000001901
 21
-14.71909442038001
 31
0.0
  0
ARC
  5
6930
330
654C
100
AcDbEntity
  8
AM_5
100
AcDbCircle
 10
-0.0000000000002655
 20
-0.52230000769923
 30
0.0
 40
13.69679441268078
100
AcDbArc
 50
241.2307480530164
 51
264.7692430823218
  0
INSERT
  5
6931
330
654C
100
AcDbEntity
  8
AM_5
100
AcDbBlockReference
  2
_OPEN30
 10
-7.659151992711035
 20
-11.87745601436854
 30
0.0
 41
1.25
 42
1.25
 43
1.25
 50
148.6153695941771
  0
INSERT
  5
6932
330
654C
100
AcDbEntity
  8
AM_5
100
AcDbBlockReference
  2
_OPEN30
 10
-0.0000000000001932
 20
-14.21909442038001
 30
0.0
 41
1.25
 42
1.25
 43
1.25
 50
357.384621541161
  0
MTEXT
  5
6933
330
654C
100
AcDbEntity
  8
AM_5
 62
     2
100
AcDbMText
 10
-3.551379887954675
 20
-12.13833699952075
 30
0.0
 40
1.6
 41
0.0
 71
     5
 72
     1
  1
35%%d
  7
ASAMI
 11
0.9563047333455179
 21
-0.292371778701293
 31
0.0
  0
POINT
  5
6934
330
654C
100
AcDbEntity
  8
DEFPOINTS
 62
     0
100
AcDbPoint
 10
-5.278324914957407
 20
-13.16118695534561
 30
0.0
  0
POINT
  5
6935
330
654C
100
AcDbEntity
  8
DEFPOINTS
 62
     0
100
AcDbPoint
 10
-0.0683807432647723
 20
-0.6236785948273394
 30
0.0
  0
POINT
  5
6936
330
654C
100
AcDbEntity
  8
DEFPOINTS
 62
     0
100
AcDbPoint
 10
-0.0000000000002669
 20
-0.4000000059603366
 30
0.0
  0
POINT
  5
6937
330
654C
100
AcDbEntity
  8
DEFPOINTS
 62
     0
100
AcDbPoint
 10
-0.0000000000002682
 20
0.0000000000001634
 30
0.0
  0
POINT
  5
6938
330
654C
100
AcDbEntity
  8
DEFPOINTS
 62
     0
100
AcDbPoint
 10
-3.973520666360787
 20
-6.41328468918732
 30
0.0
  0
ENDBLK
  5
655C
330
654C
100
AcDbEntity
  8
0
100
AcDbBlockEnd
  0
BLOCK
  5
6656
330
664C
100
AcDbEntity
  8
0
100
AcDbBlockBegin
  2
*D12
 70
     1
 10
0.0
 20
0.0
 30
0.0
  3
*D12
  1

  0
LINE
  5
6939
330
664C
100
AcDbEntity
  8
AM_5
100
AcDbLine
 10
-5.560129553079774
 20
-8.500000387430331
 30
0.0
 11
7.499999999999734
 21
-8.500000387430306
 31
0.0
  0
LINE
  5
693A
330
664C
100
AcDbEntity
  8
AM_5
100
AcDbLine
 10
0.4999999999997318
 20
0.0000000000001644
 30
0.0
 11
7.499999999999717
 21
0.000000000000178
 31
0.0
  0
LINE
  5
693B
330
664C
100
AcDbEntity
  8
AM_5
100
AcDbLine
 10
6.999999999999731
 20
-7.250000387430306
 30
0.0
 11
6.99999999999972
 21
-1.249999999999823
 31
0.0
  0
INSERT
  5
693C
330
664C
100
AcDbEntity
  8
AM_5
100
AcDbBlockReference
  2
_OPEN30
 10
6.999999999999734
 20
-8.500000387430306
 30
0.0
 41
1.25
 42
1.25
 43
1.25
 50
270.0000000000001
  0
INSERT
  5
693D
330
664C
100
AcDbEntity
  8
AM_5
100
AcDbBlockReference
  2
_OPEN30
 10
6.999999999999717
 20
0.000000000000177
 30
0.0
 41
1.25
 42
1.25
 43
1.25
 50
90.0000000000001
  0
MTEXT
  5
693E
330
664C
100
AcDbEntity
  8
AM_5
 62
     2
100
AcDbMText
 10
5.449999999999726
 20
-4.250000193715067
 30
0.0
 40
1.6
 41
0.0
 71
     5
 72
     1
  1
8.5
  7
ASAMI
 11
-0.000000000000002
 21
1.0
 31
0.0
  0
POINT
  5
693F
330
664C
100
AcDbEntity
  8
DEFPOINTS
 62
     0
100
AcDbPoint
 10
-6.060129553079793
 20
-8.500000387430318
 30
0.0
  0
POINT
  5
6940
330
664C
100
AcDbEntity
  8
DEFPOINTS
 62
     0
100
AcDbPoint
 10
-0.0000000000002682
 20
0.0000000000001634
 30
0.0
  0
POINT
  5
6941
330
664C
100
AcDbEntity
  8
DEFPOINTS
 62
     0
100
AcDbPoint
 10
6.999999999999717
 20
0.0000000000001614
 30
0.0
  0
ENDBLK
  5
6657
330
664C
100
AcDbEntity
  8
0
100
AcDbBlockEnd
  0
BLOCK
  5
6770
330
6766
100
AcDbEntity
  8
0
100
AcDbBlockBegin
  2
*D13
 70
     1
 10
0.0
 20
0.0
 30
0.0
  3
*D13
  1

  0
LINE
  5
6942
330
6766
100
AcDbEntity
  8
AM_5
100
AcDbLine
 10
-0.390875250100796
 20
26.02463237275788
 30
0.0
 11
7.500001519918198
 21
26.02463237275789
 31
0.0
  0
LINE
  5
6943
330
6766
100
AcDbEntity
  8
AM_5
100
AcDbLine
 10
0.5000015199182131
 20
18.02463237275786
 30
0.0
 11
7.500001519918214
 21
18.02463237275787
 31
0.0
  0
LINE
  5
6944
330
6766
100
AcDbEntity
  8
AM_5
100
AcDbLine
 10
7.000001519918201
 20
24.77463237275789
 30
0.0
 11
7.000001519918212
 21
19.27463237275787
 31
0.0
  0
INSERT
  5
6945
330
6766
100
AcDbEntity
  8
AM_5
100
AcDbBlockReference
  2
_OPEN30
 10
7.000001519918198
 20
26.02463237275789
 30
0.0
 41
1.25
 42
1.25
 43
1.25
 50
90.0000000000001
  0
INSERT
  5
6946
330
6766
100
AcDbEntity
  8
AM_5
100
AcDbBlockReference
  2
_OPEN30
 10
7.000001519918214
 20
18.02463237275787
 30
0.0
 41
1.25
 42
1.25
 43
1.25
 50
270.0000000000001
  0
MTEXT
  5
6947
330
6766
100
AcDbEntity
  8
AM_5
 62
     2
100
AcDbMText
 10
5.450001519918208
 20
22.02463237275788
 30
0.0
 40
1.6
 41
0.0
 71
     5
 72
     1
  1
8
  7
ASAMI
 11
-0.000000000000002
 21
1.0
 31
0.0
  0
POINT
  5
6948
330
6766
100
AcDbEntity
  8
DEFPOINTS
 62
     0
100
AcDbPoint
 10
-0.8908752501007381
 20
26.02463237275788
 30
0.0
  0
POINT
  5
6949
330
6766
100
AcDbEntity
  8
DEFPOINTS
 62
     0
100
AcDbPoint
 10
0.000001519918253
 20
18.02463237275786
 30
0.0
  0
POINT
  5
694A
330
6766
100
AcDbEntity
  8
DEFPOINTS
 62
     0
100
AcDbPoint
 10
7.000001519918255
 20
18.02463237275786
 30
0.0
  0
ENDBLK
  5
6771
330
6766
100
AcDbEntity
  8
0
100
AcDbBlockEnd
  0
ENDSEC
  0
SECTION
  2
ENTITIES
  0
TEXT
  5
388D
330
1F
100
AcDbEntity
  8
AM_6
100
AcDbText
 10
-67.14481667748675
 20
-29.87266605662099
 30
0.0
 40
2.5
  1
SDAPR0808-H07
 50
359.9999999999998
 51
359.9999999999998
 72
     4
 11
-51.25195953462959
 21
-28.62266605662102
 31
0.0
100
AcDbText
  0
MTEXT
  5
4BD2
330
1F
100
AcDbEntity
  8
AM_6
100
AcDbMText
 10
23.71886566472886
 20
0.9166666540415327
 30
0.0
 40
2.5
 41
0.0
 71
     4
 72
     5
  1
\T1.40;\W0.59;０°
1001
ACAD
1000
MTEXTBEGIN
1070
    73
1070
     1
1070
    44
1040
1.0
1070
    74
1070
     0
1000
MTEXTEND
  0
INSERT
  5
4BD3
330
1F
100
AcDbEntity
  8
AM_5
100
AcDbBlockReference
  2
*U6
 10
-11.30983601068374
 20
65.752238587344
 30
0.0
 50
180.0000000000002
  0
INSERT
  5
4BD4
330
1F
100
AcDbEntity
  8
AM_5
100
AcDbBlockReference
  2
*U5
 10
-11.30983601068374
 20
65.752238587344
 30
0.0
 50
180.0000000000002
  0
MTEXT
  5
4BD5
330
1F
100
AcDbEntity
  8
AM_6
100
AcDbMText
 10
10.21076465616189
 20
14.25087844127427
 30
0.0
 40
2.5
 41
0.0
 71
     4
 72
     5
  1
\T1.40;\W0.59;０°
1001
ACAD
1000
MTEXTBEGIN
1070
    73
1070
     1
1070
    44
1040
1.0
1070
    74
1070
     0
1000
MTEXTEND
  0
LINE
  5
617B
330
1F
100
AcDbEntity
  8
AM_0
100
AcDbLine
 10
-0.8908752501007381
 20
26.02463237275786
 30
0.0
 11
-99.99999085068571
 21
26.02463237275806
 31
0.0
  0
LINE
  5
617C
330
1F
100
AcDbEntity
  8
AM_0
100
AcDbLine
 10
-6.060129553079793
 20
-8.500000387430318
 30
0.0
 11
-99.9999908506858
 21
-8.500000387430134
 31
0.0
  0
LINE
  5
617D
330
1F
100
AcDbEntity
  8
AM_0
100
AcDbLine
 10
-7.64444580674176
 20
-0.500000387430319
 30
0.0
 11
-99.99999085068576
 21
-0.5000003874301342
 31
0.0
  0
LINE
  5
617E
330
1F
100
AcDbEntity
  8
AM_0
100
AcDbLine
 10
-19.99999466538374
 20
18.02463237275789
 30
0.0
 11
-99.99999085068576
 21
18.02463237275806
 31
0.0
  0
LINE
  5
6181
330
1F
100
AcDbEntity
  8
AM_0
100
AcDbLine
 10
-7.546591192483749
 20
18.32463160981787
 30
0.0
 11
-19.69999542832374
 21
18.3246316098179
 31
0.0
  0
LINE
  5
6183
330
1F
100
AcDbEntity
  8
AM_0
100
AcDbLine
 10
-0.7005523741247442
 20
20.40463344087285
 30
0.0
 11
-7.38368073105774
 21
20.40463344087287
 31
0.0
  0
LINE
  5
6184
330
1F
100
AcDbEntity
  8
AM_0
100
AcDbLine
 10
0.000001519918253
 20
18.02463237275786
 30
0.0
 11
-11.72426071762975
 21
18.02463237275787
 31
0.0
  0
LINE
  5
6185
330
1F
100
AcDbEntity
  8
AM_7
100
AcDbLine
 10
-5.862127691506746
 20
16.70556727876386
 30
0.0
 11
-5.862127691506717
 21
26.24012080659587
 31
0.0
  0
LINE
  5
6186
330
1F
100
AcDbEntity
  8
AM_0
100
AcDbLine
 10
-0.8908752501007381
 20
20.40463344087285
 30
0.0
 11
-0.8908752501007381
 21
26.02463237275786
 31
0.0
  0
LINE
  5
6187
330
1F
100
AcDbEntity
  8
AM_0
100
AcDbLine
 10
-0.1996902525427413
 20
19.05198756684986
 30
0.0
 11
0.000001519918253
 21
18.02463237275786
 31
0.0
  0
LINE
  5
6188
330
1F
100
AcDbEntity
  8
AM_0
100
AcDbLine
 10
-0.1996978819367325
 20
19.05198756684986
 30
0.0
 11
-0.7005523741247442
 21
20.40462962617586
 31
0.0
  0
LINE
  5
6189
330
1F
100
AcDbEntity
  8
AM_0
100
AcDbLine
 10
-7.570085912942733
 20
18.02463237275786
 30
0.0
 11
-7.38368073105774
 21
20.40463344087287
 31
0.0
  0
LINE
  5
618A
330
1F
100
AcDbEntity
  8
AM_0
100
AcDbLine
 10
-11.72426071762975
 20
18.02463237275787
 30
0.0
 11
-11.66594544053073
 21
18.32463160981787
 31
0.0
  0
LINE
  5
618B
330
1F
100
AcDbEntity
  8
AM_0
100
AcDbLine
 10
-19.99999466538374
 20
18.02463237275789
 30
0.0
 11
-19.69999542832374
 21
18.3246316098179
 31
0.0
  0
LINE
  5
6193
330
1F
100
AcDbEntity
  8
AM_0
100
AcDbLine
 10
-3.973520666360787
 20
-6.413280874490325
 30
0.0
 11
-10.95598068833378
 21
-6.535160452127314
 31
0.0
  0
LINE
  5
6194
330
1F
100
AcDbEntity
  8
AM_0
100
AcDbLine
 10
-0.4069809019567754
 20
-0.0000614225863274
 30
0.0
 11
-7.389440923928777
 21
-0.1219410002223213
 31
0.0
  0
LINE
  5
6195
330
1F
100
AcDbEntity
  8
AM_7
100
AcDbLine
 10
-1.681475073098785
 20
-3.267610937356337
 30
0.0
 11
-9.68148270249377
 21
-3.267610937356309
 31
0.0
  0
LINE
  5
6196
330
1F
100
AcDbEntity
  8
AM_0
100
AcDbLine
 10
-4.660715490579793
 20
-6.425276190042325
 30
0.0
 11
-6.060133367776774
 21
-8.500000387430318
 31
0.0
  0
LINE
  5
6197
330
1F
100
AcDbEntity
  8
AM_7
100
AcDbLine
 10
-5.681475073098784
 20
-7.267610937356337
 30
0.0
 11
-5.681475073098756
 21
0.0912834107876677
 31
0.0
  0
LINE
  5
6198
330
1F
100
AcDbEntity
  8
AM_0
100
AcDbLine
 10
-0.0683807432647723
 20
-0.6236785948273394
 30
0.0
 11
-3.973520666360787
 21
-6.413284689187321
 31
0.0
  0
ARC
  5
6199
330
1F
100
AcDbEntity
  8
AM_0
100
AcDbCircle
 10
-0.4000000059607669
 20
-0.4000000059603366
 30
0.0
 40
0.4000000059605
100
AcDbArc
 50
326.0000063395473
 51
90.99999501924704
  0
ARC
  5
61A6
330
1F
100
AcDbEntity
  8
AM_0
100
AcDbCircle
 10
-10.96296158432979
 20
-6.135221868753305
 30
0.0
 40
0.4000000059605
100
AcDbArc
 50
145.9999979154975
 51
270.9999968404791
  0
ARC
  5
61A7
330
1F
100
AcDbEntity
  8
AM_0
100
AcDbCircle
 10
-10.40603104233676
 20
-5.832832723855304
 30
0.0
 40
2.0
100
AcDbArc
 50
76.26187794236455
 51
340.7381338890898
  0
LINE
  5
61A9
330
1F
100
AcDbEntity
  8
AM_0
100
AcDbLine
 10
-7.389440923928777
 20
-0.1219390928743138
 30
0.0
 11
-11.29457703232778
 21
-5.911543279886302
 31
0.0
  0
LINE
  5
61AA
330
1F
100
AcDbEntity
  8
AM_0
100
AcDbLine
 10
-19.69999542832379
 20
-8.500000387430304
 30
0.0
 11
-19.69999542832376
 21
-0.5000003874303048
 31
0.0
  0
LINE
  5
61AB
330
1F
100
AcDbEntity
  8
AM_0
100
AcDbLine
 10
-19.99999466538377
 20
-8.500000387430304
 30
0.0
 11
-19.99999466538377
 21
-0.5000003874303048
 31
0.0
  0
LINE
  5
61AE
330
1F
100
AcDbEntity
  8
AM_0
100
AcDbLine
 10
-99.99999085068576
 20
18.02463237275806
 30
0.0
 11
-99.99999085068571
 21
26.02463237275806
 31
0.0
  0
LINE
  5
61B0
330
1F
100
AcDbEntity
  8
AM_0
100
AcDbLine
 10
-99.9999908506858
 20
-8.500000387430134
 30
0.0
 11
-99.99999085068576
 21
-0.5000003874301342
 31
0.0
  0
DIMENSION
  5
6230
330
1F
100
AcDbEntity
  8
AM_5
100
AcDbDimension
  2
*D7
 10
-106.9999908506857
 20
18.02463237275806
 30
0.0
 11
-108.5499908506857
 21
22.02463237275805
 31
0.0
 70
    32
  1
<>
 51
359.9999999999998
  3
AM_JIS$0
100
AcDbAlignedDimension
 13
-99.99999085068569
 23
26.02463237275806
 33
0.0
 14
-99.99999085068578
 24
18.02463237275806
 34
0.0
 50
269.9999999999998
100
AcDbRotatedDimension
1001
GENIUS_GENDTOL_13
1000

1000
h7
1000

1040
0.0
1001
ACAD
1000
DSTYLE
1002
{
1070
   287
1070
     3
1070
    40
1040
0.5
1070
    42
1040
1.0
1070
    43
1040
12.0
1070
    48
1040
0.1
1070
    78
1070
     8
1070
   140
1040
3.2
1070
   176
1070
   256
1070
   177
1070
   256
1070
   271
1070
     0
1070
   272
1070
     3
1070
   275
1070
     0
1070
   284
1070
     0
1070
   289
1070
     3
1070
   340
1005
6B
1070
   371
1070
    -1
1070
   372
1070
    -1
1002
}
  0
DIMENSION
  5
630D
330
1F
100
AcDbEntity
  8
AM_5
100
AcDbDimension
  2
*D8
 10
-106.9999908506857
 20
-8.500000387430132
 30
0.0
 11
-108.5499908506857
 21
-4.500000387430149
 31
0.0
 70
    32
  1
<>
 51
359.9999999999998
  3
AM_JIS$0
100
AcDbAlignedDimension
 13
-99.99999085068575
 23
-0.5000003874301342
 33
0.0
 14
-99.9999908506858
 24
-8.500000387430134
 34
0.0
 50
269.9999999999998
100
AcDbRotatedDimension
1001
GENIUS_GENDTOL_13
1000

1000
h7
1000

1040
0.0
1001
ACAD
1000
DSTYLE
1002
{
1070
   287
1070
     3
1070
    40
1040
0.5
1070
    42
1040
1.0
1070
    43
1040
12.0
1070
    48
1040
0.1
1070
    78
1070
     8
1070
   140
1040
3.2
1070
   176
1070
   256
1070
   177
1070
   256
1070
   271
1070
     0
1070
   272
1070
     3
1070
   275
1070
     0
1070
   284
1070
     0
1070
   289
1070
     3
1070
   340
1005
6B
1070
   371
1070
    -1
1070
   372
1070
    -1
1002
}
  0
LINE
  5
63C4
330
1F
100
AcDbEntity
  8
AM_11
100
AcDbLine
 10
-0.4000000059607678
 20
0.0000000000001634
 30
0.0
 11
-0.0000000000002682
 21
0.0000000000001634
 31
0.0
  0
LINE
  5
63C5
330
1F
100
AcDbEntity
  8
AM_11
100
AcDbLine
 10
-0.0000000000002669
 20
-0.4000000059603366
 30
0.0
 11
-0.0000000000002682
 21
0.0000000000001634
 31
0.0
  0
DIMENSION
  5
63CE
330
1F
100
AcDbEntity
  8
AM_5
100
AcDbDimension
  2
*D9
 10
-99.99999085068573
 20
12.14348777951865
 30
0.0
 11
-49.999995425343
 21
13.69348777951856
 31
0.0
 70
    32
  1
<>
 51
359.9999999999998
  3
AM_JIS$0
100
AcDbAlignedDimension
 13
-0.0000000000002682
 23
0.0000000000001634
 33
0.0
 14
-99.99999085068576
 24
-0.5000003874301342
 34
0.0
 50
180.0
100
AcDbRotatedDimension
1001
GENIUS_GENDTOL_13
1000

1000
h7
1000

1040
0.0
1001
ACAD
1000
DSTYLE
1002
{
1070
   287
1070
     3
1070
    40
1040
0.5
1070
    42
1040
1.0
1070
    43
1040
12.0
1070
    48
1040
0.1
1070
    78
1070
     8
1070
   140
1040
3.2
1070
   176
1070
   256
1070
   177
1070
   256
1070
   271
1070
     0
1070
   272
1070
     3
1070
   275
1070
     0
1070
   284
1070
     0
1070
   289
1070
     3
1070
   340
1005
6B
1070
   371
1070
    -1
1070
   372
1070
    -1
1002
}
  0
DIMENSION
  5
6465
330
1F
100
AcDbEntity
  8
AM_5
100
AcDbDimension
  2
*D10
 10
-7.389440923928777
 20
-0.1219410002223213
 30
0.0
 11
-7.850055529155014
 21
7.721270241504713
 31
0.0
 70
    34
  1
90%%d
 51
359.9999999999998
  3
AM_JIS$2
100
AcDb2LineAngularDimension
 13
-0.0000000000002669
 23
-0.4000000059603366
 33
0.0
 14
-0.0000000000002682
 24
0.0000000000001634
 34
0.0
 15
-0.4069809019567754
 25
-0.0000614225863274
 35
0.0
 16
-4.775577111654187
 26
8.168559131258257
 36
0.0
1001
GENIUS_GENDTOL_13
1000

1000
h7
1000

1040
0.0
1001
ACAD
1000
DSTYLE
1002
{
1070
   271
1070
     0
1002
}
  0
DIMENSION
  5
654B
330
1F
100
AcDbEntity
  8
AM_5
100
AcDbDimension
  2
*D11
 10
-3.973520666360787
 20
-6.413284689187321
 30
0.0
 11
-3.5513798879547
 21
-12.13833699952074
 31
0.0
 70
    34
  1
35%%d
 51
359.9999999999998
  3
AM_JIS$2
100
AcDb2LineAngularDimension
 13
-0.0000000000002669
 23
-0.4000000059603366
 33
0.0
 14
-0.0000000000002682
 24
0.0000000000001634
 34
0.0
 15
-0.0683807432647723
 25
-0.6236785948273394
 35
0.0
 16
-5.278324914957407
 26
-13.16118695534561
 36
0.0
1001
GENIUS_GENDTOL_13
1000

1000
h7
1000

1040
0.0
1001
ACAD
1000
DSTYLE
1002
{
1070
   271
1070
     0
1002
}
  0
DIMENSION
  5
664B
330
1F
100
AcDbEntity
  8
AM_5
100
AcDbDimension
  2
*D12
 10
6.999999999999717
 20
0.0000000000001614
 30
0.0
 11
5.449999999999717
 21
-4.250000193715078
 31
0.0
 70
    32
  1
<>
 51
359.9999999999998
  3
AM_JIS$0
100
AcDbAlignedDimension
 13
-6.060129553079793
 23
-8.500000387430318
 33
0.0
 14
-0.0000000000002682
 24
0.0000000000001634
 34
0.0
 50
89.99999999999984
100
AcDbRotatedDimension
1001
GENIUS_GENDTOL_13
1000

1000
h7
1000

1040
0.0
1001
ACAD
1000
DSTYLE
1002
{
1070
   287
1070
     3
1070
    40
1040
0.5
1070
    42
1040
1.0
1070
    43
1040
12.0
1070
    48
1040
0.1
1070
    78
1070
     8
1070
   140
1040
3.2
1070
   176
1070
   256
1070
   177
1070
   256
1070
   271
1070
     1
1070
   272
1070
     3
1070
   275
1070
     0
1070
   284
1070
     0
1070
   289
1070
     3
1070
   340
1005
6B
1070
   371
1070
    -1
1070
   372
1070
    -1
1002
}
  0
DIMENSION
  5
6765
330
1F
100
AcDbEntity
  8
AM_5
100
AcDbDimension
  2
*D13
 10
7.000001519918255
 20
18.02463237275786
 30
0.0
 11
5.450001519918252
 21
22.02463237275787
 31
0.0
 70
    32
  1
<>
 51
359.9999999999998
  3
AM_JIS$0
100
AcDbAlignedDimension
 13
-0.8908752501007381
 23
26.02463237275788
 33
0.0
 14
0.000001519918253
 24
18.02463237275786
 34
0.0
 50
89.99999999999984
100
AcDbRotatedDimension
1001
GENIUS_GENDTOL_13
1000

1000
h7
1000

1040
0.0
1001
ACAD
1000
DSTYLE
1002
{
1070
   287
1070
     3
1070
    40
1040
0.5
1070
    42
1040
1.0
1070
    43
1040
12.0
1070
    48
1040
0.1
1070
    78
1070
     8
1070
   140
1040
3.2
1070
   176
1070
   256
1070
   177
1070
   256
1070
   271
1070
     0
1070
   272
1070
     3
1070
   275
1070
     0
1070
   284
1070
     0
1070
   289
1070
     3
1070
   340
1005
6B
1070
   371
1070
    -1
1070
   372
1070
    -1
1002
}
  0
CIRCLE
  5
68C0
330
1F
100
AcDbEntity
  8
AM_0
  6
CONTINUOUS
100
AcDbCircle
 10
-5.68147507309903
 20
-3.267610937356173
 30
0.0
 40
1.725
  0
VIEWPORT
  5
110
330
101
100
AcDbEntity
 67
     1
  8
0
100
AcDbViewport
 10
420.5
 20
297.0
 30
0.0
 40
948.9782706766916
 41
628.452
 68
     1
 69
     1
1001
ACAD
1000
MVIEW
1002
{
1070
    16
1010
0.0
1020
0.0
1030
0.0
1010
0.0
1020
0.0
1030
1.0
1040
0.0
1040
628.452
1040
420.5
1040
297.0
1040
50.0
1040
0.0
1040
0.0
1070
     0
1070
   100
1070
     1
1070
     1
1070
     0
1070
     0
1070
     0
1070
     0
1040
0.0
1040
0.0
1040
0.0
1040
10.0
1040
10.0
1040
10.0
1040
10.0
1070
     0
1002
{
1002
}
1002
}
  0
ENDSEC
  0
SECTION
  2
OBJECTS
  0
DICTIONARY
  5
C
330
0
100
AcDbDictionary
  3
ACAD_GROUP
350
D
  3
ACAD_LAYOUT
350
1A
  3
ACAD_MLINESTYLE
350
17
  3
ACAD_PLOTSETTINGS
350
19
  3
ACAD_PLOTSTYLENAME
350
E
  3
ACDBVARIABLEDICTIONARY
350
34
  3
ACMDICTIONARY
350
43
  3
AMG
350
2B
  3
AMGSNAPSETTINGS
350
6E
  3
DWGPROPS
350
68D0
  3
ACDBHEADERROUNDTRIPXREC
350
68DE
  0
DICTIONARY
  5
74
330
1F
100
AcDbDictionary
280
     1
  3
ACAD_INDEX
360
68D2
  3
ACAD_LAYOUTSELFREF
360
6901
  0
DICTIONARY
  5
6906
330
101
100
AcDbDictionary
280
     1
  3
ACAD_LAYOUTSELFREF
360
6907
  0
DICTIONARY
  5
D
102
{ACAD_REACTORS
330
C
102
}
330
C
100
AcDbDictionary
  0
DICTIONARY
  5
1A
102
{ACAD_REACTORS
330
C
102
}
330
C
100
AcDbDictionary
  0
DICTIONARY
  5
17
102
{ACAD_REACTORS
330
C
102
}
330
C
100
AcDbDictionary
  3
STANDARD
350
18
  0
DICTIONARY
  5
19
102
{ACAD_REACTORS
330
C
102
}
330
C
100
AcDbDictionary
  3
ASAMI
350
399D
  0
ACDBDICTIONARYWDFLT
  5
E
102
{ACAD_REACTORS
330
C
102
}
330
C
100
AcDbDictionary
281
     1
  3
Normal
350
F
100
AcDbDictionaryWithDefault
340
F
  0
DICTIONARY
  5
34
102
{ACAD_REACTORS
330
C
102
}
330
C
100
AcDbDictionary
  3
INDEXCTL
350
35
  3
SORTENTS
350
B5E
  0
DICTIONARY
  5
43
102
{ACAD_REACTORS
330
C
102
}
330
C
100
AcDbDictionary
  3
ACMSTDDICTIONARY
350
260
  0
DICTIONARY
  5
2B
102
{ACAD_REACTORS
330
C
102
}
330
C
100
AcDbDictionary
  3
ACMGSETTINGS
350
2C
  0
DICTIONARY
  5
6E
102
{ACAD_REACTORS
330
C
102
}
330
C
100
AcDbDictionary
  0
XRECORD
  5
68D0
102
{ACAD_REACTORS
330
C
102
}
330
C
100
AcDbXrecord
  1
DWGPROPS COOKIE
  2

  3

  4

  6

  7

  8

  9

300
AmdtFileType=82
301
=
302
=
303
=
304
=
305
=
306
=
307
=
308
=
309
=
 40
0.7354098611111111
 41
2452802.716478761
 42
2452938.031435335
  1

 90
        1
  0
DICTIONARY
  5
68DE
102
{ACAD_REACTORS
330
C
102
}
330
C
100
AcDbDictionary
  3
TSTACKALIGN
350
68DF
  3
TSTACKSIZE
350
68E0
  3
HYPERLINKBASE
350
68E1
  3
STYLESHEET
350
68E2
  3
LAYOUTDICT
350
68E3
  3
PLOTSETDICT
350
68E4
  3
PLOTSTYLNAMDICT
350
68E5
  3
LWETCUNION
350
68E6
  3
INSUNITS
350
68E7
  3
CEPSNTYPE
350
68E8
  3
FINGERPRINTGUID
350
68E9
  3
VERSIONGUID
350
68EA
  3
PSVPSCALE
350
68EB
  3
DIMSTYLEDATA
350
68EC
  3
PUCSORTHOREF
350
68ED
  3
PUCSORTHOVIEW
350
68EE
  3
PUCSBASE
350
68EF
  3
PUCSORGTOP
350
68F0
  3
PUCSORGBOTTOM
350
68F1
  3
PUCSORGLEFT
350
68F2
  3
PUCSORGRIGHT
350
68F3
  3
PUCSORGFRONT
350
68F4
  3
PUCSORGBACK
350
68F5
  3
UCSORTHOREF
350
68F6
  3
UCSORTHOVIEW
350
68F7
  3
UCSBASE
350
68F8
  3
UCSORGTOP
350
68F9
  3
UCSORGBOTTOM
350
68FA
  3
UCSORGLEFT
350
68FB
  3
UCSORGRIGHT
350
68FC
  3
UCSORGFRONT
350
68FD
  3
UCSORGBACK
350
68FE
  0
DICTIONARY
  5
68D2
102
{ACAD_REACTORS
330
74
102
}
330
74
100
AcDbDictionary
  3
*A1
350
68D3
  0
XRECORD
  5
6901
102
{ACAD_REACTORS
330
74
102
}
330
74
100
AcDbXrecord
340
1F
  0
XRECORD
  5
6907
102
{ACAD_REACTORS
330
6906
102
}
330
6906
100
AcDbXrecord
340
101
  0
MLINESTYLE
  5
18
102
{ACAD_REACTORS
330
17
102
}
330
17
100
AcDbMlineStyle
  2
STANDARD
 70
     0
  3

 62
   256
 51
90.0
 52
90.0
 71
     2
 49
0.5
 62
   256
  6
BYLAYER
 49
-0.5
 62
   256
  6
BYLAYER
  0
PLOTSETTINGS
  5
399D
102
{ACAD_REACTORS
330
19
102
}
330
19
100
AcDbPlotSettings
  1
asami
  2
RICOH imagio MF1540
  4
A4
  6

 40
5.831416606903076
 41
7.651742935180664
 42
4.90008544921875
 43
5.789077758789062
 44
296.9683227539062
 45
209.9733276367187
 46
0.0
 47
0.0
 48
-156.6707931774246
 49
-74.57609991074048
140
58.59973180214831
141
60.61068161925596
142
1.0
143
1.095343097833084
 70
  1712
 72
     1
 73
     1
 74
     4
  7
asami.ctb
 75
     0
147
0.9129559514076438
148
156.6707931774246
149
74.57609991074048
  0
ACDBPLACEHOLDER
  5
F
102
{ACAD_REACTORS
330
E
102
}
330
E
100
AcDbPlaceHolder
280
     0
  0
DICTIONARYVAR
  5
35
102
{ACAD_REACTORS
330
34
102
}
330
34
100
DictionaryVariables
280
     0
  1
1
  0
DICTIONARYVAR
  5
B5E
102
{ACAD_REACTORS
330
34
102
}
330
34
100
DictionaryVariables
280
     0
  1
96
  0
DICTIONARY
  5
260
102
{ACAD_REACTORS
330
43
102
}
330
43
100
AcDbDictionary
  0
DICTIONARY
  5
2C
102
{ACAD_REACTORS
330
2B
102
}
330
2B
100
AcDbDictionary
  3
DWGSETTINGS
350
2D
  0
XRECORD
  5
68DF
102
{ACAD_REACTORS
330
68DE
102
}
330
68DE
100
AcDbXrecord
 90
        1
  0
XRECORD
  5
68E0
102
{ACAD_REACTORS
330
68DE
102
}
330
68DE
100
AcDbXrecord
 90
       70
  0
XRECORD
  5
68E1
102
{ACAD_REACTORS
330
68DE
102
}
330
68DE
100
AcDbXrecord
  1

  0
XRECORD
  5
68E2
102
{ACAD_REACTORS
330
68DE
102
}
330
68DE
100
AcDbXrecord
  1
asami.ctb
  0
XRECORD
  5
68E3
102
{ACAD_REACTORS
330
68DE
102
}
330
68DE
100
AcDbXrecord
340
1A
  0
XRECORD
  5
68E4
102
{ACAD_REACTORS
330
68DE
102
}
330
68DE
100
AcDbXrecord
340
19
  0
XRECORD
  5
68E5
102
{ACAD_REACTORS
330
68DE
102
}
330
68DE
100
AcDbXrecord
340
E
  0
XRECORD
  5
68E6
102
{ACAD_REACTORS
330
68DE
102
}
330
68DE
100
AcDbXrecord
 90
    10781
  0
XRECORD
  5
68E7
102
{ACAD_REACTORS
330
68DE
102
}
330
68DE
100
AcDbXrecord
 90
        4
  0
XRECORD
  5
68E8
102
{ACAD_REACTORS
330
68DE
102
}
330
68DE
100
AcDbXrecord
 90
        0
  0
XRECORD
  5
68E9
102
{ACAD_REACTORS
330
68DE
102
}
330
68DE
100
AcDbXrecord
  1
{AFB28963-8C59-40AE-9337-C84526B81ACE}
  0
XRECORD
  5
68EA
102
{ACAD_REACTORS
330
68DE
102
}
330
68DE
100
AcDbXrecord
  1
{3C9B4DDF-F651-4FAA-8F57-45B28B81D10E}
  0
XRECORD
  5
68EB
102
{ACAD_REACTORS
330
68DE
102
}
330
68DE
100
AcDbXrecord
 40
0.0
  0
XRECORD
  5
68EC
102
{ACAD_REACTORS
330
68DE
102
}
330
68DE
100
AcDbXrecord
1000
DSTYLE
1002
{
1070
    79
 70
     2
1070
   341
340
59
1070
   342
340
59
1070
   371
 70
    -1
1070
   372
 70
    -1
1002
}
  0
XRECORD
  5
68ED
102
{ACAD_REACTORS
330
68DE
102
}
330
68DE
100
AcDbXrecord
340
0
  0
XRECORD
  5
68EE
102
{ACAD_REACTORS
330
68DE
102
}
330
68DE
100
AcDbXrecord
 70
     0
  0
XRECORD
  5
68EF
102
{ACAD_REACTORS
330
68DE
102
}
330
68DE
100
AcDbXrecord
340
0
  0
XRECORD
  5
68F0
102
{ACAD_REACTORS
330
68DE
102
}
330
68DE
100
AcDbXrecord
 10
0.0
 20
0.0
 30
0.0
  0
XRECORD
  5
68F1
102
{ACAD_REACTORS
330
68DE
102
}
330
68DE
100
AcDbXrecord
 10
0.0
 20
0.0
 30
0.0
  0
XRECORD
  5
68F2
102
{ACAD_REACTORS
330
68DE
102
}
330
68DE
100
AcDbXrecord
 10
0.0
 20
0.0
 30
0.0
  0
XRECORD
  5
68F3
102
{ACAD_REACTORS
330
68DE
102
}
330
68DE
100
AcDbXrecord
 10
0.0
 20
0.0
 30
0.0
  0
XRECORD
  5
68F4
102
{ACAD_REACTORS
330
68DE
102
}
330
68DE
100
AcDbXrecord
 10
0.0
 20
0.0
 30
0.0
  0
XRECORD
  5
68F5
102
{ACAD_REACTORS
330
68DE
102
}
330
68DE
100
AcDbXrecord
 10
0.0
 20
0.0
 30
0.0
  0
XRECORD
  5
68F6
102
{ACAD_REACTORS
330
68DE
102
}
330
68DE
100
AcDbXrecord
340
0
  0
XRECORD
  5
68F7
102
{ACAD_REACTORS
330
68DE
102
}
330
68DE
100
AcDbXrecord
 70
     0
  0
XRECORD
  5
68F8
102
{ACAD_REACTORS
330
68DE
102
}
330
68DE
100
AcDbXrecord
340
0
  0
XRECORD
  5
68F9
102
{ACAD_REACTORS
330
68DE
102
}
330
68DE
100
AcDbXrecord
 10
0.0
 20
0.0
 30
0.0
  0
XRECORD
  5
68FA
102
{ACAD_REACTORS
330
68DE
102
}
330
68DE
100
AcDbXrecord
 10
0.0
 20
0.0
 30
0.0
  0
XRECORD
  5
68FB
102
{ACAD_REACTORS
330
68DE
102
}
330
68DE
100
AcDbXrecord
 10
0.0
 20
0.0
 30
0.0
  0
XRECORD
  5
68FC
102
{ACAD_REACTORS
330
68DE
102
}
330
68DE
100
AcDbXrecord
 10
0.0
 20
0.0
 30
0.0
  0
XRECORD
  5
68FD
102
{ACAD_REACTORS
330
68DE
102
}
330
68DE
100
AcDbXrecord
 10
0.0
 20
0.0
 30
0.0
  0
XRECORD
  5
68FE
102
{ACAD_REACTORS
330
68DE
102
}
330
68DE
100
AcDbXrecord
 10
0.0
 20
0.0
 30
0.0
  0
LAYER_INDEX
  5
68D3
102
{ACAD_REACTORS
330
68D2
102
}
330
68D2
100
AcDbIndex
 40
2452941.601983495
100
AcDbLayerIndex
  8
0
360
68D4
 90
        0
  8
AM_0
360
68D5
 90
       26
  8
AM_5
360
68D6
 90
        9
  8
AM_11
360
68D7
 90
        2
  8
AM_7
360
68D8
 90
        3
  8
AM_6
360
68D9
 90
        3
  8
Defpoints
360
68DA
 90
        0
  8
AM_3
360
68DB
 90
        0
  8
PV0001_1
360
68DC
 90
        0
  0
XRECORD
  5
2D
102
{ACAD_REACTORS
330
2C
102
}
330
2C
100
AcDbXrecord
  1
VERSION
140
15.0
  1
PRODUCT
  2
AutoCAD Mechanical 2000
  0
IDBUFFER
  5
68D4
330
0
100
AcDbIdBuffer
  0
IDBUFFER
  5
68D5
330
0
100
AcDbIdBuffer
330
6198
330
6199
330
61A6
330
61A7
330
61A9
330
61AA
330
61AB
330
61AE
330
61B0
330
68C0
330
617B
330
617C
330
617D
330
617E
330
6181
330
6183
330
6184
330
6186
330
6187
330
6188
330
6189
330
618A
330
618B
330
6193
330
6194
330
6196
  0
IDBUFFER
  5
68D6
330
0
100
AcDbIdBuffer
330
4BD3
330
4BD4
330
6230
330
630D
330
63CE
330
6465
330
654B
330
664B
330
6765
  0
IDBUFFER
  5
68D7
330
0
100
AcDbIdBuffer
330
63C4
330
63C5
  0
IDBUFFER
  5
68D8
330
0
100
AcDbIdBuffer
330
6185
330
6195
330
6197
  0
IDBUFFER
  5
68D9
330
0
100
AcDbIdBuffer
330
388D
330
4BD2
330
4BD5
  0
IDBUFFER
  5
68DA
330
0
100
AcDbIdBuffer
  0
IDBUFFER
  5
68DB
330
0
100
AcDbIdBuffer
  0
IDBUFFER
  5
68DC
330
0
100
AcDbIdBuffer
  0
ENDSEC
  0
EOF
