  0
SECTION
  2
HEADER
  9
$ACADVER
  1
AC1015
  9
$ACADMAINTVER
 70
     6
  9
$DWGCODEPAGE
  3
ANSI_932
  9
$INSBASE
 10
0.0
 20
0.0
 30
0.0
  9
$EXTMIN
 10
-33.82836158014764
 20
-90.69599108546245
 30
0.0
  9
$EXTMAX
 10
98.0
 20
14.84000000000001
 30
0.0
  9
$LIMMIN
 10
0.0
 20
0.0
  9
$LIMMAX
 10
420.0
 20
297.0
  9
$ORTHOMODE
 70
     0
  9
$REGENMODE
 70
     1
  9
$FILLMODE
 70
     1
  9
$QTEXTMODE
 70
     0
  9
$MIRRTEXT
 70
     1
  9
$LTSCALE
 40
1.0
  9
$ATTMODE
 70
     1
  9
$TEXTSIZE
 40
3.48
  9
$TRACEWID
 40
1.0
  9
$TEXTSTYLE
  7
STANDARD
  9
$CLAYER
  8
AM_0
  9
$CELTYPE
  6
ByLayer
  9
$CECOLOR
 62
   256
  9
$CELTSCALE
 40
1.0
  9
$DISPSILH
 70
     0
  9
$DIMSCALE
 40
1.0
  9
$DIMASZ
 40
2.5
  9
$DIMEXO
 40
0.0
  9
$DIMDLI
 40
10.0
  9
$DIMRND
 40
0.0
  9
$DIMDLE
 40
0.0
  9
$DIMEXE
 40
1.0
  9
$DIMTP
 40
0.1
  9
$DIMTM
 40
0.1000000001
  9
$DIMTXT
 40
3.8
  9
$DIMCEN
 40
0.0
  9
$DIMTSZ
 40
0.0
  9
$DIMTOL
 70
     0
  9
$DIMLIM
 70
     0
  9
$DIMTIH
 70
     0
  9
$DIMTOH
 70
     0
  9
$DIMSE1
 70
     0
  9
$DIMSE2
 70
     0
  9
$DIMTAD
 70
     3
  9
$DIMZIN
 70
     1
  9
$DIMBLK
  1
Open30
  9
$DIMASO
 70
     1
  9
$DIMSHO
 70
     1
  9
$DIMPOST
  1

  9
$DIMAPOST
  1
"
  9
$DIMALT
 70
     0
  9
$DIMALTD
 70
     2
  9
$DIMALTF
 40
0.0393701
  9
$DIMLFAC
 40
1.0
  9
$DIMTOFL
 70
     1
  9
$DIMTVP
 40
0.0
  9
$DIMTIX
 70
     0
  9
$DIMSOXD
 70
     0
  9
$DIMSAH
 70
     0
  9
$DIMBLK1
  1

  9
$DIMBLK2
  1

  9
$DIMSTYLE
  2
AM_JIS
  9
$DIMCLRD
 70
   256
  9
$DIMCLRE
 70
   256
  9
$DIMCLRT
 70
     2
  9
$DIMTFAC
 40
0.71
  9
$DIMGAP
 40
1.5
  9
$DIMJUST
 70
     0
  9
$DIMSD1
 70
     0
  9
$DIMSD2
 70
     0
  9
$DIMTOLJ
 70
     0
  9
$DIMTZIN
 70
     8
  9
$DIMALTZ
 70
     0
  9
$DIMALTTZ
 70
     0
  9
$DIMUPT
 70
     0
  9
$DIMDEC
 70
     0
  9
$DIMTDEC
 70
     3
  9
$DIMALTU
 70
     2
  9
$DIMALTTD
 70
     2
  9
$DIMTXSTY
  7
STANDARD
  9
$DIMAUNIT
 70
     1
  9
$DIMADEC
 70
     0
  9
$DIMALTRND
 40
0.0
  9
$DIMAZIN
 70
     2
  9
$DIMDSEP
 70
    46
  9
$DIMATFIT
 70
     3
  9
$DIMFRAC
 70
     0
  9
$DIMLDRBLK
  1
Open30
  9
$DIMLUNIT
 70
     2
  9
$DIMLWD
 70
    -1
  9
$DIMLWE
 70
    -1
  9
$DIMTMOVE
 70
     0
  9
$LUNITS
 70
     2
  9
$LUPREC
 70
     4
  9
$SKETCHINC
 40
1.0
  9
$FILLETRAD
 40
0.0
  9
$AUNITS
 70
     0
  9
$AUPREC
 70
     4
  9
$MENU
  1
.
  9
$ELEVATION
 40
0.0
  9
$PELEVATION
 40
0.0
  9
$THICKNESS
 40
0.0
  9
$LIMCHECK
 70
     0
  9
$CHAMFERA
 40
2.0
  9
$CHAMFERB
 40
2.0
  9
$CHAMFERC
 40
20.0
  9
$CHAMFERD
 40
0.0
  9
$SKPOLY
 70
     0
  9
$TDCREATE
 40
2451943.610431667
  9
$TDUCREATE
 40
2451943.235431667
  9
$TDUPDATE
 40
2455482.485398935
  9
$TDUUPDATE
 40
2455482.110398935
  9
$TDINDWG
 40
0.9774204282
  9
$TDUSRTIMER
 40
0.9774202546
  9
$USRTIMER
 70
     1
  9
$ANGBASE
 50
0.0
  9
$ANGDIR
 70
     0
  9
$PDMODE
 70
     0
  9
$PDSIZE
 40
0.0
  9
$PLINEWID
 40
0.0
  9
$SPLFRAME
 70
     0
  9
$SPLINETYPE
 70
     6
  9
$SPLINESEGS
 70
     8
  9
$HANDSEED
  5
CAD4
  9
$SURFTAB1
 70
     6
  9
$SURFTAB2
 70
     6
  9
$SURFTYPE
 70
     6
  9
$SURFU
 70
     6
  9
$SURFV
 70
     6
  9
$UCSBASE
  2

  9
$UCSNAME
  2

  9
$UCSORG
 10
0.0
 20
0.0
 30
0.0
  9
$UCSXDIR
 10
1.0
 20
0.0
 30
0.0
  9
$UCSYDIR
 10
0.0
 20
1.0
 30
0.0
  9
$UCSORTHOREF
  2

  9
$UCSORTHOVIEW
 70
     0
  9
$UCSORGTOP
 10
0.0
 20
0.0
 30
0.0
  9
$UCSORGBOTTOM
 10
0.0
 20
0.0
 30
0.0
  9
$UCSORGLEFT
 10
0.0
 20
0.0
 30
0.0
  9
$UCSORGRIGHT
 10
0.0
 20
0.0
 30
0.0
  9
$UCSORGFRONT
 10
0.0
 20
0.0
 30
0.0
  9
$UCSORGBACK
 10
0.0
 20
0.0
 30
0.0
  9
$PUCSBASE
  2

  9
$PUCSNAME
  2

  9
$PUCSORG
 10
0.0
 20
0.0
 30
0.0
  9
$PUCSXDIR
 10
1.0
 20
0.0
 30
0.0
  9
$PUCSYDIR
 10
0.0
 20
1.0
 30
0.0
  9
$PUCSORTHOREF
  2

  9
$PUCSORTHOVIEW
 70
     0
  9
$PUCSORGTOP
 10
0.0
 20
0.0
 30
0.0
  9
$PUCSORGBOTTOM
 10
0.0
 20
0.0
 30
0.0
  9
$PUCSORGLEFT
 10
0.0
 20
0.0
 30
0.0
  9
$PUCSORGRIGHT
 10
0.0
 20
0.0
 30
0.0
  9
$PUCSORGFRONT
 10
0.0
 20
0.0
 30
0.0
  9
$PUCSORGBACK
 10
0.0
 20
0.0
 30
0.0
  9
$USERI1
 70
     0
  9
$USERI2
 70
     0
  9
$USERI3
 70
     0
  9
$USERI4
 70
     0
  9
$USERI5
 70
     0
  9
$USERR1
 40
0.0
  9
$USERR2
 40
0.0
  9
$USERR3
 40
0.0
  9
$USERR4
 40
0.0
  9
$USERR5
 40
0.0
  9
$WORLDVIEW
 70
     1
  9
$SHADEDGE
 70
     3
  9
$SHADEDIF
 70
    70
  9
$TILEMODE
 70
     1
  9
$MAXACTVP
 70
    64
  9
$PINSBASE
 10
0.0
 20
0.0
 30
0.0
  9
$PLIMCHECK
 70
     0
  9
$PEXTMIN
 10
1.000000000000000E+20
 20
1.000000000000000E+20
 30
1.000000000000000E+20
  9
$PEXTMAX
 10
-1.000000000000000E+20
 20
-1.000000000000000E+20
 30
-1.000000000000000E+20
  9
$PLIMMIN
 10
0.0
 20
0.0
  9
$PLIMMAX
 10
420.0
 20
297.0
  9
$UNITMODE
 70
     0
  9
$VISRETAIN
 70
     1
  9
$PLINEGEN
 70
     0
  9
$PSLTSCALE
 70
     1
  9
$TREEDEPTH
 70
  3020
  9
$CMLSTYLE
  2
Standard
  9
$CMLJUST
 70
     0
  9
$CMLSCALE
 40
20.0
  9
$PROXYGRAPHICS
 70
     1
  9
$MEASUREMENT
 70
     1
  9
$CELWEIGHT
370
    -1
  9
$ENDCAPS
280
     0
  9
$JOINSTYLE
280
     0
  9
$LWDISPLAY
290
     0
  9
$INSUNITS
 70
     4
  9
$HYPERLINKBASE
  1

  9
$STYLESHEET
  1
sei_cad.ctb
  9
$XEDIT
290
     1
  9
$CEPSNTYPE
380
     0
  9
$PSTYLEMODE
290
     1
  9
$FINGERPRINTGUID
  2
{C77AB3BE-9CA2-11D3-BAF3-006094EB760E}
  9
$VERSIONGUID
  2
{347C78A5-FC7E-4D4D-AB33-C79EC7C1937C}
  9
$EXTNAMES
290
     1
  9
$PSVPSCALE
 40
0.0
  9
$OLESTARTUP
290
     0
  0
ENDSEC
  0
SECTION
  2
CLASSES
  0
CLASS
  1
ACDBDICTIONARYWDFLT
  2
AcDbDictionaryWithDefault
  3
ObjectDBX Classes
 90
        0
280
     0
281
     0
  0
CLASS
  1
ACDBPLACEHOLDER
  2
AcDbPlaceHolder
  3
ObjectDBX Classes
 90
        0
280
     0
281
     0
  0
CLASS
  1
LAYOUT
  2
AcDbLayout
  3
ObjectDBX Classes
 90
        0
280
     0
281
     0
  0
CLASS
  1
ACME_DOCUMENT
  2
AcMeDbDoc
  3
AcMeServices
 90
        0
280
     1
281
     0
  0
CLASS
  1
ACMESCOPE
  2
AcMeScope
  3
AcMeServices
 90
        0
280
     1
281
     0
  0
CLASS
  1
ACMECOMMANDHISTORY
  2
AcMeCommandHistory
  3
AcMeServices
 90
        0
280
     1
281
     0
  0
CLASS
  1
DICTIONARYVAR
  2
AcDbDictionaryVar
  3
ObjectDBX Classes
 90
        0
280
     0
281
     0
  0
CLASS
  1
ACIMSYSVARMAN
  2
AcImSysVarManager
  3
AcMeServices
 90
        0
280
     1
281
     0
  0
CLASS
  1
ACIMREALSYSVAR
  2
AcImRealSysVar
  3
AcMeServices
 90
        0
280
     1
281
     0
  0
CLASS
  1
ACIMINTSYSVAR
  2
AcImIntSysVar
  3
AcMeServices
 90
        0
280
     1
281
     0
  0
CLASS
  1
ACMEDRAWINGMAN
  2
AcMeDrawingMan
  3
AcMeServices
 90
        0
280
     1
281
     0
  0
CLASS
  1
ACMEVIEW
  2
AcMeView
  3
AcMeServices
 90
        0
280
     1
281
     0
  0
CLASS
  1
ACDBENTITYCACHE
  2
AcMeEntityCache
  3
AcMeServices
 90
        0
280
     1
281
     0
  0
CLASS
  1
GSMANAGER
  2
AcMeGSManager
  3
AcMeServices
 90
        0
280
     1
281
     0
  0
CLASS
  1
AMDTINTERNALREACTOR
  2
AmdtInternalReactor
  3
AcMeServices
 90
        0
280
     1
281
     0
  0
CLASS
  1
ACMESTATEMGR
  2
AcMeStateMgr
  3
AcMeServices
 90
        0
280
     1
281
     0
  0
CLASS
  1
ACME_DATABASE
  2
AcMeDbDatabase
  3
AcMeServices
 90
        0
280
     1
281
     0
  0
CLASS
  1
ACRFINSADJUSTERMGR
  2
AcRfInsAdjusterMgr
  3
AcMeServices
 90
        0
280
     1
281
     0
  0
CLASS
  1
AMGSETTINGSOBJ
  2
AmgSettingsObj
  3
"AcadM|Product Description: AutoCAD Mechanical 2000|Company: Autodesk"
 90
        0
280
     1
281
     0
  0
CLASS
  1
AMGOBJPROPCFG
  2
AmgObjPropCfg
  3
"AmgLay|Product Description: AutoCAD Mechanical 2000|Company: Autodesk"
 90
        1
280
     1
281
     0
  0
CLASS
  1
ACMDATADICTIONARY
  2
AcmDataDictionary
  3
"AcmSymBB|Product Description: AutoCAD Mechanical 2004 DX|Company: Autodesk"
 90
        0
280
     1
281
     0
  0
CLASS
  1
ACMDATAENTRYBLOCK
  2
AcmDataEntryBlock
  3
"AcmSymBB|Product Description: AutoCAD Mechanical 2004 DX|Company: Autodesk"
 90
        0
280
     1
281
     0
  0
CLASS
  1
ACIMSTRSYSVAR
  2
AcImStrSysVar
  3
AcMeServices
 90
        0
280
     1
281
     0
  0
CLASS
  1
ACAMGFILTERDAT
  2
AcAmgFilterDat
  3
"AcadM|Product Description: AutoCAD Mechanical 2000|Company: Autodesk"
 90
        0
280
     1
281
     0
  0
CLASS
  1
LAYER_INDEX
  2
AcDbLayerIndex
  3
ObjectDBX Classes
 90
        0
280
     0
281
     0
  0
CLASS
  1
IDBUFFER
  2
AcDbIdBuffer
  3
ObjectDBX Classes
 90
        0
280
     0
281
     0
  0
CLASS
  1
ACMSTANDARDJIS
  2
AcmStandardJIS
  3
"Amdt_StdImp|Product Description: AutoCAD Mechanical 2004 DX|Company: Autodesk"
 90
        0
280
     1
281
     0
  0
CLASS
  1
ACMSURFSTANDARDJIS
  2
AcmSurfTextStdJIS
  3
"Amdt_StdImp|Product Description: AutoCAD Mechanical 2004 DX|Company: Autodesk"
 90
        0
280
     1
281
     0
  0
CLASS
  1
ACMFCFSTANDARDJIS
  2
AcmFCFStdJIS
  3
"Amdt_StdImp|Product Description: AutoCAD Mechanical 2004 DX|Company: Autodesk"
 90
        0
280
     1
281
     0
  0
CLASS
  1
ACMWELDSTANDARDJIS
  2
AcmWeldingStdJIS
  3
"Amdt_StdImp|Product Description: AutoCAD Mechanical 2004 DX|Company: Autodesk"
 90
        0
280
     1
281
     0
  0
CLASS
  1
ACMIDSTANDARDJIS
  2
AcmIdStdJIS
  3
"Amdt_StdImp|Product Description: AutoCAD Mechanical 2004 DX|Company: Autodesk"
 90
        0
280
     1
281
     0
  0
CLASS
  1
ACMDATUMSTANDARDJIS
  2
AcmDatumStdJIS
  3
"Amdt_StdImp|Product Description: AutoCAD Mechanical 2004 DX|Company: Autodesk"
 90
        0
280
     1
281
     0
  0
CLASS
  1
ACMBOMSTANDARDJIS
  2
AcmBOMStdJIS
  3
"Amdt_StdImp|Product Description: AutoCAD Mechanical 2004 DX|Company: Autodesk"
 90
        0
280
     1
281
     0
  0
CLASS
  1
AMDTNOTE
  2
AmdtNote
  3
"AcmSymBB|Product Description: AutoCAD Mechanical 2004 DX|Company: Autodesk"
 90
     1023
280
     1
281
     1
  0
CLASS
  1
TABLESTYLE
  2
AcDbTableStyle
  3
ObjectDBX Classes
 90
     2047
280
     0
281
     0
  0
CLASS
  1
ACGREFMASTER
  2
AcGrefMaster
  3
AcAttribServices
 90
        0
280
     1
281
     0
  0
CLASS
  1
AM_DRAWING_MGR
  2
AcDmDwgMgr
  3
AcMechDwgViewMgmt
 90
        0
280
     1
281
     0
  0
CLASS
  1
AM_DWG_DOCUMENT
  2
AcDmDwgDocument
  3
AcMechDwgViewMgmt
 90
        0
280
     1
281
     0
  0
CLASS
  1
AM_DWG_SHEET
  2
AcDmSheet
  3
AcMechDwgViewMgmt
 90
        0
280
     1
281
     0
  0
CLASS
  1
AM_VIEWDIMPARMAP
  2
AcDmViewDimParMap
  3
AcMechDwgViewMgmt
 90
        0
280
     1
281
     0
  0
CLASS
  1
AM_DWGMGR_NAME
  2
AcDmDwgMgrName
  3
AcMechDwgViewMgmt
 90
        0
280
     1
281
     0
  0
CLASS
  1
ACGREFACADMASTER
  2
AcGrefacadMaster
  3
AcGrefServices
 90
        0
280
     1
281
     0
  0
CLASS
  1
AMDTMENUSTATEMGR
  2
AmdtMenuStateMgr
  3
McadcomServices
 90
        0
280
     1
281
     0
  0
CLASS
  1
AMDTMCOMMENUSTATE
  2
AmdtMcomMenuState
  3
McadcomServices
 90
        0
280
     1
281
     0
  0
CLASS
  1
AMIMASTER
  2
AmiMaster
  3
AmiServices
 90
        0
280
     1
281
     0
  0
CLASS
  1
MAPIAMMOUDLE
  2
MApiAmModule
  3
MApiAmServices
 90
        0
280
     1
281
     0
  0
CLASS
  1
AMDTADMENUSTATE
  2
AmdtAdMenuState
  3
DesignerServices
 90
        0
280
     1
281
     0
  0
CLASS
  1
ADAPPL
  2
AcAdAppl
  3
DesignerServices
 90
        0
280
     1
281
     0
  0
CLASS
  1
DEPMGR
  2
AcAdDepMgr
  3
DesignerServices
 90
        0
280
     1
281
     0
  0
CLASS
  1
PARAMMGR
  2
AcAdParamMgr
  3
DesignerServices
 90
        0
280
     1
281
     0
  0
CLASS
  1
PARAMSCOPE
  2
AcAdParamScope
  3
DesignerServices
 90
        0
280
     1
281
     0
  0
CLASS
  1
NAMEDAPPL
  2
AcAdNamedAppl
  3
DesignerServices
 90
        0
280
     1
281
     0
  0
CLASS
  1
AMDTDMMENUSTATE
  2
AmdtDmMenuState
  3
AcMechDwgViewMgmt
 90
        0
280
     1
281
     0
  0
CLASS
  1
AMDTAMMENUSTATE
  2
AmdtAmMenuState
  3
DesignerAssemblies
 90
        0
280
     1
281
     0
  0
CLASS
  1
ACAMPROJECT
  2
AcAmProject
  3
DesignerAssemblies
 90
        0
280
     1
281
     0
  0
CLASS
  1
ACAMGRCOMPDEF
  2
AcAmGrCompDef
  3
DesignerAssemblies
 90
        0
280
     1
281
     0
  0
CLASS
  1
ACCMCONTEXT
  2
AcCmContext
  3
DesignerAssemblies
 90
        0
280
     1
281
     0
  0
CLASS
  1
ACAMCOMPDEF
  2
AcAmCompDef
  3
DesignerAssemblies
 90
        0
280
     1
281
     0
  0
CLASS
  1
ACAMCOMPDEFMGR
  2
AcAmCompDefMgr
  3
DesignerAssemblies
 90
        0
280
     1
281
     0
  0
CLASS
  1
AMCONTEXTMGR
  2
AcAmContextMgr
  3
DesignerAssemblies
 90
        0
280
     1
281
     0
  0
CLASS
  1
ACAMCONTEXTMODELER
  2
AcAmContextModeler
  3
DesignerAssemblies
 90
        0
280
     1
281
     0
  0
CLASS
  1
ACAMGTITLESTD
  2
AcAmgTitleStd
  3
"TITLEAPP"
 90
        0
280
     1
281
     0
  0
CLASS
  1
ACMDETAILSTANDARDJIS
  2
AmdtDetailSymStdJIS
  3
"Amdt_StdImp|Product Description: AutoCAD Mechanical 2004 DX|Company: Autodesk"
 90
        0
280
     1
281
     0
  0
CLASS
  1
ACMSECTIONSTANDARDJIS
  2
AmdtSectionSymStdJIS
  3
"Amdt_StdImp|Product Description: AutoCAD Mechanical 2004 DX|Company: Autodesk"
 90
        0
280
     1
281
     0
  0
CLASS
  1
ACMCENTERLINESTANDARDJIS
  2
AmdtCenterLineStdJIS
  3
"Amdt_StdImp|Product Description: AutoCAD Mechanical 2004 DX|Company: Autodesk"
 90
        0
280
     1
281
     0
  0
CLASS
  1
ACMTHREADLINESTANDARDJIS
  2
AmdtThreadLineStdJIS
  3
"Amdt_StdImp|Product Description: AutoCAD Mechanical 2004 DX|Company: Autodesk"
 90
        0
280
     1
281
     0
  0
CLASS
  1
ACMNOTESTANDARDJIS
  2
AmdtNoteStdJIS
  3
"Amdt_StdImp|Product Description: AutoCAD Mechanical 2004 DX|Company: Autodesk"
 90
        0
280
     1
281
     0
  0
CLASS
  1
AMDTNOTETEMPLATEDB
  2
AmdtNoteTemplateDB
  3
AMDT_STDIMP_MODULE_NAME
 90
        0
280
     1
281
     0
  0
CLASS
  1
ACAMGLAYSTD
  2
AcAmgLayStd
  3
"AcAmgLayStd|Product Description: AutoCAD Mechanical 2000|Company: Autodesk"
 90
        0
280
     1
281
     0
  0
CLASS
  1
ACAMGDIMSTD
  2
AcAmgDimStd
  3
"AcAmgDimStd|Product Description: AutoCAD Mechanical 2000|Company: Autodesk"
 90
        0
280
     1
281
     0
  0
CLASS
  1
ACAMGHOLECHARTSTDJIS
  2
AcAmgHoleChartStdJIS
  3
ACMSYMBB_MODULE_NAME
 90
        0
280
     1
281
     0
  0
CLASS
  1
CATALOGSTATE
  2
AcAmCatalogState
  3
DesignerAssemblies
 90
        0
280
     1
281
     0
  0
CLASS
  1
ACAMGRCOMPDEFSET
  2
AcAmGrCompDefSet
  3
DesignerAssemblies
 90
        0
280
     1
281
     0
  0
CLASS
  1
AMDTBROWSERDBTAB
  2
AmdtBrowserDbTab
  3
McadcomServices
 90
        0
280
     1
281
     0
  0
CLASS
  1
CBROWSERAPPOBJECT
  2
CBrowserAppObject
  3
McadcomServices
 90
        0
280
     1
281
     0
  0
CLASS
  1
DM_PLACEHOLDER
  2
AcDmSelsetPlaceholder
  3
AcMechDwgViewMgmt
 90
        0
280
     1
281
     0
  0
CLASS
  1
SORTENTSTABLE
  2
AcDbSortentsTable
  3
ObjectDBX Classes
 90
        0
280
     0
281
     0
  0
ENDSEC
  0
SECTION
  2
TABLES
  0
TABLE
  2
VPORT
  5
8
330
0
100
AcDbSymbolTable
 70
     3
  0
VPORT
  5
CACC
330
8
100
AcDbSymbolTableRecord
100
AcDbViewportTableRecord
  2
*Active
 70
     0
 10
0.0
 20
0.0
 11
1.0
 21
1.0
 12
22.47662670070281
 22
-56.74302469613587
 13
0.0
 23
0.0
 14
2.5
 24
2.5
 15
10.0
 25
10.0
 16
0.0
 26
0.0
 36
1.0
 17
0.0
 27
0.0
 37
0.0
 40
22.53819267324993
 41
1.610603290676417
 42
50.0
 43
0.0
 44
0.0
 50
0.0
 51
0.0
 71
     0
 72
  2000
 73
     1
 74
     3
 75
     0
 76
     0
 77
     0
 78
     0
281
     0
 65
     1
110
0.0
120
0.0
130
0.0
111
1.0
121
0.0
131
0.0
112
0.0
122
1.0
132
0.0
 79
     0
146
0.0
  0
ENDTAB
  0
TABLE
  2
LTYPE
  5
5
330
0
100
AcDbSymbolTable
 70
    14
  0
LTYPE
  5
14
330
5
100
AcDbSymbolTableRecord
100
AcDbLinetypeTableRecord
  2
ByBlock
 70
     0
  3

 72
    65
 73
     0
 40
0.0
  0
LTYPE
  5
15
330
5
100
AcDbSymbolTableRecord
100
AcDbLinetypeTableRecord
  2
ByLayer
 70
     0
  3

 72
    65
 73
     0
 40
0.0
  0
LTYPE
  5
16
330
5
100
AcDbSymbolTableRecord
100
AcDbLinetypeTableRecord
  2
Continuous
 70
     0
  3
Solid line
 72
    65
 73
     0
 40
0.0
  0
LTYPE
  5
43
330
5
100
AcDbSymbolTableRecord
100
AcDbLinetypeTableRecord
  2
AM_ISO02W050
 70
     0
  3
__ __ __ __ __ __ __ __ __ __ __ __ __ __ __
 72
    65
 73
     2
 40
7.5
 49
6.0
 74
     0
 49
-1.5
 74
     0
  0
LTYPE
  5
44
330
5
100
AcDbSymbolTableRecord
100
AcDbLinetypeTableRecord
  2
AM_ISO08W050
 70
     0
  3
____ . ____ . ____ . ____ . ____ . ____ . ____
 72
    65
 73
     4
 40
18.0
 49
12.0
 74
     0
 49
-1.5
 74
     0
 49
3.0
 74
     0
 49
-1.5
 74
     0
  0
LTYPE
  5
45
330
5
100
AcDbSymbolTableRecord
100
AcDbLinetypeTableRecord
  2
AM_ISO09W050
 70
     0
  3
_____ . . _____ . . _____ . . ____ .. ____
 72
    65
 73
     6
 40
22.5
 49
12.0
 74
     0
 49
-1.5
 74
     0
 49
3.0
 74
     0
 49
-1.5
 74
     0
 49
3.0
 74
     0
 49
-1.5
 74
     0
  0
LTYPE
  5
46
330
5
100
AcDbSymbolTableRecord
100
AcDbLinetypeTableRecord
  2
Amconstr
 70
     0
  3
_______________________
 72
    65
 73
     2
 40
9999.0
 49
9999.0
 74
     0
 49
0.0
 74
     0
  0
LTYPE
  5
47
330
5
100
AcDbSymbolTableRecord
100
AcDbLinetypeTableRecord
  2
AM_ISO02W050x2
 70
     0
  3
 _ _ _ _ _ _ _ _ _ _ _ _
 72
    65
 73
     2
 40
3.75
 49
3.0
 74
     0
 49
-0.75
 74
     0
  0
LTYPE
  5
48
330
5
100
AcDbSymbolTableRecord
100
AcDbLinetypeTableRecord
  2
AM_ISO08W050x2
 70
     0
  3
__ . __ . __ . __ . __ . __
 72
    65
 73
     4
 40
9.0
 49
6.0
 74
     0
 49
-0.75
 74
     0
 49
1.5
 74
     0
 49
-0.75
 74
     0
  0
LTYPE
  5
4B
330
5
100
AcDbSymbolTableRecord
100
AcDbLinetypeTableRecord
  2
Amzigzag
 70
     0
  3
/\/-/\/-/\/-/\/-/\/-/\/
 72
    65
 73
     2
 40
11.0001
 49
0.0001
 74
     4
 75
   135
340
4A
 46
0.04
 50
0.0
 44
0.0
 45
0.0
 49
-11.0
 74
     0
  0
LTYPE
  5
188
330
5
100
AcDbSymbolTableRecord
100
AcDbLinetypeTableRecord
  2
ACJISTGB
 70
     0
  3
__ . . __ . .
 72
    65
 73
     6
 40
9.0
 49
4.0
 74
     0
 49
-1.0
 74
     0
 49
1.0
 74
     0
 49
-1.0
 74
     0
 49
1.0
 74
     0
 49
-1.0
 74
     0
  0
LTYPE
  5
189
330
5
100
AcDbSymbolTableRecord
100
AcDbLinetypeTableRecord
  2
ACJISTGL
 70
     0
  3
_ _ _ _ _
 72
    65
 73
     2
 40
3.0
 49
2.0
 74
     0
 49
-1.0
 74
     0
  0
LTYPE
  5
651
330
5
100
AcDbSymbolTableRecord
100
AcDbLinetypeTableRecord
  2
DASHED
 70
     0
  3
__ __ __ __ __ __ __ __ __ __ __ __ __ __ __
 72
    65
 73
     2
 40
3.5
 49
2.0
 74
     0
 49
-1.5
 74
     0
  0
LTYPE
  5
652
330
5
100
AcDbSymbolTableRecord
100
AcDbLinetypeTableRecord
  2
CENTER
 70
     0
  3
____ _ ____ _ ____ _ ____ _ ____ _ ____ _ ____
 72
    65
 73
     4
 40
17.5
 49
13.0
 74
     0
 49
-1.5
 74
     0
 49
1.5
 74
     0
 49
-1.5
 74
     0
  0
LTYPE
  5
12AB
330
5
100
AcDbSymbolTableRecord
100
AcDbLinetypeTableRecord
  2
HIDDEN
 70
     0
  3
Hidden __ __ __ __ __ __ __ __ __ __ __ __ __ _
 72
    65
 73
     2
 40
0.375
 49
0.25
 74
     0
 49
-0.125
 74
     0
  0
LTYPE
  5
12AC
330
5
100
AcDbSymbolTableRecord
100
AcDbLinetypeTableRecord
  2
PHANTOM2
 70
     0
  3
Phantom (.5x) ___ _ _ ___ _ _ ___ _ _ ___ _ _
 72
    65
 73
     6
 40
1.25
 49
0.625
 74
     0
 49
-0.125
 74
     0
 49
0.125
 74
     0
 49
-0.125
 74
     0
 49
0.125
 74
     0
 49
-0.125
 74
     0
  0
ENDTAB
  0
TABLE
  2
LAYER
  5
2
102
{ACAD_XDICTIONARY
360
C61C
102
}
330
0
100
AcDbSymbolTable
 70
     8
  0
LAYER
  5
10
330
2
100
AcDbSymbolTableRecord
100
AcDbLayerTableRecord
  2
0
 70
     0
 62
     7
  6
Continuous
370
    -3
390
F
  0
LAYER
  5
7D
330
2
100
AcDbSymbolTableRecord
100
AcDbLayerTableRecord
  2
AM_5
 70
     0
 62
     3
  6
Continuous
370
    13
390
F
  0
LAYER
  5
7F
330
2
100
AcDbSymbolTableRecord
100
AcDbLayerTableRecord
  2
Defpoints
 70
     0
 62
     7
  6
Continuous
290
     0
370
    -3
390
F
  0
LAYER
  5
12B0
330
2
100
AcDbSymbolTableRecord
100
AcDbLayerTableRecord
  2
AM_CL
 70
     0
 62
     1
  6
Amconstr
370
    30
390
F
  0
LAYER
  5
12B1
330
2
100
AcDbSymbolTableRecord
100
AcDbLayerTableRecord
  2
AM_0
 70
     0
 62
     7
  6
Continuous
370
    30
390
F
  0
LAYER
  5
12B2
330
2
100
AcDbSymbolTableRecord
100
AcDbLayerTableRecord
  2
AM_4
 70
     0
 62
     3
  6
Continuous
370
    13
390
F
  0
LAYER
  5
1AFF
330
2
100
AcDbSymbolTableRecord
100
AcDbLayerTableRecord
  2
AM_7
 70
     0
 62
     4
  6
AM_ISO08W050
370
    13
390
F
  0
LAYER
  5
2953
330
2
100
AcDbSymbolTableRecord
100
AcDbLayerTableRecord
  2
AM_6
 70
     0
 62
     2
  6
Continuous
370
    30
390
F
  0
ENDTAB
  0
TABLE
  2
STYLE
  5
3
330
0
100
AcDbSymbolTable
 70
     4
  0
STYLE
  5
11
330
3
100
AcDbSymbolTableRecord
100
AcDbTextStyleTableRecord
  2
STANDARD
 70
     0
 40
0.0
 41
1.0
 50
0.0
 71
     0
 42
3.48
  3
ISOCP.SHX
  4
EXTFONT.SHX
  0
STYLE
  5
4A
330
3
100
AcDbSymbolTableRecord
100
AcDbTextStyleTableRecord
  2

 70
     1
 40
0.0
 41
1.0
 50
0.0
 71
     0
 42
2.5
  3
ltypeshp.shx
  4

  0
STYLE
  5
180
330
3
100
AcDbSymbolTableRecord
100
AcDbTextStyleTableRecord
  2
ACJISTS
 70
     0
 40
1.0
 41
1.0
 50
0.0
 71
     0
 42
2.5
  3
isocp.shx
  4
bigfont.shx
  0
STYLE
  5
187
330
3
100
AcDbSymbolTableRecord
100
AcDbTextStyleTableRecord
  2
ACJISGDT
 70
     0
 40
0.0
 41
1.0
 50
0.0
 71
     0
 42
2.5
  3
amgdt.shx
  4

  0
ENDTAB
  0
TABLE
  2
VIEW
  5
6
330
0
100
AcDbSymbolTable
 70
     6
  0
VIEW
  5
A30
330
6
100
AcDbSymbolTableRecord
100
AcDbViewTableRecord
  2
AM_VIEW1
 70
     0
 40
148.5
 10
107.8088054187192
 20
222.75
 41
215.6176108374384
 11
0.0
 21
0.0
 31
1.0
 12
0.0
 22
0.0
 32
0.0
 42
50.0
 43
0.0
 44
0.0
 50
0.0
 71
     0
281
     0
 72
     0
  0
VIEW
  5
A31
330
6
100
AcDbSymbolTableRecord
100
AcDbViewTableRecord
  2
AM_VIEW2
 70
     0
 40
148.5
 10
312.1911945812808
 20
222.75
 41
215.6176108374384
 11
0.0
 21
0.0
 31
1.0
 12
0.0
 22
0.0
 32
0.0
 42
50.0
 43
0.0
 44
0.0
 50
0.0
 71
     0
281
     0
 72
     0
  0
VIEW
  5
A32
330
6
100
AcDbSymbolTableRecord
100
AcDbViewTableRecord
  2
AM_VIEW3
 70
     0
 40
148.5
 10
107.8088054187192
 20
74.25
 41
215.6176108374384
 11
0.0
 21
0.0
 31
1.0
 12
0.0
 22
0.0
 32
0.0
 42
50.0
 43
0.0
 44
0.0
 50
0.0
 71
     0
281
     0
 72
     0
  0
VIEW
  5
A33
330
6
100
AcDbSymbolTableRecord
100
AcDbViewTableRecord
  2
AM_VIEW4
 70
     0
 40
148.5
 10
312.1911945812808
 20
74.25
 41
215.6176108374384
 11
0.0
 21
0.0
 31
1.0
 12
0.0
 22
0.0
 32
0.0
 42
50.0
 43
0.0
 44
0.0
 50
0.0
 71
     0
281
     0
 72
     0
  0
VIEW
  5
A34
330
6
100
AcDbSymbolTableRecord
100
AcDbViewTableRecord
  2
AM_VIEW5
 70
     0
 40
148.5
 10
210.0
 20
148.5
 41
215.6176108374384
 11
0.0
 21
0.0
 31
1.0
 12
0.0
 22
0.0
 32
0.0
 42
50.0
 43
0.0
 44
0.0
 50
0.0
 71
     0
281
     0
 72
     0
  0
VIEW
  5
A35
330
6
100
AcDbSymbolTableRecord
100
AcDbViewTableRecord
  2
AM_VIEW6
 70
     0
 40
296.99703
 10
210.0
 20
148.5
 41
431.2309093226602
 11
0.0
 21
0.0
 31
1.0
 12
0.0
 22
0.0
 32
0.0
 42
50.0
 43
0.0
 44
0.0
 50
0.0
 71
     0
281
     0
 72
     0
  0
ENDTAB
  0
TABLE
  2
UCS
  5
7
330
0
100
AcDbSymbolTable
 70
     0
  0
ENDTAB
  0
TABLE
  2
APPID
  5
9
330
0
100
AcDbSymbolTable
 70
    40
  0
APPID
  5
12
330
9
100
AcDbSymbolTableRecord
100
AcDbRegAppTableRecord
  2
ACAD
 70
     0
  0
APPID
  5
2C
330
9
100
AcDbSymbolTableRecord
100
AcDbRegAppTableRecord
  2
MCAD_NO_VIS
 70
     0
  0
APPID
  5
2D
330
9
100
AcDbSymbolTableRecord
100
AcDbRegAppTableRecord
  2
ACAD_TEMP_GRAPHIC
 70
     0
  0
APPID
  5
B9
330
9
100
AcDbSymbolTableRecord
100
AcDbRegAppTableRecord
  2
GENIUS_GENDTOL_13
 70
     0
  0
APPID
  5
359
330
9
100
AcDbSymbolTableRecord
100
AcDbRegAppTableRecord
  2
GENIUS_GENREC_14
 70
     0
  0
APPID
  5
35A
330
9
100
AcDbSymbolTableRecord
100
AcDbRegAppTableRecord
  2
GENIUS_GENODEF_13
 70
     0
  0
APPID
  5
35B
330
9
100
AcDbSymbolTableRecord
100
AcDbRegAppTableRecord
  2
GENIUS_GENOBJ-N-REC_13
 70
     0
  0
APPID
  5
667
330
9
100
AcDbSymbolTableRecord
100
AcDbRegAppTableRecord
  2
GENIUS_GENCFG_13
 70
     0
  0
APPID
  5
668
330
9
100
AcDbSymbolTableRecord
100
AcDbRegAppTableRecord
  2
GENIUS_GENCFG0_13
 70
     0
  0
APPID
  5
669
330
9
100
AcDbSymbolTableRecord
100
AcDbRegAppTableRecord
  2
GENIUS_GENCFG1_13
 70
     0
  0
APPID
  5
66A
330
9
100
AcDbSymbolTableRecord
100
AcDbRegAppTableRecord
  2
GENIUS_GENCFG2_13
 70
     0
  0
APPID
  5
66B
330
9
100
AcDbSymbolTableRecord
100
AcDbRegAppTableRecord
  2
GENIUS_GENCFG3_13
 70
     0
  0
APPID
  5
66C
330
9
100
AcDbSymbolTableRecord
100
AcDbRegAppTableRecord
  2
GENIUS_GENCFG4_13
 70
     0
  0
APPID
  5
A76
330
9
100
AcDbSymbolTableRecord
100
AcDbRegAppTableRecord
  2
GENIUS_GENBLLY_14
 70
     0
  0
APPID
  5
A77
330
9
100
AcDbSymbolTableRecord
100
AcDbRegAppTableRecord
  2
GENIUS_GENOBJ-N-CEN_13
 70
     0
  0
APPID
  5
A83
330
9
100
AcDbSymbolTableRecord
100
AcDbRegAppTableRecord
  2
GENIUS_GENTRA_14
 70
     0
  0
APPID
  5
A8D
330
9
100
AcDbSymbolTableRecord
100
AcDbRegAppTableRecord
  2
GENIUS_GENOBJ-N-TIT_13
 70
     0
  0
APPID
  5
A8E
330
9
100
AcDbSymbolTableRecord
100
AcDbRegAppTableRecord
  2
GENIUS_GENTITLE_13
 70
     0
  0
APPID
  5
A8F
330
9
100
AcDbSymbolTableRecord
100
AcDbRegAppTableRecord
  2
GENIUS_GENOENT_13
 70
     0
  0
APPID
  5
A90
330
9
100
AcDbSymbolTableRecord
100
AcDbRegAppTableRecord
  2
GENIUS_GENOREF_13
 70
     0
  0
APPID
  5
A91
330
9
100
AcDbSymbolTableRecord
100
AcDbRegAppTableRecord
  2
GENIUS_GENOLIS_13
 70
     0
  0
APPID
  5
A92
330
9
100
AcDbSymbolTableRecord
100
AcDbRegAppTableRecord
  2
GENIUS_GENZVEED_13
 70
     0
  0
APPID
  5
A93
330
9
100
AcDbSymbolTableRecord
100
AcDbRegAppTableRecord
  2
GENIUS_GENSCREG_15
 70
     0
  0
APPID
  5
A94
330
9
100
AcDbSymbolTableRecord
100
AcDbRegAppTableRecord
  2
GENIUS_GENOBJ-N-SDF_13
 70
     0
  0
APPID
  5
12B5
330
9
100
AcDbSymbolTableRecord
100
AcDbRegAppTableRecord
  2
GENIUS_GENOBJ-N-RSBK_13
 70
     0
  0
APPID
  5
12B6
330
9
100
AcDbSymbolTableRecord
100
AcDbRegAppTableRecord
  2
GENIUS_GENOBJ-N-LIB_13
 70
     0
  0
APPID
  5
12B7
330
9
100
AcDbSymbolTableRecord
100
AcDbRegAppTableRecord
  2
GENIUS_GENSCALE_13
 70
     0
  0
APPID
  5
12B8
330
9
100
AcDbSymbolTableRecord
100
AcDbRegAppTableRecord
  2
GENIUS_GENOBJ-N-HTC_13
 70
     0
  0
APPID
  5
12B9
330
9
100
AcDbSymbolTableRecord
100
AcDbRegAppTableRecord
  2
GENIUS_GENHATCH_13
 70
     0
  0
APPID
  5
1687
330
9
100
AcDbSymbolTableRecord
100
AcDbRegAppTableRecord
  2
BASE_TYPE
 70
     0
  0
APPID
  5
1ABF
330
9
100
AcDbSymbolTableRecord
100
AcDbRegAppTableRecord
  2
GENIUS_GENFIL_13
 70
     0
  0
APPID
  5
1AC0
330
9
100
AcDbSymbolTableRecord
100
AcDbRegAppTableRecord
  2
GENIUS_GENOBJ-N-CHA_13
 70
     0
  0
APPID
  5
1AE7
330
9
100
AcDbSymbolTableRecord
100
AcDbRegAppTableRecord
  2
GENIUS_GENOBJ-N-FIL_13
 70
     0
  0
APPID
  5
20E9
330
9
100
AcDbSymbolTableRecord
100
AcDbRegAppTableRecord
  2
GENIUS_GENDIMSH_14
 70
     0
  0
APPID
  5
C5AA
330
9
100
AcDbSymbolTableRecord
100
AcDbRegAppTableRecord
  2
AD_DRAW
 70
     0
  0
APPID
  5
C5AD
330
9
100
AcDbSymbolTableRecord
100
AcDbRegAppTableRecord
  2
ACATTRIBSERVICES
 70
     0
  0
APPID
  5
C5CB
330
9
100
AcDbSymbolTableRecord
100
AcDbRegAppTableRecord
  2
DESIGNERASSEMBLIES
 70
     0
  0
APPID
  5
C5DE
330
9
100
AcDbSymbolTableRecord
100
AcDbRegAppTableRecord
  2
ACADM_DIM_EDIT
 70
     0
  0
APPID
  5
C5DF
330
9
100
AcDbSymbolTableRecord
100
AcDbRegAppTableRecord
  2
AMDT_DM_ADJ
 70
     0
  0
APPID
  5
C5ED
330
9
100
AcDbSymbolTableRecord
100
AcDbRegAppTableRecord
  2
ACAD_PSEXT
 70
     0
  0
ENDTAB
  0
TABLE
  2
DIMSTYLE
  5
A
330
0
100
AcDbSymbolTable
 70
    10
100
AcDbDimStyleTable
  0
DIMSTYLE
105
58
330
A
100
AcDbSymbolTableRecord
100
AcDbDimStyleTableRecord
  2
AM_JIS
 70
     0
  4
"
 41
2.5
 42
0.0
 43
10.0
 44
1.0
 47
0.1
 48
0.1000000001
 73
     0
 74
     0
 77
     3
 78
     1
 79
     2
140
3.8
141
0.0
143
0.0393701
146
0.71
147
1.5
172
     1
176
   256
177
   256
178
     2
179
     2
271
     3
272
     3
275
     1
283
     0
284
     8
340
11
341
59
342
59
371
    -1
372
    -1
  0
DIMSTYLE
105
5F
330
A
100
AcDbSymbolTableRecord
100
AcDbDimStyleTableRecord
  2
AM_JIS$3
 70
     0
  4
"
 41
2.5
 42
0.0
 43
10.0
 44
1.0
 47
0.1
 48
0.1000000001
 73
     0
 77
     3
 78
     1
 79
     2
140
3.8
141
0.0
143
0.0393701
146
0.71
147
1.5
172
     1
176
   256
177
   256
178
     2
179
     2
271
     3
272
     3
275
     1
283
     0
284
     8
288
     1
289
     0
340
11
341
59
342
59
371
    -1
372
    -1
  0
DIMSTYLE
105
60
330
A
100
AcDbSymbolTableRecord
100
AcDbDimStyleTableRecord
  2
AM_JIS$4
 70
     0
  4
"
 41
2.5
 42
0.0
 43
10.0
 44
1.0
 47
0.1
 48
0.1000000001
 73
     0
 77
     3
 78
     1
 79
     2
140
3.8
141
0.0
143
0.0393701
146
0.71
147
1.5
172
     1
176
   256
177
   256
178
     2
179
     2
271
     3
272
     3
275
     1
283
     0
284
     8
288
     1
289
     0
340
11
341
59
342
59
371
    -1
372
    -1
  0
DIMSTYLE
105
61
330
A
100
AcDbSymbolTableRecord
100
AcDbDimStyleTableRecord
  2
AM_JIS$6
 70
     0
  4
"
 41
2.5
 42
0.0
 43
10.0
 44
1.0
 47
0.1
 48
0.1000000001
 73
     0
 74
     0
 78
     1
 79
     2
140
3.8
141
0.0
143
0.0393701
146
0.71
147
1.5
172
     1
176
   256
177
   256
178
     2
179
     2
271
     3
272
     3
275
     1
283
     0
284
     8
340
11
341
59
342
59
371
    -1
372
    -1
  0
DIMSTYLE
105
62
330
A
100
AcDbSymbolTableRecord
100
AcDbDimStyleTableRecord
  2
AM_JIS$7
 70
     0
  4
"
 41
2.5
 42
0.0
 43
10.0
 44
1.0
 47
0.1
 48
0.1000000001
 73
     0
 74
     0
 77
     3
 78
     1
 79
     2
140
5.0
141
0.0
143
0.0393701
146
0.71
147
1.5
172
     1
176
   256
177
   256
178
     2
179
     2
271
     3
272
     3
275
     1
283
     0
284
     8
340
11
341
59
342
59
371
    -1
372
    -1
  0
DIMSTYLE
105
63
330
A
100
AcDbSymbolTableRecord
100
AcDbDimStyleTableRecord
  2
AM_JIS$SF
 70
     0
  4
"
 41
2.5
 42
1.0
 43
10.0
 44
1.0
 47
0.1
 48
0.1
 73
     0
 74
     0
 75
     1
 76
     1
 77
     3
 78
     8
 79
     2
140
3.5
141
0.0
143
0.0393701
146
0.71
147
1.5
176
   256
177
   256
178
     2
271
     2
272
     3
274
     4
340
11
341
59
342
59
343
59
344
59
371
    -1
372
    -1
  0
DIMSTYLE
105
68
330
A
100
AcDbSymbolTableRecord
100
AcDbDimStyleTableRecord
  2
AM_JIS$SH
 70
     0
  4
"
 41
2.5
 42
1.0
 43
10.0
 44
1.0
 47
0.1
 48
0.1
 73
     0
 74
     0
 75
     1
 76
     1
 77
     3
 78
     8
 79
     2
140
3.5
141
0.0
143
0.0393701
144
2.0
146
0.71
147
1.5
173
     1
176
   256
177
   256
178
     2
271
     2
272
     3
274
     4
340
11
341
59
342
59
343
64
344
59
371
    -1
372
    -1
  0
DIMSTYLE
105
65F
330
A
100
AcDbSymbolTableRecord
100
AcDbDimStyleTableRecord
  2
STANDARD
 70
     0
340
11
  0
DIMSTYLE
105
1B97
102
{ACAD_REACTORS
330
C31F
330
C34F
330
C790
330
C832
330
C85D
102
}
330
A
100
AcDbSymbolTableRecord
100
AcDbDimStyleTableRecord
  2
AM_JIS$0
 70
     0
  4
"
 41
2.5
 42
0.0
 43
10.0
 44
1.0
 47
0.1
 48
0.1000000001
 73
     0
 74
     0
 77
     3
 78
     1
 79
     2
140
3.8
141
0.0
143
0.0393701
146
0.71
147
1.5
172
     1
176
     3
177
     3
178
     2
271
     3
272
     3
275
     1
283
     0
284
     8
289
     0
340
11
341
59
342
59
371
    13
372
    13
  0
DIMSTYLE
105
1B98
102
{ACAD_REACTORS
330
C962
102
}
330
A
100
AcDbSymbolTableRecord
100
AcDbDimStyleTableRecord
  2
AM_JIS$2
 70
     0
  4
"
 41
2.5
 42
0.0
 43
10.0
 44
1.0
 47
0.1
 48
0.1000000001
 73
     0
 74
     0
 77
     3
 78
     1
 79
     2
140
3.8
141
0.0
143
0.0393701
146
0.71
147
1.5
172
     1
176
     3
177
     3
178
     2
271
     3
272
     3
275
     1
283
     0
284
     8
289
     0
340
11
341
59
342
59
371
    13
372
    13
  0
ENDTAB
  0
TABLE
  2
BLOCK_RECORD
  5
1
330
0
100
AcDbSymbolTable
 70
    10
  0
BLOCK_RECORD
  5
1F
102
{ACAD_XDICTIONARY
360
165
102
}
330
1
100
AcDbSymbolTableRecord
100
AcDbBlockTableRecord
  2
*Model_Space
340
22
  0
BLOCK_RECORD
  5
1B
330
1
100
AcDbSymbolTableRecord
100
AcDbBlockTableRecord
  2
*Paper_Space
340
1E
  0
BLOCK_RECORD
  5
23
330
1
100
AcDbSymbolTableRecord
100
AcDbBlockTableRecord
  2
*Paper_Space0
340
26
  0
BLOCK_RECORD
  5
59
330
1
100
AcDbSymbolTableRecord
100
AcDbBlockTableRecord
  2
_Open30
340
0
102
{BLKREFS
331
CA5D
331
CA5E
331
CA67
331
CA68
331
CA6F
331
CA70
331
CA78
331
CA79
331
CA81
331
CA82
331
CA89
331
CA8A
102
}
  0
BLOCK_RECORD
  5
64
330
1
100
AcDbSymbolTableRecord
100
AcDbBlockTableRecord
  2
GENAXEH
340
0
  0
BLOCK_RECORD
  5
C3DB
330
1
100
AcDbSymbolTableRecord
100
AcDbBlockTableRecord
  2
*D3
340
0
  0
BLOCK_RECORD
  5
C411
330
1
100
AcDbSymbolTableRecord
100
AcDbBlockTableRecord
  2
*D4
340
0
  0
BLOCK_RECORD
  5
C5C2
330
1
100
AcDbSymbolTableRecord
100
AcDbBlockTableRecord
  2
*U5
340
0
  0
BLOCK_RECORD
  5
C791
330
1
100
AcDbSymbolTableRecord
100
AcDbBlockTableRecord
  2
*D6
340
0
  0
BLOCK_RECORD
  5
C833
330
1
100
AcDbSymbolTableRecord
100
AcDbBlockTableRecord
  2
*D7
340
0
  0
BLOCK_RECORD
  5
C85E
330
1
100
AcDbSymbolTableRecord
100
AcDbBlockTableRecord
  2
*D8
340
0
  0
BLOCK_RECORD
  5
C963
330
1
100
AcDbSymbolTableRecord
100
AcDbBlockTableRecord
  2
*D9
340
0
  0
ENDTAB
  0
ENDSEC
  0
SECTION
  2
BLOCKS
  0
BLOCK
  5
20
330
1F
100
AcDbEntity
  8
0
100
AcDbBlockBegin
  2
*Model_Space
 70
     0
 71
     0
 10
0.0
 20
0.0
 30
0.0
  3
*Model_Space
  1

  0
ENDBLK
  5
21
330
1F
100
AcDbEntity
  8
0
100
AcDbBlockEnd
  0
BLOCK
  5
1C
330
1B
100
AcDbEntity
 67
     1
  8
0
100
AcDbBlockBegin
  2
*Paper_Space
 70
     0
 71
     0
 10
0.0
 20
0.0
 30
0.0
  3
*Paper_Space
  1

  0
ENDBLK
  5
1D
330
1B
100
AcDbEntity
 67
     1
  8
0
100
AcDbBlockEnd
  0
BLOCK
  5
24
330
23
100
AcDbEntity
  8
0
100
AcDbBlockBegin
  2
*Paper_Space0
 70
     0
 71
     0
 10
0.0
 20
0.0
 30
0.0
  3
*Paper_Space0
  1

  0
ENDBLK
  5
25
330
23
100
AcDbEntity
  8
0
100
AcDbBlockEnd
  0
BLOCK
  5
5D
330
59
100
AcDbEntity
  8
0
100
AcDbBlockBegin
  2
_Open30
 70
     0
 71
     0
 10
0.0
 20
0.0
 30
0.0
  3
_Open30
  1

  0
LINE
  5
5A
330
59
100
AcDbEntity
  8
0
 62
     0
370
    -2
100
AcDbLine
 10
-1.0
 20
0.26794919
 30
0.0
 11
0.0
 21
0.0
 31
0.0
  0
LINE
  5
5B
330
59
100
AcDbEntity
  8
0
 62
     0
370
    -2
100
AcDbLine
 10
0.0
 20
0.0
 30
0.0
 11
-1.0
 21
-0.26794919
 31
0.0
  0
LINE
  5
5C
330
59
100
AcDbEntity
  8
0
 62
     0
370
    -2
100
AcDbLine
 10
0.0
 20
0.0
 30
0.0
 11
-1.0
 21
0.0
 31
0.0
  0
ENDBLK
  5
5E
330
59
100
AcDbEntity
  8
0
100
AcDbBlockEnd
  0
BLOCK
  5
66
330
64
100
AcDbEntity
  8
0
100
AcDbBlockBegin
  2
GENAXEH
 70
     0
 71
     0
 10
0.0
 20
0.0
 30
0.0
  3
GENAXEH
  1

  0
LINE
  5
65
330
64
100
AcDbEntity
  8
0
100
AcDbLine
 10
-1.0
 20
0.0
 30
0.0
 11
1.0
 21
0.0
 31
0.0
  0
ENDBLK
  5
67
330
64
100
AcDbEntity
  8
0
100
AcDbBlockEnd
  0
BLOCK
  5
C3E5
330
C3DB
100
AcDbEntity
  8
0
100
AcDbBlockBegin
  2
*D3
 70
     1
 71
     0
 10
0.0
 20
0.0
 30
0.0
  3
*D3
  1

  0
LINE
  5
CA5A
330
C3DB
100
AcDbEntity
  8
AM_5
 62
     3
370
    13
100
AcDbLine
 10
0.0
 20
0.0
 30
0.0
 11
-0.0000000000000018
 21
-28.85448199489781
 31
0.0
  0
LINE
  5
CA5B
330
C3DB
100
AcDbEntity
  8
AM_5
 62
     3
370
    13
100
AcDbLine
 10
85.0
 20
-0.1600000000000037
 30
0.0
 11
85.0
 21
-28.85448199489781
 31
0.0
  0
LINE
  5
CA5C
330
C3DB
100
AcDbEntity
  8
AM_5
 62
     3
370
    13
100
AcDbLine
 10
2.499999999999998
 20
-27.85448199489781
 30
0.0
 11
82.5
 21
-27.85448199489781
 31
0.0
  0
INSERT
  5
CA5D
330
C3DB
100
AcDbEntity
  8
AM_5
 62
     3
370
    13
100
AcDbBlockReference
  2
_Open30
 10
-0.0000000000000017
 20
-27.85448199489781
 30
0.0
 41
2.5
 42
2.5
 43
2.5
 50
180.0
  0
INSERT
  5
CA5E
330
C3DB
100
AcDbEntity
  8
AM_5
 62
     3
370
    13
100
AcDbBlockReference
  2
_Open30
 10
85.0
 20
-27.85448199489781
 30
0.0
 41
2.5
 42
2.5
 43
2.5
  0
MTEXT
  5
CA5F
330
C3DB
100
AcDbEntity
  8
AM_5
 62
     2
100
AcDbMText
 10
42.5
 20
-24.45448199489781
 30
0.0
 40
3.8
 41
0.0
 71
     5
 72
     1
  1
85
 73
     1
 44
1.0
  0
POINT
  5
CA60
330
C3DB
100
AcDbEntity
  8
Defpoints
 62
     0
100
AcDbPoint
 10
0.0
 20
0.0
 30
0.0
  0
POINT
  5
CA61
330
C3DB
100
AcDbEntity
  8
Defpoints
 62
     0
100
AcDbPoint
 10
85.0
 20
-0.1600000000000037
 30
0.0
  0
POINT
  5
CA62
330
C3DB
100
AcDbEntity
  8
Defpoints
 62
     0
100
AcDbPoint
 10
85.0
 20
-27.85448199489781
 30
0.0
  0
ENDBLK
  5
C3E6
330
C3DB
100
AcDbEntity
  8
0
100
AcDbBlockEnd
  0
BLOCK
  5
C41B
330
C411
100
AcDbEntity
  8
0
100
AcDbBlockBegin
  2
*D4
 70
     1
 71
     0
 10
0.0
 20
0.0
 30
0.0
  3
*D4
  1

  0
LINE
  5
CA63
330
C411
100
AcDbEntity
  8
AM_5
 62
     3
370
    13
100
AcDbLine
 10
12.16693758322595
 20
14.84
 30
0.0
 11
-16.16943798590949
 21
14.84000000000001
 31
0.0
  0
LINE
  5
CA64
330
C411
100
AcDbEntity
  8
AM_5
 62
     3
370
    13
100
AcDbLine
 10
-7.619701229530733
 20
0.0
 30
0.0
 11
-16.1694379859095
 21
0.0000000000000024
 31
0.0
  0
LINE
  5
CA65
330
C411
100
AcDbEntity
  8
AM_5
 62
     3
370
    13
100
AcDbLine
 10
-15.16943798590949
 20
12.34000000000001
 30
0.0
 11
-15.1694379859095
 21
2.500000000000002
 31
0.0
  0
MTEXT
  5
CA66
330
C411
100
AcDbEntity
  8
AM_5
 62
     2
100
AcDbMText
 10
-20.3962319304519
 20
7.604894078925131
 30
0.0
 40
3.8
 41
0.0
 71
     5
 72
     1
  1
(14.84)
 11
6.123031769111886E-17
 21
1.0
 31
0.0
 73
     1
 44
1.0
  0
INSERT
  5
CA67
330
C411
100
AcDbEntity
  8
AM_5
 62
     3
370
    13
100
AcDbBlockReference
  2
_Open30
 10
-15.16943798590949
 20
14.84000000000001
 30
0.0
 41
2.5
 42
2.5
 43
2.5
 50
90.0
  0
INSERT
  5
CA68
330
C411
100
AcDbEntity
  8
AM_5
 62
     3
370
    13
100
AcDbBlockReference
  2
_Open30
 10
-15.1694379859095
 20
0.0000000000000021
 30
0.0
 41
2.5
 42
2.5
 43
2.5
 50
270.0
  0
POINT
  5
CA69
330
C411
100
AcDbEntity
  8
Defpoints
 62
     0
100
AcDbPoint
 10
12.16693758322595
 20
14.84
 30
0.0
  0
POINT
  5
CA6A
330
C411
100
AcDbEntity
  8
Defpoints
 62
     0
100
AcDbPoint
 10
-7.619701229530733
 20
0.0
 30
0.0
  0
POINT
  5
CA6B
330
C411
100
AcDbEntity
  8
Defpoints
 62
     0
100
AcDbPoint
 10
-15.1694379859095
 20
0.0000000000000021
 30
0.0
  0
ENDBLK
  5
C41C
330
C411
100
AcDbEntity
  8
0
100
AcDbBlockEnd
  0
BLOCK
  5
C5C3
330
C5C2
100
AcDbEntity
  8
0
100
AcDbBlockBegin
  2
*U5
 70
     1
 71
     0
 10
0.0
 20
0.0
 30
0.0
  3
*U5
  1

  0
ENDBLK
  5
C5C4
330
C5C2
100
AcDbEntity
  8
0
100
AcDbBlockEnd
  0
BLOCK
  5
C7B0
330
C791
100
AcDbEntity
  8
0
100
AcDbBlockBegin
  2
*D6
 70
     1
 71
     0
 10
0.0
 20
0.0
 30
0.0
  3
*D6
  1

  0
LINE
  5
CA6C
330
C791
100
AcDbEntity
  8
AM_5
 62
     3
370
    13
100
AcDbLine
 10
0.0
 20
-55.70896398979556
 30
0.0
 11
-13.0
 21
-55.70896398979556
 31
0.0
  0
LINE
  5
CA6D
330
C791
100
AcDbEntity
  8
AM_5
 62
     3
370
    13
100
AcDbLine
 10
1.280229066095671
 20
-67.70896398979556
 30
0.0
 11
-13.0
 21
-67.70896398979556
 31
0.0
  0
LINE
  5
CA6E
330
C791
100
AcDbEntity
  8
AM_5
 62
     3
370
    13
100
AcDbLine
 10
-12.0
 20
-58.20896398979556
 30
0.0
 11
-12.0
 21
-65.20896398979556
 31
0.0
  0
INSERT
  5
CA6F
330
C791
100
AcDbEntity
  8
AM_5
 62
     3
370
    13
100
AcDbBlockReference
  2
_Open30
 10
-12.0
 20
-55.70896398979556
 30
0.0
 41
2.5
 42
2.5
 43
2.5
 50
90.0
  0
INSERT
  5
CA70
330
C791
100
AcDbEntity
  8
AM_5
 62
     3
370
    13
100
AcDbBlockReference
  2
_Open30
 10
-12.0
 20
-67.70896398979556
 30
0.0
 41
2.5
 42
2.5
 43
2.5
 50
270.0
  0
MTEXT
  5
CA71
330
C791
100
AcDbEntity
  8
AM_5
 62
     2
100
AcDbMText
 10
-15.40037401574802
 20
-61.70896398979556
 30
0.0
 40
3.8
 41
0.0
 71
     5
 72
     1
  1
12
 11
6.123031769111886E-17
 21
1.0
 31
0.0
 73
     1
 44
1.0
  0
POINT
  5
CA72
330
C791
100
AcDbEntity
  8
Defpoints
 62
     0
100
AcDbPoint
 10
0.0
 20
-55.70896398979556
 30
0.0
  0
POINT
  5
CA73
330
C791
100
AcDbEntity
  8
Defpoints
 62
     0
100
AcDbPoint
 10
1.280229066095671
 20
-67.70896398979556
 30
0.0
  0
POINT
  5
CA74
330
C791
100
AcDbEntity
  8
Defpoints
 62
     0
100
AcDbPoint
 10
-12.0
 20
-67.70896398979556
 30
0.0
  0
ENDBLK
  5
C7B1
330
C791
100
AcDbEntity
  8
0
100
AcDbBlockEnd
  0
BLOCK
  5
C87D
330
C833
100
AcDbEntity
  8
0
100
AcDbBlockBegin
  2
*D7
 70
     1
 71
     0
 10
0.0
 20
0.0
 30
0.0
  3
*D7
  1

  0
LINE
  5
CA75
330
C833
100
AcDbEntity
  8
AM_5
 62
     3
370
    13
100
AcDbLine
 10
85.0
 20
-67.70896398979558
 30
0.0
 11
98.0
 21
-67.70896398979559
 31
0.0
  0
LINE
  5
CA76
330
C833
100
AcDbEntity
  8
AM_5
 62
     3
370
    13
100
AcDbLine
 10
85.0
 20
-55.70896398979558
 30
0.0
 11
98.0
 21
-55.70896398979558
 31
0.0
  0
LINE
  5
CA77
330
C833
100
AcDbEntity
  8
AM_5
 62
     3
370
    13
100
AcDbLine
 10
97.0
 20
-65.20896398979559
 30
0.0
 11
97.0
 21
-58.20896398979558
 31
0.0
  0
INSERT
  5
CA78
330
C833
100
AcDbEntity
  8
AM_5
 62
     3
370
    13
100
AcDbBlockReference
  2
_Open30
 10
97.0
 20
-67.70896398979559
 30
0.0
 41
2.5
 42
2.5
 43
2.5
 50
270.0
  0
INSERT
  5
CA79
330
C833
100
AcDbEntity
  8
AM_5
 62
     3
370
    13
100
AcDbBlockReference
  2
_Open30
 10
97.0
 20
-55.70896398979558
 30
0.0
 41
2.5
 42
2.5
 43
2.5
 50
90.0
  0
MTEXT
  5
CA7A
330
C833
100
AcDbEntity
  8
AM_5
 62
     2
100
AcDbMText
 10
93.59962598425199
 20
-61.70896398979557
 30
0.0
 40
3.8
 41
0.0
 71
     5
 72
     1
  1
12
 11
6.123031769111886E-17
 21
1.0
 31
0.0
 73
     1
 44
1.0
  0
POINT
  5
CA7B
330
C833
100
AcDbEntity
  8
Defpoints
 62
     0
100
AcDbPoint
 10
85.0
 20
-67.70896398979558
 30
0.0
  0
POINT
  5
CA7C
330
C833
100
AcDbEntity
  8
Defpoints
 62
     0
100
AcDbPoint
 10
85.0
 20
-55.70896398979558
 30
0.0
  0
POINT
  5
CA7D
330
C833
100
AcDbEntity
  8
Defpoints
 62
     0
100
AcDbPoint
 10
97.0
 20
-55.70896398979558
 30
0.0
  0
ENDBLK
  5
C87E
330
C833
100
AcDbEntity
  8
0
100
AcDbBlockEnd
  0
BLOCK
  5
C87F
330
C85E
100
AcDbEntity
  8
0
100
AcDbBlockBegin
  2
*D8
 70
     1
 71
     0
 10
0.0
 20
0.0
 30
0.0
  3
*D8
  1

  0
LINE
  5
CA7E
330
C85E
100
AcDbEntity
  8
AM_5
 62
     3
370
    13
100
AcDbLine
 10
85.0
 20
-0.1600000000000037
 30
0.0
 11
98.0
 21
-0.1600000000000074
 31
0.0
  0
LINE
  5
CA7F
330
C85E
100
AcDbEntity
  8
AM_5
 62
     3
370
    13
100
AcDbLine
 10
85.0
 20
14.83999999999999
 30
0.0
 11
98.0
 21
14.83999999999999
 31
0.0
  0
LINE
  5
CA80
330
C85E
100
AcDbEntity
  8
AM_5
 62
     3
370
    13
100
AcDbLine
 10
97.0
 20
2.339999999999993
 30
0.0
 11
97.0
 21
12.33999999999999
 31
0.0
  0
INSERT
  5
CA81
330
C85E
100
AcDbEntity
  8
AM_5
 62
     3
370
    13
100
AcDbBlockReference
  2
_Open30
 10
97.0
 20
-0.1600000000000071
 30
0.0
 41
2.5
 42
2.5
 43
2.5
 50
270.0
  0
INSERT
  5
CA82
330
C85E
100
AcDbEntity
  8
AM_5
 62
     3
370
    13
100
AcDbBlockReference
  2
_Open30
 10
97.0
 20
14.83999999999999
 30
0.0
 41
2.5
 42
2.5
 43
2.5
 50
90.0
  0
MTEXT
  5
CA83
330
C85E
100
AcDbEntity
  8
AM_5
 62
     2
100
AcDbMText
 10
93.59999999999999
 20
7.340000000000008
 30
0.0
 40
3.8
 41
0.0
 71
     5
 72
     1
  1
15
 11
6.123031769111886E-17
 21
1.0
 31
0.0
 73
     1
 44
1.0
  0
POINT
  5
CA84
330
C85E
100
AcDbEntity
  8
Defpoints
 62
     0
100
AcDbPoint
 10
85.0
 20
-0.1600000000000037
 30
0.0
  0
POINT
  5
CA85
330
C85E
100
AcDbEntity
  8
Defpoints
 62
     0
100
AcDbPoint
 10
85.0
 20
14.83999999999999
 30
0.0
  0
POINT
  5
CA86
330
C85E
100
AcDbEntity
  8
Defpoints
 62
     0
100
AcDbPoint
 10
97.0
 20
14.83999999999999
 30
0.0
  0
ENDBLK
  5
C880
330
C85E
100
AcDbEntity
  8
0
100
AcDbBlockEnd
  0
BLOCK
  5
C9A8
330
C963
100
AcDbEntity
  8
0
100
AcDbBlockBegin
  2
*D9
 70
     1
 71
     0
 10
0.0
 20
0.0
 30
0.0
  3
*D9
  1

  0
LINE
  5
CA87
330
C963
100
AcDbEntity
  8
AM_5
 62
     3
370
    13
100
AcDbLine
 10
11.57036634044368
 20
0.6047638016354417
 30
0.0
 11
17.8637926172186
 21
0.9345882968827031
 31
0.0
  0
ARC
  5
CA88
330
C963
100
AcDbEntity
  8
AM_5
 62
     3
370
    13
100
AcDbCircle
 10
-0.0000000000000003
 20
-0.0016134037583903
 30
0.0
 40
16.88830792152453
100
AcDbArc
 50
278.4893382027623
 51
354.5106617972375
  0
INSERT
  5
CA89
330
C963
100
AcDbEntity
  8
AM_5
 62
     3
370
    13
100
AcDbBlockReference
  2
_Open30
 10
-0.0000000000000018
 20
-16.88992132528291
 30
0.0
 41
2.5
 42
2.5
 43
2.5
 50
184.2446691013811
  0
INSERT
  5
CA8A
330
C963
100
AcDbEntity
  8
AM_5
 62
     3
370
    13
100
AcDbBlockReference
  2
_Open30
 10
16.86516308246403
 20
0.88225234063977
 30
0.0
 41
2.5
 42
2.5
 43
2.5
 50
88.75533089861851
  0
MTEXT
  5
CA8B
330
C963
100
AcDbEntity
  8
AM_5
 62
     2
100
AcDbMText
 10
9.784072874595877
 20
-9.286351879906139
 30
0.0
 40
3.8
 41
0.0
 71
     5
 72
     1
  1
93°
 11
0.6883545756937555
 21
0.7253743710122862
 31
0.0
 73
     1
 44
1.0
  0
POINT
  5
CA8C
330
C963
100
AcDbEntity
  8
Defpoints
 62
     0
100
AcDbPoint
 10
8.698121600390179
 20
-14.47771871827769
 30
0.0
  0
POINT
  5
CA8D
330
C963
100
AcDbEntity
  8
Defpoints
 62
     0
100
AcDbPoint
 10
0.0
 20
-55.70896398979556
 30
0.0
  0
POINT
  5
CA8E
330
C963
100
AcDbEntity
  8
Defpoints
 62
     0
100
AcDbPoint
 10
11.57036634044368
 20
0.6047638016354417
 30
0.0
  0
POINT
  5
CA8F
330
C963
100
AcDbEntity
  8
Defpoints
 62
     0
100
AcDbPoint
 10
0.0315700786873094
 20
0.0000411139573941
 30
0.0
  0
POINT
  5
CA90
330
C963
100
AcDbEntity
  8
Defpoints
 62
     0
100
AcDbPoint
 10
0.0
 20
0.0
 30
0.0
  0
ENDBLK
  5
C9A9
330
C963
100
AcDbEntity
  8
0
100
AcDbBlockEnd
  0
ENDSEC
  0
SECTION
  2
ENTITIES
  0
LINE
  5
C318
330
1F
100
AcDbEntity
  8
AM_CL
 62
     0
370
    40
100
AcDbLine
 10
12.16693758322595
 20
14.84
 30
0.0
 11
85.0
 21
14.83999999999999
 31
0.0
  0
LINE
  5
C31A
330
1F
100
AcDbEntity
  8
AM_CL
 62
     0
370
    40
100
AcDbLine
 10
21.0
 20
-55.70896398979556
 30
0.0
 11
85.0
 21
-55.70896398979558
 31
0.0
  0
LINE
  5
C31B
330
1F
100
AcDbEntity
  8
AM_CL
 62
     0
370
    40
100
AcDbLine
 10
85.0
 20
-67.70896398979558
 30
0.0
 11
1.280229066095671
 21
-67.70896398979556
 31
0.0
  0
DIMENSION
  5
C31F
330
1F
100
AcDbEntity
  8
AM_5
100
AcDbDimension
  2
*D3
 10
85.0
 20
-27.85448199489781
 30
0.0
 11
42.5
 21
-24.45448199489781
 31
0.0
 70
    32
  1
85
 71
     5
 42
85.0
  3
AM_JIS$0
100
AcDbAlignedDimension
 13
0.0
 23
0.0
 33
0.0
 14
85.0
 24
-0.1600000000000037
 34
0.0
100
AcDbRotatedDimension
  0
DIMENSION
  5
C34F
330
1F
100
AcDbEntity
  8
AM_5
100
AcDbDimension
  2
*D4
 10
-15.1694379859095
 20
0.0000000000000021
 30
0.0
 11
-20.3962319304519
 21
7.604894078925131
 31
0.0
 70
   160
  1
(<>)
 71
     5
 42
14.84000000000001
  3
AM_JIS$0
100
AcDbAlignedDimension
 13
12.16693758322595
 23
14.84
 33
0.0
 14
-7.619701229530733
 24
0.0
 34
0.0
 50
270.0
100
AcDbRotatedDimension
1001
GENIUS_GENDTOL_13
1000

1000
h7
1000

1040
0.0
1001
ACAD
1000
DSTYLE
1002
{
1070
   271
1070
     2
1070
   279
1070
     2
1002
}
  0
LINE
  5
C350
330
1F
100
AcDbEntity
  8
AM_0
100
AcDbLine
 10
8.893361556920695
 20
12.94999999999999
 30
0.0
 11
12.16693758322595
 21
14.84
 31
0.0
  0
LINE
  5
C353
330
1F
100
AcDbEntity
  8
AM_CL
 62
     0
370
    40
100
AcDbLine
 10
21.0
 20
14.84
 30
0.0
 11
21.0
 21
-0.1599999999999966
 31
0.0
  0
LINE
  5
C370
330
1F
100
AcDbEntity
  8
AM_CL
 62
     0
370
    40
100
AcDbLine
 10
21.0
 20
-56.00896398979558
 30
0.0
 11
11.99389427479036
 21
-56.00896398979558
 31
0.0
  0
LINE
  5
C371
330
1F
100
AcDbEntity
  8
AM_CL
 62
     0
370
    40
100
AcDbLine
 10
17.72181807551567
 20
-55.70896398979556
 30
0.0
 11
0.0
 21
-55.70896398979556
 31
0.0
  0
LINE
  5
C372
330
1F
100
AcDbEntity
  8
AM_0
 62
     3
370
    13
100
AcDbLine
 10
11.56879626175635
 20
-55.95329438263505
 30
0.0
 11
11.57036634044363
 21
-55.70896398979556
 31
0.0
  0
LINE
  5
C373
330
1F
100
AcDbEntity
  8
AM_0
 62
     3
370
    13
100
AcDbLine
 10
11.59423770464105
 20
-55.70896398979556
 30
0.0
 11
11.56879626175635
 21
-55.95329438263505
 31
0.0
  0
LINE
  5
C375
330
1F
100
AcDbEntity
  8
AM_CL
 62
     0
370
    40
100
AcDbLine
 10
0.0300000000000296
 20
-55.95329438263505
 30
0.0
 11
0.0
 21
-55.70896398979556
 31
0.0
  0
LINE
  5
C376
330
1F
100
AcDbEntity
  8
AM_CL
 62
     0
370
    40
100
AcDbLine
 10
1.280229066095671
 20
-59.67896398979559
 30
0.0
 11
1.280229066095671
 21
-67.70896398979556
 31
0.0
  0
LINE
  5
C377
330
1F
100
AcDbEntity
  8
AM_CL
 62
     0
370
    40
100
AcDbLine
 10
15.37908294145234
 20
-56.00896398979558
 30
0.0
 11
15.37908294145234
 21
-67.70896398979556
 31
0.0
  0
LINE
  5
C378
330
1F
100
AcDbEntity
  8
AM_CL
 62
     0
370
    40
100
AcDbLine
 10
13.96422861134465
 20
-56.00896398979558
 30
0.0
 11
13.96422861134465
 21
-67.70896398979556
 31
0.0
  0
LINE
  5
C379
330
1F
100
AcDbEntity
  8
AM_CL
 62
     0
370
    40
100
AcDbLine
 10
0.8836166729018373
 20
-59.67896398979559
 30
0.0
 11
11.74391723580243
 21
-59.67896398979559
 31
0.0
  0
LINE
  5
C37A
330
1F
100
AcDbEntity
  8
AM_CL
 62
     0
370
    40
100
AcDbLine
 10
0.0300000000000296
 20
-55.95329438263505
 30
0.0
 11
0.8836166729018373
 21
-59.67896398979559
 31
0.0
  0
LINE
  5
C37B
330
1F
100
AcDbEntity
  8
AM_0
100
AcDbLine
 10
11.30704544166986
 20
-59.67896398979559
 30
0.0
 11
11.56879626175635
 21
-55.95329438263505
 31
0.0
  0
LINE
  5
C37C
330
1F
100
AcDbEntity
  8
AM_CL
 62
     0
370
    40
100
AcDbLine
 10
11.74391723580243
 20
-57.67896398979553
 30
0.0
 11
11.74391723580243
 21
-59.67896398979559
 31
0.0
  0
LINE
  5
C37D
330
1F
100
AcDbEntity
  8
AM_CL
 62
     0
370
    40
100
AcDbLine
 10
11.99389427479036
 20
-56.00896398979558
 30
0.0
 11
11.74391723580243
 21
-57.67896398979553
 31
0.0
  0
LINE
  5
C37E
330
1F
100
AcDbEntity
  8
AM_0
 62
     3
370
    13
100
AcDbLine
 10
17.7172595184004
 20
-55.70896398979556
 30
0.0
 11
17.69181807551564
 21
-55.95329438263505
 31
0.0
  0
LINE
  5
C37F
330
1F
100
AcDbEntity
  8
AM_CL
 62
     0
370
    40
100
AcDbLine
 10
17.69181807551564
 20
-55.95329438263505
 30
0.0
 11
17.72181807551567
 21
-55.70896398979556
 31
0.0
  0
LINE
  5
C380
330
1F
100
AcDbEntity
  8
AM_CL
 62
     0
370
    40
100
AcDbLine
 10
21.0
 20
-55.70896398979556
 30
0.0
 11
21.0
 21
-56.00896398979558
 31
0.0
  0
LINE
  5
C382
330
1F
100
AcDbEntity
  8
AM_CL
 62
     0
370
    40
100
AcDbLine
 10
17.69181807551564
 20
-55.95329438263505
 30
0.0
 11
17.67906318582959
 21
-56.00896398979555
 31
0.0
  0
LINE
  5
C383
330
1F
100
AcDbEntity
  8
AM_CL
 62
     0
370
    40
100
AcDbLine
 10
15.44583231183651
 20
11.45506128003762
 30
0.0
 11
13.37903328864451
 21
10.23762361548355
 31
0.0
  0
ARC
  5
C384
330
1F
100
AcDbEntity
  8
AM_CL
 62
     0
370
    40
100
AcDbCircle
 10
16.46090903775792
 20
9.731802959154575
 30
0.0
 40
2.0
100
AcDbArc
 50
300.4999999999997
 51
120.5
  0
LINE
  5
C387
330
1F
100
AcDbEntity
  8
AM_CL
 62
     0
370
    40
100
AcDbLine
 10
17.7172595184004
 20
10.41770834038229
 30
0.0
 11
11.59423770464105
 21
0.6188251097510715
 31
0.0
  0
LINE
  5
C388
330
1F
100
AcDbEntity
  8
AM_CL
 62
     0
370
    40
100
AcDbLine
 10
6.151451735071987
 20
9.858842116673685
 30
0.0
 11
17.69024799682836
 21
10.46356480435187
 31
0.0
  0
LINE
  5
C38A
330
1F
100
AcDbEntity
  8
AM_4
370
    13
100
AcDbLine
 10
-7.619701229530733
 20
0.0
 30
0.0
 11
0.0299999999999727
 21
0.0
 31
0.0
  0
LINE
  5
C38C
330
1F
100
AcDbEntity
  8
AM_CL
 62
     0
370
    40
100
AcDbLine
 10
6.127580370874625
 20
9.844780808558056
 30
0.0
 11
0.0045585571152742
 21
0.0458975779270077
 31
0.0
  0
LINE
  5
C38D
330
1F
100
AcDbEntity
  8
AM_7
  6
AM_ISO08W050x2
100
AcDbLine
 10
8.860909037757892
 20
10.38180295915456
 30
0.0
 11
8.860909037757835
 21
0.0818029591546008
 31
0.0
1001
GENIUS_GENODEF_13
1002
{
1000
HIER
1070
     0
1002
}
1002
{
1000
MANEDIT
1070
     0
1002
}
1002
{
1000
NOSEL
1070
     0
1002
}
1002
{
1000
BEHIND
1070
     0
1002
}
1002
{
1000
REACTOR
1002
}
1001
GENIUS_GENOBJ-N-CEN_13
1002
{
1000
OWNER
1000
GEN
1002
}
  0
LINE
  5
C38F
330
1F
100
AcDbEntity
  8
AM_CL
 62
     0
370
    40
100
AcDbLine
 10
11.57036634044368
 20
0.6047638016354426
 30
0.0
 11
0.0315700786873094
 21
0.0000411139573941
 31
0.0
  0
ARC
  5
C390
330
1F
100
AcDbEntity
  8
AM_CL
 62
     0
370
    40
100
AcDbCircle
 10
0.0299999999999727
 20
0.0300000000000011
 30
0.0
 40
0.03
100
AcDbArc
 50
148.0000000000019
 51
272.999999999999
1001
GENIUS_GENODEF_13
1002
{
1000
HIER
1070
     0
1002
}
1002
{
1000
MANEDIT
1070
     0
1002
}
1002
{
1000
NOSEL
1070
     0
1002
}
1002
{
1000
BEHIND
1070
     0
1002
}
1002
{
1000
REACTOR
1002
}
1001
GENIUS_GENOBJ-N-FIL_13
1002
{
1000
OWNER
1000
GEN
1002
}
  0
ARC
  5
C392
330
1F
100
AcDbEntity
  8
AM_CL
 62
     0
370
    40
100
AcDbCircle
 10
11.56879626175635
 20
0.6347226876780763
 30
0.0
 40
0.03
100
AcDbArc
 50
272.999999999999
 51
328.0000000000015
1001
GENIUS_GENODEF_13
1002
{
1000
HIER
1070
     0
1002
}
1002
{
1000
MANEDIT
1070
     0
1002
}
1002
{
1000
NOSEL
1070
     0
1002
}
1002
{
1000
BEHIND
1070
     0
1002
}
1002
{
1000
REACTOR
1002
}
1001
GENIUS_GENOBJ-N-FIL_13
1002
{
1000
OWNER
1000
GEN
1002
}
  0
LINE
  5
C393
330
1F
100
AcDbEntity
  8
AM_CL
 62
     0
370
    40
100
AcDbLine
 10
13.90120444850663
 20
1.427878492945837
 30
0.0
 11
12.03880032969835
 21
1.330274028951408
 31
0.0
  0
LINE
  5
C394
330
1F
100
AcDbEntity
  8
AM_CL
 62
     0
370
    40
100
AcDbLine
 10
13.90120444850663
 20
1.427878492945837
 30
0.0
 11
15.48908294145235
 21
-0.1599999999999966
 31
0.0
  0
LINE
  5
C395
330
1F
100
AcDbEntity
  8
AM_CL
 62
     0
370
    40
100
AcDbLine
 10
8.893361556920695
 20
12.94999999999999
 30
0.0
 11
6.989227217857547
 21
9.902748069264277
 31
0.0
  0
ARC
  5
C396
330
1F
100
AcDbEntity
  8
AM_CL
 62
     0
370
    40
100
AcDbCircle
 10
7.568888425452258
 20
5.780233171102138
 30
0.0
 40
0.3024999999998347
100
AcDbArc
 50
83.97221509006889
 51
230.027784909938
  0
LINE
  5
C397
330
1F
100
AcDbEntity
  8
AM_7
  6
AM_ISO08W050x2
100
AcDbLine
 10
3.710909037757915
 20
5.231802959154578
 30
0.0
 11
14.01090903775776
 21
5.231802959154575
 31
0.0
1001
GENIUS_GENODEF_13
1002
{
1000
HIER
1070
     0
1002
}
1002
{
1000
MANEDIT
1070
     0
1002
}
1002
{
1000
NOSEL
1070
     0
1002
}
1002
{
1000
BEHIND
1070
     0
1002
}
1002
{
1000
REACTOR
1002
}
1001
GENIUS_GENOBJ-N-CEN_13
1002
{
1000
OWNER
1000
GEN
1002
}
  0
CIRCLE
  5
C398
330
1F
100
AcDbEntity
  8
AM_CL
 62
     0
370
    40
100
AcDbCircle
 10
8.860909037757835
 20
5.231802959154576
 30
0.0
 40
1.706099999999583
  0
CIRCLE
  5
C399
330
1F
100
AcDbEntity
  8
AM_CL
 62
     0
370
    40
100
AcDbCircle
 10
8.860909037757835
 20
5.231802959154576
 30
0.0
 40
2.35
  0
CIRCLE
  5
C39A
330
1F
100
AcDbEntity
  8
AM_CL
 62
     0
370
    40
100
AcDbCircle
 10
8.860909037757835
 20
5.231802959154576
 30
0.0
 40
2.8
  0
ARC
  5
C39B
330
1F
100
AcDbEntity
  8
AM_CL
 62
     0
370
    40
100
AcDbCircle
 10
6.153021813759324
 20
9.82888323063105
 30
0.0
 40
0.03
100
AcDbArc
 50
92.99999999999912
 51
148.0000000000019
1001
GENIUS_GENODEF_13
1002
{
1000
HIER
1070
     0
1002
}
1002
{
1000
MANEDIT
1070
     0
1002
}
1002
{
1000
NOSEL
1070
     0
1002
}
1002
{
1000
BEHIND
1070
     0
1002
}
1002
{
1000
REACTOR
1002
}
1001
GENIUS_GENOBJ-N-FIL_13
1002
{
1000
OWNER
1000
GEN
1002
}
  0
ARC
  5
C39C
330
1F
100
AcDbEntity
  8
AM_CL
 62
     0
370
    40
100
AcDbCircle
 10
10.81365455742383
 20
5.471569960341894
 30
0.0
 40
0.726
100
AcDbArc
 50
143.972215090064
 51
230.0277849099375
  0
ARC
  5
C39D
330
1F
100
AcDbEntity
  8
AM_CL
 62
     0
370
    40
100
AcDbCircle
 10
10.04492611160833
 20
3.660559232591337
 30
0.0
 40
0.726
100
AcDbArc
 50
83.97221509006241
 51
170.0277849099374
  0
ARC
  5
C39E
330
1F
100
AcDbEntity
  8
AM_CL
 62
     0
370
    40
100
AcDbCircle
 10
9.031964848161294
 20
3.838665180711102
 30
0.0
 40
0.3024999999998347
100
AcDbArc
 50
203.9722150900679
 51
350.0277849099342
  0
ARC
  5
C39F
330
1F
100
AcDbEntity
  8
AM_CL
 62
     0
370
    40
100
AcDbCircle
 10
10.15292965006353
 20
4.683372747207242
 30
0.0
 40
0.3024999999998347
100
AcDbArc
 50
263.9722150900623
 51
50.02778490993745
  0
ARC
  5
C3A0
330
1F
100
AcDbEntity
  8
AM_CL
 62
     0
370
    40
100
AcDbCircle
 10
9.629637483573447
 20
7.042813686905133
 30
0.0
 40
0.726
100
AcDbArc
 50
203.9722150900656
 51
290.0277849099345
  0
ARC
  5
C3A1
330
1F
100
AcDbEntity
  8
AM_CL
 62
     0
370
    40
100
AcDbCircle
 10
8.689853227354377
 20
6.624940737598108
 30
0.0
 40
0.3024999999998347
100
AcDbArc
 50
23.97221509006781
 51
170.0277849099318
  0
ARC
  5
C3A2
330
1F
100
AcDbEntity
  8
AM_CL
 62
     0
370
    40
100
AcDbCircle
 10
9.981873839660068
 20
6.076510525650717
 30
0.0
 40
0.3024999999998347
100
AcDbArc
 50
323.9722150900701
 51
110.0277849099415
  0
ARC
  5
C3A3
330
1F
100
AcDbEntity
  8
AM_CL
 62
     0
370
    40
100
AcDbCircle
 10
6.908163518091897
 20
4.992035957967316
 30
0.0
 40
0.726
100
AcDbArc
 50
323.9722150900639
 51
50.02778490993745
  0
ARC
  5
C3A4
330
1F
100
AcDbEntity
  8
AM_CL
 62
     0
370
    40
100
AcDbCircle
 10
7.73994423585566
 20
4.387095392658607
 30
0.0
 40
0.3024999999998347
100
AcDbArc
 50
143.972215090064
 51
290.0277849099415
  0
ARC
  5
C3A5
330
1F
100
AcDbEntity
  8
AM_CL
 62
     0
370
    40
100
AcDbCircle
 10
8.092180591942451
 20
3.420792231403963
 30
0.0
 40
0.726
100
AcDbArc
 50
23.97221509006557
 51
110.0277849099346
  0
ARC
  5
C3A6
330
1F
100
AcDbEntity
  8
AM_CL
 62
     0
370
    40
100
AcDbCircle
 10
7.676891963907508
 20
6.803046685717929
 30
0.0
 40
0.726
100
AcDbArc
 50
263.9722150900623
 51
350.0277849099375
  0
LINE
  5
C3A7
330
1F
100
AcDbEntity
  8
AM_CL
 62
     0
370
    40
100
AcDbLine
 10
17.47598576367932
 20
8.008544638271527
 30
0.0
 11
15.4755250091356
 21
6.830183200262663
 31
0.0
  0
ARC
  5
C3A8
330
1F
100
AcDbEntity
  8
AM_CL
 62
     0
370
    40
100
AcDbCircle
 10
17.6918180755157
 20
10.43360591830921
 30
0.0
 40
0.03
100
AcDbArc
 50
328.0000000000015
 51
92.99999999999912
1001
GENIUS_GENODEF_13
1002
{
1000
HIER
1070
     0
1002
}
1002
{
1000
MANEDIT
1070
     0
1002
}
1002
{
1000
NOSEL
1070
     0
1002
}
1002
{
1000
BEHIND
1070
     0
1002
}
1002
{
1000
REACTOR
1002
}
1001
GENIUS_GENOBJ-N-FIL_13
1002
{
1000
OWNER
1000
GEN
1002
}
  0
TEXT
  5
C622
330
1F
100
AcDbEntity
  8
AM_0
370
    -3
100
AcDbText
 10
8.325643504749678
 20
-90.66121926133094
 30
0.0
 40
5.0
  1
SDJCR1215-F11X
100
AcDbText
  0
LINE
  5
C636
330
1F
100
AcDbEntity
  8
AM_0
100
AcDbLine
 10
15.48908294145235
 20
-0.1599999999999966
 30
0.0
 11
85.0
 21
-0.1600000000000037
 31
0.0
  0
LINE
  5
C776
330
1F
100
AcDbEntity
  8
AM_4
100
AcDbLine
 10
0.0
 20
-55.70896398979556
 30
0.0
 11
0.0
 21
0.0
 31
0.0
  0
DIMENSION
  5
C790
330
1F
100
AcDbEntity
  8
AM_5
100
AcDbDimension
  2
*D6
 10
-12.0
 20
-67.70896398979556
 30
0.0
 11
-15.40037401574802
 21
-61.70896398979556
 31
0.0
 70
    32
 71
     5
 42
12.0
  3
AM_JIS$0
100
AcDbAlignedDimension
 13
0.0
 23
-55.70896398979556
 33
0.0
 14
1.280229066095671
 24
-67.70896398979556
 34
0.0
 50
270.0
100
AcDbRotatedDimension
1001
ACAD
1000
DSTYLE
1002
{
1070
   179
1070
     2
1070
   271
1070
     0
1002
}
  0
LINE
  5
C81A
330
1F
100
AcDbEntity
  8
AM_0
100
AcDbLine
 10
85.0
 20
-67.70896398979558
 30
0.0
 11
85.0
 21
-55.70896398979558
 31
0.0
  0
LINE
  5
C81B
330
1F
100
AcDbEntity
  8
AM_0
100
AcDbLine
 10
85.0
 20
14.83999999999999
 30
0.0
 11
85.0
 21
-0.1600000000000037
 31
0.0
  0
LINE
  5
C81C
330
1F
100
AcDbEntity
  8
AM_4
100
AcDbLine
 10
85.0
 20
-0.1600000000000037
 30
0.0
 11
85.0
 21
-55.70896398979558
 31
0.0
  0
DIMENSION
  5
C832
330
1F
100
AcDbEntity
  8
AM_5
100
AcDbDimension
  2
*D7
 10
97.0
 20
-55.70896398979558
 30
0.0
 11
93.59962598425199
 21
-61.70896398979557
 31
0.0
 70
    32
 71
     5
 42
12.00000000000001
  3
AM_JIS$0
100
AcDbAlignedDimension
 13
85.0
 23
-67.70896398979558
 33
0.0
 14
85.0
 24
-55.70896398979558
 34
0.0
 50
270.0
100
AcDbRotatedDimension
1001
ACAD
1000
DSTYLE
1002
{
1070
   179
1070
     2
1070
   271
1070
     0
1002
}
  0
DIMENSION
  5
C85D
330
1F
100
AcDbEntity
  8
AM_5
100
AcDbDimension
  2
*D8
 10
97.0
 20
14.83999999999999
 30
0.0
 11
93.59999999999999
 21
7.340000000000008
 31
0.0
 70
    32
 71
     5
 42
15.0
  3
AM_JIS$0
100
AcDbAlignedDimension
 13
85.0
 23
-0.1600000000000037
 33
0.0
 14
85.0
 24
14.83999999999999
 34
0.0
 50
270.0
100
AcDbRotatedDimension
1001
ACAD
1000
DSTYLE
1002
{
1070
   179
1070
     2
1070
   271
1070
     0
1002
}
  0
DIMENSION
  5
C962
330
1F
100
AcDbEntity
  8
AM_5
100
AcDbDimension
  2
*D9
 10
0.0
 20
0.0
 30
0.0
 11
9.784072874595875
 21
-9.286351879906137
 31
0.0
 70
    34
 71
     5
 42
1.62315620435472
  3
AM_JIS$2
100
AcDb2LineAngularDimension
 13
11.57036634044368
 23
0.6047638016354426
 33
0.0
 14
0.0315700786873094
 24
0.0000411139573941
 34
0.0
 15
0.0
 25
-55.70896398979556
 35
0.0
 16
8.698121600390179
 26
-14.47771871827769
 36
0.0
1001
ACAD
1000
DSTYLE
1002
{
1070
   271
1070
     0
1002
}
  0
ACAD_PROXY_ENTITY
  5
CA55
330
1F
100
AcDbEntity
  8
AM_5
100
AcDbProxyEntity
 90
      498
 91
      533
 95
       25
 70
     0
 92
      668
310
9C020000270000000C00000016000000000000C00C00000013000000010000000C00000016000000000000C00C00000017000000FFFFFFFF3C000000060000000200000000BED4AFF2B440C032FF5B0C634440C0000000000000000066E20FC64B903AC035FF5B0C634440C000000000000000000C00000016000000000000
310
C00C00000010000000FFFFFFFF0C00000012000000FFFFFFFF0C00000017000000000000000C00000014000000010000000C00000013000000020000000C00000016000000000000C00C00000017000000FFFFFFFF3C000000060000000200000066E20FC64B903AC035FF5B0C634440C00000000000000000007CA95FE569
310
37C036FF5B0C634440C000000000000000000C00000016000000000000C00C00000010000000FFFFFFFF0C00000012000000FFFFFFFF0C00000017000000000000000C00000014000000010000000C00000013000000030000000C00000016000000000000C00C00000017000000FFFFFFFF3C000000060000000200000067
310
E20FC64B903AC0DE401B1D787940C00000000000000000007CA95FE56937C036FF5B0C634440C000000000000000000C00000016000000000000C00C00000010000000FFFFFFFF0C00000012000000FFFFFFFF0C00000017000000000000000C00000014000000010000000C00000013000000040000000C00000016000000
310
000000C00C00000017000000FFFFFFFF3C0000000600000002000000007CA95FE56937C036FF5B0C634440C0000000000000000066E20FC64B903AC08CBD9CFB4D0F40C000000000000000000C00000016000000000000C00C00000010000000FFFFFFFF0C00000012000000FFFFFFFF0C00000017000000000000000C0000
310
0014000000010000000C00000013000000050000000C00000016000000000000C0
 93
     1537
310
5DC00D8835E8D5836C00DBFD6C318D11030219FD350232B475AF0000000000000F0BF9197D350232B475AF2A54051F8000000C800AA002FB52BFCAD1030032FF5B0C634440C09018FFFFFFFF001F2A57F95A4DF0036FF5B0C634440C0A8FFFFFFFF1FFFFFFFF0017DA95FE5688180197FAD8631A2206045409C870E048762C
310
B2D63FC030A63D697F0350702A465F4D408CA51D7BC0000000000003C2FE8333333333333094041D050000000000003C2FC000000000000F0BF40401015213500500
340
17F
340
C5D2
330
0
330
0
340
0
340
0
340
180
330
0
330
0
 94
        0
  0
ACAD_PROXY_ENTITY
  5
CA56
330
1F
100
AcDbEntity
  8
AM_5
100
AcDbProxyEntity
 90
      498
 91
      533
 95
       25
 70
     0
 92
      668
310
9C020000270000000C00000016000000000000C00C00000013000000010000000C00000016000000000000C00C00000017000000FFFFFFFF3C000000060000000200000000BED4AFF2B440C032FF5B0C634440C00000000000000000F5BDD4AFF2B440C0CA641E7F2CAF39C000000000000000000C00000016000000000000
310
C00C00000010000000FFFFFFFF0C00000012000000FFFFFFFF0C00000017000000000000000C00000014000000010000000C00000013000000020000000C00000016000000000000C00C00000017000000FFFFFFFF3C0000000600000002000000F5BDD4AFF2B440C0CA641E7F2CAF39C00000000000000000F0BDD4AFF2B4
310
40C064FEB718C68836C000000000000000000C00000016000000000000C00C00000010000000FFFFFFFF0C00000012000000FFFFFFFF0C00000017000000000000000C00000014000000010000000C00000013000000030000000C00000016000000000000C00C00000017000000FFFFFFFF3C00000006000000020000004C
310
7C159FDD7F40C0CC641E7F2CAF39C00000000000000000F0BDD4AFF2B440C064FEB718C68836C000000000000000000C00000016000000000000C00C00000010000000FFFFFFFF0C00000012000000FFFFFFFF0C00000017000000000000000C00000014000000010000000C00000013000000040000000C00000016000000
310
000000C00C00000017000000FFFFFFFF3C0000000600000002000000F0BDD4AFF2B440C064FEB718C68836C000000000000000009EFF93C007EA40C0C9641E7F2CAF39C000000000000000000C00000016000000000000C00C00000010000000FFFFFFFF0C00000012000000FFFFFFFF0C00000017000000000000000C0000
310
0014000000010000000C00000013000000050000000C00000016000000000000C0
 93
     1409
310
5DCF0BDD4AFF2B440C01B16A485DB9DCD7024CAE8A91194A3CDBC8CCE8A91194A3CD3C6A54051F8000000C800AA002FB52BFCAD1030032FF5B0C634440C09018FFFFFFFF3C2F752BFCAD1030064FEB718C68836C0A8FFFFFFFF1FFFFFFFF0017DA95FE5688180197FAD8631A2206045409C870E048762CB2D63FC01132E139
310
64BD4FB02A532BA2A446528F36F28333333333333094041D050000000000003C2FC000000000000F0BF40401015213500500
340
17F
340
C5D2
330
0
330
0
340
0
340
0
340
180
330
0
330
0
 94
        0
  0
TEXT
  5
CA57
330
1F
100
AcDbEntity
  8
AM_6
100
AcDbText
 10
-20.81513535767749
 20
-34.44439666379587
 30
0.0
 40
4.0
  1
0%%D
100
AcDbText
  0
TEXT
  5
CA58
330
1F
100
AcDbEntity
  8
AM_6
100
AcDbText
 10
-34.17611446080412
 20
-19.32352696089832
 30
0.0
 40
4.0
  1
0%%D
100
AcDbText
  0
ENDSEC
  0
SECTION
  2
OBJECTS
  0
DICTIONARY
  5
C
330
0
100
AcDbDictionary
281
     1
  3
ACAD_COLOR
350
C572
  3
ACAD_GROUP
350
D
  3
ACAD_LAYOUT
350
1A
  3
ACAD_MATERIAL
350
C571
  3
ACAD_MLINESTYLE
350
17
  3
ACAD_PLOTSETTINGS
350
19
  3
ACAD_PLOTSTYLENAME
350
E
  3
ACAD_TABLESTYLE
350
C573
  3
AcAmCatalogState
350
C5DB
  3
ACDBHEADERROUNDTRIPXREC
350
CAD0
  3
AcDbVariableDictionary
350
30
  3
ACDMSYSVARMGR
350
C58E
  3
ACGREF_MASTER
350
C586
  3
ACGREFACAD_MASTER
350
C5AE
  3
AcmDictionary
350
4D
  3
ACME_BOM_MANAGER_NAME
350
36
  3
ACME_COMMAND_HISTORY
350
2F
  3
ACME_SCOPE_NAME
350
2E
  3
ACMESTATEMGR
350
3B
  3
AcmeSysVarManager
350
32
  3
AcmSystemVariableManager
350
6A
  3
AD_APPL
350
C5B9
  3
ADSYSVARMGR
350
C5B8
  3
AmdtNamedDwgMgr
350
C5A9
  3
AMG
350
3F
  3
AMGSNAPSETTINGS
350
73
  3
AMI_MASTER
350
C5B1
  3
AUTOCAD_ASSEMBLIES_PROJECT
350
C5C1
  3
Designer_Assemblies_SysVars
350
C5BC
  3
DWGPROPS
350
CAD3
  3
eng_data
350
2A40
  3
FILENAME
350
2916
  3
GREFAM_MODULE
350
C5B2
  3
line_dic_data
350
2A3E
  3
table_dic_data
350
1688
  3
ZWKSIZE
350
2918
  0
DICTIONARY
  5
C61C
330
2
100
AcDbDictionary
280
     1
281
     1
  3
ACAD_LAYERSTATES
360
C61D
  0
DICTIONARY
  5
165
330
1F
100
AcDbDictionary
280
     1
281
     1
  0
DICTIONARY
  5
C572
102
{ACAD_REACTORS
330
C
102
}
330
C
100
AcDbDictionary
281
     1
  0
DICTIONARY
  5
D
102
{ACAD_REACTORS
330
C
102
}
330
C
100
AcDbDictionary
281
     1
  0
DICTIONARY
  5
1A
102
{ACAD_REACTORS
330
C
102
}
330
C
100
AcDbDictionary
281
     1
  3
Model
350
22
  3
ﾚｲｱｳﾄ1
350
1E
  3
ﾚｲｱｳﾄ2
350
26
  0
DICTIONARY
  5
C571
102
{ACAD_REACTORS
330
C
102
}
330
C
100
AcDbDictionary
281
     1
  0
DICTIONARY
  5
17
102
{ACAD_REACTORS
330
C
102
}
330
C
100
AcDbDictionary
281
     1
  3
Standard
350
18
  0
DICTIONARY
  5
19
102
{ACAD_REACTORS
330
C
102
}
330
C
100
AcDbDictionary
281
     1
  0
ACDBDICTIONARYWDFLT
  5
E
102
{ACAD_REACTORS
330
C
102
}
330
C
100
AcDbDictionary
281
     1
  3
Normal
350
F
100
AcDbDictionaryWithDefault
340
F
  0
DICTIONARY
  5
C573
102
{ACAD_REACTORS
330
C
102
}
330
C
100
AcDbDictionary
281
     1
  3
Standard
350
C574
  0
ACAD_PROXY_OBJECT
  5
C5DB
102
{ACAD_REACTORS
330
C
102
}
330
C
100
AcDbProxyObject
 90
      499
 91
      571
 95
       25
 70
     0
 93
      624
310
3FFFFFFFE00A0281402A0A19D2E2237B1BAB6B2B73A399030B7321029B2BA3A34B733B9AE46A4452545D249652E41B341AC41A741B3C1B141BB2E39BAB6B4BA37B7B61731B7B6AE29A21696C00AA
  0
DICTIONARY
  5
CAD0
102
{ACAD_REACTORS
330
C
102
}
330
C
100
AcDbDictionary
281
     1
  3
COLORDICT
350
CAD1
  3
MATERIALDICT
350
CAD2
  0
DICTIONARY
  5
30
102
{ACAD_REACTORS
330
C
102
}
330
C
100
AcDbDictionary
281
     1
  3
CTABLESTYLE
350
C5EF
  3
HIDETEXT
350
CACF
  3
INDEXCTL
350
CACE
  0
ACAD_PROXY_OBJECT
  5
C58E
102
{ACAD_REACTORS
330
C
102
}
330
C
100
AcDbProxyObject
 90
      499
 91
      507
 95
       25
 70
     0
 93
      240
310
4C51A47A0000000000000000000000000000000000000000000000000000
330
C58F
330
C590
330
C591
330
C592
330
C593
330
C594
330
C595
330
C596
330
C597
330
C598
330
C599
330
C59A
330
C59B
330
C59C
330
C59D
330
C59E
330
C59F
330
C5A0
330
C5A1
330
C5A2
330
C5A3
330
C5A4
330
C5A5
330
C5A6
330
C5A7
330
C5A8
 94
        0
  0
ACAD_PROXY_OBJECT
  5
C586
102
{ACAD_REACTORS
330
C
102
}
330
C
100
AcDbProxyObject
 90
      499
 91
      535
 95
       25
 70
     0
 93
       34
310
0400004280
  0
ACAD_PROXY_OBJECT
  5
C5AE
102
{ACAD_REACTORS
330
C
102
}
330
C
100
AcDbProxyObject
 90
      499
 91
      541
 95
       25
 70
     0
 93
      114
310
04000041C080000000000000000000
  0
DICTIONARY
  5
4D
102
{ACAD_REACTORS
330
C
102
}
330
C
100
AcDbDictionary
281
     1
  3
AcmBOMDATA
350
4E
  3
AcmStdDictionary
350
17E
  3
AMDTSECTSYM_ARROWCOLOR
350
C5CF
  0
ACAD_PROXY_OBJECT
  5
36
102
{ACAD_REACTORS
330
C
102
}
330
C
100
AcDbProxyObject
 90
      499
 91
      510
 95
       25
 70
     0
 93
       50
310
00010040400000
330
0
330
0
330
37
 94
        0
  0
ACAD_PROXY_OBJECT
  5
2F
102
{ACAD_REACTORS
330
C
102
}
330
C
100
AcDbProxyObject
 90
      499
 91
      505
 95
       25
 70
     0
 93
     6680
310
478050653454C454354404052D4D5347202D205050413A2020206465736B746F702E6172782046696C6556657273696F6E3A20392E322E302E34014154155491D1601415454D05591501014B5354D1C80B481414104E88080819195CDADD1BDC0B985C9E08119A5B1955995C9CDA5BDB8E880E4B8C8B8C0B8D0050E414D445
310
4524553455444424D4F4440805084E202D20554E444F014213880B4815539113C0504554E444F80504554E444F805055153415645404052D4D5347202D205050413A2020206465736B746F702E6172782046696C6556657273696F6E3A20392E322E302E3401415454D05591501014B5354D1C80B481414104E88080819195
310
CDADD1BDC0B985C9E08119A5B1955995C9CDA5BDB8E880E4B8C8B8C0B8D0050E414D4454524553455444424D4F4440805084E202D20554E444F014213880B4815539113C0504554E444F80504554E444F80505455241534580506524F544154458050844524F5047454F4D805095041535445434C495040405184D5347202D
310
20436F6D6D616E642043414E43454C4C45442E01415454D05591501014B5354D1C80B481414104E88080819195CDADD1BDC0B985C9E08119A5B1955995C9CDA5BDB8E880E4B8C8B8C0B8D005044D4F5645805045A4F4F4D805055153415645404052D4D5347202D205050413A2020206465736B746F702E6172782046696C6
310
556657273696F6E3A20392E322E302E3401411312539150101461354D1C80B4810DBDB5B585B990810D05390D1531311510B805055153415645404052D4D5347202D205050413A2020206465736B746F702E6172782046696C6556657273696F6E3A20392E322E302E34014390535115149154D15511109353D11020142138
310
80B4815539113C05084E202D20554E444F014115539113E014115539113E014154155491D1601415454D05591501014B5354D1C80B481414104E88080819195CDADD1BDC0B985C9E08119A5B1955995C9CDA5BDB8E880E4B8C8B8C0B8D0050E414D4454524553455444424D4F4440805084E202D20554E444F014213880B48
310
15539113C0504554E444F80504554E444F805054552415345404052D4D5347202D205050413A2020206465736B746F702E6172782046696C6556657273696F6E3A20392E322E302E34
  0
ACAD_PROXY_OBJECT
  5
2E
102
{ACAD_REACTORS
330
C
102
}
330
C
100
AcDbProxyObject
 90
      499
 91
      504
 95
       25
 70
     0
 93
      586
310
09000046408000000000000000001344E200000000000000000000000000000000000000000000000000000000000000000000000000000000000000000000000000000000AAA406AA80
360
33
360
34
360
35
360
37
360
6B
360
6C
360
C587
360
C588
360
C589
360
C58A
360
C58B
360
C58C
360
C58F
360
C590
360
C591
360
C592
360
C593
360
C594
360
C595
360
C596
360
C597
360
C598
360
C599
360
C59A
360
C59B
360
C59C
360
C59D
360
C59E
360
C59F
360
C5A0
360
C5A1
360
C5A2
360
C5A3
360
C5A4
360
C5A5
360
C5A6
360
C5A7
360
C5A8
360
C5B4
360
C5B5
360
C5B6
360
C5B7
360
C5BD
360
C5BE
360
C5BF
360
C5C0
360
C5C5
360
C5C6
360
C5C7
360
C5C8
360
C5C9
360
C5CA
 94
        0
  0
ACAD_PROXY_OBJECT
  5
3B
102
{ACAD_REACTORS
330
C
102
}
330
C
100
AcDbProxyObject
 90
      499
 91
      515
 95
       25
 70
     0
 93
       50
310
09000042641280
  0
ACAD_PROXY_OBJECT
  5
32
102
{ACAD_REACTORS
330
C
102
}
330
C
100
AcDbProxyObject
 90
      499
 91
      507
 95
       25
 70
     0
 93
       48
310
903412000000
330
33
330
34
330
35
 94
        0
  0
ACAD_PROXY_OBJECT
  5
6A
102
{ACAD_REACTORS
330
C
102
}
330
C
100
AcDbProxyObject
 90
      499
 91
      507
 95
       25
 70
     0
 93
       40
310
90240E0000
330
6B
330
6C
 94
        0
  0
ACAD_PROXY_OBJECT
  5
C5B9
102
{ACAD_REACTORS
330
C
102
}
330
C
100
AcDbProxyObject
 90
      499
 91
      551
 95
       25
 70
     0
 93
       42
310
000900004040
330
C5B4
 94
        0
  0
ACAD_PROXY_OBJECT
  5
C5B8
102
{ACAD_REACTORS
330
C
102
}
330
C
100
AcDbProxyObject
 90
      499
 91
      507
 95
       25
 70
     0
 93
        8
310
AA
  0
ACAD_PROXY_OBJECT
  5
C5A9
102
{ACAD_REACTORS
330
C
102
}
330
C
100
AcDbProxyObject
 90
      499
 91
      540
 95
       25
 70
     0
 93
       42
310
000100005E80
330
C587
 94
        0
  0
DICTIONARY
  5
3F
102
{ACAD_REACTORS
330
C
102
}
330
C
100
AcDbDictionary
281
     1
  3
AcMgSettings
350
40
  3
AMGLAYCFG
350
42
  0
DICTIONARY
  5
73
102
{ACAD_REACTORS
330
C
102
}
330
C
100
AcDbDictionary
281
     1
  3
DIMENSION
350
62F
  3
FEA
350
630
  3
HATCH (1)
350
631
  3
HATCH (2)
350
632
  3
SYMBOLS
350
633
  0
ACAD_PROXY_OBJECT
  5
C5B1
102
{ACAD_REACTORS
330
C
102
}
330
C
100
AcDbProxyObject
 90
      499
 91
      544
 95
       25
 70
     0
 93
       34
310
0500004280
  0
ACAD_PROXY_OBJECT
  5
C5C1
102
{ACAD_REACTORS
330
C
102
}
330
C
100
AcDbProxyObject
 90
      499
 91
      554
 95
       25
 70
     0
 93
       98
310
0900004E400000000000000000
330
C5C8
330
0
330
C5C9
330
0
330
0
330
0
330
0
330
0
 94
        0
  0
ACAD_PROXY_OBJECT
  5
C5BC
102
{ACAD_REACTORS
330
C
102
}
330
C
100
AcDbProxyObject
 90
      499
 91
      507
 95
       25
 70
     0
 93
       56
310
90441600000000
330
C5BD
330
C5BE
330
C5BF
330
C5C0
 94
        0
  0
XRECORD
  5
CAD3
102
{ACAD_REACTORS
330
C
102
}
330
C
100
AcDbXrecord
280
     1
  1
DWGPROPS COOKIE
  2

  3

  4

  6

  7

  8

  9

300
AmdtFileType=82
301
=
302
=
303
=
304
=
305
=
306
=
307
=
308
=
309
=
 40
0.0
 41
2451943.235431667
 42
2455482.110398935
  1

 90
        1
  0
DICTIONARY
  5
2A40
102
{ACAD_REACTORS
330
C
102
}
330
C
100
AcDbDictionary
281
     1
  3
eng_id
350
2A41
  0
DICTIONARY
  5
2916
102
{ACAD_REACTORS
330
C
102
}
330
C
100
AcDbDictionary
281
     1
  3
FILENAME
350
2917
  0
ACAD_PROXY_OBJECT
  5
C5B2
102
{ACAD_REACTORS
330
C
102
}
330
C
100
AcDbProxyObject
 90
      499
 91
      545
 95
       25
 70
     0
 93
        8
310
05
  0
DICTIONARY
  5
2A3E
102
{ACAD_REACTORS
330
C
102
}
330
C
100
AcDbDictionary
281
     1
  3
line_data
350
2A3F
  0
DICTIONARY
  5
1688
102
{ACAD_REACTORS
330
C
102
}
330
C
100
AcDbDictionary
281
     1
  3
input_data
350
168A
  3
table_data
350
1689
  0
DICTIONARY
  5
2918
102
{ACAD_REACTORS
330
C
102
}
330
C
100
AcDbDictionary
281
     1
  3
ZWKSIZE
350
2919
  0
DICTIONARY
  5
C61D
102
{ACAD_REACTORS
330
C61C
102
}
330
C61C
100
AcDbDictionary
281
     1
  0
LAYOUT
  5
22
102
{ACAD_REACTORS
330
1A
102
}
330
1A
100
AcDbPlotSettings
  1

  2
Canon LBP9100C
  4
A4
  6
AM_VIEW1
 40
5.789083480834961
 41
5.789072036743164
 42
5.789093017578125
 43
5.789093017578125
 44
209.9733276367188
 45
296.9259948730469
 46
0.0
 47
0.0
 48
0.0
 49
0.0
140
420.0
141
297.0
142
1.0
143
1.497012393175651
 70
 11952
 72
     1
 73
     1
 74
     4
  7
sei_cad.ctb
 75
     0
147
0.6679971418798171
148
0.0
149
0.0
100
AcDbLayout
  1
Model
 70
     1
 71
     0
 10
0.0
 20
0.0
 11
12.0
 21
9.0
 12
0.0
 22
0.0
 32
0.0
 14
0.0
 24
0.0
 34
0.0
 15
0.0
 25
0.0
 35
0.0
146
0.0
 13
0.0
 23
0.0
 33
0.0
 16
1.0
 26
0.0
 36
0.0
 17
0.0
 27
1.0
 37
0.0
 76
     0
330
1F
1001
ACAD_PSEXT
1000
Canon LBP9100C
1000
Canon LBP9100C
1000
IP_10.254.89.242
1000

1070
     0
  0
LAYOUT
  5
1E
102
{ACAD_REACTORS
330
1A
102
}
330
1A
100
AcDbPlotSettings
  1

  2
Canon LASER SHOT LBP-2030
  4

  6

 40
0.0
 41
0.0
 42
0.0
 43
0.0
 44
0.0
 45
0.0
 46
0.0
 47
0.0
 48
0.0
 49
0.0
140
0.0
141
0.0
142
1.0
143
1.0
 70
   688
 72
     0
 73
     0
 74
     5
  7
sei_cad.ctb
 75
    16
147
1.0
148
0.0
149
0.0
100
AcDbLayout
  1
ﾚｲｱｳﾄ1
 70
     1
 71
     1
 10
0.0
 20
0.0
 11
420.0
 21
297.0
 12
0.0
 22
0.0
 32
0.0
 14
1.000000000000000E+20
 24
1.000000000000000E+20
 34
1.000000000000000E+20
 15
-1.000000000000000E+20
 25
-1.000000000000000E+20
 35
-1.000000000000000E+20
146
0.0
 13
0.0
 23
0.0
 33
0.0
 16
1.0
 26
0.0
 36
0.0
 17
0.0
 27
1.0
 37
0.0
 76
     0
330
1B
  0
LAYOUT
  5
26
102
{ACAD_REACTORS
330
1A
102
}
330
1A
100
AcDbPlotSettings
  1

  2
Canon LASER SHOT LBP-2030
  4

  6

 40
0.0
 41
0.0
 42
0.0
 43
0.0
 44
0.0
 45
0.0
 46
0.0
 47
0.0
 48
0.0
 49
0.0
140
0.0
141
0.0
142
1.0
143
1.0
 70
   688
 72
     0
 73
     0
 74
     5
  7
sei_cad.ctb
 75
    16
147
1.0
148
0.0
149
0.0
100
AcDbLayout
  1
ﾚｲｱｳﾄ2
 70
     1
 71
     2
 10
0.0
 20
0.0
 11
12.0
 21
9.0
 12
0.0
 22
0.0
 32
0.0
 14
0.0
 24
0.0
 34
0.0
 15
0.0
 25
0.0
 35
0.0
146
0.0
 13
0.0
 23
0.0
 33
0.0
 16
1.0
 26
0.0
 36
0.0
 17
0.0
 27
1.0
 37
0.0
 76
     0
330
23
  0
MLINESTYLE
  5
18
102
{ACAD_REACTORS
330
17
102
}
330
17
100
AcDbMlineStyle
  2
STANDARD
 70
     0
  3

 62
   256
 51
90.0
 52
90.0
 71
     2
 49
0.5
 62
   256
  6
BYLAYER
 49
-0.5
 62
   256
  6
BYLAYER
  0
ACDBPLACEHOLDER
  5
F
102
{ACAD_REACTORS
330
E
102
}
330
E
  0
TABLESTYLE
  5
C574
102
{ACAD_REACTORS
330
C573
102
}
330
C573
100
AcDbTableStyle
  3
Standard
 70
     0
 71
     8
 40
1.5
 41
1.5
280
     0
281
     0
  7
STANDARD
140
4.5
170
     2
 62
     0
 63
     7
283
     0
274
    -2
284
     1
 64
     0
275
    -2
285
     1
 65
     0
276
    -2
286
     1
 66
     0
277
    -2
287
     1
 67
     0
278
    -2
288
     1
 68
     0
279
    -2
289
     1
 69
     0
  7
STANDARD
140
6.0
170
     5
 62
     0
 63
     7
283
     0
274
    -2
284
     1
 64
     0
275
    -2
285
     1
 65
     0
276
    -2
286
     1
 66
     0
277
    -2
287
     1
 67
     0
278
    -2
288
     1
 68
     0
279
    -2
289
     1
 69
     0
  7
STANDARD
140
4.5
170
     5
 62
     0
 63
     7
283
     0
274
    -2
284
     1
 64
     0
275
    -2
285
     1
 65
     0
276
    -2
286
     1
 66
     0
277
    -2
287
     1
 67
     0
278
    -2
288
     1
 68
     0
279
    -2
289
     1
 69
     0
  0
XRECORD
  5
CAD1
102
{ACAD_REACTORS
330
CAD0
102
}
330
CAD0
100
AcDbXrecord
280
     1
340
C572
  0
XRECORD
  5
CAD2
102
{ACAD_REACTORS
330
CAD0
102
}
330
CAD0
100
AcDbXrecord
280
     1
340
C571
  0
DICTIONARYVAR
  5
C5EF
102
{ACAD_REACTORS
330
30
102
}
330
30
100
DictionaryVariables
280
     0
  1
STANDARD
  0
DICTIONARYVAR
  5
CACF
102
{ACAD_REACTORS
330
30
102
}
330
30
100
DictionaryVariables
280
     0
  1
0
  0
DICTIONARYVAR
  5
CACE
102
{ACAD_REACTORS
330
30
102
}
330
30
100
DictionaryVariables
280
     0
  1
1
  0
ACAD_PROXY_OBJECT
  5
4E
102
{ACAD_REACTORS
330
4D
102
}
330
4D
100
AcDbProxyObject
 90
      499
 91
      520
 95
       25
 70
     0
 93
      118
310
405010040CA904C415CD5B075DD0B8
350
4F
 94
        0
  0
DICTIONARY
  5
17E
102
{ACAD_REACTORS
330
4D
102
}
330
4D
100
AcDbDictionary
281
     1
  3
JIS
350
17F
  0
XRECORD
  5
C5CF
102
{ACAD_REACTORS
330
4D
102
}
330
4D
100
AcDbXrecord
280
     1
 90
-1023410169
  0
ACAD_PROXY_OBJECT
  5
33
330
2E
100
AcDbProxyObject
 90
      499
 91
      508
 95
       25
 70
     0
 93
      156
310
00010143D050D351505391D5531054925390D490
330
2E
 94
        0
  0
ACAD_PROXY_OBJECT
  5
34
330
2E
100
AcDbProxyObject
 90
      499
 91
      508
 95
       25
 70
     0
 93
      148
310
000101439050D351531253915054925390D490
330
2E
 94
        0
  0
ACAD_PROXY_OBJECT
  5
35
330
2E
100
AcDbProxyObject
 90
      499
 91
      509
 95
       25
 70
     0
 93
      156
310
000101439050D35154D6535093D314D256915080
330
2E
 94
        0
  0
ACAD_PROXY_OBJECT
  5
37
330
2E
100
AcDbProxyObject
 90
      499
 91
      511
 95
       25
 70
     0
 93
       88
310
000101411093D34C402B00
330
2E
330
0
330
0
 94
        0
  0
ACAD_PROXY_OBJECT
  5
6B
330
2E
100
AcDbProxyObject
 90
      499
 91
      509
 95
       25
 70
     0
 93
      108
310
00010142505351D153D35054D4E0
330
2E
 94
        0
  0
ACAD_PROXY_OBJECT
  5
6C
330
2E
100
AcDbProxyObject
 90
      499
 91
      522
 95
       25
 70
     0
 93
      140
310
00010142105350D55494D511005034A49530
330
2E
 94
        0
  0
ACAD_PROXY_OBJECT
  5
C587
330
2E
100
AcDbProxyObject
 90
      499
 91
      536
 95
       25
 70
     0
 93
      358
310
0001014124FEA55D00507392E322E302E32014124FEA55D00507392E322E302E3240501000041505391D311658
330
2E
330
C588
330
C58E
 94
        0
  0
ACAD_PROXY_OBJECT
  5
C588
330
2E
100
AcDbProxyObject
 90
      499
 91
      537
 95
       25
 70
     0
 93
       56
310
000190240E0000
330
2E
330
C589
330
C58B
 94
        0
  0
ACAD_PROXY_OBJECT
  5
C589
330
2E
100
AcDbProxyObject
 90
      499
 91
      538
 95
       25
 70
     0
 93
       48
310
0001AA000000
330
2E
330
1E
330
C58A
330
0
 94
        0
  0
ACAD_PROXY_OBJECT
  5
C58A
330
2E
100
AcDbProxyObject
 90
      499
 91
      539
 95
       25
 70
     0
 93
       28
310
0001AAA0
330
2E
 94
        0
  0
ACAD_PROXY_OBJECT
  5
C58B
330
2E
100
AcDbProxyObject
 90
      499
 91
      538
 95
       25
 70
     0
 93
       48
310
0001AA000000
330
2E
330
26
330
C58C
330
0
 94
        0
  0
ACAD_PROXY_OBJECT
  5
C58C
330
2E
100
AcDbProxyObject
 90
      499
 91
      539
 95
       25
 70
     0
 93
       28
310
0001AAA0
330
2E
 94
        0
  0
ACAD_PROXY_OBJECT
  5
C58F
330
2E
100
AcDbProxyObject
 90
      499
 91
      509
 95
       25
 70
     0
 93
      108
310
000101421053521310D05310D010
330
2E
 94
        0
  0
ACAD_PROXY_OBJECT
  5
C590
330
2E
100
AcDbProxyObject
 90
      499
 91
      509
 95
       25
 70
     0
 93
      124
310
00010142905354915554D15112535010
330
2E
 94
        0
  0
ACAD_PROXY_OBJECT
  5
C591
330
2E
100
AcDbProxyObject
 90
      499
 91
      509
 95
       25
 70
     0
 93
      132
310
00010143105354D150D51253D391125360
330
2E
 94
        0
  0
ACAD_PROXY_OBJECT
  5
C592
330
2E
100
AcDbProxyObject
 90
      499
 91
      509
 95
       25
 70
     0
 93
      124
310
00010142905355941093D49111549010
330
2E
 94
        0
  0
ACAD_PROXY_OBJECT
  5
C593
330
2E
100
AcDbProxyObject
 90
      499
 91
      509
 95
       25
 70
     0
 93
      116
310
0001014290535115D1D0D3D313D4A0
330
2E
 94
        0
  0
ACAD_PROXY_OBJECT
  5
C594
330
2E
100
AcDbProxyObject
 90
      499
 91
      509
 95
       25
 70
     0
 93
      148
310
00010143505355925155D49151949154D21010
330
2E
 94
        0
  0
ACAD_PROXY_OBJECT
  5
C595
330
2E
100
AcDbProxyObject
 90
      499
 91
      509
 95
       25
 70
     0
 93
      172
310
00010144105350539393D51154149154D15495915010
330
2E
 94
        0
  0
ACAD_PROXY_OBJECT
  5
C596
330
2E
100
AcDbProxyObject
 90
      499
 91
      509
 95
       25
 70
     0
 93
      172
310
00010144105350555513D11253505494905391D15010
330
2E
 94
        0
  0
ACAD_PROXY_OBJECT
  5
C597
330
2E
100
AcDbProxyObject
 90
      499
 91
      509
 95
       25
 70
     0
 93
      124
310
00010142D05351561514915191125360
330
2E
 94
        0
  0
ACAD_PROXY_OBJECT
  5
C598
330
2E
100
AcDbProxyObject
 90
      499
 91
      509
 95
       25
 70
     0
 93
      132
310
00010142D05355105410539393D5115010
330
2E
 94
        0
  0
ACAD_PROXY_OBJECT
  5
C599
330
2E
100
AcDbProxyObject
 90
      499
 91
      509
 95
       25
 70
     0
 93
      108
310
00010142105350555513D0D31010
330
2E
 94
        0
  0
ACAD_PROXY_OBJECT
  5
C59A
330
2E
100
AcDbProxyObject
 90
      499
 91
      509
 95
       25
 70
     0
 93
      108
310
00010142105350D3119150551050
330
2E
 94
        0
  0
ACAD_PROXY_OBJECT
  5
C59B
330
2E
100
AcDbProxyObject
 90
      499
 91
      509
 95
       25
 70
     0
 93
      108
310
00010142105350D315925155D3F0
330
2E
 94
        0
  0
ACAD_PROXY_OBJECT
  5
C59C
330
2E
100
AcDbProxyObject
 90
      499
 91
      509
 95
       25
 70
     0
 93
      148
310
0001014350535212511156915493D112535010
330
2E
 94
        0
  0
ACAD_PROXY_OBJECT
  5
C59D
330
2E
100
AcDbProxyObject
 90
      499
 91
      509
 95
       25
 70
     0
 93
      124
310
00010142905352105510D21254D3D010
330
2E
 94
        0
  0
ACAD_PROXY_OBJECT
  5
C59E
330
2E
100
AcDbProxyObject
 90
      499
 91
      509
 95
       25
 70
     0
 93
      148
310
00010143905354D25391D31152105513105660
330
2E
 94
        0
  0
ACAD_PROXY_OBJECT
  5
C59F
330
2E
100
AcDbProxyObject
 90
      499
 91
      509
 95
       25
 70
     0
 93
      124
310
00010142D0535115D1D193111254D420
330
2E
 94
        0
  0
ACAD_PROXY_OBJECT
  5
C5A0
330
2E
100
AcDbProxyObject
 90
      499
 91
      509
 95
       25
 70
     0
 93
      100
310
00010142105350555513D213A0
330
2E
 94
        0
  0
ACAD_PROXY_OBJECT
  5
C5A1
330
2E
100
AcDbProxyObject
 90
      499
 91
      509
 95
       25
 70
     0
 93
      116
310
000101425053521390D3D553951010
330
2E
 94
        0
  0
ACAD_PROXY_OBJECT
  5
C5A2
330
2E
100
AcDbProxyObject
 90
      499
 91
      509
 95
       25
 70
     0
 93
      108
310
0001014210535213941493D29010
330
2E
 94
        0
  0
ACAD_PROXY_OBJECT
  5
C5A3
330
2E
100
AcDbProxyObject
 90
      499
 91
      509
 95
       25
 70
     0
 93
      108
310
0001014210535213951654115070
330
2E
 94
        0
  0
ACAD_PROXY_OBJECT
  5
C5A4
330
2E
100
AcDbProxyObject
 90
      499
 91
      509
 95
       25
 70
     0
 93
      108
310
000101421053521395925155D0F0
330
2E
 94
        0
  0
ACAD_PROXY_OBJECT
  5
C5A5
330
2E
100
AcDbProxyObject
 90
      499
 91
      509
 95
       25
 70
     0
 93
      140
310
00010143505354D150D51253D390D3D41660
330
2E
 94
        0
  0
ACAD_PROXY_OBJECT
  5
C5A6
330
2E
100
AcDbProxyObject
 90
      499
 91
      509
 95
       25
 70
     0
 93
      108
310
00010142105350D3141493D29030
330
2E
 94
        0
  0
ACAD_PROXY_OBJECT
  5
C5A7
330
2E
100
AcDbProxyObject
 90
      499
 91
      508
 95
       25
 70
     0
 93
      212
310
00010143905350555513D2105510D21493D500000000000002E400
330
2E
 94
        0
  0
ACAD_PROXY_OBJECT
  5
C5A8
330
2E
100
AcDbProxyObject
 90
      499
 91
      509
 95
       25
 70
     0
 93
      156
310
00010143905350555513D2105510D21111551010
330
2E
 94
        0
  0
ACAD_PROXY_OBJECT
  5
C5B4
330
2E
100
AcDbProxyObject
 90
      499
 91
      547
 95
       25
 70
     0
 93
      698
310
0001000000009AA6A9AA4051E547565204A756E2032322030383A32353A333320323031302028555443290141CE4B8C8B8C0B8C80518547565204F63742031322031313A33383A353820323031300141CE4B8C8B8C0B8C80
330
2E
330
C5B5
330
C5B6
330
C5B8
330
0
 94
        0
  0
ACAD_PROXY_OBJECT
  5
C5B5
330
2E
100
AcDbProxyObject
 90
      499
 91
      548
 95
       25
 70
     0
 93
       70
310
0001AAA80820000000
330
2E
330
C5B5
330
C5B5
 94
        0
  0
ACAD_PROXY_OBJECT
  5
C5B6
330
2E
100
AcDbProxyObject
 90
      499
 91
      549
 95
       25
 70
     0
 93
       48
310
000100000000
330
2E
330
0
330
C5B7
330
0
330
0
 94
        0
  0
ACAD_PROXY_OBJECT
  5
C5B7
330
2E
100
AcDbProxyObject
 90
      499
 91
      550
 95
       25
 70
     0
 93
       40
310
000100AAAA
330
2E
330
0
 94
        0
  0
ACAD_PROXY_OBJECT
  5
C5BD
330
2E
100
AcDbProxyObject
 90
      499
 91
      522
 95
       25
 70
     0
 93
      180
310
00010143105050D3D35411119390535140504434F4D500
330
2E
 94
        0
  0
ACAD_PROXY_OBJECT
  5
C5BE
330
2E
100
AcDbProxyObject
 90
      499
 91
      522
 95
       25
 70
     0
 93
      212
310
0001014390505193D311115491119390535140506466F6C6465720
330
2E
 94
        0
  0
ACAD_PROXY_OBJECT
  5
C5BF
330
2E
100
AcDbProxyObject
 90
      499
 91
      522
 95
       25
 70
     0
 93
      180
310
00010143105050539393D1119390535140504284156290
330
2E
 94
        0
  0
ACAD_PROXY_OBJECT
  5
C5C0
330
2E
100
AcDbProxyObject
 90
      499
 91
      522
 95
       25
 70
     0
 93
      436
310
00010143905050D3D35415925155D31254D50052295BD96CA0A90B396CA0A894591A496CA0A8DB691A496CA0A89BA96CA0A95E28F95310
330
2E
 94
        0
  0
ACAD_PROXY_OBJECT
  5
C5C5
330
2E
100
AcDbProxyObject
 90
      499
 91
      555
 95
       25
 70
     0
 93
       32
310
00010000
330
2E
340
C5C2
330
C5C7
330
C5C2
 94
        0
  0
ACAD_PROXY_OBJECT
  5
C5C6
330
2E
100
AcDbProxyObject
 90
      499
 91
      556
 95
       25
 70
     0
 93
       18
310
000180
330
2E
 94
        0
  0
ACAD_PROXY_OBJECT
  5
C5C7
330
2E
100
AcDbProxyObject
 90
      499
 91
      557
 95
       25
 70
     0
 93
      258
310
0001014554D11290D48C4C8C4D4B60994C4C56205A6098CC4D9050055401550000
330
2E
330
C5C5
330
C5C6
 94
        0
  0
ACAD_PROXY_OBJECT
  5
C5C8
330
2E
100
AcDbProxyObject
 90
      499
 91
      558
 95
       25
 70
     0
 93
      178
310
000100AAAAAA9B395ED60091C353E402039442E4FFEB80
330
2E
330
C5C7
 94
        0
  0
ACAD_PROXY_OBJECT
  5
C5C9
330
2E
100
AcDbProxyObject
 90
      499
 91
      559
 95
       25
 70
     0
 93
      108
310
000190140A000000000000AAAAA0
330
2E
330
C5CA
330
C5CA
330
C5CA
330
C5CA
330
C5CA
330
0
 94
        0
  0
ACAD_PROXY_OBJECT
  5
C5CA
330
2E
100
AcDbProxyObject
 90
      499
 91
      560
 95
       25
 70
     0
 93
       51
310
00010000AAAA80
330
2E
330
C5C9
330
C5C7
 94
        0
  0
DICTIONARY
  5
40
102
{ACAD_REACTORS
330
3F
102
}
330
3F
100
AcDbDictionary
281
     1
  3
DWGSETTINGS
350
41
  3
FEM
350
69
  3
Shaft
350
56
  3
TRANSSETTINGS
350
4C
  0
ACAD_PROXY_OBJECT
  5
42
102
{ACAD_REACTORS
330
3F
102
}
330
3F
100
AcDbProxyObject
 90
      499
 91
      519
 95
       25
 70
     0
 93
    23232
310
41502491013041105357CC201C00030C011E441013141105357CC603800030C011E441013241105357CCA01400030C011E441013341105357CCE01800030C010D9013441105357CD200C00030C010D9013541105357CD600C00030C010D9013641105357CDA00800030C011E9013741105357CDE01000030C010D901384110
310
5357CE200400030C011E9013941105357CE63F400030C0241102324141505357CC4C201C00030C011E902344141505357CC4C600C00030C010D902495041505357CC4CA01C00030C011E40902304E41505357CC13A01C00030C011E902314E41505357CC53A03800030C011E902324E41505357CC93A01400030C011E90233
310
4E41505357CCD3A01800030C010D902344E41505357CD13A00C00030C010D902354E41505357CD53A00C00030C010D902364E41505357CD93A00800030C011E902374E41505357CDD3A01000030C010D902384E41505357CE13A00400030C011E902394E41505357CE53A3F400030C024110332414E41905357CC4C13A01C0
310
0030C011E90334414E41905357CC4C53A00C00030C010D90349504E41905357CC4C93A01C00030C011E409044B4C494E41505357D0D3200400030C011E42504494E464F42105357D410549151A01000030C010D42D055241484D3541905357D093D4A01C00030C011E425045649455742105357D5925155D4E00400030C011
310
E42D06424548494E4441905357D25395A3F400030C0243505545241494C41505357D514A00C00030C010D4250348494441905357D21251201C00030C011E4250356495341905357D59254E01C00030C011E4250650415244494D42505357D41054911253600C00030C010D4250652454644494D42505357D49151911253601
310
000030C010D425774110531514901348070000C300479034110915312501348000000C0003FFFFFFFD034110921395901398000000C0003FFFFFFFE415092139594D06424548494E448000000C0003FFFFFFFE411093125110234418000000C0003FFFFFFFD03411093D05410234418000000C0003FFFFFFFD03411093D48C
310
9055241484D358010000C30047A411093D48CD055241484D358020000C30047A411093D48D5055241484D358000000C0003FFFFFFFE411093D48DD055241484D3581E0000C30047903411094105410234418000000C0003FFFFFFFD03411094115610234418000000C0003FFFFFFFD034110951112501358000000C0003FFF
310
FFFFD034110D0530C901348000000C0003FFFFFFFE4110D0530CD01348020000C30047A4110D0530D501348070000C30047A4110D0530DD013481E0000C30047A4110D15393901378000000C0003FFFFFFFE4110D15395D01378000000C0003FFFFFFFE4110D312539044B4C494E8000000C0003FFFFFFFE4110D3D38C5013
310
08000000C0003FFFFFFFD034110D3D38C901318000000C0003FFFFFFFD034110D3D38CD01328000000C0003FFFFFFFD034110D3D38D101328000000C0003FFFFFFFD034111115494101348000000C0003FFFFFFFD034111115510501348000000C0003FFFFFFFE4111125051D01358000000C0003FFFFFFFE4111125312501
310
358000000C0003FFFFFFFE411112535410650415244494D8000000C0003FFFFFFFE411112535490652454644494D8000000C0003FFFFFFFE411156135410234418000000C0003FFFFFFFD034111915353901388000000C0003FFFFFFFE415191535413901388030000C3004364151915354D410234418000000C0003FFFFFF
310
FE4151915354D510234418030000C300436415191535593901328000000C0003FFFFFFFE415191535595101328030000C3004364111931055101308000000C0003FFFFFFFD03411194905490234418000000C0003FFFFFFFD034111D49312501358000000C0003FFFFFFFD034111D5931250234418000000C0003FFFFFFFD0
310
34112105510D01388000000C0003FFFFFFFD014112125113901338000000C0003FFFFFFFD034112125115D01338000000C0003FFFFFFFD034112131253901348000000C0003FFFFFFFD01411213D0D3901378000000C0003FFFFFFFE411213D0D5D01378000000C0003FFFFFFFE4112539193D04494E464F8000000C0003FF
310
FFFFFE4113105112501348000000C0003FFFFFFFD034113115051101358000000C0003FFFFFFFE419397D0921395902394E8000000C0003FFFFFFFE419397D0D3D38C502304E8000000C0003FFFFFFFD03419397D0D3D38C902314E8000000C0003FFFFFFFD03419397D0D3D38CD02324E8000000C0003FFFFFFFD03419397
310
D0D3D38D102324E8000000C0003FFFFFFFD03419397D0D15393902374E8000000C0003FFFFFFFE419397D0D15395D02374E8000000C0003FFFFFFFE419397D1125312502354E8000000C0003FFFFFFFE419397D2105510D02384E8000000C0003FFFFFFFD01419397D2125113902334E8000000C0003FFFFFFFD03419397D2
310
125115D02334E8000000C0003FFFFFFFD03419397D3115051102354E8000000C0003FFFFFFFE419397D391D25410349504E8000000C0003FFFFFFFE419397D412105390334414E8000000C0003FFFFFFFE419397D510D3D3902304E8000000C0003FFFFFFFD03419397D5121312502344E8000000C0003FFFFFFFD01419397
310
D5131153902304E8000000C0003FFFFFFFD03419397D516150CD02364E8000000C0003FFFFFFFD03419397D594131250332414E8000000C0003FFFFFFFE411391D25410249508000000C0003FFFFFFFE411410530C9055241484D358010000C30047A411410530CD055241484D358020000C30047A411410530D5055241484
310
D358000000C0003FFFFFFFE411410530DD055241484D3581E0000C30047903411412105390234418000000C0003FFFFFFFE411413D4D3901368070000C30047A419413D4D49151901368050000C30047903411413D4D6101368000000C0003FFFFFFFD03411414D150D0234418000000C0003FFFFFFFD03411490D1D390137
310
8000000C0003FFFFFFFE411490D1D5D01378000000C0003FFFFFFFE4114919112501348000000C0003FFFFFFFD034114945514901348070000C30047903411494D093D01348000000C0003FFFFFFFD034114D09492D01348000000C0003FFFFFFFD014114D0D153901378000000C0003FFFFFFFD034114D150D51013480000
310
00C0003FFFFFFFD014114D15313901378000000C0003FFFFFFFD034114D15315D01378000000C0003FFFFFFFD034114D4D654D01308000000C0003FFFFFFFD034114D51312501348070000C300479034114D6508C501358000000C0003FFFFFFFD034114D6508C901358000000C0003FFFFFFFD034114D6508CD0135802000
310
0C30047A4114D6508D501358070000C300479034114D65353901378000000C0003FFFFFFFD034114D65355D01378000000C0003FFFFFFFD03411510D3D3901308000000C0003FFFFFFFD034115121312501348000000C0003FFFFFFFD01411512550C9055241484D358010000C30047A411512550CD055241484D358020000
310
C30047A411512550D5055241484D358000000C0003FFFFFFFE411512550DD055241484D3581E0000C300479034115131153901308000000C0003FFFFFFFD03415514905253105545241494C8000000C0003FFFFFFFE41151492D3901378000000C0003FFFFFFFD0341151492D5D01378000000C0003FFFFFFFD03411514931
310
2501348000000C0003FFFFFFFD01411516150C501368030000C300436411516150C901368030000C300436411516150CD01368000000C0003FFFFFFFE411516150D501368070000C30047A411516150DD013681E0000C30047A4115925155D04564945578000000C0003FFFFFFFE41159151121034849448000000C0003FFF
310
FFFFD0241159151159035649538000000C0003FFFFFFFD02411594131250232418000000C0003FFFFFFFE4116925690501348000000C0003FFFFFFFD01411354D653501358020000C30047AAAA3F400030C01013F90A4391E41D1E4190D4151E4110D40D0D4091E4051E4791E7F6
340
16
340
16
340
16
340
43
340
16
340
16
340
16
340
44
340
16
340
16
340
44
340
45
340
16
340
16
340
16
340
16
340
43
340
16
340
16
340
16
340
44
340
16
340
16
340
44
340
45
340
16
340
46
340
16
340
16
340
16
340
16
340
16
340
43
340
16
340
16
340
16
340
47
340
15
340
15
340
15
340
15
340
15
340
15
340
15
340
15
340
15
340
15
340
15
340
15
340
15
340
15
340
15
340
15
340
48
340
15
340
15
340
15
340
15
340
15
340
15
340
15
340
15
340
15
340
15
340
15
340
15
340
15
340
15
340
15
340
16
340
15
340
15
340
15
340
15
340
15
340
15
340
15
340
15
340
47
340
15
340
15
340
48
340
15
340
15
340
15
340
15
340
15
340
15
340
15
340
15
340
15
340
48
340
15
340
15
340
15
340
47
340
15
340
15
340
15
340
15
340
15
340
15
340
15
340
15
340
15
340
15
340
15
340
15
340
15
340
15
340
15
340
15
340
15
340
15
340
15
340
48
340
15
340
15
340
48
340
15
340
15
340
16
340
15
340
48
340
15
340
15
340
47
340
15
340
15
340
16
340
15
340
48
340
15
340
15
340
15
340
15
340
15
340
15
340
15
340
15
340
15
340
48
340
15
340
15
340
15
340
15
340
15
340
15
340
15
340
15
340
15
340
15
340
15
340
4B
340
16
 94
        0
  0
ACAD_PROXY_OBJECT
  5
62F
102
{ACAD_REACTORS
330
73
102
}
330
73
100
AcDbProxyObject
 90
      499
 91
      523
 95
       25
 70
     0
 93
      253
310
43D1444494D454E53494F4E2C414D44545F2A5F44494D404A9012A404A9012A0
  0
ACAD_PROXY_OBJECT
  5
630
102
{ACAD_REACTORS
330
73
102
}
330
73
100
AcDbProxyObject
 90
      499
 91
      523
 95
       25
 70
     0
 93
      181
310
43D012A42D05357D191504B505357CA9012A404A9012A8
  0
ACAD_PROXY_OBJECT
  5
631
102
{ACAD_REACTORS
330
73
102
}
330
73
100
AcDbProxyObject
 90
      499
 91
      523
 95
       25
 70
     0
 93
      133
310
43D054841544348404A9012A404A9012A8
  0
ACAD_PROXY_OBJECT
  5
632
102
{ACAD_REACTORS
330
73
102
}
330
73
100
AcDbProxyObject
 90
      499
 91
      523
 95
       25
 70
     0
 93
      549
310
43D044C494E4549CE0B0E138B0A8B4E0B0A8B4E138B105357CE0B105357CE138B0A8B505357CE0B0A8B505357CE139012A404A910494E534552542C5354445041525432448
  0
ACAD_PROXY_OBJECT
  5
633
102
{ACAD_REACTORS
330
73
102
}
330
73
100
AcDbProxyObject
 90
      499
 91
      523
 95
       25
 70
     0
 93
      909
310
43D6641434D46434652414D452C41434D444154554D5441524745542C41434D444154554D49442C41434D57454C4453594D2C41434D5355524653594D2C41434D4645415449442C41434D504152545245462C41434D42414C4C4F4F4E2C414D44544544474553594D404A9012A404A9012A8
  0
XRECORD
  5
2A41
102
{ACAD_REACTORS
330
2A40
102
}
330
2A40
100
AcDbXrecord
280
     1
  1
LINE
  0

  0
XRECORD
  5
2917
102
{ACAD_REACTORS
330
2916
102
}
330
2916
100
AcDbXrecord
280
     1
  1
25000259__00___
  0

  0
XRECORD
  5
2A3F
102
{ACAD_REACTORS
330
2A3E
102
}
330
2A3E
100
AcDbXrecord
280
     1
  1
110 ^M^J ^M^J ^M^J ^M^J ^M^J ^M^J ^M^J ^M^J ^M^J ^M^J ^M^Jボーリングクイル ^M^J鋼 ^M^J特型 ^M^J直付け ^M^Jストレート ^M^J25 ^M^J2 ^M^J ^M^Jアルミ ^M^J ^M^J
  0

  0
XRECORD
  5
168A
102
{ACAD_REACTORS
330
1688
102
}
330
1688
100
AcDbXrecord
280
     1
  1
1,,,,,,,,,^M^J2,,,,,,,,,^M^J3,,,,,,,,,^M^J4,,,,,,,,,
  0

  0
XRECORD
  5
1689
102
{ACAD_REACTORS
330
1688
102
}
330
1688
100
AcDbXrecord
280
     1
  1
4,10
  0

  0
XRECORD
  5
2919
102
{ACAD_REACTORS
330
2918
102
}
330
2918
100
AcDbXrecord
280
     1
  1
3
  0

  0
ACAD_PROXY_OBJECT
  5
4F
102
{ACAD_REACTORS
330
4E
102
}
330
4E
100
AcDbProxyObject
 90
      499
 91
      521
 95
       25
 70
     0
 93
      157
310
057356C1D77406406AA8FFFFFFFF05DD01009010
330
1F
330
0
330
C5C7
 94
        0
  0
ACAD_PROXY_OBJECT
  5
17F
102
{ACAD_REACTORS
330
17E
102
}
330
17E
100
AcDbProxyObject
 90
      499
 91
      526
 95
       25
 70
     0
 93
     2379
310
5DC33333333333309408000000C00040D29254D01640600800030C0200800030C003333333333330940C8121E8720B1B6A9BAB9332A32BC3A29BA3220480A1282C6DA8C868CA6E8C88120286A0B1B6ABB2B63234B733A9BA3220480A1082C6DA92C8A6E8C88120285A0B1B6A230BA3AB6A9BA3220480A1282C6DA849E9AA6E
310
8C88120286A0B1A0B6B3AA34BA3632A9BA3220480A2082DAC8E888CAE8C2D2D8A6F2DAA6E8C88120288A0B6B23A29B2B1BA34B7B729BCB6A9BA3220480A2282DAC8E886CADCE8CAE498D2DCCAA6E8C88120288A0B6B23A2A343932B0B22634B732A9BA3220480A1682DAC8E89CDEE8CAA6E8C88120285A0B1A0B6B3A630BCA
310
9BA3220480A1682C682DACE88D2DAA6E8C88120288A0B1A0B6B3A437B632A1B430B93A29BA3220480C812020
340
180
360
181
360
182
360
183
360
184
360
185
360
186
360
C5CC
360
C5CD
360
C5CE
360
C5D0
360
C5D1
360
C5D2
360
C5D8
360
C5D9
360
C5DA
340
0
340
0
 94
        0
  0
ACAD_PROXY_OBJECT
  5
41
102
{ACAD_REACTORS
330
40
102
}
330
40
100
AcDbProxyObject
 90
      499
 91
      518
 95
       25
 70
     0
 93
     2946
310
4050B44574753455454494E4753A0E8482A68AA6A88882A069492A684A1A0A723A0A92920ACA0A811C19A0C868A9C829C8E82A12686AF87260F862666A8321A2A72224A0A50000000000000122020E868A9C889282A682A106260F86460F8666083A1A2A72224A9AA250000000000000042020C868A9C988A9C94000000000
310
000048808321A2A727A323250000000000000122020E868A9C9E8C8C62940000000000000488083A1A2A727A32319250000000000000122021CC6D0C2DACCCAE4C8D2DADADEC8CA9FC84A1A624A720A92920ACA0A811C1AA108698929C8AA8B2A082A0AB098929C8A84A22BA3AAA9A1A0A622A50A0E9882A6A89E849482A02
310
608426A0A5A2AB24A2ABA7E8120CA0A68682988A0C00800010652455649534941501304154D0D0531150540CC4E8C5085354414E44415244415034A4953425512535154D5105354128189374905E4ADCD050756455253494F4E4150531352E3030441ED115D1D4D15515125391D4D153911F40
  0
ACAD_PROXY_OBJECT
  5
69
102
{ACAD_REACTORS
330
40
102
}
330
40
100
AcDbProxyObject
 90
      499
 91
      518
 95
       25
 70
     0
 93
      411
310
4050346454D21092DCC6E486DECACC942842630BCA3B937BAB820A8320A6AFA322A0A20F688AE8EA68AA8A8929C8EA68A9C88FA0
  0
ACAD_PROXY_OBJECT
  5
56
102
{ACAD_REACTORS
330
40
102
}
330
40
100
AcDbProxyObject
 90
      499
 91
      518
 95
       25
 70
     0
 93
      583
310
40505536861667421292DCE8CAE4E4EAE0E89FA0484A634B3B43A2634B732A7F21A98D2CED0E898D2DCCAACD2CAEE9FC8229B4B232A7E80A20F688AE8EA68AA8A8929C8EA68A9C88FA
  0
ACAD_PROXY_OBJECT
  5
4C
102
{ACAD_REACTORS
330
40
102
}
330
40
100
AcDbProxyObject
 90
      499
 91
      518
 95
       25
 70
     0
 93
      852
310
4050D5452414E5353455454494E4753A2488A482AE929C8EA8A4829CA69882A8929E9C0C00800050D4F524947494E414C4C595F4F4E0600400028529A7AAA921A2A620A723A0A81A52827212AAA0A48AA68AA4AC8A0C0080001107B44574753455454494E4753454E447D0
  0
ACAD_PROXY_OBJECT
  5
181
330
17F
100
AcDbProxyObject
 90
      499
 91
      527
 95
       25
 70
     0
 93
       86
310
5DEA0C80A0280A0280A034
  0
ACAD_PROXY_OBJECT
  5
182
330
17F
100
AcDbProxyObject
 90
      499
 91
      528
 95
       25
 70
     0
 93
      282
310
5DD0E4050140501405014050140501405014050141101405014041000000000000001000
340
187
 94
        0
  0
ACAD_PROXY_OBJECT
  5
183
330
17F
100
AcDbProxyObject
 90
      499
 91
      529
 95
       25
 70
     0
 93
      323
310
5DCC199999999999E99F91740501405014050140501405014050140501405014050140501405014040
340
0
 94
        0
  0
ACAD_PROXY_OBJECT
  5
184
330
17F
100
AcDbProxyObject
 90
      499
 91
      530
 95
       25
 70
     0
 93
       10
310
5DC0
  0
ACAD_PROXY_OBJECT
  5
185
330
17F
100
AcDbProxyObject
 90
      499
 91
      531
 95
       25
 70
     0
 93
      257
310
5DE0C16A22A7D90F49F80000000000001081400000000000004204010000618000
340
188
340
189
 94
        0
  0
ACAD_PROXY_OBJECT
  5
186
330
17F
100
AcDbProxyObject
 90
      499
 91
      532
 95
       25
 70
     0
 93
     5277
310
5DD06411255115350141236025B6901405014069010000000000000910240690120281A8AA2CA0282484A4BE52028120280A032020000000000001220480D202405044E414D454050496BC914F4051C40640A80000000000004E4090193C3D3C4946284953424C414E4B28504152543A4E414D45292C424C4F434B3A4E414D
310
452C504152543A4E414D45293E3C41435F44455343524950544E3E40480A109A82A88AA492829880A091BBD2F7E80A3A80C81D0E27A15AF46E08A81203480901411393D5115014124A363B7D0147501904A0000000000000F902406428F4F1050D7D393D5114F901202832B22A72227A92028366EF6EE06F582028EA0320B4
310
0000000000001F20480C879E9E20A1AFAB27222FA620A122A61F20240506445020000000000000490201C00030C00010180000000000003E400000000000000F901073D3C4954454D3E4050180000000000003E400000000000000F901073D3C4954454D3E40501800000000000034400000000000000D101073D3C4954454
310
D3E40501800000000000034400000000000000D101073D3C4954454D3E405029010000000000000F9000000000000003E4041CF4F125511534F901418F4F1455164F9014060000000000000F9000000000000003E4041CF4F125511534F901800000000000034400000000000000D101073D3C4954454D3E40640400000000
310
0000003E400000000000000F90288800000000000020810000001800120881A068120480A032208521122080D21480D211480A1485214852050000000000003C2FC000000000000F0BF40600800030C0200400030C00CDCCCCCCCCCCEC3F3373333333333B0FC3333333333330940C80D069014090341504901A1999999999
310
9984A040100006180400800061804010000618008098A02808
340
0
340
0
 94
        0
  0
ACAD_PROXY_OBJECT
  5
C5CC
330
17F
100
AcDbProxyObject
 90
      499
 91
      561
 95
       25
 70
     0
 93
     3042
310
5DD9740D29254D064A49535F413342929254D7D512551311505134A49535F42525F5265766973696F6E6C6973744190F4134522028323937783231306D6D2941D29254D7D04D1490E41312028353934783834316D6D2941929254D7D04C50E41332028323937783432306D6D2941929254D7D04CD0F41344C2028323130783
310
239376D6D2941D29254D7D04D1310E41322028343230783539346D6D2941929254D7D04C90F4130202838343178313138396D6D2941929254D7D04C10243129254C82557247A25E4C81050A4A49535F5449544C454143129254C82557247A25E4C81090A4A49535F5449544C45424110E979A97F0838A835883675F42525F4
310
4D29254D7D09497D4995D9A5CDA5BDB9B1A5CDD10E979A97F0838A835883675F54525F44D29254D7D51497D4995D9A5CDA5BDB9B1A5CDD10E979A97F0838A835883675F424C5F44D29254D7D09317D4995D9A5CDA5BDB9B1A5CDD10E979A97F0838A835883675F544C5F44D29254D7D51317D4995D9A5CDA5BDB9B1A5CDD00
  0
ACAD_PROXY_OBJECT
  5
C5CD
330
17F
100
AcDbProxyObject
 90
      499
 91
      562
 95
       25
 70
     0
 93
      898
310
5DC4000000000000124048CF4F11115510525317D3105091530F880A0F11115510525317D05094D4D0D053114F8A50241C9A9999999999B93F26A666666666724FC000000000000E03F400000000000000400000000000000510000000000000024408070000C300000000000000049000
340
16
340
180
 94
        0
  0
ACAD_PROXY_OBJECT
  5
C5CE
330
17F
100
AcDbProxyObject
 90
      499
 91
      563
 95
       25
 70
     0
 93
      823
310
5DC0B00000000000002480959E9E29A2A1AA24A7A72FA620A122A62FA324A929AA1F169E29A2A1AA24A7A72FA620A122A62FA620A9AA1F000000000000048803FFFE01C00030C008140380006180000000000000048800000000000000A2000000000000002480
340
652
340
180
 94
        0
  0
ACAD_PROXY_OBJECT
  5
C5D0
330
17F
100
AcDbProxyObject
 90
      499
 91
      564
 95
       25
 70
     0
 93
      152
310
5DE8273108AC1C5A0640A3D0A5723F0BD1F200
  0
ACAD_PROXY_OBJECT
  5
C5D1
330
17F
100
AcDbProxyObject
 90
      499
 91
      565
 95
       25
 70
     0
 93
       14
310
5DE0
340
0
 94
        0
  0
ACAD_PROXY_OBJECT
  5
C5D2
330
17F
100
AcDbProxyObject
 90
      499
 91
      566
 95
       25
 70
     0
 93
     6059
310
5DD084050BA4050AA405024050E836583938376838C815B83672031405983D3C486F6C653A6469613E3C696628657175616C28486F6C653A7465726D696E6174696F6E2C223022292C2220905B82B320222C22208368838A838B22293E3C696628657175616C28486F6C653A7465726D696E6174696F6E2C223022292C486F
310
6C653A64657074682C2222293E2C203C486F6C653A63746469613E2082B482AE82E882CC905B82B3203C486F6C653A637464657074683E406901405034050E836583938376838C815B83672031405EF3D3C486F6C653A6374616E676C653E252564202525633C486F6C653A63746469613E208E4D8C8A2C203C69662865717
310
5616C28486F6C653A7461707065642C223022292C22252563222C486F6C653A6E6F6D696E616C202220782022293E3C696628657175616C28486F6C653A7461707065642C223022292C486F6C653A6469612C486F6C653A706974636864657363293E203C696628657175616C28486F6C653A7465726D696E6174696F6E2C2
310
23022292C22905B82B320222C222022293E3C696628657175616C28486F6C653A7465726D696E6174696F6E2C223022292C486F6C653A64657074682C2222293E406901405014050E836583938376838C815B83672031405C73D3C696628657175616C28486F6C653A7461707065642C223022292C22252563222C486F6C65
310
3A6E6F6D696E616C202220782022293E3C696628657175616C28486F6C653A7461707065642C223022292C486F6C653A6469612C486F6C653A706974636864657363293E203C696628657175616C28486F6C653A7465726D696E6174696F6E2C223022292C22905B82B320222C222022293E3C696628657175616C28486F6C
310
653A7465726D696E6174696F6E2C223022292C486F6C653A64657074682C2222293E4069014051E4090E836583938376838C815B83672032405173D3C535444503A444553433E203C535444503A5354443E40690E836583938376838C815B836720314050C3D3C535444503A444553433E40690240515AAABBA120
360
C5D6
330
C5D6
360
C5D7
330
C5D7
360
C5D5
330
C5D5
360
C5D4
360
C5D3
330
C5D4
330
C5D3
 94
        0
  0
ACAD_PROXY_OBJECT
  5
C5D8
330
17F
100
AcDbProxyObject
 90
      499
 91
      568
 95
       25
 70
     0
 93
       26
310
5DD02A80
340
42
 94
        0
  0
ACAD_PROXY_OBJECT
  5
C5D9
330
17F
100
AcDbProxyObject
 90
      499
 91
      569
 95
       25
 70
     0
 93
      250
310
5DD020000000000000A1000000000000002440408F0F9023C3E409A0DCFFFF80
340
58
340
1B97
340
1B98
340
5F
340
60
340
61
340
62
340
63
340
68
340
0
 94
        0
  0
ACAD_PROXY_OBJECT
  5
C5DA
330
17F
100
AcDbProxyObject
 90
      499
 91
      570
 95
       25
 70
     0
 93
    13889
310
5DD1D003FFFFFFFD030300030CCCCCCCCCCCC250200800030C01030300030CCCCCCCCCCCC250200800030C00050C8DC0955782CC838A83588367014ED1D15395149050D3CB1294138B0C0B23702555E0B320E2A0D620D9CB11D15395149055160B095CCB0A11D1539354D1C819D95B991A5B5E880CCC0A78000C0000000000
310
00000000000000000000010CCCCCCCCCCCC250200800030C010CCCCCCCCCCCC250200800030C020143CF4F111959985D5B1D151A5D1B194F8050A8C8A8365815B8375838B014E51D15395149050D3CB1294138B0C0B2322A0D96056E0DD60E2CB11D15395149055160B095CCB0A11D1539354D1C819D95B991A5B5E880CCC4
310
A78000C000000000000000000000000000000010CCCCCCCCCCCC250200800030C010CCCCCCCCCCCC250200800030C020143CF4F111959985D5B1D151A5D1B194F90D44111409034110541D0C4350F4050E44D03449074510F000141232D24D7C053247454E545241434F2C4A504E2C302C8CB4935F2C47454E54524154582C
310
25732C2847454E4D53472067656E64696D7A20312900010104002214000281464500A608E8A9CA8A482869E5894A09C5860591914588E8A9CA8A482A8B0584AE658508E8A9C9AA68E40CECADCC8D2DAF4406452029E9E9E27B934B3B4B71F1E24A31427A91424A9A12620A7259427B934B3B4B7149624A9A12620A7259424B
310
A32B6949496111116111711149F1E24BA32B69F00808200111A000140560052F47454E545241434F2C4A504E2C302C582C47454E54524154582C25732C2847454E4D53472067656E64696D7A20332900010100002054000280AC80A5E8E8A9CA8A482869E5894A09C586058B2588E8A9CA8A482A8B0584AE658508E8A9C9AA
310
68E40CECADCC8D2DAF4406852000202000040E800050152014BD1D15395149050D3CB1294138B0C0B148B11D15395149055160B095CCB0A11D1539354D1C819D95B991A5B5E880D8A400040400008250000A0507A6029823A2A72A2920A1A79625282716181641E99623A2A72A2920AA2C1612B9961423A2A726A9A39033B2
310
B73234B6BD101B948000808180105A000140A0F4C053047454E545241434F2C4A504E2C302C83D32C47454E54524154582C25732C2847454E4D53472067656E64696D7A203829000101010020F400028248704B5F00A668E8A9CA8A482869E5894A09C58605921C12D7C588E8A9CA8A482A8B0584AE658508E8A9C9AA68E40
310
CECADCC8D2DAF440646052000200080043280005048B4B8A69014CD1D15395149050D3CB1294138B0C0B22D2E29A4B11D15395149055160B095CCB0A11D1539354D1C819D95B991A5B5E880C8C4A4000400100086D0000A09196926BE029923A2A72A2920A1A796252827161816465A49AF9623A2A72A2920AA2C1612B9961
310
423A2A726A9A39033B2B73234B6BD10189480A02620202080043E80005048D8096DA014CD1D15395149050D3CB1294138B0C0B236025B68B11D15395149055160B095CCB0A11D1539354D1C819D95B991A5B5E880C4D0A4000404140280D0000A190687072706CD06C5069D06B0029DA3A2A72A2920A1A7962528271618164
310
1A1C1C9C1B341B141A741AC1623A2A72A2920AA2C1612B9961423A2A726A9A39033B2B73234B6BD10189A94800080820050EA000143A322A0D0E0E4E0D9A0D8A0D3A0D60053D47454E545241434F2C4A504E2C302C8C8A8343839383668362834E83582C47454E54524154582C25732C2847454E4D53472067656E64696D7A
310
2031372900010105002274000281464500A628E8A9CA8A482869E5894A09C5860591914588E8A9CA8A482A8B0584AE658508E8A9C9AA68E40CECADCC8D2DAF440626C52000202080044A8000504909497CA014CD1D15395149050D3CB1294138B0C0B242525F28B11D15395149055160B095CCB0A11D1539354D1C819D95B9
310
91A5B5E880C4E4A400040418008A521E000000000000001CA040C00000000000034408080000000000006881010000000000000D102040000000000001A204080000000000003440818000000000000728103000000000000125020600000000004028A040000000000000034408000000000000004881000000000000000D
310
102000000000000001A204000000000000003440818000000000000508143C0000000000000039408180000000000006881030000000000000D102060000000000001A2040C00000000000034408180000000000006881030000000000000E5020600000000000024A040C0000000000805140800000000000000688100000
310
00000000009102000000000000001A2040000000000000034408180000000000006881030000000000000A10284220000000878000002020000008380000020400000081800000208000000828000002028900000000
340
0
340
0
340
0
340
0
340
180
340
180
 94
        0
  0
ACAD_PROXY_OBJECT
  5
C5D6
330
C5D2
100
AcDbProxyObject
 90
      499
 91
      567
 95
       25
 70
     0
 93
     1376
310
5DE0143A0D960E4E0DDA0E32056E0D9C80C405983D3C486F6C653A6469613E3C696628657175616C28486F6C653A7465726D696E6174696F6E2C223022292C2220905B82B320222C22208368838A838B22293E3C696628657175616C28486F6C653A7465726D696E6174696F6E2C223022292C486F6C653A64657074682C22
310
22293E2C203C486F6C653A63746469613E2082B482AE82E882CC905B82B3203C486F6C653A637464657074683E
  0
ACAD_PROXY_OBJECT
  5
C5D7
330
C5D2
100
AcDbProxyObject
 90
      499
 91
      567
 95
       25
 70
     0
 93
     2072
310
5DE0143A0D960E4E0DDA0E32056E0D9C80C405EF3D3C486F6C653A6374616E676C653E252564202525633C486F6C653A63746469613E208E4D8C8A2C203C696628657175616C28486F6C653A7461707065642C223022292C22252563222C486F6C653A6E6F6D696E616C202220782022293E3C696628657175616C28486F6C
310
653A7461707065642C223022292C486F6C653A6469612C486F6C653A706974636864657363293E203C696628657175616C28486F6C653A7465726D696E6174696F6E2C223022292C22905B82B320222C222022293E3C696628657175616C28486F6C653A7465726D696E6174696F6E2C223022292C486F6C653A6465707468
310
2C2222293E
  0
ACAD_PROXY_OBJECT
  5
C5D5
330
C5D2
100
AcDbProxyObject
 90
      499
 91
      567
 95
       25
 70
     0
 93
     1752
310
5DE0143A0D960E4E0DDA0E32056E0D9C80C405C73D3C696628657175616C28486F6C653A7461707065642C223022292C22252563222C486F6C653A6E6F6D696E616C202220782022293E3C696628657175616C28486F6C653A7461707065642C223022292C486F6C653A6469612C486F6C653A706974636864657363293E20
310
3C696628657175616C28486F6C653A7465726D696E6174696F6E2C223022292C22905B82B320222C222022293E3C696628657175616C28486F6C653A7465726D696E6174696F6E2C223022292C486F6C653A64657074682C2222293E
  0
ACAD_PROXY_OBJECT
  5
C5D4
330
C5D2
100
AcDbProxyObject
 90
      499
 91
      567
 95
       25
 70
     0
 93
      344
310
5DE0143A0D960E4E0DDA0E32056E0D9C80C805173D3C535444503A444553433E203C535444503A5354443E
  0
ACAD_PROXY_OBJECT
  5
C5D3
330
C5D2
100
AcDbProxyObject
 90
      499
 91
      567
 95
       25
 70
     0
 93
      256
310
5DE0143A0D960E4E0DDA0E32056E0D9C80C4050C3D3C535444503A444553433E
  0
ENDSEC
  0
EOF
