  0
SECTION
  2
HEADER
  9
$ACADVER
  1
AC1015
  9
$ACADMAINTVER
 70
     6
  9
$DWGCODEPAGE
  3
ANSI_932
  9
$INSBASE
 10
0.0
 20
0.0
 30
0.0
  9
$EXTMIN
 10
-23.99563704516925
 20
-45.18953014455553
 30
-0.0000000349181948
  9
$EXTMAX
 10
135.9416792994972
 20
62.82512063283105
 30
0.0000000814935746
  9
$LIMMIN
 10
0.0
 20
0.0
  9
$LIMMAX
 10
400.0
 20
273.0
  9
$ORTHOMODE
 70
     0
  9
$REGENMODE
 70
     1
  9
$FILLMODE
 70
     1
  9
$QTEXTMODE
 70
     0
  9
$MIRRTEXT
 70
     1
  9
$LTSCALE
 40
1.0
  9
$ATTMODE
 70
     1
  9
$TEXTSIZE
 40
5.0
  9
$TRACEWID
 40
0.5
  9
$TEXTSTYLE
  7
STANDARD
  9
$CLAYER
  8
0
  9
$CELTYPE
  6
ByLayer
  9
$CECOLOR
 62
   256
  9
$CELTSCALE
 40
1.0
  9
$DISPSILH
 70
     0
  9
$DIMSCALE
 40
1.0
  9
$DIMASZ
 40
3.0
  9
$DIMEXO
 40
1.0
  9
$DIMDLI
 40
5.0
  9
$DIMRND
 40
0.0
  9
$DIMDLE
 40
3.0
  9
$DIMEXE
 40
2.0
  9
$DIMTP
 40
0.0
  9
$DIMTM
 40
0.0
  9
$DIMTXT
 40
5.0
  9
$DIMCEN
 40
2.0
  9
$DIMTSZ
 40
0.0
  9
$DIMTOL
 70
     0
  9
$DIMLIM
 70
     0
  9
$DIMTIH
 70
     0
  9
$DIMTOH
 70
     0
  9
$DIMSE1
 70
     0
  9
$DIMSE2
 70
     0
  9
$DIMTAD
 70
     1
  9
$DIMZIN
 70
     8
  9
$DIMBLK
  1

  9
$DIMASO
 70
     1
  9
$DIMSHO
 70
     0
  9
$DIMPOST
  1

  9
$DIMAPOST
  1

  9
$DIMALT
 70
     0
  9
$DIMALTD
 70
     4
  9
$DIMALTF
 40
25.4
  9
$DIMLFAC
 40
1.0
  9
$DIMTOFL
 70
     1
  9
$DIMTVP
 40
1.0
  9
$DIMTIX
 70
     0
  9
$DIMSOXD
 70
     0
  9
$DIMSAH
 70
     0
  9
$DIMBLK1
  1

  9
$DIMBLK2
  1

  9
$DIMSTYLE
  2
Standard
  9
$DIMCLRD
 70
     0
  9
$DIMCLRE
 70
     0
  9
$DIMCLRT
 70
     0
  9
$DIMTFAC
 40
1.0
  9
$DIMGAP
 40
0.09
  9
$DIMJUST
 70
     0
  9
$DIMSD1
 70
     0
  9
$DIMSD2
 70
     0
  9
$DIMTOLJ
 70
     1
  9
$DIMTZIN
 70
     0
  9
$DIMALTZ
 70
     0
  9
$DIMALTTZ
 70
     0
  9
$DIMUPT
 70
     0
  9
$DIMDEC
 70
     1
  9
$DIMTDEC
 70
     4
  9
$DIMALTU
 70
     2
  9
$DIMALTTD
 70
     2
  9
$DIMTXSTY
  7
STANDARD
  9
$DIMAUNIT
 70
     0
  9
$DIMADEC
 70
     0
  9
$DIMALTRND
 40
0.0
  9
$DIMAZIN
 70
     0
  9
$DIMDSEP
 70
    46
  9
$DIMATFIT
 70
     3
  9
$DIMFRAC
 70
     0
  9
$DIMLDRBLK
  1

  9
$DIMLUNIT
 70
     2
  9
$DIMLWD
 70
    -2
  9
$DIMLWE
 70
    -2
  9
$DIMTMOVE
 70
     0
  9
$LUNITS
 70
     2
  9
$LUPREC
 70
     4
  9
$SKETCHINC
 40
1.0
  9
$FILLETRAD
 40
0.0
  9
$AUNITS
 70
     0
  9
$AUPREC
 70
     0
  9
$MENU
  1
acad
  9
$ELEVATION
 40
0.0
  9
$PELEVATION
 40
0.0
  9
$THICKNESS
 40
0.0
  9
$LIMCHECK
 70
     0
  9
$CHAMFERA
 40
0.0
  9
$CHAMFERB
 40
0.0
  9
$CHAMFERC
 40
0.0
  9
$CHAMFERD
 40
0.0
  9
$SKPOLY
 70
     0
  9
$TDCREATE
 40
2453969.593958333
  9
$TDUCREATE
 40
2453969.218958333
  9
$TDUPDATE
 40
2455440.699745
  9
$TDUUPDATE
 40
2455440.324745
  9
$TDINDWG
 40
0.0267672222
  9
$TDUSRTIMER
 40
0.0267666782
  9
$USRTIMER
 70
     1
  9
$ANGBASE
 50
0.0
  9
$ANGDIR
 70
     0
  9
$PDMODE
 70
     0
  9
$PDSIZE
 40
0.0
  9
$PLINEWID
 40
0.0
  9
$SPLFRAME
 70
     0
  9
$SPLINETYPE
 70
     6
  9
$SPLINESEGS
 70
    16
  9
$HANDSEED
  5
8CC
  9
$SURFTAB1
 70
     6
  9
$SURFTAB2
 70
     6
  9
$SURFTYPE
 70
     6
  9
$SURFU
 70
     6
  9
$SURFV
 70
     6
  9
$UCSBASE
  2

  9
$UCSNAME
  2

  9
$UCSORG
 10
0.0
 20
0.0
 30
0.0
  9
$UCSXDIR
 10
1.0
 20
0.0
 30
0.0
  9
$UCSYDIR
 10
0.0
 20
1.0
 30
0.0
  9
$UCSORTHOREF
  2

  9
$UCSORTHOVIEW
 70
     0
  9
$UCSORGTOP
 10
0.0
 20
0.0
 30
0.0
  9
$UCSORGBOTTOM
 10
0.0
 20
0.0
 30
0.0
  9
$UCSORGLEFT
 10
0.0
 20
0.0
 30
0.0
  9
$UCSORGRIGHT
 10
0.0
 20
0.0
 30
0.0
  9
$UCSORGFRONT
 10
0.0
 20
0.0
 30
0.0
  9
$UCSORGBACK
 10
0.0
 20
0.0
 30
0.0
  9
$PUCSBASE
  2

  9
$PUCSNAME
  2

  9
$PUCSORG
 10
0.0
 20
0.0
 30
0.0
  9
$PUCSXDIR
 10
1.0
 20
0.0
 30
0.0
  9
$PUCSYDIR
 10
0.0
 20
1.0
 30
0.0
  9
$PUCSORTHOREF
  2

  9
$PUCSORTHOVIEW
 70
     0
  9
$PUCSORGTOP
 10
0.0
 20
0.0
 30
0.0
  9
$PUCSORGBOTTOM
 10
0.0
 20
0.0
 30
0.0
  9
$PUCSORGLEFT
 10
0.0
 20
0.0
 30
0.0
  9
$PUCSORGRIGHT
 10
0.0
 20
0.0
 30
0.0
  9
$PUCSORGFRONT
 10
0.0
 20
0.0
 30
0.0
  9
$PUCSORGBACK
 10
0.0
 20
0.0
 30
0.0
  9
$USERI1
 70
     0
  9
$USERI2
 70
     0
  9
$USERI3
 70
     0
  9
$USERI4
 70
     0
  9
$USERI5
 70
     0
  9
$USERR1
 40
0.0
  9
$USERR2
 40
0.0
  9
$USERR3
 40
0.0
  9
$USERR4
 40
0.0
  9
$USERR5
 40
0.0
  9
$WORLDVIEW
 70
     1
  9
$SHADEDGE
 70
     3
  9
$SHADEDIF
 70
    70
  9
$TILEMODE
 70
     1
  9
$MAXACTVP
 70
    64
  9
$PINSBASE
 10
0.0
 20
0.0
 30
0.0
  9
$PLIMCHECK
 70
     0
  9
$PEXTMIN
 10
1.000000000000000E+20
 20
1.000000000000000E+20
 30
1.000000000000000E+20
  9
$PEXTMAX
 10
-1.000000000000000E+20
 20
-1.000000000000000E+20
 30
-1.000000000000000E+20
  9
$PLIMMIN
 10
0.0
 20
0.0
  9
$PLIMMAX
 10
12.0
 20
9.0
  9
$UNITMODE
 70
     0
  9
$VISRETAIN
 70
     1
  9
$PLINEGEN
 70
     0
  9
$PSLTSCALE
 70
     1
  9
$TREEDEPTH
 70
  3020
  9
$CMLSTYLE
  2
Standard
  9
$CMLJUST
 70
     0
  9
$CMLSCALE
 40
1.0
  9
$PROXYGRAPHICS
 70
     1
  9
$MEASUREMENT
 70
     0
  9
$CELWEIGHT
370
    -1
  9
$ENDCAPS
280
     0
  9
$JOINSTYLE
280
     0
  9
$LWDISPLAY
290
     0
  9
$INSUNITS
 70
     0
  9
$HYPERLINKBASE
  1

  9
$STYLESHEET
  1
sei_cad.ctb
  9
$XEDIT
290
     1
  9
$CEPSNTYPE
380
     0
  9
$PSTYLEMODE
290
     1
  9
$FINGERPRINTGUID
  2
{E1F94A01-9F0A-4BFF-9B51-2122C50A51DE}
  9
$VERSIONGUID
  2
{02ED1854-F806-4E0B-A357-2D832425926A}
  9
$EXTNAMES
290
     1
  9
$PSVPSCALE
 40
0.0
  9
$OLESTARTUP
290
     0
  0
ENDSEC
  0
SECTION
  2
CLASSES
  0
CLASS
  1
ACDBDICTIONARYWDFLT
  2
AcDbDictionaryWithDefault
  3
ObjectDBX Classes
 90
        0
280
     0
281
     0
  0
CLASS
  1
TABLESTYLE
  2
AcDbTableStyle
  3
ObjectDBX Classes
 90
     2047
280
     0
281
     0
  0
CLASS
  1
ACME_DOCUMENT
  2
AcMeDbDoc
  3
AcMeServices
 90
        0
280
     1
281
     0
  0
CLASS
  1
ACMESCOPE
  2
AcMeScope
  3
AcMeServices
 90
        0
280
     1
281
     0
  0
CLASS
  1
ACMECOMMANDHISTORY
  2
AcMeCommandHistory
  3
AcMeServices
 90
        0
280
     1
281
     0
  0
CLASS
  1
ACIMSYSVARMAN
  2
AcImSysVarManager
  3
AcMeServices
 90
        0
280
     1
281
     0
  0
CLASS
  1
ACIMINTSYSVAR
  2
AcImIntSysVar
  3
AcMeServices
 90
        0
280
     1
281
     0
  0
CLASS
  1
ACMEDRAWINGMAN
  2
AcMeDrawingMan
  3
AcMeServices
 90
        0
280
     1
281
     0
  0
CLASS
  1
ACMEVIEW
  2
AcMeView
  3
AcMeServices
 90
        0
280
     1
281
     0
  0
CLASS
  1
ACDBENTITYCACHE
  2
AcMeEntityCache
  3
AcMeServices
 90
        0
280
     1
281
     0
  0
CLASS
  1
GSMANAGER
  2
AcMeGSManager
  3
AcMeServices
 90
        0
280
     1
281
     0
  0
CLASS
  1
AMDTINTERNALREACTOR
  2
AmdtInternalReactor
  3
AcMeServices
 90
        0
280
     1
281
     0
  0
CLASS
  1
ACMESTATEMGR
  2
AcMeStateMgr
  3
AcMeServices
 90
        0
280
     1
281
     0
  0
CLASS
  1
ACGREFMASTER
  2
AcGrefMaster
  3
AcAttribServices
 90
        0
280
     1
281
     0
  0
CLASS
  1
AM_DRAWING_MGR
  2
AcDmDwgMgr
  3
AcMechDwgViewMgmt
 90
        0
280
     1
281
     0
  0
CLASS
  1
AM_DWG_DOCUMENT
  2
AcDmDwgDocument
  3
AcMechDwgViewMgmt
 90
        0
280
     1
281
     0
  0
CLASS
  1
AM_DWG_SHEET
  2
AcDmSheet
  3
AcMechDwgViewMgmt
 90
        0
280
     1
281
     0
  0
CLASS
  1
AM_VIEWDIMPARMAP
  2
AcDmViewDimParMap
  3
AcMechDwgViewMgmt
 90
        0
280
     1
281
     0
  0
CLASS
  1
ACIMREALSYSVAR
  2
AcImRealSysVar
  3
AcMeServices
 90
        0
280
     1
281
     0
  0
CLASS
  1
AM_DWGMGR_NAME
  2
AcDmDwgMgrName
  3
AcMechDwgViewMgmt
 90
        0
280
     1
281
     0
  0
CLASS
  1
ACME_DATABASE
  2
AcMeDbDatabase
  3
AcMeServices
 90
        0
280
     1
281
     0
  0
CLASS
  1
ACRFINSADJUSTERMGR
  2
AcRfInsAdjusterMgr
  3
AcMeServices
 90
        0
280
     1
281
     0
  0
CLASS
  1
ACGREFACADMASTER
  2
AcGrefacadMaster
  3
AcGrefServices
 90
        0
280
     1
281
     0
  0
CLASS
  1
AMDTMENUSTATEMGR
  2
AmdtMenuStateMgr
  3
McadcomServices
 90
        0
280
     1
281
     0
  0
CLASS
  1
AMDTMCOMMENUSTATE
  2
AmdtMcomMenuState
  3
McadcomServices
 90
        0
280
     1
281
     0
  0
CLASS
  1
AMIMASTER
  2
AmiMaster
  3
AmiServices
 90
        0
280
     1
281
     0
  0
CLASS
  1
AMGSETTINGSOBJ
  2
AmgSettingsObj
  3
"AcadM|Product Description: AutoCAD Mechanical 2000|Company: Autodesk"
 90
        0
280
     1
281
     0
  0
CLASS
  1
MAPIAMMOUDLE
  2
MApiAmModule
  3
MApiAmServices
 90
        0
280
     1
281
     0
  0
CLASS
  1
AMDTADMENUSTATE
  2
AmdtAdMenuState
  3
DesignerServices
 90
        0
280
     1
281
     0
  0
CLASS
  1
ADAPPL
  2
AcAdAppl
  3
DesignerServices
 90
        0
280
     1
281
     0
  0
CLASS
  1
DEPMGR
  2
AcAdDepMgr
  3
DesignerServices
 90
        0
280
     1
281
     0
  0
CLASS
  1
PARAMMGR
  2
AcAdParamMgr
  3
DesignerServices
 90
        0
280
     1
281
     0
  0
CLASS
  1
PARAMSCOPE
  2
AcAdParamScope
  3
DesignerServices
 90
        0
280
     1
281
     0
  0
CLASS
  1
NAMEDAPPL
  2
AcAdNamedAppl
  3
DesignerServices
 90
        0
280
     1
281
     0
  0
CLASS
  1
AMDTDMMENUSTATE
  2
AmdtDmMenuState
  3
AcMechDwgViewMgmt
 90
        0
280
     1
281
     0
  0
CLASS
  1
AMDTAMMENUSTATE
  2
AmdtAmMenuState
  3
DesignerAssemblies
 90
        0
280
     1
281
     0
  0
CLASS
  1
ACIMSTRSYSVAR
  2
AcImStrSysVar
  3
AcMeServices
 90
        0
280
     1
281
     0
  0
CLASS
  1
ACAMPROJECT
  2
AcAmProject
  3
DesignerAssemblies
 90
        0
280
     1
281
     0
  0
CLASS
  1
ACAMGRCOMPDEF
  2
AcAmGrCompDef
  3
DesignerAssemblies
 90
        0
280
     1
281
     0
  0
CLASS
  1
ACCMCONTEXT
  2
AcCmContext
  3
DesignerAssemblies
 90
        0
280
     1
281
     0
  0
CLASS
  1
ACAMCOMPDEF
  2
AcAmCompDef
  3
DesignerAssemblies
 90
        0
280
     1
281
     0
  0
CLASS
  1
ACAMCOMPDEFMGR
  2
AcAmCompDefMgr
  3
DesignerAssemblies
 90
        0
280
     1
281
     0
  0
CLASS
  1
AMCONTEXTMGR
  2
AcAmContextMgr
  3
DesignerAssemblies
 90
        0
280
     1
281
     0
  0
CLASS
  1
ACAMCONTEXTMODELER
  2
AcAmContextModeler
  3
DesignerAssemblies
 90
        0
280
     1
281
     0
  0
CLASS
  1
ACMDATADICTIONARY
  2
AcmDataDictionary
  3
"AcmSymBB|Product Description: AutoCAD Mechanical 2004 DX|Company: Autodesk"
 90
        0
280
     1
281
     0
  0
CLASS
  1
CATALOGSTATE
  2
AcAmCatalogState
  3
DesignerAssemblies
 90
        0
280
     1
281
     0
  0
CLASS
  1
ACAMGRCOMPDEFSET
  2
AcAmGrCompDefSet
  3
DesignerAssemblies
 90
        0
280
     1
281
     0
  0
CLASS
  1
AMDTBROWSERDBTAB
  2
AmdtBrowserDbTab
  3
McadcomServices
 90
        0
280
     1
281
     0
  0
CLASS
  1
CBROWSERAPPOBJECT
  2
CBrowserAppObject
  3
McadcomServices
 90
        0
280
     1
281
     0
  0
CLASS
  1
DM_PLACEHOLDER
  2
AcDmSelsetPlaceholder
  3
AcMechDwgViewMgmt
 90
        0
280
     1
281
     0
  0
CLASS
  1
ACMSTANDARDANSI
  2
AcmStandardANSI
  3
"Amdt_StdImp|Product Description: AutoCAD Mechanical 2004 DX|Company: Autodesk"
 90
        0
280
     1
281
     0
  0
CLASS
  1
AMGOBJPROPCFG
  2
AmgObjPropCfg
  3
"AmgLay|Product Description: AutoCAD Mechanical 2000|Company: Autodesk"
 90
        1
280
     1
281
     0
  0
CLASS
  1
ACMSURFSTANDARDANSI
  2
AcmSurfTextStdANSI
  3
"Amdt_StdImp|Product Description: AutoCAD Mechanical 2004 DX|Company: Autodesk"
 90
        0
280
     1
281
     0
  0
CLASS
  1
ACMFCFSTANDARDANSI
  2
AcmFCFStdANSI
  3
"Amdt_StdImp|Product Description: AutoCAD Mechanical 2004 DX|Company: Autodesk"
 90
        0
280
     1
281
     0
  0
CLASS
  1
ACMWELDSTANDARDANSI
  2
AcmWeldingStdANSI
  3
"Amdt_StdImp|Product Description: AutoCAD Mechanical 2004 DX|Company: Autodesk"
 90
        0
280
     1
281
     0
  0
CLASS
  1
ACMIDSTANDARDANSI
  2
AcmIdStdANSI
  3
"Amdt_StdImp|Product Description: AutoCAD Mechanical 2004 DX|Company: Autodesk"
 90
        0
280
     1
281
     0
  0
CLASS
  1
ACMDATUMSTANDARDANSI
  2
AcmDatumStdANSI
  3
"Amdt_StdImp|Product Description: AutoCAD Mechanical 2004 DX|Company: Autodesk"
 90
        0
280
     1
281
     0
  0
CLASS
  1
ACMBOMSTANDARDANSI
  2
AcmBOMStdANSI
  3
"Amdt_StdImp|Product Description: AutoCAD Mechanical 2004 DX|Company: Autodesk"
 90
        0
280
     1
281
     0
  0
CLASS
  1
ACMDETAILSTANDARDANSI
  2
AmdtDetailSymStdANSI
  3
"Amdt_StdImp|Product Description: AutoCAD Mechanical 2004 DX|Company: Autodesk"
 90
        0
280
     1
281
     0
  0
CLASS
  1
ACMSECTIONSTANDARDANSI
  2
AmdtSectionSymStdANSI
  3
"Amdt_StdImp|Product Description: AutoCAD Mechanical 2004 DX|Company: Autodesk"
 90
        0
280
     1
281
     0
  0
CLASS
  1
ACMCENTERLINESTANDARDANSI
  2
AmdtCenterLineStdANSI
  3
"Amdt_StdImp|Product Description: AutoCAD Mechanical 2004 DX|Company: Autodesk"
 90
        0
280
     1
281
     0
  0
CLASS
  1
ACMTHREADLINESTANDARDANSI
  2
AmdtThreadLineStdANSI
  3
"Amdt_StdImp|Product Description: AutoCAD Mechanical 2004 DX|Company: Autodesk"
 90
        0
280
     1
281
     0
  0
CLASS
  1
ACMNOTESTANDARDANSI
  2
AmdtNoteStdANSI
  3
"Amdt_StdImp|Product Description: AutoCAD Mechanical 2004 DX|Company: Autodesk"
 90
        0
280
     1
281
     0
  0
CLASS
  1
AMDTNOTETEMPLATEDB
  2
AmdtNoteTemplateDB
  3
AMDT_STDIMP_MODULE_NAME
 90
        0
280
     1
281
     0
  0
CLASS
  1
ACAMGLAYSTD
  2
AcAmgLayStd
  3
"AcAmgLayStd|Product Description: AutoCAD Mechanical 2000|Company: Autodesk"
 90
        0
280
     1
281
     0
  0
CLASS
  1
ACAMGDIMSTD
  2
AcAmgDimStd
  3
"AcAmgDimStd|Product Description: AutoCAD Mechanical 2000|Company: Autodesk"
 90
        0
280
     1
281
     0
  0
CLASS
  1
ACAMGHOLECHARTSTDANSI
  2
AcAmgHoleChartStdANSI
  3
ACMSYMBB_MODULE_NAME
 90
        0
280
     1
281
     0
  0
CLASS
  1
ACAMGTITLESTD
  2
AcAmgTitleStd
  3
"TITLEAPP"
 90
        0
280
     1
281
     0
  0
CLASS
  1
ACAMGFILTERDAT
  2
AcAmgFilterDat
  3
"AcadM|Product Description: AutoCAD Mechanical 2000|Company: Autodesk"
 90
        0
280
     1
281
     0
  0
CLASS
  1
DICTIONARYVAR
  2
AcDbDictionaryVar
  3
ObjectDBX Classes
 90
        0
280
     0
281
     0
  0
CLASS
  1
ACDBPLACEHOLDER
  2
AcDbPlaceHolder
  3
ObjectDBX Classes
 90
        0
280
     0
281
     0
  0
CLASS
  1
LAYOUT
  2
AcDbLayout
  3
ObjectDBX Classes
 90
        0
280
     0
281
     0
  0
ENDSEC
  0
SECTION
  2
TABLES
  0
TABLE
  2
VPORT
  5
8
330
0
100
AcDbSymbolTable
 70
     3
  0
VPORT
  5
8C6
330
8
100
AcDbSymbolTableRecord
100
AcDbViewportTableRecord
  2
*Active
 70
     0
 10
0.0
 20
0.0
 11
1.0
 21
1.0
 12
55.97302112716398
 22
8.817795244137756
 13
0.0
 23
0.0
 14
0.5
 24
0.5
 15
0.0
 25
0.0
 16
0.0
 26
0.0
 36
1.0
 17
0.0
 27
0.0
 37
0.0
 40
117.143246911856
 41
1.372924648786718
 42
50.0
 43
0.0
 44
0.0
 50
0.0
 51
0.0
 71
     0
 72
 10000
 73
     1
 74
     1
 75
     0
 76
     0
 77
     0
 78
     0
281
     0
 65
     0
110
0.0
120
0.0
130
0.0
111
1.0
121
0.0
131
0.0
112
0.0
122
1.0
132
0.0
 79
     0
146
0.0
  0
ENDTAB
  0
TABLE
  2
LTYPE
  5
5
330
0
100
AcDbSymbolTable
 70
    11
  0
LTYPE
  5
13
330
5
100
AcDbSymbolTableRecord
100
AcDbLinetypeTableRecord
  2
ByBlock
 70
     0
  3

 72
    65
 73
     0
 40
0.0
  0
LTYPE
  5
14
330
5
100
AcDbSymbolTableRecord
100
AcDbLinetypeTableRecord
  2
ByLayer
 70
     0
  3

 72
    65
 73
     0
 40
0.0
  0
LTYPE
  5
15
330
5
100
AcDbSymbolTableRecord
100
AcDbLinetypeTableRecord
  2
CONTINUOUS
 70
     0
  3
solid line
 72
    65
 73
     0
 40
0.0
  0
LTYPE
  5
27
330
5
100
AcDbSymbolTableRecord
100
AcDbLinetypeTableRecord
  2
DASHED
 70
     0
  3
-- -- -- -- -- -- -- -- -- -- 
 72
    65
 73
     2
 40
3.0
 49
2.0
 74
     0
 49
-1.0
 74
     0
  0
LTYPE
  5
28
330
5
100
AcDbSymbolTableRecord
100
AcDbLinetypeTableRecord
  2
CENTER
 70
     0
  3
--- - --- - --- - --- - --- - 
 72
    65
 73
     4
 40
6.0
 49
3.0
 74
     0
 49
-1.0
 74
     0
 49
1.0
 74
     0
 49
-1.0
 74
     0
  0
LTYPE
  5
239
330
5
100
AcDbSymbolTableRecord
100
AcDbLinetypeTableRecord
  2
HIDDEN
 70
     0
  3
Hidden __ __ __ __ __ __ __ __ __ __ __ __ __ _
 72
    65
 73
     2
 40
0.375
 49
0.25
 74
     0
 49
-0.125
 74
     0
  0
LTYPE
  5
23A
330
5
100
AcDbSymbolTableRecord
100
AcDbLinetypeTableRecord
  2
PHANTOM2
 70
     0
  3
Phantom (.5x) ___ _ _ ___ _ _ ___ _ _ ___ _ _
 72
    65
 73
     6
 40
1.25
 49
0.625
 74
     0
 49
-0.125
 74
     0
 49
0.125
 74
     0
 49
-0.125
 74
     0
 49
0.125
 74
     0
 49
-0.125
 74
     0
  0
LTYPE
  5
275
330
5
100
AcDbSymbolTableRecord
100
AcDbLinetypeTableRecord
  2
Amconstr
 70
     0
  3
_______________________
 72
    65
 73
     2
 40
9999.0
 49
9999.0
 74
     0
 49
0.0
 74
     0
  0
LTYPE
  5
27B
330
5
100
AcDbSymbolTableRecord
100
AcDbLinetypeTableRecord
  2
CENTER2
 70
     0
  3
Center (.5x) ___ _ ___ _ ___ _ ___ _ ___ _ ___
 72
    65
 73
     4
 40
1.125
 49
0.75
 74
     0
 49
-0.125
 74
     0
 49
0.125
 74
     0
 49
-0.125
 74
     0
  0
LTYPE
  5
27C
330
5
100
AcDbSymbolTableRecord
100
AcDbLinetypeTableRecord
  2
HIDDEN2
 70
     0
  3
Hidden (.5x) _ _ _ _ _ _ _ _ _ _ _ _ _ _ _ _ _
 72
    65
 73
     2
 40
0.1875
 49
0.125
 74
     0
 49
-0.0625
 74
     0
  0
LTYPE
  5
27D
330
5
100
AcDbSymbolTableRecord
100
AcDbLinetypeTableRecord
  2
Amzigzag2
 70
     0
  3
/\/-/\/-/\/-/\/-/\/-/\/
 72
    65
 73
     2
 40
0.4401
 49
0.0001
 74
     4
 75
   135
340
279
 46
0.0016
 50
0.0
 44
0.0
 45
0.0
 49
-0.44
 74
     0
  0
LTYPE
  5
28B
330
5
100
AcDbSymbolTableRecord
100
AcDbLinetypeTableRecord
  2
ACANSTGB
 70
     0
  3
__ . . __ . .
 72
    65
 73
     6
 40
0.35433070866
 49
0.15748031496
 74
     0
 49
-0.03937007874
 74
     0
 49
0.03937007874
 74
     0
 49
-0.03937007874
 74
     0
 49
0.03937007874
 74
     0
 49
-0.03937007874
 74
     0
  0
LTYPE
  5
28C
330
5
100
AcDbSymbolTableRecord
100
AcDbLinetypeTableRecord
  2
ACANSTGL
 70
     0
  3
_ _ _ _ _
 72
    65
 73
     2
 40
0.11811023622
 49
0.07874015748
 74
     0
 49
-0.03937007874
 74
     0
  0
ENDTAB
  0
TABLE
  2
LAYER
  5
2
330
0
100
AcDbSymbolTable
 70
     5
  0
LAYER
  5
10
330
2
100
AcDbSymbolTableRecord
100
AcDbLayerTableRecord
  2
0
 70
     0
 62
     7
  6
CONTINUOUS
370
    -3
390
F
  0
LAYER
  5
2A
330
2
100
AcDbSymbolTableRecord
100
AcDbLayerTableRecord
  2
2
 70
     0
 62
     7
  6
CONTINUOUS
370
    -3
390
F
  0
LAYER
  5
2C
330
2
100
AcDbSymbolTableRecord
100
AcDbLayerTableRecord
  2
25
 70
     0
 62
     7
  6
CONTINUOUS
370
    -3
390
F
  0
LAYER
  5
2F
330
2
100
AcDbSymbolTableRecord
100
AcDbLayerTableRecord
  2
DEFPOINTS
 70
     0
 62
    -7
  6
CONTINUOUS
290
     0
370
    -3
390
F
  0
LAYER
  5
2D5
330
2
100
AcDbSymbolTableRecord
100
AcDbLayerTableRecord
  2
AM_5
 70
     0
 62
     3
  6
CONTINUOUS
370
    15
390
F
  0
ENDTAB
  0
TABLE
  2
STYLE
  5
3
330
0
100
AcDbSymbolTable
 70
     4
  0
STYLE
  5
11
330
3
100
AcDbSymbolTableRecord
100
AcDbTextStyleTableRecord
  2
STANDARD
 70
     0
 40
0.0
 41
1.0
 50
0.0
 71
     0
 42
5.0
  3
txt
  4

  0
STYLE
  5
279
330
3
100
AcDbSymbolTableRecord
100
AcDbTextStyleTableRecord
  2

 70
     1
 40
0.0
 41
1.0
 50
0.0
 71
     0
 42
3.0
  3
ltypeshp.shx
  4

  0
STYLE
  5
27E
330
3
100
AcDbSymbolTableRecord
100
AcDbTextStyleTableRecord
  2
ACANSTS
 70
     0
 40
1.0
 41
1.0
 50
0.0
 71
     0
 42
3.0
  3
romans.shx
  4
extfont.shx
  0
STYLE
  5
28A
330
3
100
AcDbSymbolTableRecord
100
AcDbTextStyleTableRecord
  2
ACANSGDT
 70
     0
 40
0.0
 41
1.0
 50
0.0
 71
     0
 42
3.0
  3
amgdtans.shx
  4

  0
ENDTAB
  0
TABLE
  2
VIEW
  5
6
330
0
100
AcDbSymbolTable
 70
     0
  0
ENDTAB
  0
TABLE
  2
UCS
  5
7
330
0
100
AcDbSymbolTable
 70
     0
  0
ENDTAB
  0
TABLE
  2
APPID
  5
9
330
0
100
AcDbSymbolTable
 70
     9
  0
APPID
  5
12
330
9
100
AcDbSymbolTableRecord
100
AcDbRegAppTableRecord
  2
ACAD
 70
     0
  0
APPID
  5
20C
330
9
100
AcDbSymbolTableRecord
100
AcDbRegAppTableRecord
  2
MCAD_NO_VIS
 70
     0
  0
APPID
  5
20D
330
9
100
AcDbSymbolTableRecord
100
AcDbRegAppTableRecord
  2
ACAD_TEMP_GRAPHIC
 70
     0
  0
APPID
  5
23C
330
9
100
AcDbSymbolTableRecord
100
AcDbRegAppTableRecord
  2
AD_DRAW
 70
     0
  0
APPID
  5
23F
330
9
100
AcDbSymbolTableRecord
100
AcDbRegAppTableRecord
  2
ACATTRIBSERVICES
 70
     0
  0
APPID
  5
261
330
9
100
AcDbSymbolTableRecord
100
AcDbRegAppTableRecord
  2
DESIGNERASSEMBLIES
 70
     0
  0
APPID
  5
267
330
9
100
AcDbSymbolTableRecord
100
AcDbRegAppTableRecord
  2
ACADM_DIM_EDIT
 70
     0
  0
APPID
  5
268
330
9
100
AcDbSymbolTableRecord
100
AcDbRegAppTableRecord
  2
AMDT_DM_ADJ
 70
     0
  0
APPID
  5
2AB
330
9
100
AcDbSymbolTableRecord
100
AcDbRegAppTableRecord
  2
ACAD_PSEXT
 70
     0
  0
ENDTAB
  0
TABLE
  2
DIMSTYLE
  5
A
330
0
100
AcDbSymbolTable
 70
     9
100
AcDbDimStyleTable
  0
DIMSTYLE
105
209
330
A
100
AcDbSymbolTableRecord
100
AcDbDimStyleTableRecord
  2
Standard
 70
     0
340
11
  0
DIMSTYLE
105
297
330
A
100
AcDbSymbolTableRecord
100
AcDbDimStyleTableRecord
  2
AM_ANSI
 70
     0
  4
mm
 41
0.1
 42
0.05
 43
0.5
 44
0.1
 47
0.1
 48
0.1
 78
     7
 79
     2
140
0.12
141
0.0
146
0.71
147
0.06
176
   256
177
   256
178
     2
274
     4
284
     7
340
11
371
    -1
372
    -1
  0
DIMSTYLE
105
298
330
A
100
AcDbSymbolTableRecord
100
AcDbDimStyleTableRecord
  2
AM_ANSI$3
 70
     0
  4
mm
 41
0.1
 42
0.05
 43
0.5
 44
0.1
 47
0.1
 48
0.1
 78
     7
 79
     2
140
0.12
141
0.0
146
0.71
147
0.06
176
   256
177
   256
178
     2
274
     4
284
     7
288
     1
289
     0
340
11
371
    -1
372
    -1
  0
DIMSTYLE
105
299
330
A
100
AcDbSymbolTableRecord
100
AcDbDimStyleTableRecord
  2
AM_ANSI$4
 70
     0
  4
mm
 41
0.1
 42
0.05
 43
0.5
 44
0.1
 47
0.1
 48
0.1
 78
     7
 79
     2
140
0.12
141
0.0
146
0.71
147
0.06
176
   256
177
   256
178
     2
274
     4
284
     7
288
     1
289
     0
340
11
371
    -1
372
    -1
  0
DIMSTYLE
105
29A
330
A
100
AcDbSymbolTableRecord
100
AcDbDimStyleTableRecord
  2
AM_ANSI$7
 70
     0
  4
mm
 41
0.1
 42
0.05
 43
0.5
 44
0.1
 47
0.1
 48
0.1
 78
     7
 79
     2
140
0.24
141
0.0
146
0.71
147
0.06
176
   256
177
   256
178
     2
274
     4
284
     7
340
11
371
    -1
372
    -1
  0
DIMSTYLE
105
29B
330
A
100
AcDbSymbolTableRecord
100
AcDbDimStyleTableRecord
  2
AM_ANSI$SF
 70
     0
  4
mm
 41
0.1
 42
0.05
 43
0.5
 44
0.1
 47
0.1
 48
0.1
 75
     1
 76
     1
 78
     7
 79
     2
140
0.12
141
0.0
146
0.71
147
0.06
176
   256
177
   256
178
     2
274
     4
284
     7
340
11
371
    -1
372
    -1
  0
DIMSTYLE
105
2A0
330
A
100
AcDbSymbolTableRecord
100
AcDbDimStyleTableRecord
  2
AM_ANSI$SH
 70
     0
  4
mm
 41
0.1
 42
0.05
 43
0.5
 44
0.1
 47
0.1
 48
0.1
 75
     1
 76
     1
 78
     7
 79
     2
140
0.12
141
0.0
146
0.71
147
0.06
173
     1
176
   256
177
   256
178
     2
274
     4
284
     7
340
11
343
29C
371
    -1
372
    -1
  0
DIMSTYLE
105
2E1
102
{ACAD_REACTORS
330
30D
330
354
330
39D
330
40D
330
48C
330
4C1
330
568
330
59A
102
}
330
A
100
AcDbSymbolTableRecord
100
AcDbDimStyleTableRecord
  2
Standard$0
 70
     0
340
11
  0
DIMSTYLE
105
513
102
{ACAD_REACTORS
330
514
330
5C4
102
}
330
A
100
AcDbSymbolTableRecord
100
AcDbDimStyleTableRecord
  2
Standard$2
 70
     0
340
11
  0
ENDTAB
  0
TABLE
  2
BLOCK_RECORD
  5
1
330
0
100
AcDbSymbolTable
 70
    12
  0
BLOCK_RECORD
  5
22
330
1
100
AcDbSymbolTableRecord
100
AcDbBlockTableRecord
  2
*Model_Space
340
25
  0
BLOCK_RECORD
  5
1E
330
1
100
AcDbSymbolTableRecord
100
AcDbBlockTableRecord
  2
*Paper_Space
340
21
  0
BLOCK_RECORD
  5
258
330
1
100
AcDbSymbolTableRecord
100
AcDbBlockTableRecord
  2
*U0
340
0
  0
BLOCK_RECORD
  5
29C
330
1
100
AcDbSymbolTableRecord
100
AcDbBlockTableRecord
  2
GENAXEH
340
0
  0
BLOCK_RECORD
  5
30E
330
1
100
AcDbSymbolTableRecord
100
AcDbBlockTableRecord
  2
*D2
340
0
  0
BLOCK_RECORD
  5
355
330
1
100
AcDbSymbolTableRecord
100
AcDbBlockTableRecord
  2
*D3
340
0
  0
BLOCK_RECORD
  5
39E
330
1
100
AcDbSymbolTableRecord
100
AcDbBlockTableRecord
  2
*D4
340
0
  0
BLOCK_RECORD
  5
40E
330
1
100
AcDbSymbolTableRecord
100
AcDbBlockTableRecord
  2
*D5
340
0
  0
BLOCK_RECORD
  5
48D
330
1
100
AcDbSymbolTableRecord
100
AcDbBlockTableRecord
  2
*D6
340
0
  0
BLOCK_RECORD
  5
4C2
330
1
100
AcDbSymbolTableRecord
100
AcDbBlockTableRecord
  2
*D7
340
0
  0
BLOCK_RECORD
  5
515
330
1
100
AcDbSymbolTableRecord
100
AcDbBlockTableRecord
  2
*D8
340
0
  0
BLOCK_RECORD
  5
569
330
1
100
AcDbSymbolTableRecord
100
AcDbBlockTableRecord
  2
*D9
340
0
  0
BLOCK_RECORD
  5
59B
330
1
100
AcDbSymbolTableRecord
100
AcDbBlockTableRecord
  2
*D10
340
0
  0
BLOCK_RECORD
  5
5C5
330
1
100
AcDbSymbolTableRecord
100
AcDbBlockTableRecord
  2
*D11
340
0
  0
ENDTAB
  0
ENDSEC
  0
SECTION
  2
BLOCKS
  0
BLOCK
  5
23
330
22
100
AcDbEntity
  8
0
100
AcDbBlockBegin
  2
*Model_Space
 70
     0
 71
     0
 10
0.0
 20
0.0
 30
0.0
  3
*Model_Space
  1

  0
ENDBLK
  5
24
330
22
100
AcDbEntity
  8
0
100
AcDbBlockEnd
  0
BLOCK
  5
1F
330
1E
100
AcDbEntity
 67
     1
  8
0
100
AcDbBlockBegin
  2
*Paper_Space
 70
     0
 71
     0
 10
0.0
 20
0.0
 30
0.0
  3
*Paper_Space
  1

  0
ENDBLK
  5
20
330
1E
100
AcDbEntity
 67
     1
  8
0
100
AcDbBlockEnd
  0
BLOCK
  5
259
330
258
100
AcDbEntity
  8
0
100
AcDbBlockBegin
  2
*U0
 70
     1
 71
     0
 10
0.0
 20
0.0
 30
0.0
  3
*U0
  1

  0
ENDBLK
  5
25A
330
258
100
AcDbEntity
  8
0
100
AcDbBlockEnd
  0
BLOCK
  5
29E
330
29C
100
AcDbEntity
  8
0
100
AcDbBlockBegin
  2
GENAXEH
 70
     0
 71
     0
 10
0.0
 20
0.0
 30
0.0
  3
GENAXEH
  1

  0
LINE
  5
29D
330
29C
100
AcDbEntity
  8
0
100
AcDbLine
 10
-1.0
 20
0.0
 30
0.0
 11
1.0
 21
0.0
 31
0.0
  0
ENDBLK
  5
29F
330
29C
100
AcDbEntity
  8
0
100
AcDbBlockEnd
  0
BLOCK
  5
318
330
30E
100
AcDbEntity
  8
0
100
AcDbBlockBegin
  2
*D2
 70
     1
 71
     0
 10
0.0
 20
0.0
 30
0.0
  3
*D2
  1

  0
LINE
  5
85E
330
30E
100
AcDbEntity
  8
0
 62
     0
370
    -2
100
AcDbLine
 10
114.4185241324316
 20
59.99999999999996
 30
0.0
 11
135.7200924811472
 21
59.99999999999996
 31
0.0
  0
LINE
  5
85F
330
30E
100
AcDbEntity
  8
0
 62
     0
370
    -2
100
AcDbLine
 10
114.4185241324316
 20
49.99999999999996
 30
0.0
 11
135.7200924811472
 21
49.99999999999996
 31
0.0
  0
LINE
  5
860
330
30E
100
AcDbEntity
  8
0
 62
     0
370
    -2
100
AcDbLine
 10
133.7200924811472
 20
56.99999999999996
 30
0.0
 11
133.7200924811472
 21
52.99999999999996
 31
0.0
  0
SOLID
  5
861
330
30E
100
AcDbEntity
  8
0
 62
     0
100
AcDbTrace
 10
133.2200924811472
 20
56.99999999999996
 30
0.0
 11
134.2200924811472
 21
56.99999999999996
 31
0.0
 12
133.7200924811472
 22
59.99999999999996
 32
0.0
 13
133.7200924811472
 23
59.99999999999996
 33
0.0
  0
SOLID
  5
862
330
30E
100
AcDbEntity
  8
0
 62
     0
100
AcDbTrace
 10
133.2200924811472
 20
52.99999999999996
 30
0.0
 11
134.2200924811472
 21
52.99999999999996
 31
0.0
 12
133.7200924811472
 22
49.99999999999996
 32
0.0
 13
133.7200924811472
 23
49.99999999999996
 33
0.0
  0
MTEXT
  5
863
330
30E
100
AcDbEntity
  8
0
 62
     0
100
AcDbMText
 10
131.1300924811472
 20
54.93491657166415
 30
0.0
 40
5.0
 41
0.0
 71
     5
 72
     1
  1
\A1;10
 11
6.123031769111886E-17
 21
1.0
 31
0.0
 73
     1
 44
1.0
  0
POINT
  5
864
330
30E
100
AcDbEntity
  8
DEFPOINTS
 62
     0
100
AcDbPoint
 10
113.4185241324316
 20
59.99999999999996
 30
0.0
  0
POINT
  5
865
330
30E
100
AcDbEntity
  8
DEFPOINTS
 62
     0
100
AcDbPoint
 10
113.4185241324316
 20
49.99999999999996
 30
0.0
  0
POINT
  5
866
330
30E
100
AcDbEntity
  8
DEFPOINTS
 62
     0
100
AcDbPoint
 10
133.7200924811472
 20
49.99999999999996
 30
0.0
  0
ENDBLK
  5
319
330
30E
100
AcDbEntity
  8
0
100
AcDbBlockEnd
  0
BLOCK
  5
35F
330
355
100
AcDbEntity
  8
0
100
AcDbBlockBegin
  2
*D3
 70
     1
 71
     0
 10
0.0
 20
0.0
 30
0.0
  3
*D3
  1

  0
LINE
  5
867
330
355
100
AcDbEntity
  8
0
 62
     0
370
    -2
100
AcDbLine
 10
118.1845852877891
 20
-0.0000000000000287
 30
0.0
 11
135.92391393663
 21
-0.0000000000000337
 31
0.0
  0
LINE
  5
868
330
355
100
AcDbEntity
  8
0
 62
     0
370
    -2
100
AcDbLine
 10
118.1845852877891
 20
-10.00000000000003
 30
0.0
 11
135.92391393663
 21
-10.00000000000003
 31
0.0
  0
LINE
  5
869
330
355
100
AcDbEntity
  8
0
 62
     0
370
    -2
100
AcDbLine
 10
133.92391393663
 20
-3.000000000000033
 30
0.0
 11
133.92391393663
 21
-7.000000000000033
 31
0.0
  0
SOLID
  5
86A
330
355
100
AcDbEntity
  8
0
 62
     0
100
AcDbTrace
 10
133.42391393663
 20
-3.000000000000033
 30
0.0
 11
134.42391393663
 21
-3.000000000000033
 31
0.0
 12
133.92391393663
 22
-0.0000000000000332
 32
0.0
 13
133.92391393663
 23
-0.0000000000000332
 33
0.0
  0
SOLID
  5
86B
330
355
100
AcDbEntity
  8
0
 62
     0
100
AcDbTrace
 10
133.42391393663
 20
-7.000000000000033
 30
0.0
 11
134.42391393663
 21
-7.000000000000034
 31
0.0
 12
133.92391393663
 22
-10.00000000000003
 32
0.0
 13
133.92391393663
 23
-10.00000000000003
 33
0.0
  0
MTEXT
  5
86C
330
355
100
AcDbEntity
  8
0
 62
     0
100
AcDbMText
 10
131.33391393663
 20
-5.000000000000012
 30
0.0
 40
5.0
 41
0.0
 71
     5
 72
     1
  1
\A1;10
 11
6.123031769111886E-17
 21
1.0
 31
0.0
 73
     1
 44
1.0
  0
POINT
  5
86D
330
355
100
AcDbEntity
  8
DEFPOINTS
 62
     0
100
AcDbPoint
 10
117.1845852877891
 20
-0.0000000000000284
 30
0.0
  0
POINT
  5
86E
330
355
100
AcDbEntity
  8
DEFPOINTS
 62
     0
100
AcDbPoint
 10
117.1845852877891
 20
-10.00000000000003
 30
0.0
  0
POINT
  5
86F
330
355
100
AcDbEntity
  8
DEFPOINTS
 62
     0
100
AcDbPoint
 10
133.92391393663
 20
-10.00000000000003
 30
0.0
  0
ENDBLK
  5
360
330
355
100
AcDbEntity
  8
0
100
AcDbBlockEnd
  0
BLOCK
  5
3A9
330
39E
100
AcDbEntity
  8
0
100
AcDbBlockBegin
  2
*D4
 70
     1
 71
     0
 10
0.0
 20
0.0
 30
0.0
  3
*D4
  1

  0
LINE
  5
870
330
39E
100
AcDbEntity
  8
0
 62
     0
370
    -2
100
AcDbLine
 10
-1.0
 20
50.00806701879208
 30
0.0
 11
-9.040540881519114
 21
50.00806701879208
 31
0.0
  0
LINE
  5
871
330
39E
100
AcDbEntity
  8
0
 62
     0
370
    -2
100
AcDbLine
 10
-1.0
 20
50.00806701879208
 30
0.0
 11
-9.040540881519114
 21
50.00806701879208
 31
0.0
  0
LINE
  5
872
330
39E
100
AcDbEntity
  8
0
 62
     0
370
    -2
100
AcDbLine
 10
-7.040540881519114
 20
47.00806701879208
 30
0.0
 11
-7.040540881519115
 21
44.00806701879208
 31
0.0
  0
LINE
  5
873
330
39E
100
AcDbEntity
  8
0
 62
     0
370
    -2
100
AcDbLine
 10
-7.040540881519113
 20
53.00806701879208
 30
0.0
 11
-7.040540881519111
 21
58.68806701879212
 31
0.0
  0
SOLID
  5
874
330
39E
100
AcDbEntity
  8
0
 62
     0
100
AcDbTrace
 10
-7.540540881519114
 20
47.00806701879208
 30
0.0
 11
-6.540540881519114
 21
47.00806701879208
 31
0.0
 12
-7.040540881519113
 22
50.00806701879208
 32
0.0
 13
-7.040540881519113
 23
50.00806701879208
 33
0.0
  0
SOLID
  5
875
330
39E
100
AcDbEntity
  8
0
 62
     0
100
AcDbTrace
 10
-7.540540881519113
 20
53.00806701879208
 30
0.0
 11
-6.540540881519113
 21
53.00806701879208
 31
0.0
 12
-7.040540881519113
 22
50.00806701879208
 32
0.0
 13
-7.040540881519113
 23
50.00806701879208
 33
0.0
  0
MTEXT
  5
876
330
39E
100
AcDbEntity
  8
0
 62
     0
100
AcDbMText
 10
-9.630540881519121
 20
57.34806701879212
 30
0.0
 40
5.0
 41
0.0
 71
     5
 72
     1
  1
\A1;0
 11
6.123031769111886E-17
 21
1.0
 31
0.0
 73
     1
 44
1.0
  0
POINT
  5
877
330
39E
100
AcDbEntity
  8
DEFPOINTS
 62
     0
100
AcDbPoint
 10
0.0
 20
50.00806701879208
 30
0.0
  0
POINT
  5
878
330
39E
100
AcDbEntity
  8
DEFPOINTS
 62
     0
100
AcDbPoint
 10
0.0
 20
50.00806701879208
 30
0.0
  0
POINT
  5
879
330
39E
100
AcDbEntity
  8
DEFPOINTS
 62
     0
100
AcDbPoint
 10
-7.040540881519113
 20
50.00806701879208
 30
0.0
  0
ENDBLK
  5
3AA
330
39E
100
AcDbEntity
  8
0
100
AcDbBlockEnd
  0
BLOCK
  5
419
330
40E
100
AcDbEntity
  8
0
100
AcDbBlockBegin
  2
*D5
 70
     1
 71
     0
 10
0.0
 20
0.0
 30
0.0
  3
*D5
  1

  0
LINE
  5
87A
330
40E
100
AcDbEntity
  8
AM_5
 62
     0
370
    -2
100
AcDbLine
 10
0.0
 20
60.0
 30
0.0
 11
-20.89798798927563
 21
60.00000000000001
 31
0.0
  0
LINE
  5
87B
330
40E
100
AcDbEntity
  8
AM_5
 62
     0
370
    -2
100
AcDbLine
 10
-1.0
 20
50.00806701879208
 30
0.0
 11
-20.89798798927563
 21
50.00806701879208
 31
0.0
  0
LINE
  5
87C
330
40E
100
AcDbEntity
  8
AM_5
 62
     0
370
    -2
100
AcDbLine
 10
-18.89798798927563
 20
57.00000000000001
 30
0.0
 11
-18.89798798927563
 21
53.00806701879208
 31
0.0
  0
SOLID
  5
87D
330
40E
100
AcDbEntity
  8
AM_5
 62
     0
100
AcDbTrace
 10
-19.39798798927563
 20
57.00000000000001
 30
0.0
 11
-18.39798798927563
 21
57.00000000000001
 31
0.0
 12
-18.89798798927563
 22
60.00000000000001
 32
0.0
 13
-18.89798798927563
 23
60.00000000000001
 33
0.0
  0
SOLID
  5
87E
330
40E
100
AcDbEntity
  8
AM_5
 62
     0
100
AcDbTrace
 10
-19.39798798927563
 20
53.00806701879208
 30
0.0
 11
-18.39798798927563
 21
53.00806701879208
 31
0.0
 12
-18.89798798927563
 22
50.00806701879208
 32
0.0
 13
-18.89798798927563
 23
50.00806701879208
 33
0.0
  0
MTEXT
  5
87F
330
40E
100
AcDbEntity
  8
AM_5
 62
     0
100
AcDbMText
 10
-21.48798798927564
 20
55.00403350939604
 30
0.0
 40
5.0
 41
0.0
 71
     5
 72
     1
  1
\A1;10
 11
6.123031769111886E-17
 21
1.0
 31
0.0
 73
     1
 44
1.0
  0
POINT
  5
880
330
40E
100
AcDbEntity
  8
DEFPOINTS
 62
     0
100
AcDbPoint
 10
1.0
 20
60.0
 30
0.0
  0
POINT
  5
881
330
40E
100
AcDbEntity
  8
DEFPOINTS
 62
     0
100
AcDbPoint
 10
0.0
 20
50.00806701879208
 30
0.0
  0
POINT
  5
882
330
40E
100
AcDbEntity
  8
DEFPOINTS
 62
     0
100
AcDbPoint
 10
-18.89798798927563
 20
50.00806701879208
 30
0.0
  0
ENDBLK
  5
41A
330
40E
100
AcDbEntity
  8
0
100
AcDbBlockEnd
  0
BLOCK
  5
497
330
48D
100
AcDbEntity
  8
0
100
AcDbBlockBegin
  2
*D6
 70
     1
 71
     0
 10
0.0
 20
0.0
 30
0.0
  3
*D6
  1

  0
LINE
  5
883
330
48D
100
AcDbEntity
  8
0
 62
     0
370
    -2
100
AcDbLine
 10
-0.0000000000000001
 20
49.0
 30
0.0
 11
-0.0000000000000017
 21
23.00000000000019
 31
0.0
  0
LINE
  5
884
330
48D
100
AcDbEntity
  8
0
 62
     0
370
    -2
100
AcDbLine
 10
119.9999999999999
 20
49.49999999999996
 30
0.0
 11
119.9999999999999
 21
23.00000000000019
 31
0.0
  0
LINE
  5
885
330
48D
100
AcDbEntity
  8
0
 62
     0
370
    -2
100
AcDbLine
 10
2.999999999999999
 20
25.00000000000019
 30
0.0
 11
116.9999999999999
 21
25.00000000000019
 31
0.0
  0
SOLID
  5
886
330
48D
100
AcDbEntity
  8
0
 62
     0
100
AcDbTrace
 10
2.999999999999999
 20
25.50000000000019
 30
0.0
 11
2.999999999999999
 21
24.50000000000019
 31
0.0
 12
-0.0000000000000015
 22
25.00000000000019
 32
0.0
 13
-0.0000000000000015
 23
25.00000000000019
 33
0.0
  0
SOLID
  5
887
330
48D
100
AcDbEntity
  8
0
 62
     0
100
AcDbTrace
 10
116.9999999999999
 20
25.50000000000019
 30
0.0
 11
116.9999999999999
 21
24.50000000000019
 31
0.0
 12
119.9999999999999
 22
25.00000000000019
 32
0.0
 13
119.9999999999999
 23
25.00000000000019
 33
0.0
  0
MTEXT
  5
888
330
48D
100
AcDbEntity
  8
0
 62
     0
100
AcDbMText
 10
59.99999999999997
 20
27.59000000000019
 30
0.0
 40
5.0
 41
0.0
 71
     5
 72
     1
  1
\A1;120
 73
     1
 44
1.0
  0
POINT
  5
889
330
48D
100
AcDbEntity
  8
DEFPOINTS
 62
     0
100
AcDbPoint
 10
0.0
 20
50.0
 30
0.0
  0
POINT
  5
88A
330
48D
100
AcDbEntity
  8
DEFPOINTS
 62
     0
100
AcDbPoint
 10
119.9999999999999
 20
50.49999999999996
 30
0.0
  0
POINT
  5
88B
330
48D
100
AcDbEntity
  8
DEFPOINTS
 62
     0
100
AcDbPoint
 10
119.9999999999999
 20
25.00000000000019
 30
0.0
  0
ENDBLK
  5
498
330
48D
100
AcDbEntity
  8
0
100
AcDbBlockEnd
  0
BLOCK
  5
4CC
330
4C2
100
AcDbEntity
  8
0
100
AcDbBlockBegin
  2
*D7
 70
     1
 71
     0
 10
0.0
 20
0.0
 30
0.0
  3
*D7
  1

  0
LINE
  5
88C
330
4C2
100
AcDbEntity
  8
0
 62
     0
370
    -2
100
AcDbLine
 10
-1.0
 20
0.0000000000000003
 30
0.0
 11
-16.72233938460067
 21
0.0000000000000047
 31
0.0
  0
LINE
  5
88D
330
4C2
100
AcDbEntity
  8
0
 62
     0
370
    -2
100
AcDbLine
 10
18.44352528574621
 20
-10.0
 30
0.0
 11
-16.72233938460067
 21
-9.999999999999991
 31
0.0
  0
LINE
  5
88E
330
4C2
100
AcDbEntity
  8
0
 62
     0
370
    -2
100
AcDbLine
 10
-14.72233938460067
 20
-2.999999999999996
 30
0.0
 11
-14.72233938460067
 21
-6.999999999999991
 31
0.0
  0
SOLID
  5
88F
330
4C2
100
AcDbEntity
  8
0
 62
     0
100
AcDbTrace
 10
-15.22233938460067
 20
-2.999999999999996
 30
0.0
 11
-14.22233938460067
 21
-2.999999999999996
 31
0.0
 12
-14.72233938460067
 22
0.0000000000000042
 32
0.0
 13
-14.72233938460067
 23
0.0000000000000042
 33
0.0
  0
SOLID
  5
890
330
4C2
100
AcDbEntity
  8
0
 62
     0
100
AcDbTrace
 10
-15.22233938460067
 20
-6.999999999999991
 30
0.0
 11
-14.22233938460067
 21
-6.999999999999991
 31
0.0
 12
-14.72233938460067
 22
-9.999999999999991
 32
0.0
 13
-14.72233938460067
 23
-9.999999999999991
 33
0.0
  0
MTEXT
  5
891
330
4C2
100
AcDbEntity
  8
0
 62
     0
100
AcDbMText
 10
-17.31233938460067
 20
-4.999999999999996
 30
0.0
 40
5.0
 41
0.0
 71
     5
 72
     1
  1
\A1;10
 11
6.123031769111886E-17
 21
1.0
 31
0.0
 73
     1
 44
1.0
  0
POINT
  5
892
330
4C2
100
AcDbEntity
  8
DEFPOINTS
 62
     0
100
AcDbPoint
 10
0.0
 20
0.0
 30
0.0
  0
POINT
  5
893
330
4C2
100
AcDbEntity
  8
DEFPOINTS
 62
     0
100
AcDbPoint
 10
19.44352528574621
 20
-10.0
 30
0.0
  0
POINT
  5
894
330
4C2
100
AcDbEntity
  8
DEFPOINTS
 62
     0
100
AcDbPoint
 10
-14.72233938460067
 20
-9.999999999999991
 30
0.0
  0
ENDBLK
  5
4CD
330
4C2
100
AcDbEntity
  8
0
100
AcDbBlockEnd
  0
BLOCK
  5
524
330
515
100
AcDbEntity
  8
0
100
AcDbBlockBegin
  2
*D8
 70
     1
 71
     0
 10
0.0
 20
0.0
 30
0.0
  3
*D8
  1

  0
LINE
  5
895
330
515
100
AcDbEntity
  8
0
 62
     0
370
    -2
100
AcDbLine
 10
-0.0000000000000002
 20
-1.0
 30
0.0
 11
-0.0000000000000047
 21
-27.47324953113547
 31
0.0
  0
LINE
  5
896
330
515
100
AcDbEntity
  8
0
 62
     0
370
    -2
100
AcDbLine
 10
0.318179335526437
 20
-3.027274888706647
 30
0.0
 11
2.871735870745683
 21
-27.32274826749146
 31
0.0
  0
ARC
  5
897
330
515
100
AcDbEntity
  8
0
 62
     0
370
    -2
100
AcDbCircle
 10
0.0
 20
0.0
 30
0.0
 40
25.47324953113547
100
AcDbArc
 50
256.4730895200532
 51
270.0
  0
LINE
  5
898
330
515
100
AcDbEntity
  8
0
 62
     0
370
    -2
100
AcDbLine
 10
-5.958244963778158
 20
-24.7666259031606
 30
0.0
 11
-14.23541987221927
 21
-22.77533989168027
 31
0.0
  0
ARC
  5
899
330
515
100
AcDbEntity
  8
0
 62
     0
370
    -2
100
AcDbCircle
 10
0.0
 20
0.0
 30
0.0
 40
25.47324953113547
100
AcDbArc
 50
256.4966713727382
 51
263.2483356863691
  0
ARC
  5
89A
330
515
100
AcDbEntity
  8
0
 62
     0
370
    -2
100
AcDbCircle
 10
0.0
 20
0.0
 30
0.0
 40
25.47324953113547
100
AcDbArc
 50
282.7516628798861
 51
289.5033271935169
  0
ARC
  5
89B
330
515
100
AcDbEntity
  8
0
 62
     0
370
    -2
100
AcDbCircle
 10
0.0
 20
0.0
 30
0.0
 40
25.47324953113547
100
AcDbArc
 50
270.0
 51
275.9999985662551
  0
SOLID
  5
89C
330
515
100
AcDbEntity
  8
0
 62
     0
100
AcDbTrace
 10
-2.965351613975853
 20
-24.79746124661817
 30
0.0
 11
-3.024236916307093
 21
-25.79572600166533
 31
0.0
 12
-0.0000000000000044
 22
-25.47324953113547
 32
0.0
 13
-0.0000000000000044
 23
-25.47324953113547
 33
0.0
  0
SOLID
  5
89D
330
515
100
AcDbEntity
  8
0
 62
     0
100
AcDbTrace
 10
5.704056793821356
 20
-25.33829562089384
 30
0.0
 11
5.541147015247498
 21
-24.35165465071014
 31
0.0
 12
2.662678993983351
 22
-25.33370447152356
 32
0.0
 13
2.662678993983351
 23
-25.33370447152356
 33
0.0
  0
MTEXT
  5
89E
330
515
100
AcDbEntity
  8
0
 62
     0
100
AcDbMText
 10
-9.491026141209279
 20
-21.25282905879132
 30
0.0
 40
5.0
 41
0.0
 71
     5
 72
     1
  1
\A1;6°
 11
0.9722601693548687
 21
-0.2339020373704387
 31
0.0
 73
     1
 44
1.0
  0
POINT
  5
89F
330
515
100
AcDbEntity
  8
DEFPOINTS
 62
     0
100
AcDbPoint
 10
1.776923638176942
 20
-25.41119800520198
 30
0.0
  0
POINT
  5
8A0
330
515
100
AcDbEntity
  8
DEFPOINTS
 62
     0
100
AcDbPoint
 10
0.0
 20
0.0
 30
0.0
  0
POINT
  5
8A1
330
515
100
AcDbEntity
  8
DEFPOINTS
 62
     0
100
AcDbPoint
 10
0.0
 20
50.0
 30
0.0
  0
POINT
  5
8A2
330
515
100
AcDbEntity
  8
DEFPOINTS
 62
     0
100
AcDbPoint
 10
0.0
 20
0.0
 30
0.0
  0
POINT
  5
8A3
330
515
100
AcDbEntity
  8
DEFPOINTS
 62
     0
100
AcDbPoint
 10
0.2136508971452713
 20
-2.032752990722699
 30
0.0
  0
ENDBLK
  5
525
330
515
100
AcDbEntity
  8
0
100
AcDbBlockEnd
  0
BLOCK
  5
573
330
569
100
AcDbEntity
  8
0
100
AcDbBlockBegin
  2
*D9
 70
     1
 71
     0
 10
0.0
 20
0.0
 30
0.0
  3
*D9
  1

  0
LINE
  5
8A4
330
569
100
AcDbEntity
  8
0
 62
     0
370
    -2
100
AcDbLine
 10
-0.0000000000000001
 20
-1.0
 30
0.0
 11
-0.0000000000000024
 21
-39.71791002563407
 31
0.0
  0
LINE
  5
8A5
330
569
100
AcDbEntity
  8
0
 62
     0
370
    -2
100
AcDbLine
 10
15.0
 20
-14.0
 30
0.0
 11
15.0
 21
-39.71791002563407
 31
0.0
  0
LINE
  5
8A6
330
569
100
AcDbEntity
  8
0
 62
     0
370
    -2
100
AcDbLine
 10
2.999999999999998
 20
-37.71791002563407
 30
0.0
 11
12.0
 21
-37.71791002563407
 31
0.0
  0
SOLID
  5
8A7
330
569
100
AcDbEntity
  8
0
 62
     0
100
AcDbTrace
 10
2.999999999999998
 20
-37.21791002563407
 30
0.0
 11
2.999999999999998
 21
-38.21791002563407
 31
0.0
 12
-0.0000000000000023
 22
-37.71791002563407
 32
0.0
 13
-0.0000000000000023
 23
-37.71791002563407
 33
0.0
  0
SOLID
  5
8A8
330
569
100
AcDbEntity
  8
0
 62
     0
100
AcDbTrace
 10
12.0
 20
-37.21791002563407
 30
0.0
 11
12.0
 21
-38.21791002563407
 31
0.0
 12
15.0
 22
-37.71791002563407
 32
0.0
 13
15.0
 23
-37.71791002563407
 33
0.0
  0
MTEXT
  5
8A9
330
569
100
AcDbEntity
  8
0
 62
     0
100
AcDbMText
 10
7.499999999999998
 20
-35.12791002563407
 30
0.0
 40
5.0
 41
0.0
 71
     5
 72
     1
  1
\A1;15
 73
     1
 44
1.0
  0
POINT
  5
8AA
330
569
100
AcDbEntity
  8
DEFPOINTS
 62
     0
100
AcDbPoint
 10
0.0
 20
0.0
 30
0.0
  0
POINT
  5
8AB
330
569
100
AcDbEntity
  8
DEFPOINTS
 62
     0
100
AcDbPoint
 10
15.0
 20
-13.0
 30
0.0
  0
POINT
  5
8AC
330
569
100
AcDbEntity
  8
DEFPOINTS
 62
     0
100
AcDbPoint
 10
15.0
 20
-37.71791002563407
 30
0.0
  0
ENDBLK
  5
574
330
569
100
AcDbEntity
  8
0
100
AcDbBlockEnd
  0
BLOCK
  5
5A7
330
59B
100
AcDbEntity
  8
0
100
AcDbBlockBegin
  2
*D10
 70
     1
 71
     0
 10
0.0
 20
0.0
 30
0.0
  3
*D10
  1

  0
LINE
  5
8AD
330
59B
100
AcDbEntity
  8
0
 62
     0
370
    -2
100
AcDbLine
 10
16.0
 20
-13.0
 30
0.0
 11
29.79694553070584
 21
-13.00000000000001
 31
0.0
  0
LINE
  5
8AE
330
59B
100
AcDbEntity
  8
0
 62
     0
370
    -2
100
AcDbLine
 10
17.99999999999994
 20
-10.0
 30
0.0
 11
29.79694553070584
 21
-10.0
 31
0.0
  0
LINE
  5
8AF
330
59B
100
AcDbEntity
  8
0
 62
     0
370
    -2
100
AcDbLine
 10
27.79694553070584
 20
-7.000000000000003
 30
0.0
 11
27.79694553070584
 21
-4.000000000000003
 31
0.0
  0
LINE
  5
8B0
330
59B
100
AcDbEntity
  8
0
 62
     0
370
    -2
100
AcDbLine
 10
27.79694553070584
 20
-16.0
 30
0.0
 11
27.79694553070583
 21
-25.06573561204847
 31
0.0
  0
LINE
  5
8B1
330
59B
100
AcDbEntity
  8
0
 62
     0
370
    -2
100
AcDbLine
 10
27.79694553070584
 20
-10.0
 30
0.0
 11
27.79694553070584
 21
-13.0
 31
0.0
  0
SOLID
  5
8B2
330
59B
100
AcDbEntity
  8
0
 62
     0
100
AcDbTrace
 10
27.29694553070584
 20
-7.000000000000003
 30
0.0
 11
28.29694553070584
 21
-7.000000000000003
 31
0.0
 12
27.79694553070584
 22
-10.0
 32
0.0
 13
27.79694553070584
 23
-10.0
 33
0.0
  0
SOLID
  5
8B3
330
59B
100
AcDbEntity
  8
0
 62
     0
100
AcDbTrace
 10
27.29694553070584
 20
-16.0
 30
0.0
 11
28.29694553070584
 21
-16.0
 31
0.0
 12
27.79694553070584
 22
-13.0
 32
0.0
 13
27.79694553070584
 23
-13.0
 33
0.0
  0
MTEXT
  5
8B4
330
59B
100
AcDbEntity
  8
0
 62
     0
100
AcDbMText
 10
25.20694553070584
 20
-23.3090689453818
 30
0.0
 40
5.0
 41
0.0
 71
     5
 72
     1
  1
\A1;3
 11
6.123031769111886E-17
 21
1.0
 31
0.0
 73
     1
 44
1.0
  0
POINT
  5
8B5
330
59B
100
AcDbEntity
  8
DEFPOINTS
 62
     0
100
AcDbPoint
 10
15.0
 20
-13.0
 30
0.0
  0
POINT
  5
8B6
330
59B
100
AcDbEntity
  8
DEFPOINTS
 62
     0
100
AcDbPoint
 10
16.99999999999994
 20
-10.0
 30
0.0
  0
POINT
  5
8B7
330
59B
100
AcDbEntity
  8
DEFPOINTS
 62
     0
100
AcDbPoint
 10
27.79694553070584
 20
-10.0
 30
0.0
  0
ENDBLK
  5
5A8
330
59B
100
AcDbEntity
  8
0
100
AcDbBlockEnd
  0
BLOCK
  5
5D5
330
5C5
100
AcDbEntity
  8
0
100
AcDbBlockBegin
  2
*D11
 70
     1
 71
     0
 10
0.0
 20
0.0
 30
0.0
  3
*D11
  1

  0
LINE
  5
8B8
330
5C5
100
AcDbEntity
  8
0
 62
     0
370
    -2
100
AcDbLine
 10
15.24287463897037
 20
50.79884520971824
 30
0.0
 11
30.48943631703406
 21
51.59788364896743
 31
0.0
  0
ARC
  5
8B9
330
5C5
100
AcDbEntity
  8
0
 62
     0
370
    -2
100
AcDbCircle
 10
-0.0000000000009501
 20
50.00000000000001
 30
0.0
 40
28.53127837294355
100
AcDbArc
 50
347.9286406243197
 51
0.0
  0
LINE
  5
8BA
330
5C5
100
AcDbEntity
  8
0
 62
     0
370
    -2
100
AcDbLine
 10
27.90039181522461
 20
44.03326034158598
 30
0.0
 11
26.12000038090776
 21
35.70817470929032
 31
0.0
  0
ARC
  5
8BB
330
5C5
100
AcDbEntity
  8
0
 62
     0
370
    -2
100
AcDbCircle
 10
-0.0000000000009501
 20
50.00000000000001
 30
0.0
 40
28.53127837294355
100
AcDbArc
 50
347.9453967622997
 51
353.9726983811498
  0
ARC
  5
8BC
330
5C5
100
AcDbEntity
  8
0
 62
     0
370
    -2
100
AcDbCircle
 10
-0.0000000000009501
 20
50.00000000000001
 30
0.0
 40
28.53127837294355
100
AcDbArc
 50
9.027301618849977
 51
15.05460323770014
  0
ARC
  5
8BD
330
5C5
100
AcDbEntity
  8
0
 62
     0
370
    -2
100
AcDbCircle
 10
-0.0000000000009501
 20
50.00000000000001
 30
0.0
 40
28.53127837294355
100
AcDbArc
 50
0.0
 51
2.999999999999826
  0
SOLID
  5
8BE
330
5C5
100
AcDbEntity
  8
0
 62
     0
100
AcDbTrace
 10
27.87424821486913
 20
47.0304358280411
 30
0.0
 11
28.87286525215707
 21
46.97786194823127
 31
0.0
 12
28.5312783729426
 22
50.0
 32
0.0
 13
28.5312783729426
 23
50.0
 33
0.0
  0
SOLID
  5
8BF
330
5C5
100
AcDbEntity
  8
0
 62
     0
100
AcDbTrace
 10
28.67512950895563
 20
54.52908532904718
 30
0.0
 11
27.68063254588403
 21
54.42431992234548
 31
0.0
 12
28.49217724752491
 22
51.49321173648154
 32
0.0
 13
28.49217724752491
 23
51.49321173648154
 33
0.0
  0
MTEXT
  5
8C0
330
5C5
100
AcDbEntity
  8
0
 62
     0
100
AcDbMText
 10
29.54292575205746
 20
39.3290714234553
 30
0.0
 40
5.0
 41
0.0
 71
     5
 72
     1
  1
\A1;3°
 11
-0.2091297691053462
 21
-0.9778878972939304
 31
0.0
 73
     1
 44
1.0
  0
POINT
  5
8C1
330
5C5
100
AcDbEntity
  8
DEFPOINTS
 62
     0
100
AcDbPoint
 10
28.51389788904714
 20
50.99572725549463
 30
0.0
  0
POINT
  5
8C2
330
5C5
100
AcDbEntity
  8
DEFPOINTS
 62
     0
100
AcDbPoint
 10
14.24424510421579
 20
50.7465092534753
 30
0.0
  0
POINT
  5
8C3
330
5C5
100
AcDbEntity
  8
DEFPOINTS
 62
     0
100
AcDbPoint
 10
15.0
 20
50.0
 30
0.0
  0
POINT
  5
8C4
330
5C5
100
AcDbEntity
  8
DEFPOINTS
 62
     0
100
AcDbPoint
 10
119.4999999999999
 20
49.99999999999996
 30
0.0
  0
POINT
  5
8C5
330
5C5
100
AcDbEntity
  8
DEFPOINTS
 62
     0
100
AcDbPoint
 10
0.1578503934364903
 20
50.00827258857903
 30
0.0
  0
ENDBLK
  5
5D6
330
5C5
100
AcDbEntity
  8
0
100
AcDbBlockEnd
  0
ENDSEC
  0
SECTION
  2
ENTITIES
  0
LINE
  5
162
330
22
100
AcDbEntity
  8
2
  6
Continuous
100
AcDbLine
 10
12.33048820495606
 20
0.5004453659058044
 30
0.0
 11
3.001020908355656
 21
0.5004453659058044
 31
0.0
  0
LINE
  5
163
330
22
100
AcDbEntity
  8
2
  6
Continuous
100
AcDbLine
 10
13.23757171630859
 20
0.0839996337891051
 30
0.0
 11
6.0
 21
0.0839996337891051
 31
0.0
  0
LINE
  5
164
330
22
100
AcDbEntity
  8
2
  6
Continuous
100
AcDbLine
 10
7.634213447570801
 20
-11.85567092895509
 30
0.0
 11
7.800000190734863
 21
-11.5685195922852
 31
0.0
  0
LINE
  5
165
330
22
100
AcDbEntity
  8
2
  6
Continuous
100
AcDbLine
 10
3.001020908355656
 20
0.5004453659058044
 30
0.0
 11
1.559767723083496
 21
0.3004455566405824
 31
0.0
  0
LINE
  5
166
330
22
100
AcDbEntity
  8
2
  6
DASHED
100
AcDbLine
 10
3.001020908355656
 20
-6.860618591308594
 30
0.0
 11
3.001020908355656
 21
0.5004453659058044
 31
0.0
  0
LINE
  5
167
330
22
100
AcDbEntity
  8
2
  6
DASHED
100
AcDbLine
 10
11.24991321563715
 20
-6.425989151000991
 30
0.0
 11
4.875043392181397
 21
-10.1065216064453
 31
0.0
  0
LINE
  5
168
330
22
100
AcDbEntity
  8
2
  6
DASHED
100
AcDbLine
 10
6.74906587600708
 20
0.5004453659058044
 30
0.0
 11
12.77085971832281
 21
-2.976238250732408
 31
0.0
  0
CIRCLE
  5
169
330
22
100
AcDbEntity
  8
2
  6
Continuous
100
AcDbCircle
 10
7.0
 20
-4.262054443359418
 30
0.0
 40
3.200000047683716
  0
LINE
  5
16A
330
22
100
AcDbEntity
  8
2
  6
Continuous
100
AcDbLine
 10
7.800000190734863
 20
-11.58601951599121
 30
0.0
 11
14.48919105529785
 21
0.0
 31
0.0
  0
LINE
  5
16B
330
22
100
AcDbEntity
  8
2
  6
Continuous
100
AcDbLine
 10
3.799999952316284
 20
-7.429096221923786
 30
0.0
 11
0.5
 21
-1.713329315185504
 31
0.0
  0
CIRCLE
  5
16C
330
22
100
AcDbEntity
  8
2
  6
Continuous
100
AcDbCircle
 10
7.0
 20
-4.462055206298786
 30
0.0
 40
2.900000095367432
  0
LINE
  5
16D
330
22
100
AcDbEntity
  8
2
  6
Continuous
100
AcDbLine
 10
8.948556900024414
 20
-3.337055206298786
 30
0.0
 11
5.051443099975586
 21
-5.587055206298786
 31
0.0
  0
LINE
  5
16E
330
22
100
AcDbEntity
  8
2
  6
CENTER
100
AcDbLine
 10
7.0
 20
-8.362054824829102
 30
0.0
 11
7.0
 21
-0.5620536804199077
 31
0.0
  0
LINE
  5
16F
330
22
100
AcDbEntity
  8
2
  6
Continuous
100
AcDbLine
 10
7.0
 20
-6.712055206298786
 30
0.0
 11
7.0
 21
-2.212055206298786
 31
0.0
  0
LINE
  5
170
330
22
100
AcDbEntity
  8
2
  6
Continuous
100
AcDbLine
 10
5.051443099975586
 20
-3.337055206298786
 30
0.0
 11
8.948556900024414
 21
-5.587055206298786
 31
0.0
  0
LINE
  5
171
330
22
100
AcDbEntity
  8
2
  6
CENTER
100
AcDbLine
 10
3.099999904632568
 20
-4.462055206298786
 30
0.0
 11
10.89999961853027
 21
-4.462055206298786
 31
0.0
  0
LINE
  5
172
330
22
100
AcDbEntity
  8
2
  6
Continuous
100
AcDbLine
 10
13.44782638549805
 20
0.0
 30
0.0
 11
119.9999999999999
 21
-0.0000000000000284
 31
0.0
  0
LINE
  5
173
330
22
100
AcDbEntity
  8
2
  6
Continuous
100
AcDbLine
 10
15.0
 20
-13.0
 30
0.0
 11
15.0
 21
0.0839996337891051
 31
0.0
  0
LINE
  5
174
330
22
100
AcDbEntity
  8
2
  6
Continuous
100
AcDbLine
 10
7.800000190734863
 20
-13.0
 30
0.0
 11
7.800000190734863
 21
-11.58601951599121
 31
0.0
  0
LINE
  5
175
330
22
100
AcDbEntity
  8
2
  6
Continuous
100
AcDbLine
 10
3.799999952316284
 20
-7.429096221923786
 30
0.0
 11
3.799999952316284
 21
-13.0
 31
0.0
  0
LINE
  5
176
330
22
100
AcDbEntity
  8
2
  6
Continuous
100
AcDbLine
 10
0.5
 20
-12.5
 30
0.0
 11
0.5
 21
-1.713329315185504
 31
0.0
  0
LINE
  5
177
330
22
100
AcDbEntity
  8
2
  6
Continuous
100
AcDbLine
 10
16.99999999999994
 20
-10.0
 30
0.0
 11
119.9999999999999
 21
-10.00000000000003
 31
0.0
  0
LINE
  5
178
330
22
100
AcDbEntity
  8
2
  6
Continuous
100
AcDbLine
 10
0.1174208968877792
 20
-1.033185958862305
 30
0.0
 11
0.5
 21
-1.695831298828082
 31
0.0
  0
LINE
  5
179
330
22
100
AcDbEntity
  8
2
  6
DASHED
100
AcDbLine
 10
0.5
 20
-2.5845623016357
 30
0.0
 11
3.799999952316284
 21
-8.300329208374009
 31
0.0
  0
LINE
  5
17A
330
22
100
AcDbEntity
  8
2
  6
Continuous
100
AcDbLine
 10
4.875043392181397
 20
-10.1065216064453
 30
0.0
 11
3.799999952316284
 21
-8.244491577148395
 31
0.0
  0
LINE
  5
17B
330
22
100
AcDbEntity
  8
2
  6
Continuous
100
AcDbLine
 10
0.5
 20
-2.528724670410199
 30
0.0
 11
0.2136508971452713
 21
-2.032752990722699
 31
0.0
  0
LINE
  5
17C
330
22
100
AcDbEntity
  8
2
  6
Continuous
100
AcDbLine
 10
12.63957595825195
 20
-3.018131256103501
 30
0.0
 11
14.19104671478266
 21
-0.3309030532837056
 31
0.0
  0
LINE
  5
17D
330
22
100
AcDbEntity
  8
2
  6
Continuous
100
AcDbLine
 10
14.19104671478266
 20
-0.3309030532837056
 30
0.0
 11
12.35300445556641
 21
0.4874458312987855
 31
0.0
  0
ARC
  5
17E
330
22
100
AcDbEntity
  8
2
  6
Continuous
100
AcDbCircle
 10
55.94084548950195
 20
-28.01812744140625
 30
0.0
 40
50.0
100
AcDbArc
 50
150.0000034086851
 51
153.3216463164546
  0
LINE
  5
17F
330
22
100
AcDbEntity
  8
2
  6
Continuous
100
AcDbLine
 10
0.0
 20
0.0
 30
0.0
 11
0.2136508971452713
 21
-2.032752990722699
 31
0.0
  0
LINE
  5
180
330
22
100
AcDbEntity
  8
2
  6
Continuous
100
AcDbLine
 10
3.102942228317261
 20
0.0
 30
0.0
 11
0.0
 21
0.0
 31
0.0
  0
ARC
  5
181
330
22
100
AcDbEntity
  8
2
  6
Continuous
100
AcDbCircle
 10
3.102942228317261
 20
49.99999999999999
 30
0.0
 40
50.0
100
AcDbArc
 50
270.0
 51
273.321643971318
  0
ARC
  5
182
330
22
100
AcDbEntity
  8
2
  6
Continuous
100
AcDbCircle
 10
-38.04378890991211
 20
-34.76803207397461
 30
0.0
 40
50.0
100
AcDbArc
 50
29.99999955736748
 51
33.32164275593095
  0
LINE
  5
183
330
22
100
AcDbEntity
  8
2
  6
Continuous
100
AcDbLine
 10
5.257482051849365
 20
-9.768032073974595
 30
0.0
 11
6.80895280838007
 21
-12.4552593231201
 31
0.0
  0
LINE
  5
184
330
22
100
AcDbEntity
  8
2
  6
Continuous
100
AcDbLine
 10
6.80895280838007
 20
-12.4552593231201
 30
0.0
 11
7.800000190734863
 21
-11.73522186279301
 31
0.0
  0
LINE
  5
185
330
22
100
AcDbEntity
  8
2
  6
Continuous
100
AcDbLine
 10
6.0
 20
0.3004455566405824
 30
0.0
 11
1.559767723083496
 21
0.3004455566405824
 31
0.0
  0
POLYLINE
  5
186
330
22
100
AcDbEntity
  8
2
  6
Continuous
100
AcDb2dPolyline
 66
     1
 10
0.0
 20
0.0
 30
0.0
  0
VERTEX
  5
187
330
186
100
AcDbEntity
  8
2
  6
Continuous
100
AcDbVertex
100
AcDb2dVertex
 10
6.0
 20
0.0839996337891051
 30
0.0
  0
VERTEX
  5
188
330
186
100
AcDbEntity
  8
2
  6
Continuous
100
AcDbVertex
100
AcDb2dVertex
 10
8.633721369817863
 20
0.1863852881425885
 30
0.0
  0
VERTEX
  5
189
330
186
100
AcDbEntity
  8
2
  6
Continuous
100
AcDbVertex
100
AcDb2dVertex
 10
9.5
 20
0.2504453659058044
 30
0.0
  0
VERTEX
  5
18A
330
186
100
AcDbEntity
  8
2
  6
Continuous
100
AcDbVertex
100
AcDb2dVertex
 10
8.633716071911181
 20
0.2856843860307947
 30
0.0
  0
VERTEX
  5
18B
330
186
100
AcDbEntity
  8
2
  6
Continuous
100
AcDbVertex
100
AcDb2dVertex
 10
6.0
 20
0.3004455566405824
 30
0.0
  0
SEQEND
  5
18C
330
186
100
AcDbEntity
  8
2
  0
ARC
  5
18D
330
22
100
AcDbEntity
  8
2
  6
Continuous
100
AcDbCircle
 10
0.2326942384243012
 20
2.990961074829102
 30
0.0
 40
3.0
100
AcDbArc
 50
274.4486021966992
 51
296.2544203670371
  0
ARC
  5
18E
330
22
100
AcDbEntity
  8
2
  6
Continuous
100
AcDbCircle
 10
4.102356910705566
 20
-13.7492218017578
 30
0.0
 40
3.0
100
AcDbArc
 50
34.44860906275097
 51
56.25442032500674
  0
LINE
  5
18F
330
22
100
AcDbEntity
  8
2
  6
Continuous
100
AcDbLine
 10
4.875043392181397
 20
-10.1065216064453
 30
0.0
 11
5.768875122070313
 21
-11.2546844482422
 31
0.0
  0
LINE
  5
190
330
22
100
AcDbEntity
  8
2
  6
Continuous
100
AcDbLine
 10
3.799999952316284
 20
-7.844491958618207
 30
0.0
 11
5.768875122070313
 21
-11.2546844482422
 31
0.0
  0
ARC
  5
191
330
22
100
AcDbEntity
  8
2
  6
Continuous
100
AcDbCircle
 10
16.66494941711426
 20
-2.027904510498004
 30
0.0
 40
3.000000476837158
100
AcDbArc
 50
154.4485919758761
 51
164.9677226150186
  0
LINE
  5
192
330
22
100
AcDbEntity
  8
2
  6
DASHED
100
AcDbLine
 10
7.800000190734863
 20
-12.45607757568359
 30
0.0
 11
14.99152088165278
 21
0.0
 31
0.0
  0
LINE
  5
193
330
22
100
AcDbEntity
  8
2
  6
Continuous
100
AcDbLine
 10
16.99999999999994
 20
-10.0
 30
0.0
 11
16.99999999999994
 21
-9.799999999999997
 31
0.0
  0
LINE
  5
194
330
22
100
AcDbEntity
  8
2
  6
Continuous
100
AcDbLine
 10
15.0
 20
-9.799999999999997
 30
0.0
 11
16.99999999999994
 21
-9.799999999999997
 31
0.0
  0
LINE
  5
195
330
22
100
AcDbEntity
  8
2
  6
Continuous
100
AcDbLine
 10
1.0
 20
-13.0
 30
0.0
 11
15.0
 21
-13.0
 31
0.0
  0
LINE
  5
196
330
22
100
AcDbEntity
  8
2
  6
Continuous
100
AcDbLine
 10
0.5
 20
-12.5
 30
0.0
 11
1.0
 21
-13.0
 31
0.0
  0
ARC
  5
1B3
330
22
100
AcDbEntity
  8
25
  6
Continuous
100
AcDbCircle
 10
0.1499999999999773
 20
50.15806701879208
 30
0.0
 40
0.1500000000000007
100
AcDbArc
 50
180.0000000000002
 51
273.0000000000027
  0
LINE
  5
1B4
330
22
100
AcDbEntity
  8
25
  6
Continuous
100
AcDbLine
 10
0.0
 20
50.15806701879208
 30
0.0
 11
0.0
 21
50.500686172999
 31
0.0
  0
LINE
  5
1B5
330
22
100
AcDbEntity
  8
25
  6
Continuous
100
AcDbLine
 10
0.0
 20
50.500686172999
 30
0.0
 11
2.755845148237086
 21
54.9109603204131
 31
0.0
  0
ARC
  5
1B6
330
22
100
AcDbEntity
  8
25
  6
Continuous
100
AcDbCircle
 10
8.40984711104943
 20
51.94279993019691
 30
0.0
 40
1.000000000000004
100
AcDbArc
 50
285.5453149206418
 51
92.99999999999974
  0
ARC
  5
1B7
330
22
100
AcDbEntity
  8
25
  6
Continuous
100
AcDbCircle
 10
0.6378348583558591
 20
79.8819449698
 30
0.0
 40
30.00000000000002
100
AcDbArc
 50
279.4923117933472
 51
285.5453149206415
  0
LINE
  5
1B8
330
22
100
AcDbEntity
  8
25
  6
Continuous
100
AcDbLine
 10
8.357511154806502
 20
52.94142946495151
 30
0.0
 11
2.373789909502307
 21
52.62783592263631
 31
0.0
  0
ARC
  5
1B9
330
22
100
AcDbEntity
  8
25
  6
Continuous
100
AcDbCircle
 10
2.438462341954391
 20
50.62888182699509
 30
0.0
 40
2.0
100
AcDbArc
 50
91.85305174558604
 51
147.9999999999999
  0
LINE
  5
1BA
330
22
100
AcDbEntity
  8
25
  6
Continuous
100
AcDbLine
 10
2.088930981251167
 20
53.29892150268279
 30
0.0
 11
2.913695715415997
 21
54.61882098510219
 31
0.0
  0
LINE
  5
1BB
330
22
100
AcDbEntity
  8
25
  6
Continuous
100
AcDbLine
 10
2.373789909502307
 20
52.62783592263631
 30
0.0
 11
2.088930981251167
 21
53.29892150268279
 31
0.0
  0
LINE
  5
1BC
330
22
100
AcDbEntity
  8
25
  6
Continuous
100
AcDbLine
 10
2.088930981251167
 20
53.29892150268279
 30
0.0
 11
0.9177672612745482
 21
51.92791472557633
 31
0.0
  0
LINE
  5
1BD
330
22
100
AcDbEntity
  8
25
  6
Continuous
100
AcDbLine
 10
2.913695715415997
 20
54.61882098510219
 30
0.0
 11
2.755845148237086
 21
54.9109603204131
 31
0.0
  0
LINE
  5
1BE
330
22
100
AcDbEntity
  8
25
  6
CENTER
100
AcDbLine
 10
7.0215433321099
 20
49.77223018628681
 30
0.0
 11
6.338375795942056
 21
62.8078433245224
 31
0.0
  0
LINE
  5
1BF
330
22
100
AcDbEntity
  8
25
  6
Continuous
100
AcDbLine
 10
14.24424510421579
 20
50.7465092534753
 30
0.0
 11
0.1578503934364903
 21
50.00827258857902
 31
0.0
  0
LINE
  5
1C0
330
22
100
AcDbEntity
  8
25
  6
Continuous
100
AcDbLine
 10
14.21807712609427
 20
51.24582402085258
 30
0.0
 11
14.24424510421579
 21
50.7465092534753
 31
0.0
  0
LINE
  5
1C1
330
22
100
AcDbEntity
  8
25
  6
Continuous
100
AcDbLine
 10
14.21807712609427
 20
51.24582402085258
 30
0.0
 11
12.85683044451821
 21
55.44033029916591
 31
0.0
  0
LINE
  5
1C2
330
22
100
AcDbEntity
  8
25
  6
Continuous
100
AcDbLine
 10
13.09514559839397
 20
51.18697367319891
 30
0.0
 11
13.21943030420636
 21
50.69280098563039
 31
0.0
  0
LINE
  5
1C3
330
22
100
AcDbEntity
  8
25
  6
Continuous
100
AcDbLine
 10
13.09514559839397
 20
51.18697367319891
 30
0.0
 11
6.490697549514664
 21
55.1066954115181
 31
0.0
  0
LINE
  5
1C4
330
22
100
AcDbEntity
  8
25
  6
Continuous
100
AcDbLine
 10
14.73876901861888
 20
55.53895852058159
 30
0.0
 11
0.5
 21
54.79273625659161
 31
0.0
  0
LINE
  5
1C5
330
22
100
AcDbEntity
  8
25
  6
Continuous
100
AcDbLine
 10
6.955799524787835
 20
54.8306586693829
 30
0.0
 11
2.913695715415997
 21
54.61882098510219
 31
0.0
  0
LINE
  5
1C6
330
22
100
AcDbEntity
  8
25
  6
Continuous
100
AcDbLine
 10
8.571009100293509
 20
50.94987372616009
 30
0.0
 11
14.21807712609427
 21
51.24582402085258
 31
0.0
  0
LINE
  5
1C7
330
22
100
AcDbEntity
  8
25
  6
Continuous
100
AcDbLine
 10
14.23901150859149
 20
50.8463722069508
 30
0.0
 11
14.95368061963779
 21
50.88382642798291
 31
0.0
  0
LINE
  5
1C8
330
22
100
AcDbEntity
  8
25
  6
Continuous
100
AcDbLine
 10
14.51253160205135
 20
50.86070678763832
 30
0.0
 11
14.73876901861888
 21
55.53895852058159
 31
0.0
  0
LINE
  5
1C9
330
22
100
AcDbEntity
  8
25
  6
Continuous
100
AcDbLine
 10
14.95368061963779
 20
50.88382642798291
 30
0.0
 11
15.0
 21
50.0
 31
0.0
  0
LINE
  5
1CA
330
22
100
AcDbEntity
  8
25
  6
Continuous
100
AcDbLine
 10
15.0
 20
50.0
 30
0.0
 11
119.4999999999999
 21
49.99999999999996
 31
0.0
  0
LINE
  5
1CB
330
22
100
AcDbEntity
  8
25
  6
Continuous
100
AcDbLine
 10
0.5
 20
51.3133234784878
 30
0.0
 11
0.5
 21
59.5
 31
0.0
  0
LINE
  5
1CC
330
22
100
AcDbEntity
  8
25
  6
Continuous
100
AcDbLine
 10
1.0
 20
60.0
 30
0.0
 11
119.4999999999999
 21
59.99999999999996
 31
0.0
  0
LINE
  5
1CD
330
22
100
AcDbEntity
  8
25
  6
DASHED
100
AcDbLine
 10
15.0
 20
50.0
 30
0.0
 11
15.0
 21
60.0
 31
0.0
  0
LINE
  5
1CE
330
22
100
AcDbEntity
  8
25
  6
Continuous
100
AcDbLine
 10
0.0
 20
50.0
 30
0.0
 11
0.0
 21
0.0
 31
0.0
  0
LINE
  5
1CF
330
22
100
AcDbEntity
  8
25
  6
Continuous
100
AcDbLine
 10
119.9999999999999
 20
50.49999999999996
 30
0.0
 11
119.9999999999999
 21
59.49999999999996
 31
0.0
  0
LINE
  5
1D0
330
22
100
AcDbEntity
  8
25
  6
Continuous
100
AcDbLine
 10
119.4999999999999
 20
59.99999999999996
 30
0.0
 11
119.9999999999999
 21
59.49999999999996
 31
0.0
  0
LINE
  5
1D1
330
22
100
AcDbEntity
  8
25
  6
Continuous
100
AcDbLine
 10
119.9999999999999
 20
50.49999999999996
 30
0.0
 11
119.4999999999999
 21
49.99999999999996
 31
0.0
  0
LINE
  5
1D2
330
22
100
AcDbEntity
  8
25
  6
Continuous
100
AcDbLine
 10
119.4999999999999
 20
49.99999999999996
 30
0.0
 11
119.4999999999999
 21
59.99999999999996
 31
0.0
  0
LINE
  5
1E1
330
22
100
AcDbEntity
  8
25
  6
Continuous
100
AcDbLine
 10
0.0
 20
50.15806701879208
 30
0.0
 11
0.0
 21
50.0
 31
0.0
  0
LINE
  5
1E4
330
22
100
AcDbEntity
  8
25
  6
Continuous
100
AcDbLine
 10
0.5
 20
59.5
 30
0.0
 11
1.0
 21
60.0
 31
0.0
  0
DIMENSION
  5
30D
330
22
100
AcDbEntity
  8
0
100
AcDbDimension
  2
*D2
 10
133.7200924811472
 20
49.99999999999996
 30
0.0
 11
133.7200924811472
 21
54.93491657166415
 31
0.0
 70
   160
 71
     5
 42
10.0
  3
Standard$0
100
AcDbAlignedDimension
 13
113.4185241324316
 23
59.99999999999996
 33
0.0
 14
113.4185241324316
 24
49.99999999999996
 34
0.0
 50
90.0
100
AcDbRotatedDimension
1001
ACAD
1000
DSTYLE
1002
{
1070
    41
1040
3.0
1070
    42
1040
1.0
1070
    43
1040
5.0
1070
    44
1040
2.0
1070
    46
1040
3.0
1070
    73
1070
     0
1070
    74
1070
     0
1070
    77
1070
     1
1070
    78
1070
     8
1070
   140
1040
5.0
1070
   141
1040
2.0
1070
   145
1040
1.0
1070
   171
1070
     4
1070
   172
1070
     1
1002
}
  0
LINE
  5
343
330
22
100
AcDbEntity
  8
0
100
AcDbLine
 10
119.9999999999999
 20
-10.00000000000003
 30
0.0
 11
119.9999999999999
 21
-0.0000000000000284
 31
0.0
  0
DIMENSION
  5
354
330
22
100
AcDbEntity
  8
0
100
AcDbDimension
  2
*D3
 10
133.92391393663
 20
-10.00000000000003
 30
0.0
 11
131.33391393663
 21
-5.000000000000012
 31
0.0
 70
    32
 71
     5
 42
10.0
  3
Standard$0
100
AcDbAlignedDimension
 13
117.1845852877891
 23
-0.0000000000000284
 33
0.0
 14
117.1845852877891
 24
-10.00000000000003
 34
0.0
 50
90.0
100
AcDbRotatedDimension
1001
ACAD
1000
DSTYLE
1002
{
1070
    41
1040
3.0
1070
    42
1040
1.0
1070
    43
1040
5.0
1070
    44
1040
2.0
1070
    46
1040
3.0
1070
    73
1070
     0
1070
    74
1070
     0
1070
    77
1070
     1
1070
    78
1070
     8
1070
   140
1040
5.0
1070
   141
1040
2.0
1070
   145
1040
1.0
1070
   171
1070
     4
1070
   172
1070
     1
1002
}
  0
LINE
  5
38D
330
22
100
AcDbEntity
  8
0
100
AcDbLine
 10
0.0
 20
50.00806701879208
 30
0.0
 11
0.1578497734965367
 21
50.00806701879208
 31
0.0
  0
DIMENSION
  5
39D
330
22
100
AcDbEntity
  8
0
100
AcDbDimension
  2
*D4
 10
-7.040540881519113
 20
50.00806701879208
 30
0.0
 11
-7.040540881519121
 21
57.34806701879212
 31
0.0
 70
   160
 71
     5
 42
-1.0
  3
Standard$0
100
AcDbAlignedDimension
 13
0.0
 23
50.00806701879208
 33
0.0
 14
0.0
 24
50.00806701879208
 34
0.0
 50
90.0
100
AcDbRotatedDimension
1001
ACAD
1000
DSTYLE
1002
{
1070
    41
1040
3.0
1070
    42
1040
1.0
1070
    43
1040
5.0
1070
    44
1040
2.0
1070
    46
1040
3.0
1070
    73
1070
     0
1070
    74
1070
     0
1070
    77
1070
     1
1070
    78
1070
     8
1070
   140
1040
5.0
1070
   141
1040
2.0
1070
   145
1040
1.0
1070
   171
1070
     4
1070
   172
1070
     1
1002
}
  0
DIMENSION
  5
40D
330
22
100
AcDbEntity
  8
AM_5
 62
     0
100
AcDbDimension
  2
*D5
 10
-18.89798798927563
 20
50.00806701879208
 30
0.0
 11
-21.48798798927564
 21
55.00403350939604
 31
0.0
 70
    32
 71
     5
 42
9.991932981207924
  3
Standard$0
100
AcDbAlignedDimension
 13
1.0
 23
60.0
 33
0.0
 14
0.0
 24
50.00806701879208
 34
0.0
 50
90.0
100
AcDbRotatedDimension
1001
ACAD
1000
DSTYLE
1002
{
1070
    41
1040
3.0
1070
    42
1040
1.0
1070
    43
1040
5.0
1070
    44
1040
2.0
1070
    46
1040
3.0
1070
    73
1070
     0
1070
    74
1070
     0
1070
    77
1070
     1
1070
    78
1070
     8
1070
   140
1040
5.0
1070
   141
1040
2.0
1070
   145
1040
1.0
1070
   171
1070
     4
1070
   172
1070
     1
1070
   271
1070
     1
1002
}
  0
DIMENSION
  5
48C
330
22
100
AcDbEntity
  8
0
100
AcDbDimension
  2
*D6
 10
119.9999999999999
 20
25.00000000000019
 30
0.0
 11
59.99999999999997
 21
27.59000000000019
 31
0.0
 70
    32
 71
     5
 42
119.9999999999999
  3
Standard$0
100
AcDbAlignedDimension
 13
0.0
 23
50.0
 33
0.0
 14
119.9999999999999
 24
50.49999999999996
 34
0.0
100
AcDbRotatedDimension
1001
ACAD
1000
DSTYLE
1002
{
1070
    41
1040
3.0
1070
    42
1040
1.0
1070
    43
1040
5.0
1070
    44
1040
2.0
1070
    46
1040
3.0
1070
    73
1070
     0
1070
    74
1070
     0
1070
    77
1070
     1
1070
    78
1070
     8
1070
   140
1040
5.0
1070
   141
1040
2.0
1070
   145
1040
1.0
1070
   171
1070
     4
1070
   172
1070
     1
1070
   271
1070
     1
1002
}
  0
DIMENSION
  5
4C1
330
22
100
AcDbEntity
  8
0
100
AcDbDimension
  2
*D7
 10
-14.72233938460067
 20
-9.999999999999991
 30
0.0
 11
-17.31233938460067
 21
-4.999999999999996
 31
0.0
 70
    32
 71
     5
 42
9.999999999999996
  3
Standard$0
100
AcDbAlignedDimension
 13
0.0
 23
0.0
 33
0.0
 14
19.44352528574621
 24
-10.0
 34
0.0
 50
90.0
100
AcDbRotatedDimension
1001
ACAD
1000
DSTYLE
1002
{
1070
    41
1040
3.0
1070
    42
1040
1.0
1070
    43
1040
5.0
1070
    44
1040
2.0
1070
    46
1040
3.0
1070
    73
1070
     0
1070
    74
1070
     0
1070
    77
1070
     1
1070
    78
1070
     8
1070
   140
1040
5.0
1070
   141
1040
2.0
1070
   145
1040
1.0
1070
   171
1070
     4
1070
   172
1070
     1
1070
   271
1070
     1
1002
}
  0
TEXT
  5
4E5
330
22
100
AcDbEntity
  8
0
100
AcDbText
 10
46.42526028785284
 20
-44.17604693894334
 30
0.0
 40
5.0
  1
%%uSFTR1010
100
AcDbText
  0
DIMENSION
  5
514
330
22
100
AcDbEntity
  8
0
100
AcDbDimension
  2
*D8
 10
0.2136508971452713
 20
-2.032752990722699
 30
0.0
 11
-9.491026141209281
 21
-21.25282905879132
 31
0.0
 70
    34
 71
     5
 42
0.1047197300960905
  3
Standard$2
100
AcDb2LineAngularDimension
 13
0.0
 23
50.0
 33
0.0
 14
0.0
 24
0.0
 34
0.0
 15
0.0
 25
0.0
 35
0.0
 16
1.776923638176942
 26
-25.41119800520198
 36
0.0
1001
ACAD
1000
DSTYLE
1002
{
1070
    41
1040
3.0
1070
    42
1040
1.0
1070
    43
1040
5.0
1070
    44
1040
2.0
1070
    46
1040
3.0
1070
    73
1070
     0
1070
    74
1070
     0
1070
    77
1070
     1
1070
    78
1070
     8
1070
   140
1040
5.0
1070
   141
1040
2.0
1070
   145
1040
1.0
1070
   171
1070
     4
1070
   172
1070
     1
1070
   271
1070
     1
1002
}
  0
DIMENSION
  5
568
330
22
100
AcDbEntity
  8
0
100
AcDbDimension
  2
*D9
 10
15.0
 20
-37.71791002563407
 30
0.0
 11
7.499999999999998
 21
-35.12791002563407
 31
0.0
 70
    32
 71
     5
 42
15.0
  3
Standard$0
100
AcDbAlignedDimension
 13
0.0
 23
0.0
 33
0.0
 14
15.0
 24
-13.0
 34
0.0
100
AcDbRotatedDimension
1001
ACAD
1000
DSTYLE
1002
{
1070
    41
1040
3.0
1070
    42
1040
1.0
1070
    43
1040
5.0
1070
    44
1040
2.0
1070
    46
1040
3.0
1070
    73
1070
     0
1070
    74
1070
     0
1070
    77
1070
     1
1070
    78
1070
     8
1070
   140
1040
5.0
1070
   141
1040
2.0
1070
   145
1040
1.0
1070
   171
1070
     4
1070
   172
1070
     1
1070
   271
1070
     1
1002
}
  0
DIMENSION
  5
59A
330
22
100
AcDbEntity
  8
0
100
AcDbDimension
  2
*D10
 10
27.79694553070584
 20
-10.0
 30
0.0
 11
27.79694553070584
 21
-23.3090689453818
 31
0.0
 70
   160
 71
     5
 42
3.0
  3
Standard$0
100
AcDbAlignedDimension
 13
15.0
 23
-13.0
 33
0.0
 14
16.99999999999994
 24
-10.0
 34
0.0
 50
90.0
100
AcDbRotatedDimension
1001
ACAD
1000
DSTYLE
1002
{
1070
    41
1040
3.0
1070
    42
1040
1.0
1070
    43
1040
5.0
1070
    44
1040
2.0
1070
    46
1040
3.0
1070
    73
1070
     0
1070
    74
1070
     0
1070
    77
1070
     1
1070
    78
1070
     8
1070
   140
1040
5.0
1070
   141
1040
2.0
1070
   145
1040
1.0
1070
   171
1070
     4
1070
   172
1070
     1
1070
   271
1070
     1
1002
}
  0
DIMENSION
  5
5C4
330
22
100
AcDbEntity
  8
0
100
AcDbDimension
  2
*D11
 10
0.1578503934364903
 20
50.00827258857902
 30
0.0
 11
29.54292575205746
 21
39.3290714234553
 31
0.0
 70
    34
 71
     5
 42
0.0523598775598271
  3
Standard$2
100
AcDb2LineAngularDimension
 13
15.0
 23
50.0
 33
0.0
 14
119.4999999999999
 24
49.99999999999996
 34
0.0
 15
14.24424510421579
 25
50.7465092534753
 35
0.0
 16
28.51389788904714
 26
50.99572725549463
 36
0.0
1001
ACAD
1000
DSTYLE
1002
{
1070
    41
1040
3.0
1070
    42
1040
1.0
1070
    43
1040
5.0
1070
    44
1040
2.0
1070
    46
1040
3.0
1070
    73
1070
     0
1070
    74
1070
     0
1070
    77
1070
     1
1070
    78
1070
     8
1070
   140
1040
5.0
1070
   141
1040
2.0
1070
   145
1040
1.0
1070
   171
1070
     4
1070
   172
1070
     1
1070
   271
1070
     1
1002
}
  0
LINE
  5
714
330
22
100
AcDbEntity
  8
0
100
AcDbLine
 10
119.9999999999999
 20
50.49999999999996
 30
0.0
 11
119.9999999999999
 21
-0.0000000000000284
 31
0.0
  0
ENDSEC
  0
SECTION
  2
OBJECTS
  0
DICTIONARY
  5
C
330
0
100
AcDbDictionary
281
     1
  3
ACAD_COLOR
350
1B
  3
ACAD_GROUP
350
D
  3
ACAD_LAYOUT
350
19
  3
ACAD_MATERIAL
350
1A
  3
ACAD_MLINESTYLE
350
16
  3
ACAD_PLOTSETTINGS
350
18
  3
ACAD_PLOTSTYLENAME
350
E
  3
ACAD_TABLESTYLE
350
1C
  3
AcAmCatalogState
350
264
  3
ACDBHEADERROUNDTRIPXREC
350
8C9
  3
AcDbVariableDictionary
350
2B5
  3
ACDMSYSVARMGR
350
21E
  3
ACGREF_MASTER
350
218
  3
ACGREFACAD_MASTER
350
240
  3
AcmDictionary
350
262
  3
ACME_BOM_MANAGER_NAME
350
212
  3
ACME_COMMAND_HISTORY
350
20F
  3
ACME_SCOPE_NAME
350
20E
  3
ACMESTATEMGR
350
217
  3
AcmeSysVarManager
350
210
  3
AcmSystemVariableManager
350
26D
  3
AD_APPL
350
24F
  3
ADSYSVARMGR
350
24E
  3
AmdtNamedDwgMgr
350
23B
  3
AMG
350
244
  3
AMGSNAPSETTINGS
350
2A4
  3
AMI_MASTER
350
243
  3
AUTOCAD_ASSEMBLIES_PROJECT
350
257
  3
Designer_Assemblies_SysVars
350
252
  3
GREFAM_MODULE
350
248
  0
DICTIONARY
  5
1B
102
{ACAD_REACTORS
330
C
102
}
330
C
100
AcDbDictionary
281
     1
  0
DICTIONARY
  5
D
102
{ACAD_REACTORS
330
C
102
}
330
C
100
AcDbDictionary
281
     1
  0
DICTIONARY
  5
19
102
{ACAD_REACTORS
330
C
102
}
330
C
100
AcDbDictionary
281
     1
  3
Model
350
25
  3
レイアウト1
350
21
  0
DICTIONARY
  5
1A
102
{ACAD_REACTORS
330
C
102
}
330
C
100
AcDbDictionary
281
     1
  0
DICTIONARY
  5
16
102
{ACAD_REACTORS
330
C
102
}
330
C
100
AcDbDictionary
281
     1
  3
Standard
350
17
  0
DICTIONARY
  5
18
102
{ACAD_REACTORS
330
C
102
}
330
C
100
AcDbDictionary
281
     1
  0
ACDBDICTIONARYWDFLT
  5
E
102
{ACAD_REACTORS
330
C
102
}
330
C
100
AcDbDictionary
281
     1
  3
Normal
350
F
100
AcDbDictionaryWithDefault
340
F
  0
DICTIONARY
  5
1C
102
{ACAD_REACTORS
330
C
102
}
330
C
100
AcDbDictionary
281
     1
  3
Standard
350
1D
  0
ACAD_PROXY_OBJECT
  5
264
102
{ACAD_REACTORS
330
C
102
}
330
C
100
AcDbProxyObject
 90
      499
 91
      545
 95
       25
 70
     0
 93
      504
310
3FFFFFFFE00A0281402992E2E21BA3239AE483ECB654563CBCEAE4AABC7C0483ECB652E487CC6F6CBB846A445F7AE41BDC1B341A12E272A25C83ECB65400AA
  0
DICTIONARY
  5
8C9
102
{ACAD_REACTORS
330
C
102
}
330
C
100
AcDbDictionary
281
     1
  3
COLORDICT
350
8CA
  3
MATERIALDICT
350
8CB
  0
DICTIONARY
  5
2B5
102
{ACAD_REACTORS
330
C
102
}
330
C
100
AcDbDictionary
281
     1
  3
CTABLESTYLE
350
2B6
  3
DIMASSOC
350
8C7
  3
HIDETEXT
350
8C8
  0
ACAD_PROXY_OBJECT
  5
21E
102
{ACAD_REACTORS
330
C
102
}
330
C
100
AcDbProxyObject
 90
      499
 91
      505
 95
       25
 70
     0
 93
      240
310
4C51A47A0000000000000000000000000000000000000000000000000000
330
21F
330
220
330
221
330
222
330
223
330
224
330
225
330
226
330
227
330
228
330
229
330
22A
330
22B
330
22C
330
22D
330
22E
330
22F
330
230
330
231
330
232
330
233
330
234
330
235
330
236
330
237
330
238
 94
        0
  0
ACAD_PROXY_OBJECT
  5
218
102
{ACAD_REACTORS
330
C
102
}
330
C
100
AcDbProxyObject
 90
      499
 91
      513
 95
       25
 70
     0
 93
       34
310
0400004280
  0
ACAD_PROXY_OBJECT
  5
240
102
{ACAD_REACTORS
330
C
102
}
330
C
100
AcDbProxyObject
 90
      499
 91
      522
 95
       25
 70
     0
 93
      114
310
04000041C080000000000000000000
  0
DICTIONARY
  5
262
102
{ACAD_REACTORS
330
C
102
}
330
C
100
AcDbDictionary
281
     1
  3
AcmBOMDATA
350
263
  3
AcmStdDictionary
350
26F
  3
AMDTSECTSYM_ARROWCOLOR
350
28F
  0
ACAD_PROXY_OBJECT
  5
212
102
{ACAD_REACTORS
330
C
102
}
330
C
100
AcDbProxyObject
 90
      499
 91
      507
 95
       25
 70
     0
 93
       50
310
00010040400000
330
0
330
0
330
213
 94
        0
  0
ACAD_PROXY_OBJECT
  5
20F
102
{ACAD_REACTORS
330
C
102
}
330
C
100
AcDbProxyObject
 90
      499
 91
      504
 95
       25
 70
     0
 93
     6310
310
47805064D4952524F528050844524F5047454F4D805054552415345404052D4D5347202D205050413A2020206465736B746F702E6172782046696C6556657273696F6E3A20392E322E302E3401415454D05591501014B5354D1C80B481414104E88080819195CDADD1BDC0B985C9E08119A5B1955995C9CDA5BDB8E880E4B8
310
C8B8C0B8D005044C494E4540405184D5347202D20436F6D6D616E642043414E43454C4C45442E01415454D05591501014B5354D1C80B481414104E88080819195CDADD1BDC0B985C9E08119A5B1955995C9CDA5BDB8E880E4B8C8B8C0B8D0050E414D4454524553455444424D4F4440805084E202D20554E444F014213880B
310
4815539113C0504554E444F80504554E444F805074F5054494F4E53404052D4D5347202D205050413A2020206465736B746F702E6172782046696C6556657273696F6E3A20392E322E302E34014390535115149154D15511109353D1102014213880B4815539113C05084E202D20554E444F014115539113E014115539113E
310
014154155491D1501014B5354D1C80B481414104E88080819195CDADD1BDC0B985C9E08119A5B1955995C9CDA5BDB8E880E4B8C8B8C0B8D0050E414D4454524553455444424D4F4440805084E202D20554E444F014213880B4815539113C0504554E444F80504554E444F80506524F544154458050844524F5047454F4D805
310
044D4F5645805045A4F4F4D805055153415645404052D4D5347202D205050413A2020206465736B746F702E6172782046696C6556657273696F6E3A20392E322E302E3401415454D05591501014B5354D1C80B481414104E88080819195CDADD1BDC0B985C9E08119A5B1955995C9CDA5BDB8E880E4B8C8B8C0B8D0050E414
310
D4454524553455444424D4F4440805084E202D20554E444F014213880B4815539113C0504554E444F80504554E444F8050A50524F50455254494553805044D4F5645805045A4F4F4D805044C494E4540805184D5347202D20436F6D6D616E642043414E43454C4C45442E014B5354D1C80B481414104E88080819195CDADD1
310
BDC0B985C9E08119A5B1955995C9CDA5BDB8E880E4B8C8B8C0B8D0
  0
ACAD_PROXY_OBJECT
  5
20E
102
{ACAD_REACTORS
330
C
102
}
330
C
100
AcDbProxyObject
 90
      499
 91
      503
 95
       25
 70
     0
 93
      546
310
090000464080000000000000000012F4CE0000000000000000000000000000000000000000000000000000000000000000000000000000000000000000000000AAA406AA80
360
211
360
213
360
219
360
21A
360
21B
360
21C
360
21F
360
220
360
221
360
222
360
223
360
224
360
225
360
226
360
227
360
228
360
229
360
22A
360
22B
360
22C
360
22D
360
22E
360
22F
360
230
360
231
360
232
360
233
360
234
360
235
360
236
360
237
360
238
360
24A
360
24B
360
24C
360
24D
360
253
360
254
360
255
360
256
360
25B
360
25C
360
25D
360
25E
360
25F
360
260
360
26E
 94
        0
  0
ACAD_PROXY_OBJECT
  5
217
102
{ACAD_REACTORS
330
C
102
}
330
C
100
AcDbProxyObject
 90
      499
 91
      512
 95
       25
 70
     0
 93
       50
310
09000042641280
  0
ACAD_PROXY_OBJECT
  5
210
102
{ACAD_REACTORS
330
C
102
}
330
C
100
AcDbProxyObject
 90
      499
 91
      505
 95
       25
 70
     0
 93
       32
310
90140A00
330
211
 94
        0
  0
ACAD_PROXY_OBJECT
  5
26D
102
{ACAD_REACTORS
330
C
102
}
330
C
100
AcDbProxyObject
 90
      499
 91
      505
 95
       25
 70
     0
 93
       32
310
90140A00
330
26E
 94
        0
  0
ACAD_PROXY_OBJECT
  5
24F
102
{ACAD_REACTORS
330
C
102
}
330
C
100
AcDbProxyObject
 90
      499
 91
      533
 95
       25
 70
     0
 93
       42
310
000900004040
330
24A
 94
        0
  0
ACAD_PROXY_OBJECT
  5
24E
102
{ACAD_REACTORS
330
C
102
}
330
C
100
AcDbProxyObject
 90
      499
 91
      505
 95
       25
 70
     0
 93
        8
310
AA
  0
ACAD_PROXY_OBJECT
  5
23B
102
{ACAD_REACTORS
330
C
102
}
330
C
100
AcDbProxyObject
 90
      499
 91
      519
 95
       25
 70
     0
 93
       42
310
000100005E80
330
219
 94
        0
  0
DICTIONARY
  5
244
102
{ACAD_REACTORS
330
C
102
}
330
C
100
AcDbDictionary
281
     1
  3
AcMgSettings
350
245
  3
AMGLAYCFG
350
271
  0
DICTIONARY
  5
2A4
102
{ACAD_REACTORS
330
C
102
}
330
C
100
AcDbDictionary
281
     1
  3
DIMENSION
350
2A9
  3
FEA
350
2A8
  3
HATCH (1)
350
2A5
  3
HATCH (2)
350
2A6
  3
SIMPLE WELD
350
2AA
  3
SYMBOLS
350
2A7
  0
ACAD_PROXY_OBJECT
  5
243
102
{ACAD_REACTORS
330
C
102
}
330
C
100
AcDbProxyObject
 90
      499
 91
      525
 95
       25
 70
     0
 93
       34
310
0500004280
  0
ACAD_PROXY_OBJECT
  5
257
102
{ACAD_REACTORS
330
C
102
}
330
C
100
AcDbProxyObject
 90
      499
 91
      537
 95
       25
 70
     0
 93
       98
310
0900004E400000000000000000
330
25E
330
0
330
25F
330
0
330
0
330
0
330
0
330
0
 94
        0
  0
ACAD_PROXY_OBJECT
  5
252
102
{ACAD_REACTORS
330
C
102
}
330
C
100
AcDbProxyObject
 90
      499
 91
      505
 95
       25
 70
     0
 93
       56
310
90441600000000
330
253
330
254
330
255
330
256
 94
        0
  0
ACAD_PROXY_OBJECT
  5
248
102
{ACAD_REACTORS
330
C
102
}
330
C
100
AcDbProxyObject
 90
      499
 91
      527
 95
       25
 70
     0
 93
        8
310
05
  0
LAYOUT
  5
25
102
{ACAD_REACTORS
330
19
102
}
330
19
100
AcDbPlotSettings
  1

  2
Canon LBP9100C
  4
A4
  6

 40
5.789083480834961
 41
5.789072036743164
 42
5.789093017578125
 43
5.789093017578125
 44
209.9733276367188
 45
296.9259948730469
 46
0.0
 47
0.0
 48
137.761683334141
 49
52.60829743879197
140
323.5106229411992
141
187.231992913448
142
1.0
143
0.6785634361638552
 70
 11952
 72
     1
 73
     1
 74
     4
  7
sei_cad.ctb
 75
     0
147
1.473701568203163
148
-137.761683334141
149
-52.60829743879197
100
AcDbLayout
  1
Model
 70
     1
 71
     0
 10
0.0
 20
0.0
 11
12.0
 21
9.0
 12
0.0
 22
0.0
 32
0.0
 14
0.0
 24
0.0
 34
0.0
 15
0.0
 25
0.0
 35
0.0
146
0.0
 13
0.0
 23
0.0
 33
0.0
 16
1.0
 26
0.0
 36
0.0
 17
0.0
 27
1.0
 37
0.0
 76
     0
330
22
1001
ACAD_PSEXT
1000
Canon LBP9100C
1000
Canon LBP9100C
1000
IP_10.254.89.242
1000

1070
     0
  0
LAYOUT
  5
21
102
{ACAD_REACTORS
330
19
102
}
330
19
100
AcDbPlotSettings
  1

  2
Canon LBP-1420
  4

  6

 40
0.0
 41
0.0
 42
0.0
 43
0.0
 44
0.0
 45
0.0
 46
0.0
 47
0.0
 48
0.0
 49
0.0
140
0.0
141
0.0
142
1.0
143
1.0
 70
   688
 72
     0
 73
     0
 74
     5
  7
sei_cad.ctb
 75
    16
147
1.0
148
0.0
149
0.0
100
AcDbLayout
  1
レイアウト1
 70
     1
 71
     1
 10
0.0
 20
0.0
 11
12.0
 21
9.0
 12
0.0
 22
0.0
 32
0.0
 14
1.000000000000000E+20
 24
1.000000000000000E+20
 34
1.000000000000000E+20
 15
-1.000000000000000E+20
 25
-1.000000000000000E+20
 35
-1.000000000000000E+20
146
0.0
 13
0.0
 23
0.0
 33
0.0
 16
1.0
 26
0.0
 36
0.0
 17
0.0
 27
1.0
 37
0.0
 76
     0
330
1E
  0
MLINESTYLE
  5
17
102
{ACAD_REACTORS
330
16
102
}
330
16
100
AcDbMlineStyle
  2
STANDARD
 70
     0
  3

 62
   256
 51
90.0
 52
90.0
 71
     2
 49
0.5
 62
   256
  6
BYLAYER
 49
-0.5
 62
   256
  6
BYLAYER
  0
ACDBPLACEHOLDER
  5
F
102
{ACAD_REACTORS
330
E
102
}
330
E
  0
TABLESTYLE
  5
1D
102
{ACAD_REACTORS
330
1C
102
}
330
1C
100
AcDbTableStyle
  3
Standard
 70
     0
 71
     0
 40
0.06
 41
0.06
280
     0
281
     0
  7
STANDARD
140
0.18
170
     2
 62
     0
 63
     7
283
     0
274
    -2
284
     1
 64
     0
275
    -2
285
     1
 65
     0
276
    -2
286
     1
 66
     0
277
    -2
287
     1
 67
     0
278
    -2
288
     1
 68
     0
279
    -2
289
     1
 69
     0
  7
STANDARD
140
0.25
170
     5
 62
     0
 63
     7
283
     0
274
    -2
284
     1
 64
     0
275
    -2
285
     1
 65
     0
276
    -2
286
     1
 66
     0
277
    -2
287
     1
 67
     0
278
    -2
288
     1
 68
     0
279
    -2
289
     1
 69
     0
  7
STANDARD
140
0.18
170
     5
 62
     0
 63
     7
283
     0
274
    -2
284
     1
 64
     0
275
    -2
285
     1
 65
     0
276
    -2
286
     1
 66
     0
277
    -2
287
     1
 67
     0
278
    -2
288
     1
 68
     0
279
    -2
289
     1
 69
     0
  0
XRECORD
  5
8CA
102
{ACAD_REACTORS
330
8C9
102
}
330
8C9
100
AcDbXrecord
280
     1
340
1B
  0
XRECORD
  5
8CB
102
{ACAD_REACTORS
330
8C9
102
}
330
8C9
100
AcDbXrecord
280
     1
340
1A
  0
DICTIONARYVAR
  5
2B6
102
{ACAD_REACTORS
330
2B5
102
}
330
2B5
100
DictionaryVariables
280
     0
  1
STANDARD
  0
DICTIONARYVAR
  5
8C7
102
{ACAD_REACTORS
330
2B5
102
}
330
2B5
100
DictionaryVariables
280
     0
  1
1
  0
DICTIONARYVAR
  5
8C8
102
{ACAD_REACTORS
330
2B5
102
}
330
2B5
100
DictionaryVariables
280
     0
  1
0
  0
ACAD_PROXY_OBJECT
  5
263
102
{ACAD_REACTORS
330
262
102
}
330
262
100
AcDbProxyObject
 90
      499
 91
      544
 95
       25
 70
     0
 93
       76
310
90100057356C1D774060
  0
DICTIONARY
  5
26F
102
{ACAD_REACTORS
330
262
102
}
330
262
100
AcDbDictionary
281
     1
  3
ANSI
350
270
  0
XRECORD
  5
28F
102
{ACAD_REACTORS
330
262
102
}
330
262
100
AcDbXrecord
280
     1
 90
-1023410169
  0
ACAD_PROXY_OBJECT
  5
211
330
20E
100
AcDbProxyObject
 90
      499
 91
      506
 95
       25
 70
     0
 93
      156
310
000101439050D35154D6535093D314D256915080
330
20E
 94
        0
  0
ACAD_PROXY_OBJECT
  5
213
330
20E
100
AcDbProxyObject
 90
      499
 91
      508
 95
       25
 70
     0
 93
      120
310
000101422565255A6557080C402B00
330
20E
330
0
330
0
 94
        0
  0
ACAD_PROXY_OBJECT
  5
219
330
20E
100
AcDbProxyObject
 90
      499
 91
      514
 95
       25
 70
     0
 93
      366
310
0001014124FEA55D00507392E322E302E32014124FEA55D00507392E322E302E3240501000041905394D24CCC658
330
20E
330
21A
330
21E
 94
        0
  0
ACAD_PROXY_OBJECT
  5
21A
330
20E
100
AcDbProxyObject
 90
      499
 91
      515
 95
       25
 70
     0
 93
       48
310
000190140A00
330
20E
330
21B
 94
        0
  0
ACAD_PROXY_OBJECT
  5
21B
330
20E
100
AcDbProxyObject
 90
      499
 91
      516
 95
       25
 70
     0
 93
       48
310
0001AA000000
330
20E
330
21
330
21C
330
0
 94
        0
  0
ACAD_PROXY_OBJECT
  5
21C
330
20E
100
AcDbProxyObject
 90
      499
 91
      517
 95
       25
 70
     0
 93
       28
310
0001AAA0
330
20E
 94
        0
  0
ACAD_PROXY_OBJECT
  5
21F
330
20E
100
AcDbProxyObject
 90
      499
 91
      506
 95
       25
 70
     0
 93
      108
310
000101421053521310D05310D010
330
20E
 94
        0
  0
ACAD_PROXY_OBJECT
  5
220
330
20E
100
AcDbProxyObject
 90
      499
 91
      506
 95
       25
 70
     0
 93
      124
310
00010142905354915554D15112535010
330
20E
 94
        0
  0
ACAD_PROXY_OBJECT
  5
221
330
20E
100
AcDbProxyObject
 90
      499
 91
      506
 95
       25
 70
     0
 93
      132
310
00010143105354D150D51253D391125360
330
20E
 94
        0
  0
ACAD_PROXY_OBJECT
  5
222
330
20E
100
AcDbProxyObject
 90
      499
 91
      506
 95
       25
 70
     0
 93
      124
310
00010142905355941093D49111549010
330
20E
 94
        0
  0
ACAD_PROXY_OBJECT
  5
223
330
20E
100
AcDbProxyObject
 90
      499
 91
      506
 95
       25
 70
     0
 93
      116
310
0001014290535115D1D0D3D313D4A0
330
20E
 94
        0
  0
ACAD_PROXY_OBJECT
  5
224
330
20E
100
AcDbProxyObject
 90
      499
 91
      506
 95
       25
 70
     0
 93
      148
310
00010143505355925155D49151949154D21010
330
20E
 94
        0
  0
ACAD_PROXY_OBJECT
  5
225
330
20E
100
AcDbProxyObject
 90
      499
 91
      506
 95
       25
 70
     0
 93
      172
310
00010144105350539393D51154149154D15495915010
330
20E
 94
        0
  0
ACAD_PROXY_OBJECT
  5
226
330
20E
100
AcDbProxyObject
 90
      499
 91
      506
 95
       25
 70
     0
 93
      172
310
00010144105350555513D11253505494905391D15010
330
20E
 94
        0
  0
ACAD_PROXY_OBJECT
  5
227
330
20E
100
AcDbProxyObject
 90
      499
 91
      506
 95
       25
 70
     0
 93
      124
310
00010142D05351561514915191125360
330
20E
 94
        0
  0
ACAD_PROXY_OBJECT
  5
228
330
20E
100
AcDbProxyObject
 90
      499
 91
      506
 95
       25
 70
     0
 93
      132
310
00010142D05355105410539393D5115010
330
20E
 94
        0
  0
ACAD_PROXY_OBJECT
  5
229
330
20E
100
AcDbProxyObject
 90
      499
 91
      506
 95
       25
 70
     0
 93
      108
310
00010142105350555513D0D31010
330
20E
 94
        0
  0
ACAD_PROXY_OBJECT
  5
22A
330
20E
100
AcDbProxyObject
 90
      499
 91
      506
 95
       25
 70
     0
 93
      108
310
00010142105350D3119150551050
330
20E
 94
        0
  0
ACAD_PROXY_OBJECT
  5
22B
330
20E
100
AcDbProxyObject
 90
      499
 91
      506
 95
       25
 70
     0
 93
      108
310
00010142105350D315925155D3F0
330
20E
 94
        0
  0
ACAD_PROXY_OBJECT
  5
22C
330
20E
100
AcDbProxyObject
 90
      499
 91
      506
 95
       25
 70
     0
 93
      148
310
0001014350535212511156915493D112535010
330
20E
 94
        0
  0
ACAD_PROXY_OBJECT
  5
22D
330
20E
100
AcDbProxyObject
 90
      499
 91
      506
 95
       25
 70
     0
 93
      124
310
00010142905352105510D21254D3D010
330
20E
 94
        0
  0
ACAD_PROXY_OBJECT
  5
22E
330
20E
100
AcDbProxyObject
 90
      499
 91
      506
 95
       25
 70
     0
 93
      148
310
00010143905354D25391D31152105513105660
330
20E
 94
        0
  0
ACAD_PROXY_OBJECT
  5
22F
330
20E
100
AcDbProxyObject
 90
      499
 91
      506
 95
       25
 70
     0
 93
      124
310
00010142D0535115D1D193111254D420
330
20E
 94
        0
  0
ACAD_PROXY_OBJECT
  5
230
330
20E
100
AcDbProxyObject
 90
      499
 91
      506
 95
       25
 70
     0
 93
      100
310
00010142105350555513D213A0
330
20E
 94
        0
  0
ACAD_PROXY_OBJECT
  5
231
330
20E
100
AcDbProxyObject
 90
      499
 91
      506
 95
       25
 70
     0
 93
      116
310
000101425053521390D3D553951010
330
20E
 94
        0
  0
ACAD_PROXY_OBJECT
  5
232
330
20E
100
AcDbProxyObject
 90
      499
 91
      506
 95
       25
 70
     0
 93
      108
310
0001014210535213941493D29010
330
20E
 94
        0
  0
ACAD_PROXY_OBJECT
  5
233
330
20E
100
AcDbProxyObject
 90
      499
 91
      506
 95
       25
 70
     0
 93
      108
310
0001014210535213951654115070
330
20E
 94
        0
  0
ACAD_PROXY_OBJECT
  5
234
330
20E
100
AcDbProxyObject
 90
      499
 91
      506
 95
       25
 70
     0
 93
      108
310
000101421053521395925155D0F0
330
20E
 94
        0
  0
ACAD_PROXY_OBJECT
  5
235
330
20E
100
AcDbProxyObject
 90
      499
 91
      506
 95
       25
 70
     0
 93
      140
310
00010143505354D150D51253D390D3D41660
330
20E
 94
        0
  0
ACAD_PROXY_OBJECT
  5
236
330
20E
100
AcDbProxyObject
 90
      499
 91
      506
 95
       25
 70
     0
 93
      108
310
00010142105350D3141493D29030
330
20E
 94
        0
  0
ACAD_PROXY_OBJECT
  5
237
330
20E
100
AcDbProxyObject
 90
      499
 91
      518
 95
       25
 70
     0
 93
      212
310
00010143905350555513D2105510D21493D500000000000002E400
330
20E
 94
        0
  0
ACAD_PROXY_OBJECT
  5
238
330
20E
100
AcDbProxyObject
 90
      499
 91
      506
 95
       25
 70
     0
 93
      156
310
00010143905350555513D2105510D21111551010
330
20E
 94
        0
  0
ACAD_PROXY_OBJECT
  5
24A
330
20E
100
AcDbProxyObject
 90
      499
 91
      529
 95
       25
 70
     0
 93
      698
310
0001000000009AA6A9AA4051E546875204175672032342030303A35343A313420323030362028555443290141CE4B8C8B8C0B8C80518547565204175672033312031363A34373A333820323031300141CE4B8C8B8C0B8C80
330
20E
330
24B
330
24C
330
24E
330
0
 94
        0
  0
ACAD_PROXY_OBJECT
  5
24B
330
20E
100
AcDbProxyObject
 90
      499
 91
      530
 95
       25
 70
     0
 93
       70
310
0001AAA80820000000
330
20E
330
24B
330
24B
 94
        0
  0
ACAD_PROXY_OBJECT
  5
24C
330
20E
100
AcDbProxyObject
 90
      499
 91
      531
 95
       25
 70
     0
 93
       48
310
000100000000
330
20E
330
0
330
24D
330
0
330
0
 94
        0
  0
ACAD_PROXY_OBJECT
  5
24D
330
20E
100
AcDbProxyObject
 90
      499
 91
      532
 95
       25
 70
     0
 93
       40
310
000100AAAA
330
20E
330
0
 94
        0
  0
ACAD_PROXY_OBJECT
  5
253
330
20E
100
AcDbProxyObject
 90
      499
 91
      536
 95
       25
 70
     0
 93
      180
310
00010143105050D3D35411119390535140504434F4D500
330
20E
 94
        0
  0
ACAD_PROXY_OBJECT
  5
254
330
20E
100
AcDbProxyObject
 90
      499
 91
      536
 95
       25
 70
     0
 93
      212
310
0001014390505193D311115491119390535140506466F6C6465720
330
20E
 94
        0
  0
ACAD_PROXY_OBJECT
  5
255
330
20E
100
AcDbProxyObject
 90
      499
 91
      536
 95
       25
 70
     0
 93
      180
310
00010143105050539393D1119390535140504284156290
330
20E
 94
        0
  0
ACAD_PROXY_OBJECT
  5
256
330
20E
100
AcDbProxyObject
 90
      499
 91
      536
 95
       25
 70
     0
 93
      436
310
00010143905050D3D35415925155D31254D50052295BD96CA0A90B396CA0A894591A496CA0A8DB691A496CA0A89BA96CA0A95E28F95310
330
20E
 94
        0
  0
ACAD_PROXY_OBJECT
  5
25B
330
20E
100
AcDbProxyObject
 90
      499
 91
      538
 95
       25
 70
     0
 93
       32
310
00010000
330
20E
340
258
330
25D
330
258
 94
        0
  0
ACAD_PROXY_OBJECT
  5
25C
330
20E
100
AcDbProxyObject
 90
      499
 91
      539
 95
       25
 70
     0
 93
       18
310
000180
330
20E
 94
        0
  0
ACAD_PROXY_OBJECT
  5
25D
330
20E
100
AcDbProxyObject
 90
      499
 91
      540
 95
       25
 70
     0
 93
      154
310
0001014214D195148C4C0C4C1050055401550000
330
20E
330
25B
330
25C
 94
        0
  0
ACAD_PROXY_OBJECT
  5
25E
330
20E
100
AcDbProxyObject
 90
      499
 91
      541
 95
       25
 70
     0
 93
      178
310
000100AAAAAA886C1D5444F2B1D1E96D7C73F2DD430F00
330
20E
330
25D
 94
        0
  0
ACAD_PROXY_OBJECT
  5
25F
330
20E
100
AcDbProxyObject
 90
      499
 91
      542
 95
       25
 70
     0
 93
      108
310
000190140A000000000000AAAAA0
330
20E
330
260
330
260
330
260
330
260
330
260
330
0
 94
        0
  0
ACAD_PROXY_OBJECT
  5
260
330
20E
100
AcDbProxyObject
 90
      499
 91
      543
 95
       25
 70
     0
 93
       51
310
00010000AAAA80
330
20E
330
25F
330
25D
 94
        0
  0
ACAD_PROXY_OBJECT
  5
26E
330
20E
100
AcDbProxyObject
 90
      499
 91
      536
 95
       25
 70
     0
 93
      148
310
00010142105350D55494D51100504414E53490
330
20E
 94
        0
  0
DICTIONARY
  5
245
102
{ACAD_REACTORS
330
244
102
}
330
244
100
AcDbDictionary
281
     1
  3
DWGSETTINGS
350
246
  3
Shaft
350
733
  3
TRANSSETTINGS
350
247
  0
ACAD_PROXY_OBJECT
  5
271
102
{ACAD_REACTORS
330
244
102
}
330
244
100
AcDbProxyObject
 90
      499
 91
      551
 95
       25
 70
     0
 93
    17920
310
41503491013041105357CC201C00030C011E441013141105357CC603800030C011E441013241105357CCA01400030C011E441013341105357CCE01800030C010F9013441105357CD200C00030C010F9013541105357CD600C00030C010F9013641105357CDA00800030C011E9013741105357CDE01000030C010F901384110
310
5357CE200400030C010F9013941105357CE63F400030C0241102324141505357CC4C201C00030C011E902344141505357CC4C600C00030C010F902495041505357CC4CA01C00030C011E40902304E41505357CC13A01C00030C011E902314E41505357CC53A03800030C011E902324E41505357CC93A01400030C011E90233
310
4E41505357CCD3A01800030C010F902344E41505357CD13A00C00030C010F902354E41505357CD53A00C00030C010F902364E41505357CD93A00800030C011E902374E41505357CDD3A01000030C010F902384E41505357CE13A00400030C010F902394E41505357CE53A3F400030C024110332414E41905357CC4C13A01C0
310
0030C011E90334414E41905357CC4C53A00C00030C010F90349504E41905357CC4C93A01C00030C011E409044B4C494E41505357D0D3200400030C010F42504494E464F42105357D410549151A01000030C010F42D055241484D3541905357D093D4A01C00030C011E425045649455742105357D5925155D4E00400030C010
310
F42D06424548494E4441905357D25395A3F400030C0243505545241494C41505357D514A00C00030C010F4250348494441905357D21251201C00030C010F4250356495341905357D59254E01C00030C011E4250650415244494D42505357D41054911253600C00030C010F4250652454644494D42505357D49151911253601
310
000030C010F425534110921395901398000000C0003FFFFFFFE415092139594D06424548494E448000000C0003FFFFFFFE411093D48C9055241484D358010000C30043E411093D48CD055241484D358020000C30047A411093D48D5055241484D358000000C0003FFFFFFFE4110D0530C901348000000C0003FFFFFFFE4110
310
D0530CD01348020000C30047A4110D0530D501348070000C30047A4110D0530DD013481E0000C3004F24110D15393901378000000C0003FFFFFFFE4110D15395D01378000000C0003FFFFFFFE4110D312539044B4C494E8000000C0003FFFFFFFE4110D3D38C501308000000C0003FFFFFFFD034110D3D38C901318000000C
310
0003FFFFFFFD034110D3D38CD01328000000C0003FFFFFFFD034110D3D38D101328000000C0003FFFFFFFD034111115510501348000000C0003FFFFFFFE4111125051D01358000000C0003FFFFFFFE4111125312501358000000C0003FFFFFFFE411112535410650415244494D8000000C0003FFFFFFFE4111125354906524
310
54644494D8000000C0003FFFFFFFE4111915353901388000000C0003FFFFFFFE415191535413901388030000C3003FFFFFFFE4151915354D410234418000000C0003FFFFFFFE4151915354D510234418030000C30043E415191535593901328000000C0003FFFFFFFE415191535595101328030000C30043E4112105510D01
310
388000000C0003FFFFFFFD014112125113901338000000C0003FFFFFFFD034112125115D01338000000C0003FFFFFFFD034112131253901348000000C0003FFFFFFFD01411213D0D3901378000000C0003FFFFFFFE411213D0D5D01378000000C0003FFFFFFFE4112539193D04494E464F8000000C0003FFFFFFFE41131150
310
51101358000000C0003FFFFFFFE419397D0921395902394E8000000C0003FFFFFFFE419397D0D3D38C502304E8000000C0003FFFFFFFD03419397D0D3D38C902314E8000000C0003FFFFFFFD03419397D0D3D38CD02324E8000000C0003FFFFFFFD03419397D0D3D38D102324E8000000C0003FFFFFFFD03419397D0D15393
310
902374E8000000C0003FFFFFFFE419397D0D15395D02374E8000000C0003FFFFFFFE419397D1125312502354E8000000C0003FFFFFFFE419397D2105510D02384E8000000C0003FFFFFFFD01419397D2125113902334E8000000C0003FFFFFFFD03419397D2125115D02334E8000000C0003FFFFFFFD03419397D311505110
310
2354E8000000C0003FFFFFFFE419397D391D25410349504E8000000C0003FFFFFFFE419397D412105390334414E8000000C0003FFFFFFFE419397D510D3D3902304E8000000C0003FFFFFFFD03419397D5121312502344E8000000C0003FFFFFFFD01419397D5131153902304E8000000C0003FFFFFFFD03419397D5941312
310
50332414E8000000C0003FFFFFFFE411391D25410249508000000C0003FFFFFFFE411410530C9055241484D358010000C30043E411410530CD055241484D358020000C30047A411410530D5055241484D358000000C0003FFFFFFFE411412105390234418000000C0003FFFFFFFE411413D4D3901358000000C0003FFFFFFF
310
E411490D1D3901378000000C0003FFFFFFFE411490D1D5D01378000000C0003FFFFFFFE4114D09492D01348070000C300479014114D150D5101348000000C0003FFFFFFFD014114D6508CD01358020000C30047A411354D653501358020000C30047A411510D3D3901308000000C0003FFFFFFFD0341151213125013480000
310
00C0003FFFFFFFD01411512550C9055241484D358010000C30043E411512550CD055241484D358020000C30047A411512550D5055241484D358000000C0003FFFFFFFE4115131153901308000000C0003FFFFFFFD03415514905253105545241494C8000000C0003FFFFFFFE4115149312501348000000C0003FFFFFFFD014
310
11516150C501368030000C30043E411516150C901368030000C30043E411516150CD01368000000C0003FFFFFFFE411516150D501368070000C30047A411516150DD013681E0000C3004F24115925155D04564945578000000C0003FFFFFFFE41159151121034849448000000C0003FFFFFFFD024115915115903564953800
310
0000C0003FFFFFFFD02411594131250232418000000C0003FFFFFFFE4116925690501348000000C0003FFFFFFFD01AAA3F400030C01013F90A4391E41D1E4190F4151E4110F40D0F4091E4050F4793C7F6
340
15
340
15
340
15
340
239
340
15
340
15
340
15
340
28
340
15
340
15
340
28
340
23A
340
15
340
15
340
15
340
15
340
239
340
15
340
15
340
15
340
28
340
15
340
15
340
28
340
23A
340
15
340
275
340
15
340
15
340
15
340
15
340
15
340
239
340
15
340
15
340
15
340
14
340
14
340
14
340
14
340
14
340
14
340
14
340
14
340
14
340
27B
340
14
340
14
340
14
340
14
340
14
340
14
340
14
340
14
340
14
340
14
340
14
340
14
340
14
340
15
340
14
340
14
340
14
340
14
340
27C
340
14
340
14
340
27B
340
14
340
14
340
14
340
14
340
14
340
14
340
14
340
14
340
27B
340
14
340
14
340
14
340
27C
340
14
340
14
340
14
340
14
340
14
340
27C
340
14
340
23A
340
14
340
14
340
14
340
14
340
14
340
14
340
27B
340
14
340
14
340
14
340
14
340
14
340
14
340
27C
340
14
340
14
340
14
340
14
340
14
340
14
340
14
340
14
340
14
340
14
340
14
340
14
340
14
340
14
340
23A
340
27D
 94
        0
  0
ACAD_PROXY_OBJECT
  5
2A9
102
{ACAD_REACTORS
330
2A4
102
}
330
2A4
100
AcDbProxyObject
 90
      499
 91
      568
 95
       25
 70
     0
 93
      253
310
43D1444494D454E53494F4E2C414D44545F2A5F44494D404A9012A404A9012A8
  0
ACAD_PROXY_OBJECT
  5
2A8
102
{ACAD_REACTORS
330
2A4
102
}
330
2A4
100
AcDbProxyObject
 90
      499
 91
      568
 95
       25
 70
     0
 93
      181
310
43D012A42D05357D191504B505357CA9012A404A9012A8
  0
ACAD_PROXY_OBJECT
  5
2A5
102
{ACAD_REACTORS
330
2A4
102
}
330
2A4
100
AcDbProxyObject
 90
      499
 91
      568
 95
       25
 70
     0
 93
      133
310
43D054841544348404A9012A404A9012A8
  0
ACAD_PROXY_OBJECT
  5
2A6
102
{ACAD_REACTORS
330
2A4
102
}
330
2A4
100
AcDbProxyObject
 90
      499
 91
      568
 95
       25
 70
     0
 93
      549
310
43D044C494E4549CE0B0E138B0A8B4E0B0A8B4E138B105357CE0B105357CE138B0A8B505357CE0B0A8B505357CE139012A404A910494E534552542C5354445041525432448
  0
ACAD_PROXY_OBJECT
  5
2AA
102
{ACAD_REACTORS
330
2A4
102
}
330
2A4
100
AcDbProxyObject
 90
      499
 91
      568
 95
       25
 70
     0
 93
      181
310
43D0341524341105357CD5012A404C906494E534552540
  0
ACAD_PROXY_OBJECT
  5
2A7
102
{ACAD_REACTORS
330
2A4
102
}
330
2A4
100
AcDbProxyObject
 90
      499
 91
      568
 95
       25
 70
     0
 93
     1053
310
43D7841434D46434652414D452C41434D444154554D5441524745542C41434D444154554D49442C41434D57454C4453594D2C41434D5355524653594D2C41434D4645415449442C41434D504152545245462C41434D42414C4C4F4F4E2C414D44544544474553594D2C414D47534352455743414C435441424C45404A9012A
310
404A9012A8
  0
ACAD_PROXY_OBJECT
  5
270
102
{ACAD_REACTORS
330
26F
102
}
330
26F
100
AcDbProxyObject
 90
      499
 91
      550
 95
       25
 70
     0
 93
     2395
310
5DCB81E85EB51B8BE3F8030000C30041105394D2501640600800030C0200800030C00B81E85EB51B8BE3F48821E8720B1B6A9BAB9332A32BC3A29BA3220480A1282C6DA8C868CA6E8C88120286A0B1B6ABB2B63234B733A9BA3220480A1082C6DA92C8A6E8C88120285A0B1B6A230BA3AB6A9BA3220480A1282C6DA849E9AA
310
6E8C8812028820B6B23A2232BA30B4B629BCB6A9BA3220480A2282DAC8E8A6CAC6E8D2DEDCA6F2DAA6E8C88120288A0B6B23A21B2B73A32B92634B732A9BA3220480A2282DAC8E8A8D0E4CAC2C898D2DCCAA6E8C88120285A0B6B23A2737BA32A9BA3220480A1682C682DACE98C2F2A6E8C88120285A0B1A0B6B3A234B6A9B
310
A3220480A2282C682DACE90DED8CA86D0C2E4E8A6E8C88120286A0B1A0B6B3AA34BA3632A9BA3220480A02812020
340
27E
360
27F
360
280
360
281
360
282
360
283
360
284
360
285
360
286
360
287
360
288
360
289
360
295
360
296
360
2A1
360
2A2
340
0
340
0
 94
        0
  0
ACAD_PROXY_OBJECT
  5
246
102
{ACAD_REACTORS
330
245
102
}
330
245
100
AcDbProxyObject
 90
      499
 91
      526
 95
       25
 70
     0
 93
     2412
310
4050B44574753455454494E4753A1286829C8E82A4A482B282A02608321A2A720A723A0A849A1ABE1C983E18999AA0C868A9C889282940000000000001C07E83A1A2A72224A0A9A0A8598171ABE1897183E18971AA0E868A9C8892A6A8940000000000001807E8321A2A72622A7250000000000000701FA0C868A9C9E8C8C9
310
40000000000001C07E84A1A624A720A92920ACA0A87181718991ABE1817191ABE18171AA108698929C8AA8B2A082A0AB098929C8A84A22BA3AAA9A1A0A622A50A0E9882A6A89E849482A02608426A0A5A2AB24A2ABA7E8120CA0A68682988A0C00800010652455649534941501304154D0D0531150540CC4E8C50954494D45
310
5354414D504A09CA3A2F26D2B734141D5915494D253D3905414C4D4B8C0C1107B44574753455454494E4753454E447D0
  0
ACAD_PROXY_OBJECT
  5
733
102
{ACAD_REACTORS
330
245
102
}
330
245
100
AcDbProxyObject
 90
      499
 91
      526
 95
       25
 70
     0
 93
      199
310
405055368616674220F688AE8EA68AA8A8929C8EA68A9C88FA
  0
ACAD_PROXY_OBJECT
  5
247
102
{ACAD_REACTORS
330
245
102
}
330
245
100
AcDbProxyObject
 90
      499
 91
      526
 95
       25
 70
     0
 93
      852
310
4050D5452414E5353455454494E4753A2488A482AE929C8EA8A4829CA69882A8929E9C0C00800050D4F524947494E414C4C595F4F4E0600400008529A7AAA921A2A620A723A0A81A52827212AAA0A48AA68AA4AC8A0C0080001107B44574753455454494E4753454E447D0
  0
ACAD_PROXY_OBJECT
  5
27F
330
270
100
AcDbProxyObject
 90
      499
 91
      552
 95
       25
 70
     0
 93
       96
310
5DC20E80A0280A0280A02808
  0
ACAD_PROXY_OBJECT
  5
280
330
270
100
AcDbProxyObject
 90
      499
 91
      553
 95
       25
 70
     0
 93
      332
310
5DD0E4050140501405014050140501405014050142501405014050140501405012000000000000000400
340
28A
 94
        0
  0
ACAD_PROXY_OBJECT
  5
281
330
270
100
AcDbProxyObject
 90
      499
 91
      554
 95
       25
 70
     0
 93
      403
310
5DCC199999999999E99F91F4050140501405014050140501405014050140501405014050140501405014050140501405014040
340
0
 94
        0
  0
ACAD_PROXY_OBJECT
  5
282
330
270
100
AcDbProxyObject
 90
      499
 91
      555
 95
       25
 70
     0
 93
       10
310
5DC0
  0
ACAD_PROXY_OBJECT
  5
283
330
270
100
AcDbProxyObject
 90
      499
 91
      556
 95
       25
 70
     0
 93
      257
310
5DE290EA22A7D90F49F9353333333333727F44D4CCCCCCCCCDC9FC010000618000
340
28B
340
28C
 94
        0
  0
ACAD_PROXY_OBJECT
  5
284
330
270
100
AcDbProxyObject
 90
      499
 91
      557
 95
       25
 70
     0
 93
    13023
310
5DD0E411255115350141236025B6901405014069011309A4F2590CB64FD3347454E545241434F2C4A504E2C302C8D8096DA2C47454E54524154582C25732C2847454E4D53472067656E647767203232322940690120281A8AA2CA0282484A4BE52028120280A03202261349E4B2196C9FA668E8A9CA8A482869E5894A09C58
310
605921292F94588E8A9CA8A482A8B0584AE658508E8A9C9AA68E40CECADCC8EECE406464665280D202405044E414D454050496BC914F4051C40640A8B95C2E97CBE502404CD1D15395149050D3CB1294138B0C0B25AF2453CB11D15395149055160B095CCB0A11D1539354D1C819D95B991DD9C80C8C8D8A50192C3D494628
310
4953424C414E4B28504152543A4E414D45292C424C4F434B3A4E414D452C504152543A4E414D452940480A0A888AA686A480A09251B1DBE80A3A80C81D10782C06030180C8099A3A2A72A2920A1A7962528271618164946C76F9623A2A72A2920AA2C1612B9961423A2A726A9A39033B2B7323BB39019189B94A0248090142
310
14D51053911054911014122D2E29A50147501904A383BFDFEFF5FBFCFD3347454E545241434F2C4A504E2C302C8B4B8A692C47454E54524154582C25732C2847454E4D53472067656E64776720323138294049012028426A0AA22A924A0A62028246EF4BDFA028EA0320B41396D838E9017D9FA668E8A9CA8A482869E5894A
310
09C5860591BBD2F7E588E8A9CA8A482A8B0584AE658508E8A9C9AA68E40CECADCC8EECE406464625280D202405044E4F544540504928D8B4C4051D40641A8B95C2E97CBE5F23F4CD1D15395149050D3CB1294138B0C0B24A362D30B11D15395149055160B095CCB0A11D1539354D1C819D95B991DD9C80C8C8D4A501A40480
310
A0CAC8A9C889EA480A1106F1072706BF02B680A3A80C83D172B85D2F97CBE47E9BA3A2A72A2920A1A79625282716181641BC41C9C1AFC0AD9623A2A72A2920AA2C1612B9961423A2A726A9A39033B2B7323BB39019191A14A0348090141911154D0D48C90141A43825AF880C90147501908A20F0580C0603019013447454E5
310
45241434F2C4A504E2C302C90E096BE20322C47454E54524154582C25732C2847454E4D53472067656E6477672033362940490120284A9AA20A72220A922192028345A5C53490192028EA0321347077FBFDFEBF7F9FA6A8E8A9CA8A482869E5894A09C586059169714D24064588E8A9CA8A482A8B0584AE658508E8A9C9AA6
310
8E40CECADCC8EECE4064646052809202405094D4154455249414C32405068DDE97BF20324051D40642A8272DB071D202FB3F4D11D15395149050D3CB1294138B0C0B2377A5EFC80C8B11D15395149055160B095CCB0A11D1539354D1C819D95B991DD9C80D0C0A501240480A089A82A6A680A091D7F2F9480A3A80A0485A06
310
81172B85D2F97CBE47E9923A2A72A2920A1A796252827161816475FCBE51623A2A72A2920AA2C1612B9961423A2A726A9A39033B2B7323BB3901A1914A024809014154149250D150141226FE29A501475014090C409022E570BA5F2F97C8FD3247454E545241434F2C4A504E2C302C89BF8A692C47454E54524154582C2573
310
2C2847454E4D53472067656E6477672034332940490120281A224A6A02824850CB202028EA028121A81A045CAE174BE5F2F91FA648E8A9CA8A482869E5894A09C58605921432C80588E8A9CA8A482A8B0584AE658508E8A9C9AA68E40CECADCC8EECE406868528092024050E441022E07A17AD46E338FE07800030C0001018
310
ACD56AB55AADF63F2B355AAD56AB7D8FD073D3C4954454D3E405018ACD56AB55AADF63F2B355AAD56AB7D8FD073D3C4954454D3E40501890C7E3F1783CEE3F2431F8FC5E0F3B8FD073D3C4954454D3E40501890C7E3F1783CEE3F2431F8FC5E0F3B8FD073D3C4954454D3E405029012B355AAD56AB7D8FCACD56AB55AADF63
310
F41CF4F125511534F901418F4F1455164F9014062B355AAD56AB7D8FCACD56AB55AADF63F41CF4F125511534F9014061309A4F2590CBA4FC4C2693C96432E93F41CF4F125511534F901901002B355AAD56AB7D8FCACD56AB55AADF63FA2000000000000008204018000618048220681A048120280C88214844882034852034
310
8452028521485214814000000000000F0BF0000000000003C2FD018020000C3008070000C3000EF7D3E365DBA88FC3BDF4F8D976EA23F2E07A17AD46E2F8FF20341A405024150741A4069703D0BD6A3717C7F0040001860100400018601002000186002026280A02
340
0
340
0
 94
        0
  0
ACAD_PROXY_OBJECT
  5
285
330
270
100
AcDbProxyObject
 90
      499
 91
      558
 95
       25
 70
     0
 93
      994
310
5DC0B81E85EB51B8CE3F4BCF511155105253080F11115510525317D3105091530F971414D0D05311480F11115510525317D05094D4D0D053114F92341C9A9999999999B93F26A666666666724FC000000000000E03F4000000000000004000000000000005100000000000000244081E0000C3002E07A17AD46E338FC0
340
23A
340
27E
 94
        0
  0
ACAD_PROXY_OBJECT
  5
286
330
270
100
AcDbProxyObject
 90
      499
 91
      559
 95
       25
 70
     0
 93
      823
310
5DC031703D0BD6A3719C7E999EA9A2A1AA24A7A7101E29A2A1AA24A7A72FA620A122A62FA324A929AA1F169E29A2A1AA24A7A72FA620A122A62FA620A9AA1F1353333333333B27E3FFFE01C00030C008840F000061801353333333333B27F1703D0BD6A3719C7E
340
23A
340
27E
 94
        0
  0
ACAD_PROXY_OBJECT
  5
287
330
270
100
AcDbProxyObject
 90
      499
 91
      560
 95
       25
 70
     0
 93
      280
310
5DC2B8716D9CEF7C33F0A5723F0BD4A2F0FC295C8FC2F528BC3FA199999999999F99FC
  0
ACAD_PROXY_OBJECT
  5
288
330
270
100
AcDbProxyObject
 90
      499
 91
      561
 95
       25
 70
     0
 93
       14
310
5DE4
340
0
 94
        0
  0
ACAD_PROXY_OBJECT
  5
289
330
270
100
AcDbProxyObject
 90
      499
 91
      562
 95
       25
 70
     0
 93
     7123
310
5DD084050BA4050AA405024050E836583938376838C815B8367203140405013D3C696628657175616C28486F6C653A7461707065642C223022292C22252563222C486F6C653A6E6F6D696E616C2022202220696628657175616C28486F6C653A756E6974732C223122292C2278222C222D222920222022293E3C6966286571
310
75616C28486F6C653A7461707065642C223022292C486F6C653A6469612C486F6C653A706974636864657363293E207B5C46414D4744543B787D203C696628657175616C28486F6C653A7465726D696E6174696F6E2C223022292C486F6C653A64657074682C228AD192CA22293E5C507B5C46414D4744543B767D2525633C
310
486F6C653A63746469613E207B5C46414D4744543B787D203C486F6C653A637464657074683E406901405034050E836583938376838C815B83672031405FE3D3C696628657175616C28486F6C653A7461707065642C223022292C22252563222C486F6C653A6E6F6D696E616C2022202220696628657175616C28486F6C653
310
A756E6974732C223122292C2278222C222D222920222022293E3C696628657175616C28486F6C653A7461707065642C223022292C486F6C653A6469612C486F6C653A706974636864657363293E207B5C46414D4744543B787D203C696628657175616C28486F6C653A7465726D696E6174696F6E2C223022292C486F6C653
310
A64657074682C228AD192CA22293E5C507B5C46414D4744543B777D2525633C486F6C653A63746469613E2058203C486F6C653A6374616E676C653E252564406901405014050E836583938376838C815B83672031405CF3D3C696628657175616C28486F6C653A7461707065642C223022292C22252563222C486F6C653A6E
310
6F6D696E616C2022202220696628657175616C28486F6C653A756E6974732C223122292C2278222C222D222920222022293E3C696628657175616C28486F6C653A7461707065642C223022292C486F6C653A6469612C486F6C653A706974636864657363293E5C507B5C46414D4744543B787D203C696628657175616C2848
310
6F6C653A7465726D696E6174696F6E2C223022292C486F6C653A64657074682C228AD192CA22293E4069014051E4090E836583938376838C815B83672032405173D3C535444503A444553433E203C535444503A5354443E40690E836583938376838C815B836720314050C3D3C535444503A444553433E40690240515AAABB
310
A060
360
293
330
293
360
294
330
294
360
292
330
292
360
291
360
290
330
291
330
290
 94
        0
  0
ACAD_PROXY_OBJECT
  5
295
330
270
100
AcDbProxyObject
 90
      499
 91
      564
 95
       25
 70
     0
 93
       26
310
5DD02A80
340
271
 94
        0
  0
ACAD_PROXY_OBJECT
  5
296
330
270
100
AcDbProxyObject
 90
      499
 91
      565
 95
       25
 70
     0
 93
      258
310
5DD02000000000000380FC000000000000E03F408F0F9023C3E40DB18CCCFFFF80
340
297
340
2E1
340
513
340
298
340
299
340
0
340
29A
340
29B
340
2A0
340
0
 94
        0
  0
ACAD_PROXY_OBJECT
  5
2A1
330
270
100
AcDbProxyObject
 90
      499
 91
      566
 95
       25
 70
     0
 93
    13993
310
5DD1D023FFFFFFFD010300002E07A17AD46E2F8FE00800030C01010300002E07A17AD46E2F8FE00800030C00050C8DC0955782CC838A83588367014ED1D15395149050D3CB1294138B0C0B23702555E0B320E2A0D620D9CB11D15395149055160B095CCB0A11D1539354D1C819D95B991A5B5E880CCC0A78000C0000000000
310
00000000000000000000007B14AE47E17AA43F2E07A17AD46E2F8FE00800030C007B14AE47E17AA43F2E07A17AD46E2F8FE00800030C020143CF4F111959985D5B1D151A5D1B194F8050A8C8A8365815B8375838B014E51D15395149050D3CB1294138B0C0B2322A0D96056E0DD60E2CB11D15395149055160B095CCB0A11D
310
1539354D1C819D95B991A5B5E880CCC4A78000C000000000000000000000000000000007B14AE47E17AA43F2E07A17AD46E2F8FE00800030C007B14AE47E17AA43F2E07A17AD46E2F8FE00800030C020143CF4F111959985D5B1D151A5D1B194F90D4410F4450240D0441507431014391244D05449074510C4350F00014123
310
2D24D7C053247454E545241434F2C4A504E2C302C8CB4935F2C47454E54524154582C25732C2847454E4D53472067656E64696D7A20312900010104002214000282465A49AF80A648E8A9CA8A482869E5894A09C586059196926BE588E8A9CA8A482A8B0584AE658508E8A9C9AA68E40CECADCC8D2DAF44062520002020800
310
43E80005028C8A014C11D15395149050D3CB1294138B0C0B23228B11D15395149055160B095CCB0A11D1539354D1C819D95B991A5B5E880C8A4054E3D3C4946284953424C414E4B28486F6C654974656D292C4F726967696E2C20486F6C654974656D293E3C4946284953424C414E4B28486F6C654974656D292C22222C204
310
86F6C65496E646578293E010104002234000280AC00A5E8E8A9CA8A482869E5894A09C586058B0588E8A9CA8A482A8B0584AE658508E8A9C9AA68E40CECADCC8D2DAF4406652000202000040A800050159014BD1D15395149050D3CB1294138B0C0B164B11D15395149055160B095CCB0A11D1539354D1C819D95B991A5B5E
310
880D0A4000404000081D0000A02A40297A3A2A72A2920A1A796252827161816291623A2A72A2920AA2C1612B9961423A2A726A9A39033B2B73234B6BD101B148000808000104A000140A0F4C053047454E545241434F2C4A504E2C302C83D32C47454E54524154582C25732C2847454E4D53472067656E64696D7A20372900
310
0101030020B400028141E980A608E8A9CA8A482869E5894A09C58605907A6588E8A9CA8A482A8B0584AE658508E8A9C9AA68E40CECADCC8D2DAF4407052000202020041E800050490E096BE014CD1D15395149050D3CB1294138B0C0B243825AF8B11D15395149055160B095CCB0A11D1539354D1C819D95B991A5B5E880C8
310
C0A400040010008650000A091B012DB40299A3A2A72A2920A1A79625282716181646C04B6D1623A2A72A2920AA2C1612B9961423A2A726A9A39033B2B73234B6BD10189A148000808280501A00014320D0E0E4E0D9A0D8A0D3A0D60053B47454E545241434F2C4A504E2C302C8343839383668362834E83582C47454E54524
310
154582C25732C2847454E4D53472067656E64696D7A203135290001010500A1D4000281464500A628E8A9CA8A482869E5894A09C5860591914588E8A9CA8A482A8B0584AE658508E8A9C9AA68E40CECADCC8D2DAF440626C52000202080044A800050E8C8A8343839383668362834E8358014F51D15395149050D3CB129413
310
8B0C0B2322A0D0E0E4E0D9A0D8A0D3A0D60B11D15395149055160B095CCB0A11D1539354D1C819D95B991A5B5E880C4DCA4000404140089D0000A0921292F940299A3A2A72A2920A1A796252827161816484A4BE51623A2A72A2920AA2C1612B9961423A2A726A9A39033B2B73234B6BD10189C948000808300114A0001412
310
2D2E29A4053347454E545241434F2C4A504E2C302C8B4B8A692C47454E54524154582C25732C2847454E4D53472067656E64696D7A20323129000100040021B4878030026A6666666667A4FE064D4CCCCCCCCCF49FC049A9999999999E93F809353333333333D27F0226A6666666667A4FE044D4CCCCCCCCCF49FC0D818000
310
00000000000810026A666666666764FE004D4CCCCCCCCCF49FC009A9999999999E93F801353333333333D27F032E07A17AD46E378FE0633B333333333032050F006004D4CCCCCCCCCF49FC0C9A9999999999E93F819353333333333D27F0326A6666666667A4FE064D4CCCCCCCCCF49FC0C9A9999999999E93F81B03000000
310
00000000102004D4CCCCCCCCCEC9FC009A9999999999E93F819353333333333D27F0026A6666666667A4FE065C0F42F5A8DC6F1FC0C6766666666660640A088800000021E000000890000002260000008220E000200890000002060002008100008000
340
0
340
0
340
0
340
0
340
27E
340
27E
 94
        0
  0
ACAD_PROXY_OBJECT
  5
2A2
330
270
100
AcDbProxyObject
 90
      499
 91
      567
 95
       25
 70
     0
 93
     5214
310
5DD9741105394D2506414E53495F4342905394D257D512551554D15414E53495F54525F5265766973696F6E6C697374614191143202831372E307832322E30696E63682941905394D257D0D1146202832382E307834302E30696E63682941905394D257D191142202831312E307831372E30696E63682941905394D257D091
310
144202832322E307833342E30696E63682941905394D257D111145202833342E307834342E30696E63682941905394D257D1510412028382E357831312E30696E63682941905394D257D050543905B9CDA482557247A25E4C81110D0C414E53495F5449544C45444343505B9CDA482557247A25E4C81050B414E53495F5449
310
544C454143905B9CDA482557247A25E4C81050D0C414E53495F5449544C45414343505B9CDA482557247A25E4C81110B414E53495F5449544C4544425554C82557247A25E4D0A414E53495F544954555342110979A97F0838A8358836720415F42525F45505394D257D09497D4995D9A5CDA5BDB9B1A5CDD18510979A97F08
310
38A8358836720415F54525F45505394D257D51497D4995D9A5CDA5BDB9B1A5CDD18510979A97F0838A8358836720445F42525F45505394D257D09497D4995D9A5CDA5BDB9B1A5CDD19110979A97F0838A8358836720445F54525F45505394D257D51497D4995D9A5CDA5BDB9B1A5CDD19110979A97F0838A8358836720415F
310
424C5F45505394D257D09317D4995D9A5CDA5BDB9B1A5CDD18510979A97F0838A8358836720415F544C5F45505394D257D51317D4995D9A5CDA5BDB9B1A5CDD18510979A97F0838A8358836720445F424C5F45505394D257D09317D4995D9A5CDA5BDB9B1A5CDD19110979A97F0838A8358836720445F544C5F45505394D25
310
7D51317D4995D9A5CDA5BDB9B1A5CDD190
  0
ACAD_PROXY_OBJECT
  5
293
330
289
100
AcDbProxyObject
 90
      499
 91
      563
 95
       25
 70
     0
 93
     2256
310
5DE0143A0D960E4E0DDA0E32056E0D9C80C40405013D3C696628657175616C28486F6C653A7461707065642C223022292C22252563222C486F6C653A6E6F6D696E616C2022202220696628657175616C28486F6C653A756E6974732C223122292C2278222C222D222920222022293E3C696628657175616C28486F6C653A74
310
61707065642C223022292C486F6C653A6469612C486F6C653A706974636864657363293E207B5C46414D4744543B787D203C696628657175616C28486F6C653A7465726D696E6174696F6E2C223022292C486F6C653A64657074682C228AD192CA22293E5C507B5C46414D4744543B767D2525633C486F6C653A6374646961
310
3E207B5C46414D4744543B787D203C486F6C653A637464657074683E
  0
ACAD_PROXY_OBJECT
  5
294
330
289
100
AcDbProxyObject
 90
      499
 91
      563
 95
       25
 70
     0
 93
     2192
310
5DE0143A0D960E4E0DDA0E32056E0D9C80C405FE3D3C696628657175616C28486F6C653A7461707065642C223022292C22252563222C486F6C653A6E6F6D696E616C2022202220696628657175616C28486F6C653A756E6974732C223122292C2278222C222D222920222022293E3C696628657175616C28486F6C653A7461
310
707065642C223022292C486F6C653A6469612C486F6C653A706974636864657363293E207B5C46414D4744543B787D203C696628657175616C28486F6C653A7465726D696E6174696F6E2C223022292C486F6C653A64657074682C228AD192CA22293E5C507B5C46414D4744543B777D2525633C486F6C653A63746469613E
310
2058203C486F6C653A6374616E676C653E252564
  0
ACAD_PROXY_OBJECT
  5
292
330
289
100
AcDbProxyObject
 90
      499
 91
      563
 95
       25
 70
     0
 93
     1816
310
5DE0143A0D960E4E0DDA0E32056E0D9C80C405CF3D3C696628657175616C28486F6C653A7461707065642C223022292C22252563222C486F6C653A6E6F6D696E616C2022202220696628657175616C28486F6C653A756E6974732C223122292C2278222C222D222920222022293E3C696628657175616C28486F6C653A7461
310
707065642C223022292C486F6C653A6469612C486F6C653A706974636864657363293E5C507B5C46414D4744543B787D203C696628657175616C28486F6C653A7465726D696E6174696F6E2C223022292C486F6C653A64657074682C228AD192CA22293E
  0
ACAD_PROXY_OBJECT
  5
291
330
289
100
AcDbProxyObject
 90
      499
 91
      563
 95
       25
 70
     0
 93
      344
310
5DE0143A0D960E4E0DDA0E32056E0D9C80C805173D3C535444503A444553433E203C535444503A5354443E
  0
ACAD_PROXY_OBJECT
  5
290
330
289
100
AcDbProxyObject
 90
      499
 91
      563
 95
       25
 70
     0
 93
      256
310
5DE0143A0D960E4E0DDA0E32056E0D9C80C4050C3D3C535444503A444553433E
  0
ENDSEC
  0
EOF
