  0
SECTION
  2
HEADER
  9
$ACADVER
  1
AC1014
  9
$ACADMAINTVER
 70
     9
  9
$DWGCODEPAGE
  3
ANSI_932
  9
$INSBASE
 10
0.0
 20
0.0
 30
0.0
  9
$EXTMIN
 10
-134.5432145365379
 20
-37.3831665254393
 30
0.0
  9
$EXTMAX
 10
18.93732220534084
 20
66.35642830450712
 30
0.0
  9
$LIMMIN
 10
-156.8465542613727
 20
-63.05999614437644
  9
$LIMMAX
 10
36.82440183831113
 20
93.85004872886691
  9
$ORTHOMODE
 70
     0
  9
$REGENMODE
 70
     1
  9
$FILLMODE
 70
     1
  9
$QTEXTMODE
 70
     0
  9
$MIRRTEXT
 70
     0
  9
$DRAGMODE
 70
     2
  9
$LTSCALE
 40
1.0
  9
$OSMODE
 70
  2103
  9
$ATTMODE
 70
     1
  9
$TEXTSIZE
 40
2.5
  9
$TRACEWID
 40
1.0
  9
$TEXTSTYLE
  7
STANDARD
  9
$CLAYER
  8
AM_0
  9
$CELTYPE
  6
BYLAYER
  9
$CECOLOR
 62
   256
  9
$CELTSCALE
 40
1.0
  9
$DELOBJ
 70
     1
  9
$DISPSILH
 70
     0
  9
$DIMSCALE
 40
0.5
  9
$DIMASZ
 40
2.5
  9
$DIMEXO
 40
1.0
  9
$DIMDLI
 40
12.0
  9
$DIMRND
 40
0.0
  9
$DIMDLE
 40
0.0
  9
$DIMEXE
 40
1.0
  9
$DIMTP
 40
0.1
  9
$DIMTM
 40
0.1
  9
$DIMTXT
 40
3.2
  9
$DIMCEN
 40
0.0
  9
$DIMTSZ
 40
0.0
  9
$DIMTOL
 70
     0
  9
$DIMLIM
 70
     0
  9
$DIMTIH
 70
     0
  9
$DIMTOH
 70
     0
  9
$DIMSE1
 70
     0
  9
$DIMSE2
 70
     0
  9
$DIMTAD
 70
     3
  9
$DIMZIN
 70
     8
  9
$DIMBLK
  1
OPEN30
  9
$DIMASO
 70
     1
  9
$DIMSHO
 70
     1
  9
$DIMPOST
  1

  9
$DIMAPOST
  1
"
  9
$DIMALT
 70
     0
  9
$DIMALTD
 70
     2
  9
$DIMALTF
 40
0.0393701
  9
$DIMLFAC
 40
1.0
  9
$DIMTOFL
 70
     1
  9
$DIMTVP
 40
0.0
  9
$DIMTIX
 70
     0
  9
$DIMSOXD
 70
     0
  9
$DIMSAH
 70
     0
  9
$DIMBLK1
  1

  9
$DIMBLK2
  1

  9
$DIMSTYLE
  2
AM_JIS
  9
$DIMCLRD
 70
   256
  9
$DIMCLRE
 70
   256
  9
$DIMCLRT
 70
     2
  9
$DIMTFAC
 40
0.71
  9
$DIMGAP
 40
1.5
  9
$DIMJUST
 70
     0
  9
$DIMSD1
 70
     0
  9
$DIMSD2
 70
     0
  9
$DIMTOLJ
 70
     0
  9
$DIMTZIN
 70
     0
  9
$DIMALTZ
 70
     0
  9
$DIMALTTZ
 70
     0
  9
$DIMFIT
 70
     3
  9
$DIMUPT
 70
     0
  9
$DIMUNIT
 70
     2
  9
$DIMDEC
 70
     3
  9
$DIMTDEC
 70
     3
  9
$DIMALTU
 70
     2
  9
$DIMALTTD
 70
     2
  9
$DIMTXSTY
  7
ASAMI
  9
$DIMAUNIT
 70
     0
  9
$LUNITS
 70
     2
  9
$LUPREC
 70
     2
  9
$SKETCHINC
 40
1.0
  9
$FILLETRAD
 40
0.8
  9
$AUNITS
 70
     0
  9
$AUPREC
 70
     0
  9
$MENU
  1
.
  9
$ELEVATION
 40
0.0
  9
$PELEVATION
 40
0.0
  9
$THICKNESS
 40
0.0
  9
$LIMCHECK
 70
     1
  9
$BLIPMODE
 70
     0
  9
$CHAMFERA
 40
1.0
  9
$CHAMFERB
 40
1.0
  9
$CHAMFERC
 40
20.0
  9
$CHAMFERD
 40
0.0
  9
$SKPOLY
 70
     0
  9
$TDCREATE
 40
2452802.716478761
  9
$TDUPDATE
 40
2452941.603584884
  9
$TDINDWG
 40
0.8648619097
  9
$TDUSRTIMER
 40
0.8648619097
  9
$USRTIMER
 70
     1
  9
$ANGBASE
 50
0.0
  9
$ANGDIR
 70
     0
  9
$PDMODE
 70
     0
  9
$PDSIZE
 40
0.0
  9
$PLINEWID
 40
0.0
  9
$COORDS
 70
     0
  9
$SPLFRAME
 70
     0
  9
$SPLINETYPE
 70
     6
  9
$SPLINESEGS
 70
     8
  9
$ATTDIA
 70
     1
  9
$ATTREQ
 70
     1
  9
$HANDLING
 70
 12289
  9
$HANDSEED
  5
AD91
  9
$SURFTAB1
 70
     6
  9
$SURFTAB2
 70
     6
  9
$SURFTYPE
 70
     6
  9
$SURFU
 70
     6
  9
$SURFV
 70
     6
  9
$UCSNAME
  2

  9
$UCSORG
 10
-0.0000000000002682
 20
0.000000000000161
 30
0.0
  9
$UCSXDIR
 10
1.0
 20
0.000000000000002
 30
0.0
  9
$UCSYDIR
 10
-0.000000000000002
 20
1.0
 30
0.0
  9
$PUCSNAME
  2

  9
$PUCSORG
 10
0.0
 20
0.0
 30
0.0
  9
$PUCSXDIR
 10
1.0
 20
0.0
 30
0.0
  9
$PUCSYDIR
 10
0.0
 20
1.0
 30
0.0
  9
$USERI1
 70
     0
  9
$USERI2
 70
     0
  9
$USERI3
 70
     0
  9
$USERI4
 70
     0
  9
$USERI5
 70
     0
  9
$USERR1
 40
0.0
  9
$USERR2
 40
0.0
  9
$USERR3
 40
0.0
  9
$USERR4
 40
0.0
  9
$USERR5
 40
0.0
  9
$WORLDVIEW
 70
     1
  9
$SHADEDGE
 70
     3
  9
$SHADEDIF
 70
    70
  9
$TILEMODE
 70
     1
  9
$MAXACTVP
 70
    64
  9
$PINSBASE
 10
0.0
 20
0.0
 30
0.0
  9
$PLIMCHECK
 70
     0
  9
$PEXTMIN
 10
1.000000000000000E+20
 20
1.000000000000000E+20
 30
1.000000000000000E+20
  9
$PEXTMAX
 10
-1.000000000000000E+20
 20
-1.000000000000000E+20
 30
-1.000000000000000E+20
  9
$PLIMMIN
 10
0.0
 20
0.0
  9
$PLIMMAX
 10
841.0
 20
594.0
  9
$UNITMODE
 70
     0
  9
$VISRETAIN
 70
     1
  9
$PLINEGEN
 70
     0
  9
$PSLTSCALE
 70
     0
  9
$TREEDEPTH
 70
  3020
  9
$PICKSTYLE
 70
     0
  9
$CMLSTYLE
  2
STANDARD
  9
$CMLJUST
 70
     0
  9
$CMLSCALE
 40
20.0
  9
$PROXYGRAPHICS
 70
     1
  9
$MEASUREMENT
 70
     1
  0
ENDSEC
  0
SECTION
  2
CLASSES
  0
CLASS
  1
ACDBDICTIONARYWDFLT
  2
AcDbDictionaryWithDefault
  3
AutoCAD 2000
 90
        0
280
     0
281
     0
  0
CLASS
  1
ACDBPLACEHOLDER
  2
AcDbPlaceHolder
  3
AutoCAD 2000
 90
        0
280
     0
281
     0
  0
CLASS
  1
LAYOUT
  2
AcDbLayout
  3
AutoCAD 2000
 90
        0
280
     0
281
     0
  0
CLASS
  1
AMGSETTINGSOBJ
  2
AmgSettingsObj
  3
"AcadM|Product Description: AutoCAD Mechanical 2000|Company: Autodesk"
 90
        0
280
     0
281
     0
  0
CLASS
  1
ACME_DOCUMENT
  2
AcMeDbDoc
  3
AcMeServices
 90
        0
280
     0
281
     0
  0
CLASS
  1
ACMESCOPE
  2
AcMeScope
  3
AcMeServices
 90
        0
280
     0
281
     0
  0
CLASS
  1
ACMECOMMANDHISTORY
  2
AcMeCommandHistory
  3
AcMeServices
 90
        0
280
     0
281
     0
  0
CLASS
  1
DICTIONARYVAR
  2
AcDbDictionaryVar
  3
AutoCAD 2000
 90
        0
280
     0
281
     0
  0
CLASS
  1
ACIMSYSVARMAN
  2
AcImSysVarManager
  3
AcMeServices
 90
        0
280
     0
281
     0
  0
CLASS
  1
ACIMREALSYSVAR
  2
AcImRealSysVar
  3
AcMeServices
 90
        0
280
     0
281
     0
  0
CLASS
  1
ACIMINTSYSVAR
  2
AcImIntSysVar
  3
AcMeServices
 90
        0
280
     0
281
     0
  0
CLASS
  1
ACMEDRAWINGMAN
  2
AcMeDrawingMan
  3
AcMeServices
 90
        0
280
     0
281
     0
  0
CLASS
  1
ACMEVIEW
  2
AcMeView
  3
AcMeServices
 90
        0
280
     0
281
     0
  0
CLASS
  1
ACDBENTITYCACHE
  2
AcMeEntityCache
  3
AcMeServices
 90
        0
280
     0
281
     0
  0
CLASS
  1
GSMANAGER
  2
AcMeGSManager
  3
AcMeServices
 90
        0
280
     0
281
     0
  0
CLASS
  1
AmdtInternalReactor
  2
AmdtInternalReactor
  3
AcMeServices
 90
        0
280
     0
281
     0
  0
CLASS
  1
ACMESTATEMGR
  2
AcMeStateMgr
  3
AcMeServices
 90
        0
280
     0
281
     0
  0
CLASS
  1
ACME_DATABASE
  2
AcMeDbDatabase
  3
AcMeServices
 90
        0
280
     0
281
     0
  0
CLASS
  1
ACRFINSADJUSTERMGR
  2
AcRfInsAdjusterMgr
  3
AcMeServices
 90
        0
280
     0
281
     0
  0
CLASS
  1
ACMDATADICTIONARY
  2
AcmDataDictionary
  3
"AcmSymBB|Product Description: AutoCAD Mechanical 2000|Company: Autodesk"
 90
        0
280
     0
281
     0
  0
CLASS
  1
ACMDATAENTRYBLOCK
  2
AcmDataEntryBlock
  3
"AcmSymBB|Product Description: AutoCAD Mechanical 2000|Company: Autodesk"
 90
        0
280
     0
281
     0
  0
CLASS
  1
AMGOBJPROPCFG
  2
AmgObjPropCfg
  3
"AmgLay|Product Description: AutoCAD Mechanical 2000|Company: Autodesk"
 90
        1
280
     0
281
     0
  0
CLASS
  1
ACAMGFILTERDAT
  2
AcAmgFilterDat
  3
"AcadM|Product Description: AutoCAD Mechanical 2000|Company: Autodesk"
 90
        0
280
     0
281
     0
  0
CLASS
  1
LAYER_INDEX
  2
AcDbLayerIndex
  3
AutoCAD 2000
 90
        0
280
     0
281
     0
  0
CLASS
  1
IDBUFFER
  2
AcDbIdBuffer
  3
AutoCAD 2000
 90
        0
280
     0
281
     0
  0
CLASS
  1
ACIMSTRSYSVAR
  2
AcImStrSysVar
  3
AcMeServices
 90
        0
280
     0
281
     0
  0
CLASS
  1
ACMSTANDARDJIS
  2
AcmStandardJIS
  3
"AcmSymBB|Product Description: AutoCAD Mechanical 2000|Company: Autodesk"
 90
        0
280
     0
281
     0
  0
CLASS
  1
ACMSURFSTANDARDJIS
  2
AcmSurfTextStdJIS
  3
"AcmSymBB|Product Description: AutoCAD Mechanical 2000|Company: Autodesk"
 90
        0
280
     0
281
     0
  0
CLASS
  1
ACMFCFSTANDARDJIS
  2
AcmFCFStdJIS
  3
"AcmSymBB|Product Description: AutoCAD Mechanical 2000|Company: Autodesk"
 90
        0
280
     0
281
     0
  0
CLASS
  1
ACMWELDSTANDARDJIS
  2
AcmWeldingStdJIS
  3
"AcmSymBB|Product Description: AutoCAD Mechanical 2000|Company: Autodesk"
 90
        0
280
     0
281
     0
  0
CLASS
  1
ACMIDSTANDARDJIS
  2
AcmIdStdJIS
  3
"AcmSymBB|Product Description: AutoCAD Mechanical 2000|Company: Autodesk"
 90
        0
280
     0
281
     0
  0
CLASS
  1
ACMDATUMSTANDARDJIS
  2
AcmDatumStdJIS
  3
"AcmSymBB|Product Description: AutoCAD Mechanical 2000|Company: Autodesk"
 90
        0
280
     0
281
     0
  0
CLASS
  1
ACMBOMSTANDARDJIS
  2
AcmBOMStdJIS
  3
"AcmSymBB|Product Description: AutoCAD Mechanical 2000|Company: Autodesk"
 90
        0
280
     0
281
     0
  0
CLASS
  1
ACMSTANDARDANSI
  2
AcmStandardANSI
  3
"AcmSymBB|Product Description: AutoCAD Mechanical 2000|Company: Autodesk"
 90
        0
280
     0
281
     0
  0
CLASS
  1
ACMSURFSTANDARDANSI
  2
AcmSurfTextStdANSI
  3
"AcmSymBB|Product Description: AutoCAD Mechanical 2000|Company: Autodesk"
 90
        0
280
     0
281
     0
  0
CLASS
  1
ACMFCFSTANDARDANSI
  2
AcmFCFStdANSI
  3
"AcmSymBB|Product Description: AutoCAD Mechanical 2000|Company: Autodesk"
 90
        0
280
     0
281
     0
  0
CLASS
  1
ACMWELDSTANDARDANSI
  2
AcmWeldingStdANSI
  3
"AcmSymBB|Product Description: AutoCAD Mechanical 2000|Company: Autodesk"
 90
        0
280
     0
281
     0
  0
CLASS
  1
ACMIDSTANDARDANSI
  2
AcmIdStdANSI
  3
"AcmSymBB|Product Description: AutoCAD Mechanical 2000|Company: Autodesk"
 90
        0
280
     0
281
     0
  0
CLASS
  1
ACMDATUMSTANDARDANSI
  2
AcmDatumStdANSI
  3
"AcmSymBB|Product Description: AutoCAD Mechanical 2000|Company: Autodesk"
 90
        0
280
     0
281
     0
  0
CLASS
  1
ACMBOMSTANDARDANSI
  2
AcmBOMStdANSI
  3
"AcmSymBB|Product Description: AutoCAD Mechanical 2000|Company: Autodesk"
 90
        0
280
     0
281
     0
  0
CLASS
  1
ACMSTANDARDBSI
  2
AcmStandardBSI
  3
"AcmSymBB|Product Description: AutoCAD Mechanical 2000|Company: Autodesk"
 90
        0
280
     0
281
     0
  0
CLASS
  1
ACMSURFSTANDARDBSI
  2
AcmSurfTextStdBSI
  3
"AcmSymBB|Product Description: AutoCAD Mechanical 2000|Company: Autodesk"
 90
        0
280
     0
281
     0
  0
CLASS
  1
ACMFCFSTANDARDBSI
  2
AcmFCFStdBSI
  3
"AcmSymBB|Product Description: AutoCAD Mechanical 2000|Company: Autodesk"
 90
        0
280
     0
281
     0
  0
CLASS
  1
ACMWELDSTANDARDBSI
  2
AcmWeldingStdBSI
  3
"AcmSymBB|Product Description: AutoCAD Mechanical 2000|Company: Autodesk"
 90
        0
280
     0
281
     0
  0
CLASS
  1
ACMIDSTANDARDBSI
  2
AcmIdStdBSI
  3
"AcmSymBB|Product Description: AutoCAD Mechanical 2000|Company: Autodesk"
 90
        0
280
     0
281
     0
  0
CLASS
  1
ACMDATUMSTANDARDBSI
  2
AcmDatumStdBSI
  3
"AcmSymBB|Product Description: AutoCAD Mechanical 2000|Company: Autodesk"
 90
        0
280
     0
281
     0
  0
CLASS
  1
ACMBOMSTANDARDBSI
  2
AcmBOMStdBSI
  3
"AcmSymBB|Product Description: AutoCAD Mechanical 2000|Company: Autodesk"
 90
        0
280
     0
281
     0
  0
CLASS
  1
STDPART2D
  2
AmgStdPart
  3
"AmgStdPart|Product Description: AutoCAD Mechanical 2000|Company: Autodesk"
 90
     1023
280
     0
281
     1
  0
CLASS
  1
PLOTSETTINGS
  2
AcDbPlotSettings
  3
AutoCAD 2000
 90
        0
280
     0
281
     0
  0
CLASS
  1
AMDTNOTE
  2
AmdtNote
  3
"AcmSymBB|Product Description: AutoCAD Mechanical 2000|Company: Autodesk"
 90
     1023
280
     0
281
     1
  0
CLASS
  1
ACMSTANDARDISO
  2
AcmStandardISO
  3
"AcmSymBB|Product Description: AutoCAD Mechanical 2000|Company: Autodesk"
 90
        0
280
     0
281
     0
  0
CLASS
  1
AMDTEDGESTANDARDISO
  2
AmdtEdgeStdISO
  3
"AcmSymBB|Product Description: AutoCAD Mechanical 2000|Company: Autodesk"
 90
        0
280
     0
281
     0
  0
CLASS
  1
ACMSURFSTANDARDISO
  2
AcmSurfTextStdISO
  3
"AcmSymBB|Product Description: AutoCAD Mechanical 2000|Company: Autodesk"
 90
        0
280
     0
281
     0
  0
CLASS
  1
ACMFCFSTANDARDISO
  2
AcmFCFStdISO
  3
"AcmSymBB|Product Description: AutoCAD Mechanical 2000|Company: Autodesk"
 90
        0
280
     0
281
     0
  0
CLASS
  1
ACMWELDSTANDARDISO
  2
AcmWeldingStdISO
  3
"AcmSymBB|Product Description: AutoCAD Mechanical 2000|Company: Autodesk"
 90
        0
280
     0
281
     0
  0
CLASS
  1
ACMIDSTANDARDISO
  2
AcmIdStdISO
  3
"AcmSymBB|Product Description: AutoCAD Mechanical 2000|Company: Autodesk"
 90
        0
280
     0
281
     0
  0
CLASS
  1
ACMDATUMSTANDARDISO
  2
AcmDatumStdISO
  3
"AcmSymBB|Product Description: AutoCAD Mechanical 2000|Company: Autodesk"
 90
        0
280
     0
281
     0
  0
CLASS
  1
ACMBOMSTANDARDISO
  2
AcmBOMStdISO
  3
"AcmSymBB|Product Description: AutoCAD Mechanical 2000|Company: Autodesk"
 90
        0
280
     0
281
     0
  0
CLASS
  1
LONG_TRANSACTION
  2
AcDbLongTransaction
  3
AutoCAD 2000
 90
        0
280
     0
281
     0
  0
CLASS
  1
LWPOLYLINE
  2
AcDbPolyline
  3
AutoCAD 2000
 90
        0
280
     0
281
     1
  0
CLASS
  1
HATCH
  2
AcDbHatch
  3
AutoCAD 2000
 90
        0
280
     0
281
     1
  0
CLASS
  1
XRECORD
  2
AcDbXrecord
  3
AutoCAD 2000
 90
        0
280
     0
281
     0
  0
ENDSEC
  0
SECTION
  2
TABLES
  0
TABLE
  2
VPORT
  5
8
330
0
100
AcDbSymbolTable
 70
     3
  0
VPORT
  5
AD19
330
8
100
AcDbSymbolTableRecord
100
AcDbViewportTableRecord
  2
*ACTIVE
 70
     0
 10
0.0
 20
0.0
 11
1.0
 21
1.0
 12
-50.01631070073377
 22
21.40257827071077
 13
0.0
 23
0.0
 14
2.5
 24
2.5
 15
10.0
 25
10.0
 16
0.0
 26
0.0
 36
1.0
 17
0.0
 27
0.0
 37
0.0
 40
145.8499690117653
 41
1.609042553191489
 42
50.0
 43
0.0
 44
0.0
 50
0.0
 51
0.0
 71
     0
 72
   100
 73
     1
 74
     3
 75
     0
 76
     0
 77
     0
 78
     0
  0
ENDTAB
  0
TABLE
  2
LTYPE
  5
5
330
0
100
AcDbSymbolTable
 70
    13
  0
LTYPE
  5
14
330
5
100
AcDbSymbolTableRecord
100
AcDbLinetypeTableRecord
  2
BYBLOCK
 70
     0
  3

 72
    65
 73
     0
 40
0.0
  0
LTYPE
  5
15
330
5
100
AcDbSymbolTableRecord
100
AcDbLinetypeTableRecord
  2
BYLAYER
 70
     0
  3

 72
    65
 73
     0
 40
0.0
  0
LTYPE
  5
16
330
5
100
AcDbSymbolTableRecord
100
AcDbLinetypeTableRecord
  2
CONTINUOUS
 70
     0
  3
Solid line
 72
    65
 73
     0
 40
0.0
  0
LTYPE
  5
4B
330
5
100
AcDbSymbolTableRecord
100
AcDbLinetypeTableRecord
  2
AM_ISO02W050
 70
     0
  3
__ __ __ __ __ __ __ __ __ __ __ __ __ __ __
 72
    65
 73
     2
 40
7.5
 49
6.0
 74
     0
 49
-1.5
 74
     0
  0
LTYPE
  5
4C
330
5
100
AcDbSymbolTableRecord
100
AcDbLinetypeTableRecord
  2
AM_ISO08W050
 70
     0
  3
____ . ____ . ____ . ____ . ____ . ____ . ____
 72
    65
 73
     4
 40
18.0
 49
12.0
 74
     0
 49
-1.5
 74
     0
 49
3.0
 74
     0
 49
-1.5
 74
     0
  0
LTYPE
  5
4D
330
5
100
AcDbSymbolTableRecord
100
AcDbLinetypeTableRecord
  2
AM_ISO09W050
 70
     0
  3
_____ . . _____ . . _____ . . ____ .. ____
 72
    65
 73
     6
 40
22.5
 49
12.0
 74
     0
 49
-1.5
 74
     0
 49
3.0
 74
     0
 49
-1.5
 74
     0
 49
3.0
 74
     0
 49
-1.5
 74
     0
  0
LTYPE
  5
4E
330
5
100
AcDbSymbolTableRecord
100
AcDbLinetypeTableRecord
  2
AMCONSTR
 70
     0
  3
_______________________
 72
    65
 73
     2
 40
9999.0
 49
9999.0
 74
     0
 49
0.0
 74
     0
  0
LTYPE
  5
4F
330
5
100
AcDbSymbolTableRecord
100
AcDbLinetypeTableRecord
  2
AM_ISO02W050X2
 70
     0
  3
 _ _ _ _ _ _ _ _ _ _ _ _
 72
    65
 73
     2
 40
3.75
 49
3.0
 74
     0
 49
-0.75
 74
     0
  0
LTYPE
  5
50
330
5
100
AcDbSymbolTableRecord
100
AcDbLinetypeTableRecord
  2
AM_ISO08W050X2
 70
     0
  3
__ . __ . __ . __ . __ . __
 72
    65
 73
     4
 40
9.0
 49
6.0
 74
     0
 49
-0.75
 74
     0
 49
1.5
 74
     0
 49
-0.75
 74
     0
  0
LTYPE
  5
53
330
5
100
AcDbSymbolTableRecord
100
AcDbLinetypeTableRecord
  2
AMZIGZAG
 70
     0
  3
/\/-/\/-/\/-/\/-/\/-/\/
 72
    65
 73
     2
 40
11.00009999999999
 49
0.0001
 74
     4
 75
   135
340
52
 46
0.04
 50
0.0
 44
0.0
 45
0.0
 49
-11.0
 74
     0
  0
LTYPE
  5
166
330
5
100
AcDbSymbolTableRecord
100
AcDbLinetypeTableRecord
  2
ACJISTGL
 70
     0
  3
_ _ _ _ _
 72
    65
 73
     2
 40
3.0
 49
2.0
 74
     0
 49
-1.0
 74
     0
  0
LTYPE
  5
26A
330
5
100
AcDbSymbolTableRecord
100
AcDbLinetypeTableRecord
  2
ACJISTGB
 70
     0
  3
__ . . __ . .
 72
    65
 73
     6
 40
9.0
 49
4.0
 74
     0
 49
-1.0
 74
     0
 49
1.0
 74
     0
 49
-1.0
 74
     0
 49
1.0
 74
     0
 49
-1.0
 74
     0
  0
LTYPE
  5
5FC4
330
5
100
AcDbSymbolTableRecord
100
AcDbLinetypeTableRecord
  2
ACISOTGB
 70
     0
  3
__ . . __ . .
 72
    65
 73
     6
 40
9.0
 49
4.0
 74
     0
 49
-1.0
 74
     0
 49
1.0
 74
     0
 49
-1.0
 74
     0
 49
1.0
 74
     0
 49
-1.0
 74
     0
  0
LTYPE
  5
5FC5
330
5
100
AcDbSymbolTableRecord
100
AcDbLinetypeTableRecord
  2
ACISOTGL
 70
     0
  3
_ _ _ _ _
 72
    65
 73
     2
 40
3.0
 49
2.0
 74
     0
 49
-1.0
 74
     0
  0
LTYPE
  5
971B
330
5
100
AcDbSymbolTableRecord
100
AcDbLinetypeTableRecord
  2
ACISOWELD
 70
     0
  3
_ _ _ _ _
 72
    65
 73
     2
 40
2.0
 49
2.0
 74
     0
 49
-1.0
 74
     0
  0
ENDTAB
  0
TABLE
  2
LAYER
  5
2
330
0
100
AcDbSymbolTable
 70
    11
  0
LAYER
  5
10
330
2
100
AcDbSymbolTableRecord
100
AcDbLayerTableRecord
  2
0
 70
     0
 62
     7
  6
CONTINUOUS
  0
LAYER
  5
3F9
330
2
100
AcDbSymbolTableRecord
100
AcDbLayerTableRecord
  2
AM_0
 70
     0
 62
     7
  6
CONTINUOUS
  0
LAYER
  5
BA4
330
2
100
AcDbSymbolTableRecord
100
AcDbLayerTableRecord
  2
AM_5
 70
     0
 62
     3
  6
CONTINUOUS
  0
LAYER
  5
BA6
330
2
100
AcDbSymbolTableRecord
100
AcDbLayerTableRecord
  2
AM_7
 70
     0
 62
     4
  6
AM_ISO08W050
  0
LAYER
  5
E64
330
2
100
AcDbSymbolTableRecord
100
AcDbLayerTableRecord
  2
AM_6
 70
     0
 62
     2
  6
CONTINUOUS
  0
LAYER
  5
F4D
330
2
100
AcDbSymbolTableRecord
100
AcDbLayerTableRecord
  2
DEFPOINTS
 70
     0
 62
     7
  6
CONTINUOUS
  0
LAYER
  5
2382
330
2
100
AcDbSymbolTableRecord
100
AcDbLayerTableRecord
  2
AM_3
 70
     0
 62
     6
  6
ACJISTGL
  0
LAYER
  5
4E80
330
2
100
AcDbSymbolTableRecord
100
AcDbLayerTableRecord
  2
AM_11
 70
     0
 62
     3
  6
AM_ISO09W050
  0
LAYER
  5
50EC
330
2
100
AcDbSymbolTableRecord
100
AcDbLayerTableRecord
  2
PV0001_1
 70
     0
 62
     7
  6
CONTINUOUS
  0
LAYER
  5
5FC6
330
2
100
AcDbSymbolTableRecord
100
AcDbLayerTableRecord
  2
AM_4
 70
     0
 62
     3
  6
CONTINUOUS
  0
LAYER
  5
971C
330
2
100
AcDbSymbolTableRecord
100
AcDbLayerTableRecord
  2
6
 70
     0
 62
     2
  6
CONTINUOUS
  0
ENDTAB
  0
TABLE
  2
STYLE
  5
3
330
0
100
AcDbSymbolTable
 70
     7
  0
STYLE
  5
11
330
3
100
AcDbSymbolTableRecord
100
AcDbTextStyleTableRecord
  2
STANDARD
 70
     0
 40
0.0
 41
1.0
 50
0.0
 71
     0
 42
2.5
  3
simplex.shx
  4
EXTFONT.SHX
  0
STYLE
  5
52
330
3
100
AcDbSymbolTableRecord
100
AcDbTextStyleTableRecord
  2

 70
     1
 40
0.0
 41
1.0
 50
0.0
 71
     0
 42
2.5
  3
ltypeshp.shx
  4

  0
STYLE
  5
6B
330
3
100
AcDbSymbolTableRecord
100
AcDbTextStyleTableRecord
  2
ASAMI
 70
     0
 40
0.0
 41
1.0
 50
0.0
 71
     0
 42
2.5
  3
simplex.shx
  4
EXTFONT.SHX
  0
STYLE
  5
262
330
3
100
AcDbSymbolTableRecord
100
AcDbTextStyleTableRecord
  2
ACJISTS
 70
     0
 40
1.0
 41
1.0
 50
0.0
 71
     0
 42
2.5
  3
simplex.shx
  4
bigfont.shx
  0
STYLE
  5
269
330
3
100
AcDbSymbolTableRecord
100
AcDbTextStyleTableRecord
  2
ACJISGDT
 70
     0
 40
0.0
 41
1.0
 50
0.0
 71
     0
 42
2.5
  3
amgdtans.shx
  4

  0
STYLE
  5
971D
330
3
100
AcDbSymbolTableRecord
100
AcDbTextStyleTableRecord
  2
ACISOTS
 70
     0
 40
1.0
 41
1.0
 50
0.0
 71
     0
 42
3.479999999999999
  3
isocp.shx
  4
extfont.shx
  0
STYLE
  5
971E
330
3
100
AcDbSymbolTableRecord
100
AcDbTextStyleTableRecord
  2
ACISOGDT
 70
     0
 40
0.0
 41
1.0
 50
0.0
 71
     0
 42
3.479999999999999
  3
amgdt.shx
  4

  0
ENDTAB
  0
TABLE
  2
VIEW
  5
6
330
0
100
AcDbSymbolTable
 70
     0
  0
ENDTAB
  0
TABLE
  2
UCS
  5
7
330
0
100
AcDbSymbolTable
 70
     0
  0
ENDTAB
  0
TABLE
  2
APPID
  5
9
330
0
100
AcDbSymbolTable
 70
    24
  0
APPID
  5
12
330
9
100
AcDbSymbolTableRecord
100
AcDbRegAppTableRecord
  2
ACAD
 70
     0
  0
APPID
  5
30
330
9
100
AcDbSymbolTableRecord
100
AcDbRegAppTableRecord
  2
MCAD_NO_VIS
 70
     0
  0
APPID
  5
31
330
9
100
AcDbSymbolTableRecord
100
AcDbRegAppTableRecord
  2
ACAD_TEMP_GRAPHIC
 70
     0
  0
APPID
  5
2C2
330
9
100
AcDbSymbolTableRecord
100
AcDbRegAppTableRecord
  2
GENIUS_GENDTOL_13
 70
     0
  0
APPID
  5
339
330
9
100
AcDbSymbolTableRecord
100
AcDbRegAppTableRecord
  2
GENIUS_GENODEF_13
 70
     0
  0
APPID
  5
33A
330
9
100
AcDbSymbolTableRecord
100
AcDbRegAppTableRecord
  2
GENIUS_GENOBJ-N-RSBK_13
 70
     0
  0
APPID
  5
33B
330
9
100
AcDbSymbolTableRecord
100
AcDbRegAppTableRecord
  2
GENIUS_GENOBJ-N-LIB_13
 70
     0
  0
APPID
  5
33C
330
9
100
AcDbSymbolTableRecord
100
AcDbRegAppTableRecord
  2
GENIUS_GENSCALE_13
 70
     0
  0
APPID
  5
378
330
9
100
AcDbSymbolTableRecord
100
AcDbRegAppTableRecord
  2
GENIUS_GENDIMSH_14
 70
     0
  0
APPID
  5
BB0
330
9
100
AcDbSymbolTableRecord
100
AcDbRegAppTableRecord
  2
GENIUS_GENOBJ-N-CEN_13
 70
     0
  0
APPID
  5
BB1
330
9
100
AcDbSymbolTableRecord
100
AcDbRegAppTableRecord
  2
GENIUS_GENFIL_13
 70
     0
  0
APPID
  5
BB2
330
9
100
AcDbSymbolTableRecord
100
AcDbRegAppTableRecord
  2
GENIUS_GENOBJ-N-CHA_13
 70
     0
  0
APPID
  5
1FAF
330
9
100
AcDbSymbolTableRecord
100
AcDbRegAppTableRecord
  2
GENIUS_GENOBJ-N-CRS_13
 70
     0
  0
APPID
  5
1FB0
330
9
100
AcDbSymbolTableRecord
100
AcDbRegAppTableRecord
  2
GENIUS_GENOENT_13
 70
     0
  0
APPID
  5
1FB1
330
9
100
AcDbSymbolTableRecord
100
AcDbRegAppTableRecord
  2
GENIUS_GENOREF_13
 70
     0
  0
APPID
  5
1FB2
330
9
100
AcDbSymbolTableRecord
100
AcDbRegAppTableRecord
  2
GENIUS_GENOLIS_13
 70
     0
  0
APPID
  5
1FB7
330
9
100
AcDbSymbolTableRecord
100
AcDbRegAppTableRecord
  2
GENIUS_GENOBJ-N-FIL_13
 70
     0
  0
APPID
  5
22A8
330
9
100
AcDbSymbolTableRecord
100
AcDbRegAppTableRecord
  2
GEVID1056506048
 70
     0
  0
APPID
  5
22A9
330
9
100
AcDbSymbolTableRecord
100
AcDbRegAppTableRecord
  2
GEVDC
 70
     0
  0
APPID
  5
22AC
330
9
100
AcDbSymbolTableRecord
100
AcDbRegAppTableRecord
  2
GENIUS_GENBH_13
 70
     0
  0
APPID
  5
22B8
330
9
100
AcDbSymbolTableRecord
100
AcDbRegAppTableRecord
  2
GENIUS_GENOBJ-NBEHI-BHF_13
 70
     0
  0
APPID
  5
22BA
330
9
100
AcDbSymbolTableRecord
100
AcDbRegAppTableRecord
  2
GENIUS_GENOBJ-NBEHI-BHB_13
 70
     0
  0
APPID
  5
35C9
330
9
100
AcDbSymbolTableRecord
100
AcDbRegAppTableRecord
  2
GENIUS_GENREC_14
 70
     0
  0
APPID
  5
35CA
330
9
100
AcDbSymbolTableRecord
100
AcDbRegAppTableRecord
  2
GENIUS_GENOBJ-N-REC_13
 70
     0
  0
ENDTAB
  0
TABLE
  2
DIMSTYLE
  5
A
330
0
100
AcDbSymbolTable
 70
    17
  0
DIMSTYLE
105
58
330
A
100
AcDbSymbolTableRecord
100
AcDbDimStyleTableRecord
  2
AM_JIS
 70
     0
  3

  4
"
  5
OPEN30
  6

  7

 40
0.5
 41
2.5
 42
1.0
 43
12.0
 44
1.0
 45
0.0
 46
0.0
 47
0.1
 48
0.1
140
3.2
141
0.0
142
0.0
143
0.0393701
144
1.0
145
0.0
146
0.71
147
1.5
 71
     0
 72
     0
 73
     0
 74
     0
 75
     0
 76
     0
 77
     3
 78
     8
170
     0
171
     2
172
     1
173
     0
174
     0
175
     0
176
   256
177
   256
178
     2
270
     2
271
     3
272
     3
273
     2
274
     2
340
6B
275
     0
280
     0
281
     0
282
     0
283
     0
284
     0
285
     0
286
     0
287
     3
288
     0
  0
DIMSTYLE
105
5F
330
A
100
AcDbSymbolTableRecord
100
AcDbDimStyleTableRecord
  2
AM_JIS$3
 70
     0
  3

  4
"
  5
OPEN30
  6

  7

 40
0.5
 41
2.5
 42
1.0
 43
10.0
 44
1.0
 45
0.0
 46
0.0
 47
0.1
 48
0.1
140
3.2
141
0.0
142
0.0
143
0.0393701
144
1.0
145
0.0
146
0.71
147
1.5
 71
     0
 72
     0
 73
     0
 74
     1
 75
     0
 76
     0
 77
     3
 78
     8
170
     0
171
     2
172
     0
173
     0
174
     0
175
     0
176
   256
177
   256
178
     2
270
     2
271
     2
272
     3
273
     2
274
     2
340
6B
275
     0
280
     0
281
     0
282
     0
283
     0
284
     0
285
     0
286
     0
287
     0
288
     1
  0
DIMSTYLE
105
60
330
A
100
AcDbSymbolTableRecord
100
AcDbDimStyleTableRecord
  2
AM_JIS$4
 70
     0
  3

  4
"
  5
OPEN30
  6

  7

 40
0.5
 41
2.5
 42
1.0
 43
10.0
 44
1.0
 45
0.0
 46
0.0
 47
0.1
 48
0.1
140
3.2
141
0.0
142
0.0
143
0.0393701
144
1.0
145
0.0
146
0.71
147
1.5
 71
     0
 72
     0
 73
     0
 74
     1
 75
     0
 76
     0
 77
     3
 78
     8
170
     0
171
     2
172
     0
173
     0
174
     0
175
     0
176
   256
177
   256
178
     2
270
     2
271
     2
272
     3
273
     2
274
     2
340
6B
275
     0
280
     0
281
     0
282
     0
283
     0
284
     0
285
     0
286
     0
287
     0
288
     1
  0
DIMSTYLE
105
61
330
A
100
AcDbSymbolTableRecord
100
AcDbDimStyleTableRecord
  2
AM_JIS$6
 70
     0
  3

  4
"
  5
OPEN30
  6

  7

 40
0.5
 41
2.5
 42
1.0
 43
10.0
 44
1.0
 45
0.0
 46
0.0
 47
0.1
 48
0.1
140
3.2
141
0.0
142
0.0
143
0.0393701
144
1.0
145
0.0
146
0.71
147
1.5
 71
     0
 72
     0
 73
     0
 74
     0
 75
     0
 76
     0
 77
     0
 78
     8
170
     0
171
     2
172
     1
173
     0
174
     0
175
     0
176
   256
177
   256
178
     2
270
     2
271
     2
272
     2
273
     2
274
     2
340
6B
275
     0
280
     0
281
     0
282
     0
283
     0
284
     0
285
     0
286
     0
287
     3
288
     0
  0
DIMSTYLE
105
62
330
A
100
AcDbSymbolTableRecord
100
AcDbDimStyleTableRecord
  2
AM_JIS$7
 70
     0
  3

  4
"
  5
OPEN30
  6

  7

 40
0.5
 41
2.5
 42
1.0
 43
10.0
 44
1.0
 45
0.0
 46
0.0
 47
0.1
 48
0.1
140
3.2
141
0.0
142
0.0
143
0.0393701
144
1.0
145
0.0
146
0.71
147
1.5
 71
     0
 72
     0
 73
     0
 74
     0
 75
     0
 76
     0
 77
     3
 78
     8
170
     0
171
     2
172
     1
173
     0
174
     0
175
     0
176
   256
177
   256
178
     2
270
     2
271
     2
272
     3
273
     2
274
     2
340
6B
275
     0
280
     0
281
     0
282
     0
283
     0
284
     0
285
     0
286
     0
287
     3
288
     0
  0
DIMSTYLE
105
63
330
A
100
AcDbSymbolTableRecord
100
AcDbDimStyleTableRecord
  2
AM_JIS$SF
 70
     0
  3

  4
"
  5
OPEN30
  6

  7

 40
0.5
 41
2.5
 42
1.0
 43
10.0
 44
1.0
 45
0.0
 46
0.0
 47
0.1
 48
0.1
140
3.2
141
0.0
142
0.0
143
0.0393701
144
1.0
145
0.0
146
0.71
147
1.5
 71
     0
 72
     0
 73
     0
 74
     0
 75
     1
 76
     1
 77
     3
 78
     8
170
     0
171
     2
172
     1
173
     0
174
     0
175
     0
176
   256
177
   256
178
     2
270
     2
271
     2
272
     2
273
     2
274
     2
340
6B
275
     0
280
     0
281
     0
282
     0
283
     0
284
     0
285
     0
286
     0
287
     3
288
     0
  0
DIMSTYLE
105
68
330
A
100
AcDbSymbolTableRecord
100
AcDbDimStyleTableRecord
  2
AM_JIS$SH
 70
     0
  3

  4
"
  5

  6
GENAXEH
  7
OPEN30
 40
0.5
 41
2.5
 42
1.0
 43
10.0
 44
1.0
 45
0.0
 46
0.0
 47
0.1
 48
0.1
140
3.2
141
0.0
142
0.0
143
0.0393701
144
2.0
145
0.0
146
0.71
147
1.5
 71
     0
 72
     0
 73
     0
 74
     0
 75
     1
 76
     1
 77
     3
 78
     8
170
     0
171
     2
172
     1
173
     1
174
     0
175
     0
176
   256
177
   256
178
     2
270
     2
271
     2
272
     2
273
     2
274
     2
340
6B
275
     0
280
     0
281
     0
282
     0
283
     0
284
     0
285
     0
286
     0
287
     3
288
     0
  0
DIMSTYLE
105
B34
102
{ACAD_REACTORS
330
AA4F
102
}
330
A
100
AcDbSymbolTableRecord
100
AcDbDimStyleTableRecord
  2
AM_JIS$2
 70
     0
  3

  4
"
  5
OPEN30
  6

  7

 40
0.5
 41
2.5
 42
1.0
 43
12.0
 44
1.0
 45
0.0
 46
0.0
 47
0.1
 48
0.1
140
3.2
141
0.0
142
0.0
143
0.0393701
144
1.0
145
0.0
146
0.71
147
1.5
 71
     0
 72
     0
 73
     0
 74
     0
 75
     0
 76
     0
 77
     3
 78
     8
170
     0
171
     2
172
     1
173
     0
174
     0
175
     0
176
   256
177
   256
178
     2
270
     2
271
     3
272
     3
273
     2
274
     2
340
6B
275
     0
280
     0
281
     0
282
     0
283
     0
284
     0
285
     0
286
     0
287
     3
288
     0
  0
DIMSTYLE
105
3B48
102
{ACAD_REACTORS
330
A482
330
A3F2
330
A524
330
A5B9
330
A789
330
A8DF
330
A997
102
}
330
A
100
AcDbSymbolTableRecord
100
AcDbDimStyleTableRecord
  2
AM_JIS$0
 70
     0
  3

  4
"
  5
OPEN30
  6

  7

 40
1.0
 41
2.5
 42
0.0
 43
10.0
 44
1.0
 45
0.0
 46
0.0
 47
0.1
 48
0.1000000001
140
3.799999999999999
141
0.0
142
0.0
143
0.0393701
144
1.0
145
0.0
146
0.71
147
1.5
 71
     0
 72
     0
 73
     0
 74
     0
 75
     0
 76
     0
 77
     3
 78
     1
170
     0
171
     2
172
     1
173
     0
174
     0
175
     0
176
     3
177
     3
178
     2
270
     2
271
     2
272
     2
273
     2
274
     2
340
11
275
     1
280
     0
281
     0
282
     0
283
     0
284
     8
285
     0
286
     0
287
     0
288
     0
  0
DIMSTYLE
105
5FC7
330
A
100
AcDbSymbolTableRecord
100
AcDbDimStyleTableRecord
  2
ISO-25
 70
     0
  3

  4

  5

  6

  7

 40
1.0
 41
2.5
 42
0.625
 43
3.75
 44
1.25
 45
0.0
 46
0.0
 47
0.0
 48
0.0
140
2.5
141
2.5
142
0.0
143
0.03937007874016
144
1.0
145
0.0
146
1.0
147
0.625
 71
     0
 72
     0
 73
     0
 74
     0
 75
     0
 76
     0
 77
     1
 78
     8
170
     0
171
     3
172
     1
173
     0
174
     0
175
     0
176
     0
177
     0
178
     0
270
     2
271
     2
272
     2
273
     2
274
     3
340
11
275
     0
280
     0
281
     0
282
     0
283
     0
284
     8
285
     0
286
     0
287
     3
288
     0
  0
DIMSTYLE
105
5FC8
330
A
100
AcDbSymbolTableRecord
100
AcDbDimStyleTableRecord
  2
AM_ISO
 70
     0
  3

  4
"
  5
OPEN30
  6

  7

 40
1.0
 41
2.5
 42
0.0
 43
10.0
 44
1.0
 45
0.0
 46
0.0
 47
0.1
 48
0.1
140
3.5
141
0.0
142
0.0
143
0.0393701
144
1.0
145
0.0
146
0.71
147
0.9999999999999996
 71
     0
 72
     0
 73
     0
 74
     0
 75
     0
 76
     0
 77
     1
 78
     1
170
     0
171
     2
172
     1
173
     0
174
     0
175
     0
176
   256
177
   256
178
     2
270
     2
271
     2
272
     2
273
     2
274
     2
340
11
275
     1
280
     0
281
     0
282
     0
283
     1
284
     0
285
     0
286
     0
287
     3
288
     0
  0
DIMSTYLE
105
5FC9
330
A
100
AcDbSymbolTableRecord
100
AcDbDimStyleTableRecord
  2
AM_ISO$3
 70
     0
  3

  4
"
  5

  6

  7

 40
1.0
 41
2.5
 42
1.0
 43
10.0
 44
1.0
 45
0.0
 46
0.0
 47
0.1
 48
0.1
140
3.5
141
0.0
142
0.0
143
0.0393701
144
1.0
145
0.0
146
0.71
147
1.5
 71
     0
 72
     0
 73
     0
 74
     1
 75
     0
 76
     0
 77
     1
 78
     8
170
     0
171
     2
172
     0
173
     0
174
     0
175
     0
176
   256
177
   256
178
     2
270
     2
271
     2
272
     3
273
     2
274
     4
340
11
275
     0
280
     0
281
     0
282
     0
283
     0
284
     0
285
     0
286
     0
287
     0
288
     1
  0
DIMSTYLE
105
5FCA
330
A
100
AcDbSymbolTableRecord
100
AcDbDimStyleTableRecord
  2
AM_ISO$4
 70
     0
  3

  4
"
  5

  6

  7

 40
1.0
 41
2.5
 42
1.0
 43
10.0
 44
1.0
 45
0.0
 46
0.0
 47
0.1
 48
0.1
140
3.5
141
0.0
142
0.0
143
0.0393701
144
1.0
145
0.0
146
0.71
147
1.5
 71
     0
 72
     0
 73
     0
 74
     1
 75
     0
 76
     0
 77
     1
 78
     8
170
     0
171
     2
172
     0
173
     0
174
     0
175
     0
176
   256
177
   256
178
     2
270
     2
271
     2
272
     3
273
     2
274
     4
340
11
275
     0
280
     0
281
     0
282
     0
283
     0
284
     0
285
     0
286
     0
287
     0
288
     1
  0
DIMSTYLE
105
5FCB
330
A
100
AcDbSymbolTableRecord
100
AcDbDimStyleTableRecord
  2
AM_ISO$6
 70
     0
  3

  4
"
  5

  6

  7

 40
1.0
 41
2.5
 42
1.0
 43
10.0
 44
1.0
 45
0.0
 46
0.0
 47
0.1
 48
0.1
140
3.5
141
0.0
142
0.0
143
0.0393701
144
1.0
145
0.0
146
0.71
147
1.5
 71
     0
 72
     0
 73
     0
 74
     0
 75
     0
 76
     0
 77
     0
 78
     8
170
     0
171
     2
172
     1
173
     0
174
     0
175
     0
176
   256
177
   256
178
     2
270
     2
271
     2
272
     3
273
     2
274
     4
340
11
275
     0
280
     0
281
     0
282
     0
283
     0
284
     0
285
     0
286
     0
287
     3
288
     0
  0
DIMSTYLE
105
5FCC
330
A
100
AcDbSymbolTableRecord
100
AcDbDimStyleTableRecord
  2
AM_ISO$7
 70
     0
  3

  4
"
  5

  6

  7

 40
1.0
 41
2.5
 42
1.0
 43
10.0
 44
1.0
 45
0.0
 46
0.0
 47
0.1
 48
0.1
140
5.0
141
0.0
142
0.0
143
0.0393701
144
1.0
145
0.0
146
0.71
147
1.5
 71
     0
 72
     0
 73
     0
 74
     0
 75
     0
 76
     0
 77
     1
 78
     8
170
     0
171
     2
172
     1
173
     0
174
     0
175
     0
176
   256
177
   256
178
     2
270
     2
271
     2
272
     3
273
     2
274
     4
340
11
275
     0
280
     0
281
     0
282
     0
283
     0
284
     0
285
     0
286
     0
287
     3
288
     0
  0
DIMSTYLE
105
5FCD
330
A
100
AcDbSymbolTableRecord
100
AcDbDimStyleTableRecord
  2
AM_ISO$SF
 70
     0
  3

  4
"
  5

  6

  7

 40
1.0
 41
2.5
 42
1.0
 43
10.0
 44
1.0
 45
0.0
 46
0.0
 47
0.1
 48
0.1
140
3.5
141
0.0
142
0.0
143
0.0393701
144
1.0
145
0.0
146
0.71
147
1.5
 71
     0
 72
     0
 73
     0
 74
     0
 75
     1
 76
     1
 77
     1
 78
     8
170
     0
171
     2
172
     1
173
     0
174
     0
175
     0
176
   256
177
   256
178
     2
270
     2
271
     2
272
     3
273
     2
274
     4
340
11
275
     0
280
     0
281
     0
282
     0
283
     0
284
     0
285
     0
286
     0
287
     3
288
     0
  0
DIMSTYLE
105
5FCE
330
A
100
AcDbSymbolTableRecord
100
AcDbDimStyleTableRecord
  2
AM_ISO$SH
 70
     0
  3

  4
"
  5

  6
GENAXEH
  7

 40
1.0
 41
2.5
 42
1.0
 43
10.0
 44
1.0
 45
0.0
 46
0.0
 47
0.1
 48
0.1
140
3.5
141
0.0
142
0.0
143
0.0393701
144
2.0
145
0.0
146
0.71
147
1.5
 71
     0
 72
     0
 73
     0
 74
     0
 75
     1
 76
     1
 77
     1
 78
     8
170
     0
171
     2
172
     1
173
     1
174
     0
175
     0
176
   256
177
   256
178
     2
270
     2
271
     2
272
     3
273
     2
274
     4
340
11
275
     0
280
     0
281
     0
282
     0
283
     0
284
     0
285
     0
286
     0
287
     3
288
     0
  0
ENDTAB
  0
TABLE
  2
BLOCK_RECORD
  5
1
330
0
100
AcDbSymbolTable
 70
    14
  0
BLOCK_RECORD
  5
1F
102
{ACAD_XDICTIONARY
360
74
102
}
330
1
100
AcDbSymbolTableRecord
100
AcDbBlockTableRecord
  2
*MODEL_SPACE
  0
BLOCK_RECORD
  5
101
102
{ACAD_XDICTIONARY
360
AD42
102
}
330
1
100
AcDbSymbolTableRecord
100
AcDbBlockTableRecord
  2
*PAPER_SPACE
  0
BLOCK_RECORD
  5
59
330
1
100
AcDbSymbolTableRecord
100
AcDbBlockTableRecord
  2
_OPEN30
  0
BLOCK_RECORD
  5
64
330
1
100
AcDbSymbolTableRecord
100
AcDbBlockTableRecord
  2
GENAXEH
  0
BLOCK_RECORD
  5
A3F3
330
1
100
AcDbSymbolTableRecord
100
AcDbBlockTableRecord
  2
*D5
  0
BLOCK_RECORD
  5
A483
330
1
100
AcDbSymbolTableRecord
100
AcDbBlockTableRecord
  2
*D6
  0
BLOCK_RECORD
  5
A525
330
1
100
AcDbSymbolTableRecord
100
AcDbBlockTableRecord
  2
*D7
  0
BLOCK_RECORD
  5
A5BA
330
1
100
AcDbSymbolTableRecord
100
AcDbBlockTableRecord
  2
*D8
  0
BLOCK_RECORD
  5
A78A
330
1
100
AcDbSymbolTableRecord
100
AcDbBlockTableRecord
  2
*D9
  0
BLOCK_RECORD
  5
A8E0
330
1
100
AcDbSymbolTableRecord
100
AcDbBlockTableRecord
  2
*D10
  0
BLOCK_RECORD
  5
A998
330
1
100
AcDbSymbolTableRecord
100
AcDbBlockTableRecord
  2
*D11
  0
BLOCK_RECORD
  5
AA50
330
1
100
AcDbSymbolTableRecord
100
AcDbBlockTableRecord
  2
*D12
  0
ENDTAB
  0
ENDSEC
  0
SECTION
  2
BLOCKS
  0
BLOCK
  5
20
330
1F
100
AcDbEntity
  8
0
100
AcDbBlockBegin
  2
*MODEL_SPACE
 70
     0
 10
0.0
 20
0.0
 30
0.0
  3
*MODEL_SPACE
  1

  0
ENDBLK
  5
21
330
1F
100
AcDbEntity
  8
0
100
AcDbBlockEnd
  0
BLOCK
  5
103
330
101
100
AcDbEntity
 67
     1
  8
0
100
AcDbBlockBegin
  2
*PAPER_SPACE
 70
     0
 10
0.0
 20
0.0
 30
0.0
  3
*PAPER_SPACE
  1

  0
ENDBLK
  5
104
330
101
100
AcDbEntity
 67
     1
  8
0
100
AcDbBlockEnd
  0
BLOCK
  5
5D
330
59
100
AcDbEntity
  8
0
100
AcDbBlockBegin
  2
_OPEN30
 70
     0
 10
0.0
 20
0.0
 30
0.0
  3
_OPEN30
  1

  0
LINE
  5
5A
330
59
100
AcDbEntity
  8
0
 62
     0
100
AcDbLine
 10
-1.0
 20
0.26794919
 30
0.0
 11
0.0
 21
0.0
 31
0.0
  0
LINE
  5
5B
330
59
100
AcDbEntity
  8
0
 62
     0
100
AcDbLine
 10
0.0
 20
0.0
 30
0.0
 11
-1.0
 21
-0.26794919
 31
0.0
  0
LINE
  5
5C
330
59
100
AcDbEntity
  8
0
 62
     0
100
AcDbLine
 10
0.0
 20
0.0
 30
0.0
 11
-1.0
 21
0.0
 31
0.0
  0
ENDBLK
  5
5E
330
59
100
AcDbEntity
  8
0
100
AcDbBlockEnd
  0
BLOCK
  5
66
330
64
100
AcDbEntity
  8
0
100
AcDbBlockBegin
  2
GENAXEH
 70
     0
 10
0.0
 20
0.0
 30
0.0
  3
GENAXEH
  1

  0
LINE
  5
65
330
64
100
AcDbEntity
  8
0
100
AcDbLine
 10
-1.0
 20
0.0
 30
0.0
 11
1.0
 21
0.0
 31
0.0
  0
ENDBLK
  5
67
330
64
100
AcDbEntity
  8
0
100
AcDbBlockEnd
  0
BLOCK
  5
A3FD
330
A3F3
100
AcDbEntity
  8
0
100
AcDbBlockBegin
  2
*D5
 70
     1
 10
0.0
 20
0.0
 30
0.0
  3
*D5
  1

  0
LINE
  5
AD44
330
A3F3
100
AcDbEntity
  8
AM_5
100
AcDbLine
 10
-120.5000000000006
 20
57.00642830450651
 30
0.0
 11
-132.3736112796354
 21
57.00642830450649
 31
0.0
  0
LINE
  5
AD45
330
A3F3
100
AcDbEntity
  8
AM_5
100
AcDbLine
 10
-120.5000000000005
 20
41.0064283045065
 30
0.0
 11
-132.3736112796354
 21
41.00642830450648
 31
0.0
  0
LINE
  5
AD46
330
A3F3
100
AcDbEntity
  8
AM_5
100
AcDbLine
 10
-131.8736112796354
 20
55.75642830450649
 30
0.0
 11
-131.8736112796354
 21
42.25642830450648
 31
0.0
  0
INSERT
  5
AD47
330
A3F3
100
AcDbEntity
  8
AM_5
100
AcDbBlockReference
  2
_OPEN30
 10
-131.8736112796354
 20
57.00642830450649
 30
0.0
 41
1.25
 42
1.25
 43
1.25
 50
90.0000000000001
  0
INSERT
  5
AD48
330
A3F3
100
AcDbEntity
  8
AM_5
100
AcDbBlockReference
  2
_OPEN30
 10
-131.8736112796354
 20
41.00642830450648
 30
0.0
 41
1.25
 42
1.25
 43
1.25
 50
270.0000000000001
  0
MTEXT
  5
AD49
330
A3F3
100
AcDbEntity
  8
AM_5
 62
     2
100
AcDbMText
 10
-133.4236112796354
 20
49.00642830450649
 30
0.0
 40
1.6
 41
0.0
 71
     5
 72
     1
  1
16
  7
ASAMI
 11
-0.000000000000002
 21
1.0
 31
0.0
  0
POINT
  5
AD4A
330
A3F3
100
AcDbEntity
  8
DEFPOINTS
 62
     0
100
AcDbPoint
 10
-120.0000000000004
 20
57.00642830450679
 30
0.0
  0
POINT
  5
AD4B
330
A3F3
100
AcDbEntity
  8
DEFPOINTS
 62
     0
100
AcDbPoint
 10
-120.0000000000004
 20
41.00642830450676
 30
0.0
  0
POINT
  5
AD4C
330
A3F3
100
AcDbEntity
  8
DEFPOINTS
 62
     0
100
AcDbPoint
 10
-131.8736112796353
 20
41.00642830450676
 30
0.0
  0
ENDBLK
  5
A3FE
330
A3F3
100
AcDbEntity
  8
0
100
AcDbBlockEnd
  0
BLOCK
  5
A48D
330
A483
100
AcDbEntity
  8
0
100
AcDbBlockBegin
  2
*D6
 70
     1
 10
0.0
 20
0.0
 30
0.0
  3
*D6
  1

  0
LINE
  5
AD4D
330
A483
100
AcDbEntity
  8
AM_5
100
AcDbLine
 10
-120.5000000000002
 20
0.0499999999994775
 30
0.0
 11
-132.6932145365379
 21
0.0499999999994539
 31
0.0
  0
LINE
  5
AD4E
330
A483
100
AcDbEntity
  8
AM_5
100
AcDbLine
 10
-120.5000000000002
 20
-15.95000000000058
 30
0.0
 11
-132.6932145365379
 21
-15.9500000000006
 31
0.0
  0
LINE
  5
AD4F
330
A483
100
AcDbEntity
  8
AM_5
100
AcDbLine
 10
-132.1932145365379
 20
-1.200000000000545
 30
0.0
 11
-132.1932145365379
 21
-14.7000000000006
 31
0.0
  0
INSERT
  5
AD50
330
A483
100
AcDbEntity
  8
AM_5
100
AcDbBlockReference
  2
_OPEN30
 10
-132.1932145365379
 20
0.0499999999994549
 30
0.0
 41
1.25
 42
1.25
 43
1.25
 50
90.0000000000001
  0
INSERT
  5
AD51
330
A483
100
AcDbEntity
  8
AM_5
100
AcDbBlockReference
  2
_OPEN30
 10
-132.1932145365379
 20
-15.9500000000006
 30
0.0
 41
1.25
 42
1.25
 43
1.25
 50
270.0000000000001
  0
MTEXT
  5
AD52
330
A483
100
AcDbEntity
  8
AM_5
 62
     2
100
AcDbMText
 10
-133.7432145365379
 20
-7.950000000000572
 30
0.0
 40
1.6
 41
0.0
 71
     5
 72
     1
  1
16
  7
ASAMI
 11
-0.000000000000002
 21
1.0
 31
0.0
  0
POINT
  5
AD53
330
A483
100
AcDbEntity
  8
DEFPOINTS
 62
     0
100
AcDbPoint
 10
-120.0000000000002
 20
0.0499999999997449
 30
0.0
  0
POINT
  5
AD54
330
A483
100
AcDbEntity
  8
DEFPOINTS
 62
     0
100
AcDbPoint
 10
-120.0000000000002
 20
-15.95000000000031
 30
0.0
  0
POINT
  5
AD55
330
A483
100
AcDbEntity
  8
DEFPOINTS
 62
     0
100
AcDbPoint
 10
-132.1932145365379
 20
-15.9500000000003
 30
0.0
  0
ENDBLK
  5
A48E
330
A483
100
AcDbEntity
  8
0
100
AcDbBlockEnd
  0
BLOCK
  5
A52F
330
A525
100
AcDbEntity
  8
0
100
AcDbBlockBegin
  2
*D7
 70
     1
 10
0.0
 20
0.0
 30
0.0
  3
*D7
  1

  0
LINE
  5
AD56
330
A525
100
AcDbEntity
  8
AM_5
100
AcDbLine
 10
-120.0000000000002
 20
0.4999999999995159
 30
0.0
 11
-120.0000000000002
 21
14.96022457043562
 31
0.0
  0
LINE
  5
AD57
330
A525
100
AcDbEntity
  8
AM_5
100
AcDbLine
 10
-0.0000000000002679
 20
0.5000000000001564
 30
0.0
 11
-0.0000000000002705
 21
14.96022457043565
 31
0.0
  0
LINE
  5
AD58
330
A525
100
AcDbEntity
  8
AM_5
100
AcDbLine
 10
-118.7500000000002
 20
14.46022457043562
 30
0.0
 11
-1.25000000000027
 21
14.46022457043565
 31
0.0
  0
INSERT
  5
AD59
330
A525
100
AcDbEntity
  8
AM_5
100
AcDbBlockReference
  2
_OPEN30
 10
-120.0000000000002
 20
14.46022457043562
 30
0.0
 41
1.25
 42
1.25
 43
1.25
 50
180.0
  0
INSERT
  5
AD5A
330
A525
100
AcDbEntity
  8
AM_5
100
AcDbBlockReference
  2
_OPEN30
 10
-0.0000000000002704
 20
14.46022457043565
 30
0.0
 41
1.25
 42
1.25
 43
1.25
  0
MTEXT
  5
AD5B
330
A525
100
AcDbEntity
  8
AM_5
 62
     2
100
AcDbMText
 10
-60.00000000000028
 20
16.01022457043564
 30
0.0
 40
1.6
 41
0.0
 71
     5
 72
     1
  1
120
  7
ASAMI
  0
POINT
  5
AD5C
330
A525
100
AcDbEntity
  8
DEFPOINTS
 62
     0
100
AcDbPoint
 10
-120.0000000000002
 20
-0.0000000000002416
 30
0.0
  0
POINT
  5
AD5D
330
A525
100
AcDbEntity
  8
DEFPOINTS
 62
     0
100
AcDbPoint
 10
-0.0000000000002678
 20
0.0000000000001563
 30
0.0
  0
POINT
  5
AD5E
330
A525
100
AcDbEntity
  8
DEFPOINTS
 62
     0
100
AcDbPoint
 10
-0.0000000000002412
 20
14.46022457043565
 30
0.0
  0
ENDBLK
  5
A530
330
A525
100
AcDbEntity
  8
0
100
AcDbBlockEnd
  0
BLOCK
  5
A5C6
330
A5BA
100
AcDbEntity
  8
0
100
AcDbBlockBegin
  2
*D8
 70
     1
 10
0.0
 20
0.0
 30
0.0
  3
*D8
  1

  0
LINE
  5
AD5F
330
A5BA
100
AcDbEntity
  8
AM_5
100
AcDbLine
 10
-14.37220495117436
 20
0.0499999999997555
 30
0.0
 11
11.26538083461192
 21
0.0499999999998052
 31
0.0
  0
LINE
  5
AD60
330
A5BA
100
AcDbEntity
  8
AM_5
100
AcDbLine
 10
0.4999999999997323
 20
0.0000000000001715
 30
0.0
 11
11.26538083461192
 21
0.0000000000001924
 31
0.0
  0
LINE
  5
AD61
330
A5BA
100
AcDbEntity
  8
AM_5
100
AcDbLine
 10
10.76538083461193
 20
-1.249999999999808
 30
0.0
 11
10.76538083461193
 21
-2.499999999999808
 31
0.0
  0
LINE
  5
AD62
330
A5BA
100
AcDbEntity
  8
AM_5
100
AcDbLine
 10
10.76538083461192
 20
1.299999999999804
 30
0.0
 11
10.76538083461189
 21
17.59666666666647
 31
0.0
  0
LINE
  5
AD63
330
A5BA
100
AcDbEntity
  8
AM_5
100
AcDbLine
 10
10.76538083461192
 20
0.0000000000001914
 30
0.0
 11
10.76538083461192
 21
0.0499999999998042
 31
0.0
  0
INSERT
  5
AD64
330
A5BA
100
AcDbEntity
  8
AM_5
100
AcDbBlockReference
  2
_OPEN30
 10
10.76538083461192
 20
0.0000000000001914
 30
0.0
 41
1.25
 42
1.25
 43
1.25
 50
90.0000000000001
  0
INSERT
  5
AD65
330
A5BA
100
AcDbEntity
  8
AM_5
100
AcDbBlockReference
  2
_OPEN30
 10
10.76538083461192
 20
0.0499999999998042
 30
0.0
 41
1.25
 42
1.25
 43
1.25
 50
270.0000000000001
  0
MTEXT
  5
AD66
330
A5BA
100
AcDbEntity
  8
AM_5
 62
     2
100
AcDbMText
 10
9.215380834611906
 20
10.56857142857123
 30
0.0
 40
1.6
 41
0.0
 71
     5
 72
     1
  1
芯上り　0.05
  7
ASAMI
 11
-0.000000000000002
 21
1.0
 31
0.0
  0
POINT
  5
AD67
330
A5BA
100
AcDbEntity
  8
DEFPOINTS
 62
     0
100
AcDbPoint
 10
-14.87220495117436
 20
0.0499999999997876
 30
0.0
  0
POINT
  5
AD68
330
A5BA
100
AcDbEntity
  8
DEFPOINTS
 62
     0
100
AcDbPoint
 10
-0.0000000000002678
 20
0.0000000000001705
 30
0.0
  0
POINT
  5
AD69
330
A5BA
100
AcDbEntity
  8
DEFPOINTS
 62
     0
100
AcDbPoint
 10
10.76538083461192
 20
0.0000000000001675
 30
0.0
  0
ENDBLK
  5
A5C7
330
A5BA
100
AcDbEntity
  8
0
100
AcDbBlockEnd
  0
BLOCK
  5
A795
330
A78A
100
AcDbEntity
  8
0
100
AcDbBlockBegin
  2
*D9
 70
     1
 10
0.0
 20
0.0
 30
0.0
  3
*D9
  1

  0
LINE
  5
AD6A
330
A78A
100
AcDbEntity
  8
AM_5
100
AcDbLine
 10
0.3999999999994905
 20
41.00642830450714
 30
0.0
 11
18.93732220534084
 21
41.00642830450717
 31
0.0
  0
LINE
  5
AD6B
330
A78A
100
AcDbEntity
  8
AM_5
100
AcDbLine
 10
0.4999999999994907
 20
41.00642830450714
 30
0.0
 11
18.93732220534084
 21
41.00642830450717
 31
0.0
  0
LINE
  5
AD6C
330
A78A
100
AcDbEntity
  8
AM_5
100
AcDbLine
 10
18.43732220534084
 20
39.75642830450717
 30
0.0
 11
18.43732220534084
 21
38.50642830450717
 31
0.0
  0
LINE
  5
AD6D
330
A78A
100
AcDbEntity
  8
AM_5
100
AcDbLine
 10
18.43732220534083
 20
42.25642830450717
 30
0.0
 11
18.4373222053408
 21
57.3797616378405
 31
0.0
  0
INSERT
  5
AD6E
330
A78A
100
AcDbEntity
  8
AM_5
100
AcDbBlockReference
  2
_OPEN30
 10
18.43732220534084
 20
41.00642830450717
 30
0.0
 41
1.25
 42
1.25
 43
1.25
 50
90.0000000000001
  0
INSERT
  5
AD6F
330
A78A
100
AcDbEntity
  8
AM_5
100
AcDbBlockReference
  2
_OPEN30
 10
18.43732220534084
 20
41.00642830450717
 30
0.0
 41
1.25
 42
1.25
 43
1.25
 50
270.0000000000001
  0
MTEXT
  5
AD70
330
A78A
100
AcDbEntity
  8
AM_5
 62
     2
100
AcDbMText
 10
16.88732220534082
 20
50.44309497117384
 30
0.0
 40
1.6
 41
0.0
 71
     5
 72
     1
  1
オフセット　0
  7
ASAMI
 11
-0.000000000000002
 21
1.0
 31
0.0
  0
POINT
  5
AD71
330
A78A
100
AcDbEntity
  8
DEFPOINTS
 62
     0
100
AcDbPoint
 10
-0.1000000000004184
 20
41.00642830450714
 30
0.0
  0
POINT
  5
AD72
330
A78A
100
AcDbEntity
  8
DEFPOINTS
 62
     0
100
AcDbPoint
 10
-0.0000000000004183
 20
41.00642830450714
 30
0.0
  0
POINT
  5
AD73
330
A78A
100
AcDbEntity
  8
DEFPOINTS
 62
     0
100
AcDbPoint
 10
18.43732220534093
 20
41.00642830450713
 30
0.0
  0
ENDBLK
  5
A796
330
A78A
100
AcDbEntity
  8
0
100
AcDbBlockEnd
  0
BLOCK
  5
A8EA
330
A8E0
100
AcDbEntity
  8
0
100
AcDbBlockBegin
  2
*D10
 70
     1
 10
0.0
 20
0.0
 30
0.0
  3
*D10
  1

  0
LINE
  5
AD74
330
A8E0
100
AcDbEntity
  8
AM_5
100
AcDbLine
 10
-7.000000000000582
 20
57.50642830450708
 30
0.0
 11
-7.000000000000583
 21
64.50642830450712
 31
0.0
  0
LINE
  5
AD75
330
A8E0
100
AcDbEntity
  8
AM_5
100
AcDbLine
 10
-0.0000000000005705
 20
47.40996366144035
 30
0.0
 11
-0.0000000000005737
 21
64.50642830450712
 31
0.0
  0
LINE
  5
AD76
330
A8E0
100
AcDbEntity
  8
AM_5
100
AcDbLine
 10
-5.750000000000584
 20
64.00642830450713
 30
0.0
 11
-1.250000000000573
 21
64.00642830450713
 31
0.0
  0
INSERT
  5
AD77
330
A8E0
100
AcDbEntity
  8
AM_5
100
AcDbBlockReference
  2
_OPEN30
 10
-7.000000000000584
 20
64.00642830450713
 30
0.0
 41
1.25
 42
1.25
 43
1.25
 50
180.0
  0
INSERT
  5
AD78
330
A8E0
100
AcDbEntity
  8
AM_5
100
AcDbBlockReference
  2
_OPEN30
 10
-0.0000000000005736
 20
64.00642830450713
 30
0.0
 41
1.25
 42
1.25
 43
1.25
  0
MTEXT
  5
AD79
330
A8E0
100
AcDbEntity
  8
AM_5
 62
     2
100
AcDbMText
 10
-3.500000000000579
 20
65.55642830450712
 30
0.0
 40
1.6
 41
0.0
 71
     5
 72
     1
  1
6.5
  7
ASAMI
  0
POINT
  5
AD7A
330
A8E0
100
AcDbEntity
  8
DEFPOINTS
 62
     0
100
AcDbPoint
 10
-7.000000000000467
 20
57.0064283045071
 30
0.0
  0
POINT
  5
AD7B
330
A8E0
100
AcDbEntity
  8
DEFPOINTS
 62
     0
100
AcDbPoint
 10
-0.0000000000004756
 20
46.90996366144036
 30
0.0
  0
POINT
  5
AD7C
330
A8E0
100
AcDbEntity
  8
DEFPOINTS
 62
     0
100
AcDbPoint
 10
-0.0000000000004442
 20
64.00642830450713
 30
0.0
  0
ENDBLK
  5
A8EB
330
A8E0
100
AcDbEntity
  8
0
100
AcDbBlockEnd
  0
BLOCK
  5
A9A2
330
A998
100
AcDbEntity
  8
0
100
AcDbBlockBegin
  2
*D11
 70
     1
 10
0.0
 20
0.0
 30
0.0
  3
*D11
  1

  0
LINE
  5
AD7D
330
A998
100
AcDbEntity
  8
AM_5
100
AcDbLine
 10
-0.0000000000004778
 20
40.60642830450714
 30
0.0
 11
-0.0000000000004469
 21
24.84626697686242
 31
0.0
  0
LINE
  5
AD7E
330
A998
100
AcDbEntity
  8
AM_5
100
AcDbLine
 10
-24.50000000000049
 20
41.45849508010573
 30
0.0
 11
-24.50000000000046
 21
24.84626697686237
 31
0.0
  0
LINE
  5
AD7F
330
A998
100
AcDbEntity
  8
AM_5
100
AcDbLine
 10
-1.250000000000447
 20
25.34626697686242
 30
0.0
 11
-23.25000000000046
 21
25.34626697686237
 31
0.0
  0
INSERT
  5
AD80
330
A998
100
AcDbEntity
  8
AM_5
100
AcDbBlockReference
  2
_OPEN30
 10
-0.0000000000004479
 20
25.34626697686242
 30
0.0
 41
1.25
 42
1.25
 43
1.25
 50
0.0000000000001018
  0
INSERT
  5
AD81
330
A998
100
AcDbEntity
  8
AM_5
100
AcDbBlockReference
  2
_OPEN30
 10
-24.50000000000046
 20
25.34626697686237
 30
0.0
 41
1.25
 42
1.25
 43
1.25
 50
180.0000000000001
  0
MTEXT
  5
AD82
330
A998
100
AcDbEntity
  8
AM_5
 62
     2
100
AcDbMText
 10
-12.25000000000046
 20
26.89626697686239
 30
0.0
 40
1.6
 41
0.0
 71
     5
 72
     1
  1
24
  7
ASAMI
  0
POINT
  5
AD83
330
A998
100
AcDbEntity
  8
DEFPOINTS
 62
     0
100
AcDbPoint
 10
-0.0000000000003957
 20
41.10642830450714
 30
0.0
  0
POINT
  5
AD84
330
A998
100
AcDbEntity
  8
DEFPOINTS
 62
     0
100
AcDbPoint
 10
-24.50000000000041
 20
41.95849508010577
 30
0.0
  0
POINT
  5
AD85
330
A998
100
AcDbEntity
  8
DEFPOINTS
 62
     0
100
AcDbPoint
 10
-24.50000000000041
 20
25.34626697686242
 30
0.0
  0
ENDBLK
  5
A9A3
330
A998
100
AcDbEntity
  8
0
100
AcDbBlockEnd
  0
BLOCK
  5
AA5F
330
AA50
100
AcDbEntity
  8
0
100
AcDbBlockBegin
  2
*D12
 70
     1
 10
0.0
 20
0.0
 30
0.0
  3
*D12
  1

  0
LINE
  5
AD86
330
AA50
100
AcDbEntity
  8
AM_5
100
AcDbLine
 10
-6.653236049173239
 20
-8.053553390593132
 30
0.0
 11
-16.55407255990256
 21
-17.95438990132243
 31
0.0
  0
LINE
  5
AD87
330
AA50
100
AcDbEntity
  8
AM_5
100
AcDbLine
 10
-0.0000000000002645
 20
-1.900317341420163
 30
0.0
 11
-0.000000000000222
 21
-24.81131126814227
 31
0.0
  0
ARC
  5
AD88
330
AA50
100
AcDbEntity
  8
AM_5
100
AcDbCircle
 10
-0.0000000000002655
 20
-1.400317341420163
 30
0.0
 40
22.9109939267221
100
AcDbArc
 50
228.1263859818483
 51
266.8736140181517
  0
INSERT
  5
AD89
330
AA50
100
AcDbEntity
  8
AM_5
100
AcDbBlockReference
  2
_OPEN30
 10
-16.20051916930928
 20
-17.60083651072916
 30
0.0
 41
1.25
 42
1.25
 43
1.25
 50
136.5631929909241
  0
INSERT
  5
AD8A
330
AA50
100
AcDbEntity
  8
AM_5
100
AcDbBlockReference
  2
_OPEN30
 10
-0.0000000000002238
 20
-24.31131126814227
 30
0.0
 41
1.25
 42
1.25
 43
1.25
 50
358.4368070090758
  0
MTEXT
  5
AD8B
330
AA50
100
AcDbEntity
  8
AM_5
 62
     2
100
AcDbMText
 10
-8.174498474608109
 20
-21.13530242441662
 30
0.0
 40
1.6
 41
0.0
 71
     5
 72
     1
  1
45°
  7
ASAMI
 11
0.9238795325112871
 21
-0.3826834323650891
 31
0.0
  0
POINT
  5
AD8C
330
AA50
100
AcDbEntity
  8
DEFPOINTS
 62
     0
100
AcDbPoint
 10
-11.45549696336136
 20
-21.24182010791247
 30
0.0
  0
POINT
  5
AD8D
330
AA50
100
AcDbEntity
  8
DEFPOINTS
 62
     0
100
AcDbPoint
 10
-0.1960035610729544
 20
-1.596320902492849
 30
0.0
  0
POINT
  5
AD8E
330
AA50
100
AcDbEntity
  8
DEFPOINTS
 62
     0
100
AcDbPoint
 10
-0.0000000000002682
 20
0.0000000000001563
 30
0.0
  0
POINT
  5
AD8F
330
AA50
100
AcDbEntity
  8
DEFPOINTS
 62
     0
100
AcDbPoint
 10
-0.0000000000002682
 20
0.0356437787314405
 30
0.0
  0
POINT
  5
AD90
330
AA50
100
AcDbEntity
  8
DEFPOINTS
 62
     0
100
AcDbPoint
 10
-6.29968265857998
 20
-7.699999999999846
 30
0.0
  0
ENDBLK
  5
AA60
330
AA50
100
AcDbEntity
  8
0
100
AcDbBlockEnd
  0
ENDSEC
  0
SECTION
  2
ENTITIES
  0
TEXT
  5
388D
330
1F
100
AcDbEntity
  8
AM_6
100
AcDbText
 10
-72.02233848758758
 20
-37.38316652543925
 30
0.0
 40
2.5
  1
SGWR1616
 50
359.9999999999998
 51
359.9999999999998
 72
     4
 11
-63.03424324949236
 21
-36.13316652543927
 31
0.0
100
AcDbText
  0
LINE
  5
A262
330
1F
100
AcDbEntity
  8
AM_0
100
AcDbLine
 10
-7.000000000000467
 20
57.00642830450712
 30
0.0
 11
-120.0000000000004
 21
57.00642830450679
 31
0.0
  0
LINE
  5
A263
330
1F
100
AcDbEntity
  8
AM_0
100
AcDbLine
 10
-6.889489773582539
 20
-15.94999999999991
 30
0.0
 11
-120.0000000000002
 21
-15.95000000000029
 31
0.0
  0
LINE
  5
A265
330
1F
100
AcDbEntity
  8
AM_0
100
AcDbLine
 10
-25.45206677559912
 20
41.00642830450709
 30
0.0
 11
-120.0000000000004
 21
41.00642830450676
 31
0.0
  0
LINE
  5
A266
330
1F
100
AcDbEntity
  8
AM_0
100
AcDbLine
 10
-14.87220495117436
 20
0.0499999999997876
 30
0.0
 11
-120.0000000000002
 21
0.0499999999997591
 31
0.0
  0
ARC
  5
A267
330
1F
100
AcDbEntity
  8
AM_0
100
AcDbCircle
 10
-19.38936477358242
 20
-6.151492343004591
 30
0.0
 40
2.499975
100
AcDbArc
 50
134.9999999999997
 51
270.0000000000002
  0
LINE
  5
A268
330
1F
100
AcDbEntity
  8
AM_0
100
AcDbLine
 10
-14.38767963183988
 20
-7.285279751855625
 30
0.0
 11
-15.02164149828557
 21
-7.919241618301384
 31
0.0
  0
ARC
  5
A269
330
1F
100
AcDbEntity
  8
AM_0
100
AcDbCircle
 10
-10.63858470271111
 20
-5.499090521867898
 30
0.0
 40
2.499975
100
AcDbArc
 50
225.6008317835692
 51
314.3991682164358
  0
LINE
  5
A26B
330
1F
100
AcDbEntity
  8
AM_0
100
AcDbLine
 10
-6.889489773582567
 20
-7.235279751855568
 30
0.0
 11
-6.889489773582539
 21
-15.94999999999991
 31
0.0
  0
LINE
  5
A26D
330
1F
100
AcDbEntity
  8
AM_0
100
AcDbLine
 10
-25.45206677559896
 20
0.0499999999997591
 30
0.0
 11
-26.01079908746697
 21
-15.94999999999997
 31
0.0
  0
LINE
  5
A26E
330
1F
100
AcDbEntity
  8
AM_0
100
AcDbLine
 10
-24.50000000000027
 20
0.0499999999997591
 30
0.0
 11
-24.50000000000022
 21
-15.94999999999998
 31
0.0
  0
ARC
  5
A26F
330
1F
100
AcDbEntity
  8
AM_0
100
AcDbCircle
 10
-19.13629187415973
 20
-8.850021261785698
 30
0.0
 40
2.0
100
AcDbArc
 50
35.10037668667425
 51
110.0000000000003
  0
ARC
  5
A270
330
1F
100
AcDbEntity
  8
AM_0
100
AcDbCircle
 10
-15.51556850816548
 20
-7.823798746838377
 30
0.0
 40
0.5
100
AcDbArc
 50
90.0000000000003
 51
165.6646103427962
  0
LINE
  5
A271
330
1F
100
AcDbEntity
  8
AM_0
100
AcDbLine
 10
-6.455426958032104
 20
-7.323999999999841
 30
0.0
 11
-6.299682658579696
 21
-7.699999999999818
 31
0.0
  0
LINE
  5
A272
330
1F
100
AcDbEntity
  8
AM_0
100
AcDbLine
 10
-0.1960035610729545
 20
-1.596320902492848
 30
0.0
 11
-6.29968265857998
 21
-7.699999999999846
 31
0.0
  0
LINE
  5
A273
330
1F
100
AcDbEntity
  8
AM_0
100
AcDbLine
 10
-6.889489773582551
 20
-7.699999999999818
 30
0.0
 11
-6.299682658579696
 21
-7.699999999999818
 31
0.0
  0
LINE
  5
A274
330
1F
100
AcDbEntity
  8
AM_0
100
AcDbLine
 10
-11.82427963383547
 20
-7.699999999999832
 30
0.0
 11
-9.452889771586695
 21
-7.699999999999832
 31
0.0
  0
LINE
  5
A275
330
1F
100
AcDbEntity
  8
AM_0
100
AcDbLine
 10
-16.78939077358243
 20
-8.651467343004583
 30
0.0
 11
-19.38936477358241
 21
-8.651467343004597
 31
0.0
  0
ARC
  5
A276
330
1F
100
AcDbEntity
  8
AM_0
100
AcDbCircle
 10
-16.78939077358245
 20
-6.151492343004576
 30
0.0
 40
2.499975
100
AcDbArc
 50
270.0000000000002
 51
315.0
  0
LINE
  5
A277
330
1F
100
AcDbEntity
  8
AM_0
100
AcDbLine
 10
-17.50000000000024
 20
-7.699999999999846
 30
0.0
 11
-14.80239987998403
 21
-7.699999999999846
 31
0.0
  0
LINE
  5
A280
330
1F
100
AcDbEntity
  8
AM_0
100
AcDbLine
 10
-12.38769963183983
 20
-7.285279751855611
 30
0.0
 11
-14.38767963183988
 21
-7.285279751855625
 31
0.0
  0
CIRCLE
  5
A283
330
1F
100
AcDbEntity
  8
AM_0
100
AcDbCircle
 10
-10.50000000000026
 20
-3.699999999999874
 30
0.0
 40
3.0
  0
CIRCLE
  5
A284
330
1F
100
AcDbEntity
  8
AM_0
100
AcDbCircle
 10
-10.50000000000026
 20
-3.699999999999874
 30
0.0
 40
2.2
  0
LINE
  5
A285
330
1F
100
AcDbEntity
  8
AM_0
100
AcDbLine
 10
-5.484431491834966
 20
-0.0762012531613152
 30
0.0
 11
-14.54477429512978
 21
-0.0762012531613436
 31
0.0
  0
LINE
  5
A286
330
1F
100
AcDbEntity
  8
AM_0
100
AcDbLine
 10
-3.500000000000268
 20
0.3000000000001677
 30
0.0
 11
-14.70031734142075
 21
0.300000000000125
 31
0.0
  0
LINE
  5
A287
330
1F
100
AcDbEntity
  8
AM_0
100
AcDbLine
 10
-1.179667839189319
 20
-0.4293639797857623
 30
0.0
 11
-0.0000000000002682
 21
0.0000000000001563
 31
0.0
  0
LINE
  5
A288
330
1F
100
AcDbEntity
  8
AM_0
100
AcDbLine
 10
-0.1215748775239671
 20
-0.9901479194916902
 30
0.0
 11
-6.455426958032104
 21
-7.323999999999841
 31
0.0
  0
LINE
  5
A289
330
1F
100
AcDbEntity
  8
AM_0
100
AcDbLine
 10
-0.0000000000002682
 20
0.0000000000001563
 30
0.0
 11
-0.1960035610729545
 21
-1.59632090249282
 31
0.0
  0
LINE
  5
A28A
330
1F
100
AcDbEntity
  8
AM_0
100
AcDbLine
 10
-6.889489773582551
 20
-7.323798746838349
 30
0.0
 11
-6.455225704870668
 21
-7.323798746838349
 31
0.0
  0
ARC
  5
A28B
330
1F
100
AcDbEntity
  8
AM_0
100
AcDbCircle
 10
-1.863708125840728
 20
1.450021261786019
 30
0.0
 40
2.0
100
AcDbArc
 50
215.1003766866742
 51
290.0000000000003
  0
ARC
  5
A28C
330
1F
100
AcDbEntity
  8
AM_0
100
AcDbCircle
 10
-5.484431491834966
 20
0.4237987468386848
 30
0.0
 40
0.5
100
AcDbArc
 50
270.0000000000002
 51
345.6646103427963
  0
LINE
  5
A28D
330
1F
100
AcDbEntity
  8
AM_0
100
AcDbLine
 10
-12.34747758828062
 20
-7.323798746838363
 30
0.0
 11
-8.929691817141572
 21
-7.323798746838363
 31
0.0
  0
LINE
  5
A28E
330
1F
100
AcDbEntity
  8
AM_0
100
AcDbLine
 10
-6.889489773582452
 20
-7.28527975185554
 30
0.0
 11
-8.889469773582389
 21
-7.285279751855611
 31
0.0
  0
LINE
  5
A28F
330
1F
100
AcDbEntity
  8
AM_0
100
AcDbLine
 10
-17.12010038497298
 20
-2.651527343004545
 30
0.0
 11
-20.8784251224765
 21
-6.409852080508088
 31
0.0
  0
ARC
  5
A290
330
1F
100
AcDbEntity
  8
AM_0
100
AcDbCircle
 10
-18.3893747735824
 20
-5.151502343004565
 30
0.0
 40
2.499975
100
AcDbArc
 50
90.0000000000003
 51
134.9999999999997
  0
LINE
  5
A291
330
1F
100
AcDbEntity
  8
AM_0
100
AcDbLine
 10
-17.65184468442548
 20
-2.651527343004545
 30
0.0
 11
-20.8039964389275
 21
-5.803679097506673
 31
0.0
  0
LINE
  5
A292
330
1F
100
AcDbEntity
  8
AM_0
100
AcDbLine
 10
-15.51556850816548
 20
-7.323798746838377
 30
0.0
 11
-14.42619862682262
 21
-7.323798746838377
 31
0.0
  0
LINE
  5
A293
330
1F
100
AcDbEntity
  8
AM_0
100
AcDbLine
 10
-14.87220495117436
 20
-0.4999999999998721
 30
0.0
 11
-17.02373229417891
 21
-2.651527343004545
 31
0.0
  0
LINE
  5
A294
330
1F
100
AcDbEntity
  8
AM_0
100
AcDbLine
 10
-14.87220495117436
 20
0.0499999999997876
 30
0.0
 11
-14.87220495117436
 21
-0.4999999999998721
 31
0.0
  0
LINE
  5
A295
330
1F
100
AcDbEntity
  8
AM_0
100
AcDbLine
 10
-14.70031734142075
 20
0.300000000000125
 30
0.0
 11
-14.54477429512978
 21
-0.0762012531613436
 31
0.0
  0
LINE
  5
A296
330
1F
100
AcDbEntity
  8
AM_0
100
AcDbLine
 10
-14.54477429512978
 20
-0.0762012531613436
 30
0.0
 11
-14.87220495117436
 21
-0.4036319092058847
 31
0.0
  0
LINE
  5
A297
330
1F
100
AcDbEntity
  8
AM_0
100
AcDbLine
 10
-14.70031734142075
 20
0.300000000000125
 30
0.0
 11
-14.9503173414211
 21
0.0499999999997876
 31
0.0
  0
LINE
  5
A298
330
1F
100
AcDbEntity
  8
AM_0
100
AcDbLine
 10
-17.02373229417891
 20
-2.651527343004545
 30
0.0
 11
-18.38937477358241
 21
-2.651527343004559
 31
0.0
  0
LINE
  5
A299
330
1F
100
AcDbEntity
  8
AM_0
100
AcDbLine
 10
-20.15712404887928
 20
-3.383753067707701
 30
0.0
 11
-21.1571140488793
 21
-4.38374306770774
 31
0.0
  0
LINE
  5
A29A
330
1F
100
AcDbEntity
  8
AM_0
100
AcDbLine
 10
-19.82033216081114
 20
-6.970636020213916
 30
0.0
 11
-21.00000000000024
 21
-7.399999999999863
 31
0.0
  0
LINE
  5
A29B
330
1F
100
AcDbEntity
  8
AM_0
100
AcDbLine
 10
-21.00000000000024
 20
-7.399999999999863
 30
0.0
 11
-20.8039964389275
 21
-5.803679097506645
 31
0.0
  0
LINE
  5
A29D
330
1F
100
AcDbEntity
  8
AM_0
100
AcDbLine
 10
-7.000000000000424
 20
47.55116078865265
 30
0.0
 11
-15.56585095965243
 21
47.85028689551561
 31
0.0
  0
LINE
  5
A29F
330
1F
100
AcDbEntity
  8
AM_0
100
AcDbLine
 10
-13.92233392470944
 20
47.7928940159825
 30
0.0
 11
-6.632241518177577
 21
47.5383183794805
 31
0.0
  0
LINE
  5
A2A0
330
1F
100
AcDbEntity
  8
AM_0
100
AcDbLine
 10
-0.1034899496706583
 20
41.00648922180524
 30
0.0
 11
-20.89081915166782
 21
41.73239875321719
 31
0.0
  0
LINE
  5
A2A1
330
1F
100
AcDbEntity
  8
AM_0
100
AcDbLine
 10
-5.350132579753006
 20
45.49232706018083
 30
0.0
 11
-15.35151829967865
 21
45.84158314550438
 31
0.0
  0
LINE
  5
A2A2
330
1F
100
AcDbEntity
  8
AM_0
100
AcDbLine
 10
-5.000505002064242
 20
41.17749675564747
 30
0.0
 11
-4.867886914594746
 21
44.97518189832006
 31
0.0
  0
LINE
  5
A2A3
330
1F
100
AcDbEntity
  8
AM_7
100
AcDbLine
 10
-10.25634802342201
 20
48.26524069394295
 30
0.0
 11
-10.51809424869077
 21
40.76980949129977
 31
0.0
1001
GENIUS_GENODEF_13
1002
{
1000
HIER
1070
     0
1002
}
1002
{
1000
MANEDIT
1070
     0
1002
}
1002
{
1000
NOSEL
1070
     0
1002
}
1002
{
1000
BEHIND
1070
     0
1002
}
1002
{
1000
REACTOR
1002
}
1001
GENIUS_GENOBJ-N-CEN_13
1002
{
1000
OWNER
1000
GEN
1002
}
  0
LINE
  5
A2A4
330
1F
100
AcDbEntity
  8
AM_0
100
AcDbLine
 10
-0.0000000000003961
 20
41.10642830450713
 30
0.0
 11
-0.000000000000453
 21
46.90996366144033
 31
0.0
  0
LINE
  5
A2A5
330
1F
100
AcDbEntity
  8
AM_0
100
AcDbLine
 10
-3.50141876153563
 20
46.89124445535371
 30
0.0
 11
-3.501418761535601
 21
41.12514751059374
 31
0.0
  0
ARC
  5
A2A6
330
1F
100
AcDbEntity
  8
AM_0
100
AcDbCircle
 10
-0.1000000000004189
 20
41.10642830450713
 30
0.0
 40
0.1
100
AcDbArc
 50
268.0000000000003
 51
359.9999999999935
  0
LINE
  5
A2A7
330
1F
100
AcDbEntity
  8
AM_0
100
AcDbLine
 10
-0.1034899496707435
 20
47.00990274414222
 30
0.0
 11
-6.106164043628124
 21
46.80028474577307
 31
0.0
  0
ARC
  5
A2A9
330
1F
100
AcDbEntity
  8
AM_0
100
AcDbCircle
 10
-0.1000000000004757
 20
46.90996366144033
 30
0.0
 40
0.1
100
AcDbArc
 50
0.0000000000098795
 51
92.00000000000313
  0
LINE
  5
A2AA
330
1F
100
AcDbEntity
  8
AM_0
100
AcDbLine
 10
-7.000000000000467
 20
57.00642830450712
 30
0.0
 11
-7.000000000000424
 21
47.55116078865287
 31
0.0
  0
ARC
  5
A2AB
330
1F
100
AcDbEntity
  8
AM_0
100
AcDbCircle
 10
-6.12361379197952
 20
47.29998015928262
 30
0.0
 40
0.5
100
AcDbArc
 50
182.0000000000005
 51
272.0000000000002
  0
ARC
  5
A2AC
330
1F
100
AcDbEntity
  8
AM_0
100
AcDbCircle
 10
-5.367582328104274
 20
44.99263164667133
 30
0.0
 40
0.5
100
AcDbArc
 50
357.9999999999999
 51
88.00000000000034
1001
GENIUS_GENODEF_13
1002
{
1000
HIER
1070
     0
1002
}
1002
{
1000
MANEDIT
1070
     0
1002
}
1002
{
1000
NOSEL
1070
     0
1002
}
1002
{
1000
BEHIND
1070
     0
1002
}
1002
{
1000
REACTOR
1002
}
1001
GENIUS_GENOBJ-N-FIL_13
1002
{
1000
OWNER
1000
GEN
1002
}
  0
LINE
  5
A2AD
330
1F
100
AcDbEntity
  8
AM_0
100
AcDbLine
 10
-6.623309205489077
 20
47.28253041093137
 30
0.0
 11
-6.632241518177577
 21
47.5383183794805
 31
0.0
  0
LINE
  5
A2AE
330
1F
100
AcDbEntity
  8
AM_0
100
AcDbLine
 10
-15.39542343326036
 20
46.34342111870316
 30
0.0
 11
-14.98271517759222
 21
41.62614417063122
 31
0.0
  0
LINE
  5
A2AF
330
1F
100
AcDbEntity
  8
AM_0
100
AcDbLine
 10
-14.98271517759256
 20
41.62614417063489
 30
0.0
 11
-24.50000000000041
 21
41.95849508010579
 31
0.0
  0
LINE
  5
A2B0
330
1F
100
AcDbEntity
  8
AM_0
100
AcDbLine
 10
-24.50000000000041
 20
41.95849508010579
 30
0.0
 11
-25.45206677559912
 21
41.00642830450709
 31
0.0
  0
ARC
  5
A2B1
330
1F
100
AcDbEntity
  8
AM_0
100
AcDbCircle
 10
-20.88732920199758
 20
41.83233783591911
 30
0.0
 40
0.1
100
AcDbArc
 50
175.9999999999905
 51
268.0000000000003
  0
LINE
  5
A2B2
330
1F
100
AcDbEntity
  8
AM_0
100
AcDbLine
 10
-14.54484533643336
 20
45.81341350489966
 30
0.0
 11
-14.53946487858433
 21
41.51060457468645
 31
0.0
  0
LINE
  5
A2B3
330
1F
100
AcDbEntity
  8
AM_0
100
AcDbLine
 10
-20.86403762210621
 20
41.83152447602656
 30
0.0
 11
-20.86925741697659
 21
41.73164580085021
 31
0.0
  0
LINE
  5
A2B5
330
1F
100
AcDbEntity
  8
AM_0
100
AcDbLine
 10
-14.50859541749787
 20
46.85147536502191
 30
0.0
 11
-14.54484533643336
 21
45.81341350489966
 31
0.0
  0
LINE
  5
A2B6
330
1F
100
AcDbEntity
  8
AM_0
100
AcDbLine
 10
-15.61820020470605
 20
46.35120065498695
 30
0.0
 11
-15.39542343326036
 21
46.34342111870316
 31
0.0
  0
LINE
  5
A2B7
330
1F
100
AcDbEntity
  8
AM_0
100
AcDbLine
 10
-15.58828414190233
 20
47.20788460666422
 30
0.0
 11
-14.49861252476355
 21
47.09335550465417
 31
0.0
  0
LINE
  5
A2B8
330
1F
100
AcDbEntity
  8
AM_0
100
AcDbLine
 10
-15.59639479458903
 20
46.97562590203695
 30
0.0
 11
-14.52850526468211
 21
46.8533525046889
 31
0.0
  0
LINE
  5
A2B9
330
1F
100
AcDbEntity
  8
AM_0
100
AcDbLine
 10
-13.97436592654062
 20
47.29784258727789
 30
0.0
 11
-13.92233392470944
 21
47.7928940159825
 31
0.0
  0
ARC
  5
A2BA
330
1F
100
AcDbEntity
  8
AM_0
100
AcDbCircle
 10
-14.44634829312943
 20
47.5906164523382
 30
0.0
 40
0.5
100
AcDbArc
 50
264.0000000000005
 51
354.0000000000002
  0
ARC
  5
A2BB
330
1F
100
AcDbEntity
  8
AM_0
100
AcDbCircle
 10
-14.47162687422476
 20
47.35010681891174
 30
0.0
 40
0.5
100
AcDbArc
 50
263.4680767229932
 51
354.0000000000002
  0
LINE
  5
A2BC
330
1F
100
AcDbEntity
  8
AM_0
100
AcDbLine
 10
-15.56585095965243
 20
47.85028689551561
 30
0.0
 11
-15.61820020470605
 21
46.35120065498695
 31
0.0
  0
LINE
  5
A2BE
330
1F
100
AcDbEntity
  8
AM_0
100
AcDbLine
 10
-120.0000000000002
 20
0.0499999999997591
 30
0.0
 11
-120.0000000000002
 21
-15.95000000000029
 31
0.0
  0
LINE
  5
A2C1
330
1F
100
AcDbEntity
  8
AM_0
100
AcDbLine
 10
-120.0000000000004
 20
41.00642830450676
 30
0.0
 11
-120.0000000000004
 21
57.00642830450679
 31
0.0
  0
DIMENSION
  5
A3F2
330
1F
100
AcDbEntity
  8
AM_5
100
AcDbDimension
  2
*D5
 10
-131.8736112796353
 20
41.00642830450676
 30
0.0
 11
-133.4236112796353
 21
49.00642830450675
 31
0.0
 70
    32
  1
<>
 51
359.9999999999998
  3
AM_JIS$0
100
AcDbAlignedDimension
 13
-120.0000000000004
 23
57.00642830450679
 33
0.0
 14
-120.0000000000004
 24
41.00642830450676
 34
0.0
 50
270.0000000000002
100
AcDbRotatedDimension
1001
GENIUS_GENDTOL_13
1000

1000
h7
1000

1040
0.0
1001
ACAD
1000
DSTYLE
1002
{
1070
   287
1070
     3
1070
    40
1040
0.5
1070
    42
1040
1.0
1070
    43
1040
12.0
1070
    48
1040
0.1
1070
    78
1070
     8
1070
   140
1040
3.2
1070
   176
1070
   256
1070
   177
1070
   256
1070
   271
1070
     0
1070
   272
1070
     3
1070
   275
1070
     0
1070
   284
1070
     0
1070
   289
1070
     3
1070
   340
1005
6B
1070
   371
1070
    -1
1070
   372
1070
    -1
1002
}
  0
DIMENSION
  5
A482
330
1F
100
AcDbEntity
  8
AM_5
100
AcDbDimension
  2
*D6
 10
-132.1932145365379
 20
-15.9500000000003
 30
0.0
 11
-133.7432145365379
 21
-7.950000000000302
 31
0.0
 70
    32
  1
<>
 51
359.9999999999998
  3
AM_JIS$0
100
AcDbAlignedDimension
 13
-120.0000000000002
 23
0.0499999999997449
 33
0.0
 14
-120.0000000000002
 24
-15.95000000000031
 34
0.0
 50
270.0
100
AcDbRotatedDimension
1001
GENIUS_GENDTOL_13
1000

1000
h7
1000

1040
0.0
1001
ACAD
1000
DSTYLE
1002
{
1070
   287
1070
     3
1070
    40
1040
0.5
1070
    42
1040
1.0
1070
    43
1040
12.0
1070
    48
1040
0.1
1070
    78
1070
     8
1070
   140
1040
3.2
1070
   176
1070
   256
1070
   177
1070
   256
1070
   271
1070
     0
1070
   272
1070
     3
1070
   275
1070
     0
1070
   284
1070
     0
1070
   289
1070
     3
1070
   340
1005
6B
1070
   371
1070
    -1
1070
   372
1070
    -1
1002
}
  0
DIMENSION
  5
A524
330
1F
100
AcDbEntity
  8
AM_5
100
AcDbDimension
  2
*D7
 10
-0.0000000000002412
 20
14.46022457043565
 30
0.0
 11
-60.00000000000024
 21
16.01022457043576
 31
0.0
 70
    32
  1
<>
 51
359.9999999999998
  3
AM_JIS$0
100
AcDbAlignedDimension
 13
-120.0000000000002
 23
-0.0000000000002416
 33
0.0
 14
-0.0000000000002678
 24
0.0000000000001563
 34
0.0
 50
180.0
100
AcDbRotatedDimension
1001
GENIUS_GENDTOL_13
1000

1000
h7
1000

1040
0.0
1001
ACAD
1000
DSTYLE
1002
{
1070
   287
1070
     3
1070
    40
1040
0.5
1070
    42
1040
1.0
1070
    43
1040
12.0
1070
    48
1040
0.1
1070
    78
1070
     8
1070
   140
1040
3.2
1070
   176
1070
   256
1070
   177
1070
   256
1070
   271
1070
     0
1070
   272
1070
     3
1070
   275
1070
     0
1070
   284
1070
     0
1070
   289
1070
     3
1070
   340
1005
6B
1070
   371
1070
    -1
1070
   372
1070
    -1
1002
}
  0
DIMENSION
  5
A5B9
330
1F
100
AcDbEntity
  8
AM_5
100
AcDbDimension
  2
*D8
 10
10.76538083461192
 20
0.0000000000001675
 30
0.0
 11
10.76538083461192
 21
10.56857142857121
 31
0.0
 70
   160
  1
芯上り　0.05
 51
359.9999999999998
  3
AM_JIS$0
100
AcDbAlignedDimension
 13
-14.87220495117436
 23
0.0499999999997876
 33
0.0
 14
-0.0000000000002678
 24
0.0000000000001705
 34
0.0
 50
90.00000000000019
100
AcDbRotatedDimension
1001
GENIUS_GENDTOL_13
1000

1000
h7
1000

1040
0.0
1001
ACAD
1000
DSTYLE
1002
{
1070
   287
1070
     3
1070
    40
1040
0.5
1070
    42
1040
1.0
1070
    43
1040
12.0
1070
    48
1040
0.1
1070
    78
1070
     8
1070
   140
1040
3.2
1070
   176
1070
   256
1070
   177
1070
   256
1070
   271
1070
     0
1070
   272
1070
     3
1070
   275
1070
     0
1070
   284
1070
     0
1070
   289
1070
     3
1070
   340
1005
6B
1070
   371
1070
    -1
1070
   372
1070
    -1
1002
}
  0
DIMENSION
  5
A789
330
1F
100
AcDbEntity
  8
AM_5
100
AcDbDimension
  2
*D9
 10
18.43732220534093
 20
41.00642830450713
 30
0.0
 11
16.88732220534092
 21
50.44309497117381
 31
0.0
 70
    32
  1
オフセット　0
 51
359.9999999999998
  3
AM_JIS$0
100
AcDbAlignedDimension
 13
-0.1000000000004184
 23
41.00642830450714
 33
0.0
 14
-0.0000000000004183
 24
41.00642830450714
 34
0.0
 50
89.99999999999998
100
AcDbRotatedDimension
1001
GENIUS_GENDTOL_13
1000

1000
h7
1000

1040
0.0
1001
ACAD
1000
DSTYLE
1002
{
1070
   287
1070
     3
1070
    40
1040
0.5
1070
    42
1040
1.0
1070
    43
1040
12.0
1070
    48
1040
0.1
1070
    78
1070
     8
1070
   140
1040
3.2
1070
   176
1070
   256
1070
   177
1070
   256
1070
   271
1070
     0
1070
   272
1070
     3
1070
   275
1070
     0
1070
   284
1070
     0
1070
   289
1070
     3
1070
   340
1005
6B
1070
   371
1070
    -1
1070
   372
1070
    -1
1002
}
  0
DIMENSION
  5
A8DF
330
1F
100
AcDbEntity
  8
AM_5
100
AcDbDimension
  2
*D10
 10
-0.0000000000004442
 20
64.00642830450713
 30
0.0
 11
-3.500000000000446
 21
65.55642830450712
 31
0.0
 70
    32
  1
6.5
 51
359.9999999999998
  3
AM_JIS$0
100
AcDbAlignedDimension
 13
-7.000000000000467
 23
57.0064283045071
 33
0.0
 14
-0.0000000000004756
 24
46.90996366144036
 34
0.0
 50
180.0
100
AcDbRotatedDimension
1001
GENIUS_GENDTOL_13
1000

1000
h7
1000

1040
0.0
1001
ACAD
1000
DSTYLE
1002
{
1070
   287
1070
     3
1070
    40
1040
0.5
1070
    42
1040
1.0
1070
    43
1040
12.0
1070
    48
1040
0.1
1070
    78
1070
     8
1070
   140
1040
3.2
1070
   176
1070
   256
1070
   177
1070
   256
1070
   271
1070
     0
1070
   272
1070
     3
1070
   275
1070
     0
1070
   284
1070
     0
1070
   289
1070
     3
1070
   340
1005
6B
1070
   371
1070
    -1
1070
   372
1070
    -1
1002
}
  0
DIMENSION
  5
A997
330
1F
100
AcDbEntity
  8
AM_5
100
AcDbDimension
  2
*D11
 10
-24.50000000000041
 20
25.34626697686242
 30
0.0
 11
-12.2500000000004
 21
26.89626697686242
 31
0.0
 70
    32
  1
24
 51
359.9999999999998
  3
AM_JIS$0
100
AcDbAlignedDimension
 13
-0.0000000000003957
 23
41.10642830450714
 33
0.0
 14
-24.50000000000041
 24
41.95849508010577
 34
0.0
100
AcDbRotatedDimension
1001
GENIUS_GENDTOL_13
1000

1000
h7
1000

1040
0.0
1001
ACAD
1000
DSTYLE
1002
{
1070
   287
1070
     3
1070
    40
1040
0.5
1070
    42
1040
1.0
1070
    43
1040
12.0
1070
    48
1040
0.1
1070
    78
1070
     8
1070
   140
1040
3.2
1070
   176
1070
   256
1070
   177
1070
   256
1070
   271
1070
     0
1070
   272
1070
     3
1070
   275
1070
     0
1070
   284
1070
     0
1070
   289
1070
     3
1070
   340
1005
6B
1070
   371
1070
    -1
1070
   372
1070
    -1
1002
}
  0
DIMENSION
  5
AA4F
330
1F
100
AcDbEntity
  8
AM_5
100
AcDbDimension
  2
*D12
 10
-6.29968265857998
 20
-7.699999999999846
 30
0.0
 11
-8.174498474608153
 21
-21.13530242441661
 31
0.0
 70
    34
  1
<>
 51
359.9999999999998
  3
AM_JIS$2
100
AcDb2LineAngularDimension
 13
-0.0000000000002682
 23
0.0000000000001563
 33
0.0
 14
-0.0000000000002682
 24
0.0356437787314405
 34
0.0
 15
-0.1960035610729545
 25
-1.596320902492848
 35
0.0
 16
-11.45549696336136
 26
-21.24182010791247
 36
0.0
1001
GENIUS_GENDTOL_13
1000

1000
h7
1000

1040
0.0
1001
ACAD
1000
DSTYLE
1002
{
1070
   271
1070
     0
1002
}
  0
VIEWPORT
  5
110
330
101
100
AcDbEntity
 67
     1
  8
0
100
AcDbViewport
 10
420.5
 20
297.0
 30
0.0
 40
948.9782706766916
 41
628.452
 68
     1
 69
     1
1001
ACAD
1000
MVIEW
1002
{
1070
    16
1010
0.0
1020
0.0
1030
0.0
1010
0.0
1020
0.0
1030
1.0
1040
0.0
1040
628.452
1040
420.5
1040
297.0
1040
50.0
1040
0.0
1040
0.0
1070
     0
1070
   100
1070
     1
1070
     1
1070
     0
1070
     0
1070
     0
1070
     0
1040
0.0
1040
0.0
1040
0.0
1040
10.0
1040
10.0
1040
10.0
1040
10.0
1070
     0
1002
{
1002
}
1002
}
  0
ENDSEC
  0
SECTION
  2
OBJECTS
  0
DICTIONARY
  5
C
330
0
100
AcDbDictionary
  3
ACAD_GROUP
350
D
  3
ACAD_LAYOUT
350
1A
  3
ACAD_MLINESTYLE
350
17
  3
ACAD_PLOTSETTINGS
350
19
  3
ACAD_PLOTSTYLENAME
350
E
  3
ACDBVARIABLEDICTIONARY
350
34
  3
ACMDICTIONARY
350
43
  3
AMG
350
2B
  3
AMGSNAPSETTINGS
350
6E
  3
DWGPROPS
350
AD0A
  3
ACDBHEADERROUNDTRIPXREC
350
AD1A
  0
DICTIONARY
  5
74
330
1F
100
AcDbDictionary
280
     1
  3
ACAD_INDEX
360
AD0C
  3
ACAD_LAYOUTSELFREF
360
AD3D
  0
DICTIONARY
  5
AD42
330
101
100
AcDbDictionary
280
     1
  3
ACAD_LAYOUTSELFREF
360
AD43
  0
DICTIONARY
  5
D
102
{ACAD_REACTORS
330
C
102
}
330
C
100
AcDbDictionary
  0
DICTIONARY
  5
1A
102
{ACAD_REACTORS
330
C
102
}
330
C
100
AcDbDictionary
  0
DICTIONARY
  5
17
102
{ACAD_REACTORS
330
C
102
}
330
C
100
AcDbDictionary
  3
STANDARD
350
18
  0
DICTIONARY
  5
19
102
{ACAD_REACTORS
330
C
102
}
330
C
100
AcDbDictionary
  3
ASAMI
350
399D
  0
ACDBDICTIONARYWDFLT
  5
E
102
{ACAD_REACTORS
330
C
102
}
330
C
100
AcDbDictionary
281
     1
  3
Normal
350
F
100
AcDbDictionaryWithDefault
340
F
  0
DICTIONARY
  5
34
102
{ACAD_REACTORS
330
C
102
}
330
C
100
AcDbDictionary
  3
INDEXCTL
350
35
  3
SORTENTS
350
B5E
  0
DICTIONARY
  5
43
102
{ACAD_REACTORS
330
C
102
}
330
C
100
AcDbDictionary
  3
ACMSTDDICTIONARY
350
260
  0
DICTIONARY
  5
2B
102
{ACAD_REACTORS
330
C
102
}
330
C
100
AcDbDictionary
  3
ACMGSETTINGS
350
2C
  0
DICTIONARY
  5
6E
102
{ACAD_REACTORS
330
C
102
}
330
C
100
AcDbDictionary
  0
XRECORD
  5
AD0A
102
{ACAD_REACTORS
330
C
102
}
330
C
100
AcDbXrecord
  1
DWGPROPS COOKIE
  2

  3

  4

  6

  7

  8

  9

300
AmdtFileType=82
301
=
302
=
303
=
304
=
305
=
306
=
307
=
308
=
309
=
 40
0.8648067476851851
 41
2452802.716478761
 42
2452938.05873177
  1

 90
        1
  0
DICTIONARY
  5
AD1A
102
{ACAD_REACTORS
330
C
102
}
330
C
100
AcDbDictionary
  3
TSTACKALIGN
350
AD1B
  3
TSTACKSIZE
350
AD1C
  3
HYPERLINKBASE
350
AD1D
  3
STYLESHEET
350
AD1E
  3
LAYOUTDICT
350
AD1F
  3
PLOTSETDICT
350
AD20
  3
PLOTSTYLNAMDICT
350
AD21
  3
LWETCUNION
350
AD22
  3
INSUNITS
350
AD23
  3
CEPSNTYPE
350
AD24
  3
FINGERPRINTGUID
350
AD25
  3
VERSIONGUID
350
AD26
  3
PSVPSCALE
350
AD27
  3
DIMSTYLEDATA
350
AD28
  3
PUCSORTHOREF
350
AD29
  3
PUCSORTHOVIEW
350
AD2A
  3
PUCSBASE
350
AD2B
  3
PUCSORGTOP
350
AD2C
  3
PUCSORGBOTTOM
350
AD2D
  3
PUCSORGLEFT
350
AD2E
  3
PUCSORGRIGHT
350
AD2F
  3
PUCSORGFRONT
350
AD30
  3
PUCSORGBACK
350
AD31
  3
UCSORTHOREF
350
AD32
  3
UCSORTHOVIEW
350
AD33
  3
UCSBASE
350
AD34
  3
UCSORGTOP
350
AD35
  3
UCSORGBOTTOM
350
AD36
  3
UCSORGLEFT
350
AD37
  3
UCSORGRIGHT
350
AD38
  3
UCSORGFRONT
350
AD39
  3
UCSORGBACK
350
AD3A
  0
DICTIONARY
  5
AD0C
102
{ACAD_REACTORS
330
74
102
}
330
74
100
AcDbDictionary
  3
*A1
350
AD0D
  0
XRECORD
  5
AD3D
102
{ACAD_REACTORS
330
74
102
}
330
74
100
AcDbXrecord
340
1F
  0
XRECORD
  5
AD43
102
{ACAD_REACTORS
330
AD42
102
}
330
AD42
100
AcDbXrecord
340
101
  0
MLINESTYLE
  5
18
102
{ACAD_REACTORS
330
17
102
}
330
17
100
AcDbMlineStyle
  2
STANDARD
 70
     0
  3

 62
   256
 51
90.0
 52
90.0
 71
     2
 49
0.5
 62
   256
  6
BYLAYER
 49
-0.5
 62
   256
  6
BYLAYER
  0
PLOTSETTINGS
  5
399D
102
{ACAD_REACTORS
330
19
102
}
330
19
100
AcDbPlotSettings
  1
asami
  2
RICOH imagio MF1540
  4
A4
  6

 40
5.831416606903076
 41
7.651742935180664
 42
4.90008544921875
 43
5.789077758789062
 44
296.9683227539062
 45
209.9733276367187
 46
0.0
 47
0.0
 48
-156.6707931774246
 49
-74.57609991074048
140
58.59973180214831
141
60.61068161925596
142
1.0
143
1.095343097833084
 70
  1712
 72
     1
 73
     1
 74
     4
  7
asami.ctb
 75
     0
147
0.9129559514076438
148
156.6707931774246
149
74.57609991074048
  0
ACDBPLACEHOLDER
  5
F
102
{ACAD_REACTORS
330
E
102
}
330
E
100
AcDbPlaceHolder
280
     0
  0
DICTIONARYVAR
  5
35
102
{ACAD_REACTORS
330
34
102
}
330
34
100
DictionaryVariables
280
     0
  1
1
  0
DICTIONARYVAR
  5
B5E
102
{ACAD_REACTORS
330
34
102
}
330
34
100
DictionaryVariables
280
     0
  1
96
  0
DICTIONARY
  5
260
102
{ACAD_REACTORS
330
43
102
}
330
43
100
AcDbDictionary
  0
DICTIONARY
  5
2C
102
{ACAD_REACTORS
330
2B
102
}
330
2B
100
AcDbDictionary
  3
DWGSETTINGS
350
2D
  0
XRECORD
  5
AD1B
102
{ACAD_REACTORS
330
AD1A
102
}
330
AD1A
100
AcDbXrecord
 90
        1
  0
XRECORD
  5
AD1C
102
{ACAD_REACTORS
330
AD1A
102
}
330
AD1A
100
AcDbXrecord
 90
       70
  0
XRECORD
  5
AD1D
102
{ACAD_REACTORS
330
AD1A
102
}
330
AD1A
100
AcDbXrecord
  1

  0
XRECORD
  5
AD1E
102
{ACAD_REACTORS
330
AD1A
102
}
330
AD1A
100
AcDbXrecord
  1
asami.ctb
  0
XRECORD
  5
AD1F
102
{ACAD_REACTORS
330
AD1A
102
}
330
AD1A
100
AcDbXrecord
340
1A
  0
XRECORD
  5
AD20
102
{ACAD_REACTORS
330
AD1A
102
}
330
AD1A
100
AcDbXrecord
340
19
  0
XRECORD
  5
AD21
102
{ACAD_REACTORS
330
AD1A
102
}
330
AD1A
100
AcDbXrecord
340
E
  0
XRECORD
  5
AD22
102
{ACAD_REACTORS
330
AD1A
102
}
330
AD1A
100
AcDbXrecord
 90
    10781
  0
XRECORD
  5
AD23
102
{ACAD_REACTORS
330
AD1A
102
}
330
AD1A
100
AcDbXrecord
 90
        4
  0
XRECORD
  5
AD24
102
{ACAD_REACTORS
330
AD1A
102
}
330
AD1A
100
AcDbXrecord
 90
        0
  0
XRECORD
  5
AD25
102
{ACAD_REACTORS
330
AD1A
102
}
330
AD1A
100
AcDbXrecord
  1
{AFB28963-8C59-40AE-9337-C84526B81ACE}
  0
XRECORD
  5
AD26
102
{ACAD_REACTORS
330
AD1A
102
}
330
AD1A
100
AcDbXrecord
  1
{A5372CFF-9EC3-4D25-933B-604F13075F43}
  0
XRECORD
  5
AD27
102
{ACAD_REACTORS
330
AD1A
102
}
330
AD1A
100
AcDbXrecord
 40
0.0
  0
XRECORD
  5
AD28
102
{ACAD_REACTORS
330
AD1A
102
}
330
AD1A
100
AcDbXrecord
1000
DSTYLE
1002
{
1070
    79
 70
     2
1070
   341
340
59
1070
   342
340
59
1070
   371
 70
    -1
1070
   372
 70
    -1
1002
}
  0
XRECORD
  5
AD29
102
{ACAD_REACTORS
330
AD1A
102
}
330
AD1A
100
AcDbXrecord
340
0
  0
XRECORD
  5
AD2A
102
{ACAD_REACTORS
330
AD1A
102
}
330
AD1A
100
AcDbXrecord
 70
     0
  0
XRECORD
  5
AD2B
102
{ACAD_REACTORS
330
AD1A
102
}
330
AD1A
100
AcDbXrecord
340
0
  0
XRECORD
  5
AD2C
102
{ACAD_REACTORS
330
AD1A
102
}
330
AD1A
100
AcDbXrecord
 10
0.0
 20
0.0
 30
0.0
  0
XRECORD
  5
AD2D
102
{ACAD_REACTORS
330
AD1A
102
}
330
AD1A
100
AcDbXrecord
 10
0.0
 20
0.0
 30
0.0
  0
XRECORD
  5
AD2E
102
{ACAD_REACTORS
330
AD1A
102
}
330
AD1A
100
AcDbXrecord
 10
0.0
 20
0.0
 30
0.0
  0
XRECORD
  5
AD2F
102
{ACAD_REACTORS
330
AD1A
102
}
330
AD1A
100
AcDbXrecord
 10
0.0
 20
0.0
 30
0.0
  0
XRECORD
  5
AD30
102
{ACAD_REACTORS
330
AD1A
102
}
330
AD1A
100
AcDbXrecord
 10
0.0
 20
0.0
 30
0.0
  0
XRECORD
  5
AD31
102
{ACAD_REACTORS
330
AD1A
102
}
330
AD1A
100
AcDbXrecord
 10
0.0
 20
0.0
 30
0.0
  0
XRECORD
  5
AD32
102
{ACAD_REACTORS
330
AD1A
102
}
330
AD1A
100
AcDbXrecord
340
0
  0
XRECORD
  5
AD33
102
{ACAD_REACTORS
330
AD1A
102
}
330
AD1A
100
AcDbXrecord
 70
     0
  0
XRECORD
  5
AD34
102
{ACAD_REACTORS
330
AD1A
102
}
330
AD1A
100
AcDbXrecord
340
0
  0
XRECORD
  5
AD35
102
{ACAD_REACTORS
330
AD1A
102
}
330
AD1A
100
AcDbXrecord
 10
0.0
 20
0.0
 30
0.0
  0
XRECORD
  5
AD36
102
{ACAD_REACTORS
330
AD1A
102
}
330
AD1A
100
AcDbXrecord
 10
0.0
 20
0.0
 30
0.0
  0
XRECORD
  5
AD37
102
{ACAD_REACTORS
330
AD1A
102
}
330
AD1A
100
AcDbXrecord
 10
0.0
 20
0.0
 30
0.0
  0
XRECORD
  5
AD38
102
{ACAD_REACTORS
330
AD1A
102
}
330
AD1A
100
AcDbXrecord
 10
0.0
 20
0.0
 30
0.0
  0
XRECORD
  5
AD39
102
{ACAD_REACTORS
330
AD1A
102
}
330
AD1A
100
AcDbXrecord
 10
0.0
 20
0.0
 30
0.0
  0
XRECORD
  5
AD3A
102
{ACAD_REACTORS
330
AD1A
102
}
330
AD1A
100
AcDbXrecord
 10
0.0
 20
0.0
 30
0.0
  0
LAYER_INDEX
  5
AD0D
102
{ACAD_REACTORS
330
AD0C
102
}
330
AD0C
100
AcDbIndex
 40
2452941.603584884
100
AcDbLayerIndex
  8
0
360
AD0E
 90
        0
  8
AM_0
360
AD0F
 90
       75
  8
AM_5
360
AD10
 90
        8
  8
AM_7
360
AD11
 90
        1
  8
AM_6
360
AD12
 90
        1
  8
Defpoints
360
AD13
 90
        0
  8
AM_3
360
AD14
 90
        0
  8
AM_11
360
AD15
 90
        0
  8
PV0001_1
360
AD16
 90
        0
  8
AM_4
360
AD17
 90
        0
  8
6
360
AD18
 90
        0
  0
XRECORD
  5
2D
102
{ACAD_REACTORS
330
2C
102
}
330
2C
100
AcDbXrecord
  1
VERSION
140
15.0
  1
PRODUCT
  2
AutoCAD Mechanical 2000
  0
IDBUFFER
  5
AD0E
330
0
100
AcDbIdBuffer
  0
IDBUFFER
  5
AD0F
330
0
100
AcDbIdBuffer
330
A2A1
330
A2A2
330
A2A4
330
A2A5
330
A2A6
330
A2A7
330
A2A9
330
A2AA
330
A2AB
330
A2AC
330
A2AD
330
A2AE
330
A2AF
330
A2B0
330
A2B1
330
A2B2
330
A2B3
330
A2B5
330
A2B6
330
A2B7
330
A2B8
330
A2B9
330
A2BA
330
A2BB
330
A2BC
330
A2BE
330
A2C1
330
A262
330
A263
330
A265
330
A266
330
A267
330
A268
330
A269
330
A26B
330
A26D
330
A26E
330
A26F
330
A270
330
A271
330
A272
330
A273
330
A274
330
A275
330
A276
330
A277
330
A280
330
A283
330
A284
330
A285
330
A286
330
A287
330
A288
330
A289
330
A28A
330
A28B
330
A28C
330
A28D
330
A28E
330
A28F
330
A290
330
A291
330
A292
330
A293
330
A294
330
A295
330
A296
330
A297
330
A298
330
A299
330
A29A
330
A29B
330
A29D
330
A29F
330
A2A0
  0
IDBUFFER
  5
AD10
330
0
100
AcDbIdBuffer
330
A3F2
330
A482
330
A524
330
A5B9
330
A789
330
A8DF
330
A997
330
AA4F
  0
IDBUFFER
  5
AD11
330
0
100
AcDbIdBuffer
330
A2A3
  0
IDBUFFER
  5
AD12
330
0
100
AcDbIdBuffer
330
388D
  0
IDBUFFER
  5
AD13
330
0
100
AcDbIdBuffer
  0
IDBUFFER
  5
AD14
330
0
100
AcDbIdBuffer
  0
IDBUFFER
  5
AD15
330
0
100
AcDbIdBuffer
  0
IDBUFFER
  5
AD16
330
0
100
AcDbIdBuffer
  0
IDBUFFER
  5
AD17
330
0
100
AcDbIdBuffer
  0
IDBUFFER
  5
AD18
330
0
100
AcDbIdBuffer
  0
ENDSEC
  0
EOF
