  0
SECTION
  2
HEADER
  9
$ACADVER
  1
AC1015
  9
$ACADMAINTVER
 70
    20
  9
$DWGCODEPAGE
  3
ANSI_932
  9
$INSBASE
 10
0.0
 20
0.0
 30
0.0
  9
$EXTMIN
 10
-18.10165274853705
 20
-55.81301004981213
 30
-0.0015258207003583
  9
$EXTMAX
 10
153.3454377814793
 20
12.00240366816268
 30
0.0000000349246037
  9
$LIMMIN
 10
-171.9099510737252
 20
-59.76797482104404
  9
$LIMMAX
 10
30.46678753100991
 20
87.2499199677045
  9
$ORTHOMODE
 70
     0
  9
$REGENMODE
 70
     1
  9
$FILLMODE
 70
     1
  9
$QTEXTMODE
 70
     0
  9
$MIRRTEXT
 70
     0
  9
$LTSCALE
 40
1.0
  9
$ATTMODE
 70
     1
  9
$TEXTSIZE
 40
2.5
  9
$TRACEWID
 40
1.0
  9
$TEXTSTYLE
  7
STANDARD
  9
$CLAYER
  8
AM_0
  9
$CELTYPE
  6
BYLAYER
  9
$CECOLOR
 62
   256
  9
$CELTSCALE
 40
1.0
  9
$DISPSILH
 70
     0
  9
$DIMSCALE
 40
0.5
  9
$DIMASZ
 40
2.5
  9
$DIMEXO
 40
1.0
  9
$DIMDLI
 40
12.0
  9
$DIMRND
 40
0.0
  9
$DIMDLE
 40
0.0
  9
$DIMEXE
 40
1.0
  9
$DIMTP
 40
0.1
  9
$DIMTM
 40
0.1
  9
$DIMTXT
 40
3.2
  9
$DIMCEN
 40
0.0
  9
$DIMTSZ
 40
0.0
  9
$DIMTOL
 70
     0
  9
$DIMLIM
 70
     0
  9
$DIMTIH
 70
     0
  9
$DIMTOH
 70
     0
  9
$DIMSE1
 70
     0
  9
$DIMSE2
 70
     0
  9
$DIMTAD
 70
     3
  9
$DIMZIN
 70
     8
  9
$DIMBLK
  1
OPEN30
  9
$DIMASO
 70
     1
  9
$DIMSHO
 70
     1
  9
$DIMPOST
  1

  9
$DIMAPOST
  1
"
  9
$DIMALT
 70
     0
  9
$DIMALTD
 70
     2
  9
$DIMALTF
 40
0.0393701
  9
$DIMLFAC
 40
1.0
  9
$DIMTOFL
 70
     1
  9
$DIMTVP
 40
0.0
  9
$DIMTIX
 70
     0
  9
$DIMSOXD
 70
     0
  9
$DIMSAH
 70
     0
  9
$DIMBLK1
  1

  9
$DIMBLK2
  1

  9
$DIMSTYLE
  2
AM_JIS
  9
$DIMCLRD
 70
   256
  9
$DIMCLRE
 70
   256
  9
$DIMCLRT
 70
     2
  9
$DIMTFAC
 40
0.71
  9
$DIMGAP
 40
1.5
  9
$DIMJUST
 70
     0
  9
$DIMSD1
 70
     0
  9
$DIMSD2
 70
     0
  9
$DIMTOLJ
 70
     0
  9
$DIMTZIN
 70
     0
  9
$DIMALTZ
 70
     0
  9
$DIMALTTZ
 70
     0
  9
$DIMUPT
 70
     0
  9
$DIMDEC
 70
     3
  9
$DIMTDEC
 70
     3
  9
$DIMALTU
 70
     2
  9
$DIMALTTD
 70
     2
  9
$DIMTXSTY
  7
ASAMI
  9
$DIMAUNIT
 70
     0
  9
$DIMADEC
 70
     0
  9
$DIMALTRND
 40
0.0
  9
$DIMAZIN
 70
     2
  9
$DIMDSEP
 70
    46
  9
$DIMATFIT
 70
     3
  9
$DIMFRAC
 70
     0
  9
$DIMLDRBLK
  1
OPEN30
  9
$DIMLUNIT
 70
     2
  9
$DIMLWD
 70
    -1
  9
$DIMLWE
 70
    -1
  9
$DIMTMOVE
 70
     0
  9
$LUNITS
 70
     2
  9
$LUPREC
 70
     2
  9
$SKETCHINC
 40
1.0
  9
$FILLETRAD
 40
0.8
  9
$AUNITS
 70
     0
  9
$AUPREC
 70
     0
  9
$MENU
  1
.
  9
$ELEVATION
 40
0.0
  9
$PELEVATION
 40
0.0
  9
$THICKNESS
 40
0.0
  9
$LIMCHECK
 70
     1
  9
$CHAMFERA
 40
1.0
  9
$CHAMFERB
 40
1.0
  9
$CHAMFERC
 40
20.0
  9
$CHAMFERD
 40
0.0
  9
$SKPOLY
 70
     0
  9
$TDCREATE
 40
2452802.716478762
  9
$TDUCREATE
 40
2452802.341478762
  9
$TDUPDATE
 40
2455601.652552442
  9
$TDUUPDATE
 40
2455601.277552442
  9
$TDINDWG
 40
0.8325695949
  9
$TDUSRTIMER
 40
0.8325692361
  9
$USRTIMER
 70
     1
  9
$ANGBASE
 50
0.0
  9
$ANGDIR
 70
     0
  9
$PDMODE
 70
     0
  9
$PDSIZE
 40
0.0
  9
$PLINEWID
 40
0.0
  9
$SPLFRAME
 70
     0
  9
$SPLINETYPE
 70
     6
  9
$SPLINESEGS
 70
     8
  9
$HANDSEED
  5
98A5
  9
$SURFTAB1
 70
     6
  9
$SURFTAB2
 70
     6
  9
$SURFTYPE
 70
     6
  9
$SURFU
 70
     6
  9
$SURFV
 70
     6
  9
$UCSBASE
  2

  9
$UCSNAME
  2

  9
$UCSORG
 10
-0.0000000000002682
 20
0.000000000000161
 30
0.0
  9
$UCSXDIR
 10
1.0
 20
0.000000000000002
 30
0.0
  9
$UCSYDIR
 10
-0.000000000000002
 20
1.0
 30
0.0
  9
$UCSORTHOREF
  2

  9
$UCSORTHOVIEW
 70
     0
  9
$UCSORGTOP
 10
0.0
 20
0.0
 30
0.0
  9
$UCSORGBOTTOM
 10
0.0
 20
0.0
 30
0.0
  9
$UCSORGLEFT
 10
0.0
 20
0.0
 30
0.0
  9
$UCSORGRIGHT
 10
0.0
 20
0.0
 30
0.0
  9
$UCSORGFRONT
 10
0.0
 20
0.0
 30
0.0
  9
$UCSORGBACK
 10
0.0
 20
0.0
 30
0.0
  9
$PUCSBASE
  2

  9
$PUCSNAME
  2

  9
$PUCSORG
 10
0.0
 20
0.0
 30
0.0
  9
$PUCSXDIR
 10
1.0
 20
0.0
 30
0.0
  9
$PUCSYDIR
 10
0.0
 20
1.0
 30
0.0
  9
$PUCSORTHOREF
  2

  9
$PUCSORTHOVIEW
 70
     0
  9
$PUCSORGTOP
 10
0.0
 20
0.0
 30
0.0
  9
$PUCSORGBOTTOM
 10
0.0
 20
0.0
 30
0.0
  9
$PUCSORGLEFT
 10
0.0
 20
0.0
 30
0.0
  9
$PUCSORGRIGHT
 10
0.0
 20
0.0
 30
0.0
  9
$PUCSORGFRONT
 10
0.0
 20
0.0
 30
0.0
  9
$PUCSORGBACK
 10
0.0
 20
0.0
 30
0.0
  9
$USERI1
 70
     0
  9
$USERI2
 70
     0
  9
$USERI3
 70
     0
  9
$USERI4
 70
     0
  9
$USERI5
 70
     0
  9
$USERR1
 40
0.0
  9
$USERR2
 40
0.0
  9
$USERR3
 40
0.0
  9
$USERR4
 40
0.0
  9
$USERR5
 40
0.0
  9
$WORLDVIEW
 70
     1
  9
$SHADEDGE
 70
     3
  9
$SHADEDIF
 70
    70
  9
$TILEMODE
 70
     1
  9
$MAXACTVP
 70
    64
  9
$PINSBASE
 10
0.0
 20
0.0
 30
0.0
  9
$PLIMCHECK
 70
     0
  9
$PEXTMIN
 10
1.000000000000000E+20
 20
1.000000000000000E+20
 30
1.000000000000000E+20
  9
$PEXTMAX
 10
-1.000000000000000E+20
 20
-1.000000000000000E+20
 30
-1.000000000000000E+20
  9
$PLIMMIN
 10
0.0
 20
0.0
  9
$PLIMMAX
 10
841.0
 20
594.0
  9
$UNITMODE
 70
     0
  9
$VISRETAIN
 70
     1
  9
$PLINEGEN
 70
     0
  9
$PSLTSCALE
 70
     0
  9
$TREEDEPTH
 70
  3020
  9
$CMLSTYLE
  2
STANDARD
  9
$CMLJUST
 70
     0
  9
$CMLSCALE
 40
20.0
  9
$PROXYGRAPHICS
 70
     1
  9
$MEASUREMENT
 70
     1
  9
$CELWEIGHT
370
    -1
  9
$ENDCAPS
280
     0
  9
$JOINSTYLE
280
     0
  9
$LWDISPLAY
290
     0
  9
$INSUNITS
 70
     4
  9
$HYPERLINKBASE
  1

  9
$STYLESHEET
  1
asami.ctb
  9
$XEDIT
290
     1
  9
$CEPSNTYPE
380
     0
  9
$PSTYLEMODE
290
     1
  9
$FINGERPRINTGUID
  2
{AFB28963-8C59-40AE-9337-C84526B81ACE}
  9
$VERSIONGUID
  2
{B074B21A-662E-4CC1-A5EA-5395D6ABC34E}
  9
$EXTNAMES
290
     1
  9
$PSVPSCALE
 40
0.0
  9
$OLESTARTUP
290
     0
  0
ENDSEC
  0
SECTION
  2
CLASSES
  0
CLASS
  1
ACDBDICTIONARYWDFLT
  2
AcDbDictionaryWithDefault
  3
ObjectDBX Classes
 90
        0
280
     0
281
     0
  0
CLASS
  1
ACDBPLACEHOLDER
  2
AcDbPlaceHolder
  3
ObjectDBX Classes
 90
        0
280
     0
281
     0
  0
CLASS
  1
LAYOUT
  2
AcDbLayout
  3
ObjectDBX Classes
 90
        0
280
     0
281
     0
  0
CLASS
  1
AMGSETTINGSOBJ
  2
AmgSettingsObj
  3
"AcadM|Product Description: AutoCAD Mechanical 2000|Company: Autodesk"
 90
        0
280
     0
281
     0
  0
CLASS
  1
ACME_DOCUMENT
  2
AcMeDbDoc
  3
AcMeServices
 90
        0
280
     0
281
     0
  0
CLASS
  1
ACMESCOPE
  2
AcMeScope
  3
AcMeServices
 90
        0
280
     0
281
     0
  0
CLASS
  1
ACMECOMMANDHISTORY
  2
AcMeCommandHistory
  3
AcMeServices
 90
        0
280
     0
281
     0
  0
CLASS
  1
DICTIONARYVAR
  2
AcDbDictionaryVar
  3
ObjectDBX Classes
 90
        0
280
     0
281
     0
  0
CLASS
  1
ACIMSYSVARMAN
  2
AcImSysVarManager
  3
AcMeServices
 90
        0
280
     0
281
     0
  0
CLASS
  1
ACIMREALSYSVAR
  2
AcImRealSysVar
  3
AcMeServices
 90
        0
280
     0
281
     0
  0
CLASS
  1
ACIMINTSYSVAR
  2
AcImIntSysVar
  3
AcMeServices
 90
        0
280
     0
281
     0
  0
CLASS
  1
ACMEDRAWINGMAN
  2
AcMeDrawingMan
  3
AcMeServices
 90
        0
280
     0
281
     0
  0
CLASS
  1
ACMEVIEW
  2
AcMeView
  3
AcMeServices
 90
        0
280
     0
281
     0
  0
CLASS
  1
ACDBENTITYCACHE
  2
AcMeEntityCache
  3
AcMeServices
 90
        0
280
     0
281
     0
  0
CLASS
  1
GSMANAGER
  2
AcMeGSManager
  3
AcMeServices
 90
        0
280
     0
281
     0
  0
CLASS
  1
AMDTINTERNALREACTOR
  2
AmdtInternalReactor
  3
AcMeServices
 90
        0
280
     0
281
     0
  0
CLASS
  1
ACMESTATEMGR
  2
AcMeStateMgr
  3
AcMeServices
 90
        0
280
     0
281
     0
  0
CLASS
  1
ACME_DATABASE
  2
AcMeDbDatabase
  3
AcMeServices
 90
        0
280
     0
281
     0
  0
CLASS
  1
ACRFINSADJUSTERMGR
  2
AcRfInsAdjusterMgr
  3
AcMeServices
 90
        0
280
     0
281
     0
  0
CLASS
  1
ACMDATADICTIONARY
  2
AcmDataDictionary
  3
"AcmSymBB|Product Description: AutoCAD Mechanical 2004 DX|Company: Autodesk"
 90
        0
280
     0
281
     0
  0
CLASS
  1
ACMDATAENTRYBLOCK
  2
AcmDataEntryBlock
  3
"AcmSymBB|Product Description: AutoCAD Mechanical 2004 DX|Company: Autodesk"
 90
    32768
280
     0
281
     0
  0
CLASS
  1
AMGOBJPROPCFG
  2
AmgObjPropCfg
  3
"AmgLay|Product Description: AutoCAD Mechanical 2000|Company: Autodesk"
 90
        1
280
     0
281
     0
  0
CLASS
  1
ACAMGFILTERDAT
  2
AcAmgFilterDat
  3
"AcadM|Product Description: AutoCAD Mechanical 2000|Company: Autodesk"
 90
    32768
280
     0
281
     0
  0
CLASS
  1
LAYER_INDEX
  2
AcDbLayerIndex
  3
ObjectDBX Classes
 90
        0
280
     0
281
     0
  0
CLASS
  1
IDBUFFER
  2
AcDbIdBuffer
  3
ObjectDBX Classes
 90
        0
280
     0
281
     0
  0
CLASS
  1
ACIMSTRSYSVAR
  2
AcImStrSysVar
  3
AcMeServices
 90
        0
280
     0
281
     0
  0
CLASS
  1
ACMSTANDARDJIS
  2
AcmStandardJIS
  3
"Amdt_StdImp|Product Description: AutoCAD Mechanical 2004 DX|Company: Autodesk"
 90
    32768
280
     0
281
     0
  0
CLASS
  1
ACMSURFSTANDARDJIS
  2
AcmSurfTextStdJIS
  3
"Amdt_StdImp|Product Description: AutoCAD Mechanical 2004 DX|Company: Autodesk"
 90
    32768
280
     0
281
     0
  0
CLASS
  1
ACMFCFSTANDARDJIS
  2
AcmFCFStdJIS
  3
"Amdt_StdImp|Product Description: AutoCAD Mechanical 2004 DX|Company: Autodesk"
 90
    32768
280
     0
281
     0
  0
CLASS
  1
ACMWELDSTANDARDJIS
  2
AcmWeldingStdJIS
  3
"Amdt_StdImp|Product Description: AutoCAD Mechanical 2004 DX|Company: Autodesk"
 90
    32768
280
     0
281
     0
  0
CLASS
  1
ACMIDSTANDARDJIS
  2
AcmIdStdJIS
  3
"Amdt_StdImp|Product Description: AutoCAD Mechanical 2004 DX|Company: Autodesk"
 90
    32768
280
     0
281
     0
  0
CLASS
  1
ACMDATUMSTANDARDJIS
  2
AcmDatumStdJIS
  3
"Amdt_StdImp|Product Description: AutoCAD Mechanical 2004 DX|Company: Autodesk"
 90
    32768
280
     0
281
     0
  0
CLASS
  1
ACMBOMSTANDARDJIS
  2
AcmBOMStdJIS
  3
"Amdt_StdImp|Product Description: AutoCAD Mechanical 2004 DX|Company: Autodesk"
 90
    32768
280
     0
281
     0
  0
CLASS
  1
ACMSTANDARDANSI
  2
AcmStandardANSI
  3
"Amdt_StdImp|Product Description: AutoCAD Mechanical 2004 DX|Company: Autodesk"
 90
    32768
280
     0
281
     0
  0
CLASS
  1
ACMSURFSTANDARDANSI
  2
AcmSurfTextStdANSI
  3
"Amdt_StdImp|Product Description: AutoCAD Mechanical 2004 DX|Company: Autodesk"
 90
    32768
280
     0
281
     0
  0
CLASS
  1
ACMFCFSTANDARDANSI
  2
AcmFCFStdANSI
  3
"Amdt_StdImp|Product Description: AutoCAD Mechanical 2004 DX|Company: Autodesk"
 90
    32768
280
     0
281
     0
  0
CLASS
  1
ACMWELDSTANDARDANSI
  2
AcmWeldingStdANSI
  3
"Amdt_StdImp|Product Description: AutoCAD Mechanical 2004 DX|Company: Autodesk"
 90
    32768
280
     0
281
     0
  0
CLASS
  1
ACMIDSTANDARDANSI
  2
AcmIdStdANSI
  3
"Amdt_StdImp|Product Description: AutoCAD Mechanical 2004 DX|Company: Autodesk"
 90
    32768
280
     0
281
     0
  0
CLASS
  1
ACMDATUMSTANDARDANSI
  2
AcmDatumStdANSI
  3
"Amdt_StdImp|Product Description: AutoCAD Mechanical 2004 DX|Company: Autodesk"
 90
    32768
280
     0
281
     0
  0
CLASS
  1
ACMBOMSTANDARDANSI
  2
AcmBOMStdANSI
  3
"Amdt_StdImp|Product Description: AutoCAD Mechanical 2004 DX|Company: Autodesk"
 90
    32768
280
     0
281
     0
  0
CLASS
  1
ACMSTANDARDBSI
  2
AcmStandardBSI
  3
"Amdt_StdImp|Product Description: AutoCAD Mechanical 2004 DX|Company: Autodesk"
 90
    32768
280
     0
281
     0
  0
CLASS
  1
ACMSURFSTANDARDBSI
  2
AcmSurfTextStdBSI
  3
"Amdt_StdImp|Product Description: AutoCAD Mechanical 2004 DX|Company: Autodesk"
 90
    32768
280
     0
281
     0
  0
CLASS
  1
ACMFCFSTANDARDBSI
  2
AcmFCFStdBSI
  3
"Amdt_StdImp|Product Description: AutoCAD Mechanical 2004 DX|Company: Autodesk"
 90
    32768
280
     0
281
     0
  0
CLASS
  1
ACMWELDSTANDARDBSI
  2
AcmWeldingStdBSI
  3
"Amdt_StdImp|Product Description: AutoCAD Mechanical 2004 DX|Company: Autodesk"
 90
    32768
280
     0
281
     0
  0
CLASS
  1
ACMIDSTANDARDBSI
  2
AcmIdStdBSI
  3
"Amdt_StdImp|Product Description: AutoCAD Mechanical 2004 DX|Company: Autodesk"
 90
    32768
280
     0
281
     0
  0
CLASS
  1
ACMDATUMSTANDARDBSI
  2
AcmDatumStdBSI
  3
"Amdt_StdImp|Product Description: AutoCAD Mechanical 2004 DX|Company: Autodesk"
 90
    32768
280
     0
281
     0
  0
CLASS
  1
ACMBOMSTANDARDBSI
  2
AcmBOMStdBSI
  3
"Amdt_StdImp|Product Description: AutoCAD Mechanical 2004 DX|Company: Autodesk"
 90
    32768
280
     0
281
     0
  0
CLASS
  1
STDPART2D
  2
AmgStdPart
  3
"AmgStdPart|Product Description: AutoCAD Mechanical 2000|Company: Autodesk"
 90
    33791
280
     0
281
     1
  0
CLASS
  1
PLOTSETTINGS
  2
AcDbPlotSettings
  3
ObjectDBX Classes
 90
        0
280
     0
281
     0
  0
CLASS
  1
TABLESTYLE
  2
AcDbTableStyle
  3
ObjectDBX Classes
 90
     2047
280
     0
281
     0
  0
CLASS
  1
ACGREFMASTER
  2
AcGrefMaster
  3
AcAttribServices
 90
        0
280
     0
281
     0
  0
CLASS
  1
AM_DRAWING_MGR
  2
AcDmDwgMgr
  3
AcMechDwgViewMgmt
 90
        0
280
     0
281
     0
  0
CLASS
  1
AM_DWG_DOCUMENT
  2
AcDmDwgDocument
  3
AcMechDwgViewMgmt
 90
        0
280
     0
281
     0
  0
CLASS
  1
AM_DWG_SHEET
  2
AcDmSheet
  3
AcMechDwgViewMgmt
 90
        0
280
     0
281
     0
  0
CLASS
  1
AM_VIEWDIMPARMAP
  2
AcDmViewDimParMap
  3
AcMechDwgViewMgmt
 90
        0
280
     0
281
     0
  0
CLASS
  1
AM_DWGMGR_NAME
  2
AcDmDwgMgrName
  3
AcMechDwgViewMgmt
 90
        0
280
     0
281
     0
  0
CLASS
  1
ACGREFACADMASTER
  2
AcGrefacadMaster
  3
AcGrefServices
 90
        0
280
     0
281
     0
  0
CLASS
  1
AMDTMENUSTATEMGR
  2
AmdtMenuStateMgr
  3
McadcomServices
 90
        0
280
     0
281
     0
  0
CLASS
  1
AMDTMCOMMENUSTATE
  2
AmdtMcomMenuState
  3
McadcomServices
 90
        0
280
     0
281
     0
  0
CLASS
  1
AMIMASTER
  2
AmiMaster
  3
AmiServices
 90
        0
280
     0
281
     0
  0
CLASS
  1
MAPIAMMOUDLE
  2
MApiAmModule
  3
MApiAmServices
 90
        0
280
     0
281
     0
  0
CLASS
  1
AMDTADMENUSTATE
  2
AmdtAdMenuState
  3
DesignerServices
 90
        0
280
     0
281
     0
  0
CLASS
  1
ADAPPL
  2
AcAdAppl
  3
DesignerServices
 90
        0
280
     0
281
     0
  0
CLASS
  1
DEPMGR
  2
AcAdDepMgr
  3
DesignerServices
 90
        0
280
     0
281
     0
  0
CLASS
  1
PARAMMGR
  2
AcAdParamMgr
  3
DesignerServices
 90
        0
280
     0
281
     0
  0
CLASS
  1
PARAMSCOPE
  2
AcAdParamScope
  3
DesignerServices
 90
        0
280
     0
281
     0
  0
CLASS
  1
NAMEDAPPL
  2
AcAdNamedAppl
  3
DesignerServices
 90
        0
280
     0
281
     0
  0
CLASS
  1
AMDTDMMENUSTATE
  2
AmdtDmMenuState
  3
AcMechDwgViewMgmt
 90
        0
280
     0
281
     0
  0
CLASS
  1
AMDTAMMENUSTATE
  2
AmdtAmMenuState
  3
DesignerAssemblies
 90
        0
280
     0
281
     0
  0
CLASS
  1
ACAMPROJECT
  2
AcAmProject
  3
DesignerAssemblies
 90
        0
280
     0
281
     0
  0
CLASS
  1
ACAMGRCOMPDEF
  2
AcAmGrCompDef
  3
DesignerAssemblies
 90
        0
280
     0
281
     0
  0
CLASS
  1
ACCMCONTEXT
  2
AcCmContext
  3
DesignerAssemblies
 90
        0
280
     0
281
     0
  0
CLASS
  1
ACAMCOMPDEF
  2
AcAmCompDef
  3
DesignerAssemblies
 90
        0
280
     0
281
     0
  0
CLASS
  1
ACAMCOMPDEFMGR
  2
AcAmCompDefMgr
  3
DesignerAssemblies
 90
        0
280
     0
281
     0
  0
CLASS
  1
AMCONTEXTMGR
  2
AcAmContextMgr
  3
DesignerAssemblies
 90
        0
280
     0
281
     0
  0
CLASS
  1
ACAMCONTEXTMODELER
  2
AcAmContextModeler
  3
DesignerAssemblies
 90
        0
280
     0
281
     0
  0
CLASS
  1
CATALOGSTATE
  2
AcAmCatalogState
  3
DesignerAssemblies
 90
        0
280
     0
281
     0
  0
CLASS
  1
ACAMGRCOMPDEFSET
  2
AcAmGrCompDefSet
  3
DesignerAssemblies
 90
        0
280
     0
281
     0
  0
CLASS
  1
AMDTBROWSERDBTAB
  2
AmdtBrowserDbTab
  3
McadcomServices
 90
        0
280
     0
281
     0
  0
CLASS
  1
CBROWSERAPPOBJECT
  2
CBrowserAppObject
  3
McadcomServices
 90
        0
280
     0
281
     0
  0
CLASS
  1
DM_PLACEHOLDER
  2
AcDmSelsetPlaceholder
  3
AcMechDwgViewMgmt
 90
        0
280
     0
281
     0
  0
ENDSEC
  0
SECTION
  2
TABLES
  0
TABLE
  2
VPORT
  5
8
330
0
100
AcDbSymbolTable
 70
     6
  0
VPORT
  5
989A
330
8
100
AcDbSymbolTableRecord
100
AcDbViewportTableRecord
  2
*Active
 70
     0
 10
0.0
 20
0.0
 11
1.0
 21
1.0
 12
67.62189251647112
 22
-21.90530319082473
 13
0.0
 23
0.0
 14
2.5
 24
2.5
 15
10.0
 25
10.0
 16
0.0
 26
0.0
 36
1.0
 17
0.0
 27
0.0
 37
0.0
 40
79.41086593331191
 41
2.166073546856464
 42
50.0
 43
0.0
 44
0.0
 50
0.0
 51
0.0
 71
     0
 72
   100
 73
     1
 74
     3
 75
     0
 76
     0
 77
     0
 78
     0
281
     0
 65
     0
110
-0.0000000000002682
120
0.000000000000161
130
0.0
111
1.0
121
0.000000000000002
131
0.0
112
-0.000000000000002
122
1.0
132
0.0
 79
     0
146
0.0
  0
ENDTAB
  0
TABLE
  2
LTYPE
  5
5
330
0
100
AcDbSymbolTable
 70
    15
  0
LTYPE
  5
14
330
5
100
AcDbSymbolTableRecord
100
AcDbLinetypeTableRecord
  2
BYBLOCK
 70
     0
  3

 72
    65
 73
     0
 40
0.0
  0
LTYPE
  5
15
330
5
100
AcDbSymbolTableRecord
100
AcDbLinetypeTableRecord
  2
BYLAYER
 70
     0
  3

 72
    65
 73
     0
 40
0.0
  0
LTYPE
  5
16
330
5
100
AcDbSymbolTableRecord
100
AcDbLinetypeTableRecord
  2
CONTINUOUS
 70
     0
  3
Solid line
 72
    65
 73
     0
 40
0.0
  0
LTYPE
  5
4B
330
5
100
AcDbSymbolTableRecord
100
AcDbLinetypeTableRecord
  2
AM_ISO02W050
 70
     0
  3
__ __ __ __ __ __ __ __ __ __ __ __ __ __ __
 72
    65
 73
     2
 40
7.5
 49
6.0
 74
     0
 49
-1.5
 74
     0
  0
LTYPE
  5
4C
330
5
100
AcDbSymbolTableRecord
100
AcDbLinetypeTableRecord
  2
AM_ISO08W050
 70
     0
  3
____ . ____ . ____ . ____ . ____ . ____ . ____
 72
    65
 73
     4
 40
18.0
 49
12.0
 74
     0
 49
-1.5
 74
     0
 49
3.0
 74
     0
 49
-1.5
 74
     0
  0
LTYPE
  5
4D
330
5
100
AcDbSymbolTableRecord
100
AcDbLinetypeTableRecord
  2
AM_ISO09W050
 70
     0
  3
_____ . . _____ . . _____ . . ____ .. ____
 72
    65
 73
     6
 40
22.5
 49
12.0
 74
     0
 49
-1.5
 74
     0
 49
3.0
 74
     0
 49
-1.5
 74
     0
 49
3.0
 74
     0
 49
-1.5
 74
     0
  0
LTYPE
  5
4E
330
5
100
AcDbSymbolTableRecord
100
AcDbLinetypeTableRecord
  2
AMCONSTR
 70
     0
  3
_______________________
 72
    65
 73
     2
 40
9999.0
 49
9999.0
 74
     0
 49
0.0
 74
     0
  0
LTYPE
  5
4F
330
5
100
AcDbSymbolTableRecord
100
AcDbLinetypeTableRecord
  2
AM_ISO02W050X2
 70
     0
  3
 _ _ _ _ _ _ _ _ _ _ _ _
 72
    65
 73
     2
 40
3.75
 49
3.0
 74
     0
 49
-0.75
 74
     0
  0
LTYPE
  5
50
330
5
100
AcDbSymbolTableRecord
100
AcDbLinetypeTableRecord
  2
AM_ISO08W050X2
 70
     0
  3
__ . __ . __ . __ . __ . __
 72
    65
 73
     4
 40
9.0
 49
6.0
 74
     0
 49
-0.75
 74
     0
 49
1.5
 74
     0
 49
-0.75
 74
     0
  0
LTYPE
  5
53
330
5
100
AcDbSymbolTableRecord
100
AcDbLinetypeTableRecord
  2
AMZIGZAG
 70
     0
  3
/\/-/\/-/\/-/\/-/\/-/\/
 72
    65
 73
     2
 40
11.00009999999999
 49
0.0001
 74
     4
 75
   135
340
52
 46
0.04
 50
0.0
 44
0.0
 45
0.0
 49
-11.0
 74
     0
  0
LTYPE
  5
166
330
5
100
AcDbSymbolTableRecord
100
AcDbLinetypeTableRecord
  2
ACJISTGL
 70
     0
  3
_ _ _ _ _
 72
    65
 73
     2
 40
3.0
 49
2.0
 74
     0
 49
-1.0
 74
     0
  0
LTYPE
  5
9785
330
5
100
AcDbSymbolTableRecord
100
AcDbLinetypeTableRecord
  2
HIDDEN
 70
     0
  3
Hidden __ __ __ __ __ __ __ __ __ __ __ __ __ _
 72
    65
 73
     2
 40
9.524999999999998
 49
6.349999999999999
 74
     0
 49
-3.174999999999999
 74
     0
  0
LTYPE
  5
9786
330
5
100
AcDbSymbolTableRecord
100
AcDbLinetypeTableRecord
  2
PHANTOM2
 70
     0
  3
Phantom (.5x) ___ _ _ ___ _ _ ___ _ _ ___ _ _
 72
    65
 73
     6
 40
31.75
 49
15.875
 74
     0
 49
-3.174999999999999
 74
     0
 49
3.174999999999999
 74
     0
 49
-3.174999999999999
 74
     0
 49
3.174999999999999
 74
     0
 49
-3.174999999999999
 74
     0
  0
LTYPE
  5
9787
330
5
100
AcDbSymbolTableRecord
100
AcDbLinetypeTableRecord
  2
CENTER
 70
     0
  3
Center ____ _ ____ _ ____ _ ____ _ ____ _ ____
 72
    65
 73
     4
 40
50.8
 49
31.75
 74
     0
 49
-6.349999999999999
 74
     0
 49
6.349999999999999
 74
     0
 49
-6.349999999999999
 74
     0
  0
ENDTAB
  0
TABLE
  2
LAYER
  5
2
330
0
100
AcDbSymbolTable
 70
    10
  0
LAYER
  5
10
330
2
100
AcDbSymbolTableRecord
100
AcDbLayerTableRecord
  2
0
 70
     0
 62
     7
  6
CONTINUOUS
370
    -3
390
F
  0
LAYER
  5
3F9
330
2
100
AcDbSymbolTableRecord
100
AcDbLayerTableRecord
  2
AM_0
 70
     0
 62
     7
  6
CONTINUOUS
370
    -3
390
F
  0
LAYER
  5
BA4
330
2
100
AcDbSymbolTableRecord
100
AcDbLayerTableRecord
  2
AM_5
 70
     0
 62
     3
  6
CONTINUOUS
370
    -3
390
F
  0
LAYER
  5
E64
330
2
100
AcDbSymbolTableRecord
100
AcDbLayerTableRecord
  2
AM_6
 70
     0
 62
     2
  6
CONTINUOUS
370
    -3
390
F
  0
LAYER
  5
F4D
330
2
100
AcDbSymbolTableRecord
100
AcDbLayerTableRecord
  2
DEFPOINTS
 70
     0
 62
     7
  6
CONTINUOUS
290
     0
370
    -3
390
F
  0
LAYER
  5
2382
330
2
100
AcDbSymbolTableRecord
100
AcDbLayerTableRecord
  2
AM_3
 70
     0
 62
     6
  6
ACJISTGL
370
    -3
390
F
  0
ENDTAB
  0
TABLE
  2
STYLE
  5
3
330
0
100
AcDbSymbolTable
 70
     5
  0
STYLE
  5
11
330
3
100
AcDbSymbolTableRecord
100
AcDbTextStyleTableRecord
  2
STANDARD
 70
     0
 40
0.0
 41
1.0
 50
0.0
 71
     0
 42
2.5
  3
simplex.shx
  4
EXTFONT.SHX
  0
STYLE
  5
52
330
3
100
AcDbSymbolTableRecord
100
AcDbTextStyleTableRecord
  2

 70
     1
 40
0.0
 41
1.0
 50
0.0
 71
     0
 42
2.5
  3
ltypeshp.shx
  4

  0
STYLE
  5
6B
330
3
100
AcDbSymbolTableRecord
100
AcDbTextStyleTableRecord
  2
ASAMI
 70
     0
 40
0.0
 41
1.0
 50
0.0
 71
     0
 42
2.5
  3
simplex.shx
  4
EXTFONT.SHX
  0
ENDTAB
  0
TABLE
  2
VIEW
  5
6
330
0
100
AcDbSymbolTable
 70
     0
  0
ENDTAB
  0
TABLE
  2
UCS
  5
7
330
0
100
AcDbSymbolTable
 70
     0
  0
ENDTAB
  0
TABLE
  2
APPID
  5
9
330
0
100
AcDbSymbolTable
 70
    31
  0
APPID
  5
12
330
9
100
AcDbSymbolTableRecord
100
AcDbRegAppTableRecord
  2
ACAD
 70
     0
  0
APPID
  5
30
330
9
100
AcDbSymbolTableRecord
100
AcDbRegAppTableRecord
  2
MCAD_NO_VIS
 70
     0
  0
APPID
  5
31
330
9
100
AcDbSymbolTableRecord
100
AcDbRegAppTableRecord
  2
ACAD_TEMP_GRAPHIC
 70
     0
  0
APPID
  5
2C2
330
9
100
AcDbSymbolTableRecord
100
AcDbRegAppTableRecord
  2
GENIUS_GENDTOL_13
 70
     0
  0
APPID
  5
339
330
9
100
AcDbSymbolTableRecord
100
AcDbRegAppTableRecord
  2
GENIUS_GENODEF_13
 70
     0
  0
APPID
  5
33A
330
9
100
AcDbSymbolTableRecord
100
AcDbRegAppTableRecord
  2
GENIUS_GENOBJ-N-RSBK_13
 70
     0
  0
APPID
  5
33B
330
9
100
AcDbSymbolTableRecord
100
AcDbRegAppTableRecord
  2
GENIUS_GENOBJ-N-LIB_13
 70
     0
  0
APPID
  5
33C
330
9
100
AcDbSymbolTableRecord
100
AcDbRegAppTableRecord
  2
GENIUS_GENSCALE_13
 70
     0
  0
APPID
  5
378
330
9
100
AcDbSymbolTableRecord
100
AcDbRegAppTableRecord
  2
GENIUS_GENDIMSH_14
 70
     0
  0
APPID
  5
BB0
330
9
100
AcDbSymbolTableRecord
100
AcDbRegAppTableRecord
  2
GENIUS_GENOBJ-N-CEN_13
 70
     0
  0
APPID
  5
BB1
330
9
100
AcDbSymbolTableRecord
100
AcDbRegAppTableRecord
  2
GENIUS_GENFIL_13
 70
     0
  0
APPID
  5
BB2
330
9
100
AcDbSymbolTableRecord
100
AcDbRegAppTableRecord
  2
GENIUS_GENOBJ-N-CHA_13
 70
     0
  0
APPID
  5
1FAF
330
9
100
AcDbSymbolTableRecord
100
AcDbRegAppTableRecord
  2
GENIUS_GENOBJ-N-CRS_13
 70
     0
  0
APPID
  5
1FB0
330
9
100
AcDbSymbolTableRecord
100
AcDbRegAppTableRecord
  2
GENIUS_GENOENT_13
 70
     0
  0
APPID
  5
1FB1
330
9
100
AcDbSymbolTableRecord
100
AcDbRegAppTableRecord
  2
GENIUS_GENOREF_13
 70
     0
  0
APPID
  5
1FB2
330
9
100
AcDbSymbolTableRecord
100
AcDbRegAppTableRecord
  2
GENIUS_GENOLIS_13
 70
     0
  0
APPID
  5
1FB7
330
9
100
AcDbSymbolTableRecord
100
AcDbRegAppTableRecord
  2
GENIUS_GENOBJ-N-FIL_13
 70
     0
  0
APPID
  5
22A8
330
9
100
AcDbSymbolTableRecord
100
AcDbRegAppTableRecord
  2
GEVID1056506048
 70
     0
  0
APPID
  5
22A9
330
9
100
AcDbSymbolTableRecord
100
AcDbRegAppTableRecord
  2
GEVDC
 70
     0
  0
APPID
  5
22AC
330
9
100
AcDbSymbolTableRecord
100
AcDbRegAppTableRecord
  2
GENIUS_GENBH_13
 70
     0
  0
APPID
  5
22B8
330
9
100
AcDbSymbolTableRecord
100
AcDbRegAppTableRecord
  2
GENIUS_GENOBJ-NBEHI-BHF_13
 70
     0
  0
APPID
  5
22BA
330
9
100
AcDbSymbolTableRecord
100
AcDbRegAppTableRecord
  2
GENIUS_GENOBJ-NBEHI-BHB_13
 70
     0
  0
APPID
  5
35C9
330
9
100
AcDbSymbolTableRecord
100
AcDbRegAppTableRecord
  2
GENIUS_GENREC_14
 70
     0
  0
APPID
  5
35CA
330
9
100
AcDbSymbolTableRecord
100
AcDbRegAppTableRecord
  2
GENIUS_GENOBJ-N-REC_13
 70
     0
  0
APPID
  5
9789
330
9
100
AcDbSymbolTableRecord
100
AcDbRegAppTableRecord
  2
AD_DRAW
 70
     0
  0
APPID
  5
978C
330
9
100
AcDbSymbolTableRecord
100
AcDbRegAppTableRecord
  2
ACATTRIBSERVICES
 70
     0
  0
APPID
  5
97AA
330
9
100
AcDbSymbolTableRecord
100
AcDbRegAppTableRecord
  2
DESIGNERASSEMBLIES
 70
     0
  0
APPID
  5
97AF
330
9
100
AcDbSymbolTableRecord
100
AcDbRegAppTableRecord
  2
ACADM_DIM_EDIT
 70
     0
  0
APPID
  5
97B0
330
9
100
AcDbSymbolTableRecord
100
AcDbRegAppTableRecord
  2
AMDT_DM_ADJ
 70
     0
  0
APPID
  5
97B5
330
9
100
AcDbSymbolTableRecord
100
AcDbRegAppTableRecord
  2
GENIUS_GENSCREG_15
 70
     0
  0
APPID
  5
97B6
330
9
100
AcDbSymbolTableRecord
100
AcDbRegAppTableRecord
  2
GENIUS_GENOBJ-N-SDF_13
 70
     0
  0
ENDTAB
  0
TABLE
  2
DIMSTYLE
  5
A
330
0
100
AcDbSymbolTable
 70
    17
100
AcDbDimStyleTable
 71
     0
  0
DIMSTYLE
105
58
330
A
100
AcDbSymbolTableRecord
100
AcDbDimStyleTableRecord
  2
AM_JIS
 70
     0
  4
"
 40
0.5
 41
2.5
 42
1.0
 43
12.0
 44
1.0
 47
0.1
 48
0.1
 73
     0
 74
     0
 77
     3
 78
     8
140
3.2
141
0.0
143
0.0393701
146
0.71
147
1.5
172
     1
176
   256
177
   256
178
     2
271
     3
272
     3
283
     0
340
6B
341
59
342
59
  0
DIMSTYLE
105
B34
102
{ACAD_REACTORS
330
91DA
330
9467
102
}
330
A
100
AcDbSymbolTableRecord
100
AcDbDimStyleTableRecord
  2
AM_JIS$2
 70
     0
  4
"
 40
0.5
 41
2.5
 42
1.0
 43
12.0
 44
1.0
 47
0.1
 48
0.1
 73
     0
 74
     0
 77
     3
 78
     8
140
3.2
141
0.0
143
0.0393701
146
0.71
147
1.5
172
     1
176
   256
177
   256
178
     2
271
     3
272
     3
283
     0
340
6B
341
59
342
59
  0
DIMSTYLE
105
3B48
102
{ACAD_REACTORS
330
9098
330
9008
330
9143
330
937D
330
92E3
330
9546
102
}
330
A
100
AcDbSymbolTableRecord
100
AcDbDimStyleTableRecord
  2
AM_JIS$0
 70
     0
  4
"
 41
2.5
 42
0.0
 43
10.0
 44
1.0
 47
0.1
 48
0.1000000001
 73
     0
 74
     0
 77
     3
 78
     1
140
3.799999999999998
141
0.0
143
0.0393701
146
0.71
147
1.5
172
     1
176
     3
177
     3
178
     2
271
     2
272
     2
275
     1
283
     0
284
     8
340
11
341
59
342
59
  0
ENDTAB
  0
TABLE
  2
BLOCK_RECORD
  5
1
330
0
100
AcDbSymbolTable
 70
    13
  0
BLOCK_RECORD
  5
1F
102
{ACAD_XDICTIONARY
360
74
102
}
330
1
100
AcDbSymbolTableRecord
100
AcDbBlockTableRecord
  2
*MODEL_SPACE
340
9750
  0
BLOCK_RECORD
  5
101
102
{ACAD_XDICTIONARY
360
96F2
102
}
330
1
100
AcDbSymbolTableRecord
100
AcDbBlockTableRecord
  2
*PAPER_SPACE
340
9751
  0
BLOCK_RECORD
  5
59
330
1
100
AcDbSymbolTableRecord
100
AcDbBlockTableRecord
  2
_OPEN30
340
0
102
{BLKREFS
331
980D
331
980E
331
9816
331
9817
331
981F
331
9820
331
9849
331
984A
331
9856
331
9857
331
986E
331
986F
331
9879
331
987A
331
988F
331
9890
102
}
  0
BLOCK_RECORD
  5
9009
330
1
100
AcDbSymbolTableRecord
100
AcDbBlockTableRecord
  2
*D2
340
0
  0
BLOCK_RECORD
  5
9099
330
1
100
AcDbSymbolTableRecord
100
AcDbBlockTableRecord
  2
*D3
340
0
  0
BLOCK_RECORD
  5
9144
330
1
100
AcDbSymbolTableRecord
100
AcDbBlockTableRecord
  2
*D4
340
0
  0
BLOCK_RECORD
  5
91DB
330
1
100
AcDbSymbolTableRecord
100
AcDbBlockTableRecord
  2
*D5
340
0
  0
BLOCK_RECORD
  5
92E4
330
1
100
AcDbSymbolTableRecord
100
AcDbBlockTableRecord
  2
*D6
340
0
  0
BLOCK_RECORD
  5
937E
330
1
100
AcDbSymbolTableRecord
100
AcDbBlockTableRecord
  2
*D7
340
0
  0
BLOCK_RECORD
  5
9468
330
1
100
AcDbSymbolTableRecord
100
AcDbBlockTableRecord
  2
*D8
340
0
  0
BLOCK_RECORD
  5
9547
330
1
100
AcDbSymbolTableRecord
100
AcDbBlockTableRecord
  2
*D9
340
0
  0
ENDTAB
  0
ENDSEC
  0
SECTION
  2
BLOCKS
  0
BLOCK
  5
20
330
1F
100
AcDbEntity
  8
0
100
AcDbBlockBegin
  2
*MODEL_SPACE
 70
     0
 10
0.0
 20
0.0
 30
0.0
  3
*MODEL_SPACE
  1

  0
ENDBLK
  5
21
330
1F
100
AcDbEntity
  8
0
100
AcDbBlockEnd
  0
BLOCK
  5
103
330
101
100
AcDbEntity
 67
     1
  8
0
100
AcDbBlockBegin
  2
*PAPER_SPACE
 70
     0
 10
0.0
 20
0.0
 30
0.0
  3
*PAPER_SPACE
  1

  0
ENDBLK
  5
104
330
101
100
AcDbEntity
 67
     1
  8
0
100
AcDbBlockEnd
  0
BLOCK
  5
5D
330
59
100
AcDbEntity
  8
0
100
AcDbBlockBegin
  2
_OPEN30
 70
     0
 10
0.0
 20
0.0
 30
0.0
  3
_OPEN30
  1

  0
LINE
  5
5A
330
59
100
AcDbEntity
  8
0
 62
     0
100
AcDbLine
 10
-1.0
 20
0.26794919
 30
0.0
 11
0.0
 21
0.0
 31
0.0
  0
LINE
  5
5B
330
59
100
AcDbEntity
  8
0
 62
     0
100
AcDbLine
 10
0.0
 20
0.0
 30
0.0
 11
-1.0
 21
-0.26794919
 31
0.0
  0
LINE
  5
5C
330
59
100
AcDbEntity
  8
0
 62
     0
100
AcDbLine
 10
0.0
 20
0.0
 30
0.0
 11
-1.0
 21
0.0
 31
0.0
  0
ENDBLK
  5
5E
330
59
100
AcDbEntity
  8
0
100
AcDbBlockEnd
  0
BLOCK
  5
9013
330
9009
100
AcDbEntity
  8
0
100
AcDbBlockBegin
  2
*D2
 70
     1
 10
0.0
 20
0.0
 30
0.0
  3
*D2
  1

  0
LINE
  5
980A
330
9009
100
AcDbEntity
  8
AM_5
100
AcDbLine
 10
139.9999999999999
 20
-40.82447523873412
 30
0.0
 11
153.3302051655122
 21
-40.82447523873408
 31
0.0
  0
LINE
  5
980B
330
9009
100
AcDbEntity
  8
AM_5
100
AcDbLine
 10
139.9999999999998
 20
-28.82447523873413
 30
0.0
 11
153.3302051655121
 21
-28.82447523873409
 31
0.0
  0
LINE
  5
980C
330
9009
100
AcDbEntity
  8
AM_5
100
AcDbLine
 10
152.8302051655122
 20
-39.57447523873409
 30
0.0
 11
152.8302051655121
 21
-30.07447523873409
 31
0.0
  0
INSERT
  5
980D
330
9009
100
AcDbEntity
  8
AM_5
100
AcDbBlockReference
  2
_OPEN30
 10
152.8302051655122
 20
-40.82447523873408
 30
0.0
 41
1.25
 42
1.25
 43
1.25
 50
270.0000000000002
  0
INSERT
  5
980E
330
9009
100
AcDbEntity
  8
AM_5
100
AcDbBlockReference
  2
_OPEN30
 10
152.8302051655121
 20
-28.82447523873409
 30
0.0
 41
1.25
 42
1.25
 43
1.25
 50
90.00000000000015
  0
MTEXT
  5
980F
330
9009
100
AcDbEntity
  8
AM_5
 62
     2
100
AcDbMText
 10
151.2802051655121
 20
-34.8244752387341
 30
0.0
 40
1.6
 41
0.0
 71
     5
 72
     1
  1
12
  7
ASAMI
 11
-0.0000000000000028
 21
1.0
 31
0.0
 73
     1
 44
1.0
1001
ACAD
1000
MTEXTBEGIN
1070
    73
1070
     1
1070
    44
1040
1.0
1070
    74
1070
     0
1000
MTEXTEND
  0
POINT
  5
9810
330
9009
100
AcDbEntity
  8
DEFPOINTS
 62
     0
100
AcDbPoint
 10
139.4999999999998
 20
-40.82447523873455
 30
0.0
  0
POINT
  5
9811
330
9009
100
AcDbEntity
  8
DEFPOINTS
 62
     0
100
AcDbPoint
 10
139.4999999999998
 20
-28.82447523873456
 30
0.0
  0
POINT
  5
9812
330
9009
100
AcDbEntity
  8
DEFPOINTS
 62
     0
100
AcDbPoint
 10
152.830205165512
 20
-28.82447523873457
 30
0.0
  0
ENDBLK
  5
9014
330
9009
100
AcDbEntity
  8
0
100
AcDbBlockEnd
  0
BLOCK
  5
90A3
330
9099
100
AcDbEntity
  8
0
100
AcDbBlockBegin
  2
*D3
 70
     1
 10
0.0
 20
0.0
 30
0.0
  3
*D3
  1

  0
LINE
  5
9813
330
9099
100
AcDbEntity
  8
AM_5
100
AcDbLine
 10
139.9999999999996
 20
0.0000000000009012
 30
0.0
 11
153.3302051655121
 21
0.0000000000009388
 31
0.0
  0
LINE
  5
9814
330
9099
100
AcDbEntity
  8
AM_5
100
AcDbLine
 10
139.9999999999996
 20
12.00000000000089
 30
0.0
 11
153.3302051655121
 21
12.00000000000093
 31
0.0
  0
LINE
  5
9815
330
9099
100
AcDbEntity
  8
AM_5
100
AcDbLine
 10
152.8302051655121
 20
1.250000000000937
 30
0.0
 11
152.8302051655121
 21
10.75000000000093
 31
0.0
  0
INSERT
  5
9816
330
9099
100
AcDbEntity
  8
AM_5
100
AcDbBlockReference
  2
_OPEN30
 10
152.8302051655121
 20
0.0000000000009374
 30
0.0
 41
1.25
 42
1.25
 43
1.25
 50
270.0000000000002
  0
INSERT
  5
9817
330
9099
100
AcDbEntity
  8
AM_5
100
AcDbBlockReference
  2
_OPEN30
 10
152.8302051655121
 20
12.00000000000093
 30
0.0
 41
1.25
 42
1.25
 43
1.25
 50
90.00000000000015
  0
MTEXT
  5
9818
330
9099
100
AcDbEntity
  8
AM_5
 62
     2
100
AcDbMText
 10
151.2802051655121
 20
6.000000000000924
 30
0.0
 40
1.6
 41
0.0
 71
     5
 72
     1
  1
12
  7
ASAMI
 11
-0.0000000000000028
 21
1.0
 31
0.0
 73
     1
 44
1.0
1001
ACAD
1000
MTEXTBEGIN
1070
    73
1070
     1
1070
    44
1040
1.0
1070
    74
1070
     0
1000
MTEXTEND
  0
POINT
  5
9819
330
9099
100
AcDbEntity
  8
DEFPOINTS
 62
     0
100
AcDbPoint
 10
139.4999999999996
 20
0.0000000000004661
 30
0.0
  0
POINT
  5
981A
330
9099
100
AcDbEntity
  8
DEFPOINTS
 62
     0
100
AcDbPoint
 10
139.4999999999996
 20
12.00000000000046
 30
0.0
  0
POINT
  5
981B
330
9099
100
AcDbEntity
  8
DEFPOINTS
 62
     0
100
AcDbPoint
 10
152.8302051655121
 20
12.00000000000045
 30
0.0
  0
ENDBLK
  5
90A4
330
9099
100
AcDbEntity
  8
0
100
AcDbBlockEnd
  0
BLOCK
  5
914E
330
9144
100
AcDbEntity
  8
0
100
AcDbBlockBegin
  2
*D4
 70
     1
 10
0.0
 20
0.0
 30
0.0
  3
*D4
  1

  0
LINE
  5
981C
330
9144
100
AcDbEntity
  8
AM_5
100
AcDbLine
 10
-0.0000000000002668
 20
-0.4999999999998721
 30
0.0
 11
-0.0000000000002287
 21
-13.8649011052713
 31
0.0
  0
LINE
  5
981D
330
9144
100
AcDbEntity
  8
AM_5
100
AcDbLine
 10
139.9999999999996
 20
0.0000000000008876
 30
0.0
 11
139.9999999999997
 21
-13.86490110527089
 31
0.0
  0
LINE
  5
981E
330
9144
100
AcDbEntity
  8
AM_5
100
AcDbLine
 10
1.249999999999769
 20
-13.3649011052713
 30
0.0
 11
138.7499999999997
 21
-13.3649011052709
 31
0.0
  0
INSERT
  5
981F
330
9144
100
AcDbEntity
  8
AM_5
100
AcDbBlockReference
  2
_OPEN30
 10
-0.0000000000002301
 20
-13.3649011052713
 30
0.0
 41
1.25
 42
1.25
 43
1.25
 50
180.0000000000001
  0
INSERT
  5
9820
330
9144
100
AcDbEntity
  8
AM_5
100
AcDbBlockReference
  2
_OPEN30
 10
139.9999999999997
 20
-13.36490110527089
 30
0.0
 41
1.25
 42
1.25
 43
1.25
 50
0.0000000000001527
  0
MTEXT
  5
9821
330
9144
100
AcDbEntity
  8
AM_5
 62
     2
100
AcDbMText
 10
69.99999999999973
 20
-11.8149011052711
 30
0.0
 40
1.6
 41
0.0
 71
     5
 72
     1
  1
140
  7
ASAMI
 73
     1
 44
1.0
1001
ACAD
1000
MTEXTBEGIN
1070
    73
1070
     1
1070
    44
1040
1.0
1070
    74
1070
     0
1000
MTEXTEND
  0
POINT
  5
9822
330
9144
100
AcDbEntity
  8
DEFPOINTS
 62
     0
100
AcDbPoint
 10
-0.0000000000002682
 20
0.0000000000001279
 30
0.0
  0
POINT
  5
9823
330
9144
100
AcDbEntity
  8
DEFPOINTS
 62
     0
100
AcDbPoint
 10
139.9999999999996
 20
0.5000000000004804
 30
0.0
  0
POINT
  5
9824
330
9144
100
AcDbEntity
  8
DEFPOINTS
 62
     0
100
AcDbPoint
 10
139.9999999999996
 20
-13.3649011052713
 30
0.0
  0
ENDBLK
  5
914F
330
9144
100
AcDbEntity
  8
0
100
AcDbBlockEnd
  0
BLOCK
  5
91EA
330
91DB
100
AcDbEntity
  8
0
100
AcDbBlockBegin
  2
*D5
 70
     1
 10
0.0
 20
0.0
 30
0.0
  3
*D5
  1

  0
LINE
  5
988B
330
91DB
100
AcDbEntity
  8
AM_5
370
    -2
100
AcDbLine
 10
9.999550442731568
 20
0.1745428022310453
 30
0.0
 11
15.98375124797143
 21
0.2789974158300232
 31
0.0
  0
ARC
  5
988C
330
91DB
100
AcDbEntity
  8
AM_5
370
    -2
100
AcDbCircle
 10
-0.0000000000020582
 20
0.0000000000000968
 30
0.0
 40
15.4861860215354
100
AcDbArc
 50
350.7479890693286
 51
355.3739945346644
  0
ARC
  5
988D
330
91DB
100
AcDbEntity
  8
AM_5
370
    -2
100
AcDbCircle
 10
-0.0000000000020582
 20
0.0000000000000968
 30
0.0
 40
15.4861860215354
100
AcDbArc
 50
5.626005465336126
 51
10.25201093067196
  0
ARC
  5
988E
330
91DB
100
AcDbEntity
  8
AM_5
370
    -2
100
AcDbCircle
 10
-0.0000000000020582
 20
0.0000000000000968
 30
0.0
 40
15.4861860215354
100
AcDbArc
 50
0.0000000000003053
 51
1.000000000000243
  0
INSERT
  5
988F
330
91DB
100
AcDbEntity
  8
AM_5
370
    -2
100
AcDbBlockReference
  2
_OPEN30
 10
15.48618602153334
 20
0.0000000000001816
 30
0.0
 41
1.25
 42
1.25
 43
1.25
 50
87.68699726733238
  0
INSERT
  5
9890
330
91DB
100
AcDbEntity
  8
AM_5
370
    -2
100
AcDbBlockReference
  2
_OPEN30
 10
15.48382740039323
 20
0.2702712126113798
 30
0.0
 41
1.25
 42
1.25
 43
1.25
 50
273.3130027326682
  0
MTEXT
  5
9891
330
91DB
100
AcDbEntity
  8
AM_5
 62
     2
100
AcDbMText
 10
13.99480818089832
 20
-2.610250042756393
 30
0.0
 40
1.6
 41
0.0
 71
     5
 72
     1
  1
1°
  7
ASAMI
 73
     1
 44
1.0
1001
ACAD
1000
MTEXTBEGIN
1070
    73
1070
     1
1070
    44
1040
1.0
1070
    74
1070
     0
1000
MTEXTEND
  0
POINT
  5
9892
330
91DB
100
AcDbEntity
  8
DEFPOINTS
 62
     0
100
AcDbPoint
 10
15.48513773068743
 20
0.1801858906105602
 30
0.0
  0
POINT
  5
9893
330
91DB
100
AcDbEntity
  8
DEFPOINTS
 62
     0
100
AcDbPoint
 10
10.85075902082754
 20
0.0000000000001268
 30
0.0
  0
POINT
  5
9894
330
91DB
100
AcDbEntity
  8
DEFPOINTS
 62
     0
100
AcDbPoint
 10
-0.00000000000027
 20
0.0000000000001279
 30
0.0
  0
POINT
  5
9895
330
91DB
100
AcDbEntity
  8
DEFPOINTS
 62
     0
100
AcDbPoint
 10
9.499626595153372
 20
0.1658165990123719
 30
0.0
  0
POINT
  5
9896
330
91DB
100
AcDbEntity
  8
DEFPOINTS
 62
     0
100
AcDbPoint
 10
139.4999999999996
 20
0.0000000000004796
 30
0.0
  0
ENDBLK
  5
91EB
330
91DB
100
AcDbEntity
  8
0
100
AcDbBlockEnd
  0
BLOCK
  5
92EF
330
92E4
100
AcDbEntity
  8
0
100
AcDbBlockBegin
  2
*D6
 70
     1
 10
0.0
 20
0.0
 30
0.0
  3
*D6
  1

  0
LINE
  5
9875
330
92E4
100
AcDbEntity
  8
AM_5
100
AcDbLine
 10
10.35075902082754
 20
0.0000000000001589
 30
0.0
 11
-16.24449079597109
 21
0.0000000000000837
 31
0.0
  0
LINE
  5
9876
330
92E4
100
AcDbEntity
  8
AM_5
100
AcDbLine
 10
-0.5000000000002683
 20
0.0000000000001265
 30
0.0
 11
-16.24449079597109
 21
0.000000000000082
 31
0.0
  0
LINE
  5
9877
330
92E4
100
AcDbEntity
  8
AM_5
100
AcDbLine
 10
-15.74449079597109
 20
1.250000000000085
 30
0.0
 11
-15.7444907959711
 21
2.500000000000085
 31
0.0
  0
LINE
  5
9878
330
92E4
100
AcDbEntity
  8
AM_5
100
AcDbLine
 10
-15.74449079597109
 20
-1.249999999999916
 30
0.0
 11
-15.74449079597104
 21
-16.37333333333324
 31
0.0
  0
INSERT
  5
9879
330
92E4
100
AcDbEntity
  8
AM_5
100
AcDbBlockReference
  2
_OPEN30
 10
-15.74449079597109
 20
0.0000000000000852
 30
0.0
 41
1.25
 42
1.25
 43
1.25
 50
270.0000000000002
  0
INSERT
  5
987A
330
92E4
100
AcDbEntity
  8
AM_5
100
AcDbBlockReference
  2
_OPEN30
 10
-15.74449079597109
 20
0.0000000000000834
 30
0.0
 41
1.25
 42
1.25
 43
1.25
 50
90.00000000000015
  0
MTEXT
  5
987B
330
92E4
100
AcDbEntity
  8
AM_5
 62
     2
100
AcDbMText
 10
-17.29449079597106
 20
-9.436666666666583
 30
0.0
 40
1.6
 41
0.0
 71
     5
 72
     1
  1
オフセット：0
  7
ASAMI
 11
-0.0000000000000028
 21
1.0
 31
0.0
 73
     1
 44
1.0
1001
ACAD
1000
MTEXTBEGIN
1070
    73
1070
     1
1070
    44
1040
1.0
1070
    74
1070
     0
1000
MTEXTEND
  0
POINT
  5
987C
330
92E4
100
AcDbEntity
  8
DEFPOINTS
 62
     0
100
AcDbPoint
 10
10.85075902082754
 20
0.0000000000001266
 30
0.0
  0
POINT
  5
987D
330
92E4
100
AcDbEntity
  8
DEFPOINTS
 62
     0
100
AcDbPoint
 10
-0.0000000000002682
 20
0.0000000000001279
 30
0.0
  0
POINT
  5
987E
330
92E4
100
AcDbEntity
  8
DEFPOINTS
 62
     0
100
AcDbPoint
 10
-15.74449079597109
 20
0.0000000000001324
 30
0.0
  0
ENDBLK
  5
92F0
330
92E4
100
AcDbEntity
  8
0
100
AcDbBlockEnd
  0
BLOCK
  5
938A
330
937E
100
AcDbEntity
  8
0
100
AcDbBlockBegin
  2
*D7
 70
     1
 10
0.0
 20
0.0
 30
0.0
  3
*D7
  1

  0
LINE
  5
9869
330
937E
100
AcDbEntity
  8
AM_5
100
AcDbLine
 10
-0.5000000000001263
 20
-29.07447523873489
 30
0.0
 11
-16.24449079597098
 21
-29.07447523873493
 31
0.0
  0
LINE
  5
986A
330
937E
100
AcDbEntity
  8
AM_5
100
AcDbLine
 10
19.47934930339146
 20
-28.82447523873477
 30
0.0
 11
-16.24449079597099
 21
-28.82447523873487
 31
0.0
  0
LINE
  5
986B
330
937E
100
AcDbEntity
  8
AM_5
100
AcDbLine
 10
-15.74449079597099
 20
-27.57447523873487
 30
0.0
 11
-15.74449079597099
 21
-26.32447523873487
 31
0.0
  0
LINE
  5
986C
330
937E
100
AcDbEntity
  8
AM_5
100
AcDbLine
 10
-15.74449079597098
 20
-30.32447523873493
 30
0.0
 11
-15.74449079597094
 21
-43.4211419054016
 31
0.0
  0
LINE
  5
986D
330
937E
100
AcDbEntity
  8
AM_5
100
AcDbLine
 10
-15.74449079597099
 20
-28.82447523873487
 30
0.0
 11
-15.74449079597099
 21
-29.07447523873493
 31
0.0
  0
INSERT
  5
986E
330
937E
100
AcDbEntity
  8
AM_5
100
AcDbBlockReference
  2
_OPEN30
 10
-15.74449079597099
 20
-28.82447523873487
 30
0.0
 41
1.25
 42
1.25
 43
1.25
 50
270.0000000000002
  0
INSERT
  5
986F
330
937E
100
AcDbEntity
  8
AM_5
100
AcDbBlockReference
  2
_OPEN30
 10
-15.74449079597099
 20
-29.07447523873493
 30
0.0
 41
1.25
 42
1.25
 43
1.25
 50
90.00000000000017
  0
MTEXT
  5
9870
330
937E
100
AcDbEntity
  8
AM_5
 62
     2
100
AcDbMText
 10
-17.29449079597096
 20
-37.49780857206828
 30
0.0
 40
1.6
 41
0.0
 71
     5
 72
     1
  1
芯下り：0.1
  7
ASAMI
 11
-0.0000000000000028
 21
1.0
 31
0.0
 73
     1
 44
1.0
1001
ACAD
1000
MTEXTBEGIN
1070
    73
1070
     1
1070
    44
1040
1.0
1070
    74
1070
     0
1000
MTEXTEND
  0
POINT
  5
9871
330
937E
100
AcDbEntity
  8
DEFPOINTS
 62
     0
100
AcDbPoint
 10
-0.0000000000002168
 20
-29.07447523873489
 30
0.0
  0
POINT
  5
9872
330
937E
100
AcDbEntity
  8
DEFPOINTS
 62
     0
100
AcDbPoint
 10
19.97934930339138
 20
-28.82447523873483
 30
0.0
  0
POINT
  5
9873
330
937E
100
AcDbEntity
  8
DEFPOINTS
 62
     0
100
AcDbPoint
 10
-15.74449079597108
 20
-28.82447523873482
 30
0.0
  0
ENDBLK
  5
938B
330
937E
100
AcDbEntity
  8
0
100
AcDbBlockEnd
  0
BLOCK
  5
9478
330
9468
100
AcDbEntity
  8
0
100
AcDbBlockBegin
  2
*D8
 70
     1
 10
0.0
 20
0.0
 30
0.0
  3
*D8
  1

  0
LINE
  5
9846
330
9468
100
AcDbEntity
  8
AM_5
370
    -2
100
AcDbLine
 10
-0.0000000000001297
 20
-30.73434711641185
 30
0.0
 11
-0.0000000000000817
 21
-55.80250002900604
 31
0.0
  0
LINE
  5
9847
330
9468
100
AcDbEntity
  8
AM_5
370
    -2
100
AcDbLine
 10
18.77565266841962
 20
-41.07447523873478
 30
0.0
 11
22.1426699501516
 21
-43.01842357270883
 31
0.0
  0
ARC
  5
9848
330
9468
100
AcDbEntity
  8
AM_5
370
    -2
100
AcDbCircle
 10
-0.0000000000001315
 20
-30.23434711641185
 30
0.0
 40
25.0681529125942
100
AcDbArc
 50
272.8572965305936
 51
327.1427034694068
  0
INSERT
  5
9849
330
9468
100
AcDbEntity
  8
AM_5
370
    -2
100
AcDbBlockReference
  2
_OPEN30
 10
-0.0000000000000817
 20
-55.30250002900604
 30
0.0
 41
1.25
 42
1.25
 43
1.25
 50
181.4286482652968
  0
INSERT
  5
984A
330
9468
100
AcDbEntity
  8
AM_5
370
    -2
100
AcDbBlockReference
  2
_OPEN30
 10
21.70965724825938
 20
-42.76842357270884
 30
0.0
 41
1.25
 42
1.25
 43
1.25
 50
58.57135173470354
  0
MTEXT
  5
984B
330
9468
100
AcDbEntity
  8
AM_5
 62
     2
100
AcDbMText
 10
11.75907645629705
 20
-50.60166498880537
 30
0.0
 40
1.6
 41
0.0
 71
     5
 72
     1
  1
60°
  7
ASAMI
 11
0.8660254037844365
 21
0.5000000000000036
 31
0.0
 73
     1
 44
1.0
1001
ACAD
1000
MTEXTBEGIN
1070
    73
1070
     1
1070
    44
1040
1.0
1070
    74
1070
     0
1000
MTEXTEND
  0
POINT
  5
984C
330
9468
100
AcDbEntity
  8
DEFPOINTS
 62
     0
100
AcDbPoint
 10
8.573813252075034
 20
-53.79070542510939
 30
0.0
  0
POINT
  5
984D
330
9468
100
AcDbEntity
  8
DEFPOINTS
 62
     0
100
AcDbPoint
 10
2.979349303391396
 20
-31.95447523873492
 30
0.0
  0
POINT
  5
984E
330
9468
100
AcDbEntity
  8
DEFPOINTS
 62
     0
100
AcDbPoint
 10
-0.0000000000002185
 20
-29.07447523873488
 30
0.0
  0
POINT
  5
984F
330
9468
100
AcDbEntity
  8
DEFPOINTS
 62
     0
100
AcDbPoint
 10
-0.0000000000002185
 20
-29.01242377536622
 30
0.0
  0
POINT
  5
9850
330
9468
100
AcDbEntity
  8
DEFPOINTS
 62
     0
100
AcDbPoint
 10
18.34263996652727
 20
-40.82447523873483
 30
0.0
  0
ENDBLK
  5
9479
330
9468
100
AcDbEntity
  8
0
100
AcDbBlockEnd
  0
BLOCK
  5
9553
330
9547
100
AcDbEntity
  8
0
100
AcDbBlockBegin
  2
*D9
 70
     1
 10
0.0
 20
0.0
 30
0.0
  3
*D9
  1

  0
LINE
  5
9851
330
9547
100
AcDbEntity
  8
AM_5
100
AcDbLine
 10
-0.0000000000001324
 20
-29.57447523873489
 30
0.0
 11
-0.0000000000000815
 21
-47.4687866684193
 31
0.0
  0
LINE
  5
9852
330
9547
100
AcDbEntity
  8
AM_5
100
AcDbLine
 10
2.979349303391492
 20
-32.45447523873491
 30
0.0
 11
2.979349303391534
 21
-47.46878666841929
 31
0.0
  0
LINE
  5
9853
330
9547
100
AcDbEntity
  8
AM_5
100
AcDbLine
 10
-1.250000000000083
 20
-46.96878666841931
 30
0.0
 11
-2.500000000000082
 21
-46.96878666841931
 31
0.0
  0
LINE
  5
9854
330
9547
100
AcDbEntity
  8
AM_5
100
AcDbLine
 10
4.229349303391533
 20
-46.96878666841929
 30
0.0
 11
5.479349303391533
 21
-46.96878666841929
 31
0.0
  0
LINE
  5
9855
330
9547
100
AcDbEntity
  8
AM_5
100
AcDbLine
 10
-0.0000000000000829
 20
-46.9687866684193
 30
0.0
 11
2.979349303391533
 21
-46.9687866684193
 31
0.0
  0
INSERT
  5
9856
330
9547
100
AcDbEntity
  8
AM_5
100
AcDbBlockReference
  2
_OPEN30
 10
-0.0000000000000829
 20
-46.9687866684193
 30
0.0
 41
1.25
 42
1.25
 43
1.25
 50
0.0000000000001527
  0
INSERT
  5
9857
330
9547
100
AcDbEntity
  8
AM_5
100
AcDbBlockReference
  2
_OPEN30
 10
2.979349303391533
 20
-46.9687866684193
 30
0.0
 41
1.25
 42
1.25
 43
1.25
 50
180.0000000000001
  0
MTEXT
  5
9858
330
9547
100
AcDbEntity
  8
AM_5
 62
     2
100
AcDbMText
 10
1.48967465169572
 20
-45.4187866684193
 30
0.0
 40
1.6
 41
0.0
 71
     5
 72
     1
  1
3
  7
ASAMI
 73
     1
 44
1.0
1001
ACAD
1000
MTEXTBEGIN
1070
    73
1070
     1
1070
    44
1040
1.0
1070
    74
1070
     0
1000
MTEXTEND
  0
POINT
  5
9859
330
9547
100
AcDbEntity
  8
DEFPOINTS
 62
     0
100
AcDbPoint
 10
-0.0000000000002185
 20
-29.07447523873489
 30
0.0
  0
POINT
  5
985A
330
9547
100
AcDbEntity
  8
DEFPOINTS
 62
     0
100
AcDbPoint
 10
2.979349303391397
 20
-31.95447523873492
 30
0.0
  0
POINT
  5
985B
330
9547
100
AcDbEntity
  8
DEFPOINTS
 62
     0
100
AcDbPoint
 10
2.979349303391396
 20
-46.9687866684193
 30
0.0
  0
ENDBLK
  5
9554
330
9547
100
AcDbEntity
  8
0
100
AcDbBlockEnd
  0
ENDSEC
  0
SECTION
  2
ENTITIES
  0
TEXT
  5
388D
330
1F
100
AcDbEntity
  8
AM_6
100
AcDbText
 10
55.94385080720551
 20
-54.5216015695515
 30
0.0
 40
2.5
  1
SPBR1212-60
 50
359.9999999999998
 51
359.9999999999998
 72
     4
 11
68.74146985482457
 21
-53.27160156955153
 31
0.0
100
AcDbText
  0
LINE
  5
8EF0
330
1F
100
AcDbEntity
  8
AM_0
100
AcDbLine
 10
139.4999999999998
 20
-28.82447523873459
 30
0.0
 11
19.97934930339138
 21
-28.82447523873483
 31
0.0
  0
LINE
  5
8EF1
330
1F
100
AcDbEntity
  8
AM_0
100
AcDbLine
 10
139.4999999999996
 20
12.00000000000045
 30
0.0
 11
9.38657433986903
 21
12.00000000000013
 31
0.0
  0
LINE
  5
8EF2
330
1F
100
AcDbEntity
  8
AM_0
100
AcDbLine
 10
10.85075902082754
 20
0.0000000000001266
 30
0.0
 11
139.4999999999996
 21
0.0000000000004803
 31
0.0
  0
LINE
  5
8EF3
330
1F
100
AcDbEntity
  8
AM_0
100
AcDbLine
 10
18.34263996652727
 20
-40.82447523873484
 30
0.0
 11
139.4999999999998
 21
-40.82447523873455
 31
0.0
  0
LINE
  5
8EF6
330
1F
100
AcDbEntity
  8
AM_0
100
AcDbLine
 10
10.84678832624897
 20
-29.27447523873485
 30
0.0
 11
10.84678832624897
 21
-36.49674327641469
 31
0.0
  0
LINE
  5
8EF7
330
1F
100
AcDbEntity
  8
AM_0
100
AcDbLine
 10
2.979349303391397
 20
-31.95447523873492
 30
0.0
 11
18.34263996652727
 21
-40.82447523873484
 31
0.0
  0
ARC
  5
8EFC
330
1F
100
AcDbEntity
  8
AM_0
100
AcDbCircle
 10
3.538549842228932
 20
9.493391976681294
 30
0.0
 40
5.0
100
AcDbArc
 50
322.9726197969292
 51
344.9999999999996
  0
ARC
  5
8EFE
330
1F
100
AcDbEntity
  8
AM_0
100
AcDbCircle
 10
16.94329401839063
 20
6.166922102606305
 30
0.0
 40
1.0
100
AcDbArc
 50
288.5000000000006
 51
108.4999999999997
  0
LINE
  5
8EFF
330
1F
100
AcDbEntity
  8
AM_0
100
AcDbLine
 10
19.9793493033913
 20
12.00000000000016
 30
0.0
 11
19.97934930339134
 21
0.0000000000001681
 31
0.0
  0
LINE
  5
8F00
330
1F
100
AcDbEntity
  8
AM_3
  6
AM_ISO02W050X2
100
AcDbLine
 10
9.922770021087115
 20
0.4732482933991936
 30
0.0
 11
2.999999999999729
 21
0.3524108931979551
 31
0.0
  0
LINE
  5
8F04
330
1F
100
AcDbEntity
  8
AM_0
100
AcDbLine
 10
9.899999999999788
 20
-31.45447523873489
 30
0.0
 11
1.753572964685769
 21
-31.45447523873492
 31
0.0
  0
LINE
  5
8F05
330
1F
100
AcDbEntity
  8
AM_0
100
AcDbLine
 10
-0.0000000000002168
 20
-29.07447523873489
 30
0.0
 11
16.99999999999976
 21
-29.07447523873484
 31
0.0
  0
LINE
  5
8F06
330
1F
100
AcDbEntity
  8
AM_0
100
AcDbLine
 10
16.88658803678156
 20
6.645723773677116
 30
0.0
 11
7.386961441627918
 21
6.479907174664857
 31
0.0
  0
LINE
  5
8F07
330
1F
100
AcDbEntity
  8
AM_0
100
AcDbLine
 10
-0.00000000000027
 20
0.0000000000001279
 30
0.0
 11
9.499626595153372
 21
0.1658165990123722
 31
0.0
  0
CIRCLE
  5
8F08
330
1F
100
AcDbEntity
  8
AM_0
100
AcDbCircle
 10
8.443294018390659
 20
3.322861886838593
 30
0.0
 40
1.875
  0
LINE
  5
8F0A
330
1F
100
AcDbEntity
  8
AM_0
100
AcDbLine
 10
0.0735729646857628
 20
-29.77447523873487
 30
0.0
 11
1.753572964685769
 21
-31.45447523873492
 31
0.0
  0
LINE
  5
8F0B
330
1F
100
AcDbEntity
  8
AM_0
100
AcDbLine
 10
2.979349303391397
 20
-31.45447523873492
 30
0.0
 11
2.979349303391397
 21
-31.95447523873492
 31
0.0
  0
LINE
  5
8F0C
330
1F
100
AcDbEntity
  8
AM_0
100
AcDbLine
 10
0.0735729646857628
 20
-29.77447523873487
 30
0.0
 11
-0.0000000000002168
 21
-29.07447523873489
 31
0.0
  0
LINE
  5
8F0D
330
1F
100
AcDbEntity
  8
AM_3
  6
AM_ISO02W050X2
100
AcDbLine
 10
2.999999999999729
 20
0.8524108931979551
 30
0.0
 11
5.058025651516588
 21
4.417015884905238
 31
0.0
  0
LINE
  5
8F0E
330
1F
100
AcDbEntity
  8
AM_0
100
AcDbLine
 10
7.386961441627946
 20
6.47990717466483
 30
0.0
 11
0.2136908082749614
 21
1.268220994641978
 31
0.0
  0
LINE
  5
8F0F
330
1F
100
AcDbEntity
  8
AM_0
100
AcDbLine
 10
0.2136908082749614
 20
1.268220994641978
 30
0.0
 11
0.0157643952940845
 21
0.2003056341524001
 31
0.0
  0
LINE
  5
8F10
330
1F
100
AcDbEntity
  8
AM_0
100
AcDbLine
 10
0.0157643952940845
 20
0.2003056341524001
 30
0.0
 11
-0.00000000000027
 21
0.0000000000001279
 31
0.0
  0
LINE
  5
8F11
330
1F
100
AcDbEntity
  8
AM_3
  6
AM_ISO02W050X2
100
AcDbLine
 10
2.999999999999729
 20
0.3524108931979551
 30
0.0
 11
2.999999999999729
 21
0.8524108931979551
 31
0.0
  0
LINE
  5
8F16
330
1F
100
AcDbEntity
  8
AM_3
  6
AM_ISO02W050X2
100
AcDbLine
 10
5.058025651516588
 20
4.417015884905238
 30
0.0
 11
6.47747610369116
 21
5.448307004806451
 31
0.0
  0
ARC
  5
8F1A
330
1F
100
AcDbEntity
  8
AM_3
100
AcDbCircle
 10
3.538549842228932
 20
9.493391976681294
 30
0.0
 40
5.0
100
AcDbArc
 50
305.999999999999
 51
322.9726197969292
  0
LINE
  5
8F1B
330
1F
100
AcDbEntity
  8
AM_0
100
AcDbLine
 10
9.899999999999788
 20
-29.27447523873487
 30
0.0
 11
19.9793493033914
 21
-29.27447523873483
 31
0.0
  0
LINE
  5
8F1C
330
1F
100
AcDbEntity
  8
AM_0
100
AcDbLine
 10
9.899999999999788
 20
-31.45447523873489
 30
0.0
 11
9.899999999999788
 21
-29.27447523873487
 31
0.0
  0
LINE
  5
8F1D
330
1F
100
AcDbEntity
  8
AM_0
100
AcDbLine
 10
9.501073654690523
 20
-29.07447523873489
 30
0.0
 11
9.409637005915453
 21
-31.45447523873489
 31
0.0
  0
LINE
  5
8F1E
330
1F
100
AcDbEntity
  8
AM_0
100
AcDbLine
 10
16.76420822961883
 20
-29.07447523873484
 30
0.0
 11
16.74226607503338
 21
-29.27447523873483
 31
0.0
  0
LINE
  5
8F1F
330
1F
100
AcDbEntity
  8
AM_0
100
AcDbLine
 10
16.99999999999976
 20
-29.07447523873484
 30
0.0
 11
16.97897915294664
 21
-29.27447523873483
 31
0.0
  0
LINE
  5
8F20
330
1F
100
AcDbEntity
  8
AM_0
100
AcDbLine
 10
19.9793493033914
 20
-29.27447523873483
 30
0.0
 11
19.97934930339138
 21
-28.82447523873483
 31
0.0
  0
LINE
  5
8F22
330
1F
100
AcDbEntity
  8
AM_0
100
AcDbLine
 10
9.499626595153314
 20
0.1658165990124007
 30
0.0
 11
16.67289722850633
 21
5.377502779035252
 31
0.0
  0
ARC
  5
8F24
330
1F
100
AcDbEntity
  8
AM_0
100
AcDbCircle
 10
9.999999999999729
 20
-0.5255559803484017
 30
0.0
 40
1.0
100
AcDbArc
 50
31.70567912133632
 51
91.00000000000113
  0
LINE
  5
8F25
330
1F
100
AcDbEntity
  8
AM_0
100
AcDbLine
 10
9.98254759356179
 20
0.4742917148079743
 30
0.0
 11
9.922770021087115
 21
0.4732482933991936
 31
0.0
  0
LINE
  5
8F28
330
1F
100
AcDbEntity
  8
AM_0
100
AcDbLine
 10
17.26059867479573
 20
5.218598447400109
 30
0.0
 11
15.76576872468076
 21
4.718435342640117
 31
0.0
  0
LINE
  5
8F29
330
1F
100
AcDbEntity
  8
AM_0
100
AcDbLine
 10
15.13115941187034
 20
6.615082653052451
 30
0.0
 11
16.62598936198554
 21
7.115245757812499
 31
0.0
  0
LINE
  5
8F2A
330
1F
100
AcDbEntity
  8
AM_0
100
AcDbLine
 10
16.67289722850633
 20
5.377502779035252
 30
0.0
 11
16.87082364148717
 21
6.445418139524845
 31
0.0
  0
LINE
  5
8F2B
330
1F
100
AcDbEntity
  8
AM_0
100
AcDbLine
 10
16.87082364148717
 20
6.445418139524845
 30
0.0
 11
16.88658803678156
 21
6.645723773677116
 31
0.0
  0
LINE
  5
8F2C
330
1F
100
AcDbEntity
  8
AM_0
100
AcDbLine
 10
8.368178973674261
 20
8.199296751168658
 30
0.0
 11
9.38657433986903
 21
12.00000000000013
 31
0.0
  0
LINE
  5
8F30
330
1F
100
AcDbEntity
  8
AM_0
100
AcDbLine
 10
139.4999999999998
 20
-28.82447523873456
 30
0.0
 11
139.4999999999998
 21
-40.82447523873455
 31
0.0
  0
LINE
  5
8F31
330
1F
100
AcDbEntity
  8
AM_0
100
AcDbLine
 10
139.9999999999997
 20
-29.32447523873456
 30
0.0
 11
139.9999999999997
 21
-40.32447523873456
 31
0.0
  0
LINE
  5
8F33
330
1F
100
AcDbEntity
  8
AM_0
100
AcDbLine
 10
139.9999999999997
 20
-40.32447523873456
 30
0.0
 11
139.4999999999998
 21
-40.82447523873455
 31
0.0
1001
GENIUS_GENFIL_13
1070
     0
1040
0.5
1040
0.5
1040
20.0
1040
0.0
1002
{
1002
}
1001
GENIUS_GENODEF_13
1002
{
1000
HIER
1070
     0
1002
}
1002
{
1000
MANEDIT
1070
     0
1002
}
1002
{
1000
NOSEL
1070
     0
1002
}
1002
{
1000
BEHIND
1070
     0
1002
}
1002
{
1000
REACTOR
1002
}
1001
GENIUS_GENOBJ-N-CHA_13
1002
{
1000
OWNER
1000
GEN
1002
}
  0
LINE
  5
8F37
330
1F
100
AcDbEntity
  8
AM_0
100
AcDbLine
 10
139.4999999999996
 20
12.00000000000046
 30
0.0
 11
139.4999999999996
 21
0.0000000000004661
 31
0.0
  0
LINE
  5
8F38
330
1F
100
AcDbEntity
  8
AM_0
100
AcDbLine
 10
139.9999999999996
 20
11.50000000000046
 30
0.0
 11
139.9999999999996
 21
0.5000000000004662
 31
0.0
  0
LINE
  5
8F3B
330
1F
100
AcDbEntity
  8
AM_0
100
AcDbLine
 10
139.4999999999998
 20
-28.82447523873456
 30
0.0
 11
139.9999999999997
 21
-29.32447523873456
 31
0.0
1001
GENIUS_GENFIL_13
1070
     0
1040
0.5
1040
0.5
1040
20.0
1040
0.0
1002
{
1002
}
1001
GENIUS_GENODEF_13
1002
{
1000
HIER
1070
     0
1002
}
1002
{
1000
MANEDIT
1070
     0
1002
}
1002
{
1000
NOSEL
1070
     0
1002
}
1002
{
1000
BEHIND
1070
     0
1002
}
1002
{
1000
REACTOR
1002
}
1001
GENIUS_GENOBJ-N-CHA_13
1002
{
1000
OWNER
1000
GEN
1002
}
  0
LINE
  5
8F3D
330
1F
100
AcDbEntity
  8
AM_0
100
AcDbLine
 10
139.9999999999996
 20
0.5000000000004662
 30
0.0
 11
139.4999999999996
 21
0.0000000000004661
 31
0.0
1001
GENIUS_GENFIL_13
1070
     0
1040
0.5
1040
0.5
1040
20.0
1040
0.0
1002
{
1002
}
1001
GENIUS_GENODEF_13
1002
{
1000
HIER
1070
     0
1002
}
1002
{
1000
MANEDIT
1070
     0
1002
}
1002
{
1000
NOSEL
1070
     0
1002
}
1002
{
1000
BEHIND
1070
     0
1002
}
1002
{
1000
REACTOR
1002
}
1001
GENIUS_GENOBJ-N-CHA_13
1002
{
1000
OWNER
1000
GEN
1002
}
  0
LINE
  5
8F3F
330
1F
100
AcDbEntity
  8
AM_0
100
AcDbLine
 10
139.4999999999996
 20
12.00000000000046
 30
0.0
 11
139.9999999999996
 21
11.50000000000046
 31
0.0
1001
GENIUS_GENFIL_13
1070
     0
1040
0.5
1040
0.5
1040
20.0
1040
0.0
1002
{
1002
}
1001
GENIUS_GENODEF_13
1002
{
1000
HIER
1070
     0
1002
}
1002
{
1000
MANEDIT
1070
     0
1002
}
1002
{
1000
NOSEL
1070
     0
1002
}
1002
{
1000
BEHIND
1070
     0
1002
}
1002
{
1000
REACTOR
1002
}
1001
GENIUS_GENOBJ-N-CHA_13
1002
{
1000
OWNER
1000
GEN
1002
}
  0
DIMENSION
  5
9008
330
1F
100
AcDbEntity
  8
AM_5
100
AcDbDimension
  2
*D2
 10
152.830205165512
 20
-28.82447523873457
 30
0.0
 11
151.280205165512
 21
-34.82447523873454
 31
0.0
 70
    32
  1
<>
 71
     5
 42
12.0
 51
359.9999999999998
  3
AM_JIS$0
100
AcDbAlignedDimension
 13
139.4999999999998
 23
-40.82447523873455
 33
0.0
 14
139.4999999999998
 24
-28.82447523873456
 34
0.0
 50
90.00000000000012
100
AcDbRotatedDimension
1001
GENIUS_GENDTOL_13
1000

1000
h7
1000

1040
0.0
1001
ACAD
1000
DSTYLE
1002
{
1070
   287
1070
     3
1070
    40
1040
0.5
1070
    42
1040
1.0
1070
    43
1040
12.0
1070
    48
1040
0.1
1070
    78
1070
     8
1070
   140
1040
3.2
1070
   176
1070
   256
1070
   177
1070
   256
1070
   271
1070
     0
1070
   272
1070
     3
1070
   275
1070
     0
1070
   284
1070
     0
1070
   289
1070
     3
1070
   340
1005
6B
1070
   371
1070
    -1
1070
   372
1070
    -1
1002
}
  0
DIMENSION
  5
9098
330
1F
100
AcDbEntity
  8
AM_5
100
AcDbDimension
  2
*D3
 10
152.8302051655121
 20
12.00000000000045
 30
0.0
 11
151.2802051655121
 21
6.000000000000484
 31
0.0
 70
    32
  1
<>
 71
     5
 42
11.99999999999999
 51
359.9999999999998
  3
AM_JIS$0
100
AcDbAlignedDimension
 13
139.4999999999996
 23
0.0000000000004661
 33
0.0
 14
139.4999999999996
 24
12.00000000000046
 34
0.0
 50
90.00000000000012
100
AcDbRotatedDimension
1001
GENIUS_GENDTOL_13
1000

1000
h7
1000

1040
0.0
1001
ACAD
1000
DSTYLE
1002
{
1070
   287
1070
     3
1070
    40
1040
0.5
1070
    42
1040
1.0
1070
    43
1040
12.0
1070
    48
1040
0.1
1070
    78
1070
     8
1070
   140
1040
3.2
1070
   176
1070
   256
1070
   177
1070
   256
1070
   271
1070
     0
1070
   272
1070
     3
1070
   275
1070
     0
1070
   284
1070
     0
1070
   289
1070
     3
1070
   340
1005
6B
1070
   371
1070
    -1
1070
   372
1070
    -1
1002
}
  0
DIMENSION
  5
9143
330
1F
100
AcDbEntity
  8
AM_5
100
AcDbDimension
  2
*D4
 10
139.9999999999996
 20
-13.3649011052713
 30
0.0
 11
69.9999999999997
 21
-11.8149011052713
 31
0.0
 70
    32
  1
<>
 71
     5
 42
139.9999999999999
 51
359.9999999999998
  3
AM_JIS$0
100
AcDbAlignedDimension
 13
-0.0000000000002682
 23
0.0000000000001279
 33
0.0
 14
139.9999999999996
 24
0.5000000000004804
 34
0.0
100
AcDbRotatedDimension
1001
GENIUS_GENDTOL_13
1000

1000
h7
1000

1040
0.0
1001
ACAD
1000
DSTYLE
1002
{
1070
   287
1070
     3
1070
    40
1040
0.5
1070
    42
1040
1.0
1070
    43
1040
12.0
1070
    48
1040
0.1
1070
    78
1070
     8
1070
   140
1040
3.2
1070
   176
1070
   256
1070
   177
1070
   256
1070
   271
1070
     0
1070
   272
1070
     3
1070
   275
1070
     0
1070
   284
1070
     0
1070
   289
1070
     3
1070
   340
1005
6B
1070
   371
1070
    -1
1070
   372
1070
    -1
1002
}
  0
DIMENSION
  5
91DA
330
1F
100
AcDbEntity
  8
AM_5
100
AcDbDimension
  2
*D5
 10
139.4999999999996
 20
0.0000000000004803
 30
0.0
 11
16.51573306153477
 21
-3.080441859064989
 31
0.0
 70
   162
  1
<>
 71
     5
 42
0.0174532925199422
 51
359.9999999999998
  3
AM_JIS$2
100
AcDb2LineAngularDimension
 13
-0.00000000000027
 23
0.0000000000001279
 33
0.0
 14
9.499626595153372
 24
0.1658165990123722
 34
0.0
 15
10.85075902082754
 25
0.0000000000001266
 35
0.0
 16
15.48513773068743
 26
0.1801858906105602
 36
0.0
1001
GENIUS_GENDTOL_13
1000

1000
h7
1000

1040
0.0
1001
ACAD
1000
DSTYLE
1002
{
1070
   271
1070
     0
1070
   279
1070
     1
1002
}
  0
DIMENSION
  5
92E3
330
1F
100
AcDbEntity
  8
AM_5
100
AcDbDimension
  2
*D6
 10
-15.74449079597109
 20
0.0000000000001324
 30
0.0
 11
-17.29449079597109
 21
-9.436666666666534
 31
0.0
 70
    32
  1
オフセット：0
 71
     5
 42
0.0000000000000011
 51
359.9999999999998
  3
AM_JIS$0
100
AcDbAlignedDimension
 13
10.85075902082754
 23
0.0000000000001266
 33
0.0
 14
-0.0000000000002682
 24
0.0000000000001279
 34
0.0
 50
270.0000000000002
100
AcDbRotatedDimension
1001
ACAD
1000
DSTYLE
1002
{
1070
    40
1040
0.5
1070
    42
1040
1.0
1070
    43
1040
12.0
1070
    48
1040
0.1
1070
    78
1070
     8
1070
   140
1040
3.2
1070
   176
1070
   256
1070
   177
1070
   256
1070
   271
1070
     0
1070
   272
1070
     3
1070
   275
1070
     0
1070
   340
1005
6B
1070
   371
1070
    -1
1070
   372
1070
    -1
1002
}
  0
DIMENSION
  5
937D
330
1F
100
AcDbEntity
  8
AM_5
100
AcDbDimension
  2
*D7
 10
-15.74449079597108
 20
-28.82447523873482
 30
0.0
 11
-15.74449079597107
 21
-37.49780857206822
 31
0.0
 70
   160
  1
芯下り：0.1
 71
     5
 42
0.2500000000000639
 51
359.9999999999998
  3
AM_JIS$0
100
AcDbAlignedDimension
 13
-0.0000000000002168
 23
-29.07447523873489
 33
0.0
 14
19.97934930339138
 24
-28.82447523873483
 34
0.0
 50
270.0000000000002
100
AcDbRotatedDimension
1001
ACAD
1000
DSTYLE
1002
{
1070
    40
1040
0.5
1070
    42
1040
1.0
1070
    43
1040
12.0
1070
    48
1040
0.1
1070
    78
1070
     8
1070
   140
1040
3.2
1070
   176
1070
   256
1070
   177
1070
   256
1070
   271
1070
     0
1070
   272
1070
     3
1070
   275
1070
     0
1070
   340
1005
6B
1070
   371
1070
    -1
1070
   372
1070
    -1
1002
}
  0
DIMENSION
  5
9467
330
1F
100
AcDbEntity
  8
AM_5
100
AcDbDimension
  2
*D8
 10
18.34263996652727
 20
-40.82447523873484
 30
0.0
 11
11.7590764562969
 21
-50.6016649888054
 31
0.0
 70
    34
  1
<>
 71
     5
 42
1.0471975511966
 51
359.9999999999998
  3
AM_JIS$2
100
AcDb2LineAngularDimension
 13
-0.0000000000002168
 23
-29.07447523873489
 33
0.0
 14
-0.0000000000002168
 24
-29.01242377536623
 34
0.0
 15
2.979349303391397
 25
-31.95447523873492
 35
0.0
 16
8.573813252075034
 26
-53.79070542510939
 36
0.0
1001
GENIUS_GENDTOL_13
1000

1000
h7
1000

1040
0.0
1001
ACAD
1000
DSTYLE
1002
{
1070
   271
1070
     0
1002
}
  0
DIMENSION
  5
9546
330
1F
100
AcDbEntity
  8
AM_5
100
AcDbDimension
  2
*D9
 10
2.979349303391396
 20
-46.9687866684193
 30
0.0
 11
1.489674651695588
 21
-45.4187866684193
 31
0.0
 70
    32
  1
<>
 71
     5
 42
2.979349303391615
 51
359.9999999999998
  3
AM_JIS$0
100
AcDbAlignedDimension
 13
-0.0000000000002185
 23
-29.07447523873489
 33
0.0
 14
2.979349303391397
 24
-31.95447523873492
 34
0.0
100
AcDbRotatedDimension
1001
GENIUS_GENDTOL_13
1000

1000
h7
1000

1040
0.0
1001
ACAD
1000
DSTYLE
1002
{
1070
   287
1070
     3
1070
    40
1040
0.5
1070
    42
1040
1.0
1070
    43
1040
12.0
1070
    48
1040
0.1
1070
    78
1070
     8
1070
   140
1040
3.2
1070
   176
1070
   256
1070
   177
1070
   256
1070
   271
1070
     0
1070
   272
1070
     3
1070
   275
1070
     0
1070
   284
1070
     0
1070
   289
1070
     3
1070
   340
1005
6B
1070
   371
1070
    -1
1070
   372
1070
    -1
1002
}
  0
VIEWPORT
  5
110
102
{ACAD_XDICTIONARY
360
989D
102
}
330
101
100
AcDbEntity
 67
     1
  8
0
100
AcDbViewport
 10
420.5
 20
297.0
 30
0.0
 40
948.9782706766916
 41
628.452
 68
     1
 69
     1
 12
420.5
 22
297.0
 13
0.0
 23
0.0
 14
10.0
 24
10.0
 15
10.0
 25
10.0
 16
0.0
 26
0.0
 36
1.0
 17
0.0
 27
0.0
 37
0.0
 42
50.0
 43
0.0
 44
0.0
 45
628.452
 50
0.0
 51
0.0
 72
   100
 90
    32800
  1

281
     0
 71
     1
 74
     0
110
-0.0000000000002682
120
0.000000000000161
130
0.0
111
1.0
121
0.000000000000002
131
0.0
112
-0.000000000000002
122
1.0
132
0.0
 79
     0
146
0.0
1001
GENIUS_GENSCREG_15
1000
PF
1040
1.0
1000
DF
1040
1.0
1000
MIN
1011
-53.98913533834582
1021
-17.226
1031
0.0
1000
MAX
1011
894.9891353383458
1021
611.226
1031
0.0
1000
FLAGS
1070
     4
1001
GENIUS_GENODEF_13
1002
{
1000
HIER
1070
     0
1002
}
1002
{
1000
MANEDIT
1070
     0
1002
}
1002
{
1000
NOSEL
1070
     0
1002
}
1002
{
1000
BEHIND
1070
     0
1002
}
1002
{
1000
OTHER
1070
     0
1002
}
1002
{
1000
REACTOR
1002
}
1001
GENIUS_GENOBJ-N-SDF_13
1002
{
1000
OWNER
1000
GEN
1002
}
  0
ENDSEC
  0
SECTION
  2
OBJECTS
  0
DICTIONARY
  5
C
330
0
100
AcDbDictionary
281
     1
  3
ACAD_COLOR
350
974D
  3
ACAD_GROUP
350
D
  3
ACAD_LAYOUT
350
1A
  3
ACAD_MATERIAL
350
974C
  3
ACAD_MLINESTYLE
350
17
  3
ACAD_PLOTSETTINGS
350
19
  3
ACAD_PLOTSTYLENAME
350
E
  3
ACAD_TABLESTYLE
350
974E
  3
ACDBHEADERROUNDTRIPXREC
350
989C
  3
ACDBVARIABLEDICTIONARY
350
34
  3
ACMDICTIONARY
350
43
  3
AMG
350
2B
  3
AMGSNAPSETTINGS
350
6E
  3
DWGPROPS
350
989B
  0
DICTIONARY
  5
74
330
1F
100
AcDbDictionary
280
     1
281
     1
  3
ACAD_INDEX
360
96BD
  3
ACAD_LAYOUTSELFREF
360
96ED
  0
DICTIONARY
  5
96F2
330
101
100
AcDbDictionary
280
     1
281
     1
  3
ACAD_LAYOUTSELFREF
360
96F3
  0
DICTIONARY
  5
989D
330
110
100
AcDbDictionary
280
     1
281
     1
  3
ACAD_XREC_ROUNDTRIP
360
989E
  0
DICTIONARY
  5
974D
102
{ACAD_REACTORS
330
C
102
}
330
C
100
AcDbDictionary
281
     1
  0
DICTIONARY
  5
D
102
{ACAD_REACTORS
330
C
102
}
330
C
100
AcDbDictionary
281
     1
  0
DICTIONARY
  5
1A
102
{ACAD_REACTORS
330
C
102
}
330
C
100
AcDbDictionary
281
     1
  3
Model
350
9750
  3
レイアウト1
350
9751
  0
DICTIONARY
  5
974C
102
{ACAD_REACTORS
330
C
102
}
330
C
100
AcDbDictionary
281
     1
  0
DICTIONARY
  5
17
102
{ACAD_REACTORS
330
C
102
}
330
C
100
AcDbDictionary
281
     1
  3
STANDARD
350
18
  0
DICTIONARY
  5
19
102
{ACAD_REACTORS
330
C
102
}
330
C
100
AcDbDictionary
281
     1
  3
ASAMI
350
399D
  0
ACDBDICTIONARYWDFLT
  5
E
102
{ACAD_REACTORS
330
C
102
}
330
C
100
AcDbDictionary
281
     1
  3
Normal
350
F
100
AcDbDictionaryWithDefault
340
F
  0
DICTIONARY
  5
974E
102
{ACAD_REACTORS
330
C
102
}
330
C
100
AcDbDictionary
281
     1
  3
Standard
350
974F
  0
DICTIONARY
  5
989C
102
{ACAD_REACTORS
330
C
102
}
330
C
100
AcDbDictionary
281
     1
  0
DICTIONARY
  5
34
102
{ACAD_REACTORS
330
C
102
}
330
C
100
AcDbDictionary
281
     1
  3
CTABLESTYLE
350
9897
  3
DIMASSOC
350
9898
  3
INDEXCTL
350
35
  3
PROJECTNAME
350
9899
  3
SORTENTS
350
B5E
  0
DICTIONARY
  5
43
102
{ACAD_REACTORS
330
C
102
}
330
C
100
AcDbDictionary
281
     1
  3
ACMSTDDICTIONARY
350
260
  0
DICTIONARY
  5
2B
102
{ACAD_REACTORS
330
C
102
}
330
C
100
AcDbDictionary
281
     1
  0
DICTIONARY
  5
6E
102
{ACAD_REACTORS
330
C
102
}
330
C
100
AcDbDictionary
281
     1
  0
XRECORD
  5
989B
102
{ACAD_REACTORS
330
C
102
}
330
C
100
AcDbXrecord
280
     1
  1
DWGPROPS COOKIE
  2

  3

  4

  6

  7

  8

  9

300
AmdtFileType=82
301
=
302
=
303
=
304
=
305
=
306
=
307
=
308
=
309
=
 40
0.8325690509259258
 41
2452802.716478762
 42
2455601.652552442
  1

 90
        1
  0
DICTIONARY
  5
96BD
102
{ACAD_REACTORS
330
74
102
}
330
74
100
AcDbDictionary
281
     1
  3
*A1
350
96BE
  0
XRECORD
  5
96ED
102
{ACAD_REACTORS
330
74
102
}
330
74
100
AcDbXrecord
280
     1
340
1F
  0
XRECORD
  5
96F3
102
{ACAD_REACTORS
330
96F2
102
}
330
96F2
100
AcDbXrecord
280
     1
340
101
  0
XRECORD
  5
989E
102
{ACAD_REACTORS
330
989D
102
}
330
989D
100
AcDbXrecord
280
     1
102
SHADEPLOT
 70
     0
  0
LAYOUT
  5
9750
102
{ACAD_XDICTIONARY
360
98A1
102
}
102
{ACAD_REACTORS
330
1A
102
}
330
1A
100
AcDbPlotSettings
  1

  2
SII LP-1010 (C2 VR)2R
  4

  6

 40
0.0
 41
0.0
 42
0.0
 43
0.0
 44
0.0
 45
0.0
 46
0.0
 47
0.0
 48
0.0
 49
0.0
140
0.0
141
0.0
142
1.0
143
1.0
 70
  1712
 72
     0
 73
     0
 74
     0
  7
sei_cad.ctb
 75
     0
147
1.0
148
0.0
149
0.0
100
AcDbLayout
  1
Model
 70
     1
 71
     0
 10
0.0
 20
0.0
 11
12.0
 21
9.0
 12
0.0
 22
0.0
 32
0.0
 14
0.0
 24
0.0
 34
0.0
 15
0.0
 25
0.0
 35
0.0
146
0.0
 13
0.0
 23
0.0
 33
0.0
 16
1.0
 26
0.0
 36
0.0
 17
0.0
 27
1.0
 37
0.0
 76
     0
330
1F
  0
LAYOUT
  5
9751
102
{ACAD_XDICTIONARY
360
98A3
102
}
102
{ACAD_REACTORS
330
1A
102
}
330
1A
100
AcDbPlotSettings
  1

  2
SII LP-1010 (C2 VR)2R
  4

  6

 40
0.0
 41
0.0
 42
0.0
 43
0.0
 44
0.0
 45
0.0
 46
0.0
 47
0.0
 48
0.0
 49
0.0
140
0.0
141
0.0
142
1.0
143
1.0
 70
   688
 72
     0
 73
     0
 74
     5
  7
sei_cad.ctb
 75
    16
147
1.0
148
0.0
149
0.0
100
AcDbLayout
  1
レイアウト1
 70
     0
 71
     1
 10
0.0
 20
0.0
 11
841.0
 21
594.0
 12
0.0
 22
0.0
 32
0.0
 14
1.000000000000000E+20
 24
1.000000000000000E+20
 34
1.000000000000000E+20
 15
-1.000000000000000E+20
 25
-1.000000000000000E+20
 35
-1.000000000000000E+20
146
0.0
 13
0.0
 23
0.0
 33
0.0
 16
1.0
 26
0.0
 36
0.0
 17
0.0
 27
1.0
 37
0.0
 76
     0
330
101
331
110
  0
MLINESTYLE
  5
18
102
{ACAD_REACTORS
330
17
102
}
330
17
100
AcDbMlineStyle
  2
STANDARD
 70
     0
  3

 62
   256
 51
90.0
 52
90.0
 71
     2
 49
0.5
 62
   256
  6
BYLAYER
 49
-0.5
 62
   256
  6
BYLAYER
  0
PLOTSETTINGS
  5
399D
102
{ACAD_XDICTIONARY
360
989F
102
}
102
{ACAD_REACTORS
330
19
102
}
330
19
100
AcDbPlotSettings
  1
asami
  2
RICOH imagio MF1540
  4
A4
  6

 40
5.831416606903076
 41
7.651742935180664
 42
4.90008544921875
 43
5.789077758789062
 44
296.9683227539062
 45
209.9733276367186
 46
0.0
 47
0.0
 48
-156.6707931774246
 49
-74.57609991074048
140
58.59973180214831
141
60.61068161925597
142
1.0
143
1.095343097833084
 70
  1712
 72
     1
 73
     1
 74
     4
  7
asami.ctb
 75
     0
147
0.9129559514076438
148
156.6707931774246
149
74.57609991074048
  0
ACDBPLACEHOLDER
  5
F
102
{ACAD_REACTORS
330
E
102
}
330
E
  0
TABLESTYLE
  5
974F
102
{ACAD_REACTORS
330
974E
102
}
330
974E
100
AcDbTableStyle
  3
Standard
 70
     0
 71
     0
 40
1.5
 41
1.5
280
     0
281
     0
  7
STANDARD
140
4.5
170
     2
 62
     0
 63
     7
283
     0
274
    -2
284
     1
 64
     0
275
    -2
285
     1
 65
     0
276
    -2
286
     1
 66
     0
277
    -2
287
     1
 67
     0
278
    -2
288
     1
 68
     0
279
    -2
289
     1
 69
     0
  7
STANDARD
140
6.0
170
     5
 62
     0
 63
     7
283
     0
274
    -2
284
     1
 64
     0
275
    -2
285
     1
 65
     0
276
    -2
286
     1
 66
     0
277
    -2
287
     1
 67
     0
278
    -2
288
     1
 68
     0
279
    -2
289
     1
 69
     0
  7
STANDARD
140
4.5
170
     5
 62
     0
 63
     7
283
     0
274
    -2
284
     1
 64
     0
275
    -2
285
     1
 65
     0
276
    -2
286
     1
 66
     0
277
    -2
287
     1
 67
     0
278
    -2
288
     1
 68
     0
279
    -2
289
     1
 69
     0
  0
DICTIONARYVAR
  5
9897
102
{ACAD_REACTORS
330
34
102
}
330
34
100
DictionaryVariables
280
     0
  1
STANDARD
  0
DICTIONARYVAR
  5
9898
102
{ACAD_REACTORS
330
34
102
}
330
34
100
DictionaryVariables
280
     0
  1
1
  0
DICTIONARYVAR
  5
35
102
{ACAD_REACTORS
330
34
102
}
330
34
100
DictionaryVariables
280
     0
  1
1
  0
DICTIONARYVAR
  5
9899
102
{ACAD_REACTORS
330
34
102
}
330
34
100
DictionaryVariables
280
     0
  1

  0
DICTIONARYVAR
  5
B5E
102
{ACAD_REACTORS
330
34
102
}
330
34
100
DictionaryVariables
280
     0
  1
96
  0
DICTIONARY
  5
260
102
{ACAD_REACTORS
330
43
102
}
330
43
100
AcDbDictionary
281
     1
  0
LAYER_INDEX
  5
96BE
102
{ACAD_REACTORS
330
96BD
102
}
330
96BD
100
AcDbIndex
 40
2455601.652552442
100
AcDbLayerIndex
  8
0
360
96BF
 90
        0
  8
AM_0
360
96C0
 90
       42
  8
AM_5
360
96C1
 90
        8
  8
AM_6
360
96C2
 90
        1
  8
DEFPOINTS
360
96C3
 90
        0
  8
AM_3
360
96C4
 90
        5
  0
DICTIONARY
  5
98A1
330
9750
100
AcDbDictionary
280
     1
281
     1
  3
ACAD_XREC_ROUNDTRIP
360
98A2
  0
DICTIONARY
  5
98A3
330
9751
100
AcDbDictionary
280
     1
281
     1
  3
ACAD_XREC_ROUNDTRIP
360
98A4
  0
DICTIONARY
  5
989F
330
399D
100
AcDbDictionary
280
     1
281
     1
  3
ACAD_XREC_ROUNDTRIP
360
98A0
  0
IDBUFFER
  5
96BF
330
0
100
AcDbIdBuffer
  0
IDBUFFER
  5
96C0
330
0
100
AcDbIdBuffer
330
8EF0
330
8EF1
330
8EF2
330
8EF3
330
8EF6
330
8EF7
330
8EFC
330
8EFE
330
8EFF
330
8F04
330
8F05
330
8F06
330
8F07
330
8F08
330
8F0A
330
8F0B
330
8F0C
330
8F0E
330
8F0F
330
8F10
330
8F1B
330
8F1C
330
8F1D
330
8F1E
330
8F1F
330
8F20
330
8F22
330
8F24
330
8F25
330
8F28
330
8F29
330
8F2A
330
8F2B
330
8F2C
330
8F30
330
8F31
330
8F33
330
8F37
330
8F38
330
8F3B
330
8F3D
330
8F3F
  0
IDBUFFER
  5
96C1
330
0
100
AcDbIdBuffer
330
9008
330
9098
330
9143
330
91DA
330
92E3
330
937D
330
9467
330
9546
  0
IDBUFFER
  5
96C2
330
0
100
AcDbIdBuffer
330
388D
  0
IDBUFFER
  5
96C3
330
0
100
AcDbIdBuffer
  0
IDBUFFER
  5
96C4
330
0
100
AcDbIdBuffer
330
8F00
330
8F0D
330
8F11
330
8F16
330
8F1A
  0
XRECORD
  5
98A2
102
{ACAD_REACTORS
330
98A1
102
}
330
98A1
100
AcDbXrecord
280
     1
102
SHADEPLOT
 70
     0
102
SHADEPLOTRESLEVEL
 70
     2
102
SHADEPLOTCUSTOMDPI
 70
   300
  0
XRECORD
  5
98A4
102
{ACAD_REACTORS
330
98A3
102
}
330
98A3
100
AcDbXrecord
280
     1
102
SHADEPLOT
 70
     0
102
SHADEPLOTRESLEVEL
 70
     2
102
SHADEPLOTCUSTOMDPI
 70
   300
  0
XRECORD
  5
98A0
102
{ACAD_REACTORS
330
989F
102
}
330
989F
100
AcDbXrecord
280
     1
102
SHADEPLOT
 70
     0
102
SHADEPLOTRESLEVEL
 70
     2
102
SHADEPLOTCUSTOMDPI
 70
   300
  0
ENDSEC
  0
EOF
