  0
SECTION
  2
HEADER
  9
$ACADVER
  1
AC1014
  9
$ACADMAINTVER
 70
     9
  9
$DWGCODEPAGE
  3
ANSI_932
  9
$INSBASE
 10
0.0
 20
0.0
 30
0.0
  9
$EXTMIN
 10
-141.6450111500617
 20
-41.37044427621659
 30
0.0
  9
$EXTMAX
 10
27.01030015914957
 20
50.25462033083302
 30
0.0
  9
$LIMMIN
 10
-158.2607737873997
 20
-46.53576036793743
  9
$LIMMAX
 10
35.21464929765182
 20
60.38253800901737
  9
$ORTHOMODE
 70
     0
  9
$REGENMODE
 70
     1
  9
$FILLMODE
 70
     1
  9
$QTEXTMODE
 70
     0
  9
$MIRRTEXT
 70
     0
  9
$DRAGMODE
 70
     2
  9
$LTSCALE
 40
1.0
  9
$OSMODE
 70
  2103
  9
$ATTMODE
 70
     1
  9
$TEXTSIZE
 40
2.5
  9
$TRACEWID
 40
1.0
  9
$TEXTSTYLE
  7
STANDARD
  9
$CLAYER
  8
AM_0
  9
$CELTYPE
  6
BYLAYER
  9
$CECOLOR
 62
   256
  9
$CELTSCALE
 40
1.0
  9
$DELOBJ
 70
     1
  9
$DISPSILH
 70
     0
  9
$DIMSCALE
 40
0.5
  9
$DIMASZ
 40
2.5
  9
$DIMEXO
 40
1.0
  9
$DIMDLI
 40
12.0
  9
$DIMRND
 40
0.0
  9
$DIMDLE
 40
0.0
  9
$DIMEXE
 40
1.0
  9
$DIMTP
 40
0.1
  9
$DIMTM
 40
0.1
  9
$DIMTXT
 40
3.2
  9
$DIMCEN
 40
0.0
  9
$DIMTSZ
 40
0.0
  9
$DIMTOL
 70
     0
  9
$DIMLIM
 70
     0
  9
$DIMTIH
 70
     0
  9
$DIMTOH
 70
     0
  9
$DIMSE1
 70
     0
  9
$DIMSE2
 70
     0
  9
$DIMTAD
 70
     3
  9
$DIMZIN
 70
     8
  9
$DIMBLK
  1
OPEN30
  9
$DIMASO
 70
     1
  9
$DIMSHO
 70
     1
  9
$DIMPOST
  1

  9
$DIMAPOST
  1
"
  9
$DIMALT
 70
     0
  9
$DIMALTD
 70
     2
  9
$DIMALTF
 40
0.0393701
  9
$DIMLFAC
 40
1.0
  9
$DIMTOFL
 70
     1
  9
$DIMTVP
 40
0.0
  9
$DIMTIX
 70
     0
  9
$DIMSOXD
 70
     0
  9
$DIMSAH
 70
     0
  9
$DIMBLK1
  1

  9
$DIMBLK2
  1

  9
$DIMSTYLE
  2
AM_JIS
  9
$DIMCLRD
 70
   256
  9
$DIMCLRE
 70
   256
  9
$DIMCLRT
 70
     2
  9
$DIMTFAC
 40
0.71
  9
$DIMGAP
 40
1.5
  9
$DIMJUST
 70
     0
  9
$DIMSD1
 70
     0
  9
$DIMSD2
 70
     0
  9
$DIMTOLJ
 70
     0
  9
$DIMTZIN
 70
     0
  9
$DIMALTZ
 70
     0
  9
$DIMALTTZ
 70
     0
  9
$DIMFIT
 70
     3
  9
$DIMUPT
 70
     0
  9
$DIMUNIT
 70
     2
  9
$DIMDEC
 70
     3
  9
$DIMTDEC
 70
     3
  9
$DIMALTU
 70
     2
  9
$DIMALTTD
 70
     2
  9
$DIMTXSTY
  7
ASAMI
  9
$DIMAUNIT
 70
     0
  9
$LUNITS
 70
     2
  9
$LUPREC
 70
     2
  9
$SKETCHINC
 40
1.0
  9
$FILLETRAD
 40
0.4
  9
$AUNITS
 70
     0
  9
$AUPREC
 70
     0
  9
$MENU
  1
.
  9
$ELEVATION
 40
0.0
  9
$PELEVATION
 40
0.0
  9
$THICKNESS
 40
0.0
  9
$LIMCHECK
 70
     1
  9
$BLIPMODE
 70
     0
  9
$CHAMFERA
 40
1.0
  9
$CHAMFERB
 40
1.0
  9
$CHAMFERC
 40
20.0
  9
$CHAMFERD
 40
0.0
  9
$SKPOLY
 70
     0
  9
$TDCREATE
 40
2452802.716478761
  9
$TDUPDATE
 40
2452941.604951342
  9
$TDINDWG
 40
0.7816453241
  9
$TDUSRTIMER
 40
0.7816453241
  9
$USRTIMER
 70
     1
  9
$ANGBASE
 50
0.0
  9
$ANGDIR
 70
     0
  9
$PDMODE
 70
     0
  9
$PDSIZE
 40
0.0
  9
$PLINEWID
 40
0.0
  9
$COORDS
 70
     0
  9
$SPLFRAME
 70
     0
  9
$SPLINETYPE
 70
     6
  9
$SPLINESEGS
 70
     8
  9
$ATTDIA
 70
     1
  9
$ATTREQ
 70
     1
  9
$HANDLING
 70
 12289
  9
$HANDSEED
  5
6D87
  9
$SURFTAB1
 70
     6
  9
$SURFTAB2
 70
     6
  9
$SURFTYPE
 70
     6
  9
$SURFU
 70
     6
  9
$SURFV
 70
     6
  9
$UCSNAME
  2

  9
$UCSORG
 10
-0.0000000000002682
 20
0.000000000000161
 30
0.0
  9
$UCSXDIR
 10
1.0
 20
0.000000000000002
 30
0.0
  9
$UCSYDIR
 10
-0.000000000000002
 20
1.0
 30
0.0
  9
$PUCSNAME
  2

  9
$PUCSORG
 10
0.0
 20
0.0
 30
0.0
  9
$PUCSXDIR
 10
1.0
 20
0.0
 30
0.0
  9
$PUCSYDIR
 10
0.0
 20
1.0
 30
0.0
  9
$USERI1
 70
     0
  9
$USERI2
 70
     0
  9
$USERI3
 70
     0
  9
$USERI4
 70
     0
  9
$USERI5
 70
     0
  9
$USERR1
 40
0.0
  9
$USERR2
 40
0.0
  9
$USERR3
 40
0.0
  9
$USERR4
 40
0.0
  9
$USERR5
 40
0.0
  9
$WORLDVIEW
 70
     1
  9
$SHADEDGE
 70
     3
  9
$SHADEDIF
 70
    70
  9
$TILEMODE
 70
     1
  9
$MAXACTVP
 70
    64
  9
$PINSBASE
 10
0.0
 20
0.0
 30
0.0
  9
$PLIMCHECK
 70
     0
  9
$PEXTMIN
 10
1.000000000000000E+20
 20
1.000000000000000E+20
 30
1.000000000000000E+20
  9
$PEXTMAX
 10
-1.000000000000000E+20
 20
-1.000000000000000E+20
 30
-1.000000000000000E+20
  9
$PLIMMIN
 10
0.0
 20
0.0
  9
$PLIMMAX
 10
841.0
 20
594.0
  9
$UNITMODE
 70
     0
  9
$VISRETAIN
 70
     1
  9
$PLINEGEN
 70
     0
  9
$PSLTSCALE
 70
     0
  9
$TREEDEPTH
 70
  3020
  9
$PICKSTYLE
 70
     0
  9
$CMLSTYLE
  2
STANDARD
  9
$CMLJUST
 70
     0
  9
$CMLSCALE
 40
20.0
  9
$PROXYGRAPHICS
 70
     1
  9
$MEASUREMENT
 70
     1
  0
ENDSEC
  0
SECTION
  2
CLASSES
  0
CLASS
  1
ACDBDICTIONARYWDFLT
  2
AcDbDictionaryWithDefault
  3
AutoCAD 2000
 90
        0
280
     0
281
     0
  0
CLASS
  1
ACDBPLACEHOLDER
  2
AcDbPlaceHolder
  3
AutoCAD 2000
 90
        0
280
     0
281
     0
  0
CLASS
  1
LAYOUT
  2
AcDbLayout
  3
AutoCAD 2000
 90
        0
280
     0
281
     0
  0
CLASS
  1
AMGSETTINGSOBJ
  2
AmgSettingsObj
  3
"AcadM|Product Description: AutoCAD Mechanical 2000|Company: Autodesk"
 90
        0
280
     0
281
     0
  0
CLASS
  1
ACME_DOCUMENT
  2
AcMeDbDoc
  3
AcMeServices
 90
        0
280
     0
281
     0
  0
CLASS
  1
ACMESCOPE
  2
AcMeScope
  3
AcMeServices
 90
        0
280
     0
281
     0
  0
CLASS
  1
ACMECOMMANDHISTORY
  2
AcMeCommandHistory
  3
AcMeServices
 90
        0
280
     0
281
     0
  0
CLASS
  1
DICTIONARYVAR
  2
AcDbDictionaryVar
  3
AutoCAD 2000
 90
        0
280
     0
281
     0
  0
CLASS
  1
ACIMSYSVARMAN
  2
AcImSysVarManager
  3
AcMeServices
 90
        0
280
     0
281
     0
  0
CLASS
  1
ACIMREALSYSVAR
  2
AcImRealSysVar
  3
AcMeServices
 90
        0
280
     0
281
     0
  0
CLASS
  1
ACIMINTSYSVAR
  2
AcImIntSysVar
  3
AcMeServices
 90
        0
280
     0
281
     0
  0
CLASS
  1
ACMEDRAWINGMAN
  2
AcMeDrawingMan
  3
AcMeServices
 90
        0
280
     0
281
     0
  0
CLASS
  1
ACMEVIEW
  2
AcMeView
  3
AcMeServices
 90
        0
280
     0
281
     0
  0
CLASS
  1
ACDBENTITYCACHE
  2
AcMeEntityCache
  3
AcMeServices
 90
        0
280
     0
281
     0
  0
CLASS
  1
GSMANAGER
  2
AcMeGSManager
  3
AcMeServices
 90
        0
280
     0
281
     0
  0
CLASS
  1
AmdtInternalReactor
  2
AmdtInternalReactor
  3
AcMeServices
 90
        0
280
     0
281
     0
  0
CLASS
  1
ACMESTATEMGR
  2
AcMeStateMgr
  3
AcMeServices
 90
        0
280
     0
281
     0
  0
CLASS
  1
ACME_DATABASE
  2
AcMeDbDatabase
  3
AcMeServices
 90
        0
280
     0
281
     0
  0
CLASS
  1
ACRFINSADJUSTERMGR
  2
AcRfInsAdjusterMgr
  3
AcMeServices
 90
        0
280
     0
281
     0
  0
CLASS
  1
ACMDATADICTIONARY
  2
AcmDataDictionary
  3
"AcmSymBB|Product Description: AutoCAD Mechanical 2000|Company: Autodesk"
 90
        0
280
     0
281
     0
  0
CLASS
  1
ACMDATAENTRYBLOCK
  2
AcmDataEntryBlock
  3
"AcmSymBB|Product Description: AutoCAD Mechanical 2000|Company: Autodesk"
 90
        0
280
     0
281
     0
  0
CLASS
  1
AMGOBJPROPCFG
  2
AmgObjPropCfg
  3
"AmgLay|Product Description: AutoCAD Mechanical 2000|Company: Autodesk"
 90
        1
280
     0
281
     0
  0
CLASS
  1
ACAMGFILTERDAT
  2
AcAmgFilterDat
  3
"AcadM|Product Description: AutoCAD Mechanical 2000|Company: Autodesk"
 90
        0
280
     0
281
     0
  0
CLASS
  1
LAYER_INDEX
  2
AcDbLayerIndex
  3
AutoCAD 2000
 90
        0
280
     0
281
     0
  0
CLASS
  1
IDBUFFER
  2
AcDbIdBuffer
  3
AutoCAD 2000
 90
        0
280
     0
281
     0
  0
CLASS
  1
ACIMSTRSYSVAR
  2
AcImStrSysVar
  3
AcMeServices
 90
        0
280
     0
281
     0
  0
CLASS
  1
ACMSTANDARDJIS
  2
AcmStandardJIS
  3
"AcmSymBB|Product Description: AutoCAD Mechanical 2000|Company: Autodesk"
 90
        0
280
     0
281
     0
  0
CLASS
  1
ACMSURFSTANDARDJIS
  2
AcmSurfTextStdJIS
  3
"AcmSymBB|Product Description: AutoCAD Mechanical 2000|Company: Autodesk"
 90
        0
280
     0
281
     0
  0
CLASS
  1
ACMFCFSTANDARDJIS
  2
AcmFCFStdJIS
  3
"AcmSymBB|Product Description: AutoCAD Mechanical 2000|Company: Autodesk"
 90
        0
280
     0
281
     0
  0
CLASS
  1
ACMWELDSTANDARDJIS
  2
AcmWeldingStdJIS
  3
"AcmSymBB|Product Description: AutoCAD Mechanical 2000|Company: Autodesk"
 90
        0
280
     0
281
     0
  0
CLASS
  1
ACMIDSTANDARDJIS
  2
AcmIdStdJIS
  3
"AcmSymBB|Product Description: AutoCAD Mechanical 2000|Company: Autodesk"
 90
        0
280
     0
281
     0
  0
CLASS
  1
ACMDATUMSTANDARDJIS
  2
AcmDatumStdJIS
  3
"AcmSymBB|Product Description: AutoCAD Mechanical 2000|Company: Autodesk"
 90
        0
280
     0
281
     0
  0
CLASS
  1
ACMBOMSTANDARDJIS
  2
AcmBOMStdJIS
  3
"AcmSymBB|Product Description: AutoCAD Mechanical 2000|Company: Autodesk"
 90
        0
280
     0
281
     0
  0
CLASS
  1
ACMSTANDARDANSI
  2
AcmStandardANSI
  3
"AcmSymBB|Product Description: AutoCAD Mechanical 2000|Company: Autodesk"
 90
        0
280
     0
281
     0
  0
CLASS
  1
ACMSURFSTANDARDANSI
  2
AcmSurfTextStdANSI
  3
"AcmSymBB|Product Description: AutoCAD Mechanical 2000|Company: Autodesk"
 90
        0
280
     0
281
     0
  0
CLASS
  1
ACMFCFSTANDARDANSI
  2
AcmFCFStdANSI
  3
"AcmSymBB|Product Description: AutoCAD Mechanical 2000|Company: Autodesk"
 90
        0
280
     0
281
     0
  0
CLASS
  1
ACMWELDSTANDARDANSI
  2
AcmWeldingStdANSI
  3
"AcmSymBB|Product Description: AutoCAD Mechanical 2000|Company: Autodesk"
 90
        0
280
     0
281
     0
  0
CLASS
  1
ACMIDSTANDARDANSI
  2
AcmIdStdANSI
  3
"AcmSymBB|Product Description: AutoCAD Mechanical 2000|Company: Autodesk"
 90
        0
280
     0
281
     0
  0
CLASS
  1
ACMDATUMSTANDARDANSI
  2
AcmDatumStdANSI
  3
"AcmSymBB|Product Description: AutoCAD Mechanical 2000|Company: Autodesk"
 90
        0
280
     0
281
     0
  0
CLASS
  1
ACMBOMSTANDARDANSI
  2
AcmBOMStdANSI
  3
"AcmSymBB|Product Description: AutoCAD Mechanical 2000|Company: Autodesk"
 90
        0
280
     0
281
     0
  0
CLASS
  1
ACMSTANDARDBSI
  2
AcmStandardBSI
  3
"AcmSymBB|Product Description: AutoCAD Mechanical 2000|Company: Autodesk"
 90
        0
280
     0
281
     0
  0
CLASS
  1
ACMSURFSTANDARDBSI
  2
AcmSurfTextStdBSI
  3
"AcmSymBB|Product Description: AutoCAD Mechanical 2000|Company: Autodesk"
 90
        0
280
     0
281
     0
  0
CLASS
  1
ACMFCFSTANDARDBSI
  2
AcmFCFStdBSI
  3
"AcmSymBB|Product Description: AutoCAD Mechanical 2000|Company: Autodesk"
 90
        0
280
     0
281
     0
  0
CLASS
  1
ACMWELDSTANDARDBSI
  2
AcmWeldingStdBSI
  3
"AcmSymBB|Product Description: AutoCAD Mechanical 2000|Company: Autodesk"
 90
        0
280
     0
281
     0
  0
CLASS
  1
ACMIDSTANDARDBSI
  2
AcmIdStdBSI
  3
"AcmSymBB|Product Description: AutoCAD Mechanical 2000|Company: Autodesk"
 90
        0
280
     0
281
     0
  0
CLASS
  1
ACMDATUMSTANDARDBSI
  2
AcmDatumStdBSI
  3
"AcmSymBB|Product Description: AutoCAD Mechanical 2000|Company: Autodesk"
 90
        0
280
     0
281
     0
  0
CLASS
  1
ACMBOMSTANDARDBSI
  2
AcmBOMStdBSI
  3
"AcmSymBB|Product Description: AutoCAD Mechanical 2000|Company: Autodesk"
 90
        0
280
     0
281
     0
  0
CLASS
  1
STDPART2D
  2
AmgStdPart
  3
"AmgStdPart|Product Description: AutoCAD Mechanical 2000|Company: Autodesk"
 90
     1023
280
     0
281
     1
  0
CLASS
  1
PLOTSETTINGS
  2
AcDbPlotSettings
  3
AutoCAD 2000
 90
        0
280
     0
281
     0
  0
CLASS
  1
LONG_TRANSACTION
  2
AcDbLongTransaction
  3
AutoCAD 2000
 90
        0
280
     0
281
     0
  0
CLASS
  1
LWPOLYLINE
  2
AcDbPolyline
  3
AutoCAD 2000
 90
        0
280
     0
281
     1
  0
CLASS
  1
HATCH
  2
AcDbHatch
  3
AutoCAD 2000
 90
        0
280
     0
281
     1
  0
CLASS
  1
XRECORD
  2
AcDbXrecord
  3
AutoCAD 2000
 90
        0
280
     0
281
     0
  0
ENDSEC
  0
SECTION
  2
TABLES
  0
TABLE
  2
VPORT
  5
8
330
0
100
AcDbSymbolTable
 70
     3
  0
VPORT
  5
6D24
330
8
100
AcDbSymbolTableRecord
100
AcDbViewportTableRecord
  2
*ACTIVE
 70
     0
 10
0.0
 20
0.0
 11
1.0
 21
1.0
 12
-43.49386217785323
 22
21.34967566923053
 13
0.0
 23
0.0
 14
2.5
 24
2.5
 15
10.0
 25
10.0
 16
0.0
 26
0.0
 36
1.0
 17
0.0
 27
0.0
 37
0.0
 40
160.3961529374292
 41
1.609042553191489
 42
50.0
 43
0.0
 44
0.0
 50
0.0
 51
0.0
 71
     0
 72
   100
 73
     1
 74
     3
 75
     0
 76
     0
 77
     0
 78
     0
  0
ENDTAB
  0
TABLE
  2
LTYPE
  5
5
330
0
100
AcDbSymbolTable
 70
    10
  0
LTYPE
  5
14
330
5
100
AcDbSymbolTableRecord
100
AcDbLinetypeTableRecord
  2
BYBLOCK
 70
     0
  3

 72
    65
 73
     0
 40
0.0
  0
LTYPE
  5
15
330
5
100
AcDbSymbolTableRecord
100
AcDbLinetypeTableRecord
  2
BYLAYER
 70
     0
  3

 72
    65
 73
     0
 40
0.0
  0
LTYPE
  5
16
330
5
100
AcDbSymbolTableRecord
100
AcDbLinetypeTableRecord
  2
CONTINUOUS
 70
     0
  3
Solid line
 72
    65
 73
     0
 40
0.0
  0
LTYPE
  5
4B
330
5
100
AcDbSymbolTableRecord
100
AcDbLinetypeTableRecord
  2
AM_ISO02W050
 70
     0
  3
__ __ __ __ __ __ __ __ __ __ __ __ __ __ __
 72
    65
 73
     2
 40
7.5
 49
6.0
 74
     0
 49
-1.5
 74
     0
  0
LTYPE
  5
4C
330
5
100
AcDbSymbolTableRecord
100
AcDbLinetypeTableRecord
  2
AM_ISO08W050
 70
     0
  3
____ . ____ . ____ . ____ . ____ . ____ . ____
 72
    65
 73
     4
 40
18.0
 49
12.0
 74
     0
 49
-1.5
 74
     0
 49
3.0
 74
     0
 49
-1.5
 74
     0
  0
LTYPE
  5
4D
330
5
100
AcDbSymbolTableRecord
100
AcDbLinetypeTableRecord
  2
AM_ISO09W050
 70
     0
  3
_____ . . _____ . . _____ . . ____ .. ____
 72
    65
 73
     6
 40
22.5
 49
12.0
 74
     0
 49
-1.5
 74
     0
 49
3.0
 74
     0
 49
-1.5
 74
     0
 49
3.0
 74
     0
 49
-1.5
 74
     0
  0
LTYPE
  5
4E
330
5
100
AcDbSymbolTableRecord
100
AcDbLinetypeTableRecord
  2
AMCONSTR
 70
     0
  3
_______________________
 72
    65
 73
     2
 40
9999.0
 49
9999.0
 74
     0
 49
0.0
 74
     0
  0
LTYPE
  5
4F
330
5
100
AcDbSymbolTableRecord
100
AcDbLinetypeTableRecord
  2
AM_ISO02W050X2
 70
     0
  3
 _ _ _ _ _ _ _ _ _ _ _ _
 72
    65
 73
     2
 40
3.75
 49
3.0
 74
     0
 49
-0.75
 74
     0
  0
LTYPE
  5
50
330
5
100
AcDbSymbolTableRecord
100
AcDbLinetypeTableRecord
  2
AM_ISO08W050X2
 70
     0
  3
__ . __ . __ . __ . __ . __
 72
    65
 73
     4
 40
9.0
 49
6.0
 74
     0
 49
-0.75
 74
     0
 49
1.5
 74
     0
 49
-0.75
 74
     0
  0
LTYPE
  5
53
330
5
100
AcDbSymbolTableRecord
100
AcDbLinetypeTableRecord
  2
AMZIGZAG
 70
     0
  3
/\/-/\/-/\/-/\/-/\/-/\/
 72
    65
 73
     2
 40
11.00009999999999
 49
0.0001
 74
     4
 75
   135
340
52
 46
0.04
 50
0.0
 44
0.0
 45
0.0
 49
-11.0
 74
     0
  0
LTYPE
  5
166
330
5
100
AcDbSymbolTableRecord
100
AcDbLinetypeTableRecord
  2
ACJISTGL
 70
     0
  3
_ _ _ _ _
 72
    65
 73
     2
 40
3.0
 49
2.0
 74
     0
 49
-1.0
 74
     0
  0
LTYPE
  5
26A
330
5
100
AcDbSymbolTableRecord
100
AcDbLinetypeTableRecord
  2
ACJISTGB
 70
     0
  3
__ . . __ . .
 72
    65
 73
     6
 40
9.0
 49
4.0
 74
     0
 49
-1.0
 74
     0
 49
1.0
 74
     0
 49
-1.0
 74
     0
 49
1.0
 74
     0
 49
-1.0
 74
     0
  0
ENDTAB
  0
TABLE
  2
LAYER
  5
2
330
0
100
AcDbSymbolTable
 70
     9
  0
LAYER
  5
10
330
2
100
AcDbSymbolTableRecord
100
AcDbLayerTableRecord
  2
0
 70
     0
 62
     7
  6
CONTINUOUS
  0
LAYER
  5
3F9
330
2
100
AcDbSymbolTableRecord
100
AcDbLayerTableRecord
  2
AM_0
 70
     0
 62
     7
  6
CONTINUOUS
  0
LAYER
  5
BA4
330
2
100
AcDbSymbolTableRecord
100
AcDbLayerTableRecord
  2
AM_5
 70
     0
 62
     3
  6
CONTINUOUS
  0
LAYER
  5
BA5
330
2
100
AcDbSymbolTableRecord
100
AcDbLayerTableRecord
  2
AM_11
 70
     0
 62
     3
  6
AM_ISO09W050
  0
LAYER
  5
BA6
330
2
100
AcDbSymbolTableRecord
100
AcDbLayerTableRecord
  2
AM_7
 70
     0
 62
     4
  6
AM_ISO08W050
  0
LAYER
  5
E64
330
2
100
AcDbSymbolTableRecord
100
AcDbLayerTableRecord
  2
AM_6
 70
     0
 62
     2
  6
CONTINUOUS
  0
LAYER
  5
F4D
330
2
100
AcDbSymbolTableRecord
100
AcDbLayerTableRecord
  2
DEFPOINTS
 70
     0
 62
     7
  6
CONTINUOUS
  0
LAYER
  5
2382
330
2
100
AcDbSymbolTableRecord
100
AcDbLayerTableRecord
  2
AM_3
 70
     0
 62
     6
  6
ACJISTGL
  0
LAYER
  5
3B47
330
2
100
AcDbSymbolTableRecord
100
AcDbLayerTableRecord
  2
PV0001_1
 70
     0
 62
     7
  6
CONTINUOUS
  0
ENDTAB
  0
TABLE
  2
STYLE
  5
3
330
0
100
AcDbSymbolTable
 70
     5
  0
STYLE
  5
11
330
3
100
AcDbSymbolTableRecord
100
AcDbTextStyleTableRecord
  2
STANDARD
 70
     0
 40
0.0
 41
1.0
 50
0.0
 71
     0
 42
2.5
  3
simplex.shx
  4
EXTFONT.SHX
  0
STYLE
  5
52
330
3
100
AcDbSymbolTableRecord
100
AcDbTextStyleTableRecord
  2

 70
     1
 40
0.0
 41
1.0
 50
0.0
 71
     0
 42
2.5
  3
ltypeshp.shx
  4

  0
STYLE
  5
6B
330
3
100
AcDbSymbolTableRecord
100
AcDbTextStyleTableRecord
  2
ASAMI
 70
     0
 40
0.0
 41
1.0
 50
0.0
 71
     0
 42
2.5
  3
simplex.shx
  4
EXTFONT.SHX
  0
STYLE
  5
262
330
3
100
AcDbSymbolTableRecord
100
AcDbTextStyleTableRecord
  2
ACJISTS
 70
     0
 40
1.0
 41
1.0
 50
0.0
 71
     0
 42
2.5
  3
simplex.shx
  4
bigfont.shx
  0
STYLE
  5
269
330
3
100
AcDbSymbolTableRecord
100
AcDbTextStyleTableRecord
  2
ACJISGDT
 70
     0
 40
0.0
 41
1.0
 50
0.0
 71
     0
 42
2.5
  3
amgdtans.shx
  4

  0
ENDTAB
  0
TABLE
  2
VIEW
  5
6
330
0
100
AcDbSymbolTable
 70
     0
  0
ENDTAB
  0
TABLE
  2
UCS
  5
7
330
0
100
AcDbSymbolTable
 70
     0
  0
ENDTAB
  0
TABLE
  2
APPID
  5
9
330
0
100
AcDbSymbolTable
 70
    24
  0
APPID
  5
12
330
9
100
AcDbSymbolTableRecord
100
AcDbRegAppTableRecord
  2
ACAD
 70
     0
  0
APPID
  5
30
330
9
100
AcDbSymbolTableRecord
100
AcDbRegAppTableRecord
  2
MCAD_NO_VIS
 70
     0
  0
APPID
  5
31
330
9
100
AcDbSymbolTableRecord
100
AcDbRegAppTableRecord
  2
ACAD_TEMP_GRAPHIC
 70
     0
  0
APPID
  5
2C2
330
9
100
AcDbSymbolTableRecord
100
AcDbRegAppTableRecord
  2
GENIUS_GENDTOL_13
 70
     0
  0
APPID
  5
339
330
9
100
AcDbSymbolTableRecord
100
AcDbRegAppTableRecord
  2
GENIUS_GENODEF_13
 70
     0
  0
APPID
  5
33A
330
9
100
AcDbSymbolTableRecord
100
AcDbRegAppTableRecord
  2
GENIUS_GENOBJ-N-RSBK_13
 70
     0
  0
APPID
  5
33B
330
9
100
AcDbSymbolTableRecord
100
AcDbRegAppTableRecord
  2
GENIUS_GENOBJ-N-LIB_13
 70
     0
  0
APPID
  5
33C
330
9
100
AcDbSymbolTableRecord
100
AcDbRegAppTableRecord
  2
GENIUS_GENSCALE_13
 70
     0
  0
APPID
  5
378
330
9
100
AcDbSymbolTableRecord
100
AcDbRegAppTableRecord
  2
GENIUS_GENDIMSH_14
 70
     0
  0
APPID
  5
BB0
330
9
100
AcDbSymbolTableRecord
100
AcDbRegAppTableRecord
  2
GENIUS_GENOBJ-N-CEN_13
 70
     0
  0
APPID
  5
BB1
330
9
100
AcDbSymbolTableRecord
100
AcDbRegAppTableRecord
  2
GENIUS_GENFIL_13
 70
     0
  0
APPID
  5
BB2
330
9
100
AcDbSymbolTableRecord
100
AcDbRegAppTableRecord
  2
GENIUS_GENOBJ-N-CHA_13
 70
     0
  0
APPID
  5
1FAF
330
9
100
AcDbSymbolTableRecord
100
AcDbRegAppTableRecord
  2
GENIUS_GENOBJ-N-CRS_13
 70
     0
  0
APPID
  5
1FB0
330
9
100
AcDbSymbolTableRecord
100
AcDbRegAppTableRecord
  2
GENIUS_GENOENT_13
 70
     0
  0
APPID
  5
1FB1
330
9
100
AcDbSymbolTableRecord
100
AcDbRegAppTableRecord
  2
GENIUS_GENOREF_13
 70
     0
  0
APPID
  5
1FB2
330
9
100
AcDbSymbolTableRecord
100
AcDbRegAppTableRecord
  2
GENIUS_GENOLIS_13
 70
     0
  0
APPID
  5
1FB7
330
9
100
AcDbSymbolTableRecord
100
AcDbRegAppTableRecord
  2
GENIUS_GENOBJ-N-FIL_13
 70
     0
  0
APPID
  5
22A8
330
9
100
AcDbSymbolTableRecord
100
AcDbRegAppTableRecord
  2
GEVID1056506048
 70
     0
  0
APPID
  5
22A9
330
9
100
AcDbSymbolTableRecord
100
AcDbRegAppTableRecord
  2
GEVDC
 70
     0
  0
APPID
  5
22AC
330
9
100
AcDbSymbolTableRecord
100
AcDbRegAppTableRecord
  2
GENIUS_GENBH_13
 70
     0
  0
APPID
  5
22B8
330
9
100
AcDbSymbolTableRecord
100
AcDbRegAppTableRecord
  2
GENIUS_GENOBJ-NBEHI-BHF_13
 70
     0
  0
APPID
  5
22BA
330
9
100
AcDbSymbolTableRecord
100
AcDbRegAppTableRecord
  2
GENIUS_GENOBJ-NBEHI-BHB_13
 70
     0
  0
APPID
  5
35C9
330
9
100
AcDbSymbolTableRecord
100
AcDbRegAppTableRecord
  2
GENIUS_GENREC_14
 70
     0
  0
APPID
  5
35CA
330
9
100
AcDbSymbolTableRecord
100
AcDbRegAppTableRecord
  2
GENIUS_GENOBJ-N-REC_13
 70
     0
  0
ENDTAB
  0
TABLE
  2
DIMSTYLE
  5
A
330
0
100
AcDbSymbolTable
 70
    10
  0
DIMSTYLE
105
58
330
A
100
AcDbSymbolTableRecord
100
AcDbDimStyleTableRecord
  2
AM_JIS
 70
     0
  3

  4
"
  5
OPEN30
  6

  7

 40
0.5
 41
2.5
 42
1.0
 43
12.0
 44
1.0
 45
0.0
 46
0.0
 47
0.1
 48
0.1
140
3.2
141
0.0
142
0.0
143
0.0393701
144
1.0
145
0.0
146
0.71
147
1.5
 71
     0
 72
     0
 73
     0
 74
     0
 75
     0
 76
     0
 77
     3
 78
     8
170
     0
171
     2
172
     1
173
     0
174
     0
175
     0
176
   256
177
   256
178
     2
270
     2
271
     3
272
     3
273
     2
274
     2
340
6B
275
     0
280
     0
281
     0
282
     0
283
     0
284
     0
285
     0
286
     0
287
     3
288
     0
  0
DIMSTYLE
105
5F
330
A
100
AcDbSymbolTableRecord
100
AcDbDimStyleTableRecord
  2
AM_JIS$3
 70
     0
  3

  4
"
  5
OPEN30
  6

  7

 40
0.5
 41
2.5
 42
1.0
 43
10.0
 44
1.0
 45
0.0
 46
0.0
 47
0.1
 48
0.1
140
3.2
141
0.0
142
0.0
143
0.0393701
144
1.0
145
0.0
146
0.71
147
1.5
 71
     0
 72
     0
 73
     0
 74
     1
 75
     0
 76
     0
 77
     3
 78
     8
170
     0
171
     2
172
     0
173
     0
174
     0
175
     0
176
   256
177
   256
178
     2
270
     2
271
     2
272
     3
273
     2
274
     2
340
6B
275
     0
280
     0
281
     0
282
     0
283
     0
284
     0
285
     0
286
     0
287
     0
288
     1
  0
DIMSTYLE
105
60
330
A
100
AcDbSymbolTableRecord
100
AcDbDimStyleTableRecord
  2
AM_JIS$4
 70
     0
  3

  4
"
  5
OPEN30
  6

  7

 40
0.5
 41
2.5
 42
1.0
 43
10.0
 44
1.0
 45
0.0
 46
0.0
 47
0.1
 48
0.1
140
3.2
141
0.0
142
0.0
143
0.0393701
144
1.0
145
0.0
146
0.71
147
1.5
 71
     0
 72
     0
 73
     0
 74
     1
 75
     0
 76
     0
 77
     3
 78
     8
170
     0
171
     2
172
     0
173
     0
174
     0
175
     0
176
   256
177
   256
178
     2
270
     2
271
     2
272
     3
273
     2
274
     2
340
6B
275
     0
280
     0
281
     0
282
     0
283
     0
284
     0
285
     0
286
     0
287
     0
288
     1
  0
DIMSTYLE
105
61
330
A
100
AcDbSymbolTableRecord
100
AcDbDimStyleTableRecord
  2
AM_JIS$6
 70
     0
  3

  4
"
  5
OPEN30
  6

  7

 40
0.5
 41
2.5
 42
1.0
 43
10.0
 44
1.0
 45
0.0
 46
0.0
 47
0.1
 48
0.1
140
3.2
141
0.0
142
0.0
143
0.0393701
144
1.0
145
0.0
146
0.71
147
1.5
 71
     0
 72
     0
 73
     0
 74
     0
 75
     0
 76
     0
 77
     0
 78
     8
170
     0
171
     2
172
     1
173
     0
174
     0
175
     0
176
   256
177
   256
178
     2
270
     2
271
     2
272
     2
273
     2
274
     2
340
6B
275
     0
280
     0
281
     0
282
     0
283
     0
284
     0
285
     0
286
     0
287
     3
288
     0
  0
DIMSTYLE
105
62
330
A
100
AcDbSymbolTableRecord
100
AcDbDimStyleTableRecord
  2
AM_JIS$7
 70
     0
  3

  4
"
  5
OPEN30
  6

  7

 40
0.5
 41
2.5
 42
1.0
 43
10.0
 44
1.0
 45
0.0
 46
0.0
 47
0.1
 48
0.1
140
3.2
141
0.0
142
0.0
143
0.0393701
144
1.0
145
0.0
146
0.71
147
1.5
 71
     0
 72
     0
 73
     0
 74
     0
 75
     0
 76
     0
 77
     3
 78
     8
170
     0
171
     2
172
     1
173
     0
174
     0
175
     0
176
   256
177
   256
178
     2
270
     2
271
     2
272
     3
273
     2
274
     2
340
6B
275
     0
280
     0
281
     0
282
     0
283
     0
284
     0
285
     0
286
     0
287
     3
288
     0
  0
DIMSTYLE
105
63
330
A
100
AcDbSymbolTableRecord
100
AcDbDimStyleTableRecord
  2
AM_JIS$SF
 70
     0
  3

  4
"
  5
OPEN30
  6

  7

 40
0.5
 41
2.5
 42
1.0
 43
10.0
 44
1.0
 45
0.0
 46
0.0
 47
0.1
 48
0.1
140
3.2
141
0.0
142
0.0
143
0.0393701
144
1.0
145
0.0
146
0.71
147
1.5
 71
     0
 72
     0
 73
     0
 74
     0
 75
     1
 76
     1
 77
     3
 78
     8
170
     0
171
     2
172
     1
173
     0
174
     0
175
     0
176
   256
177
   256
178
     2
270
     2
271
     2
272
     2
273
     2
274
     2
340
6B
275
     0
280
     0
281
     0
282
     0
283
     0
284
     0
285
     0
286
     0
287
     3
288
     0
  0
DIMSTYLE
105
68
330
A
100
AcDbSymbolTableRecord
100
AcDbDimStyleTableRecord
  2
AM_JIS$SH
 70
     0
  3

  4
"
  5

  6
GENAXEH
  7
OPEN30
 40
0.5
 41
2.5
 42
1.0
 43
10.0
 44
1.0
 45
0.0
 46
0.0
 47
0.1
 48
0.1
140
3.2
141
0.0
142
0.0
143
0.0393701
144
2.0
145
0.0
146
0.71
147
1.5
 71
     0
 72
     0
 73
     0
 74
     0
 75
     1
 76
     1
 77
     3
 78
     8
170
     0
171
     2
172
     1
173
     1
174
     0
175
     0
176
   256
177
   256
178
     2
270
     2
271
     2
272
     2
273
     2
274
     2
340
6B
275
     0
280
     0
281
     0
282
     0
283
     0
284
     0
285
     0
286
     0
287
     3
288
     0
  0
DIMSTYLE
105
B34
102
{ACAD_REACTORS
330
69EA
102
}
330
A
100
AcDbSymbolTableRecord
100
AcDbDimStyleTableRecord
  2
AM_JIS$2
 70
     0
  3

  4
"
  5
OPEN30
  6

  7

 40
0.5
 41
2.5
 42
1.0
 43
12.0
 44
1.0
 45
0.0
 46
0.0
 47
0.1
 48
0.1
140
3.2
141
0.0
142
0.0
143
0.0393701
144
1.0
145
0.0
146
0.71
147
1.5
 71
     0
 72
     0
 73
     0
 74
     0
 75
     0
 76
     0
 77
     3
 78
     8
170
     0
171
     2
172
     1
173
     0
174
     0
175
     0
176
   256
177
   256
178
     2
270
     2
271
     3
272
     3
273
     2
274
     2
340
6B
275
     0
280
     0
281
     0
282
     0
283
     0
284
     0
285
     0
286
     0
287
     3
288
     0
  0
DIMSTYLE
105
3B48
102
{ACAD_REACTORS
330
675E
330
66A5
330
67FC
330
6891
330
695C
102
}
330
A
100
AcDbSymbolTableRecord
100
AcDbDimStyleTableRecord
  2
AM_JIS$0
 70
     0
  3

  4
"
  5
OPEN30
  6

  7

 40
1.0
 41
2.5
 42
0.0
 43
10.0
 44
1.0
 45
0.0
 46
0.0
 47
0.1
 48
0.1000000001
140
3.799999999999999
141
0.0
142
0.0
143
0.0393701
144
1.0
145
0.0
146
0.71
147
1.5
 71
     0
 72
     0
 73
     0
 74
     0
 75
     0
 76
     0
 77
     3
 78
     1
170
     0
171
     2
172
     1
173
     0
174
     0
175
     0
176
     3
177
     3
178
     2
270
     2
271
     2
272
     2
273
     2
274
     2
340
11
275
     1
280
     0
281
     0
282
     0
283
     0
284
     8
285
     0
286
     0
287
     0
288
     0
  0
DIMSTYLE
105
4503
330
A
100
AcDbSymbolTableRecord
100
AcDbDimStyleTableRecord
  2
AM_JISORG0P5$0
 70
     0
  3

  4
"
  5
OPEN30
  6

  7

 40
1.0
 41
2.5
 42
0.0
 43
10.0
 44
1.0
 45
0.0
 46
0.0
 47
0.1
 48
0.1000000001
140
3.799999999999999
141
0.0
142
0.0
143
0.0393701
144
0.5000004533313375
145
0.0
146
0.71
147
1.5
 71
     0
 72
     0
 73
     0
 74
     0
 75
     0
 76
     0
 77
     3
 78
     1
170
     0
171
     2
172
     1
173
     0
174
     0
175
     0
176
     3
177
     3
178
     2
270
     2
271
     2
272
     2
273
     2
274
     2
340
11
275
     1
280
     0
281
     0
282
     0
283
     0
284
     8
285
     0
286
     0
287
     0
288
     0
  0
ENDTAB
  0
TABLE
  2
BLOCK_RECORD
  5
1
330
0
100
AcDbSymbolTable
 70
    13
  0
BLOCK_RECORD
  5
1F
102
{ACAD_XDICTIONARY
360
74
102
}
330
1
100
AcDbSymbolTableRecord
100
AcDbBlockTableRecord
  2
*MODEL_SPACE
  0
BLOCK_RECORD
  5
101
102
{ACAD_XDICTIONARY
360
6D4D
102
}
330
1
100
AcDbSymbolTableRecord
100
AcDbBlockTableRecord
  2
*PAPER_SPACE
  0
BLOCK_RECORD
  5
59
330
1
100
AcDbSymbolTableRecord
100
AcDbBlockTableRecord
  2
_OPEN30
  0
BLOCK_RECORD
  5
64
330
1
100
AcDbSymbolTableRecord
100
AcDbBlockTableRecord
  2
GENAXEH
  0
BLOCK_RECORD
  5
5E69
330
1
100
AcDbSymbolTableRecord
100
AcDbBlockTableRecord
  2
*U5
  0
BLOCK_RECORD
  5
5E6D
330
1
100
AcDbSymbolTableRecord
100
AcDbBlockTableRecord
  2
*U6
  0
BLOCK_RECORD
  5
66A6
330
1
100
AcDbSymbolTableRecord
100
AcDbBlockTableRecord
  2
*D7
  0
BLOCK_RECORD
  5
675F
330
1
100
AcDbSymbolTableRecord
100
AcDbBlockTableRecord
  2
*D8
  0
BLOCK_RECORD
  5
67FD
330
1
100
AcDbSymbolTableRecord
100
AcDbBlockTableRecord
  2
*D9
  0
BLOCK_RECORD
  5
6892
330
1
100
AcDbSymbolTableRecord
100
AcDbBlockTableRecord
  2
*D10
  0
BLOCK_RECORD
  5
695D
330
1
100
AcDbSymbolTableRecord
100
AcDbBlockTableRecord
  2
*D11
  0
BLOCK_RECORD
  5
69EB
330
1
100
AcDbSymbolTableRecord
100
AcDbBlockTableRecord
  2
*D12
  0
ENDTAB
  0
ENDSEC
  0
SECTION
  2
BLOCKS
  0
BLOCK
  5
20
330
1F
100
AcDbEntity
  8
0
100
AcDbBlockBegin
  2
*MODEL_SPACE
 70
     0
 10
0.0
 20
0.0
 30
0.0
  3
*MODEL_SPACE
  1

  0
ENDBLK
  5
21
330
1F
100
AcDbEntity
  8
0
100
AcDbBlockEnd
  0
BLOCK
  5
103
330
101
100
AcDbEntity
 67
     1
  8
0
100
AcDbBlockBegin
  2
*PAPER_SPACE
 70
     0
 10
0.0
 20
0.0
 30
0.0
  3
*PAPER_SPACE
  1

  0
ENDBLK
  5
104
330
101
100
AcDbEntity
 67
     1
  8
0
100
AcDbBlockEnd
  0
BLOCK
  5
5D
330
59
100
AcDbEntity
  8
0
100
AcDbBlockBegin
  2
_OPEN30
 70
     0
 10
0.0
 20
0.0
 30
0.0
  3
_OPEN30
  1

  0
LINE
  5
5A
330
59
100
AcDbEntity
  8
0
 62
     0
100
AcDbLine
 10
-1.0
 20
0.26794919
 30
0.0
 11
0.0
 21
0.0
 31
0.0
  0
LINE
  5
5B
330
59
100
AcDbEntity
  8
0
 62
     0
100
AcDbLine
 10
0.0
 20
0.0
 30
0.0
 11
-1.0
 21
-0.26794919
 31
0.0
  0
LINE
  5
5C
330
59
100
AcDbEntity
  8
0
 62
     0
100
AcDbLine
 10
0.0
 20
0.0
 30
0.0
 11
-1.0
 21
0.0
 31
0.0
  0
ENDBLK
  5
5E
330
59
100
AcDbEntity
  8
0
100
AcDbBlockEnd
  0
BLOCK
  5
66
330
64
100
AcDbEntity
  8
0
100
AcDbBlockBegin
  2
GENAXEH
 70
     0
 10
0.0
 20
0.0
 30
0.0
  3
GENAXEH
  1

  0
LINE
  5
65
330
64
100
AcDbEntity
  8
0
100
AcDbLine
 10
-1.0
 20
0.0
 30
0.0
 11
1.0
 21
0.0
 31
0.0
  0
ENDBLK
  5
67
330
64
100
AcDbEntity
  8
0
100
AcDbBlockEnd
  0
BLOCK
  5
5E6B
330
5E69
100
AcDbEntity
  8
0
100
AcDbBlockBegin
  2
*U5
 70
     1
 10
0.0
 20
0.0
 30
0.0
  3
*U5
  1

  0
LEADER
  5
5E6A
330
5E69
100
AcDbEntity
  8
0
  6
CONTINUOUS
 48
0.5
100
AcDbLeader
  3
AM_JIS$7
 76
     2
 10
-35.56723785400299
 20
61.482246398925
 30
0.0
 10
-35.56723785400299
 20
51.482246398925
 30
0.0
1001
ACAD
1000
DSTYLE
1002
{
1070
     6
1000
OPEN30
1070
   173
1070
     1
1070
   176
1070
     0
1070
   341
1005
59
1002
}
  0
ENDBLK
  5
5E6C
330
5E69
100
AcDbEntity
  8
0
100
AcDbBlockEnd
  0
BLOCK
  5
5E6F
330
5E6D
100
AcDbEntity
  8
0
100
AcDbBlockBegin
  2
*U6
 70
     1
 10
0.0
 20
0.0
 30
0.0
  3
*U6
  1

  0
LEADER
  5
5E6E
330
5E6D
100
AcDbEntity
  8
0
  6
CONTINUOUS
 48
0.5
100
AcDbLeader
  3
AM_JIS$7
 76
     2
 10
-25.567237854003
 20
51.482246398925
 30
0.0
 10
-35.56723785400299
 20
51.482246398925
 30
0.0
1001
ACAD
1000
DSTYLE
1002
{
1070
     6
1000
OPEN30
1070
   173
1070
     1
1070
   176
1070
     0
1070
   341
1005
59
1002
}
  0
ENDBLK
  5
5E70
330
5E6D
100
AcDbEntity
  8
0
100
AcDbBlockEnd
  0
BLOCK
  5
66B0
330
66A6
100
AcDbEntity
  8
0
100
AcDbBlockBegin
  2
*D7
 70
     1
 10
0.0
 20
0.0
 30
0.0
  3
*D7
  1

  0
LINE
  5
6D4F
330
66A6
100
AcDbEntity
  8
AM_5
100
AcDbLine
 10
-125.4999986924975
 20
50.25462033083274
 30
0.0
 11
-139.7950111500617
 21
50.25462033083272
 31
0.0
  0
LINE
  5
6D50
330
66A6
100
AcDbEntity
  8
AM_5
100
AcDbLine
 10
-125.5000000000005
 20
30.38963009645776
 30
0.0
 11
-139.7950111500617
 21
30.38963009645774
 31
0.0
  0
LINE
  5
6D51
330
66A6
100
AcDbEntity
  8
AM_5
100
AcDbLine
 10
-139.2950111500617
 20
49.00462033083272
 30
0.0
 11
-139.2950111500617
 21
31.63963009645774
 31
0.0
  0
INSERT
  5
6D52
330
66A6
100
AcDbEntity
  8
AM_5
100
AcDbBlockReference
  2
_OPEN30
 10
-139.2950111500617
 20
50.25462033083272
 30
0.0
 41
1.25
 42
1.25
 43
1.25
 50
90.0000000000001
  0
INSERT
  5
6D53
330
66A6
100
AcDbEntity
  8
AM_5
100
AcDbBlockReference
  2
_OPEN30
 10
-139.2950111500617
 20
30.38963009645774
 30
0.0
 41
1.25
 42
1.25
 43
1.25
 50
270.0000000000001
  0
MTEXT
  5
6D54
330
66A6
100
AcDbEntity
  8
AM_5
 62
     2
100
AcDbMText
 10
-140.8450111500617
 20
40.32212521364523
 30
0.0
 40
1.6
 41
0.0
 71
     5
 72
     1
  1
20
  7
ASAMI
 11
-0.000000000000002
 21
1.0
 31
0.0
  0
POINT
  5
6D55
330
66A6
100
AcDbEntity
  8
DEFPOINTS
 62
     0
100
AcDbPoint
 10
-124.9999986924974
 20
50.25462033083302
 30
0.0
  0
POINT
  5
6D56
330
66A6
100
AcDbEntity
  8
DEFPOINTS
 62
     0
100
AcDbPoint
 10
-125.0000000000005
 20
30.38963009645804
 30
0.0
  0
POINT
  5
6D57
330
66A6
100
AcDbEntity
  8
DEFPOINTS
 62
     0
100
AcDbPoint
 10
-139.2950111500616
 20
30.38963009645805
 30
0.0
  0
ENDBLK
  5
66B1
330
66A6
100
AcDbEntity
  8
0
100
AcDbBlockEnd
  0
BLOCK
  5
6769
330
675F
100
AcDbEntity
  8
0
100
AcDbBlockBegin
  2
*D8
 70
     1
 10
0.0
 20
0.0
 30
0.0
  3
*D8
  1

  0
LINE
  5
6D58
330
675F
100
AcDbEntity
  8
AM_5
100
AcDbLine
 10
-125.4999986924973
 20
-0.6350095550172427
 30
0.0
 11
-137.7407685868932
 21
-0.6350095550172663
 31
0.0
  0
LINE
  5
6D59
330
675F
100
AcDbEntity
  8
AM_5
100
AcDbLine
 10
-125.5000000000003
 20
-20.49999978939221
 30
0.0
 11
-137.7407685868932
 21
-20.49999978939224
 31
0.0
  0
LINE
  5
6D5A
330
675F
100
AcDbEntity
  8
AM_5
100
AcDbLine
 10
-137.2407685868932
 20
-1.885009555017265
 30
0.0
 11
-137.2407685868932
 21
-19.24999978939223
 31
0.0
  0
INSERT
  5
6D5B
330
675F
100
AcDbEntity
  8
AM_5
100
AcDbBlockReference
  2
_OPEN30
 10
-137.2407685868932
 20
-0.6350095550172653
 30
0.0
 41
1.25
 42
1.25
 43
1.25
 50
90.0000000000001
  0
INSERT
  5
6D5C
330
675F
100
AcDbEntity
  8
AM_5
100
AcDbBlockReference
  2
_OPEN30
 10
-137.2407685868932
 20
-20.49999978939224
 30
0.0
 41
1.25
 42
1.25
 43
1.25
 50
270.0000000000001
  0
MTEXT
  5
6D5D
330
675F
100
AcDbEntity
  8
AM_5
 62
     2
100
AcDbMText
 10
-138.7907685868932
 20
-10.56750467220475
 30
0.0
 40
1.6
 41
0.0
 71
     5
 72
     1
  1
20
  7
ASAMI
 11
-0.000000000000002
 21
1.0
 31
0.0
  0
POINT
  5
6D5E
330
675F
100
AcDbEntity
  8
DEFPOINTS
 62
     0
100
AcDbPoint
 10
-124.9999986924973
 20
-0.6350095550169641
 30
0.0
  0
POINT
  5
6D5F
330
675F
100
AcDbEntity
  8
DEFPOINTS
 62
     0
100
AcDbPoint
 10
-125.0000000000004
 20
-20.49999978939193
 30
0.0
  0
POINT
  5
6D60
330
675F
100
AcDbEntity
  8
DEFPOINTS
 62
     0
100
AcDbPoint
 10
-137.2407685868932
 20
-20.49999978939193
 30
0.0
  0
ENDBLK
  5
676A
330
675F
100
AcDbEntity
  8
0
100
AcDbBlockEnd
  0
BLOCK
  5
6807
330
67FD
100
AcDbEntity
  8
0
100
AcDbBlockBegin
  2
*D9
 70
     1
 10
0.0
 20
0.0
 30
0.0
  3
*D9
  1

  0
LINE
  5
6D61
330
67FD
100
AcDbEntity
  8
AM_5
100
AcDbLine
 10
0.1000033017709846
 20
50.25461212972716
 30
0.0
 11
14.79796520833532
 21
50.25461212972719
 31
0.0
  0
LINE
  5
6D62
330
67FD
100
AcDbEntity
  8
AM_5
100
AcDbLine
 10
0.5000187700491703
 20
30.25460447400429
 30
0.0
 11
14.79796520833535
 21
30.25460447400432
 31
0.0
  0
LINE
  5
6D63
330
67FD
100
AcDbEntity
  8
AM_5
100
AcDbLine
 10
14.29796520833532
 20
49.00461212972719
 30
0.0
 11
14.29796520833535
 21
31.50460447400432
 31
0.0
  0
INSERT
  5
6D64
330
67FD
100
AcDbEntity
  8
AM_5
100
AcDbBlockReference
  2
_OPEN30
 10
14.29796520833531
 20
50.25461212972719
 30
0.0
 41
1.25
 42
1.25
 43
1.25
 50
90.0000000000001
  0
INSERT
  5
6D65
330
67FD
100
AcDbEntity
  8
AM_5
100
AcDbBlockReference
  2
_OPEN30
 10
14.29796520833535
 20
30.25460447400432
 30
0.0
 41
1.25
 42
1.25
 43
1.25
 50
270.0000000000001
  0
MTEXT
  5
6D66
330
67FD
100
AcDbEntity
  8
AM_5
 62
     2
100
AcDbMText
 10
12.74796520833533
 20
40.25460830186576
 30
0.0
 40
1.6
 41
0.0
 71
     5
 72
     1
  1
20
  7
ASAMI
 11
-0.000000000000002
 21
1.0
 31
0.0
  0
POINT
  5
6D67
330
67FD
100
AcDbEntity
  8
DEFPOINTS
 62
     0
100
AcDbPoint
 10
-0.3999966982289038
 20
50.25461212972716
 30
0.0
  0
POINT
  5
6D68
330
67FD
100
AcDbEntity
  8
DEFPOINTS
 62
     0
100
AcDbPoint
 10
0.0000187700492376
 20
30.25460447400429
 30
0.0
  0
POINT
  5
6D69
330
67FD
100
AcDbEntity
  8
DEFPOINTS
 62
     0
100
AcDbPoint
 10
14.29796520833542
 20
30.25460447400429
 30
0.0
  0
ENDBLK
  5
6808
330
67FD
100
AcDbEntity
  8
0
100
AcDbBlockEnd
  0
BLOCK
  5
689C
330
6892
100
AcDbEntity
  8
0
100
AcDbBlockBegin
  2
*D10
 70
     1
 10
0.0
 20
0.0
 30
0.0
  3
*D10
  1

  0
LINE
  5
6D6A
330
6892
100
AcDbEntity
  8
AM_5
100
AcDbLine
 10
0.4999999999997229
 20
0.0000000000001431
 30
0.0
 11
14.53399983797283
 21
0.0000000000001703
 31
0.0
  0
LINE
  5
6D6B
330
6892
100
AcDbEntity
  8
AM_5
100
AcDbLine
 10
-9.836059399694303
 20
-20.50000733651152
 30
0.0
 11
14.53399983797287
 21
-20.50000733651147
 31
0.0
  0
LINE
  5
6D6C
330
6892
100
AcDbEntity
  8
AM_5
100
AcDbLine
 10
14.03399983797283
 20
-1.24999999999983
 30
0.0
 11
14.03399983797287
 21
-19.25000733651147
 31
0.0
  0
INSERT
  5
6D6D
330
6892
100
AcDbEntity
  8
AM_5
100
AcDbBlockReference
  2
_OPEN30
 10
14.03399983797283
 20
0.0000000000001693
 30
0.0
 41
1.25
 42
1.25
 43
1.25
 50
90.0000000000001
  0
INSERT
  5
6D6E
330
6892
100
AcDbEntity
  8
AM_5
100
AcDbBlockReference
  2
_OPEN30
 10
14.03399983797287
 20
-20.50000733651147
 30
0.0
 41
1.25
 42
1.25
 43
1.25
 50
270.0000000000001
  0
MTEXT
  5
6D6F
330
6892
100
AcDbEntity
  8
AM_5
 62
     2
100
AcDbMText
 10
12.48399983797285
 20
-10.25000366825565
 30
0.0
 40
1.6
 41
0.0
 71
     5
 72
     1
  1
20.5
  7
ASAMI
 11
-0.000000000000002
 21
1.0
 31
0.0
  0
POINT
  5
6D70
330
6892
100
AcDbEntity
  8
DEFPOINTS
 62
     0
100
AcDbPoint
 10
-0.0000000000002771
 20
0.0000000000001421
 30
0.0
  0
POINT
  5
6D71
330
6892
100
AcDbEntity
  8
DEFPOINTS
 62
     0
100
AcDbPoint
 10
-10.33605939969435
 20
-20.5000073365115
 30
0.0
  0
POINT
  5
6D72
330
6892
100
AcDbEntity
  8
DEFPOINTS
 62
     0
100
AcDbPoint
 10
14.03399983797283
 20
-20.5000073365115
 30
0.0
  0
ENDBLK
  5
689D
330
6892
100
AcDbEntity
  8
0
100
AcDbBlockEnd
  0
BLOCK
  5
6967
330
695D
100
AcDbEntity
  8
0
100
AcDbBlockBegin
  2
*D11
 70
     1
 10
0.0
 20
0.0
 30
0.0
  3
*D11
  1

  0
LINE
  5
6D73
330
695D
100
AcDbEntity
  8
AM_5
100
AcDbLine
 10
0.0000000329094724
 20
0.5000000000001411
 30
0.0
 11
0.0000013607594151
 21
20.67411414876633
 31
0.0
  0
LINE
  5
6D74
330
695D
100
AcDbEntity
  8
AM_5
100
AcDbLine
 10
-124.9999986595875
 20
-0.1350095550172178
 30
0.0
 11
-124.999997289941
 21
20.67412237620272
 31
0.0
  0
LINE
  5
6D75
330
695D
100
AcDbEntity
  8
AM_5
100
AcDbLine
 10
-1.249998672150327
 20
20.1741142310407
 30
0.0
 11
-123.7499973228508
 21
20.17412229392836
 31
0.0
  0
INSERT
  5
6D76
330
695D
100
AcDbEntity
  8
AM_5
100
AcDbBlockReference
  2
_OPEN30
 10
0.0000013278496691
 20
20.17411414876633
 30
0.0
 41
1.25
 42
1.25
 43
1.25
 50
359.9999962288209
  0
INSERT
  5
6D77
330
695D
100
AcDbEntity
  8
AM_5
100
AcDbBlockReference
  2
_OPEN30
 10
-124.9999973228508
 20
20.17412237620272
 30
0.0
 41
1.25
 42
1.25
 43
1.25
 50
179.9999962288209
  0
MTEXT
  5
6D78
330
695D
100
AcDbEntity
  8
AM_5
 62
     2
100
AcDbMText
 10
-62.49999789548037
 20
21.72411826248452
 30
0.0
 40
1.6
 41
0.0
 71
     5
 72
     1
  1
125
  7
ASAMI
 11
0.999999999999998
 21
-0.0000000658194918
 31
0.0
  0
POINT
  5
6D79
330
695D
100
AcDbEntity
  8
DEFPOINTS
 62
     0
100
AcDbPoint
 10
-0.0000000000002736
 20
0.0000000000001421
 30
0.0
  0
POINT
  5
6D7A
330
695D
100
AcDbEntity
  8
DEFPOINTS
 62
     0
100
AcDbPoint
 10
-124.9999986924973
 20
-0.6350095550169641
 30
0.0
  0
POINT
  5
6D7B
330
695D
100
AcDbEntity
  8
DEFPOINTS
 62
     0
100
AcDbPoint
 10
-124.9999973228507
 20
20.17412237620298
 30
0.0
  0
ENDBLK
  5
6968
330
695D
100
AcDbEntity
  8
0
100
AcDbBlockEnd
  0
BLOCK
  5
69FB
330
69EB
100
AcDbEntity
  8
0
100
AcDbBlockBegin
  2
*D12
 70
     1
 10
0.0
 20
0.0
 30
0.0
  3
*D12
  1

  0
LINE
  5
6D7C
330
69EB
100
AcDbEntity
  8
AM_5
100
AcDbLine
 10
0.0000000333723639
 20
0.5070329989658542
 30
0.0
 11
0.0000009938576042
 21
15.0997590954797
 31
0.0
  0
LINE
  5
6D7D
330
69EB
100
AcDbEntity
  8
AM_5
100
AcDbLine
 10
-10.51832444002606
 20
-0.1765629762691496
 30
0.0
 11
-15.09042745235515
 21
-0.2563684354154887
 31
0.0
  0
ARC
  5
6D7E
330
69EB
100
AcDbEntity
  8
AM_5
100
AcDbCircle
 10
0.0000000004626377
 20
0.0070329989658553
 30
0.0
 40
14.59272609651388
100
AcDbArc
 50
94.90940371051129
 51
176.0905812960168
  0
INSERT
  5
6D7F
330
69EB
100
AcDbEntity
  8
AM_5
100
AcDbBlockReference
  2
_OPEN30
 10
0.0000009609478777
 20
14.5997590954797
 30
0.0
 41
1.25
 42
1.25
 43
1.25
 50
2.454699969667237
  0
INSERT
  5
6D80
330
69EB
100
AcDbEntity
  8
AM_5
100
AcDbBlockReference
  2
_OPEN30
 10
-14.59050360306781
 20
-0.2476423301149309
 30
0.0
 41
1.25
 42
1.25
 43
1.25
 50
268.5452850368609
  0
MTEXT
  5
6D81
330
69EB
100
AcDbEntity
  8
AM_5
 62
     2
100
AcDbMText
 10
-11.51380515801742
 20
11.32162077756513
 30
0.0
 40
1.6
 41
0.0
 71
     5
 72
     1
  1
90%%d
  7
ASAMI
 11
0.7009093576234751
 21
0.7132503574452996
 31
0.0
  0
POINT
  5
6D82
330
69EB
100
AcDbEntity
  8
DEFPOINTS
 62
     0
100
AcDbPoint
 10
-7.369760773226773
 20
12.60204316436334
 30
0.0
  0
POINT
  5
6D83
330
69EB
100
AcDbEntity
  8
DEFPOINTS
 62
     0
100
AcDbPoint
 10
-10.0184005907387
 20
-0.1678368709685705
 30
0.0
  0
POINT
  5
6D84
330
69EB
100
AcDbEntity
  8
DEFPOINTS
 62
     0
100
AcDbPoint
 10
-0.0000000263280526
 20
-0.400000005960365
 30
0.0
  0
POINT
  5
6D85
330
69EB
100
AcDbEntity
  8
DEFPOINTS
 62
     0
100
AcDbPoint
 10
-0.00000000000027
 20
0.0000000000001563
 30
0.0
  0
POINT
  5
6D86
330
69EB
100
AcDbEntity
  8
DEFPOINTS
 62
     0
100
AcDbPoint
 10
-0.4069885313564327
 20
-0.0000709325425845
 30
0.0
  0
ENDBLK
  5
69FC
330
69EB
100
AcDbEntity
  8
0
100
AcDbBlockEnd
  0
ENDSEC
  0
SECTION
  2
ENTITIES
  0
TEXT
  5
388D
330
1F
100
AcDbEntity
  8
AM_6
100
AcDbText
 10
-80.23010342995322
 20
-41.37044427621654
 30
0.0
 40
2.5
  1
STACR2020-11
 50
359.9999999999998
 51
359.9999999999998
 72
     4
 11
-66.59915104900083
 21
-40.12044427621656
 31
0.0
100
AcDbText
  0
MTEXT
  5
5E79
330
1F
100
AcDbEntity
  8
AM_6
100
AcDbMText
 10
24.16003825438767
 20
8.559279582870175
 30
0.0
 40
2.5
 41
0.0
 71
     4
 72
     5
  1
\T1.40;\W0.59;０°
1001
ACAD
1000
MTEXTBEGIN
1070
    73
1070
     1
1070
    44
1040
1.0
1070
    74
1070
     0
1000
MTEXTEND
  0
INSERT
  5
5E7A
330
1F
100
AcDbEntity
  8
AM_5
100
AcDbBlockReference
  2
*U6
 10
-10.86866342102494
 20
73.39485151617265
 30
0.0
 50
180.0000000000002
  0
INSERT
  5
5E7B
330
1F
100
AcDbEntity
  8
AM_5
100
AcDbBlockReference
  2
*U5
 10
-10.86866342102494
 20
73.39485151617265
 30
0.0
 50
180.0000000000002
  0
MTEXT
  5
5E7C
330
1F
100
AcDbEntity
  8
AM_6
100
AcDbMText
 10
10.6519372458207
 20
21.89349137010291
 30
0.0
 40
2.5
 41
0.0
 71
     4
 72
     5
  1
\T1.40;\W0.59;０°
1001
ACAD
1000
MTEXTBEGIN
1070
    73
1070
     1
1070
    44
1040
1.0
1070
    74
1070
     0
1000
MTEXTEND
  0
LINE
  5
65BF
330
1F
100
AcDbEntity
  8
AM_0
100
AcDbLine
 10
-10.40572972305028
 20
-0.6350170975507723
 30
0.0
 11
-125.0000000000004
 21
-0.6350095550168789
 31
0.0
  0
LINE
  5
65C0
330
1F
100
AcDbEntity
  8
AM_0
100
AcDbLine
 10
-124.9999986924974
 20
50.25462033083302
 30
0.0
 11
-0.3999966982289038
 21
50.25461212972716
 31
0.0
  0
LINE
  5
65C1
330
1F
100
AcDbEntity
  8
AM_0
100
AcDbLine
 10
-16.99999647985296
 20
30.38962298795526
 30
0.0
 11
-125.0000000000005
 21
30.38963009645808
 31
0.0
  0
LINE
  5
65C2
330
1F
100
AcDbEntity
  8
AM_0
100
AcDbLine
 10
-125.0000000000004
 20
-20.49999978939192
 30
0.0
 11
-10.33605939969435
 21
-20.5000073365115
 31
0.0
  0
LINE
  5
65C7
330
1F
100
AcDbEntity
  8
AM_0
100
AcDbLine
 10
-10.37458448169022
 20
30.55460057921818
 30
0.0
 11
-16.8350184416512
 21
30.55460100444053
 31
0.0
  0
LINE
  5
65C8
330
1F
100
AcDbEntity
  8
AM_0
100
AcDbLine
 10
-8.538654474178841
 20
32.63461373352528
 30
0.0
 11
-8.538653314439898
 21
50.25461266540919
 31
0.0
  0
LINE
  5
65C9
330
1F
100
AcDbEntity
  8
AM_0
100
AcDbLine
 10
-0.3999978579678611
 20
32.63461319784325
 30
0.0
 11
-0.3999966982289038
 21
50.25461212972716
 31
0.0
  0
LINE
  5
65CA
330
1F
100
AcDbEntity
  8
AM_0
100
AcDbLine
 10
-10.11919036285084
 20
32.6346138375553
 30
0.0
 11
-0.2922097720308585
 21
32.63461319074868
 31
0.0
  0
LINE
  5
65CB
330
1F
100
AcDbEntity
  8
AM_0
100
AcDbLine
 10
-10.41141921823124
 20
30.25461278867361
 30
0.0
 11
-0.4208949262392708
 21
30.25461213110266
 31
0.0
  0
LINE
  5
65CC
330
1F
100
AcDbEntity
  8
AM_0
100
AcDbLine
 10
-0.4208949262392708
 20
30.25461213110266
 30
0.0
 11
0.0000035112607435
 21
30.25461210339933
 31
0.0
  0
LINE
  5
65CD
330
1F
100
AcDbEntity
  8
AM_0
100
AcDbLine
 10
0.0000187700492376
 20
30.25460447400432
 30
0.0
 11
-0.2922097720308585
 21
32.63461319074868
 31
0.0
  0
LINE
  5
65CE
330
1F
100
AcDbEntity
  8
AM_0
100
AcDbLine
 10
-10.41141158883725
 20
30.25461278867313
 30
0.0
 11
-10.1191827334561
 21
32.63461002285682
 31
0.0
  0
LINE
  5
65CF
330
1F
100
AcDbEntity
  8
AM_0
100
AcDbLine
 10
-17.00000410924795
 20
30.3896229879558
 30
0.0
 11
-16.83501844165144
 21
30.55459718974351
 31
0.0
  0
LINE
  5
65D1
330
1F
100
AcDbEntity
  8
AM_0
100
AcDbLine
 10
-16.83501417264335
 20
-20.50000690875373
 30
0.0
 11
-16.83501286514025
 21
-0.6350166743787753
 31
0.0
  0
LINE
  5
65D2
330
1F
100
AcDbEntity
  8
AM_0
100
AcDbLine
 10
-1.675803638468295
 20
-15.50001172122191
 30
0.0
 11
-10.3360593996946
 21
-20.50001115120848
 31
0.0
  0
LINE
  5
65D3
330
1F
100
AcDbEntity
  8
AM_0
100
AcDbLine
 10
-16.99999982938135
 20
-20.50000689789446
 30
0.0
 11
-16.99999852187825
 21
-0.6350166635195223
 31
0.0
  0
ARC
  5
65D6
330
1F
100
AcDbEntity
  8
AM_0
100
AcDbCircle
 10
-0.4000000322885456
 20
-0.3999999796325682
 30
0.0
 40
0.4000000059605
100
AcDbArc
 50
331.0000015691475
 51
90.99999124806943
  0
ARC
  5
65D7
330
1F
100
AcDbEntity
  8
AM_0
100
AcDbCircle
 10
-10.01141972106609
 20
-0.5677697327570712
 30
0.0
 40
0.4000000059605
100
AcDbArc
 50
90.99998806034939
 51
211.0000084751222
  0
LINE
  5
65D8
330
1F
100
AcDbEntity
  8
AM_0
100
AcDbLine
 10
-10.0184005907387
 20
-0.1678368709685714
 30
0.0
 11
-0.4069885313564328
 21
-0.0000709325425845
 31
0.0
  0
LINE
  5
65DA
330
1F
100
AcDbEntity
  8
AM_0
100
AcDbLine
 10
-4.710570361621549
 20
-9.00154312242715
 30
0.0
 11
-0.05014652942765
 21
-0.5939258602037541
 31
0.0
  0
LINE
  5
65DB
330
1F
100
AcDbEntity
  8
AM_0
100
AcDbLine
 10
-1.675803638468039
 20
-15.50000790652489
 30
0.0
 11
-0.4319519946855053
 21
-1.282717110098516
 31
0.0
  0
ARC
  5
65DC
330
1F
100
AcDbEntity
  8
AM_0
100
AcDbCircle
 10
-5.157279008366671
 20
-8.508468675911046
 30
0.0
 40
1.5
100
AcDbArc
 50
178.9999962365708
 51
359.0000069017737
  0
LINE
  5
65DD
330
1F
100
AcDbEntity
  8
AM_0
100
AcDbLine
 10
-6.657057754202469
 20
-8.482288309862383
 30
0.0
 11
-6.629454500688765
 21
-6.900693844516212
 31
0.0
  0
LINE
  5
65DE
330
1F
100
AcDbEntity
  8
AM_0
100
AcDbLine
 10
-3.657507891925575
 20
-8.534645227262174
 30
0.0
 11
-3.632948778328767
 21
-7.127754359737636
 31
0.0
  0
LINE
  5
65DF
330
1F
100
AcDbEntity
  8
AM_0
100
AcDbLine
 10
-10.35428472485985
 20
-0.7737843433678649
 30
0.0
 11
-5.403281238882328
 21
-9.013633759816286
 31
0.0
  0
CIRCLE
  5
65E3
330
1F
100
AcDbEntity
  8
AM_0
100
AcDbCircle
 10
-5.157278662814448
 20
-3.258468675911061
 30
0.0
 40
1.7250000238419
  0
LINE
  5
65E4
330
1F
100
AcDbEntity
  8
AM_7
100
AcDbLine
 10
-5.157278827363128
 20
-5.758468675911032
 30
0.0
 11
-5.157278498265768
 21
-0.7584686759110611
 31
0.0
  0
LINE
  5
65E7
330
1F
100
AcDbEntity
  8
AM_7
100
AcDbLine
 10
-2.657278662814448
 20
-3.258468840459727
 30
0.0
 11
-7.657278662814434
 21
-3.25846851136238
 31
0.0
  0
ARC
  5
65F7
330
1F
100
AcDbEntity
  8
AM_0
100
AcDbCircle
 10
-5.060416235087444
 20
-8.807617241856505
 30
0.0
 40
0.4000000059605
100
AcDbArc
 50
210.9999982298403
 51
331.0000015691475
  0
LINE
  5
65F9
330
1F
100
AcDbEntity
  8
AM_0
100
AcDbLine
 10
-124.9999986924974
 20
50.25462033083302
 30
0.0
 11
-125.0000000000005
 21
30.38963009645808
 31
0.0
  0
LINE
  5
65FB
330
1F
100
AcDbEntity
  8
AM_0
100
AcDbLine
 10
-124.9999986924973
 20
-0.6350095550169499
 30
0.0
 11
-125.0000000000004
 21
-20.49999978939192
 31
0.0
  0
LINE
  5
669B
330
1F
100
AcDbEntity
  8
AM_11
100
AcDbLine
 10
-0.0000000263280526
 20
-0.400000005960365
 30
0.0
 11
-0.00000000000027
 21
0.0000000000001563
 31
0.0
  0
LINE
  5
669C
330
1F
100
AcDbEntity
  8
AM_11
100
AcDbLine
 10
-0.4000000059607629
 20
0.0000000263279532
 30
0.0
 11
-0.00000000000027
 21
0.0000000000001563
 31
0.0
  0
DIMENSION
  5
66A5
330
1F
100
AcDbEntity
  8
AM_5
100
AcDbDimension
  2
*D7
 10
-139.2950111500616
 20
30.38963009645805
 30
0.0
 11
-140.8450111500616
 21
40.32212521364551
 31
0.0
 70
    32
  1
<>
 51
359.9999999999998
  3
AM_JIS$0
100
AcDbAlignedDimension
 13
-124.9999986924974
 23
50.25462033083302
 33
0.0
 14
-125.0000000000005
 24
30.38963009645804
 34
0.0
 50
269.9999962288223
100
AcDbRotatedDimension
1001
GENIUS_GENDTOL_13
1000

1000
h7
1000

1040
0.0
1001
ACAD
1000
DSTYLE
1002
{
1070
   287
1070
     3
1070
    40
1040
0.5
1070
    42
1040
1.0
1070
    43
1040
12.0
1070
    48
1040
0.1
1070
    78
1070
     8
1070
   140
1040
3.2
1070
   176
1070
   256
1070
   177
1070
   256
1070
   271
1070
     0
1070
   272
1070
     3
1070
   275
1070
     0
1070
   284
1070
     0
1070
   289
1070
     3
1070
   340
1005
6B
1070
   371
1070
    -1
1070
   372
1070
    -1
1002
}
  0
DIMENSION
  5
675E
330
1F
100
AcDbEntity
  8
AM_5
100
AcDbDimension
  2
*D8
 10
-137.2407685868932
 20
-20.49999978939193
 30
0.0
 11
-138.7907685868932
 21
-10.56750467220447
 31
0.0
 70
    32
  1
<>
 51
359.9999999999998
  3
AM_JIS$0
100
AcDbAlignedDimension
 13
-124.9999986924973
 23
-0.6350095550169641
 33
0.0
 14
-125.0000000000004
 24
-20.49999978939193
 34
0.0
 50
269.9999962288223
100
AcDbRotatedDimension
1001
GENIUS_GENDTOL_13
1000

1000
h7
1000

1040
0.0
1001
ACAD
1000
DSTYLE
1002
{
1070
   287
1070
     3
1070
    40
1040
0.5
1070
    42
1040
1.0
1070
    43
1040
12.0
1070
    48
1040
0.1
1070
    78
1070
     8
1070
   140
1040
3.2
1070
   176
1070
   256
1070
   177
1070
   256
1070
   271
1070
     0
1070
   272
1070
     3
1070
   275
1070
     0
1070
   284
1070
     0
1070
   289
1070
     3
1070
   340
1005
6B
1070
   371
1070
    -1
1070
   372
1070
    -1
1002
}
  0
DIMENSION
  5
67FC
330
1F
100
AcDbEntity
  8
AM_5
100
AcDbDimension
  2
*D9
 10
14.29796520833542
 20
30.25460447400429
 30
0.0
 11
12.74796520833542
 21
40.25460830186573
 31
0.0
 70
    32
  1
<>
 51
359.9999999999998
  3
AM_JIS$0
100
AcDbAlignedDimension
 13
-0.3999966982289038
 23
50.25461212972716
 33
0.0
 14
0.0000187700492376
 24
30.25460447400429
 34
0.0
 50
89.99999622882231
100
AcDbRotatedDimension
1001
GENIUS_GENDTOL_13
1000

1000
h7
1000

1040
0.0
1001
ACAD
1000
DSTYLE
1002
{
1070
   287
1070
     3
1070
    40
1040
0.5
1070
    42
1040
1.0
1070
    43
1040
12.0
1070
    48
1040
0.1
1070
    78
1070
     8
1070
   140
1040
3.2
1070
   176
1070
   256
1070
   177
1070
   256
1070
   271
1070
     0
1070
   272
1070
     3
1070
   275
1070
     0
1070
   284
1070
     0
1070
   289
1070
     3
1070
   340
1005
6B
1070
   371
1070
    -1
1070
   372
1070
    -1
1002
}
  0
DIMENSION
  5
6891
330
1F
100
AcDbEntity
  8
AM_5
100
AcDbDimension
  2
*D10
 10
14.03399983797283
 20
-20.5000073365115
 30
0.0
 11
12.48399983797283
 21
-10.25000366825568
 31
0.0
 70
    32
  1
<>
 51
359.9999999999998
  3
AM_JIS$0
100
AcDbAlignedDimension
 13
-0.0000000000002771
 23
0.0000000000001421
 33
0.0
 14
-10.33605939969435
 24
-20.5000073365115
 34
0.0
 50
89.99999622882089
100
AcDbRotatedDimension
1001
GENIUS_GENDTOL_13
1000

1000
h7
1000

1040
0.0
1001
ACAD
1000
DSTYLE
1002
{
1070
   287
1070
     3
1070
    40
1040
0.5
1070
    42
1040
1.0
1070
    43
1040
12.0
1070
    48
1040
0.1
1070
    78
1070
     8
1070
   140
1040
3.2
1070
   176
1070
   256
1070
   177
1070
   256
1070
   271
1070
     1
1070
   272
1070
     3
1070
   275
1070
     0
1070
   284
1070
     0
1070
   289
1070
     3
1070
   340
1005
6B
1070
   371
1070
    -1
1070
   372
1070
    -1
1002
}
  0
DIMENSION
  5
695C
330
1F
100
AcDbEntity
  8
AM_5
100
AcDbDimension
  2
*D11
 10
-124.9999973228507
 20
20.17412237620298
 30
0.0
 11
-62.49999789548033
 21
21.72411826248465
 31
0.0
 70
    32
  1
<>
 51
359.9999999999998
  3
AM_JIS$0
100
AcDbAlignedDimension
 13
-0.0000000000002736
 23
0.0000000000001421
 33
0.0
 14
-124.9999986924973
 24
-0.6350095550169641
 34
0.0
 50
179.9999962288208
100
AcDbRotatedDimension
1001
GENIUS_GENDTOL_13
1000

1000
h7
1000

1040
0.0
1001
ACAD
1000
DSTYLE
1002
{
1070
   287
1070
     3
1070
    40
1040
0.5
1070
    42
1040
1.0
1070
    43
1040
12.0
1070
    48
1040
0.1
1070
    78
1070
     8
1070
   140
1040
3.2
1070
   176
1070
   256
1070
   177
1070
   256
1070
   271
1070
     0
1070
   272
1070
     3
1070
   275
1070
     0
1070
   284
1070
     0
1070
   289
1070
     3
1070
   340
1005
6B
1070
   371
1070
    -1
1070
   372
1070
    -1
1002
}
  0
DIMENSION
  5
69EA
330
1F
100
AcDbEntity
  8
AM_5
100
AcDbDimension
  2
*D12
 10
-0.4069885313564328
 20
-0.0000709325425845
 30
0.0
 11
-11.5138051580174
 21
11.32162077756515
 31
0.0
 70
    34
  1
90%%d
 51
359.9999999999998
  3
AM_JIS$2
100
AcDb2LineAngularDimension
 13
-0.0000000263280526
 23
-0.400000005960365
 33
0.0
 14
-0.00000000000027
 24
0.0000000000001563
 34
0.0
 15
-10.0184005907387
 25
-0.1678368709685714
 35
0.0
 16
-7.369760773226773
 26
12.60204316436334
 36
0.0
1001
GENIUS_GENDTOL_13
1000

1000
h7
1000

1040
0.0
1001
ACAD
1000
DSTYLE
1002
{
1070
   271
1070
     1
1070
   179
1070
     1
1002
}
  0
VIEWPORT
  5
110
330
101
100
AcDbEntity
 67
     1
  8
0
100
AcDbViewport
 10
420.5
 20
297.0
 30
0.0
 40
948.9782706766916
 41
628.452
 68
     1
 69
     1
1001
ACAD
1000
MVIEW
1002
{
1070
    16
1010
0.0
1020
0.0
1030
0.0
1010
0.0
1020
0.0
1030
1.0
1040
0.0
1040
628.452
1040
420.5
1040
297.0
1040
50.0
1040
0.0
1040
0.0
1070
     0
1070
   100
1070
     1
1070
     1
1070
     0
1070
     0
1070
     0
1070
     0
1040
0.0
1040
0.0
1040
0.0
1040
10.0
1040
10.0
1040
10.0
1040
10.0
1070
     0
1002
{
1002
}
1002
}
  0
ENDSEC
  0
SECTION
  2
OBJECTS
  0
DICTIONARY
  5
C
330
0
100
AcDbDictionary
  3
ACAD_GROUP
350
D
  3
ACAD_LAYOUT
350
1A
  3
ACAD_MLINESTYLE
350
17
  3
ACAD_PLOTSETTINGS
350
19
  3
ACAD_PLOTSTYLENAME
350
E
  3
ACDBVARIABLEDICTIONARY
350
34
  3
ACMDICTIONARY
350
43
  3
AMG
350
2B
  3
AMGSNAPSETTINGS
350
6E
  3
DWGPROPS
350
6D17
  3
ACDBHEADERROUNDTRIPXREC
350
6D25
  0
DICTIONARY
  5
74
330
1F
100
AcDbDictionary
280
     1
  3
ACAD_INDEX
360
6D19
  3
ACAD_LAYOUTSELFREF
360
6D48
  0
DICTIONARY
  5
6D4D
330
101
100
AcDbDictionary
280
     1
  3
ACAD_LAYOUTSELFREF
360
6D4E
  0
DICTIONARY
  5
D
102
{ACAD_REACTORS
330
C
102
}
330
C
100
AcDbDictionary
  0
DICTIONARY
  5
1A
102
{ACAD_REACTORS
330
C
102
}
330
C
100
AcDbDictionary
  0
DICTIONARY
  5
17
102
{ACAD_REACTORS
330
C
102
}
330
C
100
AcDbDictionary
  3
STANDARD
350
18
  0
DICTIONARY
  5
19
102
{ACAD_REACTORS
330
C
102
}
330
C
100
AcDbDictionary
  3
ASAMI
350
399D
  0
ACDBDICTIONARYWDFLT
  5
E
102
{ACAD_REACTORS
330
C
102
}
330
C
100
AcDbDictionary
281
     1
  3
Normal
350
F
100
AcDbDictionaryWithDefault
340
F
  0
DICTIONARY
  5
34
102
{ACAD_REACTORS
330
C
102
}
330
C
100
AcDbDictionary
  3
INDEXCTL
350
35
  3
SORTENTS
350
B5E
  0
DICTIONARY
  5
43
102
{ACAD_REACTORS
330
C
102
}
330
C
100
AcDbDictionary
  3
ACMSTDDICTIONARY
350
260
  0
DICTIONARY
  5
2B
102
{ACAD_REACTORS
330
C
102
}
330
C
100
AcDbDictionary
  3
ACMGSETTINGS
350
2C
  0
DICTIONARY
  5
6E
102
{ACAD_REACTORS
330
C
102
}
330
C
100
AcDbDictionary
  0
XRECORD
  5
6D17
102
{ACAD_REACTORS
330
C
102
}
330
C
100
AcDbXrecord
  1
DWGPROPS COOKIE
  2

  3

  4

  6

  7

  8

  9

300
AmdtFileType=82
301
=
302
=
303
=
304
=
305
=
306
=
307
=
308
=
309
=
 40
0.7815883564814815
 41
2452802.716478761
 42
2452938.486227384
  1

 90
        1
  0
DICTIONARY
  5
6D25
102
{ACAD_REACTORS
330
C
102
}
330
C
100
AcDbDictionary
  3
TSTACKALIGN
350
6D26
  3
TSTACKSIZE
350
6D27
  3
HYPERLINKBASE
350
6D28
  3
STYLESHEET
350
6D29
  3
LAYOUTDICT
350
6D2A
  3
PLOTSETDICT
350
6D2B
  3
PLOTSTYLNAMDICT
350
6D2C
  3
LWETCUNION
350
6D2D
  3
INSUNITS
350
6D2E
  3
CEPSNTYPE
350
6D2F
  3
FINGERPRINTGUID
350
6D30
  3
VERSIONGUID
350
6D31
  3
PSVPSCALE
350
6D32
  3
DIMSTYLEDATA
350
6D33
  3
PUCSORTHOREF
350
6D34
  3
PUCSORTHOVIEW
350
6D35
  3
PUCSBASE
350
6D36
  3
PUCSORGTOP
350
6D37
  3
PUCSORGBOTTOM
350
6D38
  3
PUCSORGLEFT
350
6D39
  3
PUCSORGRIGHT
350
6D3A
  3
PUCSORGFRONT
350
6D3B
  3
PUCSORGBACK
350
6D3C
  3
UCSORTHOREF
350
6D3D
  3
UCSORTHOVIEW
350
6D3E
  3
UCSBASE
350
6D3F
  3
UCSORGTOP
350
6D40
  3
UCSORGBOTTOM
350
6D41
  3
UCSORGLEFT
350
6D42
  3
UCSORGRIGHT
350
6D43
  3
UCSORGFRONT
350
6D44
  3
UCSORGBACK
350
6D45
  0
DICTIONARY
  5
6D19
102
{ACAD_REACTORS
330
74
102
}
330
74
100
AcDbDictionary
  3
*A1
350
6D1A
  0
XRECORD
  5
6D48
102
{ACAD_REACTORS
330
74
102
}
330
74
100
AcDbXrecord
340
1F
  0
XRECORD
  5
6D4E
102
{ACAD_REACTORS
330
6D4D
102
}
330
6D4D
100
AcDbXrecord
340
101
  0
MLINESTYLE
  5
18
102
{ACAD_REACTORS
330
17
102
}
330
17
100
AcDbMlineStyle
  2
STANDARD
 70
     0
  3

 62
   256
 51
90.0
 52
90.0
 71
     2
 49
0.5
 62
   256
  6
BYLAYER
 49
-0.5
 62
   256
  6
BYLAYER
  0
PLOTSETTINGS
  5
399D
102
{ACAD_REACTORS
330
19
102
}
330
19
100
AcDbPlotSettings
  1
asami
  2
RICOH imagio MF1540
  4
A4
  6

 40
5.831416606903076
 41
7.651742935180664
 42
4.90008544921875
 43
5.789077758789062
 44
296.9683227539062
 45
209.9733276367187
 46
0.0
 47
0.0
 48
-156.6707931774246
 49
-74.57609991074048
140
58.59973180214831
141
60.61068161925596
142
1.0
143
1.095343097833084
 70
  1712
 72
     1
 73
     1
 74
     4
  7
asami.ctb
 75
     0
147
0.9129559514076438
148
156.6707931774246
149
74.57609991074048
  0
ACDBPLACEHOLDER
  5
F
102
{ACAD_REACTORS
330
E
102
}
330
E
100
AcDbPlaceHolder
280
     0
  0
DICTIONARYVAR
  5
35
102
{ACAD_REACTORS
330
34
102
}
330
34
100
DictionaryVariables
280
     0
  1
1
  0
DICTIONARYVAR
  5
B5E
102
{ACAD_REACTORS
330
34
102
}
330
34
100
DictionaryVariables
280
     0
  1
96
  0
DICTIONARY
  5
260
102
{ACAD_REACTORS
330
43
102
}
330
43
100
AcDbDictionary
  0
DICTIONARY
  5
2C
102
{ACAD_REACTORS
330
2B
102
}
330
2B
100
AcDbDictionary
  3
DWGSETTINGS
350
2D
  0
XRECORD
  5
6D26
102
{ACAD_REACTORS
330
6D25
102
}
330
6D25
100
AcDbXrecord
 90
        1
  0
XRECORD
  5
6D27
102
{ACAD_REACTORS
330
6D25
102
}
330
6D25
100
AcDbXrecord
 90
       70
  0
XRECORD
  5
6D28
102
{ACAD_REACTORS
330
6D25
102
}
330
6D25
100
AcDbXrecord
  1

  0
XRECORD
  5
6D29
102
{ACAD_REACTORS
330
6D25
102
}
330
6D25
100
AcDbXrecord
  1
asami.ctb
  0
XRECORD
  5
6D2A
102
{ACAD_REACTORS
330
6D25
102
}
330
6D25
100
AcDbXrecord
340
1A
  0
XRECORD
  5
6D2B
102
{ACAD_REACTORS
330
6D25
102
}
330
6D25
100
AcDbXrecord
340
19
  0
XRECORD
  5
6D2C
102
{ACAD_REACTORS
330
6D25
102
}
330
6D25
100
AcDbXrecord
340
E
  0
XRECORD
  5
6D2D
102
{ACAD_REACTORS
330
6D25
102
}
330
6D25
100
AcDbXrecord
 90
    10781
  0
XRECORD
  5
6D2E
102
{ACAD_REACTORS
330
6D25
102
}
330
6D25
100
AcDbXrecord
 90
        4
  0
XRECORD
  5
6D2F
102
{ACAD_REACTORS
330
6D25
102
}
330
6D25
100
AcDbXrecord
 90
        0
  0
XRECORD
  5
6D30
102
{ACAD_REACTORS
330
6D25
102
}
330
6D25
100
AcDbXrecord
  1
{AFB28963-8C59-40AE-9337-C84526B81ACE}
  0
XRECORD
  5
6D31
102
{ACAD_REACTORS
330
6D25
102
}
330
6D25
100
AcDbXrecord
  1
{5A7C61EA-4B03-4BFA-9684-6D58FBB75B8A}
  0
XRECORD
  5
6D32
102
{ACAD_REACTORS
330
6D25
102
}
330
6D25
100
AcDbXrecord
 40
0.0
  0
XRECORD
  5
6D33
102
{ACAD_REACTORS
330
6D25
102
}
330
6D25
100
AcDbXrecord
1000
DSTYLE
1002
{
1070
    79
 70
     2
1070
   341
340
59
1070
   342
340
59
1070
   371
 70
    -1
1070
   372
 70
    -1
1002
}
  0
XRECORD
  5
6D34
102
{ACAD_REACTORS
330
6D25
102
}
330
6D25
100
AcDbXrecord
340
0
  0
XRECORD
  5
6D35
102
{ACAD_REACTORS
330
6D25
102
}
330
6D25
100
AcDbXrecord
 70
     0
  0
XRECORD
  5
6D36
102
{ACAD_REACTORS
330
6D25
102
}
330
6D25
100
AcDbXrecord
340
0
  0
XRECORD
  5
6D37
102
{ACAD_REACTORS
330
6D25
102
}
330
6D25
100
AcDbXrecord
 10
0.0
 20
0.0
 30
0.0
  0
XRECORD
  5
6D38
102
{ACAD_REACTORS
330
6D25
102
}
330
6D25
100
AcDbXrecord
 10
0.0
 20
0.0
 30
0.0
  0
XRECORD
  5
6D39
102
{ACAD_REACTORS
330
6D25
102
}
330
6D25
100
AcDbXrecord
 10
0.0
 20
0.0
 30
0.0
  0
XRECORD
  5
6D3A
102
{ACAD_REACTORS
330
6D25
102
}
330
6D25
100
AcDbXrecord
 10
0.0
 20
0.0
 30
0.0
  0
XRECORD
  5
6D3B
102
{ACAD_REACTORS
330
6D25
102
}
330
6D25
100
AcDbXrecord
 10
0.0
 20
0.0
 30
0.0
  0
XRECORD
  5
6D3C
102
{ACAD_REACTORS
330
6D25
102
}
330
6D25
100
AcDbXrecord
 10
0.0
 20
0.0
 30
0.0
  0
XRECORD
  5
6D3D
102
{ACAD_REACTORS
330
6D25
102
}
330
6D25
100
AcDbXrecord
340
0
  0
XRECORD
  5
6D3E
102
{ACAD_REACTORS
330
6D25
102
}
330
6D25
100
AcDbXrecord
 70
     0
  0
XRECORD
  5
6D3F
102
{ACAD_REACTORS
330
6D25
102
}
330
6D25
100
AcDbXrecord
340
0
  0
XRECORD
  5
6D40
102
{ACAD_REACTORS
330
6D25
102
}
330
6D25
100
AcDbXrecord
 10
0.0
 20
0.0
 30
0.0
  0
XRECORD
  5
6D41
102
{ACAD_REACTORS
330
6D25
102
}
330
6D25
100
AcDbXrecord
 10
0.0
 20
0.0
 30
0.0
  0
XRECORD
  5
6D42
102
{ACAD_REACTORS
330
6D25
102
}
330
6D25
100
AcDbXrecord
 10
0.0
 20
0.0
 30
0.0
  0
XRECORD
  5
6D43
102
{ACAD_REACTORS
330
6D25
102
}
330
6D25
100
AcDbXrecord
 10
0.0
 20
0.0
 30
0.0
  0
XRECORD
  5
6D44
102
{ACAD_REACTORS
330
6D25
102
}
330
6D25
100
AcDbXrecord
 10
0.0
 20
0.0
 30
0.0
  0
XRECORD
  5
6D45
102
{ACAD_REACTORS
330
6D25
102
}
330
6D25
100
AcDbXrecord
 10
0.0
 20
0.0
 30
0.0
  0
LAYER_INDEX
  5
6D1A
102
{ACAD_REACTORS
330
6D19
102
}
330
6D19
100
AcDbIndex
 40
2452941.604951342
100
AcDbLayerIndex
  8
0
360
6D1B
 90
        0
  8
AM_0
360
6D1C
 90
       29
  8
AM_5
360
6D1D
 90
        8
  8
AM_11
360
6D1E
 90
        2
  8
AM_7
360
6D1F
 90
        2
  8
AM_6
360
6D20
 90
        3
  8
Defpoints
360
6D21
 90
        0
  8
AM_3
360
6D22
 90
        0
  8
PV0001_1
360
6D23
 90
        0
  0
XRECORD
  5
2D
102
{ACAD_REACTORS
330
2C
102
}
330
2C
100
AcDbXrecord
  1
VERSION
140
15.0
  1
PRODUCT
  2
AutoCAD Mechanical 2000
  0
IDBUFFER
  5
6D1B
330
0
100
AcDbIdBuffer
  0
IDBUFFER
  5
6D1C
330
0
100
AcDbIdBuffer
330
65D6
330
65D7
330
65D8
330
65DA
330
65DB
330
65DC
330
65DD
330
65DE
330
65DF
330
65E3
330
65F7
330
65F9
330
65FB
330
65BF
330
65C0
330
65C1
330
65C2
330
65C7
330
65C8
330
65C9
330
65CA
330
65CB
330
65CC
330
65CD
330
65CE
330
65CF
330
65D1
330
65D2
330
65D3
  0
IDBUFFER
  5
6D1D
330
0
100
AcDbIdBuffer
330
5E7A
330
5E7B
330
66A5
330
675E
330
67FC
330
6891
330
695C
330
69EA
  0
IDBUFFER
  5
6D1E
330
0
100
AcDbIdBuffer
330
669B
330
669C
  0
IDBUFFER
  5
6D1F
330
0
100
AcDbIdBuffer
330
65E4
330
65E7
  0
IDBUFFER
  5
6D20
330
0
100
AcDbIdBuffer
330
388D
330
5E79
330
5E7C
  0
IDBUFFER
  5
6D21
330
0
100
AcDbIdBuffer
  0
IDBUFFER
  5
6D22
330
0
100
AcDbIdBuffer
  0
IDBUFFER
  5
6D23
330
0
100
AcDbIdBuffer
  0
ENDSEC
  0
EOF
