  0
SECTION
  2
HEADER
  9
$ACADVER
  1
AC1014
  9
$ACADMAINTVER
 70
     9
  9
$DWGCODEPAGE
  3
ANSI_932
  9
$INSBASE
 10
0.0
 20
0.0
 30
0.0
  9
$EXTMIN
 10
-112.9558582372753
 20
-36.79085366000701
 30
0.0
  9
$EXTMAX
 10
28.89787542313833
 20
37.32169684156319
 30
0.0
  9
$LIMMIN
 10
-128.3530661420456
 20
-49.61070918540392
  9
$LIMMAX
 10
50.97951281932171
 20
54.08655627189819
  9
$ORTHOMODE
 70
     0
  9
$REGENMODE
 70
     1
  9
$FILLMODE
 70
     1
  9
$QTEXTMODE
 70
     0
  9
$MIRRTEXT
 70
     0
  9
$DRAGMODE
 70
     2
  9
$LTSCALE
 40
1.0
  9
$OSMODE
 70
  2103
  9
$ATTMODE
 70
     1
  9
$TEXTSIZE
 40
2.5
  9
$TRACEWID
 40
1.0
  9
$TEXTSTYLE
  7
STANDARD
  9
$CLAYER
  8
AM_0
  9
$CELTYPE
  6
BYLAYER
  9
$CECOLOR
 62
   256
  9
$CELTSCALE
 40
1.0
  9
$DELOBJ
 70
     1
  9
$DISPSILH
 70
     0
  9
$DIMSCALE
 40
0.5
  9
$DIMASZ
 40
2.5
  9
$DIMEXO
 40
1.0
  9
$DIMDLI
 40
12.0
  9
$DIMRND
 40
0.0
  9
$DIMDLE
 40
0.0
  9
$DIMEXE
 40
1.0
  9
$DIMTP
 40
0.1
  9
$DIMTM
 40
0.1
  9
$DIMTXT
 40
3.2
  9
$DIMCEN
 40
0.0
  9
$DIMTSZ
 40
0.0
  9
$DIMTOL
 70
     0
  9
$DIMLIM
 70
     0
  9
$DIMTIH
 70
     0
  9
$DIMTOH
 70
     0
  9
$DIMSE1
 70
     0
  9
$DIMSE2
 70
     0
  9
$DIMTAD
 70
     3
  9
$DIMZIN
 70
     8
  9
$DIMBLK
  1
OPEN30
  9
$DIMASO
 70
     1
  9
$DIMSHO
 70
     1
  9
$DIMPOST
  1

  9
$DIMAPOST
  1
"
  9
$DIMALT
 70
     0
  9
$DIMALTD
 70
     2
  9
$DIMALTF
 40
0.0393701
  9
$DIMLFAC
 40
1.0
  9
$DIMTOFL
 70
     1
  9
$DIMTVP
 40
0.0
  9
$DIMTIX
 70
     0
  9
$DIMSOXD
 70
     0
  9
$DIMSAH
 70
     0
  9
$DIMBLK1
  1

  9
$DIMBLK2
  1

  9
$DIMSTYLE
  2
AM_JIS
  9
$DIMCLRD
 70
   256
  9
$DIMCLRE
 70
   256
  9
$DIMCLRT
 70
     2
  9
$DIMTFAC
 40
0.71
  9
$DIMGAP
 40
1.5
  9
$DIMJUST
 70
     0
  9
$DIMSD1
 70
     0
  9
$DIMSD2
 70
     0
  9
$DIMTOLJ
 70
     0
  9
$DIMTZIN
 70
     0
  9
$DIMALTZ
 70
     0
  9
$DIMALTTZ
 70
     0
  9
$DIMFIT
 70
     3
  9
$DIMUPT
 70
     0
  9
$DIMUNIT
 70
     2
  9
$DIMDEC
 70
     3
  9
$DIMTDEC
 70
     3
  9
$DIMALTU
 70
     2
  9
$DIMALTTD
 70
     2
  9
$DIMTXSTY
  7
ASAMI
  9
$DIMAUNIT
 70
     0
  9
$LUNITS
 70
     2
  9
$LUPREC
 70
     2
  9
$SKETCHINC
 40
1.0
  9
$FILLETRAD
 40
0.4
  9
$AUNITS
 70
     0
  9
$AUPREC
 70
     0
  9
$MENU
  1
.
  9
$ELEVATION
 40
0.0
  9
$PELEVATION
 40
0.0
  9
$THICKNESS
 40
0.0
  9
$LIMCHECK
 70
     1
  9
$BLIPMODE
 70
     0
  9
$CHAMFERA
 40
1.0
  9
$CHAMFERB
 40
1.0
  9
$CHAMFERC
 40
20.0
  9
$CHAMFERD
 40
0.0
  9
$SKPOLY
 70
     0
  9
$TDCREATE
 40
2452802.716478761
  9
$TDUPDATE
 40
2452941.605229120
  9
$TDINDWG
 40
0.7845844676
  9
$TDUSRTIMER
 40
0.7845844676
  9
$USRTIMER
 70
     1
  9
$ANGBASE
 50
0.0
  9
$ANGDIR
 70
     0
  9
$PDMODE
 70
     0
  9
$PDSIZE
 40
0.0
  9
$PLINEWID
 40
0.0
  9
$COORDS
 70
     0
  9
$SPLFRAME
 70
     0
  9
$SPLINETYPE
 70
     6
  9
$SPLINESEGS
 70
     8
  9
$ATTDIA
 70
     1
  9
$ATTREQ
 70
     1
  9
$HANDLING
 70
 12289
  9
$HANDSEED
  5
6BB5
  9
$SURFTAB1
 70
     6
  9
$SURFTAB2
 70
     6
  9
$SURFTYPE
 70
     6
  9
$SURFU
 70
     6
  9
$SURFV
 70
     6
  9
$UCSNAME
  2

  9
$UCSORG
 10
-0.0000000000002682
 20
0.000000000000161
 30
0.0
  9
$UCSXDIR
 10
1.0
 20
0.000000000000002
 30
0.0
  9
$UCSYDIR
 10
-0.000000000000002
 20
1.0
 30
0.0
  9
$PUCSNAME
  2

  9
$PUCSORG
 10
0.0
 20
0.0
 30
0.0
  9
$PUCSXDIR
 10
1.0
 20
0.0
 30
0.0
  9
$PUCSYDIR
 10
0.0
 20
1.0
 30
0.0
  9
$USERI1
 70
     0
  9
$USERI2
 70
     0
  9
$USERI3
 70
     0
  9
$USERI4
 70
     0
  9
$USERI5
 70
     0
  9
$USERR1
 40
0.0
  9
$USERR2
 40
0.0
  9
$USERR3
 40
0.0
  9
$USERR4
 40
0.0
  9
$USERR5
 40
0.0
  9
$WORLDVIEW
 70
     1
  9
$SHADEDGE
 70
     3
  9
$SHADEDIF
 70
    70
  9
$TILEMODE
 70
     1
  9
$MAXACTVP
 70
    64
  9
$PINSBASE
 10
0.0
 20
0.0
 30
0.0
  9
$PLIMCHECK
 70
     0
  9
$PEXTMIN
 10
1.000000000000000E+20
 20
1.000000000000000E+20
 30
1.000000000000000E+20
  9
$PEXTMAX
 10
-1.000000000000000E+20
 20
-1.000000000000000E+20
 30
-1.000000000000000E+20
  9
$PLIMMIN
 10
0.0
 20
0.0
  9
$PLIMMAX
 10
841.0
 20
594.0
  9
$UNITMODE
 70
     0
  9
$VISRETAIN
 70
     1
  9
$PLINEGEN
 70
     0
  9
$PSLTSCALE
 70
     0
  9
$TREEDEPTH
 70
  3020
  9
$PICKSTYLE
 70
     0
  9
$CMLSTYLE
  2
STANDARD
  9
$CMLJUST
 70
     0
  9
$CMLSCALE
 40
20.0
  9
$PROXYGRAPHICS
 70
     1
  9
$MEASUREMENT
 70
     1
  0
ENDSEC
  0
SECTION
  2
CLASSES
  0
CLASS
  1
ACDBDICTIONARYWDFLT
  2
AcDbDictionaryWithDefault
  3
AutoCAD 2000
 90
        0
280
     0
281
     0
  0
CLASS
  1
ACDBPLACEHOLDER
  2
AcDbPlaceHolder
  3
AutoCAD 2000
 90
        0
280
     0
281
     0
  0
CLASS
  1
LAYOUT
  2
AcDbLayout
  3
AutoCAD 2000
 90
        0
280
     0
281
     0
  0
CLASS
  1
AMGSETTINGSOBJ
  2
AmgSettingsObj
  3
"AcadM|Product Description: AutoCAD Mechanical 2000|Company: Autodesk"
 90
        0
280
     0
281
     0
  0
CLASS
  1
ACME_DOCUMENT
  2
AcMeDbDoc
  3
AcMeServices
 90
        0
280
     0
281
     0
  0
CLASS
  1
ACMESCOPE
  2
AcMeScope
  3
AcMeServices
 90
        0
280
     0
281
     0
  0
CLASS
  1
ACMECOMMANDHISTORY
  2
AcMeCommandHistory
  3
AcMeServices
 90
        0
280
     0
281
     0
  0
CLASS
  1
DICTIONARYVAR
  2
AcDbDictionaryVar
  3
AutoCAD 2000
 90
        0
280
     0
281
     0
  0
CLASS
  1
ACIMSYSVARMAN
  2
AcImSysVarManager
  3
AcMeServices
 90
        0
280
     0
281
     0
  0
CLASS
  1
ACIMREALSYSVAR
  2
AcImRealSysVar
  3
AcMeServices
 90
        0
280
     0
281
     0
  0
CLASS
  1
ACIMINTSYSVAR
  2
AcImIntSysVar
  3
AcMeServices
 90
        0
280
     0
281
     0
  0
CLASS
  1
ACMEDRAWINGMAN
  2
AcMeDrawingMan
  3
AcMeServices
 90
        0
280
     0
281
     0
  0
CLASS
  1
ACMEVIEW
  2
AcMeView
  3
AcMeServices
 90
        0
280
     0
281
     0
  0
CLASS
  1
ACDBENTITYCACHE
  2
AcMeEntityCache
  3
AcMeServices
 90
        0
280
     0
281
     0
  0
CLASS
  1
GSMANAGER
  2
AcMeGSManager
  3
AcMeServices
 90
        0
280
     0
281
     0
  0
CLASS
  1
AmdtInternalReactor
  2
AmdtInternalReactor
  3
AcMeServices
 90
        0
280
     0
281
     0
  0
CLASS
  1
ACMESTATEMGR
  2
AcMeStateMgr
  3
AcMeServices
 90
        0
280
     0
281
     0
  0
CLASS
  1
ACME_DATABASE
  2
AcMeDbDatabase
  3
AcMeServices
 90
        0
280
     0
281
     0
  0
CLASS
  1
ACRFINSADJUSTERMGR
  2
AcRfInsAdjusterMgr
  3
AcMeServices
 90
        0
280
     0
281
     0
  0
CLASS
  1
ACMDATADICTIONARY
  2
AcmDataDictionary
  3
"AcmSymBB|Product Description: AutoCAD Mechanical 2000|Company: Autodesk"
 90
        0
280
     0
281
     0
  0
CLASS
  1
ACMDATAENTRYBLOCK
  2
AcmDataEntryBlock
  3
"AcmSymBB|Product Description: AutoCAD Mechanical 2000|Company: Autodesk"
 90
        0
280
     0
281
     0
  0
CLASS
  1
AMGOBJPROPCFG
  2
AmgObjPropCfg
  3
"AmgLay|Product Description: AutoCAD Mechanical 2000|Company: Autodesk"
 90
        1
280
     0
281
     0
  0
CLASS
  1
ACAMGFILTERDAT
  2
AcAmgFilterDat
  3
"AcadM|Product Description: AutoCAD Mechanical 2000|Company: Autodesk"
 90
        0
280
     0
281
     0
  0
CLASS
  1
LAYER_INDEX
  2
AcDbLayerIndex
  3
AutoCAD 2000
 90
        0
280
     0
281
     0
  0
CLASS
  1
IDBUFFER
  2
AcDbIdBuffer
  3
AutoCAD 2000
 90
        0
280
     0
281
     0
  0
CLASS
  1
ACIMSTRSYSVAR
  2
AcImStrSysVar
  3
AcMeServices
 90
        0
280
     0
281
     0
  0
CLASS
  1
ACMSTANDARDJIS
  2
AcmStandardJIS
  3
"AcmSymBB|Product Description: AutoCAD Mechanical 2000|Company: Autodesk"
 90
        0
280
     0
281
     0
  0
CLASS
  1
ACMSURFSTANDARDJIS
  2
AcmSurfTextStdJIS
  3
"AcmSymBB|Product Description: AutoCAD Mechanical 2000|Company: Autodesk"
 90
        0
280
     0
281
     0
  0
CLASS
  1
ACMFCFSTANDARDJIS
  2
AcmFCFStdJIS
  3
"AcmSymBB|Product Description: AutoCAD Mechanical 2000|Company: Autodesk"
 90
        0
280
     0
281
     0
  0
CLASS
  1
ACMWELDSTANDARDJIS
  2
AcmWeldingStdJIS
  3
"AcmSymBB|Product Description: AutoCAD Mechanical 2000|Company: Autodesk"
 90
        0
280
     0
281
     0
  0
CLASS
  1
ACMIDSTANDARDJIS
  2
AcmIdStdJIS
  3
"AcmSymBB|Product Description: AutoCAD Mechanical 2000|Company: Autodesk"
 90
        0
280
     0
281
     0
  0
CLASS
  1
ACMDATUMSTANDARDJIS
  2
AcmDatumStdJIS
  3
"AcmSymBB|Product Description: AutoCAD Mechanical 2000|Company: Autodesk"
 90
        0
280
     0
281
     0
  0
CLASS
  1
ACMBOMSTANDARDJIS
  2
AcmBOMStdJIS
  3
"AcmSymBB|Product Description: AutoCAD Mechanical 2000|Company: Autodesk"
 90
        0
280
     0
281
     0
  0
CLASS
  1
ACMSTANDARDANSI
  2
AcmStandardANSI
  3
"AcmSymBB|Product Description: AutoCAD Mechanical 2000|Company: Autodesk"
 90
        0
280
     0
281
     0
  0
CLASS
  1
ACMSURFSTANDARDANSI
  2
AcmSurfTextStdANSI
  3
"AcmSymBB|Product Description: AutoCAD Mechanical 2000|Company: Autodesk"
 90
        0
280
     0
281
     0
  0
CLASS
  1
ACMFCFSTANDARDANSI
  2
AcmFCFStdANSI
  3
"AcmSymBB|Product Description: AutoCAD Mechanical 2000|Company: Autodesk"
 90
        0
280
     0
281
     0
  0
CLASS
  1
ACMWELDSTANDARDANSI
  2
AcmWeldingStdANSI
  3
"AcmSymBB|Product Description: AutoCAD Mechanical 2000|Company: Autodesk"
 90
        0
280
     0
281
     0
  0
CLASS
  1
ACMIDSTANDARDANSI
  2
AcmIdStdANSI
  3
"AcmSymBB|Product Description: AutoCAD Mechanical 2000|Company: Autodesk"
 90
        0
280
     0
281
     0
  0
CLASS
  1
ACMDATUMSTANDARDANSI
  2
AcmDatumStdANSI
  3
"AcmSymBB|Product Description: AutoCAD Mechanical 2000|Company: Autodesk"
 90
        0
280
     0
281
     0
  0
CLASS
  1
ACMBOMSTANDARDANSI
  2
AcmBOMStdANSI
  3
"AcmSymBB|Product Description: AutoCAD Mechanical 2000|Company: Autodesk"
 90
        0
280
     0
281
     0
  0
CLASS
  1
ACMSTANDARDBSI
  2
AcmStandardBSI
  3
"AcmSymBB|Product Description: AutoCAD Mechanical 2000|Company: Autodesk"
 90
        0
280
     0
281
     0
  0
CLASS
  1
ACMSURFSTANDARDBSI
  2
AcmSurfTextStdBSI
  3
"AcmSymBB|Product Description: AutoCAD Mechanical 2000|Company: Autodesk"
 90
        0
280
     0
281
     0
  0
CLASS
  1
ACMFCFSTANDARDBSI
  2
AcmFCFStdBSI
  3
"AcmSymBB|Product Description: AutoCAD Mechanical 2000|Company: Autodesk"
 90
        0
280
     0
281
     0
  0
CLASS
  1
ACMWELDSTANDARDBSI
  2
AcmWeldingStdBSI
  3
"AcmSymBB|Product Description: AutoCAD Mechanical 2000|Company: Autodesk"
 90
        0
280
     0
281
     0
  0
CLASS
  1
ACMIDSTANDARDBSI
  2
AcmIdStdBSI
  3
"AcmSymBB|Product Description: AutoCAD Mechanical 2000|Company: Autodesk"
 90
        0
280
     0
281
     0
  0
CLASS
  1
ACMDATUMSTANDARDBSI
  2
AcmDatumStdBSI
  3
"AcmSymBB|Product Description: AutoCAD Mechanical 2000|Company: Autodesk"
 90
        0
280
     0
281
     0
  0
CLASS
  1
ACMBOMSTANDARDBSI
  2
AcmBOMStdBSI
  3
"AcmSymBB|Product Description: AutoCAD Mechanical 2000|Company: Autodesk"
 90
        0
280
     0
281
     0
  0
CLASS
  1
STDPART2D
  2
AmgStdPart
  3
"AmgStdPart|Product Description: AutoCAD Mechanical 2000|Company: Autodesk"
 90
     1023
280
     0
281
     1
  0
CLASS
  1
PLOTSETTINGS
  2
AcDbPlotSettings
  3
AutoCAD 2000
 90
        0
280
     0
281
     0
  0
CLASS
  1
LONG_TRANSACTION
  2
AcDbLongTransaction
  3
AutoCAD 2000
 90
        0
280
     0
281
     0
  0
CLASS
  1
LWPOLYLINE
  2
AcDbPolyline
  3
AutoCAD 2000
 90
        0
280
     0
281
     1
  0
CLASS
  1
HATCH
  2
AcDbHatch
  3
AutoCAD 2000
 90
        0
280
     0
281
     1
  0
CLASS
  1
XRECORD
  2
AcDbXrecord
  3
AutoCAD 2000
 90
        0
280
     0
281
     0
  0
ENDSEC
  0
SECTION
  2
TABLES
  0
TABLE
  2
VPORT
  5
8
330
0
100
AcDbSymbolTable
 70
     3
  0
VPORT
  5
6B53
330
8
100
AcDbSymbolTableRecord
100
AcDbViewportTableRecord
  2
*ACTIVE
 70
     0
 10
0.0
 20
0.0
 11
1.0
 21
1.0
 12
-40.04599495066301
 22
0.2609861953513928
 13
0.0
 23
0.0
 14
2.5
 24
2.5
 15
10.0
 25
10.0
 16
0.0
 26
0.0
 36
1.0
 17
0.0
 27
0.0
 37
0.0
 40
90.97465201971779
 41
1.609042553191489
 42
50.0
 43
0.0
 44
0.0
 50
0.0
 51
0.0
 71
     0
 72
   100
 73
     1
 74
     3
 75
     0
 76
     0
 77
     0
 78
     0
  0
ENDTAB
  0
TABLE
  2
LTYPE
  5
5
330
0
100
AcDbSymbolTable
 70
    10
  0
LTYPE
  5
14
330
5
100
AcDbSymbolTableRecord
100
AcDbLinetypeTableRecord
  2
BYBLOCK
 70
     0
  3

 72
    65
 73
     0
 40
0.0
  0
LTYPE
  5
15
330
5
100
AcDbSymbolTableRecord
100
AcDbLinetypeTableRecord
  2
BYLAYER
 70
     0
  3

 72
    65
 73
     0
 40
0.0
  0
LTYPE
  5
16
330
5
100
AcDbSymbolTableRecord
100
AcDbLinetypeTableRecord
  2
CONTINUOUS
 70
     0
  3
Solid line
 72
    65
 73
     0
 40
0.0
  0
LTYPE
  5
4B
330
5
100
AcDbSymbolTableRecord
100
AcDbLinetypeTableRecord
  2
AM_ISO02W050
 70
     0
  3
__ __ __ __ __ __ __ __ __ __ __ __ __ __ __
 72
    65
 73
     2
 40
7.5
 49
6.0
 74
     0
 49
-1.5
 74
     0
  0
LTYPE
  5
4C
330
5
100
AcDbSymbolTableRecord
100
AcDbLinetypeTableRecord
  2
AM_ISO08W050
 70
     0
  3
____ . ____ . ____ . ____ . ____ . ____ . ____
 72
    65
 73
     4
 40
18.0
 49
12.0
 74
     0
 49
-1.5
 74
     0
 49
3.0
 74
     0
 49
-1.5
 74
     0
  0
LTYPE
  5
4D
330
5
100
AcDbSymbolTableRecord
100
AcDbLinetypeTableRecord
  2
AM_ISO09W050
 70
     0
  3
_____ . . _____ . . _____ . . ____ .. ____
 72
    65
 73
     6
 40
22.5
 49
12.0
 74
     0
 49
-1.5
 74
     0
 49
3.0
 74
     0
 49
-1.5
 74
     0
 49
3.0
 74
     0
 49
-1.5
 74
     0
  0
LTYPE
  5
4E
330
5
100
AcDbSymbolTableRecord
100
AcDbLinetypeTableRecord
  2
AMCONSTR
 70
     0
  3
_______________________
 72
    65
 73
     2
 40
9999.0
 49
9999.0
 74
     0
 49
0.0
 74
     0
  0
LTYPE
  5
4F
330
5
100
AcDbSymbolTableRecord
100
AcDbLinetypeTableRecord
  2
AM_ISO02W050X2
 70
     0
  3
 _ _ _ _ _ _ _ _ _ _ _ _
 72
    65
 73
     2
 40
3.75
 49
3.0
 74
     0
 49
-0.75
 74
     0
  0
LTYPE
  5
50
330
5
100
AcDbSymbolTableRecord
100
AcDbLinetypeTableRecord
  2
AM_ISO08W050X2
 70
     0
  3
__ . __ . __ . __ . __ . __
 72
    65
 73
     4
 40
9.0
 49
6.0
 74
     0
 49
-0.75
 74
     0
 49
1.5
 74
     0
 49
-0.75
 74
     0
  0
LTYPE
  5
53
330
5
100
AcDbSymbolTableRecord
100
AcDbLinetypeTableRecord
  2
AMZIGZAG
 70
     0
  3
/\/-/\/-/\/-/\/-/\/-/\/
 72
    65
 73
     2
 40
11.00009999999999
 49
0.0001
 74
     4
 75
   135
340
52
 46
0.04
 50
0.0
 44
0.0
 45
0.0
 49
-11.0
 74
     0
  0
LTYPE
  5
166
330
5
100
AcDbSymbolTableRecord
100
AcDbLinetypeTableRecord
  2
ACJISTGL
 70
     0
  3
_ _ _ _ _
 72
    65
 73
     2
 40
3.0
 49
2.0
 74
     0
 49
-1.0
 74
     0
  0
LTYPE
  5
26A
330
5
100
AcDbSymbolTableRecord
100
AcDbLinetypeTableRecord
  2
ACJISTGB
 70
     0
  3
__ . . __ . .
 72
    65
 73
     6
 40
9.0
 49
4.0
 74
     0
 49
-1.0
 74
     0
 49
1.0
 74
     0
 49
-1.0
 74
     0
 49
1.0
 74
     0
 49
-1.0
 74
     0
  0
ENDTAB
  0
TABLE
  2
LAYER
  5
2
330
0
100
AcDbSymbolTable
 70
     7
  0
LAYER
  5
10
330
2
100
AcDbSymbolTableRecord
100
AcDbLayerTableRecord
  2
0
 70
     0
 62
     7
  6
CONTINUOUS
  0
LAYER
  5
3F9
330
2
100
AcDbSymbolTableRecord
100
AcDbLayerTableRecord
  2
AM_0
 70
     0
 62
     7
  6
CONTINUOUS
  0
LAYER
  5
BA4
330
2
100
AcDbSymbolTableRecord
100
AcDbLayerTableRecord
  2
AM_5
 70
     0
 62
     3
  6
CONTINUOUS
  0
LAYER
  5
BA5
330
2
100
AcDbSymbolTableRecord
100
AcDbLayerTableRecord
  2
AM_11
 70
     0
 62
     3
  6
AM_ISO09W050
  0
LAYER
  5
BA6
330
2
100
AcDbSymbolTableRecord
100
AcDbLayerTableRecord
  2
AM_7
 70
     0
 62
     4
  6
AM_ISO08W050
  0
LAYER
  5
E64
330
2
100
AcDbSymbolTableRecord
100
AcDbLayerTableRecord
  2
AM_6
 70
     0
 62
     2
  6
CONTINUOUS
  0
LAYER
  5
F4D
330
2
100
AcDbSymbolTableRecord
100
AcDbLayerTableRecord
  2
DEFPOINTS
 70
     0
 62
     7
  6
CONTINUOUS
  0
ENDTAB
  0
TABLE
  2
STYLE
  5
3
330
0
100
AcDbSymbolTable
 70
     5
  0
STYLE
  5
11
330
3
100
AcDbSymbolTableRecord
100
AcDbTextStyleTableRecord
  2
STANDARD
 70
     0
 40
0.0
 41
1.0
 50
0.0
 71
     0
 42
2.5
  3
simplex.shx
  4
EXTFONT.SHX
  0
STYLE
  5
52
330
3
100
AcDbSymbolTableRecord
100
AcDbTextStyleTableRecord
  2

 70
     1
 40
0.0
 41
1.0
 50
0.0
 71
     0
 42
2.5
  3
ltypeshp.shx
  4

  0
STYLE
  5
6B
330
3
100
AcDbSymbolTableRecord
100
AcDbTextStyleTableRecord
  2
ASAMI
 70
     0
 40
0.0
 41
1.0
 50
0.0
 71
     0
 42
2.5
  3
simplex.shx
  4
EXTFONT.SHX
  0
STYLE
  5
262
330
3
100
AcDbSymbolTableRecord
100
AcDbTextStyleTableRecord
  2
ACJISTS
 70
     0
 40
1.0
 41
1.0
 50
0.0
 71
     0
 42
2.5
  3
simplex.shx
  4
bigfont.shx
  0
STYLE
  5
269
330
3
100
AcDbSymbolTableRecord
100
AcDbTextStyleTableRecord
  2
ACJISGDT
 70
     0
 40
0.0
 41
1.0
 50
0.0
 71
     0
 42
2.5
  3
amgdtans.shx
  4

  0
ENDTAB
  0
TABLE
  2
VIEW
  5
6
330
0
100
AcDbSymbolTable
 70
     0
  0
ENDTAB
  0
TABLE
  2
UCS
  5
7
330
0
100
AcDbSymbolTable
 70
     0
  0
ENDTAB
  0
TABLE
  2
APPID
  5
9
330
0
100
AcDbSymbolTable
 70
    24
  0
APPID
  5
12
330
9
100
AcDbSymbolTableRecord
100
AcDbRegAppTableRecord
  2
ACAD
 70
     0
  0
APPID
  5
30
330
9
100
AcDbSymbolTableRecord
100
AcDbRegAppTableRecord
  2
MCAD_NO_VIS
 70
     0
  0
APPID
  5
31
330
9
100
AcDbSymbolTableRecord
100
AcDbRegAppTableRecord
  2
ACAD_TEMP_GRAPHIC
 70
     0
  0
APPID
  5
2C2
330
9
100
AcDbSymbolTableRecord
100
AcDbRegAppTableRecord
  2
GENIUS_GENDTOL_13
 70
     0
  0
APPID
  5
339
330
9
100
AcDbSymbolTableRecord
100
AcDbRegAppTableRecord
  2
GENIUS_GENODEF_13
 70
     0
  0
APPID
  5
33A
330
9
100
AcDbSymbolTableRecord
100
AcDbRegAppTableRecord
  2
GENIUS_GENOBJ-N-RSBK_13
 70
     0
  0
APPID
  5
33B
330
9
100
AcDbSymbolTableRecord
100
AcDbRegAppTableRecord
  2
GENIUS_GENOBJ-N-LIB_13
 70
     0
  0
APPID
  5
33C
330
9
100
AcDbSymbolTableRecord
100
AcDbRegAppTableRecord
  2
GENIUS_GENSCALE_13
 70
     0
  0
APPID
  5
378
330
9
100
AcDbSymbolTableRecord
100
AcDbRegAppTableRecord
  2
GENIUS_GENDIMSH_14
 70
     0
  0
APPID
  5
BB0
330
9
100
AcDbSymbolTableRecord
100
AcDbRegAppTableRecord
  2
GENIUS_GENOBJ-N-CEN_13
 70
     0
  0
APPID
  5
BB1
330
9
100
AcDbSymbolTableRecord
100
AcDbRegAppTableRecord
  2
GENIUS_GENFIL_13
 70
     0
  0
APPID
  5
BB2
330
9
100
AcDbSymbolTableRecord
100
AcDbRegAppTableRecord
  2
GENIUS_GENOBJ-N-CHA_13
 70
     0
  0
APPID
  5
1FAF
330
9
100
AcDbSymbolTableRecord
100
AcDbRegAppTableRecord
  2
GENIUS_GENOBJ-N-CRS_13
 70
     0
  0
APPID
  5
1FB0
330
9
100
AcDbSymbolTableRecord
100
AcDbRegAppTableRecord
  2
GENIUS_GENOENT_13
 70
     0
  0
APPID
  5
1FB1
330
9
100
AcDbSymbolTableRecord
100
AcDbRegAppTableRecord
  2
GENIUS_GENOREF_13
 70
     0
  0
APPID
  5
1FB2
330
9
100
AcDbSymbolTableRecord
100
AcDbRegAppTableRecord
  2
GENIUS_GENOLIS_13
 70
     0
  0
APPID
  5
1FB7
330
9
100
AcDbSymbolTableRecord
100
AcDbRegAppTableRecord
  2
GENIUS_GENOBJ-N-FIL_13
 70
     0
  0
APPID
  5
22A8
330
9
100
AcDbSymbolTableRecord
100
AcDbRegAppTableRecord
  2
GEVID1056506048
 70
     0
  0
APPID
  5
22A9
330
9
100
AcDbSymbolTableRecord
100
AcDbRegAppTableRecord
  2
GEVDC
 70
     0
  0
APPID
  5
22AC
330
9
100
AcDbSymbolTableRecord
100
AcDbRegAppTableRecord
  2
GENIUS_GENBH_13
 70
     0
  0
APPID
  5
22B8
330
9
100
AcDbSymbolTableRecord
100
AcDbRegAppTableRecord
  2
GENIUS_GENOBJ-NBEHI-BHF_13
 70
     0
  0
APPID
  5
22BA
330
9
100
AcDbSymbolTableRecord
100
AcDbRegAppTableRecord
  2
GENIUS_GENOBJ-NBEHI-BHB_13
 70
     0
  0
APPID
  5
35C9
330
9
100
AcDbSymbolTableRecord
100
AcDbRegAppTableRecord
  2
GENIUS_GENREC_14
 70
     0
  0
APPID
  5
35CA
330
9
100
AcDbSymbolTableRecord
100
AcDbRegAppTableRecord
  2
GENIUS_GENOBJ-N-REC_13
 70
     0
  0
ENDTAB
  0
TABLE
  2
DIMSTYLE
  5
A
330
0
100
AcDbSymbolTable
 70
     9
  0
DIMSTYLE
105
58
330
A
100
AcDbSymbolTableRecord
100
AcDbDimStyleTableRecord
  2
AM_JIS
 70
     0
  3

  4
"
  5
OPEN30
  6

  7

 40
0.5
 41
2.5
 42
1.0
 43
12.0
 44
1.0
 45
0.0
 46
0.0
 47
0.1
 48
0.1
140
3.2
141
0.0
142
0.0
143
0.0393701
144
1.0
145
0.0
146
0.71
147
1.5
 71
     0
 72
     0
 73
     0
 74
     0
 75
     0
 76
     0
 77
     3
 78
     8
170
     0
171
     2
172
     1
173
     0
174
     0
175
     0
176
   256
177
   256
178
     2
270
     2
271
     3
272
     3
273
     2
274
     2
340
6B
275
     0
280
     0
281
     0
282
     0
283
     0
284
     0
285
     0
286
     0
287
     3
288
     0
  0
DIMSTYLE
105
5F
330
A
100
AcDbSymbolTableRecord
100
AcDbDimStyleTableRecord
  2
AM_JIS$3
 70
     0
  3

  4
"
  5
OPEN30
  6

  7

 40
0.5
 41
2.5
 42
1.0
 43
10.0
 44
1.0
 45
0.0
 46
0.0
 47
0.1
 48
0.1
140
3.2
141
0.0
142
0.0
143
0.0393701
144
1.0
145
0.0
146
0.71
147
1.5
 71
     0
 72
     0
 73
     0
 74
     1
 75
     0
 76
     0
 77
     3
 78
     8
170
     0
171
     2
172
     0
173
     0
174
     0
175
     0
176
   256
177
   256
178
     2
270
     2
271
     2
272
     3
273
     2
274
     2
340
6B
275
     0
280
     0
281
     0
282
     0
283
     0
284
     0
285
     0
286
     0
287
     0
288
     1
  0
DIMSTYLE
105
60
330
A
100
AcDbSymbolTableRecord
100
AcDbDimStyleTableRecord
  2
AM_JIS$4
 70
     0
  3

  4
"
  5
OPEN30
  6

  7

 40
0.5
 41
2.5
 42
1.0
 43
10.0
 44
1.0
 45
0.0
 46
0.0
 47
0.1
 48
0.1
140
3.2
141
0.0
142
0.0
143
0.0393701
144
1.0
145
0.0
146
0.71
147
1.5
 71
     0
 72
     0
 73
     0
 74
     1
 75
     0
 76
     0
 77
     3
 78
     8
170
     0
171
     2
172
     0
173
     0
174
     0
175
     0
176
   256
177
   256
178
     2
270
     2
271
     2
272
     3
273
     2
274
     2
340
6B
275
     0
280
     0
281
     0
282
     0
283
     0
284
     0
285
     0
286
     0
287
     0
288
     1
  0
DIMSTYLE
105
61
330
A
100
AcDbSymbolTableRecord
100
AcDbDimStyleTableRecord
  2
AM_JIS$6
 70
     0
  3

  4
"
  5
OPEN30
  6

  7

 40
0.5
 41
2.5
 42
1.0
 43
10.0
 44
1.0
 45
0.0
 46
0.0
 47
0.1
 48
0.1
140
3.2
141
0.0
142
0.0
143
0.0393701
144
1.0
145
0.0
146
0.71
147
1.5
 71
     0
 72
     0
 73
     0
 74
     0
 75
     0
 76
     0
 77
     0
 78
     8
170
     0
171
     2
172
     1
173
     0
174
     0
175
     0
176
   256
177
   256
178
     2
270
     2
271
     2
272
     2
273
     2
274
     2
340
6B
275
     0
280
     0
281
     0
282
     0
283
     0
284
     0
285
     0
286
     0
287
     3
288
     0
  0
DIMSTYLE
105
62
330
A
100
AcDbSymbolTableRecord
100
AcDbDimStyleTableRecord
  2
AM_JIS$7
 70
     0
  3

  4
"
  5
OPEN30
  6

  7

 40
0.5
 41
2.5
 42
1.0
 43
10.0
 44
1.0
 45
0.0
 46
0.0
 47
0.1
 48
0.1
140
3.2
141
0.0
142
0.0
143
0.0393701
144
1.0
145
0.0
146
0.71
147
1.5
 71
     0
 72
     0
 73
     0
 74
     0
 75
     0
 76
     0
 77
     3
 78
     8
170
     0
171
     2
172
     1
173
     0
174
     0
175
     0
176
   256
177
   256
178
     2
270
     2
271
     2
272
     3
273
     2
274
     2
340
6B
275
     0
280
     0
281
     0
282
     0
283
     0
284
     0
285
     0
286
     0
287
     3
288
     0
  0
DIMSTYLE
105
63
330
A
100
AcDbSymbolTableRecord
100
AcDbDimStyleTableRecord
  2
AM_JIS$SF
 70
     0
  3

  4
"
  5
OPEN30
  6

  7

 40
0.5
 41
2.5
 42
1.0
 43
10.0
 44
1.0
 45
0.0
 46
0.0
 47
0.1
 48
0.1
140
3.2
141
0.0
142
0.0
143
0.0393701
144
1.0
145
0.0
146
0.71
147
1.5
 71
     0
 72
     0
 73
     0
 74
     0
 75
     1
 76
     1
 77
     3
 78
     8
170
     0
171
     2
172
     1
173
     0
174
     0
175
     0
176
   256
177
   256
178
     2
270
     2
271
     2
272
     2
273
     2
274
     2
340
6B
275
     0
280
     0
281
     0
282
     0
283
     0
284
     0
285
     0
286
     0
287
     3
288
     0
  0
DIMSTYLE
105
68
330
A
100
AcDbSymbolTableRecord
100
AcDbDimStyleTableRecord
  2
AM_JIS$SH
 70
     0
  3

  4
"
  5

  6
GENAXEH
  7
OPEN30
 40
0.5
 41
2.5
 42
1.0
 43
10.0
 44
1.0
 45
0.0
 46
0.0
 47
0.1
 48
0.1
140
3.2
141
0.0
142
0.0
143
0.0393701
144
2.0
145
0.0
146
0.71
147
1.5
 71
     0
 72
     0
 73
     0
 74
     0
 75
     1
 76
     1
 77
     3
 78
     8
170
     0
171
     2
172
     1
173
     1
174
     0
175
     0
176
   256
177
   256
178
     2
270
     2
271
     2
272
     2
273
     2
274
     2
340
6B
275
     0
280
     0
281
     0
282
     0
283
     0
284
     0
285
     0
286
     0
287
     3
288
     0
  0
DIMSTYLE
105
B34
102
{ACAD_REACTORS
330
6771
330
68A7
102
}
330
A
100
AcDbSymbolTableRecord
100
AcDbDimStyleTableRecord
  2
AM_JIS$2
 70
     0
  3

  4
"
  5
OPEN30
  6

  7

 40
0.5
 41
2.5
 42
1.0
 43
12.0
 44
1.0
 45
0.0
 46
0.0
 47
0.1
 48
0.1
140
3.2
141
0.0
142
0.0
143
0.0393701
144
1.0
145
0.0
146
0.71
147
1.5
 71
     0
 72
     0
 73
     0
 74
     0
 75
     0
 76
     0
 77
     3
 78
     8
170
     0
171
     2
172
     1
173
     0
174
     0
175
     0
176
   256
177
   256
178
     2
270
     2
271
     3
272
     3
273
     2
274
     2
340
6B
275
     0
280
     0
281
     0
282
     0
283
     0
284
     0
285
     0
286
     0
287
     3
288
     0
  0
DIMSTYLE
105
3B48
102
{ACAD_REACTORS
330
628E
330
6357
330
6405
330
6630
330
66CD
102
}
330
A
100
AcDbSymbolTableRecord
100
AcDbDimStyleTableRecord
  2
AM_JIS$0
 70
     0
  3

  4
"
  5
OPEN30
  6

  7

 40
1.0
 41
2.5
 42
0.0
 43
10.0
 44
1.0
 45
0.0
 46
0.0
 47
0.1
 48
0.1000000001
140
3.799999999999999
141
0.0
142
0.0
143
0.0393701
144
1.0
145
0.0
146
0.71
147
1.5
 71
     0
 72
     0
 73
     0
 74
     0
 75
     0
 76
     0
 77
     3
 78
     1
170
     0
171
     2
172
     1
173
     0
174
     0
175
     0
176
     3
177
     3
178
     2
270
     2
271
     2
272
     2
273
     2
274
     2
340
11
275
     1
280
     0
281
     0
282
     0
283
     0
284
     8
285
     0
286
     0
287
     0
288
     0
  0
ENDTAB
  0
TABLE
  2
BLOCK_RECORD
  5
1
330
0
100
AcDbSymbolTable
 70
    14
  0
BLOCK_RECORD
  5
1F
102
{ACAD_XDICTIONARY
360
74
102
}
330
1
100
AcDbSymbolTableRecord
100
AcDbBlockTableRecord
  2
*MODEL_SPACE
  0
BLOCK_RECORD
  5
101
102
{ACAD_XDICTIONARY
360
6B7C
102
}
330
1
100
AcDbSymbolTableRecord
100
AcDbBlockTableRecord
  2
*PAPER_SPACE
  0
BLOCK_RECORD
  5
59
330
1
100
AcDbSymbolTableRecord
100
AcDbBlockTableRecord
  2
_OPEN30
  0
BLOCK_RECORD
  5
64
330
1
100
AcDbSymbolTableRecord
100
AcDbBlockTableRecord
  2
GENAXEH
  0
BLOCK_RECORD
  5
628F
330
1
100
AcDbSymbolTableRecord
100
AcDbBlockTableRecord
  2
*D5
  0
BLOCK_RECORD
  5
6358
330
1
100
AcDbSymbolTableRecord
100
AcDbBlockTableRecord
  2
*D6
  0
BLOCK_RECORD
  5
6406
330
1
100
AcDbSymbolTableRecord
100
AcDbBlockTableRecord
  2
*D7
  0
BLOCK_RECORD
  5
6631
330
1
100
AcDbSymbolTableRecord
100
AcDbBlockTableRecord
  2
*D8
  0
BLOCK_RECORD
  5
66CE
330
1
100
AcDbSymbolTableRecord
100
AcDbBlockTableRecord
  2
*D9
  0
BLOCK_RECORD
  5
6772
330
1
100
AcDbSymbolTableRecord
100
AcDbBlockTableRecord
  2
*D10
  0
BLOCK_RECORD
  5
68A8
330
1
100
AcDbSymbolTableRecord
100
AcDbBlockTableRecord
  2
*D11
  0
BLOCK_RECORD
  5
6AE0
330
1
100
AcDbSymbolTableRecord
100
AcDbBlockTableRecord
  2
*U12
  0
BLOCK_RECORD
  5
6AE4
330
1
100
AcDbSymbolTableRecord
100
AcDbBlockTableRecord
  2
*U13
  0
ENDTAB
  0
ENDSEC
  0
SECTION
  2
BLOCKS
  0
BLOCK
  5
20
330
1F
100
AcDbEntity
  8
0
100
AcDbBlockBegin
  2
*MODEL_SPACE
 70
     0
 10
0.0
 20
0.0
 30
0.0
  3
*MODEL_SPACE
  1

  0
ENDBLK
  5
21
330
1F
100
AcDbEntity
  8
0
100
AcDbBlockEnd
  0
BLOCK
  5
103
330
101
100
AcDbEntity
 67
     1
  8
0
100
AcDbBlockBegin
  2
*PAPER_SPACE
 70
     0
 10
0.0
 20
0.0
 30
0.0
  3
*PAPER_SPACE
  1

  0
ENDBLK
  5
104
330
101
100
AcDbEntity
 67
     1
  8
0
100
AcDbBlockEnd
  0
BLOCK
  5
5D
330
59
100
AcDbEntity
  8
0
100
AcDbBlockBegin
  2
_OPEN30
 70
     0
 10
0.0
 20
0.0
 30
0.0
  3
_OPEN30
  1

  0
LINE
  5
5A
330
59
100
AcDbEntity
  8
0
 62
     0
100
AcDbLine
 10
-1.0
 20
0.26794919
 30
0.0
 11
0.0
 21
0.0
 31
0.0
  0
LINE
  5
5B
330
59
100
AcDbEntity
  8
0
 62
     0
100
AcDbLine
 10
0.0
 20
0.0
 30
0.0
 11
-1.0
 21
-0.26794919
 31
0.0
  0
LINE
  5
5C
330
59
100
AcDbEntity
  8
0
 62
     0
100
AcDbLine
 10
0.0
 20
0.0
 30
0.0
 11
-1.0
 21
0.0
 31
0.0
  0
ENDBLK
  5
5E
330
59
100
AcDbEntity
  8
0
100
AcDbBlockEnd
  0
BLOCK
  5
66
330
64
100
AcDbEntity
  8
0
100
AcDbBlockBegin
  2
GENAXEH
 70
     0
 10
0.0
 20
0.0
 30
0.0
  3
GENAXEH
  1

  0
LINE
  5
65
330
64
100
AcDbEntity
  8
0
100
AcDbLine
 10
-1.0
 20
0.0
 30
0.0
 11
1.0
 21
0.0
 31
0.0
  0
ENDBLK
  5
67
330
64
100
AcDbEntity
  8
0
100
AcDbBlockEnd
  0
BLOCK
  5
6299
330
628F
100
AcDbEntity
  8
0
100
AcDbBlockBegin
  2
*D5
 70
     1
 10
0.0
 20
0.0
 30
0.0
  3
*D5
  1

  0
LINE
  5
6B7E
330
628F
100
AcDbEntity
  8
AM_5
100
AcDbLine
 10
-100.5000000000002
 20
-4.000000000000201
 30
0.0
 11
-111.1058582372751
 21
-4.000000000000222
 31
0.0
  0
LINE
  5
6B7F
330
628F
100
AcDbEntity
  8
AM_5
100
AcDbLine
 10
-100.5000000000002
 20
-16.0000000000002
 30
0.0
 11
-111.1058582372751
 21
-16.00000000000022
 31
0.0
  0
LINE
  5
6B80
330
628F
100
AcDbEntity
  8
AM_5
100
AcDbLine
 10
-110.6058582372751
 20
-5.250000000000221
 30
0.0
 11
-110.6058582372751
 21
-14.75000000000022
 31
0.0
  0
INSERT
  5
6B81
330
628F
100
AcDbEntity
  8
AM_5
100
AcDbBlockReference
  2
_OPEN30
 10
-110.6058582372751
 20
-4.000000000000221
 30
0.0
 41
1.25
 42
1.25
 43
1.25
 50
90.0000000000001
  0
INSERT
  5
6B82
330
628F
100
AcDbEntity
  8
AM_5
100
AcDbBlockReference
  2
_OPEN30
 10
-110.6058582372751
 20
-16.00000000000022
 30
0.0
 41
1.25
 42
1.25
 43
1.25
 50
270.0000000000001
  0
MTEXT
  5
6B83
330
628F
100
AcDbEntity
  8
AM_5
 62
     2
100
AcDbMText
 10
-112.1558582372751
 20
-10.00000000000021
 30
0.0
 40
1.6
 41
0.0
 71
     5
 72
     1
  1
12
  7
ASAMI
 11
-0.000000000000002
 21
1.0
 31
0.0
  0
POINT
  5
6B84
330
628F
100
AcDbEntity
  8
DEFPOINTS
 62
     0
100
AcDbPoint
 10
-100.0000000000002
 20
-3.999999999999978
 30
0.0
  0
POINT
  5
6B85
330
628F
100
AcDbEntity
  8
DEFPOINTS
 62
     0
100
AcDbPoint
 10
-100.0000000000002
 20
-15.99999999999997
 30
0.0
  0
POINT
  5
6B86
330
628F
100
AcDbEntity
  8
DEFPOINTS
 62
     0
100
AcDbPoint
 10
-110.6058582372751
 20
-15.99999999999997
 30
0.0
  0
ENDBLK
  5
629A
330
628F
100
AcDbEntity
  8
0
100
AcDbBlockEnd
  0
BLOCK
  5
6362
330
6358
100
AcDbEntity
  8
0
100
AcDbBlockBegin
  2
*D6
 70
     1
 10
0.0
 20
0.0
 30
0.0
  3
*D6
  1

  0
LINE
  5
6B87
330
6358
100
AcDbEntity
  8
AM_5
100
AcDbLine
 10
-100.5000000000004
 20
37.32169684156283
 30
0.0
 11
-111.1058582372754
 21
37.32169684156281
 31
0.0
  0
LINE
  5
6B88
330
6358
100
AcDbEntity
  8
AM_5
100
AcDbLine
 10
-100.5000000000003
 20
25.32169684156283
 30
0.0
 11
-111.1058582372754
 21
25.32169684156281
 31
0.0
  0
LINE
  5
6B89
330
6358
100
AcDbEntity
  8
AM_5
100
AcDbLine
 10
-110.6058582372754
 20
36.07169684156281
 30
0.0
 11
-110.6058582372754
 21
26.57169684156281
 31
0.0
  0
INSERT
  5
6B8A
330
6358
100
AcDbEntity
  8
AM_5
100
AcDbBlockReference
  2
_OPEN30
 10
-110.6058582372754
 20
37.32169684156281
 30
0.0
 41
1.25
 42
1.25
 43
1.25
 50
90.0000000000001
  0
INSERT
  5
6B8B
330
6358
100
AcDbEntity
  8
AM_5
100
AcDbBlockReference
  2
_OPEN30
 10
-110.6058582372754
 20
25.32169684156281
 30
0.0
 41
1.25
 42
1.25
 43
1.25
 50
270.0000000000001
  0
MTEXT
  5
6B8C
330
6358
100
AcDbEntity
  8
AM_5
 62
     2
100
AcDbMText
 10
-112.1558582372754
 20
31.32169684156281
 30
0.0
 40
1.6
 41
0.0
 71
     5
 72
     1
  1
12
  7
ASAMI
 11
-0.000000000000002
 21
1.0
 31
0.0
  0
POINT
  5
6B8D
330
6358
100
AcDbEntity
  8
DEFPOINTS
 62
     0
100
AcDbPoint
 10
-100.0000000000003
 20
37.32169684156305
 30
0.0
  0
POINT
  5
6B8E
330
6358
100
AcDbEntity
  8
DEFPOINTS
 62
     0
100
AcDbPoint
 10
-100.0000000000002
 20
25.32169684156305
 30
0.0
  0
POINT
  5
6B8F
330
6358
100
AcDbEntity
  8
DEFPOINTS
 62
     0
100
AcDbPoint
 10
-110.6058582372753
 20
25.32169684156305
 30
0.0
  0
ENDBLK
  5
6363
330
6358
100
AcDbEntity
  8
0
100
AcDbBlockEnd
  0
BLOCK
  5
6410
330
6406
100
AcDbEntity
  8
0
100
AcDbBlockBegin
  2
*D7
 70
     1
 10
0.0
 20
0.0
 30
0.0
  3
*D7
  1

  0
LINE
  5
6B90
330
6406
100
AcDbEntity
  8
AM_5
100
AcDbLine
 10
-100.0000000000002
 20
-3.50000000000018
 30
0.0
 11
-100.0000000000002
 21
17.46782937677494
 31
0.0
  0
LINE
  5
6B91
330
6406
100
AcDbEntity
  8
AM_5
100
AcDbLine
 10
-0.0000000000002683
 20
0.5000000000001564
 30
0.0
 11
-0.0000000000002714
 21
17.46782937677497
 31
0.0
  0
LINE
  5
6B92
330
6406
100
AcDbEntity
  8
AM_5
100
AcDbLine
 10
-98.75000000000026
 20
16.96782937677494
 30
0.0
 11
-1.250000000000271
 21
16.96782937677497
 31
0.0
  0
INSERT
  5
6B93
330
6406
100
AcDbEntity
  8
AM_5
100
AcDbBlockReference
  2
_OPEN30
 10
-100.0000000000002
 20
16.96782937677494
 30
0.0
 41
1.25
 42
1.25
 43
1.25
 50
180.0
  0
INSERT
  5
6B94
330
6406
100
AcDbEntity
  8
AM_5
100
AcDbBlockReference
  2
_OPEN30
 10
-0.0000000000002713
 20
16.96782937677497
 30
0.0
 41
1.25
 42
1.25
 43
1.25
  0
MTEXT
  5
6B95
330
6406
100
AcDbEntity
  8
AM_5
 62
     2
100
AcDbMText
 10
-50.00000000000026
 20
18.51782937677496
 30
0.0
 40
1.6
 41
0.0
 71
     5
 72
     1
  1
100
  7
ASAMI
  0
POINT
  5
6B96
330
6406
100
AcDbEntity
  8
DEFPOINTS
 62
     0
100
AcDbPoint
 10
-100.0000000000002
 20
-3.999999999999978
 30
0.0
  0
POINT
  5
6B97
330
6406
100
AcDbEntity
  8
DEFPOINTS
 62
     0
100
AcDbPoint
 10
-0.0000000000002682
 20
0.0000000000001563
 30
0.0
  0
POINT
  5
6B98
330
6406
100
AcDbEntity
  8
DEFPOINTS
 62
     0
100
AcDbPoint
 10
-0.0000000000002371
 20
16.96782937677497
 30
0.0
  0
ENDBLK
  5
6411
330
6406
100
AcDbEntity
  8
0
100
AcDbBlockEnd
  0
BLOCK
  5
663B
330
6631
100
AcDbEntity
  8
0
100
AcDbBlockBegin
  2
*D8
 70
     1
 10
0.0
 20
0.0
 30
0.0
  3
*D8
  1

  0
LINE
  5
6B99
330
6631
100
AcDbEntity
  8
AM_5
100
AcDbLine
 10
0.0000044739659406
 20
37.32169684156316
 30
0.0
 11
12.83451265976358
 21
37.32169684156319
 31
0.0
  0
LINE
  5
6B9A
330
6631
100
AcDbEntity
  8
AM_5
100
AcDbLine
 10
0.4999999999996258
 20
25.32169684156317
 30
0.0
 11
12.83451265976361
 21
25.32169684156319
 31
0.0
  0
LINE
  5
6B9B
330
6631
100
AcDbEntity
  8
AM_5
100
AcDbLine
 10
12.33451265976358
 20
36.07169684156319
 30
0.0
 11
12.3345126597636
 21
26.57169684156319
 31
0.0
  0
INSERT
  5
6B9C
330
6631
100
AcDbEntity
  8
AM_5
100
AcDbBlockReference
  2
_OPEN30
 10
12.33451265976358
 20
37.32169684156319
 30
0.0
 41
1.25
 42
1.25
 43
1.25
 50
90.0000000000001
  0
INSERT
  5
6B9D
330
6631
100
AcDbEntity
  8
AM_5
100
AcDbBlockReference
  2
_OPEN30
 10
12.33451265976361
 20
25.32169684156319
 30
0.0
 41
1.25
 42
1.25
 43
1.25
 50
270.0000000000001
  0
MTEXT
  5
6B9E
330
6631
100
AcDbEntity
  8
AM_5
 62
     2
100
AcDbMText
 10
10.78451265976359
 20
31.32169684156318
 30
0.0
 40
1.6
 41
0.0
 71
     5
 72
     1
  1
12
  7
ASAMI
 11
-0.000000000000002
 21
1.0
 31
0.0
  0
POINT
  5
6B9F
330
6631
100
AcDbEntity
  8
DEFPOINTS
 62
     0
100
AcDbPoint
 10
-0.4999955260339766
 20
37.32169684156316
 30
0.0
  0
POINT
  5
6BA0
330
6631
100
AcDbEntity
  8
DEFPOINTS
 62
     0
100
AcDbPoint
 10
-0.000000000000318
 20
25.32169684156317
 30
0.0
  0
POINT
  5
6BA1
330
6631
100
AcDbEntity
  8
DEFPOINTS
 62
     0
100
AcDbPoint
 10
12.33451265976366
 20
25.32169684156316
 30
0.0
  0
ENDBLK
  5
663C
330
6631
100
AcDbEntity
  8
0
100
AcDbBlockEnd
  0
BLOCK
  5
66D8
330
66CE
100
AcDbEntity
  8
0
100
AcDbBlockBegin
  2
*D9
 70
     1
 10
0.0
 20
0.0
 30
0.0
  3
*D9
  1

  0
LINE
  5
6BA2
330
66CE
100
AcDbEntity
  8
AM_5
100
AcDbLine
 10
0.4999999999997291
 20
0.0000000000001573
 30
0.0
 11
12.83451265976348
 21
0.0000000000001812
 31
0.0
  0
LINE
  5
6BA3
330
66CE
100
AcDbEntity
  8
AM_5
100
AcDbLine
 10
-6.669450067116676
 20
-15.99999999999987
 30
0.0
 11
12.83451265976351
 21
-15.99999999999983
 31
0.0
  0
LINE
  5
6BA4
330
66CE
100
AcDbEntity
  8
AM_5
100
AcDbLine
 10
12.33451265976348
 20
-1.249999999999819
 30
0.0
 11
12.33451265976351
 21
-14.74999999999983
 31
0.0
  0
INSERT
  5
6BA5
330
66CE
100
AcDbEntity
  8
AM_5
100
AcDbBlockReference
  2
_OPEN30
 10
12.33451265976348
 20
0.0000000000001802
 30
0.0
 41
1.25
 42
1.25
 43
1.25
 50
90.0000000000001
  0
INSERT
  5
6BA6
330
66CE
100
AcDbEntity
  8
AM_5
100
AcDbBlockReference
  2
_OPEN30
 10
12.33451265976351
 20
-15.99999999999983
 30
0.0
 41
1.25
 42
1.25
 43
1.25
 50
270.0000000000001
  0
MTEXT
  5
6BA7
330
66CE
100
AcDbEntity
  8
AM_5
 62
     2
100
AcDbMText
 10
10.78451265976349
 20
-7.999999999999831
 30
0.0
 40
1.6
 41
0.0
 71
     5
 72
     1
  1
16
  7
ASAMI
 11
-0.000000000000002
 21
1.0
 31
0.0
  0
POINT
  5
6BA8
330
66CE
100
AcDbEntity
  8
DEFPOINTS
 62
     0
100
AcDbPoint
 10
-0.0000000000002709
 20
0.0000000000001563
 30
0.0
  0
POINT
  5
6BA9
330
66CE
100
AcDbEntity
  8
DEFPOINTS
 62
     0
100
AcDbPoint
 10
-7.169450067116711
 20
-15.99999999999985
 30
0.0
  0
POINT
  5
6BAA
330
66CE
100
AcDbEntity
  8
DEFPOINTS
 62
     0
100
AcDbPoint
 10
12.33451265976347
 20
-15.99999999999986
 30
0.0
  0
ENDBLK
  5
66D9
330
66CE
100
AcDbEntity
  8
0
100
AcDbBlockEnd
  0
BLOCK
  5
6781
330
6772
100
AcDbEntity
  8
0
100
AcDbBlockBegin
  2
*D10
 70
     1
 10
0.0
 20
0.0
 30
0.0
  3
*D10
  1

  0
LINE
  5
6BAB
330
6772
100
AcDbEntity
  8
AM_5
100
AcDbLine
 10
-7.602462761744101
 20
-16.25000001258286
 30
0.0
 11
-22.70013996425833
 21
-24.96664859456083
 31
0.0
  0
ARC
  5
6BAC
330
6772
100
AcDbEntity
  8
AM_5
100
AcDbCircle
 10
-7.169450067116679
 20
-15.99999999999987
 30
0.0
 40
17.43329628650348
100
AcDbArc
 50
184.1090952685911
 51
205.8909063963777
  0
INSERT
  5
6BAD
330
6772
100
AcDbEntity
  8
AM_5
100
AcDbBlockReference
  2
_OPEN30
 10
-24.60274635362017
 20
-15.99999999999994
 30
0.0
 41
1.25
 42
1.25
 43
1.25
 50
92.05454763429569
  0
INSERT
  5
6BAE
330
6772
100
AcDbEntity
  8
AM_5
100
AcDbBlockReference
  2
_OPEN30
 10
-22.2671272696309
 20
-24.71664858197783
 30
0.0
 41
1.25
 42
1.25
 43
1.25
 50
297.9454540306732
  0
MTEXT
  5
6BAF
330
6772
100
AcDbEntity
  8
AM_5
 62
     2
100
AcDbMText
 10
-22.51153609712194
 20
-20.11089980086742
 30
0.0
 40
1.6
 41
0.0
 71
     5
 72
     1
  1
30°
  7
ASAMI
 11
0.2588190591370321
 21
-0.9659258225285322
 31
0.0
  0
POINT
  5
6BB0
330
6772
100
AcDbEntity
  8
DEFPOINTS
 62
     0
100
AcDbPoint
 10
-24.33789538130104
 20
-19.02726029717921
 30
0.0
  0
POINT
  5
6BB1
330
6772
100
AcDbEntity
  8
DEFPOINTS
 62
     0
100
AcDbPoint
 10
-7.169450067116709
 20
-15.99999999999986
 30
0.0
  0
POINT
  5
6BB2
330
6772
100
AcDbEntity
  8
DEFPOINTS
 62
     0
100
AcDbPoint
 10
-1.55248601787576
 20
-12.75704407650961
 30
0.0
  0
POINT
  5
6BB3
330
6772
100
AcDbEntity
  8
DEFPOINTS
 62
     0
100
AcDbPoint
 10
-7.169450067116709
 20
-15.99999999999986
 30
0.0
  0
POINT
  5
6BB4
330
6772
100
AcDbEntity
  8
DEFPOINTS
 62
     0
100
AcDbPoint
 10
-100.0000000000002
 20
-15.99999999999998
 30
0.0
  0
ENDBLK
  5
6782
330
6772
100
AcDbEntity
  8
0
100
AcDbBlockEnd
  0
BLOCK
  5
68B8
330
68A8
100
AcDbEntity
  8
0
100
AcDbBlockBegin
  2
*D11
 70
     1
 10
0.0
 20
0.0
 30
0.0
  3
*D11
  1

  0
LINE
  5
696F
330
68A8
100
AcDbEntity
  8
AM_5
100
AcDbLine
 10
-0.0000000000002742
 20
0.5000000000001621
 30
0.0
 11
-0.0000000000003864
 21
13.9119446096445
 31
0.0
  0
LINE
  5
6970
330
68A8
100
AcDbEntity
  8
AM_5
100
AcDbLine
 10
-10.51288121801907
 20
0.000002583703691
 30
0.0
 11
-13.91194460964418
 21
0.0000034190762062
 31
0.0
  0
ARC
  5
6971
330
68A8
100
AcDbEntity
  8
AM_5
100
AcDbCircle
 10
-0.0000000000002701
 20
0.000000000000162
 30
0.0
 40
13.41194460964434
100
AcDbArc
 50
95.34193013829613
 51
174.6580557803783
  0
INSERT
  5
6972
330
68A8
100
AcDbEntity
  8
AM_5
100
AcDbBlockReference
  2
_OPEN30
 10
-0.000000000000381
 20
13.4119446096445
 30
0.0
 41
1.25
 42
1.25
 43
1.25
 50
2.670965069148322
  0
INSERT
  5
6973
330
68A8
100
AcDbEntity
  8
AM_5
100
AcDbBlockReference
  2
_OPEN30
 10
-13.4119446096442
 20
0.000003296193456
 30
0.0
 41
1.25
 42
1.25
 43
1.25
 50
267.3290208495261
  0
MTEXT
  5
6974
330
68A8
100
AcDbEntity
  8
AM_5
 62
     2
100
AcDbMText
 10
-10.57969119315554
 20
10.57969379327877
 30
0.0
 40
1.6
 41
0.0
 71
     5
 72
     1
  1
90°
  7
ASAMI
 11
0.7071068680777655
 21
0.707106694295319
 31
0.0
1001
ACAD
1000
MTEXTBEGIN
1070
    73
1070
     1
1070
    44
1040
1.0
1070
    74
1070
     0
1000
MTEXTEND
  0
POINT
  5
6975
330
68A8
100
AcDbEntity
  8
DEFPOINTS
 62
     0
100
AcDbPoint
 10
-6.705971353293416
 20
11.61508529546741
 30
0.0
  0
POINT
  5
6976
330
68A8
100
AcDbEntity
  8
DEFPOINTS
 62
     0
100
AcDbPoint
 10
-10.01288121801909
 20
0.0000024608209594
 30
0.0
  0
POINT
  5
6977
330
68A8
100
AcDbEntity
  8
DEFPOINTS
 62
     0
100
AcDbPoint
 10
-0.0000000000002675
 20
-0.3999999016936449
 30
0.0
  0
POINT
  5
6978
330
68A8
100
AcDbEntity
  8
DEFPOINTS
 62
     0
100
AcDbPoint
 10
-0.0000000000002682
 20
0.000000000000161
 30
0.0
  0
POINT
  5
6979
330
68A8
100
AcDbEntity
  8
DEFPOINTS
 62
     0
100
AcDbPoint
 10
-0.3999999016940663
 20
0.0000000983063393
 30
0.0
  0
ENDBLK
  5
68B9
330
68A8
100
AcDbEntity
  8
0
100
AcDbBlockEnd
  0
BLOCK
  5
6AE2
330
6AE0
100
AcDbEntity
  8
0
100
AcDbBlockBegin
  2
*U12
 70
     1
 10
0.0
 20
0.0
 30
0.0
  3
*U12
  1

  0
LEADER
  5
6AE1
330
6AE0
100
AcDbEntity
  8
0
  6
CONTINUOUS
 48
0.5
100
AcDbLeader
  3
AM_JIS$7
 76
     2
 10
-35.56723785400299
 20
61.482246398925
 30
0.0
 10
-35.56723785400299
 20
51.482246398925
 30
0.0
1001
ACAD
1000
DSTYLE
1002
{
1070
     6
1000
OPEN30
1070
   173
1070
     1
1070
   176
1070
     0
1070
   341
1005
59
1002
}
  0
ENDBLK
  5
6AE3
330
6AE0
100
AcDbEntity
  8
0
100
AcDbBlockEnd
  0
BLOCK
  5
6AE6
330
6AE4
100
AcDbEntity
  8
0
100
AcDbBlockBegin
  2
*U13
 70
     1
 10
0.0
 20
0.0
 30
0.0
  3
*U13
  1

  0
LEADER
  5
6AE5
330
6AE4
100
AcDbEntity
  8
0
  6
CONTINUOUS
 48
0.5
100
AcDbLeader
  3
AM_JIS$7
 76
     2
 10
-25.567237854003
 20
51.482246398925
 30
0.0
 10
-35.56723785400299
 20
51.482246398925
 30
0.0
1001
ACAD
1000
DSTYLE
1002
{
1070
     6
1000
OPEN30
1070
   173
1070
     1
1070
   176
1070
     0
1070
   341
1005
59
1002
}
  0
ENDBLK
  5
6AE7
330
6AE4
100
AcDbEntity
  8
0
100
AcDbBlockEnd
  0
ENDSEC
  0
SECTION
  2
ENTITIES
  0
TEXT
  5
388D
330
1F
100
AcDbEntity
  8
AM_6
100
AcDbText
 10
-65.56590543517245
 20
-36.79085366000695
 30
0.0
 40
2.5
  1
STGCR1212-11
 50
359.9999999999998
 51
359.9999999999998
 72
     4
 11
-52.47066733993436
 21
-35.54085366000698
 31
0.0
100
AcDbText
  0
LINE
  5
5F63
330
1F
100
AcDbEntity
  8
AM_0
100
AcDbLine
 10
-10.1883046234551
 20
-0.8961556264892205
 30
0.0
 11
-14.18703041831499
 21
-0.9659546810831674
 31
0.0
  0
LINE
  5
5F65
330
1F
100
AcDbEntity
  8
AM_0
100
AcDbLine
 10
-7.169450067116711
 20
-15.99999999999985
 30
0.0
 11
-100.0000000000002
 21
-15.99999999999998
 31
0.0
  0
LINE
  5
5F66
330
1F
100
AcDbEntity
  8
AM_0
100
AcDbLine
 10
-10.30869346915505
 20
25.48667486890687
 30
0.0
 11
-16.83502299897497
 21
25.48667486890684
 31
0.0
  0
LINE
  5
5F6D
330
1F
100
AcDbEntity
  8
AM_0
100
AcDbLine
 10
-10.08630508139751
 20
27.70169790967836
 30
0.0
 11
-0.2922318803657386
 21
27.70169790967836
 31
0.0
  0
LINE
  5
5F6E
330
1F
100
AcDbEntity
  8
AM_0
100
AcDbLine
 10
-10.4114172691714
 20
25.32169684156315
 30
0.0
 11
-0.000000000000318
 21
25.32169684156317
 31
0.0
  0
LINE
  5
5F70
330
1F
100
AcDbEntity
  8
AM_0
100
AcDbLine
 10
-0.000000000000318
 20
25.32169684156317
 30
0.0
 11
-0.2922325134283365
 21
27.70170306548016
 31
0.0
  0
LINE
  5
5F73
330
1F
100
AcDbEntity
  8
AM_0
100
AcDbLine
 10
-10.30869346915505
 20
25.48667486890684
 30
0.0
 11
-10.08630472376962
 21
26.70169790967836
 31
0.0
  0
LINE
  5
5F74
330
1F
100
AcDbEntity
  8
AM_0
100
AcDbLine
 10
-10.08630508139751
 20
26.70169790967836
 30
0.0
 11
-10.08630508139751
 21
27.70169790967836
 31
0.0
  0
LINE
  5
5F76
330
1F
100
AcDbEntity
  8
AM_0
100
AcDbLine
 10
-10.41141731308257
 20
25.32169648393524
 30
0.0
 11
-10.39116051979909
 21
25.48667486890686
 31
0.0
  0
LINE
  5
5F79
330
1F
100
AcDbEntity
  8
AM_0
100
AcDbLine
 10
-0.5666231874918287
 20
-1.488600108955522
 30
0.0
 11
-1.55248506420177
 21
-12.75704407650961
 31
0.0
  0
LINE
  5
5F7E
330
1F
100
AcDbEntity
  8
AM_7
100
AcDbLine
 10
-5.206437286506617
 20
-10.08650569317786
 30
0.0
 11
-5.206437286506617
 21
0.5115390759215678
 31
0.0
  0
LINE
  5
5F80
330
1F
100
AcDbEntity
  8
AM_7
100
AcDbLine
 10
-1.217768050235718
 20
-3.175000868650778
 30
0.0
 11
-9.703572179947771
 21
-3.175000868650792
 31
0.0
  0
LINE
  5
5F81
330
1F
100
AcDbEntity
  8
AM_0
100
AcDbLine
 10
-10.01288121801909
 20
0.0000024608209594
 30
0.0
 11
-0.3999999016940661
 21
0.0000000983063393
 31
0.0
  0
LINE
  5
5F86
330
1F
100
AcDbEntity
  8
AM_0
100
AcDbLine
 10
-0.6783376490407936
 20
-2.765505075044615
 30
0.0
 11
-1.303844297458532
 21
-2.765505075044614
 31
0.0
  0
LINE
  5
5F87
330
1F
100
AcDbEntity
  8
AM_0
100
AcDbLine
 10
-5.206439048929927
 20
-9.525000362709549
 30
0.0
 11
-0.0535898013731922
 21
-0.5999998374115135
 31
0.0
  0
LINE
  5
5F8B
330
1F
100
AcDbEntity
  8
AM_0
100
AcDbLine
 10
-1.552486017875759
 20
-12.75704407650961
 30
0.0
 11
-7.169450067116711
 21
-15.99999999999985
 31
0.0
  0
ARC
  5
5F8C
330
1F
100
AcDbEntity
  8
AM_0
100
AcDbCircle
 10
-6.505475639355514
 20
-8.775000972960357
 30
0.0
 40
1.5
100
AcDbArc
 50
150.0001369465337
 51
329.99999124784
  0
LINE
  5
5F8F
330
1F
100
AcDbEntity
  8
AM_0
100
AcDbLine
 10
-7.804517627918913
 20
-8.024996706984417
 30
0.0
 11
-6.938492294039773
 21
-6.524998890868779
 31
0.0
  0
LINE
  5
5F91
330
1F
100
AcDbEntity
  8
AM_0
100
AcDbLine
 10
-17.00000315905652
 20
25.32169684156315
 30
0.0
 11
-100.0000000000002
 21
25.32169684156305
 31
0.0
  0
LINE
  5
5F92
330
1F
100
AcDbEntity
  8
AM_0
100
AcDbLine
 10
-15.00000000000031
 20
25.48667486890686
 30
0.0
 11
-15.00000000000033
 21
37.32169684156316
 31
0.0
  0
LINE
  5
5F93
330
1F
100
AcDbEntity
  8
AM_0
100
AcDbLine
 10
-14.18256624923748
 20
25.48667486890686
 30
0.0
 11
-14.18256624923747
 21
37.32169684156316
 31
0.0
  0
LINE
  5
5F94
330
1F
100
AcDbEntity
  8
AM_0
100
AcDbLine
 10
-17.00000315905653
 20
25.32169684156315
 30
0.0
 11
-16.83502299897497
 21
25.48667486890684
 31
0.0
  0
LINE
  5
5F98
330
1F
100
AcDbEntity
  8
AM_0
100
AcDbLine
 10
-100.0000000000002
 20
25.32169684156305
 30
0.0
 11
-100.0000000000003
 21
37.32169684156305
 31
0.0
  0
LINE
  5
5F99
330
1F
100
AcDbEntity
  8
AM_0
100
AcDbLine
 10
-15.00000095367457
 20
-3.999999999999873
 30
0.0
 11
-100.0000000000002
 21
-3.999999999999985
 31
0.0
  0
LINE
  5
5F9B
330
1F
100
AcDbEntity
  8
AM_0
100
AcDbLine
 10
-16.83501434326195
 20
-15.99999999999987
 30
0.0
 11
-16.83501434326198
 21
-3.999999999999872
 31
0.0
  0
LINE
  5
5F9C
330
1F
100
AcDbEntity
  8
AM_0
100
AcDbLine
 10
-17.00000000000025
 20
-15.99999999999987
 30
0.0
 11
-17.00000000000026
 21
-3.999999999999872
 31
0.0
  0
LINE
  5
5F9D
330
1F
100
AcDbEntity
  8
AM_0
100
AcDbLine
 10
-15.00000095367457
 20
-3.999999999999872
 30
0.0
 11
-14.18703041831499
 21
-0.9659546810831674
 31
0.0
  0
LINE
  5
5F9E
330
1F
100
AcDbEntity
  8
AM_0
100
AcDbLine
 10
-100.0000000000002
 20
-15.99999999999998
 30
0.0
 11
-100.0000000000002
 21
-3.999999999999985
 31
0.0
  0
LINE
  5
606E
330
1F
100
AcDbEntity
  8
AM_0
100
AcDbLine
 10
-5.552850520935119
 20
-8.925002205148242
 30
0.0
 11
-10.35929152699215
 21
-0.5999974540433523
 31
0.0
  0
ARC
  5
6076
330
1F
100
AcDbEntity
  8
AM_0
100
AcDbCircle
 10
-10.01288131632529
 20
-0.3999975391790254
 30
0.0
 40
0.4
100
AcDbArc
 50
89.99998591867392
 51
209.9999859186737
1001
GENIUS_GENODEF_13
1002
{
1000
HIER
1070
     0
1002
}
1002
{
1000
MANEDIT
1070
     0
1002
}
1002
{
1000
NOSEL
1070
     0
1002
}
1002
{
1000
BEHIND
1070
     0
1002
}
1002
{
1000
REACTOR
1002
}
1001
GENIUS_GENOBJ-N-FIL_13
1002
{
1000
OWNER
1000
GEN
1002
}
  0
ARC
  5
6079
330
1F
100
AcDbEntity
  8
AM_0
100
AcDbCircle
 10
-0.4000000000002676
 20
-0.3999999016936456
 30
0.0
 40
0.4
100
AcDbArc
 50
330.0000106321791
 51
89.99998591867392
1001
GENIUS_GENODEF_13
1002
{
1000
HIER
1070
     0
1002
}
1002
{
1000
MANEDIT
1070
     0
1002
}
1002
{
1000
NOSEL
1070
     0
1002
}
1002
{
1000
BEHIND
1070
     0
1002
}
1002
{
1000
REACTOR
1002
}
1001
GENIUS_GENOBJ-N-FIL_13
1002
{
1000
OWNER
1000
GEN
1002
}
  0
ARC
  5
607C
330
1F
100
AcDbEntity
  8
AM_0
100
AcDbCircle
 10
-5.206440310268253
 20
-8.725002290283915
 30
0.0
 40
0.4
100
AcDbArc
 50
209.9999859186737
 51
330.0000106321791
1001
GENIUS_GENODEF_13
1002
{
1000
HIER
1070
     0
1002
}
1002
{
1000
MANEDIT
1070
     0
1002
}
1002
{
1000
NOSEL
1070
     0
1002
}
1002
{
1000
BEHIND
1070
     0
1002
}
1002
{
1000
REACTOR
1002
}
1001
GENIUS_GENOBJ-N-FIL_13
1002
{
1000
OWNER
1000
GEN
1002
}
  0
LINE
  5
6080
330
1F
100
AcDbEntity
  8
AM_11
100
AcDbLine
 10
-0.3999999016940643
 20
0.0000000983063392
 30
0.0
 11
-0.0000000000002682
 21
0.000000000000161
 31
0.0
  0
LINE
  5
61D7
330
1F
100
AcDbEntity
  8
AM_0
100
AcDbLine
 10
-0.4999955260339757
 20
37.32169684156316
 30
0.0
 11
-100.0000000000002
 21
37.32169684156305
 31
0.0
  0
LINE
  5
627B
330
1F
100
AcDbEntity
  8
AM_0
100
AcDbLine
 10
-0.4999955260339482
 20
27.70169790967836
 30
0.0
 11
-0.4999955260339757
 21
37.32169684156316
 31
0.0
  0
DIMENSION
  5
628E
330
1F
100
AcDbEntity
  8
AM_5
100
AcDbDimension
  2
*D5
 10
-110.6058582372751
 20
-15.99999999999997
 30
0.0
 11
-112.1558582372751
 21
-9.999999999999992
 31
0.0
 70
    32
  1
<>
 51
359.9999999999998
  3
AM_JIS$0
100
AcDbAlignedDimension
 13
-100.0000000000002
 23
-3.999999999999978
 33
0.0
 14
-100.0000000000002
 24
-15.99999999999997
 34
0.0
 50
270.0000000000001
100
AcDbRotatedDimension
1001
GENIUS_GENDTOL_13
1000

1000
h7
1000

1040
0.0
1001
ACAD
1000
DSTYLE
1002
{
1070
   287
1070
     3
1070
    40
1040
0.5
1070
    42
1040
1.0
1070
    43
1040
12.0
1070
    48
1040
0.1
1070
    78
1070
     8
1070
   140
1040
3.2
1070
   176
1070
   256
1070
   177
1070
   256
1070
   271
1070
     3
1070
   272
1070
     3
1070
   275
1070
     0
1070
   284
1070
     0
1070
   289
1070
     3
1070
   340
1005
6B
1070
   371
1070
    -1
1070
   372
1070
    -1
1002
}
  0
DIMENSION
  5
6357
330
1F
100
AcDbEntity
  8
AM_5
100
AcDbDimension
  2
*D6
 10
-110.6058582372753
 20
25.32169684156305
 30
0.0
 11
-112.1558582372753
 21
31.32169684156304
 31
0.0
 70
    32
  1
<>
 51
359.9999999999998
  3
AM_JIS$0
100
AcDbAlignedDimension
 13
-100.0000000000003
 23
37.32169684156305
 33
0.0
 14
-100.0000000000002
 24
25.32169684156305
 34
0.0
 50
270.0000000000001
100
AcDbRotatedDimension
1001
GENIUS_GENDTOL_13
1000

1000
h7
1000

1040
0.0
1001
ACAD
1000
DSTYLE
1002
{
1070
   287
1070
     3
1070
    40
1040
0.5
1070
    42
1040
1.0
1070
    43
1040
12.0
1070
    48
1040
0.1
1070
    78
1070
     8
1070
   140
1040
3.2
1070
   176
1070
   256
1070
   177
1070
   256
1070
   271
1070
     3
1070
   272
1070
     3
1070
   275
1070
     0
1070
   284
1070
     0
1070
   289
1070
     3
1070
   340
1005
6B
1070
   371
1070
    -1
1070
   372
1070
    -1
1002
}
  0
DIMENSION
  5
6405
330
1F
100
AcDbEntity
  8
AM_5
100
AcDbDimension
  2
*D7
 10
-0.0000000000002371
 20
16.96782937677497
 30
0.0
 11
-50.00000000000023
 21
18.51782937677506
 31
0.0
 70
    32
  1
<>
 51
359.9999999999998
  3
AM_JIS$0
100
AcDbAlignedDimension
 13
-100.0000000000002
 23
-3.999999999999978
 33
0.0
 14
-0.0000000000002682
 24
0.0000000000001563
 34
0.0
 50
180.0
100
AcDbRotatedDimension
1001
GENIUS_GENDTOL_13
1000

1000
h7
1000

1040
0.0
1001
ACAD
1000
DSTYLE
1002
{
1070
   287
1070
     3
1070
    40
1040
0.5
1070
    42
1040
1.0
1070
    43
1040
12.0
1070
    48
1040
0.1
1070
    78
1070
     8
1070
   140
1040
3.2
1070
   176
1070
   256
1070
   177
1070
   256
1070
   271
1070
     3
1070
   272
1070
     3
1070
   275
1070
     0
1070
   284
1070
     0
1070
   289
1070
     3
1070
   340
1005
6B
1070
   371
1070
    -1
1070
   372
1070
    -1
1002
}
  0
DIMENSION
  5
6630
330
1F
100
AcDbEntity
  8
AM_5
100
AcDbDimension
  2
*D8
 10
12.33451265976366
 20
25.32169684156316
 30
0.0
 11
10.78451265976366
 21
31.32169684156316
 31
0.0
 70
    32
  1
<>
 51
359.9999999999998
  3
AM_JIS$0
100
AcDbAlignedDimension
 13
-0.4999955260339766
 23
37.32169684156316
 33
0.0
 14
-0.000000000000318
 24
25.32169684156317
 34
0.0
 50
90.0
100
AcDbRotatedDimension
1001
GENIUS_GENDTOL_13
1000

1000
h7
1000

1040
0.0
1001
ACAD
1000
DSTYLE
1002
{
1070
   287
1070
     3
1070
    40
1040
0.5
1070
    42
1040
1.0
1070
    43
1040
12.0
1070
    48
1040
0.1
1070
    78
1070
     8
1070
   140
1040
3.2
1070
   176
1070
   256
1070
   177
1070
   256
1070
   271
1070
     3
1070
   272
1070
     3
1070
   275
1070
     0
1070
   284
1070
     0
1070
   289
1070
     3
1070
   340
1005
6B
1070
   371
1070
    -1
1070
   372
1070
    -1
1002
}
  0
DIMENSION
  5
66CD
330
1F
100
AcDbEntity
  8
AM_5
100
AcDbDimension
  2
*D9
 10
12.33451265976347
 20
-15.99999999999986
 30
0.0
 11
10.78451265976348
 21
-7.999999999999853
 31
0.0
 70
    32
  1
<>
 51
359.9999999999998
  3
AM_JIS$0
100
AcDbAlignedDimension
 13
-0.0000000000002709
 23
0.0000000000001563
 33
0.0
 14
-7.169450067116711
 24
-15.99999999999985
 34
0.0
 50
90.0000000000001
100
AcDbRotatedDimension
1001
GENIUS_GENDTOL_13
1000

1000
h7
1000

1040
0.0
1001
ACAD
1000
DSTYLE
1002
{
1070
   287
1070
     3
1070
    40
1040
0.5
1070
    42
1040
1.0
1070
    43
1040
12.0
1070
    48
1040
0.1
1070
    78
1070
     8
1070
   140
1040
3.2
1070
   176
1070
   256
1070
   177
1070
   256
1070
   271
1070
     3
1070
   272
1070
     3
1070
   275
1070
     0
1070
   284
1070
     0
1070
   289
1070
     3
1070
   340
1005
6B
1070
   371
1070
    -1
1070
   372
1070
    -1
1002
}
  0
DIMENSION
  5
6771
330
1F
100
AcDbEntity
  8
AM_5
100
AcDbDimension
  2
*D10
 10
-100.0000000000002
 20
-15.99999999999998
 30
0.0
 11
-22.51153609712198
 21
-20.11089980086738
 31
0.0
 70
    34
  1
<>
 51
359.9999999999998
  3
AM_JIS$2
100
AcDb2LineAngularDimension
 13
-1.552486017875759
 23
-12.75704407650961
 33
0.0
 14
-7.169450067116711
 24
-15.99999999999985
 34
0.0
 15
-7.169450067116711
 25
-15.99999999999985
 35
0.0
 16
-24.33789538130104
 26
-19.02726029717921
 36
0.0
1001
GENIUS_GENDTOL_13
1000

1000
h7
1000

1040
0.0
1001
ACAD
1000
DSTYLE
1002
{
1070
   271
1070
     0
1002
}
  0
CIRCLE
  5
6887
330
1F
100
AcDbEntity
  8
AM_0
100
AcDbCircle
 10
-5.206437286506616
 20
-3.175000868650784
 30
0.0
 40
1.725
  0
LINE
  5
689B
330
1F
100
AcDbEntity
  8
AM_11
100
AcDbLine
 10
-0.0000000000002674
 20
-0.3999999016936449
 30
0.0
 11
-0.0000000000002682
 21
0.000000000000161
 31
0.0
  0
DIMENSION
  5
68A7
330
1F
100
AcDbEntity
  8
AM_5
100
AcDbDimension
  2
*D11
 10
-0.3999999016940663
 20
0.0000000983063393
 30
0.0
 11
-10.57969119315552
 21
10.57969379327879
 31
0.0
 70
    34
  1
<>
 51
359.9999999999998
  3
AM_JIS$2
100
AcDb2LineAngularDimension
 13
-0.0000000000002674
 23
-0.3999999016936449
 33
0.0
 14
-0.0000000000002682
 24
0.000000000000161
 34
0.0
 15
-10.01288121801909
 25
0.0000024608209594
 35
0.0
 16
-6.705971353293416
 26
11.61508529546741
 36
0.0
1001
ACAD
1000
DSTYLE
1002
{
1070
   179
1070
     3
1002
}
1001
GENIUS_GENDTOL_13
1000

1000
h7
1000

1040
0.0
  0
MTEXT
  5
6AF0
330
1F
100
AcDbEntity
  8
AM_6
100
AcDbMText
 10
26.04761351837644
 20
0.9166666540415326
 30
0.0
 40
2.5
 41
0.0
 71
     4
 72
     5
  1
\T1.40;\W0.59;０°
1001
ACAD
1000
MTEXTBEGIN
1070
    73
1070
     1
1070
    44
1040
1.0
1070
    74
1070
     0
1000
MTEXTEND
  0
INSERT
  5
6AF1
330
1F
100
AcDbEntity
  8
AM_5
100
AcDbBlockReference
  2
*U13
 10
-8.981088157036174
 20
65.752238587344
 30
0.0
 50
180.0000000000002
  0
INSERT
  5
6AF2
330
1F
100
AcDbEntity
  8
AM_5
100
AcDbBlockReference
  2
*U12
 10
-8.981088157036174
 20
65.752238587344
 30
0.0
 50
180.0000000000002
  0
MTEXT
  5
6AF3
330
1F
100
AcDbEntity
  8
AM_6
100
AcDbMText
 10
12.53951250980947
 20
14.25087844127427
 30
0.0
 40
2.5
 41
0.0
 71
     4
 72
     5
  1
\T1.40;\W0.59;０°
1001
ACAD
1000
MTEXTBEGIN
1070
    73
1070
     1
1070
    44
1040
1.0
1070
    74
1070
     0
1000
MTEXTEND
  0
VIEWPORT
  5
110
330
101
100
AcDbEntity
 67
     1
  8
0
100
AcDbViewport
 10
420.5
 20
297.0
 30
0.0
 40
948.9782706766916
 41
628.452
 68
     1
 69
     1
1001
ACAD
1000
MVIEW
1002
{
1070
    16
1010
0.0
1020
0.0
1030
0.0
1010
0.0
1020
0.0
1030
1.0
1040
0.0
1040
628.452
1040
420.5
1040
297.0
1040
50.0
1040
0.0
1040
0.0
1070
     0
1070
   100
1070
     1
1070
     1
1070
     0
1070
     0
1070
     0
1070
     0
1040
0.0
1040
0.0
1040
0.0
1040
10.0
1040
10.0
1040
10.0
1040
10.0
1070
     0
1002
{
1002
}
1002
}
  0
ENDSEC
  0
SECTION
  2
OBJECTS
  0
DICTIONARY
  5
C
330
0
100
AcDbDictionary
  3
ACAD_GROUP
350
D
  3
ACAD_LAYOUT
350
1A
  3
ACAD_MLINESTYLE
350
17
  3
ACAD_PLOTSETTINGS
350
19
  3
ACAD_PLOTSTYLENAME
350
E
  3
ACDBVARIABLEDICTIONARY
350
34
  3
ACMDICTIONARY
350
43
  3
AMG
350
2B
  3
AMGSNAPSETTINGS
350
6E
  3
DWGPROPS
350
6B48
  3
ACDBHEADERROUNDTRIPXREC
350
6B54
  0
DICTIONARY
  5
74
330
1F
100
AcDbDictionary
280
     1
  3
ACAD_INDEX
360
6B4A
  3
ACAD_LAYOUTSELFREF
360
6B77
  0
DICTIONARY
  5
6B7C
330
101
100
AcDbDictionary
280
     1
  3
ACAD_LAYOUTSELFREF
360
6B7D
  0
DICTIONARY
  5
D
102
{ACAD_REACTORS
330
C
102
}
330
C
100
AcDbDictionary
  0
DICTIONARY
  5
1A
102
{ACAD_REACTORS
330
C
102
}
330
C
100
AcDbDictionary
  0
DICTIONARY
  5
17
102
{ACAD_REACTORS
330
C
102
}
330
C
100
AcDbDictionary
  3
STANDARD
350
18
  0
DICTIONARY
  5
19
102
{ACAD_REACTORS
330
C
102
}
330
C
100
AcDbDictionary
  3
ASAMI
350
399D
  0
ACDBDICTIONARYWDFLT
  5
E
102
{ACAD_REACTORS
330
C
102
}
330
C
100
AcDbDictionary
281
     1
  3
Normal
350
F
100
AcDbDictionaryWithDefault
340
F
  0
DICTIONARY
  5
34
102
{ACAD_REACTORS
330
C
102
}
330
C
100
AcDbDictionary
  3
INDEXCTL
350
35
  3
SORTENTS
350
B5E
  0
DICTIONARY
  5
43
102
{ACAD_REACTORS
330
C
102
}
330
C
100
AcDbDictionary
  3
ACMSTDDICTIONARY
350
260
  0
DICTIONARY
  5
2B
102
{ACAD_REACTORS
330
C
102
}
330
C
100
AcDbDictionary
  3
ACMGSETTINGS
350
2C
  0
DICTIONARY
  5
6E
102
{ACAD_REACTORS
330
C
102
}
330
C
100
AcDbDictionary
  0
XRECORD
  5
6B48
102
{ACAD_REACTORS
330
C
102
}
330
C
100
AcDbXrecord
  1
DWGPROPS COOKIE
  2

  3

  4

  6

  7

  8

  9

300
AmdtFileType=82
301
=
302
=
303
=
304
=
305
=
306
=
307
=
308
=
309
=
 40
0.7845249768518519
 41
2452802.716478761
 42
2452845.568822696
  1

 90
        1
  0
DICTIONARY
  5
6B54
102
{ACAD_REACTORS
330
C
102
}
330
C
100
AcDbDictionary
  3
TSTACKALIGN
350
6B55
  3
TSTACKSIZE
350
6B56
  3
HYPERLINKBASE
350
6B57
  3
STYLESHEET
350
6B58
  3
LAYOUTDICT
350
6B59
  3
PLOTSETDICT
350
6B5A
  3
PLOTSTYLNAMDICT
350
6B5B
  3
LWETCUNION
350
6B5C
  3
INSUNITS
350
6B5D
  3
CEPSNTYPE
350
6B5E
  3
FINGERPRINTGUID
350
6B5F
  3
VERSIONGUID
350
6B60
  3
PSVPSCALE
350
6B61
  3
DIMSTYLEDATA
350
6B62
  3
PUCSORTHOREF
350
6B63
  3
PUCSORTHOVIEW
350
6B64
  3
PUCSBASE
350
6B65
  3
PUCSORGTOP
350
6B66
  3
PUCSORGBOTTOM
350
6B67
  3
PUCSORGLEFT
350
6B68
  3
PUCSORGRIGHT
350
6B69
  3
PUCSORGFRONT
350
6B6A
  3
PUCSORGBACK
350
6B6B
  3
UCSORTHOREF
350
6B6C
  3
UCSORTHOVIEW
350
6B6D
  3
UCSBASE
350
6B6E
  3
UCSORGTOP
350
6B6F
  3
UCSORGBOTTOM
350
6B70
  3
UCSORGLEFT
350
6B71
  3
UCSORGRIGHT
350
6B72
  3
UCSORGFRONT
350
6B73
  3
UCSORGBACK
350
6B74
  0
DICTIONARY
  5
6B4A
102
{ACAD_REACTORS
330
74
102
}
330
74
100
AcDbDictionary
  3
*A1
350
6B4B
  0
XRECORD
  5
6B77
102
{ACAD_REACTORS
330
74
102
}
330
74
100
AcDbXrecord
340
1F
  0
XRECORD
  5
6B7D
102
{ACAD_REACTORS
330
6B7C
102
}
330
6B7C
100
AcDbXrecord
340
101
  0
MLINESTYLE
  5
18
102
{ACAD_REACTORS
330
17
102
}
330
17
100
AcDbMlineStyle
  2
STANDARD
 70
     0
  3

 62
   256
 51
90.0
 52
90.0
 71
     2
 49
0.5
 62
   256
  6
BYLAYER
 49
-0.5
 62
   256
  6
BYLAYER
  0
PLOTSETTINGS
  5
399D
102
{ACAD_REACTORS
330
19
102
}
330
19
100
AcDbPlotSettings
  1
asami
  2
RICOH imagio MF1540
  4
A4
  6

 40
5.831416606903076
 41
7.651742935180664
 42
4.90008544921875
 43
5.789077758789062
 44
296.9683227539062
 45
209.9733276367187
 46
0.0
 47
0.0
 48
-156.6707931774246
 49
-74.57609991074048
140
58.59973180214831
141
60.61068161925596
142
1.0
143
1.095343097833084
 70
  1712
 72
     1
 73
     1
 74
     4
  7
asami.ctb
 75
     0
147
0.9129559514076438
148
156.6707931774246
149
74.57609991074048
  0
ACDBPLACEHOLDER
  5
F
102
{ACAD_REACTORS
330
E
102
}
330
E
100
AcDbPlaceHolder
280
     0
  0
DICTIONARYVAR
  5
35
102
{ACAD_REACTORS
330
34
102
}
330
34
100
DictionaryVariables
280
     0
  1
1
  0
DICTIONARYVAR
  5
B5E
102
{ACAD_REACTORS
330
34
102
}
330
34
100
DictionaryVariables
280
     0
  1
96
  0
DICTIONARY
  5
260
102
{ACAD_REACTORS
330
43
102
}
330
43
100
AcDbDictionary
  0
DICTIONARY
  5
2C
102
{ACAD_REACTORS
330
2B
102
}
330
2B
100
AcDbDictionary
  3
DWGSETTINGS
350
2D
  0
XRECORD
  5
6B55
102
{ACAD_REACTORS
330
6B54
102
}
330
6B54
100
AcDbXrecord
 90
        1
  0
XRECORD
  5
6B56
102
{ACAD_REACTORS
330
6B54
102
}
330
6B54
100
AcDbXrecord
 90
       70
  0
XRECORD
  5
6B57
102
{ACAD_REACTORS
330
6B54
102
}
330
6B54
100
AcDbXrecord
  1

  0
XRECORD
  5
6B58
102
{ACAD_REACTORS
330
6B54
102
}
330
6B54
100
AcDbXrecord
  1
ASAMI.ctb
  0
XRECORD
  5
6B59
102
{ACAD_REACTORS
330
6B54
102
}
330
6B54
100
AcDbXrecord
340
1A
  0
XRECORD
  5
6B5A
102
{ACAD_REACTORS
330
6B54
102
}
330
6B54
100
AcDbXrecord
340
19
  0
XRECORD
  5
6B5B
102
{ACAD_REACTORS
330
6B54
102
}
330
6B54
100
AcDbXrecord
340
E
  0
XRECORD
  5
6B5C
102
{ACAD_REACTORS
330
6B54
102
}
330
6B54
100
AcDbXrecord
 90
    10781
  0
XRECORD
  5
6B5D
102
{ACAD_REACTORS
330
6B54
102
}
330
6B54
100
AcDbXrecord
 90
        4
  0
XRECORD
  5
6B5E
102
{ACAD_REACTORS
330
6B54
102
}
330
6B54
100
AcDbXrecord
 90
        0
  0
XRECORD
  5
6B5F
102
{ACAD_REACTORS
330
6B54
102
}
330
6B54
100
AcDbXrecord
  1
{AFB28963-8C59-40AE-9337-C84526B81ACE}
  0
XRECORD
  5
6B60
102
{ACAD_REACTORS
330
6B54
102
}
330
6B54
100
AcDbXrecord
  1
{F2F79DE5-EF91-4896-86B5-C785A89D9569}
  0
XRECORD
  5
6B61
102
{ACAD_REACTORS
330
6B54
102
}
330
6B54
100
AcDbXrecord
 40
0.0
  0
XRECORD
  5
6B62
102
{ACAD_REACTORS
330
6B54
102
}
330
6B54
100
AcDbXrecord
1000
DSTYLE
1002
{
1070
    79
 70
     2
1070
   341
340
59
1070
   342
340
59
1070
   371
 70
    -1
1070
   372
 70
    -1
1002
}
  0
XRECORD
  5
6B63
102
{ACAD_REACTORS
330
6B54
102
}
330
6B54
100
AcDbXrecord
340
0
  0
XRECORD
  5
6B64
102
{ACAD_REACTORS
330
6B54
102
}
330
6B54
100
AcDbXrecord
 70
     0
  0
XRECORD
  5
6B65
102
{ACAD_REACTORS
330
6B54
102
}
330
6B54
100
AcDbXrecord
340
0
  0
XRECORD
  5
6B66
102
{ACAD_REACTORS
330
6B54
102
}
330
6B54
100
AcDbXrecord
 10
0.0
 20
0.0
 30
0.0
  0
XRECORD
  5
6B67
102
{ACAD_REACTORS
330
6B54
102
}
330
6B54
100
AcDbXrecord
 10
0.0
 20
0.0
 30
0.0
  0
XRECORD
  5
6B68
102
{ACAD_REACTORS
330
6B54
102
}
330
6B54
100
AcDbXrecord
 10
0.0
 20
0.0
 30
0.0
  0
XRECORD
  5
6B69
102
{ACAD_REACTORS
330
6B54
102
}
330
6B54
100
AcDbXrecord
 10
0.0
 20
0.0
 30
0.0
  0
XRECORD
  5
6B6A
102
{ACAD_REACTORS
330
6B54
102
}
330
6B54
100
AcDbXrecord
 10
0.0
 20
0.0
 30
0.0
  0
XRECORD
  5
6B6B
102
{ACAD_REACTORS
330
6B54
102
}
330
6B54
100
AcDbXrecord
 10
0.0
 20
0.0
 30
0.0
  0
XRECORD
  5
6B6C
102
{ACAD_REACTORS
330
6B54
102
}
330
6B54
100
AcDbXrecord
340
0
  0
XRECORD
  5
6B6D
102
{ACAD_REACTORS
330
6B54
102
}
330
6B54
100
AcDbXrecord
 70
     0
  0
XRECORD
  5
6B6E
102
{ACAD_REACTORS
330
6B54
102
}
330
6B54
100
AcDbXrecord
340
0
  0
XRECORD
  5
6B6F
102
{ACAD_REACTORS
330
6B54
102
}
330
6B54
100
AcDbXrecord
 10
0.0
 20
0.0
 30
0.0
  0
XRECORD
  5
6B70
102
{ACAD_REACTORS
330
6B54
102
}
330
6B54
100
AcDbXrecord
 10
0.0
 20
0.0
 30
0.0
  0
XRECORD
  5
6B71
102
{ACAD_REACTORS
330
6B54
102
}
330
6B54
100
AcDbXrecord
 10
0.0
 20
0.0
 30
0.0
  0
XRECORD
  5
6B72
102
{ACAD_REACTORS
330
6B54
102
}
330
6B54
100
AcDbXrecord
 10
0.0
 20
0.0
 30
0.0
  0
XRECORD
  5
6B73
102
{ACAD_REACTORS
330
6B54
102
}
330
6B54
100
AcDbXrecord
 10
0.0
 20
0.0
 30
0.0
  0
XRECORD
  5
6B74
102
{ACAD_REACTORS
330
6B54
102
}
330
6B54
100
AcDbXrecord
 10
0.0
 20
0.0
 30
0.0
  0
LAYER_INDEX
  5
6B4B
102
{ACAD_REACTORS
330
6B4A
102
}
330
6B4A
100
AcDbIndex
 40
2452941.60522912
100
AcDbLayerIndex
  8
0
360
6B4C
 90
        0
  8
AM_0
360
6B4D
 90
       33
  8
AM_5
360
6B4E
 90
        9
  8
AM_11
360
6B4F
 90
        2
  8
AM_7
360
6B50
 90
        2
  8
AM_6
360
6B51
 90
        3
  8
Defpoints
360
6B52
 90
        0
  0
XRECORD
  5
2D
102
{ACAD_REACTORS
330
2C
102
}
330
2C
100
AcDbXrecord
  1
VERSION
140
15.0
  1
PRODUCT
  2
AutoCAD Mechanical 2000
  0
IDBUFFER
  5
6B4C
330
0
100
AcDbIdBuffer
  0
IDBUFFER
  5
6B4D
330
0
100
AcDbIdBuffer
330
5F91
330
5F92
330
5F93
330
5F94
330
5F98
330
5F99
330
5F9B
330
5F9C
330
5F9D
330
5F9E
330
606E
330
6076
330
6079
330
607C
330
61D7
330
627B
330
6887
330
5F63
330
5F65
330
5F66
330
5F6D
330
5F6E
330
5F70
330
5F73
330
5F74
330
5F76
330
5F79
330
5F81
330
5F86
330
5F87
330
5F8B
330
5F8C
330
5F8F
  0
IDBUFFER
  5
6B4E
330
0
100
AcDbIdBuffer
330
628E
330
6357
330
6405
330
6630
330
66CD
330
6771
330
68A7
330
6AF1
330
6AF2
  0
IDBUFFER
  5
6B4F
330
0
100
AcDbIdBuffer
330
6080
330
689B
  0
IDBUFFER
  5
6B50
330
0
100
AcDbIdBuffer
330
5F7E
330
5F80
  0
IDBUFFER
  5
6B51
330
0
100
AcDbIdBuffer
330
388D
330
6AF0
330
6AF3
  0
IDBUFFER
  5
6B52
330
0
100
AcDbIdBuffer
  0
ENDSEC
  0
EOF
