  0
SECTION
  2
HEADER
  9
$ACADVER
  1
AC1014
  9
$ACADMAINTVER
 70
     9
  9
$DWGCODEPAGE
  3
ANSI_932
  9
$INSBASE
 10
0.0
 20
0.0
 30
0.0
  9
$EXTMIN
 10
-190.5604086187388
 20
-35.00000000000011
 30
0.0
  9
$EXTMAX
 10
59.0122608946975
 20
87.1109578581481
 30
0.0
  9
$LIMMIN
 10
-205.2654711183545
 20
-50.62530146371035
  9
$LIMMAX
 10
78.89227130694507
 20
96.47328390978543
  9
$ORTHOMODE
 70
     0
  9
$REGENMODE
 70
     1
  9
$FILLMODE
 70
     1
  9
$QTEXTMODE
 70
     0
  9
$MIRRTEXT
 70
     0
  9
$DRAGMODE
 70
     2
  9
$LTSCALE
 40
1.0
  9
$OSMODE
 70
  2103
  9
$ATTMODE
 70
     1
  9
$TEXTSIZE
 40
2.5
  9
$TRACEWID
 40
1.0
  9
$TEXTSTYLE
  7
STANDARD
  9
$CLAYER
  8
AM_0
  9
$CELTYPE
  6
BYLAYER
  9
$CECOLOR
 62
   256
  9
$CELTSCALE
 40
1.0
  9
$DELOBJ
 70
     1
  9
$DISPSILH
 70
     0
  9
$DIMSCALE
 40
1.0
  9
$DIMASZ
 40
2.5
  9
$DIMEXO
 40
1.0
  9
$DIMDLI
 40
12.0
  9
$DIMRND
 40
0.0
  9
$DIMDLE
 40
0.0
  9
$DIMEXE
 40
1.0
  9
$DIMTP
 40
0.1
  9
$DIMTM
 40
0.1
  9
$DIMTXT
 40
3.2
  9
$DIMCEN
 40
0.0
  9
$DIMTSZ
 40
0.0
  9
$DIMTOL
 70
     0
  9
$DIMLIM
 70
     0
  9
$DIMTIH
 70
     0
  9
$DIMTOH
 70
     0
  9
$DIMSE1
 70
     0
  9
$DIMSE2
 70
     0
  9
$DIMTAD
 70
     3
  9
$DIMZIN
 70
     8
  9
$DIMBLK
  1
OPEN30
  9
$DIMASO
 70
     1
  9
$DIMSHO
 70
     1
  9
$DIMPOST
  1

  9
$DIMAPOST
  1
"
  9
$DIMALT
 70
     0
  9
$DIMALTD
 70
     2
  9
$DIMALTF
 40
0.0393701
  9
$DIMLFAC
 40
1.0
  9
$DIMTOFL
 70
     1
  9
$DIMTVP
 40
0.0
  9
$DIMTIX
 70
     0
  9
$DIMSOXD
 70
     0
  9
$DIMSAH
 70
     0
  9
$DIMBLK1
  1

  9
$DIMBLK2
  1

  9
$DIMSTYLE
  2
AM_JIS
  9
$DIMCLRD
 70
   256
  9
$DIMCLRE
 70
   256
  9
$DIMCLRT
 70
     2
  9
$DIMTFAC
 40
0.71
  9
$DIMGAP
 40
1.5
  9
$DIMJUST
 70
     0
  9
$DIMSD1
 70
     0
  9
$DIMSD2
 70
     0
  9
$DIMTOLJ
 70
     0
  9
$DIMTZIN
 70
     0
  9
$DIMALTZ
 70
     0
  9
$DIMALTTZ
 70
     0
  9
$DIMFIT
 70
     3
  9
$DIMUPT
 70
     0
  9
$DIMUNIT
 70
     2
  9
$DIMDEC
 70
     3
  9
$DIMTDEC
 70
     3
  9
$DIMALTU
 70
     2
  9
$DIMALTTD
 70
     2
  9
$DIMTXSTY
  7
ASAMI
  9
$DIMAUNIT
 70
     0
  9
$LUNITS
 70
     2
  9
$LUPREC
 70
     2
  9
$SKETCHINC
 40
1.0
  9
$FILLETRAD
 40
0.2
  9
$AUNITS
 70
     0
  9
$AUPREC
 70
     0
  9
$MENU
  1
.
  9
$ELEVATION
 40
0.0
  9
$PELEVATION
 40
0.0
  9
$THICKNESS
 40
0.0
  9
$LIMCHECK
 70
     1
  9
$BLIPMODE
 70
     0
  9
$CHAMFERA
 40
1.0
  9
$CHAMFERB
 40
1.0
  9
$CHAMFERC
 40
20.0
  9
$CHAMFERD
 40
0.0
  9
$SKPOLY
 70
     0
  9
$TDCREATE
 40
2452802.716478761
  9
$TDUPDATE
 40
2452941.607493298
  9
$TDINDWG
 40
0.8588181481
  9
$TDUSRTIMER
 40
0.8588181481
  9
$USRTIMER
 70
     1
  9
$ANGBASE
 50
0.0
  9
$ANGDIR
 70
     0
  9
$PDMODE
 70
     0
  9
$PDSIZE
 40
0.0
  9
$PLINEWID
 40
0.0
  9
$COORDS
 70
     0
  9
$SPLFRAME
 70
     0
  9
$SPLINETYPE
 70
     6
  9
$SPLINESEGS
 70
     8
  9
$ATTDIA
 70
     1
  9
$ATTREQ
 70
     1
  9
$HANDLING
 70
 12289
  9
$HANDSEED
  5
86A3
  9
$SURFTAB1
 70
     6
  9
$SURFTAB2
 70
     6
  9
$SURFTYPE
 70
     6
  9
$SURFU
 70
     6
  9
$SURFV
 70
     6
  9
$UCSNAME
  2

  9
$UCSORG
 10
-0.0000000000002682
 20
0.000000000000161
 30
0.0
  9
$UCSXDIR
 10
1.0
 20
0.000000000000002
 30
0.0
  9
$UCSYDIR
 10
-0.000000000000002
 20
1.0
 30
0.0
  9
$PUCSNAME
  2

  9
$PUCSORG
 10
0.0
 20
0.0
 30
0.0
  9
$PUCSXDIR
 10
1.0
 20
0.0
 30
0.0
  9
$PUCSYDIR
 10
0.0
 20
1.0
 30
0.0
  9
$USERI1
 70
     0
  9
$USERI2
 70
     0
  9
$USERI3
 70
     0
  9
$USERI4
 70
     0
  9
$USERI5
 70
     0
  9
$USERR1
 40
0.0
  9
$USERR2
 40
0.0
  9
$USERR3
 40
0.0
  9
$USERR4
 40
0.0
  9
$USERR5
 40
0.0
  9
$WORLDVIEW
 70
     1
  9
$SHADEDGE
 70
     3
  9
$SHADEDIF
 70
    70
  9
$TILEMODE
 70
     1
  9
$MAXACTVP
 70
    64
  9
$PINSBASE
 10
0.0
 20
0.0
 30
0.0
  9
$PLIMCHECK
 70
     0
  9
$PEXTMIN
 10
1.000000000000000E+20
 20
1.000000000000000E+20
 30
1.000000000000000E+20
  9
$PEXTMAX
 10
-1.000000000000000E+20
 20
-1.000000000000000E+20
 30
-1.000000000000000E+20
  9
$PLIMMIN
 10
0.0
 20
0.0
  9
$PLIMMAX
 10
841.0
 20
594.0
  9
$UNITMODE
 70
     0
  9
$VISRETAIN
 70
     1
  9
$PLINEGEN
 70
     0
  9
$PSLTSCALE
 70
     0
  9
$TREEDEPTH
 70
  3020
  9
$PICKSTYLE
 70
     0
  9
$CMLSTYLE
  2
STANDARD
  9
$CMLJUST
 70
     0
  9
$CMLSCALE
 40
20.0
  9
$PROXYGRAPHICS
 70
     1
  9
$MEASUREMENT
 70
     1
  0
ENDSEC
  0
SECTION
  2
CLASSES
  0
CLASS
  1
ACDBDICTIONARYWDFLT
  2
AcDbDictionaryWithDefault
  3
AutoCAD 2000
 90
        0
280
     0
281
     0
  0
CLASS
  1
ACDBPLACEHOLDER
  2
AcDbPlaceHolder
  3
AutoCAD 2000
 90
        0
280
     0
281
     0
  0
CLASS
  1
LAYOUT
  2
AcDbLayout
  3
AutoCAD 2000
 90
        0
280
     0
281
     0
  0
CLASS
  1
AMGSETTINGSOBJ
  2
AmgSettingsObj
  3
"AcadM|Product Description: AutoCAD Mechanical 2000|Company: Autodesk"
 90
        0
280
     0
281
     0
  0
CLASS
  1
ACME_DOCUMENT
  2
AcMeDbDoc
  3
AcMeServices
 90
        0
280
     0
281
     0
  0
CLASS
  1
ACMESCOPE
  2
AcMeScope
  3
AcMeServices
 90
        0
280
     0
281
     0
  0
CLASS
  1
ACMECOMMANDHISTORY
  2
AcMeCommandHistory
  3
AcMeServices
 90
        0
280
     0
281
     0
  0
CLASS
  1
DICTIONARYVAR
  2
AcDbDictionaryVar
  3
AutoCAD 2000
 90
        0
280
     0
281
     0
  0
CLASS
  1
ACIMSYSVARMAN
  2
AcImSysVarManager
  3
AcMeServices
 90
        0
280
     0
281
     0
  0
CLASS
  1
ACIMREALSYSVAR
  2
AcImRealSysVar
  3
AcMeServices
 90
        0
280
     0
281
     0
  0
CLASS
  1
ACIMINTSYSVAR
  2
AcImIntSysVar
  3
AcMeServices
 90
        0
280
     0
281
     0
  0
CLASS
  1
ACMEDRAWINGMAN
  2
AcMeDrawingMan
  3
AcMeServices
 90
        0
280
     0
281
     0
  0
CLASS
  1
ACMEVIEW
  2
AcMeView
  3
AcMeServices
 90
        0
280
     0
281
     0
  0
CLASS
  1
ACDBENTITYCACHE
  2
AcMeEntityCache
  3
AcMeServices
 90
        0
280
     0
281
     0
  0
CLASS
  1
GSMANAGER
  2
AcMeGSManager
  3
AcMeServices
 90
        0
280
     0
281
     0
  0
CLASS
  1
AmdtInternalReactor
  2
AmdtInternalReactor
  3
AcMeServices
 90
        0
280
     0
281
     0
  0
CLASS
  1
ACMESTATEMGR
  2
AcMeStateMgr
  3
AcMeServices
 90
        0
280
     0
281
     0
  0
CLASS
  1
ACME_DATABASE
  2
AcMeDbDatabase
  3
AcMeServices
 90
        0
280
     0
281
     0
  0
CLASS
  1
ACRFINSADJUSTERMGR
  2
AcRfInsAdjusterMgr
  3
AcMeServices
 90
        0
280
     0
281
     0
  0
CLASS
  1
ACMDATADICTIONARY
  2
AcmDataDictionary
  3
"AcmSymBB|Product Description: AutoCAD Mechanical 2000|Company: Autodesk"
 90
        0
280
     0
281
     0
  0
CLASS
  1
ACMDATAENTRYBLOCK
  2
AcmDataEntryBlock
  3
"AcmSymBB|Product Description: AutoCAD Mechanical 2000|Company: Autodesk"
 90
        0
280
     0
281
     0
  0
CLASS
  1
AMGOBJPROPCFG
  2
AmgObjPropCfg
  3
"AmgLay|Product Description: AutoCAD Mechanical 2000|Company: Autodesk"
 90
        1
280
     0
281
     0
  0
CLASS
  1
ACAMGFILTERDAT
  2
AcAmgFilterDat
  3
"AcadM|Product Description: AutoCAD Mechanical 2000|Company: Autodesk"
 90
        0
280
     0
281
     0
  0
CLASS
  1
LAYER_INDEX
  2
AcDbLayerIndex
  3
AutoCAD 2000
 90
        0
280
     0
281
     0
  0
CLASS
  1
IDBUFFER
  2
AcDbIdBuffer
  3
AutoCAD 2000
 90
        0
280
     0
281
     0
  0
CLASS
  1
ACIMSTRSYSVAR
  2
AcImStrSysVar
  3
AcMeServices
 90
        0
280
     0
281
     0
  0
CLASS
  1
ACMSTANDARDJIS
  2
AcmStandardJIS
  3
"AcmSymBB|Product Description: AutoCAD Mechanical 2000|Company: Autodesk"
 90
        0
280
     0
281
     0
  0
CLASS
  1
ACMSURFSTANDARDJIS
  2
AcmSurfTextStdJIS
  3
"AcmSymBB|Product Description: AutoCAD Mechanical 2000|Company: Autodesk"
 90
        0
280
     0
281
     0
  0
CLASS
  1
ACMFCFSTANDARDJIS
  2
AcmFCFStdJIS
  3
"AcmSymBB|Product Description: AutoCAD Mechanical 2000|Company: Autodesk"
 90
        0
280
     0
281
     0
  0
CLASS
  1
ACMWELDSTANDARDJIS
  2
AcmWeldingStdJIS
  3
"AcmSymBB|Product Description: AutoCAD Mechanical 2000|Company: Autodesk"
 90
        0
280
     0
281
     0
  0
CLASS
  1
ACMIDSTANDARDJIS
  2
AcmIdStdJIS
  3
"AcmSymBB|Product Description: AutoCAD Mechanical 2000|Company: Autodesk"
 90
        0
280
     0
281
     0
  0
CLASS
  1
ACMDATUMSTANDARDJIS
  2
AcmDatumStdJIS
  3
"AcmSymBB|Product Description: AutoCAD Mechanical 2000|Company: Autodesk"
 90
        0
280
     0
281
     0
  0
CLASS
  1
ACMBOMSTANDARDJIS
  2
AcmBOMStdJIS
  3
"AcmSymBB|Product Description: AutoCAD Mechanical 2000|Company: Autodesk"
 90
        0
280
     0
281
     0
  0
CLASS
  1
ACMSTANDARDANSI
  2
AcmStandardANSI
  3
"AcmSymBB|Product Description: AutoCAD Mechanical 2000|Company: Autodesk"
 90
        0
280
     0
281
     0
  0
CLASS
  1
ACMSURFSTANDARDANSI
  2
AcmSurfTextStdANSI
  3
"AcmSymBB|Product Description: AutoCAD Mechanical 2000|Company: Autodesk"
 90
        0
280
     0
281
     0
  0
CLASS
  1
ACMFCFSTANDARDANSI
  2
AcmFCFStdANSI
  3
"AcmSymBB|Product Description: AutoCAD Mechanical 2000|Company: Autodesk"
 90
        0
280
     0
281
     0
  0
CLASS
  1
ACMWELDSTANDARDANSI
  2
AcmWeldingStdANSI
  3
"AcmSymBB|Product Description: AutoCAD Mechanical 2000|Company: Autodesk"
 90
        0
280
     0
281
     0
  0
CLASS
  1
ACMIDSTANDARDANSI
  2
AcmIdStdANSI
  3
"AcmSymBB|Product Description: AutoCAD Mechanical 2000|Company: Autodesk"
 90
        0
280
     0
281
     0
  0
CLASS
  1
ACMDATUMSTANDARDANSI
  2
AcmDatumStdANSI
  3
"AcmSymBB|Product Description: AutoCAD Mechanical 2000|Company: Autodesk"
 90
        0
280
     0
281
     0
  0
CLASS
  1
ACMBOMSTANDARDANSI
  2
AcmBOMStdANSI
  3
"AcmSymBB|Product Description: AutoCAD Mechanical 2000|Company: Autodesk"
 90
        0
280
     0
281
     0
  0
CLASS
  1
ACMSTANDARDBSI
  2
AcmStandardBSI
  3
"AcmSymBB|Product Description: AutoCAD Mechanical 2000|Company: Autodesk"
 90
        0
280
     0
281
     0
  0
CLASS
  1
ACMSURFSTANDARDBSI
  2
AcmSurfTextStdBSI
  3
"AcmSymBB|Product Description: AutoCAD Mechanical 2000|Company: Autodesk"
 90
        0
280
     0
281
     0
  0
CLASS
  1
ACMFCFSTANDARDBSI
  2
AcmFCFStdBSI
  3
"AcmSymBB|Product Description: AutoCAD Mechanical 2000|Company: Autodesk"
 90
        0
280
     0
281
     0
  0
CLASS
  1
ACMWELDSTANDARDBSI
  2
AcmWeldingStdBSI
  3
"AcmSymBB|Product Description: AutoCAD Mechanical 2000|Company: Autodesk"
 90
        0
280
     0
281
     0
  0
CLASS
  1
ACMIDSTANDARDBSI
  2
AcmIdStdBSI
  3
"AcmSymBB|Product Description: AutoCAD Mechanical 2000|Company: Autodesk"
 90
        0
280
     0
281
     0
  0
CLASS
  1
ACMDATUMSTANDARDBSI
  2
AcmDatumStdBSI
  3
"AcmSymBB|Product Description: AutoCAD Mechanical 2000|Company: Autodesk"
 90
        0
280
     0
281
     0
  0
CLASS
  1
ACMBOMSTANDARDBSI
  2
AcmBOMStdBSI
  3
"AcmSymBB|Product Description: AutoCAD Mechanical 2000|Company: Autodesk"
 90
        0
280
     0
281
     0
  0
CLASS
  1
STDPART2D
  2
AmgStdPart
  3
"AmgStdPart|Product Description: AutoCAD Mechanical 2000|Company: Autodesk"
 90
     1023
280
     0
281
     1
  0
CLASS
  1
PLOTSETTINGS
  2
AcDbPlotSettings
  3
AutoCAD 2000
 90
        0
280
     0
281
     0
  0
CLASS
  1
LONG_TRANSACTION
  2
AcDbLongTransaction
  3
AutoCAD 2000
 90
        0
280
     0
281
     0
  0
CLASS
  1
LWPOLYLINE
  2
AcDbPolyline
  3
AutoCAD 2000
 90
        0
280
     0
281
     1
  0
CLASS
  1
HATCH
  2
AcDbHatch
  3
AutoCAD 2000
 90
        0
280
     0
281
     1
  0
CLASS
  1
XRECORD
  2
AcDbXrecord
  3
AutoCAD 2000
 90
        0
280
     0
281
     0
  0
ENDSEC
  0
SECTION
  2
TABLES
  0
TABLE
  2
VPORT
  5
8
330
0
100
AcDbSymbolTable
 70
     3
  0
VPORT
  5
8654
330
8
100
AcDbSymbolTableRecord
100
AcDbViewportTableRecord
  2
*ACTIVE
 70
     0
 10
0.0
 20
0.0
 11
1.0
 21
1.0
 12
-62.30264726919
 22
26.04960198060843
 13
0.0
 23
0.0
 14
2.5
 24
2.5
 15
10.0
 25
10.0
 16
0.0
 26
0.0
 36
1.0
 17
0.0
 27
0.0
 37
0.0
 40
160.038267536161
 41
1.609042553191489
 42
50.0
 43
0.0
 44
0.0
 50
0.0
 51
0.0
 71
     0
 72
   100
 73
     1
 74
     3
 75
     0
 76
     0
 77
     0
 78
     0
  0
ENDTAB
  0
TABLE
  2
LTYPE
  5
5
330
0
100
AcDbSymbolTable
 70
    10
  0
LTYPE
  5
14
330
5
100
AcDbSymbolTableRecord
100
AcDbLinetypeTableRecord
  2
BYBLOCK
 70
     0
  3

 72
    65
 73
     0
 40
0.0
  0
LTYPE
  5
15
330
5
100
AcDbSymbolTableRecord
100
AcDbLinetypeTableRecord
  2
BYLAYER
 70
     0
  3

 72
    65
 73
     0
 40
0.0
  0
LTYPE
  5
16
330
5
100
AcDbSymbolTableRecord
100
AcDbLinetypeTableRecord
  2
CONTINUOUS
 70
     0
  3
Solid line
 72
    65
 73
     0
 40
0.0
  0
LTYPE
  5
4B
330
5
100
AcDbSymbolTableRecord
100
AcDbLinetypeTableRecord
  2
AM_ISO02W050
 70
     0
  3
__ __ __ __ __ __ __ __ __ __ __ __ __ __ __
 72
    65
 73
     2
 40
7.5
 49
6.0
 74
     0
 49
-1.5
 74
     0
  0
LTYPE
  5
4C
330
5
100
AcDbSymbolTableRecord
100
AcDbLinetypeTableRecord
  2
AM_ISO08W050
 70
     0
  3
____ . ____ . ____ . ____ . ____ . ____ . ____
 72
    65
 73
     4
 40
18.0
 49
12.0
 74
     0
 49
-1.5
 74
     0
 49
3.0
 74
     0
 49
-1.5
 74
     0
  0
LTYPE
  5
4D
330
5
100
AcDbSymbolTableRecord
100
AcDbLinetypeTableRecord
  2
AM_ISO09W050
 70
     0
  3
_____ . . _____ . . _____ . . ____ .. ____
 72
    65
 73
     6
 40
22.5
 49
12.0
 74
     0
 49
-1.5
 74
     0
 49
3.0
 74
     0
 49
-1.5
 74
     0
 49
3.0
 74
     0
 49
-1.5
 74
     0
  0
LTYPE
  5
4E
330
5
100
AcDbSymbolTableRecord
100
AcDbLinetypeTableRecord
  2
AMCONSTR
 70
     0
  3
_______________________
 72
    65
 73
     2
 40
9999.0
 49
9999.0
 74
     0
 49
0.0
 74
     0
  0
LTYPE
  5
4F
330
5
100
AcDbSymbolTableRecord
100
AcDbLinetypeTableRecord
  2
AM_ISO02W050X2
 70
     0
  3
 _ _ _ _ _ _ _ _ _ _ _ _
 72
    65
 73
     2
 40
3.75
 49
3.0
 74
     0
 49
-0.75
 74
     0
  0
LTYPE
  5
50
330
5
100
AcDbSymbolTableRecord
100
AcDbLinetypeTableRecord
  2
AM_ISO08W050X2
 70
     0
  3
__ . __ . __ . __ . __ . __
 72
    65
 73
     4
 40
9.0
 49
6.0
 74
     0
 49
-0.75
 74
     0
 49
1.5
 74
     0
 49
-0.75
 74
     0
  0
LTYPE
  5
53
330
5
100
AcDbSymbolTableRecord
100
AcDbLinetypeTableRecord
  2
AMZIGZAG
 70
     0
  3
/\/-/\/-/\/-/\/-/\/-/\/
 72
    65
 73
     2
 40
11.00009999999999
 49
0.0001
 74
     4
 75
   135
340
52
 46
0.04
 50
0.0
 44
0.0
 45
0.0
 49
-11.0
 74
     0
  0
LTYPE
  5
166
330
5
100
AcDbSymbolTableRecord
100
AcDbLinetypeTableRecord
  2
ACJISTGL
 70
     0
  3
_ _ _ _ _
 72
    65
 73
     2
 40
3.0
 49
2.0
 74
     0
 49
-1.0
 74
     0
  0
LTYPE
  5
26A
330
5
100
AcDbSymbolTableRecord
100
AcDbLinetypeTableRecord
  2
ACJISTGB
 70
     0
  3
__ . . __ . .
 72
    65
 73
     6
 40
9.0
 49
4.0
 74
     0
 49
-1.0
 74
     0
 49
1.0
 74
     0
 49
-1.0
 74
     0
 49
1.0
 74
     0
 49
-1.0
 74
     0
  0
ENDTAB
  0
TABLE
  2
LAYER
  5
2
330
0
100
AcDbSymbolTable
 70
     6
  0
LAYER
  5
10
330
2
100
AcDbSymbolTableRecord
100
AcDbLayerTableRecord
  2
0
 70
     0
 62
     7
  6
CONTINUOUS
  0
LAYER
  5
3F9
330
2
100
AcDbSymbolTableRecord
100
AcDbLayerTableRecord
  2
AM_0
 70
     0
 62
     7
  6
CONTINUOUS
  0
LAYER
  5
BA4
330
2
100
AcDbSymbolTableRecord
100
AcDbLayerTableRecord
  2
AM_5
 70
     0
 62
     3
  6
CONTINUOUS
  0
LAYER
  5
E64
330
2
100
AcDbSymbolTableRecord
100
AcDbLayerTableRecord
  2
AM_6
 70
     0
 62
     2
  6
CONTINUOUS
  0
LAYER
  5
F4D
330
2
100
AcDbSymbolTableRecord
100
AcDbLayerTableRecord
  2
DEFPOINTS
 70
     0
 62
     7
  6
CONTINUOUS
  0
LAYER
  5
4E80
330
2
100
AcDbSymbolTableRecord
100
AcDbLayerTableRecord
  2
AM_11
 70
     0
 62
     3
  6
AM_ISO09W050
  0
ENDTAB
  0
TABLE
  2
STYLE
  5
3
330
0
100
AcDbSymbolTable
 70
     5
  0
STYLE
  5
11
330
3
100
AcDbSymbolTableRecord
100
AcDbTextStyleTableRecord
  2
STANDARD
 70
     0
 40
0.0
 41
1.0
 50
0.0
 71
     0
 42
2.5
  3
simplex.shx
  4
EXTFONT.SHX
  0
STYLE
  5
52
330
3
100
AcDbSymbolTableRecord
100
AcDbTextStyleTableRecord
  2

 70
     1
 40
0.0
 41
1.0
 50
0.0
 71
     0
 42
2.5
  3
ltypeshp.shx
  4

  0
STYLE
  5
6B
330
3
100
AcDbSymbolTableRecord
100
AcDbTextStyleTableRecord
  2
ASAMI
 70
     0
 40
0.0
 41
1.0
 50
0.0
 71
     0
 42
2.5
  3
simplex.shx
  4
EXTFONT.SHX
  0
STYLE
  5
262
330
3
100
AcDbSymbolTableRecord
100
AcDbTextStyleTableRecord
  2
ACJISTS
 70
     0
 40
1.0
 41
1.0
 50
0.0
 71
     0
 42
2.5
  3
simplex.shx
  4
bigfont.shx
  0
STYLE
  5
269
330
3
100
AcDbSymbolTableRecord
100
AcDbTextStyleTableRecord
  2
ACJISGDT
 70
     0
 40
0.0
 41
1.0
 50
0.0
 71
     0
 42
2.5
  3
amgdtans.shx
  4

  0
ENDTAB
  0
TABLE
  2
VIEW
  5
6
330
0
100
AcDbSymbolTable
 70
     0
  0
ENDTAB
  0
TABLE
  2
UCS
  5
7
330
0
100
AcDbSymbolTable
 70
     0
  0
ENDTAB
  0
TABLE
  2
APPID
  5
9
330
0
100
AcDbSymbolTable
 70
    24
  0
APPID
  5
12
330
9
100
AcDbSymbolTableRecord
100
AcDbRegAppTableRecord
  2
ACAD
 70
     0
  0
APPID
  5
30
330
9
100
AcDbSymbolTableRecord
100
AcDbRegAppTableRecord
  2
MCAD_NO_VIS
 70
     0
  0
APPID
  5
31
330
9
100
AcDbSymbolTableRecord
100
AcDbRegAppTableRecord
  2
ACAD_TEMP_GRAPHIC
 70
     0
  0
APPID
  5
2C2
330
9
100
AcDbSymbolTableRecord
100
AcDbRegAppTableRecord
  2
GENIUS_GENDTOL_13
 70
     0
  0
APPID
  5
339
330
9
100
AcDbSymbolTableRecord
100
AcDbRegAppTableRecord
  2
GENIUS_GENODEF_13
 70
     0
  0
APPID
  5
33A
330
9
100
AcDbSymbolTableRecord
100
AcDbRegAppTableRecord
  2
GENIUS_GENOBJ-N-RSBK_13
 70
     0
  0
APPID
  5
33B
330
9
100
AcDbSymbolTableRecord
100
AcDbRegAppTableRecord
  2
GENIUS_GENOBJ-N-LIB_13
 70
     0
  0
APPID
  5
33C
330
9
100
AcDbSymbolTableRecord
100
AcDbRegAppTableRecord
  2
GENIUS_GENSCALE_13
 70
     0
  0
APPID
  5
378
330
9
100
AcDbSymbolTableRecord
100
AcDbRegAppTableRecord
  2
GENIUS_GENDIMSH_14
 70
     0
  0
APPID
  5
BB0
330
9
100
AcDbSymbolTableRecord
100
AcDbRegAppTableRecord
  2
GENIUS_GENOBJ-N-CEN_13
 70
     0
  0
APPID
  5
BB1
330
9
100
AcDbSymbolTableRecord
100
AcDbRegAppTableRecord
  2
GENIUS_GENFIL_13
 70
     0
  0
APPID
  5
BB2
330
9
100
AcDbSymbolTableRecord
100
AcDbRegAppTableRecord
  2
GENIUS_GENOBJ-N-CHA_13
 70
     0
  0
APPID
  5
1FAF
330
9
100
AcDbSymbolTableRecord
100
AcDbRegAppTableRecord
  2
GENIUS_GENOBJ-N-CRS_13
 70
     0
  0
APPID
  5
1FB0
330
9
100
AcDbSymbolTableRecord
100
AcDbRegAppTableRecord
  2
GENIUS_GENOENT_13
 70
     0
  0
APPID
  5
1FB1
330
9
100
AcDbSymbolTableRecord
100
AcDbRegAppTableRecord
  2
GENIUS_GENOREF_13
 70
     0
  0
APPID
  5
1FB2
330
9
100
AcDbSymbolTableRecord
100
AcDbRegAppTableRecord
  2
GENIUS_GENOLIS_13
 70
     0
  0
APPID
  5
1FB7
330
9
100
AcDbSymbolTableRecord
100
AcDbRegAppTableRecord
  2
GENIUS_GENOBJ-N-FIL_13
 70
     0
  0
APPID
  5
22A8
330
9
100
AcDbSymbolTableRecord
100
AcDbRegAppTableRecord
  2
GEVID1056506048
 70
     0
  0
APPID
  5
22A9
330
9
100
AcDbSymbolTableRecord
100
AcDbRegAppTableRecord
  2
GEVDC
 70
     0
  0
APPID
  5
22AC
330
9
100
AcDbSymbolTableRecord
100
AcDbRegAppTableRecord
  2
GENIUS_GENBH_13
 70
     0
  0
APPID
  5
22B8
330
9
100
AcDbSymbolTableRecord
100
AcDbRegAppTableRecord
  2
GENIUS_GENOBJ-NBEHI-BHF_13
 70
     0
  0
APPID
  5
22BA
330
9
100
AcDbSymbolTableRecord
100
AcDbRegAppTableRecord
  2
GENIUS_GENOBJ-NBEHI-BHB_13
 70
     0
  0
APPID
  5
35C9
330
9
100
AcDbSymbolTableRecord
100
AcDbRegAppTableRecord
  2
GENIUS_GENREC_14
 70
     0
  0
APPID
  5
35CA
330
9
100
AcDbSymbolTableRecord
100
AcDbRegAppTableRecord
  2
GENIUS_GENOBJ-N-REC_13
 70
     0
  0
ENDTAB
  0
TABLE
  2
DIMSTYLE
  5
A
330
0
100
AcDbSymbolTable
 70
     9
  0
DIMSTYLE
105
58
330
A
100
AcDbSymbolTableRecord
100
AcDbDimStyleTableRecord
  2
AM_JIS
 70
     0
  3

  4
"
  5
OPEN30
  6

  7

 40
1.0
 41
2.5
 42
1.0
 43
12.0
 44
1.0
 45
0.0
 46
0.0
 47
0.1
 48
0.1
140
3.2
141
0.0
142
0.0
143
0.0393701
144
1.0
145
0.0
146
0.71
147
1.5
 71
     0
 72
     0
 73
     0
 74
     0
 75
     0
 76
     0
 77
     3
 78
     8
170
     0
171
     2
172
     1
173
     0
174
     0
175
     0
176
   256
177
   256
178
     2
270
     2
271
     3
272
     3
273
     2
274
     2
340
6B
275
     0
280
     0
281
     0
282
     0
283
     0
284
     0
285
     0
286
     0
287
     3
288
     0
  0
DIMSTYLE
105
5F
330
A
100
AcDbSymbolTableRecord
100
AcDbDimStyleTableRecord
  2
AM_JIS$3
 70
     0
  3

  4
"
  5
OPEN30
  6

  7

 40
1.0
 41
2.5
 42
1.0
 43
10.0
 44
1.0
 45
0.0
 46
0.0
 47
0.1
 48
0.1
140
3.2
141
0.0
142
0.0
143
0.0393701
144
1.0
145
0.0
146
0.71
147
1.5
 71
     0
 72
     0
 73
     0
 74
     1
 75
     0
 76
     0
 77
     3
 78
     8
170
     0
171
     2
172
     0
173
     0
174
     0
175
     0
176
   256
177
   256
178
     2
270
     2
271
     2
272
     3
273
     2
274
     2
340
6B
275
     0
280
     0
281
     0
282
     0
283
     0
284
     0
285
     0
286
     0
287
     0
288
     1
  0
DIMSTYLE
105
60
330
A
100
AcDbSymbolTableRecord
100
AcDbDimStyleTableRecord
  2
AM_JIS$4
 70
     0
  3

  4
"
  5
OPEN30
  6

  7

 40
1.0
 41
2.5
 42
1.0
 43
10.0
 44
1.0
 45
0.0
 46
0.0
 47
0.1
 48
0.1
140
3.2
141
0.0
142
0.0
143
0.0393701
144
1.0
145
0.0
146
0.71
147
1.5
 71
     0
 72
     0
 73
     0
 74
     1
 75
     0
 76
     0
 77
     3
 78
     8
170
     0
171
     2
172
     0
173
     0
174
     0
175
     0
176
   256
177
   256
178
     2
270
     2
271
     2
272
     3
273
     2
274
     2
340
6B
275
     0
280
     0
281
     0
282
     0
283
     0
284
     0
285
     0
286
     0
287
     0
288
     1
  0
DIMSTYLE
105
61
330
A
100
AcDbSymbolTableRecord
100
AcDbDimStyleTableRecord
  2
AM_JIS$6
 70
     0
  3

  4
"
  5
OPEN30
  6

  7

 40
1.0
 41
2.5
 42
1.0
 43
10.0
 44
1.0
 45
0.0
 46
0.0
 47
0.1
 48
0.1
140
3.2
141
0.0
142
0.0
143
0.0393701
144
1.0
145
0.0
146
0.71
147
1.5
 71
     0
 72
     0
 73
     0
 74
     0
 75
     0
 76
     0
 77
     0
 78
     8
170
     0
171
     2
172
     1
173
     0
174
     0
175
     0
176
   256
177
   256
178
     2
270
     2
271
     2
272
     2
273
     2
274
     2
340
6B
275
     0
280
     0
281
     0
282
     0
283
     0
284
     0
285
     0
286
     0
287
     3
288
     0
  0
DIMSTYLE
105
62
330
A
100
AcDbSymbolTableRecord
100
AcDbDimStyleTableRecord
  2
AM_JIS$7
 70
     0
  3

  4
"
  5
OPEN30
  6

  7

 40
1.0
 41
2.5
 42
1.0
 43
10.0
 44
1.0
 45
0.0
 46
0.0
 47
0.1
 48
0.1
140
3.2
141
0.0
142
0.0
143
0.0393701
144
1.0
145
0.0
146
0.71
147
1.5
 71
     0
 72
     0
 73
     0
 74
     0
 75
     0
 76
     0
 77
     3
 78
     8
170
     0
171
     2
172
     1
173
     0
174
     0
175
     0
176
   256
177
   256
178
     2
270
     2
271
     2
272
     3
273
     2
274
     2
340
6B
275
     0
280
     0
281
     0
282
     0
283
     0
284
     0
285
     0
286
     0
287
     3
288
     0
  0
DIMSTYLE
105
63
330
A
100
AcDbSymbolTableRecord
100
AcDbDimStyleTableRecord
  2
AM_JIS$SF
 70
     0
  3

  4
"
  5
OPEN30
  6

  7

 40
1.0
 41
2.5
 42
1.0
 43
10.0
 44
1.0
 45
0.0
 46
0.0
 47
0.1
 48
0.1
140
3.2
141
0.0
142
0.0
143
0.0393701
144
1.0
145
0.0
146
0.71
147
1.5
 71
     0
 72
     0
 73
     0
 74
     0
 75
     1
 76
     1
 77
     3
 78
     8
170
     0
171
     2
172
     1
173
     0
174
     0
175
     0
176
   256
177
   256
178
     2
270
     2
271
     2
272
     2
273
     2
274
     2
340
6B
275
     0
280
     0
281
     0
282
     0
283
     0
284
     0
285
     0
286
     0
287
     3
288
     0
  0
DIMSTYLE
105
68
330
A
100
AcDbSymbolTableRecord
100
AcDbDimStyleTableRecord
  2
AM_JIS$SH
 70
     0
  3

  4
"
  5

  6
GENAXEH
  7
OPEN30
 40
1.0
 41
2.5
 42
1.0
 43
10.0
 44
1.0
 45
0.0
 46
0.0
 47
0.1
 48
0.1
140
3.2
141
0.0
142
0.0
143
0.0393701
144
2.0
145
0.0
146
0.71
147
1.5
 71
     0
 72
     0
 73
     0
 74
     0
 75
     1
 76
     1
 77
     3
 78
     8
170
     0
171
     2
172
     1
173
     1
174
     0
175
     0
176
   256
177
   256
178
     2
270
     2
271
     2
272
     2
273
     2
274
     2
340
6B
275
     0
280
     0
281
     0
282
     0
283
     0
284
     0
285
     0
286
     0
287
     3
288
     0
  0
DIMSTYLE
105
B34
102
{ACAD_REACTORS
330
7F72
102
}
330
A
100
AcDbSymbolTableRecord
100
AcDbDimStyleTableRecord
  2
AM_JIS$2
 70
     0
  3

  4
"
  5
OPEN30
  6

  7

 40
1.0
 41
2.5
 42
1.0
 43
12.0
 44
1.0
 45
0.0
 46
0.0
 47
0.1
 48
0.1
140
3.2
141
0.0
142
0.0
143
0.0393701
144
1.0
145
0.0
146
0.71
147
1.5
 71
     0
 72
     0
 73
     0
 74
     0
 75
     0
 76
     0
 77
     3
 78
     8
170
     0
171
     2
172
     1
173
     0
174
     0
175
     0
176
   256
177
   256
178
     2
270
     2
271
     3
272
     3
273
     2
274
     2
340
6B
275
     0
280
     0
281
     0
282
     0
283
     0
284
     0
285
     0
286
     0
287
     3
288
     0
  0
DIMSTYLE
105
3B48
102
{ACAD_REACTORS
330
7B50
330
7BFB
330
7EC3
330
8228
330
8480
102
}
330
A
100
AcDbSymbolTableRecord
100
AcDbDimStyleTableRecord
  2
AM_JIS$0
 70
     0
  3

  4
"
  5
OPEN30
  6

  7

 40
1.0
 41
2.5
 42
0.0
 43
10.0
 44
1.0
 45
0.0
 46
0.0
 47
0.1
 48
0.1000000001
140
3.799999999999999
141
0.0
142
0.0
143
0.0393701
144
1.0
145
0.0
146
0.71
147
1.5
 71
     0
 72
     0
 73
     0
 74
     0
 75
     0
 76
     0
 77
     3
 78
     1
170
     0
171
     2
172
     1
173
     0
174
     0
175
     0
176
     3
177
     3
178
     2
270
     2
271
     2
272
     2
273
     2
274
     2
340
11
275
     1
280
     0
281
     0
282
     0
283
     0
284
     8
285
     0
286
     0
287
     0
288
     0
  0
ENDTAB
  0
TABLE
  2
BLOCK_RECORD
  5
1
330
0
100
AcDbSymbolTable
 70
    11
  0
BLOCK_RECORD
  5
1F
102
{ACAD_XDICTIONARY
360
74
102
}
330
1
100
AcDbSymbolTableRecord
100
AcDbBlockTableRecord
  2
*MODEL_SPACE
  0
BLOCK_RECORD
  5
101
102
{ACAD_XDICTIONARY
360
867D
102
}
330
1
100
AcDbSymbolTableRecord
100
AcDbBlockTableRecord
  2
*PAPER_SPACE
  0
BLOCK_RECORD
  5
59
330
1
100
AcDbSymbolTableRecord
100
AcDbBlockTableRecord
  2
_OPEN30
  0
BLOCK_RECORD
  5
64
330
1
100
AcDbSymbolTableRecord
100
AcDbBlockTableRecord
  2
GENAXEH
  0
BLOCK_RECORD
  5
7B51
330
1
100
AcDbSymbolTableRecord
100
AcDbBlockTableRecord
  2
*D5
  0
BLOCK_RECORD
  5
7BFC
330
1
100
AcDbSymbolTableRecord
100
AcDbBlockTableRecord
  2
*D6
  0
BLOCK_RECORD
  5
7EC4
330
1
100
AcDbSymbolTableRecord
100
AcDbBlockTableRecord
  2
*D7
  0
BLOCK_RECORD
  5
7F73
330
1
100
AcDbSymbolTableRecord
100
AcDbBlockTableRecord
  2
*D8
  0
BLOCK_RECORD
  5
8229
330
1
100
AcDbSymbolTableRecord
100
AcDbBlockTableRecord
  2
*D9
  0
BLOCK_RECORD
  5
8481
330
1
100
AcDbSymbolTableRecord
100
AcDbBlockTableRecord
  2
*D10
  0
ENDTAB
  0
ENDSEC
  0
SECTION
  2
BLOCKS
  0
BLOCK
  5
20
330
1F
100
AcDbEntity
  8
0
100
AcDbBlockBegin
  2
*MODEL_SPACE
 70
     0
 10
0.0
 20
0.0
 30
0.0
  3
*MODEL_SPACE
  1

  0
ENDBLK
  5
21
330
1F
100
AcDbEntity
  8
0
100
AcDbBlockEnd
  0
BLOCK
  5
103
330
101
100
AcDbEntity
 67
     1
  8
0
100
AcDbBlockBegin
  2
*PAPER_SPACE
 70
     0
 10
0.0
 20
0.0
 30
0.0
  3
*PAPER_SPACE
  1

  0
ENDBLK
  5
104
330
101
100
AcDbEntity
 67
     1
  8
0
100
AcDbBlockEnd
  0
BLOCK
  5
5D
330
59
100
AcDbEntity
  8
0
100
AcDbBlockBegin
  2
_OPEN30
 70
     0
 10
0.0
 20
0.0
 30
0.0
  3
_OPEN30
  1

  0
LINE
  5
5A
330
59
100
AcDbEntity
  8
0
 62
     0
100
AcDbLine
 10
-1.0
 20
0.26794919
 30
0.0
 11
0.0
 21
0.0
 31
0.0
  0
LINE
  5
5B
330
59
100
AcDbEntity
  8
0
 62
     0
100
AcDbLine
 10
0.0
 20
0.0
 30
0.0
 11
-1.0
 21
-0.26794919
 31
0.0
  0
LINE
  5
5C
330
59
100
AcDbEntity
  8
0
 62
     0
100
AcDbLine
 10
0.0
 20
0.0
 30
0.0
 11
-1.0
 21
0.0
 31
0.0
  0
ENDBLK
  5
5E
330
59
100
AcDbEntity
  8
0
100
AcDbBlockEnd
  0
BLOCK
  5
66
330
64
100
AcDbEntity
  8
0
100
AcDbBlockBegin
  2
GENAXEH
 70
     0
 10
0.0
 20
0.0
 30
0.0
  3
GENAXEH
  1

  0
LINE
  5
65
330
64
100
AcDbEntity
  8
0
100
AcDbLine
 10
-1.0
 20
0.0
 30
0.0
 11
1.0
 21
0.0
 31
0.0
  0
ENDBLK
  5
67
330
64
100
AcDbEntity
  8
0
100
AcDbBlockEnd
  0
BLOCK
  5
7B5B
330
7B51
100
AcDbEntity
  8
0
100
AcDbBlockBegin
  2
*D5
 70
     1
 10
0.0
 20
0.0
 30
0.0
  3
*D5
  1

  0
LINE
  5
867F
330
7B51
100
AcDbEntity
  8
AM_5
100
AcDbLine
 10
-172.860407618739
 20
87.11095785814745
 30
0.0
 11
-186.8604086187388
 21
87.11095785814741
 31
0.0
  0
LINE
  5
8680
330
7B51
100
AcDbEntity
  8
AM_5
100
AcDbLine
 10
-172.8604076187388
 20
55.11095785814743
 30
0.0
 11
-186.8604086187388
 21
55.1109578581474
 31
0.0
  0
LINE
  5
8681
330
7B51
100
AcDbEntity
  8
AM_5
100
AcDbLine
 10
-185.8604086187388
 20
84.61095785814741
 30
0.0
 11
-185.8604086187387
 21
57.61095785814741
 31
0.0
  0
INSERT
  5
8682
330
7B51
100
AcDbEntity
  8
AM_5
100
AcDbBlockReference
  2
_OPEN30
 10
-185.8604086187388
 20
87.11095785814741
 30
0.0
 41
2.5
 42
2.5
 43
2.5
 50
90.0000000000001
  0
INSERT
  5
8683
330
7B51
100
AcDbEntity
  8
AM_5
100
AcDbBlockReference
  2
_OPEN30
 10
-185.8604086187387
 20
55.11095785814741
 30
0.0
 41
2.5
 42
2.5
 43
2.5
 50
270.0000000000001
  0
MTEXT
  5
8684
330
7B51
100
AcDbEntity
  8
AM_5
 62
     2
100
AcDbMText
 10
-188.9604086187388
 20
71.11095785814741
 30
0.0
 40
3.2
 41
0.0
 71
     5
 72
     1
  1
32
  7
ASAMI
 11
-0.000000000000002
 21
1.0
 31
0.0
  0
POINT
  5
8685
330
7B51
100
AcDbEntity
  8
DEFPOINTS
 62
     0
100
AcDbPoint
 10
-171.8604076187388
 20
87.11095785814782
 30
0.0
  0
POINT
  5
8686
330
7B51
100
AcDbEntity
  8
DEFPOINTS
 62
     0
100
AcDbPoint
 10
-171.8604076187387
 20
55.11095785814781
 30
0.0
  0
POINT
  5
8687
330
7B51
100
AcDbEntity
  8
DEFPOINTS
 62
     0
100
AcDbPoint
 10
-185.8604086187386
 20
55.11095785814782
 30
0.0
  0
ENDBLK
  5
7B5C
330
7B51
100
AcDbEntity
  8
0
100
AcDbBlockEnd
  0
BLOCK
  5
7C06
330
7BFC
100
AcDbEntity
  8
0
100
AcDbBlockBegin
  2
*D6
 70
     1
 10
0.0
 20
0.0
 30
0.0
  3
*D6
  1

  0
LINE
  5
8688
330
7BFC
100
AcDbEntity
  8
AM_5
100
AcDbLine
 10
-172.8604076187387
 20
12.49999999999942
 30
0.0
 11
-186.8604086187387
 21
12.49999999999939
 31
0.0
  0
LINE
  5
8689
330
7BFC
100
AcDbEntity
  8
AM_5
100
AcDbLine
 10
-172.8604076187385
 20
-12.50000000000055
 30
0.0
 11
-186.8604086187386
 21
-12.50000000000057
 31
0.0
  0
LINE
  5
868A
330
7BFC
100
AcDbEntity
  8
AM_5
100
AcDbLine
 10
-185.8604086187386
 20
9.999999999999394
 30
0.0
 11
-185.8604086187386
 21
-10.00000000000057
 31
0.0
  0
INSERT
  5
868B
330
7BFC
100
AcDbEntity
  8
AM_5
100
AcDbBlockReference
  2
_OPEN30
 10
-185.8604086187386
 20
12.49999999999939
 30
0.0
 41
2.5
 42
2.5
 43
2.5
 50
90.0000000000001
  0
INSERT
  5
868C
330
7BFC
100
AcDbEntity
  8
AM_5
100
AcDbBlockReference
  2
_OPEN30
 10
-185.8604086187386
 20
-12.50000000000057
 30
0.0
 41
2.5
 42
2.5
 43
2.5
 50
270.0000000000001
  0
MTEXT
  5
868D
330
7BFC
100
AcDbEntity
  8
AM_5
 62
     2
100
AcDbMText
 10
-188.9604086187386
 20
-0.0000000000005904
 30
0.0
 40
3.2
 41
0.0
 71
     5
 72
     1
  1
25
  7
ASAMI
 11
-0.000000000000002
 21
1.0
 31
0.0
  0
POINT
  5
868E
330
7BFC
100
AcDbEntity
  8
DEFPOINTS
 62
     0
100
AcDbPoint
 10
-171.8604076187386
 20
12.4999999999998
 30
0.0
  0
POINT
  5
868F
330
7BFC
100
AcDbEntity
  8
DEFPOINTS
 62
     0
100
AcDbPoint
 10
-171.8604076187386
 20
-12.50000000000016
 30
0.0
  0
POINT
  5
8690
330
7BFC
100
AcDbEntity
  8
DEFPOINTS
 62
     0
100
AcDbPoint
 10
-185.8604086187386
 20
-12.50000000000016
 30
0.0
  0
ENDBLK
  5
7C07
330
7BFC
100
AcDbEntity
  8
0
100
AcDbBlockEnd
  0
BLOCK
  5
7ECE
330
7EC4
100
AcDbEntity
  8
0
100
AcDbBlockBegin
  2
*D7
 70
     1
 10
0.0
 20
0.0
 30
0.0
  3
*D7
  1

  0
LINE
  5
8691
330
7EC4
100
AcDbEntity
  8
AM_5
100
AcDbLine
 10
-2.780637805893416
 20
87.11095785814809
 30
0.0
 11
13.13959238126092
 21
87.1109578581481
 31
0.0
  0
LINE
  5
8692
330
7EC4
100
AcDbEntity
  8
AM_5
100
AcDbLine
 10
-0.8604076187388843
 20
55.11095785814799
 30
0.0
 11
13.13959238126098
 21
55.11095785814802
 31
0.0
  0
LINE
  5
8693
330
7EC4
100
AcDbEntity
  8
AM_5
100
AcDbLine
 10
12.13959238126093
 20
84.6109578581481
 30
0.0
 11
12.13959238126098
 21
57.61095785814802
 31
0.0
  0
INSERT
  5
8694
330
7EC4
100
AcDbEntity
  8
AM_5
100
AcDbBlockReference
  2
_OPEN30
 10
12.13959238126092
 20
87.1109578581481
 30
0.0
 41
2.5
 42
2.5
 43
2.5
 50
90.0000000000001
  0
INSERT
  5
8695
330
7EC4
100
AcDbEntity
  8
AM_5
100
AcDbBlockReference
  2
_OPEN30
 10
12.13959238126099
 20
55.11095785814802
 30
0.0
 41
2.5
 42
2.5
 43
2.5
 50
270.0000000000001
  0
MTEXT
  5
8696
330
7EC4
100
AcDbEntity
  8
AM_5
 62
     2
100
AcDbMText
 10
9.039592381260959
 20
71.11095785814805
 30
0.0
 40
3.2
 41
0.0
 71
     5
 72
     1
  1
32
  7
ASAMI
 11
-0.000000000000002
 21
1.0
 31
0.0
  0
POINT
  5
8697
330
7EC4
100
AcDbEntity
  8
DEFPOINTS
 62
     0
100
AcDbPoint
 10
-3.780637805893223
 20
87.11095785814809
 30
0.0
  0
POINT
  5
8698
330
7EC4
100
AcDbEntity
  8
DEFPOINTS
 62
     0
100
AcDbPoint
 10
-1.860407618738761
 20
55.11095785814799
 30
0.0
  0
POINT
  5
8699
330
7EC4
100
AcDbEntity
  8
DEFPOINTS
 62
     0
100
AcDbPoint
 10
12.13959238126111
 20
55.11095785814799
 30
0.0
  0
ENDBLK
  5
7ECF
330
7EC4
100
AcDbEntity
  8
0
100
AcDbBlockEnd
  0
BLOCK
  5
7F83
330
7F73
100
AcDbEntity
  8
0
100
AcDbBlockBegin
  2
*D8
 70
     1
 10
0.0
 20
0.0
 30
0.0
  3
*D8
  1

  0
LINE
  5
8560
330
7F73
100
AcDbEntity
  8
AM_5
100
AcDbLine
 10
-0.0000000000003028
 20
1.027389769568003
 30
0.0
 11
-0.0000000000013021
 21
31.60633072829124
 31
0.0
  0
LINE
  5
8561
330
7F73
100
AcDbEntity
  8
AM_5
100
AcDbLine
 10
-16.79145605605077
 20
5.294325757987408
 30
0.0
 11
-30.14349336652607
 21
9.504206951047128
 31
0.0
  0
ARC
  5
8562
330
7F73
100
AcDbEntity
  8
AM_5
100
AcDbCircle
 10
-0.0000000000002692
 20
0.0000000000002079
 30
0.0
 40
30.60633072829103
100
AcDbArc
 50
94.68136153507915
 51
157.8186384649233
  0
INSERT
  5
8563
330
7F73
100
AcDbEntity
  8
AM_5
100
AcDbBlockReference
  2
_OPEN30
 10
-0.0000000000012719
 20
30.60633072829124
 30
0.0
 41
2.5
 42
2.5
 43
2.5
 50
2.340680767540512
  0
INSERT
  5
8564
330
7F73
100
AcDbEntity
  8
AM_5
100
AcDbBlockReference
  2
_OPEN30
 10
-29.18977641577784
 20
9.203501151542868
 30
0.0
 41
2.5
 42
2.5
 43
2.5
 50
250.1593192324619
  0
MTEXT
  5
8565
330
7F73
100
AcDbEntity
  8
AM_5
 62
     2
100
AcDbMText
 10
-20.11108722531258
 20
27.42806213916687
 30
0.0
 40
3.2
 41
0.0
 71
     5
 72
     1
  1
72%%d30'
  7
ASAMI
 11
0.8064446042674788
 21
0.5913096483635874
 31
0.0
1001
ACAD
1000
MTEXTBEGIN
1070
    73
1070
     1
1070
    44
1040
1.0
1070
    74
1070
     0
1000
MTEXTEND
  0
POINT
  5
8566
330
7F73
100
AcDbEntity
  8
DEFPOINTS
 62
     0
100
AcDbPoint
 10
-12.52999657600704
 20
27.92394432122371
 30
0.0
  0
POINT
  5
8567
330
7F73
100
AcDbEntity
  8
DEFPOINTS
 62
     0
100
AcDbPoint
 10
-15.83773910530253
 20
4.99361995848318
 30
0.0
  0
POINT
  5
8568
330
7F73
100
AcDbEntity
  8
DEFPOINTS
 62
     0
100
AcDbPoint
 10
-0.00000000000027
 20
-0.0202310883395285
 30
0.0
  0
POINT
  5
8569
330
7F73
100
AcDbEntity
  8
DEFPOINTS
 62
     0
100
AcDbPoint
 10
-0.00000000000027
 20
0.0273897695680034
 30
0.0
  0
POINT
  5
856A
330
7F73
100
AcDbEntity
  8
DEFPOINTS
 62
     0
100
AcDbPoint
 10
-2.419842979135282
 20
0.7629735605987662
 30
0.0
  0
ENDBLK
  5
7F84
330
7F73
100
AcDbEntity
  8
0
100
AcDbBlockEnd
  0
BLOCK
  5
8233
330
8229
100
AcDbEntity
  8
0
100
AcDbBlockBegin
  2
*D9
 70
     1
 10
0.0
 20
0.0
 30
0.0
  3
*D9
  1

  0
LINE
  5
869A
330
8229
100
AcDbEntity
  8
AM_5
100
AcDbLine
 10
-41.6326741375677
 20
-12.5
 30
0.0
 11
15.00000099999772
 21
-12.49999999999989
 31
0.0
  0
LINE
  5
869B
330
8229
100
AcDbEntity
  8
AM_5
100
AcDbLine
 10
0.9999999999997299
 20
0.0000000000001725
 30
0.0
 11
15.00000099999769
 21
0.0000000000001996
 31
0.0
  0
LINE
  5
869C
330
8229
100
AcDbEntity
  8
AM_5
100
AcDbLine
 10
14.00000099999771
 20
-9.999999999999898
 30
0.0
 11
14.0000009999977
 21
-2.499999999999802
 31
0.0
  0
INSERT
  5
869D
330
8229
100
AcDbEntity
  8
AM_5
100
AcDbBlockReference
  2
_OPEN30
 10
14.00000099999772
 20
-12.4999999999999
 30
0.0
 41
2.5
 42
2.5
 43
2.5
 50
270.0000000000001
  0
INSERT
  5
869E
330
8229
100
AcDbEntity
  8
AM_5
100
AcDbBlockReference
  2
_OPEN30
 10
14.00000099999769
 20
0.0000000000001977
 30
0.0
 41
2.5
 42
2.5
 43
2.5
 50
90.0000000000001
  0
MTEXT
  5
869F
330
8229
100
AcDbEntity
  8
AM_5
 62
     2
100
AcDbMText
 10
10.9000009999977
 20
-6.249999999999857
 30
0.0
 40
3.2
 41
0.0
 71
     5
 72
     1
  1
12.5
  7
ASAMI
 11
-0.000000000000002
 21
1.0
 31
0.0
  0
POINT
  5
86A0
330
8229
100
AcDbEntity
  8
DEFPOINTS
 62
     0
100
AcDbPoint
 10
-42.63267413756773
 20
-12.49999999999991
 30
0.0
  0
POINT
  5
86A1
330
8229
100
AcDbEntity
  8
DEFPOINTS
 62
     0
100
AcDbPoint
 10
-0.00000000000027
 20
0.0000000000001705
 30
0.0
  0
POINT
  5
86A2
330
8229
100
AcDbEntity
  8
DEFPOINTS
 62
     0
100
AcDbPoint
 10
14.00000099999769
 20
0.0000000000001666
 30
0.0
  0
ENDBLK
  5
8234
330
8229
100
AcDbEntity
  8
0
100
AcDbBlockEnd
  0
BLOCK
  5
848B
330
8481
100
AcDbEntity
  8
0
100
AcDbBlockBegin
  2
*D10
 70
     1
 10
0.0
 20
0.0
 30
0.0
  3
*D10
  1

  0
LINE
  5
85D0
330
8481
100
AcDbEntity
  8
AM_5
 62
     3
100
AcDbLine
 10
-171.8604076187389
 20
55.11095785814748
 30
0.0
 11
-171.8604076187388
 21
40.11095785814752
 31
0.0
  0
LINE
  5
85D1
330
8481
100
AcDbEntity
  8
AM_5
 62
     3
100
AcDbLine
 10
-1.860407618738887
 20
55.11095785814799
 30
0.0
 11
-1.860407618738858
 21
40.11095785814785
 31
0.0
  0
LINE
  5
85D2
330
8481
100
AcDbEntity
  8
AM_5
 62
     3
100
AcDbLine
 10
-169.3604076187388
 20
41.11095785814752
 30
0.0
 11
-4.36040761873886
 21
41.11095785814785
 31
0.0
  0
INSERT
  5
85D3
330
8481
100
AcDbEntity
  8
AM_5
 62
     3
100
AcDbBlockReference
  2
_OPEN30
 10
-171.8604076187388
 20
41.11095785814751
 30
0.0
 41
2.5
 42
2.5
 43
2.5
 50
180.0000000000001
  0
INSERT
  5
85D4
330
8481
100
AcDbEntity
  8
AM_5
 62
     3
100
AcDbBlockReference
  2
_OPEN30
 10
-1.860407618738859
 20
41.11095785814785
 30
0.0
 41
2.5
 42
2.5
 43
2.5
 50
0.0000000000001018
  0
MTEXT
  5
85D5
330
8481
100
AcDbEntity
  8
AM_5
 62
     2
100
AcDbMText
 10
-86.86040761873888
 20
44.51095785814768
 30
0.0
 40
3.799999999999999
 41
0.0
 71
     5
 72
     1
  1
170
1001
ACAD
1000
MTEXTBEGIN
1070
    73
1070
     1
1070
    44
1040
1.0
1070
    74
1070
     0
1000
MTEXTEND
  0
POINT
  5
85D6
330
8481
100
AcDbEntity
  8
DEFPOINTS
 62
     0
100
AcDbPoint
 10
-171.8604076187387
 20
55.11095785814783
 30
0.0
  0
POINT
  5
85D7
330
8481
100
AcDbEntity
  8
DEFPOINTS
 62
     0
100
AcDbPoint
 10
-1.860407618738776
 20
55.110957858148
 30
0.0
  0
POINT
  5
85D8
330
8481
100
AcDbEntity
  8
DEFPOINTS
 62
     0
100
AcDbPoint
 10
-1.860407618738777
 20
41.11095785814786
 30
0.0
  0
ENDBLK
  5
848C
330
8481
100
AcDbEntity
  8
0
100
AcDbBlockEnd
  0
ENDSEC
  0
SECTION
  2
ENTITIES
  0
TEXT
  5
388D
330
1F
100
AcDbEntity
  8
AM_6
100
AcDbText
 10
-115.7889790473103
 20
-34.9999999999999
 30
0.0
 40
5.0
  1
SVVCN3225-33
 50
359.9999999999997
 51
359.9999999999998
 72
     4
 11
-86.86040761873888
 21
-32.5
 31
0.0
100
AcDbText
  0
LINE
  5
7951
330
1F
100
AcDbEntity
  8
AM_0
100
AcDbLine
 10
-17.72542298412233
 20
55.41095785814809
 30
0.0
 11
-37.78773910530256
 21
55.41095785814807
 31
0.0
  0
LINE
  5
7952
330
1F
100
AcDbEntity
  8
AM_0
100
AcDbLine
 10
-17.33160866093941
 20
4.522604696847679
 30
0.0
 11
-42.63267413211774
 21
12.50000000000008
 31
0.0
  0
LINE
  5
7953
330
1F
100
AcDbEntity
  8
AM_0
100
AcDbLine
 10
-42.63267413756773
 20
-12.49999999999991
 30
0.0
 11
-17.33160865496783
 21
-4.52260469873039
 31
0.0
  0
LINE
  5
7956
330
1F
100
AcDbEntity
  8
AM_0
100
AcDbLine
 10
-2.987739105302608
 20
59.87095785814801
 30
0.0
 11
-2.987739105302608
 21
63.05095785814803
 31
0.0
  0
LINE
  5
7958
330
1F
100
AcDbEntity
  8
AM_0
100
AcDbLine
 10
27.01226089469743
 20
-12.49999999999978
 30
0.0
 11
27.01226089469749
 21
12.50000000000022
 31
0.0
  0
LINE
  5
795D
330
1F
100
AcDbEntity
  8
AM_0
100
AcDbLine
 10
-37.78773910530252
 20
-10.97239785265441
 30
0.0
 11
-37.78773910530253
 21
10.97239785332281
 31
0.0
  0
LINE
  5
7960
330
1F
100
AcDbEntity
  8
AM_0
100
AcDbLine
 10
-37.78773910530256
 20
55.11095785814802
 30
0.0
 11
-171.8604076187387
 21
55.11095785814782
 31
0.0
  0
LINE
  5
7962
330
1F
100
AcDbEntity
  8
AM_0
100
AcDbLine
 10
-37.78773910530262
 20
55.11095785814797
 30
0.0
 11
-37.78773910530256
 21
55.41095785814807
 31
0.0
  0
ARC
  5
7963
330
1F
100
AcDbEntity
  8
AM_0
100
AcDbCircle
 10
-29.43773910530244
 20
-0.0000000000000284
 30
0.0
 40
1.75
100
AcDbArc
 50
40.11362980155307
 51
319.8863701984598
  0
LINE
  5
7AD6
330
1F
100
AcDbEntity
  8
AM_0
100
AcDbLine
 10
-15.83773910530253
 20
-4.993619958483066
 30
0.0
 11
-29.25563523146955
 21
-0.7629735605984252
 31
0.0
  0
LINE
  5
7AD7
330
1F
100
AcDbEntity
  8
AM_0
100
AcDbLine
 10
-15.83773910530253
 20
-4.993619958483066
 30
0.0
 11
-2.419842979135282
 21
-0.7629735605984252
 31
0.0
  0
ARC
  5
7AD8
330
1F
100
AcDbEntity
  8
AM_0
100
AcDbCircle
 10
-2.660407618738688
 20
0.0000000000001137
 30
0.0
 40
0.8
100
AcDbArc
 50
287.5
 51
72.50000000000015
1001
GENIUS_GENOREF_13
1005
7ADE
  0
ARC
  5
7AD9
330
1F
100
AcDbEntity
  8
AM_0
100
AcDbCircle
 10
-29.01507059186615
 20
0.0000000000000568
 30
0.0
 40
0.8
100
AcDbArc
 50
107.5000000000001
 51
252.4999999999999
1001
GENIUS_GENOREF_13
1005
7ADD
  0
LINE
  5
7ADA
330
1F
100
AcDbEntity
  8
AM_0
100
AcDbLine
 10
-15.83773910530253
 20
4.993619958483179
 30
0.0
 11
-29.25563523146955
 21
0.7629735605987094
 31
0.0
  0
LINE
  5
7ADB
330
1F
100
AcDbEntity
  8
AM_0
100
AcDbLine
 10
-15.83773910530253
 20
4.993619958483179
 30
0.0
 11
-2.419842979135282
 21
0.7629735605987662
 31
0.0
  0
CIRCLE
  5
7ADC
330
1F
100
AcDbEntity
  8
AM_0
100
AcDbCircle
 10
-15.83773910530242
 20
0.0
 30
0.0
 40
2.549999999999999
  0
POINT
  5
7ADD
330
1F
100
AcDbEntity
  8
0
 60
     1
100
AcDbPoint
 10
189.0919818566723
 20
188.7292366266148
 30
0.0
1001
GENIUS_GENODEF_13
1002
{
1000
HIER
1070
     1
1002
}
1002
{
1000
MANEDIT
1070
     0
1002
}
1002
{
1000
NOSEL
1070
     0
1002
}
1002
{
1000
BEHIND
1070
     0
1002
}
1002
{
1000
REACTOR
1002
}
1001
GENIUS_GENOBJ-N-FIL_13
1002
{
1000
OWNER
1000
GEN
1002
}
1001
GENIUS_GENOENT_13
1002
{
1000
MYREF
1005
7ADD
1002
}
1002
{
1000
GRP
1005
0
1002
}
1001
GENIUS_GENOLIS_13
1002
{
1000
ENT
1005
7AD9
1002
}
  0
POINT
  5
7ADE
330
1F
100
AcDbEntity
  8
0
 60
     1
100
AcDbPoint
 10
189.0919818566723
 20
188.7292366266148
 30
0.0
1001
GENIUS_GENODEF_13
1002
{
1000
HIER
1070
     1
1002
}
1002
{
1000
MANEDIT
1070
     0
1002
}
1002
{
1000
NOSEL
1070
     0
1002
}
1002
{
1000
BEHIND
1070
     0
1002
}
1002
{
1000
REACTOR
1002
}
1001
GENIUS_GENOBJ-N-FIL_13
1002
{
1000
OWNER
1000
GEN
1002
}
1001
GENIUS_GENOENT_13
1002
{
1000
MYREF
1005
7ADE
1002
}
1002
{
1000
GRP
1005
0
1002
}
1001
GENIUS_GENOLIS_13
1002
{
1000
ENT
1005
7AD8
1002
}
  0
LINE
  5
7ADF
330
1F
100
AcDbEntity
  8
AM_0
100
AcDbLine
 10
27.01226089469749
 20
-4.993619958483094
 30
0.0
 11
31.77226089469748
 21
-4.409165448585241
 31
0.0
  0
LINE
  5
7AE0
330
1F
100
AcDbEntity
  8
AM_0
100
AcDbLine
 10
27.01226089469749
 20
4.993619958483179
 30
0.0
 11
31.77226089469748
 21
4.409165448585412
 31
0.0
  0
LINE
  5
7AE8
330
1F
100
AcDbEntity
  8
AM_0
100
AcDbLine
 10
31.77226089469748
 20
-4.474110225751275
 30
0.0
 11
31.77226089469748
 21
4.474110225751303
 31
0.0
  0
LINE
  5
7AF9
330
1F
100
AcDbEntity
  8
AM_0
100
AcDbLine
 10
27.31226089469748
 20
-10.97239785265429
 30
0.0
 11
27.31226089469755
 21
-4.956784590212208
 31
0.0
  0
LINE
  5
7AFB
330
1F
100
AcDbEntity
  8
AM_0
100
AcDbLine
 10
27.31226089469755
 20
4.956784590212294
 30
0.0
 11
27.31226089469749
 21
10.97239785332294
 31
0.0
  0
LINE
  5
7B03
330
1F
100
AcDbEntity
  8
AM_0
100
AcDbLine
 10
34.95226089469749
 20
-4.47411022575136
 30
0.0
 11
34.95226089469749
 21
4.474110225751275
 31
0.0
  0
LINE
  5
7B04
330
1F
100
AcDbEntity
  8
AM_0
100
AcDbLine
 10
31.77226089469748
 20
-4.474110225751331
 30
0.0
 11
34.95226089469749
 21
-4.474110225751331
 31
0.0
  0
LINE
  5
7B05
330
1F
100
AcDbEntity
  8
AM_0
100
AcDbLine
 10
31.77226089469748
 20
4.474110225751303
 30
0.0
 11
34.95226089469749
 21
4.474110225751246
 31
0.0
  0
LINE
  5
7B0D
330
1F
100
AcDbEntity
  8
AM_0
100
AcDbLine
 10
59.01226089469745
 20
-0.2499999999998582
 30
0.0
 11
34.95226089469754
 21
-0.2499999999999716
 31
0.0
  0
LINE
  5
7B11
330
1F
100
AcDbEntity
  8
AM_0
100
AcDbLine
 10
59.01226089469745
 20
0.250000000000085
 30
0.0
 11
34.95226089469754
 21
0.2500000000000284
 31
0.0
  0
LINE
  5
7B1D
330
1F
100
AcDbEntity
  8
AM_0
100
AcDbLine
 10
-3.780637805893348
 20
63.05095785814799
 30
0.0
 11
-3.780637805893235
 21
87.11095785814809
 31
0.0
  0
LINE
  5
7B1E
330
1F
100
AcDbEntity
  8
AM_0
100
AcDbLine
 10
-1.860407618738776
 20
55.11095785814799
 30
0.0
 11
-2.444862128636572
 21
59.87095785814801
 31
0.0
  0
LINE
  5
7B2A
330
1F
100
AcDbEntity
  8
AM_0
100
AcDbLine
 10
-1.860407618738776
 20
55.11095785814802
 30
0.0
 11
-29.8150705918662
 21
55.11095785814799
 31
0.0
  0
LINE
  5
7B2B
330
1F
100
AcDbEntity
  8
AM_0
100
AcDbLine
 10
-29.81507059186625
 20
55.11095785814799
 30
0.0
 11
-29.77823522359537
 21
55.41095785814803
 31
0.0
  0
LINE
  5
7B33
330
1F
100
AcDbEntity
  8
AM_0
100
AcDbLine
 10
-2.444862128636572
 20
59.87095785814801
 30
0.0
 11
-17.17780384249539
 21
59.87095785814799
 31
0.0
  0
LINE
  5
7B34
330
1F
100
AcDbEntity
  8
AM_0
100
AcDbLine
 10
-17.17780384249542
 20
59.87095785814796
 30
0.0
 11
-17.17780384249542
 21
63.05095785814796
 31
0.0
  0
LINE
  5
7B3C
330
1F
100
AcDbEntity
  8
AM_0
100
AcDbLine
 10
-2.987739105302551
 20
63.05095785814805
 30
0.0
 11
-17.17780384249542
 21
63.05095785814796
 31
0.0
  0
LINE
  5
7B46
330
1F
100
AcDbEntity
  8
AM_11
100
AcDbLine
 10
-2.419842979135225
 20
0.7629735605987662
 30
0.0
 11
-0.00000000000027
 21
0.0000000000001705
 31
0.0
  0
LINE
  5
7B47
330
1F
100
AcDbEntity
  8
AM_11
100
AcDbLine
 10
-2.419842979135282
 20
-0.7629735605984252
 30
0.0
 11
-0.00000000000027
 21
0.0000000000001705
 31
0.0
  0
DIMENSION
  5
7B50
330
1F
100
AcDbEntity
  8
AM_5
100
AcDbDimension
  2
*D5
 10
-185.8604086187386
 20
55.11095785814782
 30
0.0
 11
-188.9604086187386
 21
71.1109578581478
 31
0.0
 70
    32
  1
<>
 51
359.9999999999998
  3
AM_JIS$0
100
AcDbAlignedDimension
 13
-171.8604076187388
 23
87.11095785814782
 33
0.0
 14
-171.8604076187387
 24
55.11095785814781
 34
0.0
 50
270.0
100
AcDbRotatedDimension
1001
GENIUS_GENDTOL_13
1000

1000
h7
1000

1040
0.0
1001
ACAD
1000
DSTYLE
1002
{
1070
   287
1070
     3
1070
    40
1040
1.0
1070
    42
1040
1.0
1070
    43
1040
12.0
1070
    48
1040
0.1
1070
    78
1070
     8
1070
   140
1040
3.2
1070
   176
1070
   256
1070
   177
1070
   256
1070
   271
1070
     0
1070
   272
1070
     3
1070
   275
1070
     0
1070
   284
1070
     0
1070
   289
1070
     3
1070
   340
1005
6B
1070
   371
1070
    -1
1070
   372
1070
    -1
1002
}
  0
DIMENSION
  5
7BFB
330
1F
100
AcDbEntity
  8
AM_5
100
AcDbDimension
  2
*D6
 10
-185.8604086187386
 20
-12.50000000000016
 30
0.0
 11
-188.9604086187386
 21
-0.0000000000002085
 31
0.0
 70
    32
  1
<>
 51
359.9999999999998
  3
AM_JIS$0
100
AcDbAlignedDimension
 13
-171.8604076187386
 23
12.4999999999998
 33
0.0
 14
-171.8604076187386
 24
-12.50000000000016
 34
0.0
 50
270.0
100
AcDbRotatedDimension
1001
GENIUS_GENDTOL_13
1000

1000
h7
1000

1040
0.0
1001
ACAD
1000
DSTYLE
1002
{
1070
   287
1070
     3
1070
    40
1040
1.0
1070
    42
1040
1.0
1070
    43
1040
12.0
1070
    48
1040
0.1
1070
    78
1070
     8
1070
   140
1040
3.2
1070
   176
1070
   256
1070
   177
1070
   256
1070
   271
1070
     0
1070
   272
1070
     3
1070
   275
1070
     0
1070
   284
1070
     0
1070
   289
1070
     3
1070
   340
1005
6B
1070
   371
1070
    -1
1070
   372
1070
    -1
1002
}
  0
DIMENSION
  5
7EC3
330
1F
100
AcDbEntity
  8
AM_5
100
AcDbDimension
  2
*D7
 10
12.13959238126111
 20
55.11095785814799
 30
0.0
 11
9.039592381261103
 21
71.11095785814804
 31
0.0
 70
    32
  1
<>
 51
359.9999999999998
  3
AM_JIS$0
100
AcDbAlignedDimension
 13
-3.780637805893223
 23
87.11095785814809
 33
0.0
 14
-1.860407618738761
 24
55.11095785814799
 34
0.0
 50
90.0
100
AcDbRotatedDimension
1001
GENIUS_GENDTOL_13
1000

1000
h7
1000

1040
0.0
1001
ACAD
1000
DSTYLE
1002
{
1070
   287
1070
     3
1070
    40
1040
1.0
1070
    42
1040
1.0
1070
    43
1040
12.0
1070
    48
1040
0.1
1070
    78
1070
     8
1070
   140
1040
3.2
1070
   176
1070
   256
1070
   177
1070
   256
1070
   271
1070
     0
1070
   272
1070
     3
1070
   275
1070
     0
1070
   284
1070
     0
1070
   289
1070
     3
1070
   340
1005
6B
1070
   371
1070
    -1
1070
   372
1070
    -1
1002
}
  0
DIMENSION
  5
7F72
330
1F
100
AcDbEntity
  8
AM_5
100
AcDbDimension
  2
*D8
 10
-2.419842979135282
 20
0.7629735605987662
 30
0.0
 11
-20.11108722531252
 21
27.42806213916691
 31
0.0
 70
    34
  1
72%%d30'
 51
359.9999999999998
  3
AM_JIS$2
100
AcDb2LineAngularDimension
 13
-0.00000000000027
 23
-0.0202310883395285
 33
0.0
 14
-0.00000000000027
 24
0.0273897695680034
 34
0.0
 15
-15.83773910530253
 25
4.993619958483179
 35
0.0
 16
-12.52999657600704
 26
27.92394432122371
 36
0.0
1001
ACAD
1000
DSTYLE
1002
{
1070
   179
1070
     3
1002
}
1001
GENIUS_GENDTOL_13
1000

1000
h7
1000

1040
0.0
  0
LINE
  5
814B
330
1F
100
AcDbEntity
  8
AM_0
100
AcDbLine
 10
-17.17780384249542
 20
59.87095785814796
 30
0.0
 11
-17.72542298412233
 21
55.41095785814809
 31
0.0
  0
LINE
  5
81AE
330
1F
100
AcDbEntity
  8
AM_0
100
AcDbLine
 10
-171.8604076187386
 20
-12.50000000000017
 30
0.0
 11
-171.8604076187386
 21
12.49999999999983
 31
0.0
  0
LINE
  5
81BE
330
1F
100
AcDbEntity
  8
AM_0
100
AcDbLine
 10
-42.63267413211774
 20
12.50000000000008
 30
0.0
 11
-171.8604076187387
 21
12.49999999999983
 31
0.0
  0
LINE
  5
81C2
330
1F
100
AcDbEntity
  8
AM_0
100
AcDbLine
 10
-42.63267413756773
 20
-12.49999999999991
 30
0.0
 11
-171.8604076187386
 21
-12.50000000000017
 31
0.0
  0
LINE
  5
81E7
330
1F
100
AcDbEntity
  8
AM_0
100
AcDbLine
 10
-171.8604076187387
 20
55.11095785814781
 30
0.0
 11
-171.8604076187388
 21
87.11095785814782
 31
0.0
  0
DIMENSION
  5
8228
330
1F
100
AcDbEntity
  8
AM_5
100
AcDbDimension
  2
*D9
 10
14.00000099999769
 20
0.0000000000001666
 30
0.0
 11
10.90000099999769
 21
-6.24999999999988
 31
0.0
 70
    32
  1
<>
 51
359.9999999999998
  3
AM_JIS$0
100
AcDbAlignedDimension
 13
-42.63267413756773
 23
-12.49999999999991
 33
0.0
 14
-0.00000000000027
 24
0.0000000000001705
 34
0.0
 50
90.00000000000012
100
AcDbRotatedDimension
1001
GENIUS_GENDTOL_13
1000

1000
h7
1000

1040
0.0
1001
ACAD
1000
DSTYLE
1002
{
1070
   287
1070
     3
1070
    40
1040
1.0
1070
    42
1040
1.0
1070
    43
1040
12.0
1070
    48
1040
0.1
1070
    78
1070
     8
1070
   140
1040
3.2
1070
   176
1070
   256
1070
   177
1070
   256
1070
   271
1070
     1
1070
   272
1070
     3
1070
   275
1070
     0
1070
   284
1070
     0
1070
   289
1070
     3
1070
   340
1005
6B
1070
   371
1070
    -1
1070
   372
1070
    -1
1002
}
  0
LINE
  5
82EE
330
1F
100
AcDbEntity
  8
AM_0
100
AcDbLine
 10
27.01226089469749
 20
12.50000000000022
 30
0.0
 11
59.0122608946975
 21
12.50000000000028
 31
0.0
  0
LINE
  5
82EF
330
1F
100
AcDbEntity
  8
AM_0
100
AcDbLine
 10
27.01226089469742
 20
-12.49999999999977
 30
0.0
 11
59.01226089469743
 21
-12.49999999999971
 31
0.0
  0
LINE
  5
82F0
330
1F
100
AcDbEntity
  8
AM_0
100
AcDbLine
 10
27.01226089469749
 20
10.97239785332294
 30
0.0
 11
27.31226089469749
 21
10.97239785332294
 31
0.0
  0
LINE
  5
82F1
330
1F
100
AcDbEntity
  8
AM_0
100
AcDbLine
 10
27.01226089469743
 20
-10.97239785265428
 30
0.0
 11
27.31226089469748
 21
-10.97239785265428
 31
0.0
  0
LINE
  5
8318
330
1F
100
AcDbEntity
  8
AM_0
100
AcDbLine
 10
-3.780637805893235
 20
87.11095785814809
 30
0.0
 11
-171.8604076187388
 21
87.11095785814782
 31
0.0
  0
LINE
  5
833F
330
1F
100
AcDbEntity
  8
AM_0
100
AcDbLine
 10
59.01226089469743
 20
-12.49999999999986
 30
0.0
 11
59.0122608946975
 21
12.50000000000013
 31
0.0
  0
DIMENSION
  5
8480
330
1F
100
AcDbEntity
  8
AM_5
100
AcDbDimension
  2
*D10
 10
-1.860407618738777
 20
41.11095785814786
 30
0.0
 11
-86.86040761873879
 21
44.51095785814786
 31
0.0
 70
    32
  1
<>
 51
359.9999999999998
  3
AM_JIS$0
100
AcDbAlignedDimension
 13
-171.8604076187387
 23
55.11095785814783
 33
0.0
 14
-1.860407618738776
 24
55.110957858148
 34
0.0
 50
0.0000000000001018
100
AcDbRotatedDimension
1001
ACAD
1000
DSTYLE
1002
{
1070
   271
1070
     0
1002
}
1001
GENIUS_GENDTOL_13
1000

1000
h7
1000

1040
0.0
  0
LINE
  5
8608
330
1F
100
AcDbEntity
  8
AM_0
100
AcDbLine
 10
-42.63267413211781
 20
55.11095785814802
 30
0.0
 11
-42.63267413211787
 21
87.11095785814803
 31
0.0
  0
VIEWPORT
  5
110
330
101
100
AcDbEntity
 67
     1
  8
0
100
AcDbViewport
 10
420.5
 20
297.0
 30
0.0
 40
948.9782706766916
 41
628.452
 68
     1
 69
     1
1001
ACAD
1000
MVIEW
1002
{
1070
    16
1010
0.0
1020
0.0
1030
0.0
1010
0.0
1020
0.0
1030
1.0
1040
0.0
1040
628.452
1040
420.5
1040
297.0
1040
50.0
1040
0.0
1040
0.0
1070
     0
1070
   100
1070
     1
1070
     1
1070
     0
1070
     0
1070
     0
1070
     0
1040
0.0
1040
0.0
1040
0.0
1040
10.0
1040
10.0
1040
10.0
1040
10.0
1070
     0
1002
{
1002
}
1002
}
  0
ENDSEC
  0
SECTION
  2
OBJECTS
  0
DICTIONARY
  5
C
330
0
100
AcDbDictionary
  3
ACAD_GROUP
350
D
  3
ACAD_LAYOUT
350
1A
  3
ACAD_MLINESTYLE
350
17
  3
ACAD_PLOTSETTINGS
350
19
  3
ACAD_PLOTSTYLENAME
350
E
  3
ACDBVARIABLEDICTIONARY
350
34
  3
ACMDICTIONARY
350
43
  3
AMG
350
2B
  3
AMGSNAPSETTINGS
350
6E
  3
DWGPROPS
350
864A
  3
ACDBHEADERROUNDTRIPXREC
350
8655
  0
DICTIONARY
  5
74
330
1F
100
AcDbDictionary
280
     1
  3
ACAD_INDEX
360
864C
  3
ACAD_LAYOUTSELFREF
360
8678
  0
DICTIONARY
  5
867D
330
101
100
AcDbDictionary
280
     1
  3
ACAD_LAYOUTSELFREF
360
867E
  0
DICTIONARY
  5
D
102
{ACAD_REACTORS
330
C
102
}
330
C
100
AcDbDictionary
  0
DICTIONARY
  5
1A
102
{ACAD_REACTORS
330
C
102
}
330
C
100
AcDbDictionary
  0
DICTIONARY
  5
17
102
{ACAD_REACTORS
330
C
102
}
330
C
100
AcDbDictionary
  3
STANDARD
350
18
  0
DICTIONARY
  5
19
102
{ACAD_REACTORS
330
C
102
}
330
C
100
AcDbDictionary
  3
ASAMI
350
399D
  0
ACDBDICTIONARYWDFLT
  5
E
102
{ACAD_REACTORS
330
C
102
}
330
C
100
AcDbDictionary
281
     1
  3
Normal
350
F
100
AcDbDictionaryWithDefault
340
F
  0
DICTIONARY
  5
34
102
{ACAD_REACTORS
330
C
102
}
330
C
100
AcDbDictionary
  3
INDEXCTL
350
35
  3
SORTENTS
350
B5E
  0
DICTIONARY
  5
43
102
{ACAD_REACTORS
330
C
102
}
330
C
100
AcDbDictionary
  3
ACMSTDDICTIONARY
350
260
  0
DICTIONARY
  5
2B
102
{ACAD_REACTORS
330
C
102
}
330
C
100
AcDbDictionary
  3
ACMGSETTINGS
350
2C
  0
DICTIONARY
  5
6E
102
{ACAD_REACTORS
330
C
102
}
330
C
100
AcDbDictionary
  0
XRECORD
  5
864A
102
{ACAD_REACTORS
330
C
102
}
330
C
100
AcDbXrecord
  1
DWGPROPS COOKIE
  2

  3

  4

  6

  7

  8

  9

300
AmdtFileType=82
301
=
302
=
303
=
304
=
305
=
306
=
307
=
308
=
309
=
 40
0.8587555787037036
 41
2452802.716478761
 42
2452914.650279757
  1

 90
        1
  0
DICTIONARY
  5
8655
102
{ACAD_REACTORS
330
C
102
}
330
C
100
AcDbDictionary
  3
TSTACKALIGN
350
8656
  3
TSTACKSIZE
350
8657
  3
HYPERLINKBASE
350
8658
  3
STYLESHEET
350
8659
  3
LAYOUTDICT
350
865A
  3
PLOTSETDICT
350
865B
  3
PLOTSTYLNAMDICT
350
865C
  3
LWETCUNION
350
865D
  3
INSUNITS
350
865E
  3
CEPSNTYPE
350
865F
  3
FINGERPRINTGUID
350
8660
  3
VERSIONGUID
350
8661
  3
PSVPSCALE
350
8662
  3
DIMSTYLEDATA
350
8663
  3
PUCSORTHOREF
350
8664
  3
PUCSORTHOVIEW
350
8665
  3
PUCSBASE
350
8666
  3
PUCSORGTOP
350
8667
  3
PUCSORGBOTTOM
350
8668
  3
PUCSORGLEFT
350
8669
  3
PUCSORGRIGHT
350
866A
  3
PUCSORGFRONT
350
866B
  3
PUCSORGBACK
350
866C
  3
UCSORTHOREF
350
866D
  3
UCSORTHOVIEW
350
866E
  3
UCSBASE
350
866F
  3
UCSORGTOP
350
8670
  3
UCSORGBOTTOM
350
8671
  3
UCSORGLEFT
350
8672
  3
UCSORGRIGHT
350
8673
  3
UCSORGFRONT
350
8674
  3
UCSORGBACK
350
8675
  0
DICTIONARY
  5
864C
102
{ACAD_REACTORS
330
74
102
}
330
74
100
AcDbDictionary
  3
*A1
350
864D
  0
XRECORD
  5
8678
102
{ACAD_REACTORS
330
74
102
}
330
74
100
AcDbXrecord
340
1F
  0
XRECORD
  5
867E
102
{ACAD_REACTORS
330
867D
102
}
330
867D
100
AcDbXrecord
340
101
  0
MLINESTYLE
  5
18
102
{ACAD_REACTORS
330
17
102
}
330
17
100
AcDbMlineStyle
  2
STANDARD
 70
     0
  3

 62
   256
 51
90.0
 52
90.0
 71
     2
 49
0.5
 62
   256
  6
BYLAYER
 49
-0.5
 62
   256
  6
BYLAYER
  0
PLOTSETTINGS
  5
399D
102
{ACAD_REACTORS
330
19
102
}
330
19
100
AcDbPlotSettings
  1
asami
  2
RICOH imagio MF1540
  4
A4
  6

 40
5.831416606903076
 41
7.651742935180664
 42
4.90008544921875
 43
5.789077758789062
 44
296.9683227539062
 45
209.9733276367187
 46
0.0
 47
0.0
 48
-156.6707931774246
 49
-74.57609991074048
140
58.59973180214831
141
60.61068161925596
142
1.0
143
1.095343097833084
 70
  1712
 72
     1
 73
     1
 74
     4
  7
asami.ctb
 75
     0
147
0.9129559514076438
148
156.6707931774246
149
74.57609991074048
  0
ACDBPLACEHOLDER
  5
F
102
{ACAD_REACTORS
330
E
102
}
330
E
100
AcDbPlaceHolder
280
     0
  0
DICTIONARYVAR
  5
35
102
{ACAD_REACTORS
330
34
102
}
330
34
100
DictionaryVariables
280
     0
  1
1
  0
DICTIONARYVAR
  5
B5E
102
{ACAD_REACTORS
330
34
102
}
330
34
100
DictionaryVariables
280
     0
  1
96
  0
DICTIONARY
  5
260
102
{ACAD_REACTORS
330
43
102
}
330
43
100
AcDbDictionary
  0
DICTIONARY
  5
2C
102
{ACAD_REACTORS
330
2B
102
}
330
2B
100
AcDbDictionary
  3
DWGSETTINGS
350
2D
  0
XRECORD
  5
8656
102
{ACAD_REACTORS
330
8655
102
}
330
8655
100
AcDbXrecord
 90
        1
  0
XRECORD
  5
8657
102
{ACAD_REACTORS
330
8655
102
}
330
8655
100
AcDbXrecord
 90
       70
  0
XRECORD
  5
8658
102
{ACAD_REACTORS
330
8655
102
}
330
8655
100
AcDbXrecord
  1

  0
XRECORD
  5
8659
102
{ACAD_REACTORS
330
8655
102
}
330
8655
100
AcDbXrecord
  1
ASAMI.ctb
  0
XRECORD
  5
865A
102
{ACAD_REACTORS
330
8655
102
}
330
8655
100
AcDbXrecord
340
1A
  0
XRECORD
  5
865B
102
{ACAD_REACTORS
330
8655
102
}
330
8655
100
AcDbXrecord
340
19
  0
XRECORD
  5
865C
102
{ACAD_REACTORS
330
8655
102
}
330
8655
100
AcDbXrecord
340
E
  0
XRECORD
  5
865D
102
{ACAD_REACTORS
330
8655
102
}
330
8655
100
AcDbXrecord
 90
    10781
  0
XRECORD
  5
865E
102
{ACAD_REACTORS
330
8655
102
}
330
8655
100
AcDbXrecord
 90
        4
  0
XRECORD
  5
865F
102
{ACAD_REACTORS
330
8655
102
}
330
8655
100
AcDbXrecord
 90
        0
  0
XRECORD
  5
8660
102
{ACAD_REACTORS
330
8655
102
}
330
8655
100
AcDbXrecord
  1
{AFB28963-8C59-40AE-9337-C84526B81ACE}
  0
XRECORD
  5
8661
102
{ACAD_REACTORS
330
8655
102
}
330
8655
100
AcDbXrecord
  1
{F106E302-EDBA-4A5A-84F4-C20A8AEC293C}
  0
XRECORD
  5
8662
102
{ACAD_REACTORS
330
8655
102
}
330
8655
100
AcDbXrecord
 40
0.0
  0
XRECORD
  5
8663
102
{ACAD_REACTORS
330
8655
102
}
330
8655
100
AcDbXrecord
1000
DSTYLE
1002
{
1070
    79
 70
     2
1070
   341
340
59
1070
   342
340
59
1070
   371
 70
    -1
1070
   372
 70
    -1
1002
}
  0
XRECORD
  5
8664
102
{ACAD_REACTORS
330
8655
102
}
330
8655
100
AcDbXrecord
340
0
  0
XRECORD
  5
8665
102
{ACAD_REACTORS
330
8655
102
}
330
8655
100
AcDbXrecord
 70
     0
  0
XRECORD
  5
8666
102
{ACAD_REACTORS
330
8655
102
}
330
8655
100
AcDbXrecord
340
0
  0
XRECORD
  5
8667
102
{ACAD_REACTORS
330
8655
102
}
330
8655
100
AcDbXrecord
 10
0.0
 20
0.0
 30
0.0
  0
XRECORD
  5
8668
102
{ACAD_REACTORS
330
8655
102
}
330
8655
100
AcDbXrecord
 10
0.0
 20
0.0
 30
0.0
  0
XRECORD
  5
8669
102
{ACAD_REACTORS
330
8655
102
}
330
8655
100
AcDbXrecord
 10
0.0
 20
0.0
 30
0.0
  0
XRECORD
  5
866A
102
{ACAD_REACTORS
330
8655
102
}
330
8655
100
AcDbXrecord
 10
0.0
 20
0.0
 30
0.0
  0
XRECORD
  5
866B
102
{ACAD_REACTORS
330
8655
102
}
330
8655
100
AcDbXrecord
 10
0.0
 20
0.0
 30
0.0
  0
XRECORD
  5
866C
102
{ACAD_REACTORS
330
8655
102
}
330
8655
100
AcDbXrecord
 10
0.0
 20
0.0
 30
0.0
  0
XRECORD
  5
866D
102
{ACAD_REACTORS
330
8655
102
}
330
8655
100
AcDbXrecord
340
0
  0
XRECORD
  5
866E
102
{ACAD_REACTORS
330
8655
102
}
330
8655
100
AcDbXrecord
 70
     0
  0
XRECORD
  5
866F
102
{ACAD_REACTORS
330
8655
102
}
330
8655
100
AcDbXrecord
340
0
  0
XRECORD
  5
8670
102
{ACAD_REACTORS
330
8655
102
}
330
8655
100
AcDbXrecord
 10
0.0
 20
0.0
 30
0.0
  0
XRECORD
  5
8671
102
{ACAD_REACTORS
330
8655
102
}
330
8655
100
AcDbXrecord
 10
0.0
 20
0.0
 30
0.0
  0
XRECORD
  5
8672
102
{ACAD_REACTORS
330
8655
102
}
330
8655
100
AcDbXrecord
 10
0.0
 20
0.0
 30
0.0
  0
XRECORD
  5
8673
102
{ACAD_REACTORS
330
8655
102
}
330
8655
100
AcDbXrecord
 10
0.0
 20
0.0
 30
0.0
  0
XRECORD
  5
8674
102
{ACAD_REACTORS
330
8655
102
}
330
8655
100
AcDbXrecord
 10
0.0
 20
0.0
 30
0.0
  0
XRECORD
  5
8675
102
{ACAD_REACTORS
330
8655
102
}
330
8655
100
AcDbXrecord
 10
0.0
 20
0.0
 30
0.0
  0
LAYER_INDEX
  5
864D
102
{ACAD_REACTORS
330
864C
102
}
330
864C
100
AcDbIndex
 40
2452941.607493298
100
AcDbLayerIndex
  8
0
360
864E
 90
        2
  8
AM_0
360
864F
 90
       45
  8
AM_5
360
8650
 90
        6
  8
AM_6
360
8651
 90
        1
  8
Defpoints
360
8652
 90
        0
  8
AM_11
360
8653
 90
        2
  0
XRECORD
  5
2D
102
{ACAD_REACTORS
330
2C
102
}
330
2C
100
AcDbXrecord
  1
VERSION
140
15.0
  1
PRODUCT
  2
AutoCAD Mechanical 2000
  0
IDBUFFER
  5
864E
330
0
100
AcDbIdBuffer
330
7ADD
330
7ADE
  0
IDBUFFER
  5
864F
330
0
100
AcDbIdBuffer
330
7ADF
330
7AE0
330
7AE8
330
7AF9
330
7AFB
330
7B03
330
7B04
330
7B05
330
7B0D
330
7B11
330
7B1D
330
7B1E
330
7B2A
330
7B2B
330
7B33
330
7B34
330
7B3C
330
814B
330
81AE
330
81BE
330
81C2
330
81E7
330
82EE
330
82EF
330
82F0
330
82F1
330
8318
330
833F
330
8608
330
7951
330
7952
330
7953
330
7956
330
7958
330
795D
330
7960
330
7962
330
7963
330
7AD6
330
7AD7
330
7AD8
330
7AD9
330
7ADA
330
7ADB
330
7ADC
  0
IDBUFFER
  5
8650
330
0
100
AcDbIdBuffer
330
7B50
330
7BFB
330
7EC3
330
7F72
330
8228
330
8480
  0
IDBUFFER
  5
8651
330
0
100
AcDbIdBuffer
330
388D
  0
IDBUFFER
  5
8652
330
0
100
AcDbIdBuffer
  0
IDBUFFER
  5
8653
330
0
100
AcDbIdBuffer
330
7B46
330
7B47
  0
ENDSEC
  0
EOF
