  0
SECTION
  2
HEADER
  9
$ACADVER
  1
AC1015
  9
$ACADMAINTVER
 70
    20
  9
$DWGCODEPAGE
  3
ANSI_932
  9
$INSBASE
 10
0.0
 20
0.0
 30
0.0
  9
$EXTMIN
 10
-44.4747824301528
 20
-80.30964108576762
 30
-0.0000000349181948
  9
$EXTMAX
 10
141.8032316776834
 20
25.00209537682287
 30
0.0000000814935747
  9
$LIMMIN
 10
-178.8523274818857
 20
-81.04100953097612
  9
$LIMMAX
 10
69.03562273500199
 20
91.37242953801678
  9
$ORTHOMODE
 70
     0
  9
$REGENMODE
 70
     1
  9
$FILLMODE
 70
     1
  9
$QTEXTMODE
 70
     0
  9
$MIRRTEXT
 70
     1
  9
$LTSCALE
 40
0.5
  9
$ATTMODE
 70
     1
  9
$TEXTSIZE
 40
2.5
  9
$TRACEWID
 40
1.0
  9
$TEXTSTYLE
  7
STANDARD
  9
$CLAYER
  8
AM_5
  9
$CELTYPE
  6
BYLAYER
  9
$CECOLOR
 62
   256
  9
$CELTSCALE
 40
1.0
  9
$DISPSILH
 70
     0
  9
$DIMSCALE
 40
1.0
  9
$DIMASZ
 40
2.5
  9
$DIMEXO
 40
0.0
  9
$DIMDLI
 40
10.0
  9
$DIMRND
 40
0.0
  9
$DIMDLE
 40
0.0
  9
$DIMEXE
 40
1.0
  9
$DIMTP
 40
0.1
  9
$DIMTM
 40
0.1000000001
  9
$DIMTXT
 40
3.799999999999998
  9
$DIMCEN
 40
0.0
  9
$DIMTSZ
 40
0.0
  9
$DIMTOL
 70
     0
  9
$DIMLIM
 70
     0
  9
$DIMTIH
 70
     0
  9
$DIMTOH
 70
     0
  9
$DIMSE1
 70
     0
  9
$DIMSE2
 70
     0
  9
$DIMTAD
 70
     3
  9
$DIMZIN
 70
     9
  9
$DIMBLK
  1
OPEN30
  9
$DIMASO
 70
     1
  9
$DIMSHO
 70
     1
  9
$DIMPOST
  1

  9
$DIMAPOST
  1
"
  9
$DIMALT
 70
     0
  9
$DIMALTD
 70
     2
  9
$DIMALTF
 40
0.0393701
  9
$DIMLFAC
 40
1.0
  9
$DIMTOFL
 70
     1
  9
$DIMTVP
 40
0.0
  9
$DIMTIX
 70
     0
  9
$DIMSOXD
 70
     0
  9
$DIMSAH
 70
     0
  9
$DIMBLK1
  1

  9
$DIMBLK2
  1

  9
$DIMSTYLE
  2
AM_JIS
  9
$DIMCLRD
 70
   256
  9
$DIMCLRE
 70
   256
  9
$DIMCLRT
 70
     2
  9
$DIMTFAC
 40
0.71
  9
$DIMGAP
 40
1.5
  9
$DIMJUST
 70
     0
  9
$DIMSD1
 70
     0
  9
$DIMSD2
 70
     0
  9
$DIMTOLJ
 70
     0
  9
$DIMTZIN
 70
     8
  9
$DIMALTZ
 70
     0
  9
$DIMALTTZ
 70
     0
  9
$DIMUPT
 70
     0
  9
$DIMDEC
 70
     2
  9
$DIMTDEC
 70
     2
  9
$DIMALTU
 70
     2
  9
$DIMALTTD
 70
     2
  9
$DIMTXSTY
  7
STANDARD
  9
$DIMAUNIT
 70
     1
  9
$DIMADEC
 70
     1
  9
$DIMALTRND
 40
0.0
  9
$DIMAZIN
 70
     2
  9
$DIMDSEP
 70
    46
  9
$DIMATFIT
 70
     3
  9
$DIMFRAC
 70
     0
  9
$DIMLDRBLK
  1
OPEN30
  9
$DIMLUNIT
 70
     2
  9
$DIMLWD
 70
    -1
  9
$DIMLWE
 70
    -1
  9
$DIMTMOVE
 70
     0
  9
$LUNITS
 70
     2
  9
$LUPREC
 70
     2
  9
$SKETCHINC
 40
1.0
  9
$FILLETRAD
 40
1.0
  9
$AUNITS
 70
     1
  9
$AUPREC
 70
     5
  9
$MENU
  1
.
  9
$ELEVATION
 40
0.0
  9
$PELEVATION
 40
0.0
  9
$THICKNESS
 40
0.0
  9
$LIMCHECK
 70
     0
  9
$CHAMFERA
 40
4.0
  9
$CHAMFERB
 40
4.0
  9
$CHAMFERC
 40
20.0
  9
$CHAMFERD
 40
0.0
  9
$SKPOLY
 70
     0
  9
$TDCREATE
 40
2451943.610431666
  9
$TDUCREATE
 40
2451943.235431667
  9
$TDUPDATE
 40
2455604.625064560
  9
$TDUUPDATE
 40
2455604.250064560
  9
$TDINDWG
 40
1.4648874421
  9
$TDUSRTIMER
 40
1.4648868981
  9
$USRTIMER
 70
     1
  9
$ANGBASE
 50
0.0
  9
$ANGDIR
 70
     0
  9
$PDMODE
 70
     0
  9
$PDSIZE
 40
0.0
  9
$PLINEWID
 40
0.0
  9
$SPLFRAME
 70
     0
  9
$SPLINETYPE
 70
     6
  9
$SPLINESEGS
 70
     8
  9
$HANDSEED
  5
B835
  9
$SURFTAB1
 70
     6
  9
$SURFTAB2
 70
     6
  9
$SURFTYPE
 70
     6
  9
$SURFU
 70
     6
  9
$SURFV
 70
     6
  9
$UCSBASE
  2

  9
$UCSNAME
  2

  9
$UCSORG
 10
0.0
 20
0.0
 30
0.0
  9
$UCSXDIR
 10
1.0
 20
0.0
 30
0.0
  9
$UCSYDIR
 10
0.0
 20
1.0
 30
0.0
  9
$UCSORTHOREF
  2

  9
$UCSORTHOVIEW
 70
     0
  9
$UCSORGTOP
 10
0.0
 20
0.0
 30
0.0
  9
$UCSORGBOTTOM
 10
0.0
 20
0.0
 30
0.0
  9
$UCSORGLEFT
 10
0.0
 20
0.0
 30
0.0
  9
$UCSORGRIGHT
 10
0.0
 20
0.0
 30
0.0
  9
$UCSORGFRONT
 10
0.0
 20
0.0
 30
0.0
  9
$UCSORGBACK
 10
0.0
 20
0.0
 30
0.0
  9
$PUCSBASE
  2

  9
$PUCSNAME
  2

  9
$PUCSORG
 10
0.0
 20
0.0
 30
0.0
  9
$PUCSXDIR
 10
1.0
 20
0.0
 30
0.0
  9
$PUCSYDIR
 10
0.0
 20
1.0
 30
0.0
  9
$PUCSORTHOREF
  2

  9
$PUCSORTHOVIEW
 70
     0
  9
$PUCSORGTOP
 10
0.0
 20
0.0
 30
0.0
  9
$PUCSORGBOTTOM
 10
0.0
 20
0.0
 30
0.0
  9
$PUCSORGLEFT
 10
0.0
 20
0.0
 30
0.0
  9
$PUCSORGRIGHT
 10
0.0
 20
0.0
 30
0.0
  9
$PUCSORGFRONT
 10
0.0
 20
0.0
 30
0.0
  9
$PUCSORGBACK
 10
0.0
 20
0.0
 30
0.0
  9
$USERI1
 70
     0
  9
$USERI2
 70
     0
  9
$USERI3
 70
     0
  9
$USERI4
 70
     0
  9
$USERI5
 70
     0
  9
$USERR1
 40
0.0
  9
$USERR2
 40
0.0
  9
$USERR3
 40
0.0
  9
$USERR4
 40
0.0
  9
$USERR5
 40
0.0
  9
$WORLDVIEW
 70
     1
  9
$SHADEDGE
 70
     3
  9
$SHADEDIF
 70
    70
  9
$TILEMODE
 70
     1
  9
$MAXACTVP
 70
    64
  9
$PINSBASE
 10
0.0
 20
0.0
 30
0.0
  9
$PLIMCHECK
 70
     0
  9
$PEXTMIN
 10
1.000000000000000E+20
 20
1.000000000000000E+20
 30
1.000000000000000E+20
  9
$PEXTMAX
 10
-1.000000000000000E+20
 20
-1.000000000000000E+20
 30
-1.000000000000000E+20
  9
$PLIMMIN
 10
0.0
 20
0.0
  9
$PLIMMAX
 10
420.0
 20
297.0
  9
$UNITMODE
 70
     0
  9
$VISRETAIN
 70
     1
  9
$PLINEGEN
 70
     0
  9
$PSLTSCALE
 70
     1
  9
$TREEDEPTH
 70
  3020
  9
$CMLSTYLE
  2
STANDARD
  9
$CMLJUST
 70
     0
  9
$CMLSCALE
 40
20.0
  9
$PROXYGRAPHICS
 70
     1
  9
$MEASUREMENT
 70
     1
  9
$CELWEIGHT
370
    -1
  9
$ENDCAPS
280
     0
  9
$JOINSTYLE
280
     0
  9
$LWDISPLAY
290
     0
  9
$INSUNITS
 70
     4
  9
$HYPERLINKBASE
  1

  9
$STYLESHEET
  1
SEI_CAD.CTB
  9
$XEDIT
290
     1
  9
$CEPSNTYPE
380
     0
  9
$PSTYLEMODE
290
     1
  9
$FINGERPRINTGUID
  2
{C77AB3BE-9CA2-11D3-BAF3-006094EB760E}
  9
$VERSIONGUID
  2
{5646E6C9-D811-4A8D-AB49-500B51BF1B83}
  9
$EXTNAMES
290
     1
  9
$PSVPSCALE
 40
0.0
  9
$OLESTARTUP
290
     0
  0
ENDSEC
  0
SECTION
  2
CLASSES
  0
CLASS
  1
ACDBDICTIONARYWDFLT
  2
AcDbDictionaryWithDefault
  3
ObjectDBX Classes
 90
        0
280
     0
281
     0
  0
CLASS
  1
ACDBPLACEHOLDER
  2
AcDbPlaceHolder
  3
ObjectDBX Classes
 90
        0
280
     0
281
     0
  0
CLASS
  1
LAYOUT
  2
AcDbLayout
  3
ObjectDBX Classes
 90
        0
280
     0
281
     0
  0
CLASS
  1
ACME_DOCUMENT
  2
AcMeDbDoc
  3
AcMeServices
 90
        0
280
     0
281
     0
  0
CLASS
  1
ACMESCOPE
  2
AcMeScope
  3
AcMeServices
 90
        0
280
     0
281
     0
  0
CLASS
  1
ACMECOMMANDHISTORY
  2
AcMeCommandHistory
  3
AcMeServices
 90
        0
280
     0
281
     0
  0
CLASS
  1
DICTIONARYVAR
  2
AcDbDictionaryVar
  3
ObjectDBX Classes
 90
        0
280
     0
281
     0
  0
CLASS
  1
ACIMSYSVARMAN
  2
AcImSysVarManager
  3
AcMeServices
 90
        0
280
     0
281
     0
  0
CLASS
  1
ACIMREALSYSVAR
  2
AcImRealSysVar
  3
AcMeServices
 90
        0
280
     0
281
     0
  0
CLASS
  1
ACIMINTSYSVAR
  2
AcImIntSysVar
  3
AcMeServices
 90
        0
280
     0
281
     0
  0
CLASS
  1
ACMEDRAWINGMAN
  2
AcMeDrawingMan
  3
AcMeServices
 90
        0
280
     0
281
     0
  0
CLASS
  1
ACMEVIEW
  2
AcMeView
  3
AcMeServices
 90
        0
280
     0
281
     0
  0
CLASS
  1
ACDBENTITYCACHE
  2
AcMeEntityCache
  3
AcMeServices
 90
        0
280
     0
281
     0
  0
CLASS
  1
GSMANAGER
  2
AcMeGSManager
  3
AcMeServices
 90
        0
280
     0
281
     0
  0
CLASS
  1
AMDTINTERNALREACTOR
  2
AmdtInternalReactor
  3
AcMeServices
 90
        0
280
     0
281
     0
  0
CLASS
  1
ACMESTATEMGR
  2
AcMeStateMgr
  3
AcMeServices
 90
        0
280
     0
281
     0
  0
CLASS
  1
ACME_DATABASE
  2
AcMeDbDatabase
  3
AcMeServices
 90
        0
280
     0
281
     0
  0
CLASS
  1
ACRFINSADJUSTERMGR
  2
AcRfInsAdjusterMgr
  3
AcMeServices
 90
        0
280
     0
281
     0
  0
CLASS
  1
AMGSETTINGSOBJ
  2
AmgSettingsObj
  3
"AcadM|Product Description: AutoCAD Mechanical 2000|Company: Autodesk"
 90
        0
280
     0
281
     0
  0
CLASS
  1
AMGOBJPROPCFG
  2
AmgObjPropCfg
  3
"AmgLay|Product Description: AutoCAD Mechanical 2000|Company: Autodesk"
 90
        1
280
     0
281
     0
  0
CLASS
  1
ACMDATADICTIONARY
  2
AcmDataDictionary
  3
"AcmSymBB|Product Description: AutoCAD Mechanical 2004 DX|Company: Autodesk"
 90
        0
280
     0
281
     0
  0
CLASS
  1
ACMDATAENTRYBLOCK
  2
AcmDataEntryBlock
  3
"AcmSymBB|Product Description: AutoCAD Mechanical 2004 DX|Company: Autodesk"
 90
    32768
280
     0
281
     0
  0
CLASS
  1
ACIMSTRSYSVAR
  2
AcImStrSysVar
  3
AcMeServices
 90
        0
280
     0
281
     0
  0
CLASS
  1
ACAMGFILTERDAT
  2
AcAmgFilterDat
  3
"AcadM|Product Description: AutoCAD Mechanical 2000|Company: Autodesk"
 90
    32768
280
     0
281
     0
  0
CLASS
  1
LAYER_INDEX
  2
AcDbLayerIndex
  3
ObjectDBX Classes
 90
        0
280
     0
281
     0
  0
CLASS
  1
IDBUFFER
  2
AcDbIdBuffer
  3
ObjectDBX Classes
 90
        0
280
     0
281
     0
  0
CLASS
  1
ACMSTANDARDJIS
  2
AcmStandardJIS
  3
"Amdt_StdImp|Product Description: AutoCAD Mechanical 2004 DX|Company: Autodesk"
 90
    32768
280
     0
281
     0
  0
CLASS
  1
ACMSURFSTANDARDJIS
  2
AcmSurfTextStdJIS
  3
"Amdt_StdImp|Product Description: AutoCAD Mechanical 2004 DX|Company: Autodesk"
 90
    32768
280
     0
281
     0
  0
CLASS
  1
ACMFCFSTANDARDJIS
  2
AcmFCFStdJIS
  3
"Amdt_StdImp|Product Description: AutoCAD Mechanical 2004 DX|Company: Autodesk"
 90
    32768
280
     0
281
     0
  0
CLASS
  1
ACMWELDSTANDARDJIS
  2
AcmWeldingStdJIS
  3
"Amdt_StdImp|Product Description: AutoCAD Mechanical 2004 DX|Company: Autodesk"
 90
    32768
280
     0
281
     0
  0
CLASS
  1
ACMIDSTANDARDJIS
  2
AcmIdStdJIS
  3
"Amdt_StdImp|Product Description: AutoCAD Mechanical 2004 DX|Company: Autodesk"
 90
    32768
280
     0
281
     0
  0
CLASS
  1
ACMDATUMSTANDARDJIS
  2
AcmDatumStdJIS
  3
"Amdt_StdImp|Product Description: AutoCAD Mechanical 2004 DX|Company: Autodesk"
 90
    32768
280
     0
281
     0
  0
CLASS
  1
ACMBOMSTANDARDJIS
  2
AcmBOMStdJIS
  3
"Amdt_StdImp|Product Description: AutoCAD Mechanical 2004 DX|Company: Autodesk"
 90
    32768
280
     0
281
     0
  0
CLASS
  1
AMDTNOTE
  2
AmdtNote
  3
"AcmSymBB|Product Description: AutoCAD Mechanical 2004 DX|Company: Autodesk"
 90
    33791
280
     0
281
     1
  0
CLASS
  1
ACMDATAENTRYPART
  2
AcmDataEntryPart
  3
"AcmSymBB|Product Description: AutoCAD Mechanical 2004 DX|Company: Autodesk"
 90
    32768
280
     0
281
     0
  0
CLASS
  1
ACMPARTREF
  2
AcmPartRef
  3
"AcmSymBB|Product Description: AutoCAD Mechanical 2004 DX|Company: Autodesk"
 90
    33791
280
     0
281
     1
  0
CLASS
  1
ACDB_PROXY_ENTITY_DATA
  2
AcDbProxyEntityData
  3
ObjectDBX Classes
 90
    32768
280
     0
281
     0
  0
CLASS
  1
TABLESTYLE
  2
AcDbTableStyle
  3
ObjectDBX Classes
 90
     2047
280
     0
281
     0
  0
CLASS
  1
ACGREFMASTER
  2
AcGrefMaster
  3
AcAttribServices
 90
        0
280
     0
281
     0
  0
CLASS
  1
AM_DRAWING_MGR
  2
AcDmDwgMgr
  3
AcMechDwgViewMgmt
 90
        0
280
     0
281
     0
  0
CLASS
  1
AM_DWG_DOCUMENT
  2
AcDmDwgDocument
  3
AcMechDwgViewMgmt
 90
        0
280
     0
281
     0
  0
CLASS
  1
AM_DWG_SHEET
  2
AcDmSheet
  3
AcMechDwgViewMgmt
 90
        0
280
     0
281
     0
  0
CLASS
  1
AM_VIEWDIMPARMAP
  2
AcDmViewDimParMap
  3
AcMechDwgViewMgmt
 90
        0
280
     0
281
     0
  0
CLASS
  1
AM_DWGMGR_NAME
  2
AcDmDwgMgrName
  3
AcMechDwgViewMgmt
 90
        0
280
     0
281
     0
  0
CLASS
  1
ACGREFACADMASTER
  2
AcGrefacadMaster
  3
AcGrefServices
 90
        0
280
     0
281
     0
  0
CLASS
  1
AMDTMENUSTATEMGR
  2
AmdtMenuStateMgr
  3
McadcomServices
 90
        0
280
     0
281
     0
  0
CLASS
  1
AMDTMCOMMENUSTATE
  2
AmdtMcomMenuState
  3
McadcomServices
 90
        0
280
     0
281
     0
  0
CLASS
  1
AMIMASTER
  2
AmiMaster
  3
AmiServices
 90
        0
280
     0
281
     0
  0
CLASS
  1
MAPIAMMOUDLE
  2
MApiAmModule
  3
MApiAmServices
 90
        0
280
     0
281
     0
  0
CLASS
  1
AMDTADMENUSTATE
  2
AmdtAdMenuState
  3
DesignerServices
 90
        0
280
     0
281
     0
  0
CLASS
  1
ADAPPL
  2
AcAdAppl
  3
DesignerServices
 90
        0
280
     0
281
     0
  0
CLASS
  1
DEPMGR
  2
AcAdDepMgr
  3
DesignerServices
 90
        0
280
     0
281
     0
  0
CLASS
  1
PARAMMGR
  2
AcAdParamMgr
  3
DesignerServices
 90
        0
280
     0
281
     0
  0
CLASS
  1
PARAMSCOPE
  2
AcAdParamScope
  3
DesignerServices
 90
        0
280
     0
281
     0
  0
CLASS
  1
NAMEDAPPL
  2
AcAdNamedAppl
  3
DesignerServices
 90
        0
280
     0
281
     0
  0
CLASS
  1
AMDTDMMENUSTATE
  2
AmdtDmMenuState
  3
AcMechDwgViewMgmt
 90
        0
280
     0
281
     0
  0
CLASS
  1
AMDTAMMENUSTATE
  2
AmdtAmMenuState
  3
DesignerAssemblies
 90
        0
280
     0
281
     0
  0
CLASS
  1
ACAMPROJECT
  2
AcAmProject
  3
DesignerAssemblies
 90
        0
280
     0
281
     0
  0
CLASS
  1
ACAMGRCOMPDEF
  2
AcAmGrCompDef
  3
DesignerAssemblies
 90
        0
280
     0
281
     0
  0
CLASS
  1
ACCMCONTEXT
  2
AcCmContext
  3
DesignerAssemblies
 90
        0
280
     0
281
     0
  0
CLASS
  1
ACAMCOMPDEF
  2
AcAmCompDef
  3
DesignerAssemblies
 90
        0
280
     0
281
     0
  0
CLASS
  1
ACAMCOMPDEFMGR
  2
AcAmCompDefMgr
  3
DesignerAssemblies
 90
        0
280
     0
281
     0
  0
CLASS
  1
AMCONTEXTMGR
  2
AcAmContextMgr
  3
DesignerAssemblies
 90
        0
280
     0
281
     0
  0
CLASS
  1
ACAMCONTEXTMODELER
  2
AcAmContextModeler
  3
DesignerAssemblies
 90
        0
280
     0
281
     0
  0
CLASS
  1
CATALOGSTATE
  2
AcAmCatalogState
  3
DesignerAssemblies
 90
        0
280
     0
281
     0
  0
CLASS
  1
ACAMGRCOMPDEFSET
  2
AcAmGrCompDefSet
  3
DesignerAssemblies
 90
        0
280
     0
281
     0
  0
CLASS
  1
AMDTBROWSERDBTAB
  2
AmdtBrowserDbTab
  3
McadcomServices
 90
        0
280
     0
281
     0
  0
CLASS
  1
CBROWSERAPPOBJECT
  2
CBrowserAppObject
  3
McadcomServices
 90
        0
280
     0
281
     0
  0
CLASS
  1
DM_PLACEHOLDER
  2
AcDmSelsetPlaceholder
  3
AcMechDwgViewMgmt
 90
        0
280
     0
281
     0
  0
CLASS
  1
ACMSTANDARDISO
  2
AcmStandardISO
  3
"Amdt_StdImp|Product Description: AutoCAD Mechanical 2004 DX|Company: Autodesk"
 90
        0
280
     0
281
     0
  0
CLASS
  1
AMDTEDGESTANDARDISO13715
  2
AmdtEdgeStdISO13715
  3
"Amdt_StdImp|Product Description: AutoCAD Mechanical 2004 DX|Company: Autodesk"
 90
        0
280
     0
281
     0
  0
CLASS
  1
ACMSURFSTANDARDISO
  2
AcmSurfTextStdISO
  3
"Amdt_StdImp|Product Description: AutoCAD Mechanical 2004 DX|Company: Autodesk"
 90
        0
280
     0
281
     0
  0
CLASS
  1
ACMFCFSTANDARDISO
  2
AcmFCFStdISO
  3
"Amdt_StdImp|Product Description: AutoCAD Mechanical 2004 DX|Company: Autodesk"
 90
        0
280
     0
281
     0
  0
CLASS
  1
ACMWELDSTANDARDISO
  2
AcmWeldingStdISO
  3
"Amdt_StdImp|Product Description: AutoCAD Mechanical 2004 DX|Company: Autodesk"
 90
        0
280
     0
281
     0
  0
CLASS
  1
ACMIDSTANDARDISO
  2
AcmIdStdISO
  3
"Amdt_StdImp|Product Description: AutoCAD Mechanical 2004 DX|Company: Autodesk"
 90
        0
280
     0
281
     0
  0
CLASS
  1
ACMDATUMSTANDARDISO
  2
AcmDatumStdISO
  3
"Amdt_StdImp|Product Description: AutoCAD Mechanical 2004 DX|Company: Autodesk"
 90
        0
280
     0
281
     0
  0
CLASS
  1
ACMBOMSTANDARDISO
  2
AcmBOMStdISO
  3
"Amdt_StdImp|Product Description: AutoCAD Mechanical 2004 DX|Company: Autodesk"
 90
        0
280
     0
281
     0
  0
CLASS
  1
ACMDETAILSTANDARDISO
  2
AmdtDetailSymStdISO
  3
"Amdt_StdImp|Product Description: AutoCAD Mechanical 2004 DX|Company: Autodesk"
 90
        0
280
     0
281
     0
  0
CLASS
  1
ACMSECTIONSTANDARDISO
  2
AmdtSectionSymStdISO
  3
"Amdt_StdImp|Product Description: AutoCAD Mechanical 2004 DX|Company: Autodesk"
 90
        0
280
     0
281
     0
  0
CLASS
  1
ACMCENTERLINESTANDARDISO
  2
AmdtCenterLineStdISO
  3
"Amdt_StdImp|Product Description: AutoCAD Mechanical 2004 DX|Company: Autodesk"
 90
        0
280
     0
281
     0
  0
CLASS
  1
ACMTHREADLINESTANDARDISO
  2
AmdtThreadLineStdISO
  3
"Amdt_StdImp|Product Description: AutoCAD Mechanical 2004 DX|Company: Autodesk"
 90
        0
280
     0
281
     0
  0
CLASS
  1
ACMNOTESTANDARDISO
  2
AmdtNoteStdISO
  3
"Amdt_StdImp|Product Description: AutoCAD Mechanical 2004 DX|Company: Autodesk"
 90
        0
280
     0
281
     0
  0
CLASS
  1
AMDTNOTETEMPLATEDB
  2
AmdtNoteTemplateDB
  3
AMDT_STDIMP_MODULE_NAME
 90
        0
280
     0
281
     0
  0
CLASS
  1
ACAMGLAYSTD
  2
AcAmgLayStd
  3
"AcAmgLayStd|Product Description: AutoCAD Mechanical 2000|Company: Autodesk"
 90
        0
280
     0
281
     0
  0
CLASS
  1
ACAMGDIMSTD
  2
AcAmgDimStd
  3
"AcAmgDimStd|Product Description: AutoCAD Mechanical 2000|Company: Autodesk"
 90
        0
280
     0
281
     0
  0
CLASS
  1
ACAMGHOLECHARTSTDISO
  2
AcAmgHoleChartStdISO
  3
ACMSYMBB_MODULE_NAME
 90
        0
280
     0
281
     0
  0
CLASS
  1
ACAMGTITLESTD
  2
AcAmgTitleStd
  3
"TITLEAPP"
 90
        0
280
     0
281
     0
  0
ENDSEC
  0
SECTION
  2
TABLES
  0
TABLE
  2
VPORT
  5
8
330
0
100
AcDbSymbolTable
 70
     3
  0
VPORT
  5
B82E
330
8
100
AcDbSymbolTableRecord
100
AcDbViewportTableRecord
  2
*Active
 70
     0
 10
0.0
 20
0.0
 11
1.0
 21
1.0
 12
48.66422462376533
 22
-27.65377285447238
 13
0.0
 23
0.0
 14
2.5
 24
2.5
 15
10.0
 25
10.0
 16
0.0
 26
0.0
 36
1.0
 17
0.0
 27
0.0
 37
0.0
 40
106.063963151609
 41
2.176400476758045
 42
50.0
 43
0.0
 44
0.0
 50
0.0
 51
0.0
 71
     0
 72
  2000
 73
     1
 74
     3
 75
     0
 76
     0
 77
     0
 78
     0
281
     0
 65
     0
110
0.0
120
0.0
130
0.0
111
1.0
121
0.0
131
0.0
112
0.0
122
1.0
132
0.0
 79
     0
146
0.0
  0
ENDTAB
  0
TABLE
  2
LTYPE
  5
5
330
0
100
AcDbSymbolTable
 70
    14
  0
LTYPE
  5
14
330
5
100
AcDbSymbolTableRecord
100
AcDbLinetypeTableRecord
  2
BYBLOCK
 70
     0
  3

 72
    65
 73
     0
 40
0.0
  0
LTYPE
  5
15
330
5
100
AcDbSymbolTableRecord
100
AcDbLinetypeTableRecord
  2
BYLAYER
 70
     0
  3

 72
    65
 73
     0
 40
0.0
  0
LTYPE
  5
16
330
5
100
AcDbSymbolTableRecord
100
AcDbLinetypeTableRecord
  2
CONTINUOUS
 70
     0
  3
Solid line
 72
    65
 73
     0
 40
0.0
  0
LTYPE
  5
43
330
5
100
AcDbSymbolTableRecord
100
AcDbLinetypeTableRecord
  2
AM_ISO02W050
 70
     0
  3
__ __ __ __ __ __ __ __ __ __ __ __ __ __ __
 72
    65
 73
     2
 40
7.5
 49
6.0
 74
     0
 49
-1.5
 74
     0
  0
LTYPE
  5
44
330
5
100
AcDbSymbolTableRecord
100
AcDbLinetypeTableRecord
  2
AM_ISO08W050
 70
     0
  3
____ . ____ . ____ . ____ . ____ . ____ . ____
 72
    65
 73
     4
 40
18.0
 49
12.0
 74
     0
 49
-1.5
 74
     0
 49
3.0
 74
     0
 49
-1.5
 74
     0
  0
LTYPE
  5
45
330
5
100
AcDbSymbolTableRecord
100
AcDbLinetypeTableRecord
  2
AM_ISO09W050
 70
     0
  3
_____ . . _____ . . _____ . . ____ .. ____
 72
    65
 73
     6
 40
22.5
 49
12.0
 74
     0
 49
-1.5
 74
     0
 49
3.0
 74
     0
 49
-1.5
 74
     0
 49
3.0
 74
     0
 49
-1.5
 74
     0
  0
LTYPE
  5
46
330
5
100
AcDbSymbolTableRecord
100
AcDbLinetypeTableRecord
  2
AMCONSTR
 70
     0
  3
_______________________
 72
    65
 73
     2
 40
9999.0
 49
9999.0
 74
     0
 49
0.0
 74
     0
  0
LTYPE
  5
47
330
5
100
AcDbSymbolTableRecord
100
AcDbLinetypeTableRecord
  2
AM_ISO02W050X2
 70
     0
  3
 _ _ _ _ _ _ _ _ _ _ _ _
 72
    65
 73
     2
 40
3.75
 49
3.0
 74
     0
 49
-0.75
 74
     0
  0
LTYPE
  5
48
330
5
100
AcDbSymbolTableRecord
100
AcDbLinetypeTableRecord
  2
AM_ISO08W050X2
 70
     0
  3
__ . __ . __ . __ . __ . __
 72
    65
 73
     4
 40
9.0
 49
6.0
 74
     0
 49
-0.75
 74
     0
 49
1.5
 74
     0
 49
-0.75
 74
     0
  0
LTYPE
  5
4B
330
5
100
AcDbSymbolTableRecord
100
AcDbLinetypeTableRecord
  2
AMZIGZAG
 70
     0
  3
/\/-/\/-/\/-/\/-/\/-/\/
 72
    65
 73
     2
 40
11.00009999999999
 49
0.0001
 74
     4
 75
   135
340
4A
 46
0.04
 50
0.0
 44
0.0
 45
0.0
 49
-11.0
 74
     0
  0
LTYPE
  5
B6B5
330
5
100
AcDbSymbolTableRecord
100
AcDbLinetypeTableRecord
  2
HIDDEN
 70
     0
  3
Hidden __ __ __ __ __ __ __ __ __ __ __ __ __ _
 72
    65
 73
     2
 40
9.524999999999996
 49
6.349999999999998
 74
     0
 49
-3.174999999999998
 74
     0
  0
LTYPE
  5
B6B6
330
5
100
AcDbSymbolTableRecord
100
AcDbLinetypeTableRecord
  2
PHANTOM2
 70
     0
  3
Phantom (.5x) ___ _ _ ___ _ _ ___ _ _ ___ _ _
 72
    65
 73
     6
 40
31.75
 49
15.875
 74
     0
 49
-3.174999999999998
 74
     0
 49
3.174999999999998
 74
     0
 49
-3.174999999999998
 74
     0
 49
3.174999999999998
 74
     0
 49
-3.174999999999998
 74
     0
  0
LTYPE
  5
B6B7
330
5
100
AcDbSymbolTableRecord
100
AcDbLinetypeTableRecord
  2
CENTER
 70
     0
  3
Center ____ _ ____ _ ____ _ ____ _ ____ _ ____
 72
    65
 73
     4
 40
50.8
 49
31.75
 74
     0
 49
-6.349999999999998
 74
     0
 49
6.349999999999998
 74
     0
 49
-6.349999999999998
 74
     0
  0
LTYPE
  5
B6F7
330
5
100
AcDbSymbolTableRecord
100
AcDbLinetypeTableRecord
  2
ACISOWELD
 70
     0
  3
_ _ _ _ _
 72
    65
 73
     2
 40
2.0
 49
2.0
 74
     0
 49
-1.0
 74
     0
  0
LTYPE
  5
B6F8
330
5
100
AcDbSymbolTableRecord
100
AcDbLinetypeTableRecord
  2
ACISOTGB
 70
     0
  3
__ . . __ . .
 72
    65
 73
     6
 40
9.0
 49
4.0
 74
     0
 49
-1.0
 74
     0
 49
1.0
 74
     0
 49
-1.0
 74
     0
 49
1.0
 74
     0
 49
-1.0
 74
     0
  0
LTYPE
  5
B6F9
330
5
100
AcDbSymbolTableRecord
100
AcDbLinetypeTableRecord
  2
ACISOTGL
 70
     0
  3
_ _ _ _ _
 72
    65
 73
     2
 40
3.0
 49
2.0
 74
     0
 49
-1.0
 74
     0
  0
ENDTAB
  0
TABLE
  2
LAYER
  5
2
330
0
100
AcDbSymbolTable
 70
     6
  0
LAYER
  5
10
330
2
100
AcDbSymbolTableRecord
100
AcDbLayerTableRecord
  2
0
 70
     0
 62
     7
  6
CONTINUOUS
370
    -3
390
F
  0
LAYER
  5
7D
330
2
100
AcDbSymbolTableRecord
100
AcDbLayerTableRecord
  2
AM_5
 70
     0
 62
     3
  6
CONTINUOUS
370
    -3
390
F
  0
LAYER
  5
7F
330
2
100
AcDbSymbolTableRecord
100
AcDbLayerTableRecord
  2
DEFPOINTS
 70
     0
 62
     7
  6
CONTINUOUS
290
     0
370
    -3
390
F
  0
LAYER
  5
12B1
330
2
100
AcDbSymbolTableRecord
100
AcDbLayerTableRecord
  2
AM_0
 70
     0
 62
     7
  6
CONTINUOUS
370
    -3
390
F
  0
LAYER
  5
2222
330
2
100
AcDbSymbolTableRecord
100
AcDbLayerTableRecord
  2
AM_6
 70
     0
 62
     2
  6
CONTINUOUS
370
    -3
390
F
  0
LAYER
  5
7DB2
330
2
100
AcDbSymbolTableRecord
100
AcDbLayerTableRecord
  2
AM_7
 70
     0
 62
     4
  6
AM_ISO08W050
370
    -3
390
F
  0
ENDTAB
  0
TABLE
  2
STYLE
  5
3
330
0
100
AcDbSymbolTable
 70
     4
  0
STYLE
  5
11
330
3
100
AcDbSymbolTableRecord
100
AcDbTextStyleTableRecord
  2
STANDARD
 70
     0
 40
0.0
 41
1.0
 50
0.0
 71
     0
 42
2.5
  3
ISOCP.SHX
  4
EXTFONT.SHX
  0
STYLE
  5
4A
330
3
100
AcDbSymbolTableRecord
100
AcDbTextStyleTableRecord
  2

 70
     1
 40
0.0
 41
1.0
 50
0.0
 71
     0
 42
2.5
  3
ltypeshp.shx
  4

  0
STYLE
  5
B6E9
330
3
100
AcDbSymbolTableRecord
100
AcDbTextStyleTableRecord
  2
ACISOTS
 70
     0
 40
1.0
 41
1.0
 50
0.0
 71
     0
 42
2.5
  3
isocp.shx
  4
extfont.shx
  0
STYLE
  5
B6F6
330
3
100
AcDbSymbolTableRecord
100
AcDbTextStyleTableRecord
  2
ACISOGDT
 70
     0
 40
0.0
 41
1.0
 50
0.0
 71
     0
 42
2.5
  3
amgdt.shx
  4

  0
ENDTAB
  0
TABLE
  2
VIEW
  5
6
330
0
100
AcDbSymbolTable
 70
     6
  0
VIEW
  5
A30
330
6
100
AcDbSymbolTableRecord
100
AcDbViewTableRecord
  2
AM_VIEW1
 70
     0
 40
148.5
 10
112.0719649561952
 20
222.75
 41
224.1439299123904
 11
0.0
 21
0.0
 31
1.0
 12
0.0
 22
0.0
 32
0.0
 42
50.0
 43
0.0
 44
0.0
 50
0.0
 71
     0
281
     0
 72
     0
  0
VIEW
  5
A31
330
6
100
AcDbSymbolTableRecord
100
AcDbViewTableRecord
  2
AM_VIEW2
 70
     0
 40
148.5
 10
307.9280350438047
 20
222.75
 41
224.1439299123904
 11
0.0
 21
0.0
 31
1.0
 12
0.0
 22
0.0
 32
0.0
 42
50.0
 43
0.0
 44
0.0
 50
0.0
 71
     0
281
     0
 72
     0
  0
VIEW
  5
A32
330
6
100
AcDbSymbolTableRecord
100
AcDbViewTableRecord
  2
AM_VIEW3
 70
     0
 40
148.5
 10
112.0719649561952
 20
74.25
 41
224.1439299123904
 11
0.0
 21
0.0
 31
1.0
 12
0.0
 22
0.0
 32
0.0
 42
50.0
 43
0.0
 44
0.0
 50
0.0
 71
     0
281
     0
 72
     0
  0
VIEW
  5
A33
330
6
100
AcDbSymbolTableRecord
100
AcDbViewTableRecord
  2
AM_VIEW4
 70
     0
 40
148.5
 10
307.9280350438047
 20
74.25
 41
224.1439299123904
 11
0.0
 21
0.0
 31
1.0
 12
0.0
 22
0.0
 32
0.0
 42
50.0
 43
0.0
 44
0.0
 50
0.0
 71
     0
281
     0
 72
     0
  0
VIEW
  5
A34
330
6
100
AcDbSymbolTableRecord
100
AcDbViewTableRecord
  2
AM_VIEW5
 70
     0
 40
148.5
 10
210.0
 20
148.5
 41
224.1439299123904
 11
0.0
 21
0.0
 31
1.0
 12
0.0
 22
0.0
 32
0.0
 42
50.0
 43
0.0
 44
0.0
 50
0.0
 71
     0
281
     0
 72
     0
  0
VIEW
  5
A35
330
6
100
AcDbSymbolTableRecord
100
AcDbViewTableRecord
  2
AM_VIEW6
 70
     0
 40
296.9970299999999
 10
210.0
 20
148.5
 41
448.2833769461826
 11
0.0
 21
0.0
 31
1.0
 12
0.0
 22
0.0
 32
0.0
 42
50.0
 43
0.0
 44
0.0
 50
0.0
 71
     0
281
     0
 72
     0
  0
ENDTAB
  0
TABLE
  2
UCS
  5
7
330
0
100
AcDbSymbolTable
 70
     0
  0
ENDTAB
  0
TABLE
  2
APPID
  5
9
330
0
100
AcDbSymbolTable
 70
    42
  0
APPID
  5
12
330
9
100
AcDbSymbolTableRecord
100
AcDbRegAppTableRecord
  2
ACAD
 70
     0
  0
APPID
  5
2C
330
9
100
AcDbSymbolTableRecord
100
AcDbRegAppTableRecord
  2
MCAD_NO_VIS
 70
     0
  0
APPID
  5
2D
330
9
100
AcDbSymbolTableRecord
100
AcDbRegAppTableRecord
  2
ACAD_TEMP_GRAPHIC
 70
     0
  0
APPID
  5
B9
330
9
100
AcDbSymbolTableRecord
100
AcDbRegAppTableRecord
  2
GENIUS_GENDTOL_13
 70
     0
  0
APPID
  5
359
330
9
100
AcDbSymbolTableRecord
100
AcDbRegAppTableRecord
  2
GENIUS_GENREC_14
 70
     0
  0
APPID
  5
35A
330
9
100
AcDbSymbolTableRecord
100
AcDbRegAppTableRecord
  2
GENIUS_GENODEF_13
 70
     0
  0
APPID
  5
35B
330
9
100
AcDbSymbolTableRecord
100
AcDbRegAppTableRecord
  2
GENIUS_GENOBJ-N-REC_13
 70
     0
  0
APPID
  5
667
330
9
100
AcDbSymbolTableRecord
100
AcDbRegAppTableRecord
  2
GENIUS_GENCFG_13
 70
     0
  0
APPID
  5
668
330
9
100
AcDbSymbolTableRecord
100
AcDbRegAppTableRecord
  2
GENIUS_GENCFG0_13
 70
     0
  0
APPID
  5
669
330
9
100
AcDbSymbolTableRecord
100
AcDbRegAppTableRecord
  2
GENIUS_GENCFG1_13
 70
     0
  0
APPID
  5
66A
330
9
100
AcDbSymbolTableRecord
100
AcDbRegAppTableRecord
  2
GENIUS_GENCFG2_13
 70
     0
  0
APPID
  5
66B
330
9
100
AcDbSymbolTableRecord
100
AcDbRegAppTableRecord
  2
GENIUS_GENCFG3_13
 70
     0
  0
APPID
  5
66C
330
9
100
AcDbSymbolTableRecord
100
AcDbRegAppTableRecord
  2
GENIUS_GENCFG4_13
 70
     0
  0
APPID
  5
A76
330
9
100
AcDbSymbolTableRecord
100
AcDbRegAppTableRecord
  2
GENIUS_GENBLLY_14
 70
     0
  0
APPID
  5
A77
330
9
100
AcDbSymbolTableRecord
100
AcDbRegAppTableRecord
  2
GENIUS_GENOBJ-N-CEN_13
 70
     0
  0
APPID
  5
A83
330
9
100
AcDbSymbolTableRecord
100
AcDbRegAppTableRecord
  2
GENIUS_GENTRA_14
 70
     0
  0
APPID
  5
A8D
330
9
100
AcDbSymbolTableRecord
100
AcDbRegAppTableRecord
  2
GENIUS_GENOBJ-N-TIT_13
 70
     0
  0
APPID
  5
A8E
330
9
100
AcDbSymbolTableRecord
100
AcDbRegAppTableRecord
  2
GENIUS_GENTITLE_13
 70
     0
  0
APPID
  5
A8F
330
9
100
AcDbSymbolTableRecord
100
AcDbRegAppTableRecord
  2
GENIUS_GENOENT_13
 70
     0
  0
APPID
  5
A90
330
9
100
AcDbSymbolTableRecord
100
AcDbRegAppTableRecord
  2
GENIUS_GENOREF_13
 70
     0
  0
APPID
  5
A91
330
9
100
AcDbSymbolTableRecord
100
AcDbRegAppTableRecord
  2
GENIUS_GENOLIS_13
 70
     0
  0
APPID
  5
A92
330
9
100
AcDbSymbolTableRecord
100
AcDbRegAppTableRecord
  2
GENIUS_GENZVEED_13
 70
     0
  0
APPID
  5
A93
330
9
100
AcDbSymbolTableRecord
100
AcDbRegAppTableRecord
  2
GENIUS_GENSCREG_15
 70
     0
  0
APPID
  5
A94
330
9
100
AcDbSymbolTableRecord
100
AcDbRegAppTableRecord
  2
GENIUS_GENOBJ-N-SDF_13
 70
     0
  0
APPID
  5
12B5
330
9
100
AcDbSymbolTableRecord
100
AcDbRegAppTableRecord
  2
GENIUS_GENOBJ-N-RSBK_13
 70
     0
  0
APPID
  5
12B6
330
9
100
AcDbSymbolTableRecord
100
AcDbRegAppTableRecord
  2
GENIUS_GENOBJ-N-LIB_13
 70
     0
  0
APPID
  5
12B7
330
9
100
AcDbSymbolTableRecord
100
AcDbRegAppTableRecord
  2
GENIUS_GENSCALE_13
 70
     0
  0
APPID
  5
12B8
330
9
100
AcDbSymbolTableRecord
100
AcDbRegAppTableRecord
  2
GENIUS_GENOBJ-N-HTC_13
 70
     0
  0
APPID
  5
12B9
330
9
100
AcDbSymbolTableRecord
100
AcDbRegAppTableRecord
  2
GENIUS_GENHATCH_13
 70
     0
  0
APPID
  5
1C0A
330
9
100
AcDbSymbolTableRecord
100
AcDbRegAppTableRecord
  2
BASE_TYPE
 70
     0
  0
APPID
  5
276B
330
9
100
AcDbSymbolTableRecord
100
AcDbRegAppTableRecord
  2
GENIUS_GENOBJ-N-FIL_13
 70
     0
  0
APPID
  5
3640
330
9
100
AcDbSymbolTableRecord
100
AcDbRegAppTableRecord
  2
GENIUS_GENBH_13
 70
     0
  0
APPID
  5
36D1
330
9
100
AcDbSymbolTableRecord
100
AcDbRegAppTableRecord
  2
GENIUS_GENOBJ-F-SPR_13
 70
     0
  0
APPID
  5
36DA
330
9
100
AcDbSymbolTableRecord
100
AcDbRegAppTableRecord
  2
GENIUS_GEFSPRING_13
 70
     0
  0
APPID
  5
36DB
330
9
100
AcDbSymbolTableRecord
100
AcDbRegAppTableRecord
  2
GENIUS_GEFSPRINGP_13
 70
     0
  0
APPID
  5
4D67
330
9
100
AcDbSymbolTableRecord
100
AcDbRegAppTableRecord
  2
GENIUS_GENFIL_13
 70
     0
  0
APPID
  5
4D68
330
9
100
AcDbSymbolTableRecord
100
AcDbRegAppTableRecord
  2
GENIUS_GENOBJ-N-CHA_13
 70
     0
  0
APPID
  5
B6B9
330
9
100
AcDbSymbolTableRecord
100
AcDbRegAppTableRecord
  2
AD_DRAW
 70
     0
  0
APPID
  5
B6BC
330
9
100
AcDbSymbolTableRecord
100
AcDbRegAppTableRecord
  2
ACATTRIBSERVICES
 70
     0
  0
APPID
  5
B6DA
330
9
100
AcDbSymbolTableRecord
100
AcDbRegAppTableRecord
  2
DESIGNERASSEMBLIES
 70
     0
  0
APPID
  5
B6DF
330
9
100
AcDbSymbolTableRecord
100
AcDbRegAppTableRecord
  2
ACADM_DIM_EDIT
 70
     0
  0
APPID
  5
B6E0
330
9
100
AcDbSymbolTableRecord
100
AcDbRegAppTableRecord
  2
AMDT_DM_ADJ
 70
     0
  0
ENDTAB
  0
TABLE
  2
DIMSTYLE
  5
A
330
0
100
AcDbSymbolTable
 70
    11
100
AcDbDimStyleTable
 71
     0
  0
DIMSTYLE
105
58
330
A
100
AcDbSymbolTableRecord
100
AcDbDimStyleTableRecord
  2
AM_JIS
 70
     0
  4
"
 41
2.5
 42
0.0
 43
10.0
 44
1.0
 47
0.1
 48
0.1000000001
 73
     0
 74
     0
 77
     3
 78
     9
140
3.799999999999998
141
0.0
143
0.0393701
146
0.71
147
1.5
172
     1
176
   256
177
   256
178
     2
271
     2
272
     2
275
     1
283
     0
284
     8
340
11
341
59
342
59
  0
DIMSTYLE
105
65F
330
A
100
AcDbSymbolTableRecord
100
AcDbDimStyleTableRecord
  2
STANDARD
 70
     0
340
11
  0
DIMSTYLE
105
1761
102
{ACAD_REACTORS
330
B0B8
330
B130
330
B266
330
B284
330
B291
330
B37F
102
}
330
A
100
AcDbSymbolTableRecord
100
AcDbDimStyleTableRecord
  2
AM_JIS$0
 70
     0
  4
"
 41
2.5
 42
0.0
 43
10.0
 44
1.0
 47
0.1
 48
0.1000000001
 73
     0
 74
     0
 77
     3
 78
     9
140
3.799999999999998
141
0.0
143
0.0393701
146
0.71
147
1.5
172
     1
176
     3
177
     3
178
     2
271
     2
272
     2
275
     1
283
     0
284
     8
340
11
341
59
342
59
  0
DIMSTYLE
105
1762
102
{ACAD_REACTORS
330
B1BF
330
B29E
102
}
330
A
100
AcDbSymbolTableRecord
100
AcDbDimStyleTableRecord
  2
AM_JIS$2
 70
     0
  4
"
 41
2.5
 42
0.0
 43
10.0
 44
1.0
 47
0.1
 48
0.1000000001
 73
     0
 74
     0
 77
     3
 78
     9
140
3.799999999999998
141
0.0
143
0.0393701
146
0.71
147
1.5
172
     1
176
     3
177
     3
178
     2
271
     2
272
     2
275
     1
283
     0
284
     8
340
11
341
59
342
59
  0
DIMSTYLE
105
B702
330
A
100
AcDbSymbolTableRecord
100
AcDbDimStyleTableRecord
  2
AM_ISO
 70
     0
  4
"
 41
2.5
 42
1.0
 43
10.0
 44
1.0
 47
0.1
 48
0.1
 73
     0
 74
     0
 77
     1
 78
     8
 79
     2
140
3.5
141
0.0
143
0.0393701
146
0.71
147
1.5
172
     1
176
   256
177
   256
178
     2
271
     2
272
     3
274
     4
283
     0
284
     8
340
11
371
    -1
372
    -1
  0
DIMSTYLE
105
B703
330
A
100
AcDbSymbolTableRecord
100
AcDbDimStyleTableRecord
  2
AM_ISO$3
 70
     0
  4
"
 41
2.5
 42
1.0
 43
10.0
 44
1.0
 47
0.1
 48
0.1
 73
     0
 77
     1
 78
     8
 79
     2
140
3.5
141
0.0
143
0.0393701
146
0.71
147
1.5
176
   256
177
   256
178
     2
271
     2
272
     3
274
     4
283
     0
284
     8
288
     1
289
     0
340
11
371
    -1
372
    -1
  0
DIMSTYLE
105
B704
330
A
100
AcDbSymbolTableRecord
100
AcDbDimStyleTableRecord
  2
AM_ISO$4
 70
     0
  4
"
 41
2.5
 42
1.0
 43
10.0
 44
1.0
 47
0.1
 48
0.1
 73
     0
 77
     1
 78
     8
 79
     2
140
3.5
141
0.0
143
0.0393701
146
0.71
147
1.5
176
   256
177
   256
178
     2
271
     2
272
     3
274
     4
283
     0
284
     8
288
     1
289
     0
340
11
371
    -1
372
    -1
  0
DIMSTYLE
105
B705
330
A
100
AcDbSymbolTableRecord
100
AcDbDimStyleTableRecord
  2
AM_ISO$6
 70
     0
  4
"
 41
2.5
 42
1.0
 43
10.0
 44
1.0
 47
0.1
 48
0.1
 73
     0
 74
     0
 78
     8
 79
     2
140
3.5
141
0.0
143
0.0393701
146
0.71
147
1.5
172
     1
176
   256
177
   256
178
     2
271
     2
272
     3
274
     4
283
     0
284
     8
340
11
371
    -1
372
    -1
  0
DIMSTYLE
105
B706
330
A
100
AcDbSymbolTableRecord
100
AcDbDimStyleTableRecord
  2
AM_ISO$7
 70
     0
  4
"
 41
2.5
 42
1.0
 43
10.0
 44
1.0
 47
0.1
 48
0.1
 73
     0
 74
     0
 77
     1
 78
     8
 79
     2
140
5.0
141
0.0
143
0.0393701
146
0.71
147
1.5
172
     1
176
   256
177
   256
178
     2
271
     2
272
     3
274
     4
283
     0
284
     8
340
11
371
    -1
372
    -1
  0
DIMSTYLE
105
B707
330
A
100
AcDbSymbolTableRecord
100
AcDbDimStyleTableRecord
  2
AM_ISO$SF
 70
     0
  4
"
 41
2.5
 42
1.0
 43
10.0
 44
1.0
 47
0.1
 48
0.1
 73
     0
 74
     0
 75
     1
 76
     1
 77
     1
 78
     8
 79
     2
140
3.5
141
0.0
143
0.0393701
146
0.71
147
1.5
172
     1
176
   256
177
   256
178
     2
271
     2
272
     3
274
     4
283
     0
284
     8
340
11
371
    -1
372
    -1
  0
DIMSTYLE
105
B708
330
A
100
AcDbSymbolTableRecord
100
AcDbDimStyleTableRecord
  2
AM_ISO$SH
 70
     0
  4
"
 41
2.5
 42
1.0
 43
10.0
 44
1.0
 47
0.1
 48
0.1
 73
     0
 74
     0
 75
     1
 76
     1
 77
     1
 78
     8
 79
     2
140
3.5
141
0.0
143
0.0393701
144
2.0
146
0.71
147
1.5
172
     1
173
     1
176
   256
177
   256
178
     2
271
     2
272
     3
274
     4
283
     0
284
     8
340
11
343
64
371
    -1
372
    -1
  0
ENDTAB
  0
TABLE
  2
BLOCK_RECORD
  5
1
330
0
100
AcDbSymbolTable
 70
    12
  0
BLOCK_RECORD
  5
1F
102
{ACAD_XDICTIONARY
360
165
102
}
330
1
100
AcDbSymbolTableRecord
100
AcDbBlockTableRecord
  2
*MODEL_SPACE
340
B681
  0
BLOCK_RECORD
  5
1B
102
{ACAD_XDICTIONARY
360
B65A
102
}
330
1
100
AcDbSymbolTableRecord
100
AcDbBlockTableRecord
  2
*PAPER_SPACE
340
B682
  0
BLOCK_RECORD
  5
59
330
1
100
AcDbSymbolTableRecord
100
AcDbBlockTableRecord
  2
_OPEN30
340
0
102
{BLKREFS
331
B7E1
331
B7E2
331
B7EA
331
B7EB
331
B7F5
331
B7FF
331
B800
331
B808
331
B809
331
B811
331
B812
331
B81B
331
B81C
331
B828
331
B829
102
}
  0
BLOCK_RECORD
  5
64
330
1
100
AcDbSymbolTableRecord
100
AcDbBlockTableRecord
  2
GENAXEH
340
0
  0
BLOCK_RECORD
  5
80B7
330
1
100
AcDbSymbolTableRecord
100
AcDbBlockTableRecord
  2
_NONE
340
0
  0
BLOCK_RECORD
  5
B0B9
330
1
100
AcDbSymbolTableRecord
100
AcDbBlockTableRecord
  2
*D3
340
0
  0
BLOCK_RECORD
  5
B131
330
1
100
AcDbSymbolTableRecord
100
AcDbBlockTableRecord
  2
*D4
340
0
  0
BLOCK_RECORD
  5
B1C0
330
1
100
AcDbSymbolTableRecord
100
AcDbBlockTableRecord
  2
*D5
340
0
  0
BLOCK_RECORD
  5
B267
330
1
100
AcDbSymbolTableRecord
100
AcDbBlockTableRecord
  2
*D6
340
0
  0
BLOCK_RECORD
  5
B285
330
1
100
AcDbSymbolTableRecord
100
AcDbBlockTableRecord
  2
*D7
340
0
  0
BLOCK_RECORD
  5
B292
330
1
100
AcDbSymbolTableRecord
100
AcDbBlockTableRecord
  2
*D8
340
0
  0
BLOCK_RECORD
  5
B29F
330
1
100
AcDbSymbolTableRecord
100
AcDbBlockTableRecord
  2
*D9
340
0
  0
BLOCK_RECORD
  5
B380
330
1
100
AcDbSymbolTableRecord
100
AcDbBlockTableRecord
  2
*D10
340
0
  0
ENDTAB
  0
ENDSEC
  0
SECTION
  2
BLOCKS
  0
BLOCK
  5
20
330
1F
100
AcDbEntity
  8
0
100
AcDbBlockBegin
  2
*MODEL_SPACE
 70
     0
 10
0.0
 20
0.0
 30
0.0
  3
*MODEL_SPACE
  1

  0
ENDBLK
  5
21
330
1F
100
AcDbEntity
  8
0
100
AcDbBlockEnd
  0
BLOCK
  5
1C
330
1B
100
AcDbEntity
 67
     1
  8
0
100
AcDbBlockBegin
  2
*PAPER_SPACE
 70
     0
 10
0.0
 20
0.0
 30
0.0
  3
*PAPER_SPACE
  1

  0
ENDBLK
  5
1D
330
1B
100
AcDbEntity
 67
     1
  8
0
100
AcDbBlockEnd
  0
BLOCK
  5
5D
330
59
100
AcDbEntity
  8
0
100
AcDbBlockBegin
  2
_OPEN30
 70
     0
 10
0.0
 20
0.0
 30
0.0
  3
_OPEN30
  1

  0
LINE
  5
5A
330
59
100
AcDbEntity
  8
0
 62
     0
100
AcDbLine
 10
-1.0
 20
0.26794919
 30
0.0
 11
0.0
 21
0.0
 31
0.0
  0
LINE
  5
5B
330
59
100
AcDbEntity
  8
0
 62
     0
100
AcDbLine
 10
0.0
 20
0.0
 30
0.0
 11
-1.0
 21
-0.26794919
 31
0.0
  0
LINE
  5
5C
330
59
100
AcDbEntity
  8
0
 62
     0
100
AcDbLine
 10
0.0
 20
0.0
 30
0.0
 11
-1.0
 21
0.0
 31
0.0
  0
ENDBLK
  5
5E
330
59
100
AcDbEntity
  8
0
100
AcDbBlockEnd
  0
BLOCK
  5
66
330
64
100
AcDbEntity
  8
0
100
AcDbBlockBegin
  2
GENAXEH
 70
     0
 10
0.0
 20
0.0
 30
0.0
  3
GENAXEH
  1

  0
LINE
  5
65
330
64
100
AcDbEntity
  8
0
100
AcDbLine
 10
-1.0
 20
0.0
 30
0.0
 11
1.0
 21
0.0
 31
0.0
  0
ENDBLK
  5
67
330
64
100
AcDbEntity
  8
0
100
AcDbBlockEnd
  0
BLOCK
  5
80B8
330
80B7
100
AcDbEntity
  8
0
100
AcDbBlockBegin
  2
_NONE
 70
     0
 10
0.0
 20
0.0
 30
0.0
  3
_NONE
  1

  0
ENDBLK
  5
80B9
330
80B7
100
AcDbEntity
  8
0
100
AcDbBlockEnd
  0
BLOCK
  5
B0C3
330
B0B9
100
AcDbEntity
  8
0
100
AcDbBlockBegin
  2
*D3
 70
     1
 10
0.0
 20
0.0
 30
0.0
  3
*D3
  1

  0
LINE
  5
B7DE
330
B0B9
100
AcDbEntity
  8
AM_5
 62
     3
370
    -2
100
AcDbLine
 10
4.624687553954049
 20
-67.97857075358071
 30
0.0
 11
-24.41067236724368
 21
-67.97857075358071
 31
0.0
  0
LINE
  5
B7DF
330
B0B9
100
AcDbEntity
  8
AM_5
 62
     3
370
    -2
100
AcDbLine
 10
0.0034852827369805
 20
-47.97856957049896
 30
0.0
 11
-24.41067236724368
 21
-47.97856957049895
 31
0.0
  0
LINE
  5
B7E0
330
B0B9
100
AcDbEntity
  8
AM_5
 62
     3
370
    -2
100
AcDbLine
 10
-23.41067236724368
 20
-65.47857075358071
 30
0.0
 11
-23.41067236724368
 21
-50.47856957049895
 31
0.0
  0
INSERT
  5
B7E1
330
B0B9
100
AcDbEntity
  8
AM_5
 62
     3
370
    -2
100
AcDbBlockReference
  2
_OPEN30
 10
-23.41067236724368
 20
-67.97857075358071
 30
0.0
 41
2.5
 42
2.5
 43
2.5
 50
270.0
  0
INSERT
  5
B7E2
330
B0B9
100
AcDbEntity
  8
AM_5
 62
     3
370
    -2
100
AcDbBlockReference
  2
_OPEN30
 10
-23.41067236724368
 20
-47.97856957049895
 30
0.0
 41
2.5
 42
2.5
 43
2.5
 50
90.0
  0
MTEXT
  5
B7E3
330
B0B9
100
AcDbEntity
  8
AM_5
 62
     2
100
AcDbMText
 10
-26.81104638299171
 20
-57.97857016203984
 30
0.0
 40
3.799999999999998
 41
0.0
 71
     5
 72
     1
  1
20
 11
0.0000000000000001
 21
1.0
 31
0.0
 73
     1
 44
1.0
1001
ACAD
1000
MTEXTBEGIN
1070
    73
1070
     1
1070
    44
1040
1.0
1070
    74
1070
     0
1000
MTEXTEND
  0
POINT
  5
B7E4
330
B0B9
100
AcDbEntity
  8
DEFPOINTS
 62
     0
100
AcDbPoint
 10
4.624687553954049
 20
-67.97857075358071
 30
0.0
  0
POINT
  5
B7E5
330
B0B9
100
AcDbEntity
  8
DEFPOINTS
 62
     0
100
AcDbPoint
 10
0.0034852827369805
 20
-47.97856957049896
 30
0.0
  0
POINT
  5
B7E6
330
B0B9
100
AcDbEntity
  8
DEFPOINTS
 62
     0
100
AcDbPoint
 10
-23.41067236724368
 20
-47.97856957049895
 30
0.0
  0
ENDBLK
  5
B0C4
330
B0B9
100
AcDbEntity
  8
0
100
AcDbBlockEnd
  0
BLOCK
  5
B13B
330
B131
100
AcDbEntity
  8
0
100
AcDbBlockBegin
  2
*D4
 70
     1
 10
0.0
 20
0.0
 30
0.0
  3
*D4
  1

  0
LINE
  5
B7E7
330
B131
100
AcDbEntity
  8
AM_5
 62
     3
370
    -2
100
AcDbLine
 10
125.0034856255873
 20
-47.97857075358073
 30
0.0
 11
125.0034856255873
 21
-21.93873758880686
 31
0.0
  0
LINE
  5
B7E8
330
B131
100
AcDbEntity
  8
AM_5
 62
     3
370
    -2
100
AcDbLine
 10
0.0034852827369805
 20
-47.97856957049896
 30
0.0
 11
0.0034852827369821
 21
-21.93873758880686
 31
0.0
  0
LINE
  5
B7E9
330
B131
100
AcDbEntity
  8
AM_5
 62
     3
370
    -2
100
AcDbLine
 10
122.5034856255873
 20
-22.93873758880686
 30
0.0
 11
2.503485282736982
 21
-22.93873758880686
 31
0.0
  0
INSERT
  5
B7EA
330
B131
100
AcDbEntity
  8
AM_5
 62
     3
370
    -2
100
AcDbBlockReference
  2
_OPEN30
 10
125.0034856255873
 20
-22.93873758880686
 30
0.0
 41
2.5
 42
2.5
 43
2.5
  0
INSERT
  5
B7EB
330
B131
100
AcDbEntity
  8
AM_5
 62
     3
370
    -2
100
AcDbBlockReference
  2
_OPEN30
 10
0.003485282736982
 20
-22.93873758880686
 30
0.0
 41
2.5
 42
2.5
 43
2.5
 50
180.0
  0
MTEXT
  5
B7EC
330
B131
100
AcDbEntity
  8
AM_5
 62
     2
100
AcDbMText
 10
62.50348545416221
 20
-19.53836357305883
 30
0.0
 40
3.799999999999998
 41
0.0
 71
     5
 72
     1
  1
125
 73
     1
 44
1.0
1001
ACAD
1000
MTEXTBEGIN
1070
    73
1070
     1
1070
    44
1040
1.0
1070
    74
1070
     0
1000
MTEXTEND
  0
POINT
  5
B7ED
330
B131
100
AcDbEntity
  8
DEFPOINTS
 62
     0
100
AcDbPoint
 10
125.0034856255873
 20
-47.97857075358073
 30
0.0
  0
POINT
  5
B7EE
330
B131
100
AcDbEntity
  8
DEFPOINTS
 62
     0
100
AcDbPoint
 10
0.0034852827369805
 20
-47.97856957049896
 30
0.0
  0
POINT
  5
B7EF
330
B131
100
AcDbEntity
  8
DEFPOINTS
 62
     0
100
AcDbPoint
 10
0.003485282736982
 20
-22.93873758880686
 30
0.0
  0
ENDBLK
  5
B13C
330
B131
100
AcDbEntity
  8
0
100
AcDbBlockEnd
  0
BLOCK
  5
B1CF
330
B1C0
100
AcDbEntity
  8
0
100
AcDbBlockBegin
  2
*D5
 70
     1
 10
0.0
 20
0.0
 30
0.0
  3
*D5
  1

  0
LINE
  5
B7F0
330
B1C0
100
AcDbEntity
  8
AM_5
 62
     3
370
    -2
100
AcDbLine
 10
0.00348528273698
 20
-47.97856957049895
 30
0.0
 11
-24.03976645422638
 21
-43.73909558530711
 31
0.0
  0
LINE
  5
B7F1
330
B1C0
100
AcDbEntity
  8
AM_5
 62
     3
370
    -2
100
AcDbLine
 10
-12.92489607981457
 20
-47.97856957049896
 30
0.0
 11
-24.41067236724369
 21
-47.97856957049894
 31
0.0
  0
ARC
  5
B7F2
330
B1C0
100
AcDbEntity
  8
AM_5
 62
     3
370
    -2
100
AcDbCircle
 10
0.00348528273698
 20
-47.97856957049895
 30
0.0
 40
23.41415764998068
100
AcDbArc
 50
163.8794476439202
 51
170.0000000000011
  0
LINE
  5
B7F3
330
B1C0
100
AcDbEntity
  8
AM_5
 62
     3
370
    -2
100
AcDbLine
 10
-22.49001874048026
 20
-41.47741158013613
 30
0.0
 11
-19.28305413764508
 21
-30.38156199408992
 31
0.0
  0
ARC
  5
B7F4
330
B1C0
100
AcDbEntity
  8
AM_5
 62
     3
370
    -2
100
AcDbCircle
 10
0.00348528273698
 20
-47.97856957049895
 30
0.0
 40
23.41415764998068
100
AcDbArc
 50
176.1205523560819
 51
180.0
  0
INSERT
  5
B7F5
330
B1C0
100
AcDbEntity
  8
AM_5
 62
     3
370
    -2
100
AcDbBlockReference
  2
_OPEN30
 10
-23.05495870121417
 20
-43.91274376297402
 30
0.0
 41
2.5
 42
2.5
 43
2.5
 50
83.06027617804152
  0
MTEXT
  5
B7F6
330
B1C0
100
AcDbEntity
  8
AM_5
 62
     2
100
AcDbMText
 10
-24.15284713971697
 20
-34.98544525900571
 30
0.0
 40
3.799999999999998
 41
0.0
 71
     5
 72
     1
  1
10°
 11
0.2776592729727428
 21
0.9606796178395001
 31
0.0
 73
     1
 44
1.0
1001
ACAD
1000
MTEXTBEGIN
1070
    73
1070
     1
1070
    44
1040
1.0
1070
    74
1070
     0
1000
MTEXTEND
  0
POINT
  5
B7F7
330
B1C0
100
AcDbEntity
  8
DEFPOINTS
 62
     0
100
AcDbPoint
 10
-23.37105931828836
 20
-46.61715737985805
 30
0.0
  0
POINT
  5
B7F8
330
B1C0
100
AcDbEntity
  8
DEFPOINTS
 62
     0
100
AcDbPoint
 10
0.00348528273698
 20
-47.97856957049895
 30
0.0
  0
POINT
  5
B7F9
330
B1C0
100
AcDbEntity
  8
DEFPOINTS
 62
     0
100
AcDbPoint
 10
0.00348528273698
 20
-47.97856957049895
 30
0.0
  0
POINT
  5
B7FA
330
B1C0
100
AcDbEntity
  8
DEFPOINTS
 62
     0
100
AcDbPoint
 10
0.5171818141401641
 20
-48.06914812888169
 30
0.0
  0
POINT
  5
B7FB
330
B1C0
100
AcDbEntity
  8
DEFPOINTS
 62
     0
100
AcDbPoint
 10
-12.92489607981457
 20
-47.97856957049896
 30
0.0
  0
ENDBLK
  5
B1D0
330
B1C0
100
AcDbEntity
  8
0
100
AcDbBlockEnd
  0
BLOCK
  5
B271
330
B267
100
AcDbEntity
  8
0
100
AcDbBlockBegin
  2
*D6
 70
     1
 10
0.0
 20
0.0
 30
0.0
  3
*D6
  1

  0
LINE
  5
B7FC
330
B267
100
AcDbEntity
  8
AM_5
 62
     3
370
    -2
100
AcDbLine
 10
0.0999319874208996
 20
0.0
 30
0.0
 11
-25.03958958837876
 21
0.0000000000000071
 31
0.0
  0
LINE
  5
B7FD
330
B267
100
AcDbEntity
  8
AM_5
 62
     3
370
    -2
100
AcDbLine
 10
10.40903912505259
 20
24.99643184767452
 30
0.0
 11
-25.03958958837876
 21
24.99643184767454
 31
0.0
  0
LINE
  5
B7FE
330
B267
100
AcDbEntity
  8
AM_5
 62
     3
370
    -2
100
AcDbLine
 10
-24.03958958837876
 20
2.500000000000006
 30
0.0
 11
-24.03958958837876
 21
22.49643184767454
 31
0.0
  0
INSERT
  5
B7FF
330
B267
100
AcDbEntity
  8
AM_5
 62
     3
370
    -2
100
AcDbBlockReference
  2
_OPEN30
 10
-24.03958958837876
 20
0.0000000000000068
 30
0.0
 41
2.5
 42
2.5
 43
2.5
 50
270.0
  0
INSERT
  5
B800
330
B267
100
AcDbEntity
  8
AM_5
 62
     3
370
    -2
100
AcDbBlockReference
  2
_OPEN30
 10
-24.03958958837876
 20
24.99643184767454
 30
0.0
 41
2.5
 42
2.5
 43
2.5
 50
90.0
  0
MTEXT
  5
B801
330
B267
100
AcDbEntity
  8
AM_5
 62
     2
100
AcDbMText
 10
-27.43996360412679
 20
12.49821592383727
 30
0.0
 40
3.799999999999998
 41
0.0
 71
     5
 72
     1
  1
25
 11
0.0000000000000001
 21
1.0
 31
0.0
 73
     1
 44
1.0
1001
ACAD
1000
MTEXTBEGIN
1070
    73
1070
     1
1070
    44
1040
1.0
1070
    74
1070
     0
1000
MTEXTEND
  0
POINT
  5
B802
330
B267
100
AcDbEntity
  8
DEFPOINTS
 62
     0
100
AcDbPoint
 10
0.0999319874208996
 20
0.0
 30
0.0
  0
POINT
  5
B803
330
B267
100
AcDbEntity
  8
DEFPOINTS
 62
     0
100
AcDbPoint
 10
10.40903912505259
 20
24.99643184767452
 30
0.0
  0
POINT
  5
B804
330
B267
100
AcDbEntity
  8
DEFPOINTS
 62
     0
100
AcDbPoint
 10
-24.03958958837876
 20
24.99643184767454
 30
0.0
  0
ENDBLK
  5
B272
330
B267
100
AcDbEntity
  8
0
100
AcDbBlockEnd
  0
BLOCK
  5
B28F
330
B285
100
AcDbEntity
  8
0
100
AcDbBlockBegin
  2
*D7
 70
     1
 10
0.0
 20
0.0
 30
0.0
  3
*D7
  1

  0
LINE
  5
B805
330
B285
100
AcDbEntity
  8
AM_5
 62
     3
370
    -2
100
AcDbLine
 10
125.0034856255873
 20
-67.97857075358075
 30
0.0
 11
141.8005771729186
 21
-67.97857075358075
 31
0.0
  0
LINE
  5
B806
330
B285
100
AcDbEntity
  8
AM_5
 62
     3
370
    -2
100
AcDbLine
 10
125.0034856255873
 20
-47.97857075358073
 30
0.0
 11
141.8005771729186
 21
-47.97857075358073
 31
0.0
  0
LINE
  5
B807
330
B285
100
AcDbEntity
  8
AM_5
 62
     3
370
    -2
100
AcDbLine
 10
140.8005771729186
 20
-65.47857075358075
 30
0.0
 11
140.8005771729186
 21
-50.47857075358074
 31
0.0
  0
INSERT
  5
B808
330
B285
100
AcDbEntity
  8
AM_5
 62
     3
370
    -2
100
AcDbBlockReference
  2
_OPEN30
 10
140.8005771729186
 20
-67.97857075358075
 30
0.0
 41
2.5
 42
2.5
 43
2.5
 50
270.0
  0
INSERT
  5
B809
330
B285
100
AcDbEntity
  8
AM_5
 62
     3
370
    -2
100
AcDbBlockReference
  2
_OPEN30
 10
140.8005771729186
 20
-47.97857075358073
 30
0.0
 41
2.5
 42
2.5
 43
2.5
 50
90.0
  0
MTEXT
  5
B80A
330
B285
100
AcDbEntity
  8
AM_5
 62
     2
100
AcDbMText
 10
137.4002031571706
 20
-57.97857075358072
 30
0.0
 40
3.799999999999998
 41
0.0
 71
     5
 72
     1
  1
20
 11
0.0000000000000001
 21
1.0
 31
0.0
 73
     1
 44
1.0
1001
ACAD
1000
MTEXTBEGIN
1070
    73
1070
     1
1070
    44
1040
1.0
1070
    74
1070
     0
1000
MTEXTEND
  0
POINT
  5
B80B
330
B285
100
AcDbEntity
  8
DEFPOINTS
 62
     0
100
AcDbPoint
 10
125.0034856255873
 20
-67.97857075358075
 30
0.0
  0
POINT
  5
B80C
330
B285
100
AcDbEntity
  8
DEFPOINTS
 62
     0
100
AcDbPoint
 10
125.0034856255873
 20
-47.97857075358073
 30
0.0
  0
POINT
  5
B80D
330
B285
100
AcDbEntity
  8
DEFPOINTS
 62
     0
100
AcDbPoint
 10
140.8005771729186
 20
-47.97857075358073
 30
0.0
  0
ENDBLK
  5
B290
330
B285
100
AcDbEntity
  8
0
100
AcDbBlockEnd
  0
BLOCK
  5
B29C
330
B292
100
AcDbEntity
  8
0
100
AcDbBlockBegin
  2
*D8
 70
     1
 10
0.0
 20
0.0
 30
0.0
  3
*D8
  1

  0
LINE
  5
B80E
330
B292
100
AcDbEntity
  8
AM_5
 62
     3
370
    -2
100
AcDbLine
 10
125.0034856255873
 20
4.996431847674513
 30
0.0
 11
139.8881913152743
 21
4.996431847674508
 31
0.0
  0
LINE
  5
B80F
330
B292
100
AcDbEntity
  8
AM_5
 62
     3
370
    -2
100
AcDbLine
 10
125.0034856255873
 20
24.99643184767452
 30
0.0
 11
139.8881913152743
 21
24.99643184767451
 31
0.0
  0
LINE
  5
B810
330
B292
100
AcDbEntity
  8
AM_5
 62
     3
370
    -2
100
AcDbLine
 10
138.8881913152743
 20
7.496431847674508
 30
0.0
 11
138.8881913152743
 21
22.49643184767451
 31
0.0
  0
INSERT
  5
B811
330
B292
100
AcDbEntity
  8
AM_5
 62
     3
370
    -2
100
AcDbBlockReference
  2
_OPEN30
 10
138.8881913152743
 20
4.996431847674508
 30
0.0
 41
2.5
 42
2.5
 43
2.5
 50
270.0
  0
INSERT
  5
B812
330
B292
100
AcDbEntity
  8
AM_5
 62
     3
370
    -2
100
AcDbBlockReference
  2
_OPEN30
 10
138.8881913152743
 20
24.99643184767451
 30
0.0
 41
2.5
 42
2.5
 43
2.5
 50
90.0
  0
MTEXT
  5
B813
330
B292
100
AcDbEntity
  8
AM_5
 62
     2
100
AcDbMText
 10
135.4878172995263
 20
14.99643184767453
 30
0.0
 40
3.799999999999998
 41
0.0
 71
     5
 72
     1
  1
20
 11
0.0000000000000001
 21
1.0
 31
0.0
 73
     1
 44
1.0
1001
ACAD
1000
MTEXTBEGIN
1070
    73
1070
     1
1070
    44
1040
1.0
1070
    74
1070
     0
1000
MTEXTEND
  0
POINT
  5
B814
330
B292
100
AcDbEntity
  8
DEFPOINTS
 62
     0
100
AcDbPoint
 10
125.0034856255873
 20
4.996431847674513
 30
0.0
  0
POINT
  5
B815
330
B292
100
AcDbEntity
  8
DEFPOINTS
 62
     0
100
AcDbPoint
 10
125.0034856255873
 20
24.99643184767452
 30
0.0
  0
POINT
  5
B816
330
B292
100
AcDbEntity
  8
DEFPOINTS
 62
     0
100
AcDbPoint
 10
138.8881913152743
 20
24.99643184767451
 30
0.0
  0
ENDBLK
  5
B29D
330
B292
100
AcDbEntity
  8
0
100
AcDbBlockEnd
  0
BLOCK
  5
B2AE
330
B29F
100
AcDbEntity
  8
0
100
AcDbBlockBegin
  2
*D9
 70
     1
 10
0.0
 20
0.0
 30
0.0
  3
*D9
  1

  0
LINE
  5
B817
330
B29F
100
AcDbEntity
  8
AM_5
 62
     3
370
    -2
100
AcDbLine
 10
13.93359886603158
 20
0.4830213378636739
 30
0.0
 11
38.96083598476879
 21
1.356991716302316
 31
0.0
  0
ARC
  5
B818
330
B29F
100
AcDbEntity
  8
AM_5
 62
     3
370
    -2
100
AcDbCircle
 10
143.1807653947553
 20
4.996431847674513
 30
0.0
 40
105.2834560737819
100
AcDbArc
 50
177.2789112451266
 51
178.6394556225633
  0
ARC
  5
B819
330
B29F
100
AcDbEntity
  8
AM_5
 62
     3
370
    -2
100
AcDbCircle
 10
143.1807653947553
 20
4.996431847674513
 30
0.0
 40
105.2834560737819
100
AcDbArc
 50
183.3605443774366
 51
184.7210887548733
  0
ARC
  5
B81A
330
B29F
100
AcDbEntity
  8
AM_5
 62
     3
370
    -2
100
AcDbCircle
 10
143.1807653947553
 20
4.996431847674513
 30
0.0
 40
105.2834560737819
100
AcDbArc
 50
180.0
 51
181.9999999999999
  0
INSERT
  5
B81B
330
B29F
100
AcDbEntity
  8
AM_5
 62
     3
370
    -2
100
AcDbBlockReference
  2
_OPEN30
 10
37.89730932097334
 20
4.996431847674542
 30
0.0
 41
2.5
 42
2.5
 43
2.5
 50
269.3197278112817
  0
INSERT
  5
B81C
330
B29F
100
AcDbEntity
  8
AM_5
 62
     3
370
    -2
100
AcDbBlockReference
  2
_OPEN30
 10
37.9614451577497
 20
1.322092219599819
 30
0.0
 41
2.5
 42
2.5
 43
2.5
 50
92.68027218871827
  0
MTEXT
  5
B81D
330
B29F
100
AcDbEntity
  8
AM_5
 62
     2
100
AcDbMText
 10
49.52518757932086
 20
-2.375068542417086
 30
0.0
 40
3.799999999999998
 41
0.0
 71
     5
 72
     1
  1
2°
 73
     1
 44
1.0
1001
ACAD
1000
MTEXTBEGIN
1070
    73
1070
     1
1070
    44
1040
1.0
1070
    74
1070
     0
1000
MTEXTEND
  0
POINT
  5
B81E
330
B29F
100
AcDbEntity
  8
DEFPOINTS
 62
     0
100
AcDbPoint
 10
37.90443616828578
 20
3.771430851766395
 30
0.0
  0
POINT
  5
B81F
330
B29F
100
AcDbEntity
  8
DEFPOINTS
 62
     0
100
AcDbPoint
 10
13.93359886603158
 20
0.4830213378636739
 30
0.0
  0
POINT
  5
B820
330
B29F
100
AcDbEntity
  8
DEFPOINTS
 62
     0
100
AcDbPoint
 10
125.0034856255873
 20
4.996431847674513
 30
0.0
  0
POINT
  5
B821
330
B29F
100
AcDbEntity
  8
DEFPOINTS
 62
     0
100
AcDbPoint
 10
24.00348562558745
 20
4.996431847674525
 30
0.0
  0
POINT
  5
B822
330
B29F
100
AcDbEntity
  8
DEFPOINTS
 62
     0
100
AcDbPoint
 10
0.0034828543891738
 20
-0.0034290323721678
 30
0.0
  0
ENDBLK
  5
B2AF
330
B29F
100
AcDbEntity
  8
0
100
AcDbBlockEnd
  0
BLOCK
  5
B38C
330
B380
100
AcDbEntity
  8
0
100
AcDbBlockBegin
  2
*D10
 70
     1
 10
0.0
 20
0.0
 30
0.0
  3
*D10
  1

  0
LINE
  5
B823
330
B380
100
AcDbEntity
  8
AM_5
 62
     3
370
    -2
100
AcDbLine
 10
0.1034219370911247
 20
0.0000609172980716
 30
0.0
 11
-14.44879566646078
 21
-0.5081137192292774
 31
0.0
  0
LINE
  5
B824
330
B380
100
AcDbEntity
  8
AM_5
 62
     3
370
    -2
100
AcDbLine
 10
0.0161731953348304
 20
2.498537984845827
 30
0.0
 11
-14.53604440821702
 21
1.99036334831848
 31
0.0
  0
LINE
  5
B825
330
B380
100
AcDbEntity
  8
AM_5
 62
     3
370
    -2
100
AcDbLine
 10
-13.36215609768544
 20
-2.971691290074519
 30
0.0
 11
-13.27490735592919
 21
-5.470168357622258
 31
0.0
  0
LINE
  5
B826
330
B380
100
AcDbEntity
  8
AM_5
 62
     3
370
    -2
100
AcDbLine
 10
-13.62390232295417
 20
4.523739912568718
 30
0.0
 11
-14.01037576235198
 21
15.5908912102849
 31
0.0
  0
LINE
  5
B827
330
B380
100
AcDbEntity
  8
AM_5
 62
     3
370
    -2
100
AcDbLine
 10
-13.44940483944168
 20
-0.4732142225267792
 30
0.0
 11
-13.53665358119793
 21
2.025262845020978
 31
0.0
  0
INSERT
  5
B828
330
B380
100
AcDbEntity
  8
AM_5
 62
     3
370
    -2
100
AcDbBlockReference
  2
_OPEN30
 10
-13.44940483944168
 20
-0.4732142225267792
 30
0.0
 41
2.5
 42
2.5
 43
2.5
 50
91.99999999999985
  0
INSERT
  5
B829
330
B380
100
AcDbEntity
  8
AM_5
 62
     3
370
    -2
100
AcDbBlockReference
  2
_OPEN30
 10
-13.53665358119793
 20
2.025262845020978
 30
0.0
 41
2.5
 42
2.5
 43
2.5
 50
271.9999999999998
  0
MTEXT
  5
B82A
330
B380
100
AcDbEntity
  8
AM_5
 62
     2
100
AcDbMText
 10
-17.25906601330387
 20
11.18788275345082
 30
0.0
 40
3.799999999999998
 41
0.0
 71
     5
 72
     1
  1
2.5
 11
-0.0348994967024981
 21
0.9993908270190958
 31
0.0
 73
     1
 44
1.0
1001
ACAD
1000
MTEXTBEGIN
1070
    73
1070
     1
1070
    44
1040
1.0
1070
    74
1070
     0
1000
MTEXTEND
  0
POINT
  5
B82B
330
B380
100
AcDbEntity
  8
DEFPOINTS
 62
     0
100
AcDbPoint
 10
0.1034219370911247
 20
0.0000609172980716
 30
0.0
  0
POINT
  5
B82C
330
B380
100
AcDbEntity
  8
DEFPOINTS
 62
     0
100
AcDbPoint
 10
0.0161731953348312
 20
2.498537984845827
 30
0.0
  0
POINT
  5
B82D
330
B380
100
AcDbEntity
  8
DEFPOINTS
 62
     0
100
AcDbPoint
 10
-13.53665358119793
 20
2.025262845020982
 30
0.0
  0
ENDBLK
  5
B38D
330
B380
100
AcDbEntity
  8
0
100
AcDbBlockEnd
  0
ENDSEC
  0
SECTION
  2
ENTITIES
  0
TEXT
  5
83BD
330
1F
100
AcDbEntity
  8
AM_6
100
AcDbText
 10
43.67316261579796
 20
-80.29252745580022
 30
0.0
 40
5.0
  1
GCR2020-C
 72
     4
 11
59.79372087755638
 21
-77.79252745580021
 31
0.0
100
AcDbText
  0
LINE
  5
B087
330
1F
100
AcDbEntity
  8
AM_0
100
AcDbLine
 10
125.0034856255873
 20
24.99643184767452
 30
0.0
 11
11.2769883174837
 21
24.99643184767452
 31
0.0
  0
LINE
  5
B08A
330
1F
100
AcDbEntity
  8
AM_0
100
AcDbLine
 10
125.0034856255873
 20
4.996431847674513
 30
0.0
 11
24.00348562558745
 21
4.996431847674525
 31
0.0
  0
LINE
  5
B08B
330
1F
100
AcDbEntity
  8
AM_0
100
AcDbLine
 10
125.0034856255873
 20
24.99643184767452
 30
0.0
 11
125.0034856255873
 21
4.996431847674513
 31
0.0
  0
LINE
  5
B08D
330
1F
100
AcDbEntity
  8
AM_0
100
AcDbLine
 10
22.92341223823074
 20
0.9655430901563571
 30
0.0
 11
19.41604256238704
 21
0.8430630421838724
 31
0.0
  0
LINE
  5
B08E
330
1F
100
AcDbEntity
  8
AM_0
100
AcDbLine
 10
24.00348562558745
 20
24.99643184767452
 30
0.0
 11
24.00348562558745
 21
4.996431847674525
 31
0.0
  0
LINE
  5
B08F
330
1F
100
AcDbEntity
  8
AM_0
100
AcDbLine
 10
11.2769883174837
 20
24.99643184767452
 30
0.0
 11
5.503485625587443
 21
14.99643184767453
 31
0.0
  0
LINE
  5
B091
330
1F
100
AcDbEntity
  8
AM_0
100
AcDbLine
 10
22.92341223823074
 20
0.9655430901563569
 30
0.0
 11
24.00348562558745
 21
4.996431847674497
 31
0.0
  0
LINE
  5
B092
330
1F
100
AcDbEntity
  8
AM_0
100
AcDbLine
 10
125.0034856255873
 20
-47.97857075358073
 30
0.0
 11
24.00348562558744
 21
-47.97857075358071
 31
0.0
  0
LINE
  5
B093
330
1F
100
AcDbEntity
  8
AM_0
100
AcDbLine
 10
125.0034856255873
 20
-67.97857075358075
 30
0.0
 11
4.503485625587432
 21
-67.97857075358071
 31
0.0
  0
LINE
  5
B094
330
1F
100
AcDbEntity
  8
AM_0
100
AcDbLine
 10
125.0034856255873
 20
-47.97857075358073
 30
0.0
 11
125.0034856255873
 21
-67.97857075358075
 31
0.0
  0
LINE
  5
B096
330
1F
100
AcDbEntity
  8
AM_0
100
AcDbLine
 10
24.00348562558744
 20
-67.97857075358071
 30
0.0
 11
24.00348562558744
 21
-47.97857075358071
 31
0.0
  0
LINE
  5
B098
330
1F
100
AcDbEntity
  8
AM_0
100
AcDbLine
 10
23.38166634853498
 20
-45.65790961849514
 30
0.0
 11
24.00348562558744
 21
-47.97857075358071
 31
0.0
  0
LINE
  5
B099
330
1F
100
AcDbEntity
  8
AM_0
100
AcDbLine
 10
0.5034856255874178
 20
-63.97857075358071
 30
0.0
 11
0.5034856255873649
 21
-50.4708826163218
 31
0.0
  0
DIMENSION
  5
B0B8
330
1F
100
AcDbEntity
  8
AM_5
100
AcDbDimension
  2
*D3
 10
-23.41067236724368
 20
-47.97856957049895
 30
0.0
 11
-26.81104638299171
 21
-57.97857016203984
 31
0.0
 70
    32
 71
     5
 42
20.00000118308175
  3
AM_JIS$0
100
AcDbAlignedDimension
 13
4.624687553954049
 23
-67.97857075358071
 33
0.0
 14
0.0034852827369805
 24
-47.97856957049896
 34
0.0
 50
89.99999999999998
100
AcDbRotatedDimension
1001
ACAD
1000
DSTYLE
1002
{
1070
   271
1070
     5
1002
}
  0
LINE
  5
B0C5
330
1F
100
AcDbEntity
  8
AM_0
100
AcDbLine
 10
17.88253305868227
 20
-46.13902144057528
 30
0.0
 11
23.38166634853498
 21
-45.65790961849514
 31
0.0
  0
DIMENSION
  5
B130
330
1F
100
AcDbEntity
  8
AM_5
100
AcDbDimension
  2
*D4
 10
0.003485282736982
 20
-22.93873758880686
 30
0.0
 11
62.50348545416221
 21
-22.93873758880686
 31
0.0
 70
   160
 71
     5
 42
125.0000003428503
  3
AM_JIS$0
100
AcDbAlignedDimension
 13
125.0034856255873
 23
-47.97857075358073
 33
0.0
 14
0.0034852827369805
 24
-47.97856957049896
 34
0.0
100
AcDbRotatedDimension
1001
ACAD
1000
DSTYLE
1002
{
1070
   271
1070
     5
1002
}
  0
LINE
  5
B18A
330
1F
100
AcDbEntity
  8
AM_0
100
AcDbLine
 10
-0.0000070952810088
 20
0.0965100503297265
 30
0.0
 11
-0.0802759376969657
 21
2.395108952473654
 31
0.0
  0
LINE
  5
B18B
330
1F
100
AcDbEntity
  8
AM_5
100
AcDbLine
 10
125.0034856255873
 20
4.996431847674513
 30
0.0
 11
125.0034856255873
 21
-47.97857075358073
 31
0.0
  0
LINE
  5
B18D
330
1F
100
AcDbEntity
  8
AM_0
100
AcDbLine
 10
19.42192270358531
 20
0.6746778294909465
 30
0.0
 11
0.1034219370911531
 21
0.0000609172980716
 31
0.0
  0
LINE
  5
B192
330
1F
100
AcDbEntity
  8
AM_0
100
AcDbLine
 10
19.42192270358531
 20
0.674677829490887
 30
0.0
 11
19.33467396182883
 21
3.173154897038657
 31
0.0
  0
LINE
  5
B193
330
1F
100
AcDbEntity
  8
AM_0
100
AcDbLine
 10
20.34822252986605
 20
0.8756154839530312
 30
0.0
 11
20.18798106676042
 21
5.464330607870995
 31
0.0
  0
LINE
  5
B19A
330
1F
100
AcDbEntity
  8
AM_7
100
AcDbLine
 10
15.00348562558744
 20
23.60809548216645
 30
0.0
 11
15.00348562558744
 21
7.129716379020983
 31
0.0
  0
CIRCLE
  5
B19E
330
1F
100
AcDbEntity
  8
AM_0
100
AcDbCircle
 10
15.00348562558744
 20
13.78643184767452
 30
0.0
 40
4.5
  0
LINE
  5
B19F
330
1F
100
AcDbEntity
  8
AM_7
100
AcDbLine
 10
8.357445222558702
 20
13.78643184767452
 30
0.0
 11
22.58975619746824
 21
13.78643184767452
 31
0.0
  0
LINE
  5
B1AF
330
1F
100
AcDbEntity
  8
AM_7
100
AcDbLine
 10
18.67970299105403
 20
21.67010542921503
 30
0.0
 11
8.923222751863955
 21
0.7472660364572644
 31
0.0
  0
LWPOLYLINE
  5
B1B7
330
1F
100
AcDbEntity
  8
AM_0
100
AcDbPolyline
 90
        6
 70
     1
 43
0.0
 10
14.13746022180297
 20
15.28643184767452
 10
13.27143481801855
 20
13.78643184767452
 10
14.13746022180297
 20
12.28643184767452
 10
15.86951102937188
 20
12.28643184767452
 10
16.7355364331563
 20
13.78643184767452
 10
15.86951102937188
 20
15.28643184767452
  0
DIMENSION
  5
B1BF
330
1F
100
AcDbEntity
  8
AM_5
100
AcDbDimension
  2
*D5
 10
-12.92489607981457
 20
-47.97856957049896
 30
0.0
 11
-24.15284713971697
 21
-34.9854452590057
 31
0.0
 70
    34
  1
<>
 71
     5
 42
0.1745329251994141
  3
AM_JIS$2
100
AcDb2LineAngularDimension
 13
0.0034852827369805
 23
-47.97856957049896
 33
0.0
 14
0.5171818141401648
 24
-48.06914812888169
 34
0.0
 15
0.0034852827369805
 25
-47.97856957049896
 35
0.0
 16
-23.37105931828836
 26
-46.61715737985805
 36
0.0
1001
ACAD
1000
DSTYLE
1002
{
1070
   271
1070
     0
1070
   281
1070
     0
1070
    76
1070
     0
1070
   282
1070
     1
1070
     7
1000
NONE
1070
     5
1000

1070
   173
1070
     1
1070
     6
1000
OPEN30
1002
}
  0
DIMENSION
  5
B266
330
1F
100
AcDbEntity
  8
AM_5
100
AcDbDimension
  2
*D6
 10
-24.03958958837876
 20
24.99643184767454
 30
0.0
 11
-27.43996360412679
 21
12.49821592383727
 31
0.0
 70
    32
 71
     5
 42
24.99643184767453
  3
AM_JIS$0
100
AcDbAlignedDimension
 13
0.0999319874208996
 23
0.0
 33
0.0
 14
10.40903912505259
 24
24.99643184767452
 34
0.0
 50
89.99999999999998
100
AcDbRotatedDimension
  0
LINE
  5
B283
330
1F
100
AcDbEntity
  8
AM_5
100
AcDbLine
 10
-0.0000070105541309
 20
0.096507624913329
 30
0.0
 11
0.0034852827369805
 21
-47.97856957049896
 31
0.0
  0
DIMENSION
  5
B284
330
1F
100
AcDbEntity
  8
AM_5
100
AcDbDimension
  2
*D7
 10
140.8005771729186
 20
-47.97857075358073
 30
0.0
 11
137.4002031571706
 21
-57.97857075358072
 31
0.0
 70
    32
 71
     5
 42
20.00000000000002
  3
AM_JIS$0
100
AcDbAlignedDimension
 13
125.0034856255873
 23
-67.97857075358075
 33
0.0
 14
125.0034856255873
 24
-47.97857075358073
 34
0.0
 50
89.99999999999998
100
AcDbRotatedDimension
  0
DIMENSION
  5
B291
330
1F
100
AcDbEntity
  8
AM_5
100
AcDbDimension
  2
*D8
 10
138.8881913152743
 20
24.99643184767451
 30
0.0
 11
135.4878172995263
 21
14.99643184767453
 31
0.0
 70
    32
 71
     5
 42
20.0
  3
AM_JIS$0
100
AcDbAlignedDimension
 13
125.0034856255873
 23
4.996431847674513
 33
0.0
 14
125.0034856255873
 24
24.99643184767452
 34
0.0
 50
89.99999999999998
100
AcDbRotatedDimension
  0
DIMENSION
  5
B29E
330
1F
100
AcDbEntity
  8
AM_5
100
AcDbDimension
  2
*D9
 10
0.0034828543891738
 20
-0.0034290323721678
 30
0.0
 11
44.41595277541292
 21
-2.77720931425984
 31
0.0
 70
   162
 71
     5
 42
0.0349065850398853
  3
AM_JIS$2
100
AcDb2LineAngularDimension
 13
125.0034856255873
 23
4.996431847674513
 33
0.0
 14
24.00348562558745
 24
4.996431847674525
 34
0.0
 15
13.93359886603158
 25
0.4830213378636739
 35
0.0
 16
37.90443616828578
 26
3.771430851766395
 36
0.0
1001
ACAD
1000
DSTYLE
1002
{
1070
   287
1070
     4
1070
   271
1070
     0
1070
   279
1070
     1
1002
}
  0
ARC
  5
B343
330
1F
100
AcDbEntity
  8
AM_0
100
AcDbCircle
 10
0.0999319874208996
 20
0.0999999999999944
 30
0.0
 40
0.1
100
AcDbArc
 50
182.0000000000051
 51
271.9999999999999
  0
ARC
  5
B344
330
1F
100
AcDbEntity
  8
AM_0
100
AcDbCircle
 10
0.0196631450050809
 20
2.398598902143918
 30
0.0
 40
0.1
100
AcDbArc
 50
91.99999999999985
 51
182.0000000000046
  0
DIMENSION
  5
B37F
330
1F
100
AcDbEntity
  8
AM_5
100
AcDbDimension
  2
*D10
 10
-13.53665358119793
 20
2.025262845020982
 30
0.0
 11
-17.25906601330387
 21
11.18788275345082
 31
0.0
 70
    32
 71
     5
 42
2.500000000000017
 51
358.0000000000002
  3
AM_JIS$0
100
AcDbAlignedDimension
 13
0.1034219370911247
 23
0.0000609172980716
 33
0.0
 14
0.0161731953348312
 24
2.498537984845826
 34
0.0
 50
271.9999999999995
100
AcDbRotatedDimension
  0
ARC
  5
B495
102
{ACAD_REACTORS
330
B4A2
102
}
330
1F
100
AcDbEntity
  8
AM_0
100
AcDbCircle
 10
16.84022825253405
 20
-45.84771593066815
 30
0.0
 40
5.625270198094479
100
AcDbArc
 50
94.10878082595004
 51
168.6043758644233
  0
LINE
  5
B498
102
{ACAD_REACTORS
330
B4A2
102
}
330
1F
100
AcDbEntity
  8
AM_0
100
AcDbLine
 10
11.31182789063413
 20
-46.53749886214629
 30
0.0
 11
8.408633750456319
 21
-46.79149543742672
 31
0.0
  0
ARC
  5
B49D
102
{ACAD_REACTORS
330
B4A2
102
}
330
1F
100
AcDbEntity
  8
AM_0
100
AcDbCircle
 10
14.11343542311481
 20
-46.30812301561824
 30
0.0
 40
1.302321424553754
100
AcDbArc
 50
103.4484808721521
 51
183.1351618757032
  0
ARC
  5
B4A0
102
{ACAD_REACTORS
330
B4A2
102
}
330
1F
100
AcDbEntity
  8
AM_0
100
AcDbCircle
 10
11.67916630733232
 20
-45.97483282704626
 30
0.0
 40
5.360088278960745
100
AcDbArc
 50
103.4859332451356
 51
171.3318991263848
  0
POLYLINE
  5
B4D0
330
1F
100
AcDbEntity
  8
AM_5
100
AcDb3dPolyline
 66
     1
 10
0.0
 20
0.0
 30
0.0
 70
     8
  0
VERTEX
  5
B4D1
330
B4D0
100
AcDbEntity
  8
AM_5
100
AcDbVertex
100
AcDb3dPolylineVertex
 10
-41.55168116682733
 20
-22.00354120729747
 30
0.0
 70
    32
  0
VERTEX
  5
B4D2
330
B4D0
100
AcDbEntity
  8
AM_5
100
AcDbVertex
100
AcDb3dPolylineVertex
 10
-41.55168116682733
 20
-14.0857921154914
 30
0.0
 70
    32
  0
SEQEND
  5
B4D3
330
B4D0
100
AcDbEntity
  8
AM_5
  0
TEXT
  5
B4D4
330
1F
100
AcDbEntity
  8
AM_6
100
AcDbText
 10
-44.94388746252918
 20
-9.892175763359141
 30
0.0
 40
3.149999999999999
  1
-2%%d
100
AcDbText
  0
POLYLINE
  5
B4D5
330
1F
100
AcDbEntity
  8
AM_5
100
AcDb3dPolyline
 66
     1
 10
0.0
 20
0.0
 30
0.0
 70
     8
  0
VERTEX
  5
B4D6
330
B4D5
100
AcDbEntity
  8
AM_5
100
AcDbVertex
100
AcDb3dPolylineVertex
 10
-41.55168116682733
 20
-14.0857921154914
 30
0.0
 70
    32
  0
VERTEX
  5
B4D7
330
B4D5
100
AcDbEntity
  8
AM_5
100
AcDbVertex
100
AcDb3dPolylineVertex
 10
-41.55168116682733
 20
-10.93579211549142
 30
0.0
 70
    32
  0
SEQEND
  5
B4D8
330
B4D5
100
AcDbEntity
  8
AM_5
  0
POLYLINE
  5
B4D9
330
1F
100
AcDbEntity
  8
AM_5
100
AcDb3dPolyline
 66
     1
 10
0.0
 20
0.0
 30
0.0
 70
     8
  0
VERTEX
  5
B4DA
330
B4D9
100
AcDbEntity
  8
AM_5
100
AcDbVertex
100
AcDb3dPolylineVertex
 10
-41.1369758012774
 20
-14.0857921154914
 30
0.0
 70
    32
  0
VERTEX
  5
B4DB
330
B4D9
100
AcDbEntity
  8
AM_5
100
AcDbVertex
100
AcDb3dPolylineVertex
 10
-41.55168116682733
 20
-10.93579211549142
 30
0.0
 70
    32
  0
SEQEND
  5
B4DC
330
B4D9
100
AcDbEntity
  8
AM_5
  0
POLYLINE
  5
B4DD
330
1F
100
AcDbEntity
  8
AM_5
100
AcDb3dPolyline
 66
     1
 10
0.0
 20
0.0
 30
0.0
 70
     8
  0
VERTEX
  5
B4DE
330
B4DD
100
AcDbEntity
  8
AM_5
100
AcDbVertex
100
AcDb3dPolylineVertex
 10
-41.55168116682733
 20
-10.93579211549142
 30
0.0
 70
    32
  0
VERTEX
  5
B4DF
330
B4DD
100
AcDbEntity
  8
AM_5
100
AcDbVertex
100
AcDb3dPolylineVertex
 10
-41.96638653237739
 20
-14.0857921154914
 30
0.0
 70
    32
  0
SEQEND
  5
B4E0
330
B4DD
100
AcDbEntity
  8
AM_5
  0
POLYLINE
  5
B4E1
330
1F
100
AcDbEntity
  8
AM_5
100
AcDb3dPolyline
 66
     1
 10
0.0
 20
0.0
 30
0.0
 70
     8
  0
VERTEX
  5
B4E2
330
B4E1
100
AcDbEntity
  8
AM_5
100
AcDbVertex
100
AcDb3dPolylineVertex
 10
-33.6339320750214
 20
-22.00354120729747
 30
0.0
 70
    32
  0
VERTEX
  5
B4E3
330
B4E1
100
AcDbEntity
  8
AM_5
100
AcDbVertex
100
AcDb3dPolylineVertex
 10
-30.4839320750213
 20
-22.00354120729747
 30
0.0
 70
    32
  0
SEQEND
  5
B4E4
330
B4E1
100
AcDbEntity
  8
AM_5
  0
POLYLINE
  5
B4E5
330
1F
100
AcDbEntity
  8
AM_5
100
AcDb3dPolyline
 66
     1
 10
0.0
 20
0.0
 30
0.0
 70
     8
  0
VERTEX
  5
B4E6
330
B4E5
100
AcDbEntity
  8
AM_5
100
AcDbVertex
100
AcDb3dPolylineVertex
 10
-33.6339320750214
 20
-22.41824657284746
 30
0.0
 70
    32
  0
VERTEX
  5
B4E7
330
B4E5
100
AcDbEntity
  8
AM_5
100
AcDbVertex
100
AcDb3dPolylineVertex
 10
-30.4839320750213
 20
-22.00354120729747
 30
0.0
 70
    32
  0
SEQEND
  5
B4E8
330
B4E5
100
AcDbEntity
  8
AM_5
  0
POLYLINE
  5
B4E9
330
1F
100
AcDbEntity
  8
AM_5
100
AcDb3dPolyline
 66
     1
 10
0.0
 20
0.0
 30
0.0
 70
     8
  0
VERTEX
  5
B4EA
330
B4E9
100
AcDbEntity
  8
AM_5
100
AcDbVertex
100
AcDb3dPolylineVertex
 10
-30.4839320750213
 20
-22.00354120729747
 30
0.0
 70
    32
  0
VERTEX
  5
B4EB
330
B4E9
100
AcDbEntity
  8
AM_5
100
AcDbVertex
100
AcDb3dPolylineVertex
 10
-33.6339320750214
 20
-21.58883584174747
 30
0.0
 70
    32
  0
SEQEND
  5
B4EC
330
B4E9
100
AcDbEntity
  8
AM_5
  0
TEXT
  5
B4ED
330
1F
100
AcDbEntity
  8
AM_6
100
AcDbText
 10
-29.44837505537209
 20
-22.9084373977186
 30
0.0
 40
3.149999999999999
  1
-5%%D
100
AcDbText
  0
POLYLINE
  5
B4EE
330
1F
100
AcDbEntity
  8
AM_5
100
AcDb3dPolyline
 66
     1
 10
0.0
 20
0.0
 30
0.0
 70
     8
  0
VERTEX
  5
B4EF
330
B4EE
100
AcDbEntity
  8
AM_5
100
AcDbVertex
100
AcDb3dPolylineVertex
 10
-41.55168116682733
 20
-22.00354120729747
 30
0.0
 70
    32
  0
VERTEX
  5
B4F0
330
B4EE
100
AcDbEntity
  8
AM_5
100
AcDbVertex
100
AcDb3dPolylineVertex
 10
-33.6339320750214
 20
-22.00354120729747
 30
0.0
 70
    32
  0
SEQEND
  5
B4F1
330
B4EE
100
AcDbEntity
  8
AM_5
  0
CIRCLE
  5
B4FC
102
{ACAD_REACTORS
330
B510
102
}
330
1F
100
AcDbEntity
  8
AM_5
100
AcDbCircle
 10
10.03651636192051
 20
-53.02333013177287
 30
0.0
 40
6.349999999999997
  0
LINE
  5
B4FD
102
{ACAD_REACTORS
330
B510
102
}
330
1F
100
AcDbEntity
  8
AM_0
100
AcDbLine
 10
17.5726973508953
 20
-45.98974376055774
 30
0.0
 11
2.952849292775773
 21
-47.26881472811469
 31
0.0
  0
LINE
  5
B4FE
102
{ACAD_REACTORS
330
B510
102
}
330
1F
100
AcDbEntity
  8
AM_0
100
AcDbLine
 10
12.35513874551247
 20
-63.06452505583044
 30
0.0
 11
18.55735482342476
 21
-49.76382975425187
 31
0.0
  0
LINE
  5
B4FF
102
{ACAD_REACTORS
330
B510
102
}
330
1F
100
AcDbEntity
  8
AM_0
100
AcDbLine
 10
8.598907261746562
 20
-62.03234288973956
 30
0.0
 11
0.181275281539362
 21
-50.01071855571797
 31
0.0
  0
LINE
  5
B503
102
{ACAD_REACTORS
330
B510
102
}
330
1F
100
AcDbEntity
  8
AM_0
100
AcDbLine
 10
0.9326158467019979
 20
-48.14240035752687
 30
0.0
 11
0.0034852827369805
 21
-47.97856957049896
 31
0.0
  0
LINE
  5
B504
102
{ACAD_REACTORS
330
B510
102
}
330
1F
100
AcDbEntity
  8
AM_0
100
AcDbLine
 10
0.0034852827369805
 20
-47.97856957049896
 30
0.0
 11
0.181275281539362
 21
-50.01071855571797
 31
0.0
  0
ARC
  5
B506
102
{ACAD_REACTORS
330
B510
102
}
330
1F
100
AcDbEntity
  8
AM_0
100
AcDbCircle
 10
1.279912202035849
 20
-46.17278485150245
 30
0.0
 40
2.0
100
AcDbArc
 50
260.0
 51
326.769064255945
  0
LINE
  5
B509
102
{ACAD_REACTORS
330
B510
102
}
330
1F
100
AcDbEntity
  8
AM_0
100
AcDbLine
 10
10.36145744094487
 20
-63.34800413860139
 30
0.0
 11
10.68414109943921
 21
-64.23457020394159
 31
0.0
  0
LINE
  5
B50A
102
{ACAD_REACTORS
330
B510
102
}
330
1F
100
AcDbEntity
  8
AM_0
100
AcDbLine
 10
10.68414109943921
 20
-64.23457020394159
 30
0.0
 11
12.35513874551245
 21
-63.06452505583043
 31
0.0
  0
ARC
  5
B50B
102
{ACAD_REACTORS
330
B510
102
}
330
1F
100
AcDbEntity
  8
AM_0
100
AcDbCircle
 10
8.482072199373082
 20
-64.03204442525269
 30
0.0
 40
2.0
100
AcDbArc
 50
20.00000000000001
 51
86.76906425594506
  0
LINE
  5
B50C
102
{ACAD_REACTORS
330
B510
102
}
330
1F
100
AcDbEntity
  8
AM_0
100
AcDbLine
 10
18.81547579811469
 20
-47.5795858991904
 30
0.0
 11
19.42192270358537
 21
-46.8568506208781
 31
0.0
  0
LINE
  5
B50D
102
{ACAD_REACTORS
330
B510
102
}
330
1F
100
AcDbEntity
  8
AM_0
100
AcDbLine
 10
19.42192270358537
 20
-46.8568506208781
 30
0.0
 11
17.57313505870975
 21
-45.99474678377024
 31
0.0
  0
ARC
  5
B50E
102
{ACAD_REACTORS
330
B510
102
}
330
1F
100
AcDbEntity
  8
AM_0
100
AcDbCircle
 10
20.34756468435265
 20
-48.8651611185635
 30
0.0
 40
2.0
100
AcDbArc
 50
140.0
 51
206.7690642559451
  0
ARC
  5
B514
330
1F
100
AcDbEntity
  8
AM_0
100
AcDbCircle
 10
10.8034856255874
 20
-64.0785707535807
 30
0.0
 40
2.0
100
AcDbArc
 50
180.0
 51
0.0
  0
LINE
  5
B518
330
1F
100
AcDbEntity
  8
AM_0
100
AcDbLine
 10
12.8034856255874
 20
-62.10304206872089
 30
0.0
 11
12.8034856255874
 21
-64.0785707535807
 31
0.0
  0
LINE
  5
B519
330
1F
100
AcDbEntity
  8
AM_0
100
AcDbLine
 10
8.803485625587406
 20
-62.32451107228144
 30
0.0
 11
8.803485625587406
 21
-64.0785707535807
 31
0.0
  0
LINE
  5
B52A
330
1F
100
AcDbEntity
  8
AM_0
100
AcDbLine
 10
8.598907261746562
 20
-62.03234288973956
 30
0.0
 11
8.803485625587406
 21
-62.32451107228144
 31
0.0
  0
LINE
  5
B533
330
1F
100
AcDbEntity
  8
AM_0
100
AcDbLine
 10
18.55735482342476
 20
-49.76382975425187
 30
0.0
 11
20.34822252986604
 21
-45.92330156407146
 31
0.0
  0
LINE
  5
B553
330
1F
100
AcDbEntity
  8
AM_0
100
AcDbLine
 10
20.18798106676042
 20
5.464330607871
 30
0.0
 11
15.79371993527345
 21
5.310879627811802
 31
0.0
  0
LINE
  5
B585
102
{ACAD_REACTORS
330
B5C9
102
}
330
1F
100
AcDbEntity
  8
AM_0
  6
Continuous
 48
0.5
100
AcDbLine
 10
19.59974093115703
 20
9.929699523826645
 30
0.0
 11
11.98213487513728
 21
0.8513936850169462
 31
0.0
  0
LINE
  5
B586
102
{ACAD_REACTORS
330
B5C9
102
}
330
1F
100
AcDbEntity
  8
AM_0
  6
Continuous
 48
0.5
100
AcDbLine
 10
9.094661576733361
 20
14.82831531253125
 30
0.0
 11
7.036766873203354
 21
3.157460865765881
 31
0.0
  0
ARC
  5
B588
102
{ACAD_REACTORS
330
B5C9
102
}
330
1F
100
AcDbEntity
  8
AM_0
  6
Continuous
 48
0.5
100
AcDbCircle
 10
17.5814563773414
 20
19.31490796568207
 30
0.0
 40
1.9000000953674
100
AcDbArc
 50
334.9999776881985
 51
155.0000100179097
  0
ARC
  5
B589
102
{ACAD_REACTORS
330
B5C9
102
}
330
1F
100
AcDbEntity
  8
AM_0
  6
Continuous
 48
0.5
100
AcDbCircle
 10
15.00348562558744
 20
13.78643184767452
 30
0.0
 40
6.0
100
AcDbArc
 50
320.0000216670149
 51
169.9999796994728
  0
CIRCLE
  5
B58B
102
{ACAD_REACTORS
330
B5C9
102
}
330
1F
100
AcDbEntity
  8
AM_0
  6
Continuous
 48
0.5
100
AcDbCircle
 10
15.00348562558744
 20
13.78643184767452
 30
0.0
 40
3.375
  0
CIRCLE
  5
B58C
102
{ACAD_REACTORS
330
B5C9
102
}
330
1F
100
AcDbEntity
  8
AM_0
  6
Continuous
 48
0.5
100
AcDbCircle
 10
15.00348562558744
 20
13.78643184767452
 30
0.0
 40
4.0
  0
LINE
  5
B58E
102
{ACAD_REACTORS
330
B5C9
102
}
330
1F
100
AcDbEntity
  8
AM_0
  6
Continuous
 48
0.5
100
AcDbLine
 10
19.13068341207291
 20
18.14144944457489
 30
0.0
 11
19.30344255562794
 21
18.51193262350998
 31
0.0
  0
LINE
  5
B58F
102
{ACAD_REACTORS
330
B5C9
102
}
330
1F
100
AcDbEntity
  8
AM_0
  6
Continuous
 48
0.5
100
AcDbLine
 10
15.68671105549978
 20
19.74740012891907
 30
0.0
 11
15.85947019905482
 21
20.11788330785416
 31
0.0
  0
LINE
  5
B590
102
{ACAD_REACTORS
330
B5C9
102
}
330
1F
100
AcDbEntity
  8
AM_0
  6
Continuous
 48
0.5
100
AcDbLine
 10
11.98214340187346
 20
0.8513939179870055
 30
0.0
 11
7.036753044043154
 21
3.157467314409186
 31
0.0
  0
ARC
  5
B5CA
330
1F
100
AcDbEntity
  8
AM_0
  6
Continuous
 48
0.5
100
AcDbCircle
 10
10.69013533930887
 20
18.09978213395309
 30
0.0
 40
1.9000000953674
100
AcDbArc
 50
141.6300265129487
 51
236.7596894427848
  0
ARC
  5
B5CC
330
1F
100
AcDbEntity
  8
AM_0
100
AcDbCircle
 10
15.00348562558744
 20
13.78643184767455
 30
0.0
 40
7.999998569488376
100
AcDbArc
 50
64.9999999999996
 51
136.5793676735147
  0
LINE
  5
B5CD
330
1F
100
AcDbEntity
  8
AM_0
100
AcDbLine
 10
7.342824059527535
 20
5.015767840936124
 30
0.0
 11
5.234071715988039
 21
4.942128586432201
 31
0.0
  0
LINE
  5
B5D5
330
1F
100
AcDbEntity
  8
AM_0
100
AcDbLine
 10
11.32585312639504
 20
-44.73626113186189
 30
0.0
 11
6.380468756761619
 21
-45.16892620098314
 31
0.0
  0
LINE
  5
B5D6
330
1F
100
AcDbEntity
  8
AM_0
100
AcDbLine
 10
13.81055331100233
 20
-45.04151197863253
 30
0.0
 11
19.42812318198235
 21
-44.55003829835697
 31
0.0
  0
LINE
  5
B5D7
330
1F
100
AcDbEntity
  8
AM_0
100
AcDbLine
 10
20.42400127416222
 20
-39.8881017020836
 30
0.0
 11
20.94742637840729
 21
-45.87087802018301
 31
0.0
  0
LINE
  5
B5D8
330
1F
100
AcDbEntity
  8
AM_0
100
AcDbLine
 10
19.0309195977846
 20
-40.00998055613234
 30
0.0
 11
19.42812318198235
 21
-44.55003829835697
 31
0.0
  0
LINE
  5
B5D9
330
1F
100
AcDbEntity
  8
AM_0
100
AcDbLine
 10
11.32585312639504
 20
-44.73626113186189
 30
0.0
 11
11.48213741367657
 21
-46.52259870958952
 31
0.0
  0
LINE
  5
B5DA
330
1F
100
AcDbEntity
  8
AM_0
100
AcDbLine
 10
6.38046875676162
 20
-45.16892620098314
 30
0.0
 11
6.53675304404315
 21
-46.95526377871076
 31
0.0
  0
LINE
  5
B5DB
330
1F
100
AcDbEntity
  8
AM_0
100
AcDbLine
 10
10.42915818796225
 20
-40.76253716584656
 30
0.0
 11
20.42400127416222
 21
-39.8881017020836
 31
0.0
  0
LINE
  5
B5E4
330
1F
100
AcDbEntity
  8
AM_0
100
AcDbLine
 10
5.503485625587443
 20
14.99643184767453
 30
0.0
 11
5.50348562558744
 21
4.996431847674527
 31
0.0
  0
LINE
  5
B5FD
330
1F
100
AcDbEntity
  8
AM_0
100
AcDbLine
 10
5.234071715988039
 20
4.942128586432201
 30
0.0
 11
5.312944578535891
 21
2.683505317369061
 31
0.0
  0
LINE
  5
B5FF
330
1F
100
AcDbEntity
  8
AM_0
100
AcDbLine
 10
16.55744586632941
 20
5.337549525005076
 30
0.0
 11
16.63631872887728
 21
3.078926255941911
 31
0.0
  0
LINE
  5
B600
330
1F
100
AcDbEntity
  8
AM_0
100
AcDbLine
 10
7.86225546199428
 20
2.772529215093106
 30
0.0
 11
0.0161731953348277
 21
2.498537984845826
 31
0.0
  0
LINE
  5
B601
330
1F
100
AcDbEntity
  8
AM_0
100
AcDbLine
 10
19.33467396182899
 20
3.173154897038662
 30
0.0
 11
13.76718598966607
 21
2.978733932914702
 31
0.0
  0
LINE
  5
B60D
330
1F
100
AcDbEntity
  8
AM_0
100
AcDbLine
 10
0.5034856255874178
 20
-63.97857075358071
 30
0.0
 11
4.503485625587432
 21
-67.97857075358071
 31
0.0
  0
ENDSEC
  0
SECTION
  2
OBJECTS
  0
DICTIONARY
  5
C
330
0
100
AcDbDictionary
281
     1
  3
ACAD_COLOR
350
B67E
  3
ACAD_GROUP
350
D
  3
ACAD_LAYOUT
350
1A
  3
ACAD_MATERIAL
350
B67D
  3
ACAD_MLINESTYLE
350
17
  3
ACAD_PLOTSETTINGS
350
19
  3
ACAD_PLOTSTYLENAME
350
E
  3
ACAD_TABLESTYLE
350
B67F
  3
ACDBHEADERROUNDTRIPXREC
350
B830
  3
ACDBVARIABLEDICTIONARY
350
30
  3
ACMDICTIONARY
350
4D
  3
AMG
350
3F
  3
AMGSNAPSETTINGS
350
73
  3
DWGPROPS
350
B82F
  3
ENG_DATA
350
21C6
  3
FILENAME
350
21C9
  3
HOLD_DIC_DATA
350
21C4
  3
TABLE_DIC_DATA
350
1C0B
  3
ZWKSIZE
350
21CB
  0
DICTIONARY
  5
165
330
1F
100
AcDbDictionary
280
     1
281
     1
  3
ACAD_INDEX
360
B629
  3
ACAD_LAYOUTSELFREF
360
B65C
  0
DICTIONARY
  5
B65A
330
1B
100
AcDbDictionary
280
     1
281
     1
  3
ACAD_LAYOUTSELFREF
360
B65B
  0
DICTIONARY
  5
B67E
102
{ACAD_REACTORS
330
C
102
}
330
C
100
AcDbDictionary
281
     1
  0
DICTIONARY
  5
D
102
{ACAD_REACTORS
330
C
102
}
330
C
100
AcDbDictionary
281
     1
  3
*A1
350
7C0D
  3
*A10
350
B510
  3
*A11
350
B5C9
  3
*A12
350
B433
  3
*A13
350
B440
  3
*A14
350
B466
  3
*A2
350
B492
  3
*A3
350
B493
  3
*A4
350
B4A2
  3
*A5
350
7C0E
  3
*A6
350
7FE3
  3
*A7
350
8E0E
  3
*A8
350
B0B7
  3
*A9
350
B427
  0
DICTIONARY
  5
1A
102
{ACAD_REACTORS
330
C
102
}
330
C
100
AcDbDictionary
281
     1
  3
Model
350
B681
  3
レイアウト1
350
B682
  0
DICTIONARY
  5
B67D
102
{ACAD_REACTORS
330
C
102
}
330
C
100
AcDbDictionary
281
     1
  0
DICTIONARY
  5
17
102
{ACAD_REACTORS
330
C
102
}
330
C
100
AcDbDictionary
281
     1
  3
STANDARD
350
18
  0
DICTIONARY
  5
19
102
{ACAD_REACTORS
330
C
102
}
330
C
100
AcDbDictionary
281
     1
  0
ACDBDICTIONARYWDFLT
  5
E
102
{ACAD_REACTORS
330
C
102
}
330
C
100
AcDbDictionary
281
     1
  3
Normal
350
F
100
AcDbDictionaryWithDefault
340
F
  0
DICTIONARY
  5
B67F
102
{ACAD_REACTORS
330
C
102
}
330
C
100
AcDbDictionary
281
     1
  3
Standard
350
B680
  0
DICTIONARY
  5
B830
102
{ACAD_REACTORS
330
C
102
}
330
C
100
AcDbDictionary
281
     1
  0
DICTIONARY
  5
30
102
{ACAD_REACTORS
330
C
102
}
330
C
100
AcDbDictionary
281
     1
  3
CTABLESTYLE
350
B75C
  3
DIMASSOC
350
B75D
  3
INDEXCTL
350
31
  3
PROJECTNAME
350
B75E
  3
SORTENTS
350
42BE
  0
DICTIONARY
  5
4D
102
{ACAD_REACTORS
330
C
102
}
330
C
100
AcDbDictionary
281
     1
  3
ACMSTDDICTIONARY
350
17E
  3
AMDTSECTSYM_ARROWCOLOR
350
B6FA
  0
DICTIONARY
  5
3F
102
{ACAD_REACTORS
330
C
102
}
330
C
100
AcDbDictionary
281
     1
  0
DICTIONARY
  5
73
102
{ACAD_REACTORS
330
C
102
}
330
C
100
AcDbDictionary
281
     1
  0
XRECORD
  5
B82F
102
{ACAD_REACTORS
330
C
102
}
330
C
100
AcDbXrecord
280
     1
  1
DWGPROPS COOKIE
  2

  3

  4

  6

  7

  8

  9

300
AmdtFileType=82
301
=
302
=
303
=
304
=
305
=
306
=
307
=
308
=
309
=
 40
1.464886724537036
 41
2451943.610431666
 42
2455604.62506456
  1

 90
        1
  0
DICTIONARY
  5
21C6
102
{ACAD_REACTORS
330
C
102
}
330
C
100
AcDbDictionary
281
     1
  3
ENG_ID
350
21C7
  0
DICTIONARY
  5
21C9
102
{ACAD_REACTORS
330
C
102
}
330
C
100
AcDbDictionary
281
     1
  3
FILENAME
350
21CA
  0
DICTIONARY
  5
21C4
102
{ACAD_REACTORS
330
C
102
}
330
C
100
AcDbDictionary
281
     1
  3
HOLD_DATA
350
21C5
  0
DICTIONARY
  5
1C0B
102
{ACAD_REACTORS
330
C
102
}
330
C
100
AcDbDictionary
281
     1
  3
INPUT_DATA
350
1C0D
  3
TABLE_DATA
350
1C0C
  0
DICTIONARY
  5
21CB
102
{ACAD_REACTORS
330
C
102
}
330
C
100
AcDbDictionary
281
     1
  3
ZWKSIZE
350
21CC
  0
DICTIONARY
  5
B629
102
{ACAD_REACTORS
330
165
102
}
330
165
100
AcDbDictionary
281
     1
  3
*A1
350
B62A
  0
XRECORD
  5
B65C
102
{ACAD_REACTORS
330
165
102
}
330
165
100
AcDbXrecord
280
     1
340
1F
  0
XRECORD
  5
B65B
102
{ACAD_REACTORS
330
B65A
102
}
330
B65A
100
AcDbXrecord
280
     1
340
1B
  0
GROUP
  5
7C0D
102
{ACAD_REACTORS
330
D
102
}
330
D
100
AcDbGroup
300

 70
     1
 71
     1
  0
GROUP
  5
B510
102
{ACAD_REACTORS
330
D
102
}
330
D
100
AcDbGroup
300

 70
     1
 71
     1
340
B4FC
340
B4FE
340
B4FD
340
B50E
340
B50D
340
B50C
340
B4FF
340
B506
340
B503
340
B504
340
B50B
340
B509
340
B50A
  0
GROUP
  5
B5C9
102
{ACAD_REACTORS
330
D
102
}
330
D
100
AcDbGroup
300

 70
     1
 71
     1
340
B586
340
B58C
340
B58B
340
B589
340
B588
340
B58E
340
B58F
340
B585
340
B590
  0
GROUP
  5
B433
102
{ACAD_REACTORS
330
D
102
}
330
D
100
AcDbGroup
300

 70
     1
 71
     1
  0
GROUP
  5
B440
102
{ACAD_REACTORS
330
D
102
}
330
D
100
AcDbGroup
300

 70
     1
 71
     1
  0
GROUP
  5
B466
102
{ACAD_REACTORS
330
D
102
}
330
D
100
AcDbGroup
300

 70
     1
 71
     1
  0
GROUP
  5
B492
102
{ACAD_REACTORS
330
D
102
}
330
D
100
AcDbGroup
300

 70
     1
 71
     1
  0
GROUP
  5
B493
102
{ACAD_REACTORS
330
D
102
}
330
D
100
AcDbGroup
300

 70
     1
 71
     1
  0
GROUP
  5
B4A2
102
{ACAD_REACTORS
330
D
102
}
330
D
100
AcDbGroup
300

 70
     1
 71
     1
340
B495
340
B498
340
B49D
340
B4A0
  0
GROUP
  5
7C0E
102
{ACAD_REACTORS
330
D
102
}
330
D
100
AcDbGroup
300

 70
     1
 71
     1
  0
GROUP
  5
7FE3
102
{ACAD_REACTORS
330
D
102
}
330
D
100
AcDbGroup
300

 70
     1
 71
     1
  0
GROUP
  5
8E0E
102
{ACAD_REACTORS
330
D
102
}
330
D
100
AcDbGroup
300

 70
     1
 71
     1
  0
GROUP
  5
B0B7
102
{ACAD_REACTORS
330
D
102
}
330
D
100
AcDbGroup
300

 70
     1
 71
     1
  0
GROUP
  5
B427
102
{ACAD_REACTORS
330
D
102
}
330
D
100
AcDbGroup
300

 70
     1
 71
     1
  0
LAYOUT
  5
B681
102
{ACAD_XDICTIONARY
360
B831
102
}
102
{ACAD_REACTORS
330
1A
102
}
330
1A
100
AcDbPlotSettings
  1

  2
SII LP-1010 (C2 VR)2R
  4

  6

 40
0.0
 41
0.0
 42
0.0
 43
0.0
 44
0.0
 45
0.0
 46
0.0
 47
0.0
 48
0.0
 49
0.0
140
0.0
141
0.0
142
1.0
143
1.0
 70
  1712
 72
     0
 73
     0
 74
     0
  7
sei_cad.ctb
 75
     0
147
1.0
148
0.0
149
0.0
100
AcDbLayout
  1
Model
 70
     1
 71
     0
 10
0.0
 20
0.0
 11
12.0
 21
9.0
 12
0.0
 22
0.0
 32
0.0
 14
0.0
 24
0.0
 34
0.0
 15
0.0
 25
0.0
 35
0.0
146
0.0
 13
0.0
 23
0.0
 33
0.0
 16
1.0
 26
0.0
 36
0.0
 17
0.0
 27
1.0
 37
0.0
 76
     0
330
1F
  0
LAYOUT
  5
B682
102
{ACAD_XDICTIONARY
360
B833
102
}
102
{ACAD_REACTORS
330
1A
102
}
330
1A
100
AcDbPlotSettings
  1

  2
SII LP-1010 (C2 VR)2R
  4

  6

 40
0.0
 41
0.0
 42
0.0
 43
0.0
 44
0.0
 45
0.0
 46
0.0
 47
0.0
 48
0.0
 49
0.0
140
0.0
141
0.0
142
1.0
143
1.0
 70
   688
 72
     0
 73
     0
 74
     5
  7
sei_cad.ctb
 75
    16
147
1.0
148
0.0
149
0.0
100
AcDbLayout
  1
レイアウト1
 70
     1
 71
     1
 10
0.0
 20
0.0
 11
420.0
 21
297.0
 12
0.0
 22
0.0
 32
0.0
 14
1.000000000000000E+20
 24
1.000000000000000E+20
 34
1.000000000000000E+20
 15
-1.000000000000000E+20
 25
-1.000000000000000E+20
 35
-1.000000000000000E+20
146
0.0
 13
0.0
 23
0.0
 33
0.0
 16
1.0
 26
0.0
 36
0.0
 17
0.0
 27
1.0
 37
0.0
 76
     0
330
1B
  0
MLINESTYLE
  5
18
102
{ACAD_REACTORS
330
17
102
}
330
17
100
AcDbMlineStyle
  2
STANDARD
 70
     0
  3

 62
   256
 51
90.0
 52
90.0
 71
     2
 49
0.5
 62
   256
  6
BYLAYER
 49
-0.5
 62
   256
  6
BYLAYER
  0
ACDBPLACEHOLDER
  5
F
102
{ACAD_REACTORS
330
E
102
}
330
E
  0
TABLESTYLE
  5
B680
102
{ACAD_REACTORS
330
B67F
102
}
330
B67F
100
AcDbTableStyle
  3
Standard
 70
     0
 71
     0
 40
1.5
 41
1.5
280
     0
281
     0
  7
STANDARD
140
4.5
170
     2
 62
     0
 63
     7
283
     0
274
    -2
284
     1
 64
     0
275
    -2
285
     1
 65
     0
276
    -2
286
     1
 66
     0
277
    -2
287
     1
 67
     0
278
    -2
288
     1
 68
     0
279
    -2
289
     1
 69
     0
  7
STANDARD
140
6.0
170
     5
 62
     0
 63
     7
283
     0
274
    -2
284
     1
 64
     0
275
    -2
285
     1
 65
     0
276
    -2
286
     1
 66
     0
277
    -2
287
     1
 67
     0
278
    -2
288
     1
 68
     0
279
    -2
289
     1
 69
     0
  7
STANDARD
140
4.5
170
     5
 62
     0
 63
     7
283
     0
274
    -2
284
     1
 64
     0
275
    -2
285
     1
 65
     0
276
    -2
286
     1
 66
     0
277
    -2
287
     1
 67
     0
278
    -2
288
     1
 68
     0
279
    -2
289
     1
 69
     0
  0
DICTIONARYVAR
  5
B75C
102
{ACAD_REACTORS
330
30
102
}
330
30
100
DictionaryVariables
280
     0
  1
STANDARD
  0
DICTIONARYVAR
  5
B75D
102
{ACAD_REACTORS
330
30
102
}
330
30
100
DictionaryVariables
280
     0
  1
1
  0
DICTIONARYVAR
  5
31
102
{ACAD_REACTORS
330
30
102
}
330
30
100
DictionaryVariables
280
     0
  1
1
  0
DICTIONARYVAR
  5
B75E
102
{ACAD_REACTORS
330
30
102
}
330
30
100
DictionaryVariables
280
     0
  1

  0
DICTIONARYVAR
  5
42BE
102
{ACAD_REACTORS
330
30
102
}
330
30
100
DictionaryVariables
280
     0
  1
96
  0
DICTIONARY
  5
17E
102
{ACAD_REACTORS
330
4D
102
}
330
4D
100
AcDbDictionary
281
     1
  0
XRECORD
  5
B6FA
102
{ACAD_REACTORS
330
4D
102
}
330
4D
100
AcDbXrecord
280
     1
 90
-1023410169
  0
XRECORD
  5
21C7
102
{ACAD_REACTORS
330
21C6
102
}
330
21C6
100
AcDbXrecord
280
     1
  1
HOLD
  0
XRECORD
  5
21CA
102
{ACAD_REACTORS
330
21C9
102
}
330
21C9
100
AcDbXrecord
280
     1
  1
21000065__00___
  0
XRECORD
  5
21C5
102
{ACAD_REACTORS
330
21C4
102
}
330
21C4
100
AcDbXrecord
280
     1
  1
クランクシャフト加工用 ^M^J１コーナー型 ^M^J15.875 ^M^J20 ^M^Jクランプオン ^M^J９０° ^M^J1 ^M^J鋼 ^M^J ^M^J ^M^J ^M^J ^M^J
  0
XRECORD
  5
1C0D
102
{ACAD_REACTORS
330
1C0B
102
}
330
1C0B
100
AcDbXrecord
280
     1
  1
1,,,,,,,,,^M^J2,,,,,,,,,^M^J3,,,,,,,,,^M^J4,,,,,,,,,^M^J5,,,,,,,,,^M^J6,,,,,,,,,^M^J7,,,,,,,,,^M^J8,,,,,,,,,^M^J9,,,,,,,,,^M^J10,,,,,,,,,
  0
XRECORD
  5
1C0C
102
{ACAD_REACTORS
330
1C0B
102
}
330
1C0B
100
AcDbXrecord
280
     1
  1
10,10
  0
XRECORD
  5
21CC
102
{ACAD_REACTORS
330
21CB
102
}
330
21CB
100
AcDbXrecord
280
     1
  1
3
  0
LAYER_INDEX
  5
B62A
102
{ACAD_REACTORS
330
B629
102
}
330
B629
100
AcDbIndex
 40
2455604.62506456
100
AcDbLayerIndex
  8
0
360
B62B
 90
        0
  8
AM_5
360
B62C
 90
       19
  8
DEFPOINTS
360
B62D
 90
        0
  8
AM_0
360
B62E
 90
       69
  8
AM_6
360
B62F
 90
        3
  8
AM_7
360
B630
 90
        3
  0
DICTIONARY
  5
B831
330
B681
100
AcDbDictionary
280
     1
281
     1
  3
ACAD_XREC_ROUNDTRIP
360
B832
  0
DICTIONARY
  5
B833
330
B682
100
AcDbDictionary
280
     1
281
     1
  3
ACAD_XREC_ROUNDTRIP
360
B834
  0
IDBUFFER
  5
B62B
330
0
100
AcDbIdBuffer
  0
IDBUFFER
  5
B62C
330
0
100
AcDbIdBuffer
330
B0B8
330
B130
330
B18B
330
B1BF
330
B266
330
B283
330
B284
330
B291
330
B29E
330
B37F
330
B4D0
330
B4D5
330
B4D9
330
B4DD
330
B4E1
330
B4E5
330
B4E9
330
B4EE
330
B4FC
  0
IDBUFFER
  5
B62D
330
0
100
AcDbIdBuffer
  0
IDBUFFER
  5
B62E
330
0
100
AcDbIdBuffer
330
B087
330
B08A
330
B08B
330
B08D
330
B08E
330
B08F
330
B091
330
B092
330
B093
330
B094
330
B096
330
B098
330
B099
330
B0C5
330
B18A
330
B18D
330
B192
330
B193
330
B19E
330
B1B7
330
B343
330
B344
330
B495
330
B498
330
B49D
330
B4A0
330
B4FD
330
B4FE
330
B4FF
330
B503
330
B504
330
B506
330
B509
330
B50A
330
B50B
330
B50C
330
B50D
330
B50E
330
B514
330
B518
330
B519
330
B52A
330
B533
330
B553
330
B585
330
B586
330
B588
330
B589
330
B58B
330
B58C
330
B58E
330
B58F
330
B590
330
B5CA
330
B5CC
330
B5CD
330
B5D5
330
B5D6
330
B5D7
330
B5D8
330
B5D9
330
B5DA
330
B5DB
330
B5E4
330
B5FD
330
B5FF
330
B600
330
B601
330
B60D
  0
IDBUFFER
  5
B62F
330
0
100
AcDbIdBuffer
330
83BD
330
B4D4
330
B4ED
  0
IDBUFFER
  5
B630
330
0
100
AcDbIdBuffer
330
B19A
330
B19F
330
B1AF
  0
XRECORD
  5
B832
102
{ACAD_REACTORS
330
B831
102
}
330
B831
100
AcDbXrecord
280
     1
102
SHADEPLOT
 70
     0
102
SHADEPLOTRESLEVEL
 70
     2
102
SHADEPLOTCUSTOMDPI
 70
   300
  0
XRECORD
  5
B834
102
{ACAD_REACTORS
330
B833
102
}
330
B833
100
AcDbXrecord
280
     1
102
SHADEPLOT
 70
     0
102
SHADEPLOTRESLEVEL
 70
     2
102
SHADEPLOTCUSTOMDPI
 70
   300
  0
ENDSEC
  0
EOF
