  0
SECTION
  2
HEADER
  9
$ACADVER
  1
AC1015
  9
$ACADMAINTVER
 70
    20
  9
$DWGCODEPAGE
  3
ANSI_932
  9
$INSBASE
 10
0.0
 20
0.0
 30
0.0
  9
$EXTMIN
 10
-42.7165669536181
 20
-90.37646818411166
 30
-0.0015258207003583
  9
$EXTMAX
 10
166.8135775203353
 20
30.00382389533797
 30
0.0000000349246037
  9
$LIMMIN
 10
-197.7684816817841
 20
-92.12439991048391
  9
$LIMMAX
 10
59.79069588380422
 20
101.0500082009892
  9
$ORTHOMODE
 70
     0
  9
$REGENMODE
 70
     1
  9
$FILLMODE
 70
     1
  9
$QTEXTMODE
 70
     0
  9
$MIRRTEXT
 70
     1
  9
$LTSCALE
 40
0.5
  9
$ATTMODE
 70
     1
  9
$TEXTSIZE
 40
2.5
  9
$TRACEWID
 40
1.0
  9
$TEXTSTYLE
  7
STANDARD
  9
$CLAYER
  8
AM_5
  9
$CELTYPE
  6
BYLAYER
  9
$CECOLOR
 62
   256
  9
$CELTSCALE
 40
1.0
  9
$DISPSILH
 70
     0
  9
$DIMSCALE
 40
1.0
  9
$DIMASZ
 40
2.5
  9
$DIMEXO
 40
0.0
  9
$DIMDLI
 40
10.0
  9
$DIMRND
 40
0.0
  9
$DIMDLE
 40
0.0
  9
$DIMEXE
 40
1.0
  9
$DIMTP
 40
0.1
  9
$DIMTM
 40
0.1000000001
  9
$DIMTXT
 40
3.799999999999998
  9
$DIMCEN
 40
0.0
  9
$DIMTSZ
 40
0.0
  9
$DIMTOL
 70
     0
  9
$DIMLIM
 70
     0
  9
$DIMTIH
 70
     0
  9
$DIMTOH
 70
     0
  9
$DIMSE1
 70
     0
  9
$DIMSE2
 70
     0
  9
$DIMTAD
 70
     3
  9
$DIMZIN
 70
     9
  9
$DIMBLK
  1
OPEN30
  9
$DIMASO
 70
     1
  9
$DIMSHO
 70
     1
  9
$DIMPOST
  1

  9
$DIMAPOST
  1
"
  9
$DIMALT
 70
     0
  9
$DIMALTD
 70
     2
  9
$DIMALTF
 40
0.0393701
  9
$DIMLFAC
 40
1.0
  9
$DIMTOFL
 70
     1
  9
$DIMTVP
 40
0.0
  9
$DIMTIX
 70
     0
  9
$DIMSOXD
 70
     0
  9
$DIMSAH
 70
     0
  9
$DIMBLK1
  1

  9
$DIMBLK2
  1

  9
$DIMSTYLE
  2
AM_JIS
  9
$DIMCLRD
 70
   256
  9
$DIMCLRE
 70
   256
  9
$DIMCLRT
 70
     2
  9
$DIMTFAC
 40
0.71
  9
$DIMGAP
 40
1.5
  9
$DIMJUST
 70
     0
  9
$DIMSD1
 70
     0
  9
$DIMSD2
 70
     0
  9
$DIMTOLJ
 70
     0
  9
$DIMTZIN
 70
     8
  9
$DIMALTZ
 70
     0
  9
$DIMALTTZ
 70
     0
  9
$DIMUPT
 70
     0
  9
$DIMDEC
 70
     2
  9
$DIMTDEC
 70
     2
  9
$DIMALTU
 70
     2
  9
$DIMALTTD
 70
     2
  9
$DIMTXSTY
  7
STANDARD
  9
$DIMAUNIT
 70
     1
  9
$DIMADEC
 70
     1
  9
$DIMALTRND
 40
0.0
  9
$DIMAZIN
 70
     2
  9
$DIMDSEP
 70
    46
  9
$DIMATFIT
 70
     3
  9
$DIMFRAC
 70
     0
  9
$DIMLDRBLK
  1
OPEN30
  9
$DIMLUNIT
 70
     2
  9
$DIMLWD
 70
    -1
  9
$DIMLWE
 70
    -1
  9
$DIMTMOVE
 70
     0
  9
$LUNITS
 70
     2
  9
$LUPREC
 70
     2
  9
$SKETCHINC
 40
1.0
  9
$FILLETRAD
 40
1.0
  9
$AUNITS
 70
     1
  9
$AUPREC
 70
     5
  9
$MENU
  1
.
  9
$ELEVATION
 40
0.0
  9
$PELEVATION
 40
0.0
  9
$THICKNESS
 40
0.0
  9
$LIMCHECK
 70
     0
  9
$CHAMFERA
 40
0.0
  9
$CHAMFERB
 40
0.0
  9
$CHAMFERC
 40
20.0
  9
$CHAMFERD
 40
0.0
  9
$SKPOLY
 70
     0
  9
$TDCREATE
 40
2451943.610431666
  9
$TDUCREATE
 40
2451943.235431667
  9
$TDUPDATE
 40
2455604.623639676
  9
$TDUUPDATE
 40
2455604.248639676
  9
$TDINDWG
 40
1.4483702778
  9
$TDUSRTIMER
 40
1.4483701042
  9
$USRTIMER
 70
     1
  9
$ANGBASE
 50
0.0
  9
$ANGDIR
 70
     0
  9
$PDMODE
 70
     0
  9
$PDSIZE
 40
0.0
  9
$PLINEWID
 40
0.0
  9
$SPLFRAME
 70
     0
  9
$SPLINETYPE
 70
     6
  9
$SPLINESEGS
 70
     8
  9
$HANDSEED
  5
B700
  9
$SURFTAB1
 70
     6
  9
$SURFTAB2
 70
     6
  9
$SURFTYPE
 70
     6
  9
$SURFU
 70
     6
  9
$SURFV
 70
     6
  9
$UCSBASE
  2

  9
$UCSNAME
  2

  9
$UCSORG
 10
0.0
 20
0.0
 30
0.0
  9
$UCSXDIR
 10
1.0
 20
0.0
 30
0.0
  9
$UCSYDIR
 10
0.0
 20
1.0
 30
0.0
  9
$UCSORTHOREF
  2

  9
$UCSORTHOVIEW
 70
     0
  9
$UCSORGTOP
 10
0.0
 20
0.0
 30
0.0
  9
$UCSORGBOTTOM
 10
0.0
 20
0.0
 30
0.0
  9
$UCSORGLEFT
 10
0.0
 20
0.0
 30
0.0
  9
$UCSORGRIGHT
 10
0.0
 20
0.0
 30
0.0
  9
$UCSORGFRONT
 10
0.0
 20
0.0
 30
0.0
  9
$UCSORGBACK
 10
0.0
 20
0.0
 30
0.0
  9
$PUCSBASE
  2

  9
$PUCSNAME
  2

  9
$PUCSORG
 10
0.0
 20
0.0
 30
0.0
  9
$PUCSXDIR
 10
1.0
 20
0.0
 30
0.0
  9
$PUCSYDIR
 10
0.0
 20
1.0
 30
0.0
  9
$PUCSORTHOREF
  2

  9
$PUCSORTHOVIEW
 70
     0
  9
$PUCSORGTOP
 10
0.0
 20
0.0
 30
0.0
  9
$PUCSORGBOTTOM
 10
0.0
 20
0.0
 30
0.0
  9
$PUCSORGLEFT
 10
0.0
 20
0.0
 30
0.0
  9
$PUCSORGRIGHT
 10
0.0
 20
0.0
 30
0.0
  9
$PUCSORGFRONT
 10
0.0
 20
0.0
 30
0.0
  9
$PUCSORGBACK
 10
0.0
 20
0.0
 30
0.0
  9
$USERI1
 70
     0
  9
$USERI2
 70
     0
  9
$USERI3
 70
     0
  9
$USERI4
 70
     0
  9
$USERI5
 70
     0
  9
$USERR1
 40
0.0
  9
$USERR2
 40
0.0
  9
$USERR3
 40
0.0
  9
$USERR4
 40
0.0
  9
$USERR5
 40
0.0
  9
$WORLDVIEW
 70
     1
  9
$SHADEDGE
 70
     3
  9
$SHADEDIF
 70
    70
  9
$TILEMODE
 70
     1
  9
$MAXACTVP
 70
    64
  9
$PINSBASE
 10
0.0
 20
0.0
 30
0.0
  9
$PLIMCHECK
 70
     0
  9
$PEXTMIN
 10
1.000000000000000E+20
 20
1.000000000000000E+20
 30
1.000000000000000E+20
  9
$PEXTMAX
 10
-1.000000000000000E+20
 20
-1.000000000000000E+20
 30
-1.000000000000000E+20
  9
$PLIMMIN
 10
0.0
 20
0.0
  9
$PLIMMAX
 10
420.0
 20
297.0
  9
$UNITMODE
 70
     0
  9
$VISRETAIN
 70
     1
  9
$PLINEGEN
 70
     0
  9
$PSLTSCALE
 70
     1
  9
$TREEDEPTH
 70
  3020
  9
$CMLSTYLE
  2
STANDARD
  9
$CMLJUST
 70
     0
  9
$CMLSCALE
 40
20.0
  9
$PROXYGRAPHICS
 70
     1
  9
$MEASUREMENT
 70
     1
  9
$CELWEIGHT
370
    -1
  9
$ENDCAPS
280
     0
  9
$JOINSTYLE
280
     0
  9
$LWDISPLAY
290
     0
  9
$INSUNITS
 70
     4
  9
$HYPERLINKBASE
  1

  9
$STYLESHEET
  1
sei_cad.ctb
  9
$XEDIT
290
     1
  9
$CEPSNTYPE
380
     0
  9
$PSTYLEMODE
290
     1
  9
$FINGERPRINTGUID
  2
{C77AB3BE-9CA2-11D3-BAF3-006094EB760E}
  9
$VERSIONGUID
  2
{9F7047C9-5E9D-4288-BF65-A1D663BE8FBF}
  9
$EXTNAMES
290
     1
  9
$PSVPSCALE
 40
0.0
  9
$OLESTARTUP
290
     0
  0
ENDSEC
  0
SECTION
  2
CLASSES
  0
CLASS
  1
ACDBDICTIONARYWDFLT
  2
AcDbDictionaryWithDefault
  3
ObjectDBX Classes
 90
        0
280
     0
281
     0
  0
CLASS
  1
ACDBPLACEHOLDER
  2
AcDbPlaceHolder
  3
ObjectDBX Classes
 90
        0
280
     0
281
     0
  0
CLASS
  1
LAYOUT
  2
AcDbLayout
  3
ObjectDBX Classes
 90
        0
280
     0
281
     0
  0
CLASS
  1
ACME_DOCUMENT
  2
AcMeDbDoc
  3
AcMeServices
 90
        0
280
     0
281
     0
  0
CLASS
  1
ACMESCOPE
  2
AcMeScope
  3
AcMeServices
 90
        0
280
     0
281
     0
  0
CLASS
  1
ACMECOMMANDHISTORY
  2
AcMeCommandHistory
  3
AcMeServices
 90
        0
280
     0
281
     0
  0
CLASS
  1
DICTIONARYVAR
  2
AcDbDictionaryVar
  3
ObjectDBX Classes
 90
        0
280
     0
281
     0
  0
CLASS
  1
ACIMSYSVARMAN
  2
AcImSysVarManager
  3
AcMeServices
 90
        0
280
     0
281
     0
  0
CLASS
  1
ACIMREALSYSVAR
  2
AcImRealSysVar
  3
AcMeServices
 90
        0
280
     0
281
     0
  0
CLASS
  1
ACIMINTSYSVAR
  2
AcImIntSysVar
  3
AcMeServices
 90
        0
280
     0
281
     0
  0
CLASS
  1
ACMEDRAWINGMAN
  2
AcMeDrawingMan
  3
AcMeServices
 90
        0
280
     0
281
     0
  0
CLASS
  1
ACMEVIEW
  2
AcMeView
  3
AcMeServices
 90
        0
280
     0
281
     0
  0
CLASS
  1
ACDBENTITYCACHE
  2
AcMeEntityCache
  3
AcMeServices
 90
        0
280
     0
281
     0
  0
CLASS
  1
GSMANAGER
  2
AcMeGSManager
  3
AcMeServices
 90
        0
280
     0
281
     0
  0
CLASS
  1
AMDTINTERNALREACTOR
  2
AmdtInternalReactor
  3
AcMeServices
 90
        0
280
     0
281
     0
  0
CLASS
  1
ACMESTATEMGR
  2
AcMeStateMgr
  3
AcMeServices
 90
        0
280
     0
281
     0
  0
CLASS
  1
ACME_DATABASE
  2
AcMeDbDatabase
  3
AcMeServices
 90
        0
280
     0
281
     0
  0
CLASS
  1
ACRFINSADJUSTERMGR
  2
AcRfInsAdjusterMgr
  3
AcMeServices
 90
        0
280
     0
281
     0
  0
CLASS
  1
AMGSETTINGSOBJ
  2
AmgSettingsObj
  3
"AcadM|Product Description: AutoCAD Mechanical 2000|Company: Autodesk"
 90
        0
280
     0
281
     0
  0
CLASS
  1
AMGOBJPROPCFG
  2
AmgObjPropCfg
  3
"AmgLay|Product Description: AutoCAD Mechanical 2000|Company: Autodesk"
 90
        1
280
     0
281
     0
  0
CLASS
  1
ACMDATADICTIONARY
  2
AcmDataDictionary
  3
"AcmSymBB|Product Description: AutoCAD Mechanical 2004 DX|Company: Autodesk"
 90
        0
280
     0
281
     0
  0
CLASS
  1
ACMDATAENTRYBLOCK
  2
AcmDataEntryBlock
  3
"AcmSymBB|Product Description: AutoCAD Mechanical 2004 DX|Company: Autodesk"
 90
    32768
280
     0
281
     0
  0
CLASS
  1
ACIMSTRSYSVAR
  2
AcImStrSysVar
  3
AcMeServices
 90
        0
280
     0
281
     0
  0
CLASS
  1
ACAMGFILTERDAT
  2
AcAmgFilterDat
  3
"AcadM|Product Description: AutoCAD Mechanical 2000|Company: Autodesk"
 90
    32768
280
     0
281
     0
  0
CLASS
  1
LAYER_INDEX
  2
AcDbLayerIndex
  3
ObjectDBX Classes
 90
        0
280
     0
281
     0
  0
CLASS
  1
IDBUFFER
  2
AcDbIdBuffer
  3
ObjectDBX Classes
 90
        0
280
     0
281
     0
  0
CLASS
  1
ACMSTANDARDJIS
  2
AcmStandardJIS
  3
"Amdt_StdImp|Product Description: AutoCAD Mechanical 2004 DX|Company: Autodesk"
 90
    32768
280
     0
281
     0
  0
CLASS
  1
ACMSURFSTANDARDJIS
  2
AcmSurfTextStdJIS
  3
"Amdt_StdImp|Product Description: AutoCAD Mechanical 2004 DX|Company: Autodesk"
 90
    32768
280
     0
281
     0
  0
CLASS
  1
ACMFCFSTANDARDJIS
  2
AcmFCFStdJIS
  3
"Amdt_StdImp|Product Description: AutoCAD Mechanical 2004 DX|Company: Autodesk"
 90
    32768
280
     0
281
     0
  0
CLASS
  1
ACMWELDSTANDARDJIS
  2
AcmWeldingStdJIS
  3
"Amdt_StdImp|Product Description: AutoCAD Mechanical 2004 DX|Company: Autodesk"
 90
    32768
280
     0
281
     0
  0
CLASS
  1
ACMIDSTANDARDJIS
  2
AcmIdStdJIS
  3
"Amdt_StdImp|Product Description: AutoCAD Mechanical 2004 DX|Company: Autodesk"
 90
    32768
280
     0
281
     0
  0
CLASS
  1
ACMDATUMSTANDARDJIS
  2
AcmDatumStdJIS
  3
"Amdt_StdImp|Product Description: AutoCAD Mechanical 2004 DX|Company: Autodesk"
 90
    32768
280
     0
281
     0
  0
CLASS
  1
ACMBOMSTANDARDJIS
  2
AcmBOMStdJIS
  3
"Amdt_StdImp|Product Description: AutoCAD Mechanical 2004 DX|Company: Autodesk"
 90
    32768
280
     0
281
     0
  0
CLASS
  1
AMDTNOTE
  2
AmdtNote
  3
"AcmSymBB|Product Description: AutoCAD Mechanical 2004 DX|Company: Autodesk"
 90
    33791
280
     0
281
     1
  0
CLASS
  1
ACMDATAENTRYPART
  2
AcmDataEntryPart
  3
"AcmSymBB|Product Description: AutoCAD Mechanical 2004 DX|Company: Autodesk"
 90
    32768
280
     0
281
     0
  0
CLASS
  1
ACMPARTREF
  2
AcmPartRef
  3
"AcmSymBB|Product Description: AutoCAD Mechanical 2004 DX|Company: Autodesk"
 90
    33791
280
     0
281
     1
  0
CLASS
  1
ACDB_PROXY_ENTITY_DATA
  2
AcDbProxyEntityData
  3
ObjectDBX Classes
 90
    32768
280
     0
281
     0
  0
CLASS
  1
TABLESTYLE
  2
AcDbTableStyle
  3
ObjectDBX Classes
 90
     2047
280
     0
281
     0
  0
CLASS
  1
ACGREFMASTER
  2
AcGrefMaster
  3
AcAttribServices
 90
        0
280
     0
281
     0
  0
CLASS
  1
AM_DRAWING_MGR
  2
AcDmDwgMgr
  3
AcMechDwgViewMgmt
 90
        0
280
     0
281
     0
  0
CLASS
  1
AM_DWG_DOCUMENT
  2
AcDmDwgDocument
  3
AcMechDwgViewMgmt
 90
        0
280
     0
281
     0
  0
CLASS
  1
AM_DWG_SHEET
  2
AcDmSheet
  3
AcMechDwgViewMgmt
 90
        0
280
     0
281
     0
  0
CLASS
  1
AM_VIEWDIMPARMAP
  2
AcDmViewDimParMap
  3
AcMechDwgViewMgmt
 90
        0
280
     0
281
     0
  0
CLASS
  1
AM_DWGMGR_NAME
  2
AcDmDwgMgrName
  3
AcMechDwgViewMgmt
 90
        0
280
     0
281
     0
  0
CLASS
  1
ACGREFACADMASTER
  2
AcGrefacadMaster
  3
AcGrefServices
 90
        0
280
     0
281
     0
  0
CLASS
  1
AMDTMENUSTATEMGR
  2
AmdtMenuStateMgr
  3
McadcomServices
 90
        0
280
     0
281
     0
  0
CLASS
  1
AMDTMCOMMENUSTATE
  2
AmdtMcomMenuState
  3
McadcomServices
 90
        0
280
     0
281
     0
  0
CLASS
  1
AMIMASTER
  2
AmiMaster
  3
AmiServices
 90
        0
280
     0
281
     0
  0
CLASS
  1
MAPIAMMOUDLE
  2
MApiAmModule
  3
MApiAmServices
 90
        0
280
     0
281
     0
  0
CLASS
  1
AMDTADMENUSTATE
  2
AmdtAdMenuState
  3
DesignerServices
 90
        0
280
     0
281
     0
  0
CLASS
  1
ADAPPL
  2
AcAdAppl
  3
DesignerServices
 90
        0
280
     0
281
     0
  0
CLASS
  1
DEPMGR
  2
AcAdDepMgr
  3
DesignerServices
 90
        0
280
     0
281
     0
  0
CLASS
  1
PARAMMGR
  2
AcAdParamMgr
  3
DesignerServices
 90
        0
280
     0
281
     0
  0
CLASS
  1
PARAMSCOPE
  2
AcAdParamScope
  3
DesignerServices
 90
        0
280
     0
281
     0
  0
CLASS
  1
NAMEDAPPL
  2
AcAdNamedAppl
  3
DesignerServices
 90
        0
280
     0
281
     0
  0
CLASS
  1
AMDTDMMENUSTATE
  2
AmdtDmMenuState
  3
AcMechDwgViewMgmt
 90
        0
280
     0
281
     0
  0
CLASS
  1
AMDTAMMENUSTATE
  2
AmdtAmMenuState
  3
DesignerAssemblies
 90
        0
280
     0
281
     0
  0
CLASS
  1
ACAMPROJECT
  2
AcAmProject
  3
DesignerAssemblies
 90
        0
280
     0
281
     0
  0
CLASS
  1
ACAMGRCOMPDEF
  2
AcAmGrCompDef
  3
DesignerAssemblies
 90
        0
280
     0
281
     0
  0
CLASS
  1
ACCMCONTEXT
  2
AcCmContext
  3
DesignerAssemblies
 90
        0
280
     0
281
     0
  0
CLASS
  1
ACAMCOMPDEF
  2
AcAmCompDef
  3
DesignerAssemblies
 90
        0
280
     0
281
     0
  0
CLASS
  1
ACAMCOMPDEFMGR
  2
AcAmCompDefMgr
  3
DesignerAssemblies
 90
        0
280
     0
281
     0
  0
CLASS
  1
AMCONTEXTMGR
  2
AcAmContextMgr
  3
DesignerAssemblies
 90
        0
280
     0
281
     0
  0
CLASS
  1
ACAMCONTEXTMODELER
  2
AcAmContextModeler
  3
DesignerAssemblies
 90
        0
280
     0
281
     0
  0
CLASS
  1
CATALOGSTATE
  2
AcAmCatalogState
  3
DesignerAssemblies
 90
        0
280
     0
281
     0
  0
CLASS
  1
ACAMGRCOMPDEFSET
  2
AcAmGrCompDefSet
  3
DesignerAssemblies
 90
        0
280
     0
281
     0
  0
CLASS
  1
AMDTBROWSERDBTAB
  2
AmdtBrowserDbTab
  3
McadcomServices
 90
        0
280
     0
281
     0
  0
CLASS
  1
CBROWSERAPPOBJECT
  2
CBrowserAppObject
  3
McadcomServices
 90
        0
280
     0
281
     0
  0
CLASS
  1
DM_PLACEHOLDER
  2
AcDmSelsetPlaceholder
  3
AcMechDwgViewMgmt
 90
        0
280
     0
281
     0
  0
CLASS
  1
ACMSTANDARDISO
  2
AcmStandardISO
  3
"Amdt_StdImp|Product Description: AutoCAD Mechanical 2004 DX|Company: Autodesk"
 90
        0
280
     0
281
     0
  0
CLASS
  1
AMDTEDGESTANDARDISO13715
  2
AmdtEdgeStdISO13715
  3
"Amdt_StdImp|Product Description: AutoCAD Mechanical 2004 DX|Company: Autodesk"
 90
        0
280
     0
281
     0
  0
CLASS
  1
ACMSURFSTANDARDISO
  2
AcmSurfTextStdISO
  3
"Amdt_StdImp|Product Description: AutoCAD Mechanical 2004 DX|Company: Autodesk"
 90
        0
280
     0
281
     0
  0
CLASS
  1
ACMFCFSTANDARDISO
  2
AcmFCFStdISO
  3
"Amdt_StdImp|Product Description: AutoCAD Mechanical 2004 DX|Company: Autodesk"
 90
        0
280
     0
281
     0
  0
CLASS
  1
ACMWELDSTANDARDISO
  2
AcmWeldingStdISO
  3
"Amdt_StdImp|Product Description: AutoCAD Mechanical 2004 DX|Company: Autodesk"
 90
        0
280
     0
281
     0
  0
CLASS
  1
ACMIDSTANDARDISO
  2
AcmIdStdISO
  3
"Amdt_StdImp|Product Description: AutoCAD Mechanical 2004 DX|Company: Autodesk"
 90
        0
280
     0
281
     0
  0
CLASS
  1
ACMDATUMSTANDARDISO
  2
AcmDatumStdISO
  3
"Amdt_StdImp|Product Description: AutoCAD Mechanical 2004 DX|Company: Autodesk"
 90
        0
280
     0
281
     0
  0
CLASS
  1
ACMBOMSTANDARDISO
  2
AcmBOMStdISO
  3
"Amdt_StdImp|Product Description: AutoCAD Mechanical 2004 DX|Company: Autodesk"
 90
        0
280
     0
281
     0
  0
CLASS
  1
ACMDETAILSTANDARDISO
  2
AmdtDetailSymStdISO
  3
"Amdt_StdImp|Product Description: AutoCAD Mechanical 2004 DX|Company: Autodesk"
 90
        0
280
     0
281
     0
  0
CLASS
  1
ACMSECTIONSTANDARDISO
  2
AmdtSectionSymStdISO
  3
"Amdt_StdImp|Product Description: AutoCAD Mechanical 2004 DX|Company: Autodesk"
 90
        0
280
     0
281
     0
  0
CLASS
  1
ACMCENTERLINESTANDARDISO
  2
AmdtCenterLineStdISO
  3
"Amdt_StdImp|Product Description: AutoCAD Mechanical 2004 DX|Company: Autodesk"
 90
        0
280
     0
281
     0
  0
CLASS
  1
ACMTHREADLINESTANDARDISO
  2
AmdtThreadLineStdISO
  3
"Amdt_StdImp|Product Description: AutoCAD Mechanical 2004 DX|Company: Autodesk"
 90
        0
280
     0
281
     0
  0
CLASS
  1
ACMNOTESTANDARDISO
  2
AmdtNoteStdISO
  3
"Amdt_StdImp|Product Description: AutoCAD Mechanical 2004 DX|Company: Autodesk"
 90
        0
280
     0
281
     0
  0
CLASS
  1
AMDTNOTETEMPLATEDB
  2
AmdtNoteTemplateDB
  3
AMDT_STDIMP_MODULE_NAME
 90
        0
280
     0
281
     0
  0
CLASS
  1
ACAMGLAYSTD
  2
AcAmgLayStd
  3
"AcAmgLayStd|Product Description: AutoCAD Mechanical 2000|Company: Autodesk"
 90
        0
280
     0
281
     0
  0
CLASS
  1
ACAMGDIMSTD
  2
AcAmgDimStd
  3
"AcAmgDimStd|Product Description: AutoCAD Mechanical 2000|Company: Autodesk"
 90
        0
280
     0
281
     0
  0
CLASS
  1
ACAMGHOLECHARTSTDISO
  2
AcAmgHoleChartStdISO
  3
ACMSYMBB_MODULE_NAME
 90
        0
280
     0
281
     0
  0
CLASS
  1
ACAMGTITLESTD
  2
AcAmgTitleStd
  3
"TITLEAPP"
 90
        0
280
     0
281
     0
  0
ENDSEC
  0
SECTION
  2
TABLES
  0
TABLE
  2
VPORT
  5
8
330
0
100
AcDbSymbolTable
 70
     4
  0
VPORT
  5
B6F9
330
8
100
AcDbSymbolTableRecord
100
AcDbViewportTableRecord
  2
*Active
 70
     0
 10
0.0
 20
0.0
 11
1.0
 21
1.0
 12
62.0485052833586
 22
-30.18632214438685
 13
0.0
 23
0.0
 14
2.5
 24
2.5
 15
10.0
 25
10.0
 16
0.0
 26
0.0
 36
1.0
 17
0.0
 27
0.0
 37
0.0
 40
121.2401513085885
 41
2.176400476758045
 42
50.0
 43
0.0
 44
0.0
 50
0.0
 51
0.0
 71
     0
 72
  2000
 73
     1
 74
     3
 75
     0
 76
     0
 77
     0
 78
     0
281
     0
 65
     0
110
0.0
120
0.0
130
0.0
111
1.0
121
0.0
131
0.0
112
0.0
122
1.0
132
0.0
 79
     0
146
0.0
  0
ENDTAB
  0
TABLE
  2
LTYPE
  5
5
330
0
100
AcDbSymbolTable
 70
    17
  0
LTYPE
  5
14
330
5
100
AcDbSymbolTableRecord
100
AcDbLinetypeTableRecord
  2
BYBLOCK
 70
     0
  3

 72
    65
 73
     0
 40
0.0
  0
LTYPE
  5
15
330
5
100
AcDbSymbolTableRecord
100
AcDbLinetypeTableRecord
  2
BYLAYER
 70
     0
  3

 72
    65
 73
     0
 40
0.0
  0
LTYPE
  5
16
330
5
100
AcDbSymbolTableRecord
100
AcDbLinetypeTableRecord
  2
CONTINUOUS
 70
     0
  3
Solid line
 72
    65
 73
     0
 40
0.0
  0
LTYPE
  5
43
330
5
100
AcDbSymbolTableRecord
100
AcDbLinetypeTableRecord
  2
AM_ISO02W050
 70
     0
  3
__ __ __ __ __ __ __ __ __ __ __ __ __ __ __
 72
    65
 73
     2
 40
7.5
 49
6.0
 74
     0
 49
-1.5
 74
     0
  0
LTYPE
  5
44
330
5
100
AcDbSymbolTableRecord
100
AcDbLinetypeTableRecord
  2
AM_ISO08W050
 70
     0
  3
____ . ____ . ____ . ____ . ____ . ____ . ____
 72
    65
 73
     4
 40
18.0
 49
12.0
 74
     0
 49
-1.5
 74
     0
 49
3.0
 74
     0
 49
-1.5
 74
     0
  0
LTYPE
  5
45
330
5
100
AcDbSymbolTableRecord
100
AcDbLinetypeTableRecord
  2
AM_ISO09W050
 70
     0
  3
_____ . . _____ . . _____ . . ____ .. ____
 72
    65
 73
     6
 40
22.5
 49
12.0
 74
     0
 49
-1.5
 74
     0
 49
3.0
 74
     0
 49
-1.5
 74
     0
 49
3.0
 74
     0
 49
-1.5
 74
     0
  0
LTYPE
  5
46
330
5
100
AcDbSymbolTableRecord
100
AcDbLinetypeTableRecord
  2
AMCONSTR
 70
     0
  3
_______________________
 72
    65
 73
     2
 40
9999.0
 49
9999.0
 74
     0
 49
0.0
 74
     0
  0
LTYPE
  5
47
330
5
100
AcDbSymbolTableRecord
100
AcDbLinetypeTableRecord
  2
AM_ISO02W050X2
 70
     0
  3
 _ _ _ _ _ _ _ _ _ _ _ _
 72
    65
 73
     2
 40
3.75
 49
3.0
 74
     0
 49
-0.75
 74
     0
  0
LTYPE
  5
48
330
5
100
AcDbSymbolTableRecord
100
AcDbLinetypeTableRecord
  2
AM_ISO08W050X2
 70
     0
  3
__ . __ . __ . __ . __ . __
 72
    65
 73
     4
 40
9.0
 49
6.0
 74
     0
 49
-0.75
 74
     0
 49
1.5
 74
     0
 49
-0.75
 74
     0
  0
LTYPE
  5
4B
330
5
100
AcDbSymbolTableRecord
100
AcDbLinetypeTableRecord
  2
AMZIGZAG
 70
     0
  3
/\/-/\/-/\/-/\/-/\/-/\/
 72
    65
 73
     2
 40
11.00009999999999
 49
0.0001
 74
     4
 75
   135
340
4A
 46
0.04
 50
0.0
 44
0.0
 45
0.0
 49
-11.0
 74
     0
  0
LTYPE
  5
B5FE
330
5
100
AcDbSymbolTableRecord
100
AcDbLinetypeTableRecord
  2
HIDDEN
 70
     0
  3
Hidden __ __ __ __ __ __ __ __ __ __ __ __ __ _
 72
    65
 73
     2
 40
9.524999999999998
 49
6.349999999999999
 74
     0
 49
-3.174999999999999
 74
     0
  0
LTYPE
  5
B5FF
330
5
100
AcDbSymbolTableRecord
100
AcDbLinetypeTableRecord
  2
PHANTOM2
 70
     0
  3
Phantom (.5x) ___ _ _ ___ _ _ ___ _ _ ___ _ _
 72
    65
 73
     6
 40
31.75
 49
15.875
 74
     0
 49
-3.174999999999999
 74
     0
 49
3.174999999999999
 74
     0
 49
-3.174999999999999
 74
     0
 49
3.174999999999999
 74
     0
 49
-3.174999999999999
 74
     0
  0
LTYPE
  5
B600
330
5
100
AcDbSymbolTableRecord
100
AcDbLinetypeTableRecord
  2
CENTER
 70
     0
  3
Center ____ _ ____ _ ____ _ ____ _ ____ _ ____
 72
    65
 73
     4
 40
50.8
 49
31.75
 74
     0
 49
-6.349999999999999
 74
     0
 49
6.349999999999999
 74
     0
 49
-6.349999999999999
 74
     0
  0
LTYPE
  5
B640
330
5
100
AcDbSymbolTableRecord
100
AcDbLinetypeTableRecord
  2
ACISOWELD
 70
     0
  3
_ _ _ _ _
 72
    65
 73
     2
 40
2.0
 49
2.0
 74
     0
 49
-1.0
 74
     0
  0
LTYPE
  5
B641
330
5
100
AcDbSymbolTableRecord
100
AcDbLinetypeTableRecord
  2
ACISOTGB
 70
     0
  3
__ . . __ . .
 72
    65
 73
     6
 40
9.0
 49
4.0
 74
     0
 49
-1.0
 74
     0
 49
1.0
 74
     0
 49
-1.0
 74
     0
 49
1.0
 74
     0
 49
-1.0
 74
     0
  0
LTYPE
  5
B642
330
5
100
AcDbSymbolTableRecord
100
AcDbLinetypeTableRecord
  2
ACISOTGL
 70
     0
  3
_ _ _ _ _
 72
    65
 73
     2
 40
3.0
 49
2.0
 74
     0
 49
-1.0
 74
     0
  0
ENDTAB
  0
TABLE
  2
LAYER
  5
2
330
0
100
AcDbSymbolTable
 70
    13
  0
LAYER
  5
10
330
2
100
AcDbSymbolTableRecord
100
AcDbLayerTableRecord
  2
0
 70
     0
 62
     7
  6
CONTINUOUS
370
    -3
390
F
  0
LAYER
  5
7D
330
2
100
AcDbSymbolTableRecord
100
AcDbLayerTableRecord
  2
AM_5
 70
     0
 62
     3
  6
CONTINUOUS
370
    -3
390
F
  0
LAYER
  5
7F
330
2
100
AcDbSymbolTableRecord
100
AcDbLayerTableRecord
  2
DEFPOINTS
 70
     0
 62
     7
  6
CONTINUOUS
290
     0
370
    -3
390
F
  0
LAYER
  5
12B1
330
2
100
AcDbSymbolTableRecord
100
AcDbLayerTableRecord
  2
AM_0
 70
     0
 62
     7
  6
CONTINUOUS
370
    -3
390
F
  0
LAYER
  5
2222
330
2
100
AcDbSymbolTableRecord
100
AcDbLayerTableRecord
  2
AM_6
 70
     0
 62
     2
  6
CONTINUOUS
370
    -3
390
F
  0
LAYER
  5
7DB2
330
2
100
AcDbSymbolTableRecord
100
AcDbLayerTableRecord
  2
AM_7
 70
     0
 62
     4
  6
AM_ISO08W050
370
    -3
390
F
  0
ENDTAB
  0
TABLE
  2
STYLE
  5
3
330
0
100
AcDbSymbolTable
 70
     6
  0
STYLE
  5
11
330
3
100
AcDbSymbolTableRecord
100
AcDbTextStyleTableRecord
  2
STANDARD
 70
     0
 40
0.0
 41
1.0
 50
0.0
 71
     0
 42
2.5
  3
ISOCP.SHX
  4
EXTFONT.SHX
  0
STYLE
  5
4A
330
3
100
AcDbSymbolTableRecord
100
AcDbTextStyleTableRecord
  2

 70
     1
 40
0.0
 41
1.0
 50
0.0
 71
     0
 42
2.5
  3
ltypeshp.shx
  4

  0
STYLE
  5
B632
330
3
100
AcDbSymbolTableRecord
100
AcDbTextStyleTableRecord
  2
ACISOTS
 70
     0
 40
1.0
 41
1.0
 50
0.0
 71
     0
 42
2.5
  3
isocp.shx
  4
extfont.shx
  0
STYLE
  5
B63F
330
3
100
AcDbSymbolTableRecord
100
AcDbTextStyleTableRecord
  2
ACISOGDT
 70
     0
 40
0.0
 41
1.0
 50
0.0
 71
     0
 42
2.5
  3
amgdt.shx
  4

  0
ENDTAB
  0
TABLE
  2
VIEW
  5
6
330
0
100
AcDbSymbolTable
 70
     6
  0
VIEW
  5
A30
330
6
100
AcDbSymbolTableRecord
100
AcDbViewTableRecord
  2
AM_VIEW1
 70
     0
 40
148.5
 10
112.0719649561952
 20
222.75
 41
224.1439299123904
 11
0.0
 21
0.0
 31
1.0
 12
0.0
 22
0.0
 32
0.0
 42
50.0
 43
0.0
 44
0.0
 50
0.0
 71
     0
281
     0
 72
     0
  0
VIEW
  5
A31
330
6
100
AcDbSymbolTableRecord
100
AcDbViewTableRecord
  2
AM_VIEW2
 70
     0
 40
148.5
 10
307.9280350438047
 20
222.75
 41
224.1439299123904
 11
0.0
 21
0.0
 31
1.0
 12
0.0
 22
0.0
 32
0.0
 42
50.0
 43
0.0
 44
0.0
 50
0.0
 71
     0
281
     0
 72
     0
  0
VIEW
  5
A32
330
6
100
AcDbSymbolTableRecord
100
AcDbViewTableRecord
  2
AM_VIEW3
 70
     0
 40
148.5
 10
112.0719649561952
 20
74.25
 41
224.1439299123904
 11
0.0
 21
0.0
 31
1.0
 12
0.0
 22
0.0
 32
0.0
 42
50.0
 43
0.0
 44
0.0
 50
0.0
 71
     0
281
     0
 72
     0
  0
VIEW
  5
A33
330
6
100
AcDbSymbolTableRecord
100
AcDbViewTableRecord
  2
AM_VIEW4
 70
     0
 40
148.5
 10
307.9280350438047
 20
74.25
 41
224.1439299123904
 11
0.0
 21
0.0
 31
1.0
 12
0.0
 22
0.0
 32
0.0
 42
50.0
 43
0.0
 44
0.0
 50
0.0
 71
     0
281
     0
 72
     0
  0
VIEW
  5
A34
330
6
100
AcDbSymbolTableRecord
100
AcDbViewTableRecord
  2
AM_VIEW5
 70
     0
 40
148.5
 10
210.0
 20
148.5
 41
224.1439299123904
 11
0.0
 21
0.0
 31
1.0
 12
0.0
 22
0.0
 32
0.0
 42
50.0
 43
0.0
 44
0.0
 50
0.0
 71
     0
281
     0
 72
     0
  0
VIEW
  5
A35
330
6
100
AcDbSymbolTableRecord
100
AcDbViewTableRecord
  2
AM_VIEW6
 70
     0
 40
296.9970299999999
 10
210.0
 20
148.5
 41
448.2833769461826
 11
0.0
 21
0.0
 31
1.0
 12
0.0
 22
0.0
 32
0.0
 42
50.0
 43
0.0
 44
0.0
 50
0.0
 71
     0
281
     0
 72
     0
  0
ENDTAB
  0
TABLE
  2
UCS
  5
7
330
0
100
AcDbSymbolTable
 70
     0
  0
ENDTAB
  0
TABLE
  2
APPID
  5
9
330
0
100
AcDbSymbolTable
 70
    42
  0
APPID
  5
12
330
9
100
AcDbSymbolTableRecord
100
AcDbRegAppTableRecord
  2
ACAD
 70
     0
  0
APPID
  5
2C
330
9
100
AcDbSymbolTableRecord
100
AcDbRegAppTableRecord
  2
MCAD_NO_VIS
 70
     0
  0
APPID
  5
2D
330
9
100
AcDbSymbolTableRecord
100
AcDbRegAppTableRecord
  2
ACAD_TEMP_GRAPHIC
 70
     0
  0
APPID
  5
B9
330
9
100
AcDbSymbolTableRecord
100
AcDbRegAppTableRecord
  2
GENIUS_GENDTOL_13
 70
     0
  0
APPID
  5
359
330
9
100
AcDbSymbolTableRecord
100
AcDbRegAppTableRecord
  2
GENIUS_GENREC_14
 70
     0
  0
APPID
  5
35A
330
9
100
AcDbSymbolTableRecord
100
AcDbRegAppTableRecord
  2
GENIUS_GENODEF_13
 70
     0
  0
APPID
  5
35B
330
9
100
AcDbSymbolTableRecord
100
AcDbRegAppTableRecord
  2
GENIUS_GENOBJ-N-REC_13
 70
     0
  0
APPID
  5
667
330
9
100
AcDbSymbolTableRecord
100
AcDbRegAppTableRecord
  2
GENIUS_GENCFG_13
 70
     0
  0
APPID
  5
668
330
9
100
AcDbSymbolTableRecord
100
AcDbRegAppTableRecord
  2
GENIUS_GENCFG0_13
 70
     0
  0
APPID
  5
669
330
9
100
AcDbSymbolTableRecord
100
AcDbRegAppTableRecord
  2
GENIUS_GENCFG1_13
 70
     0
  0
APPID
  5
66A
330
9
100
AcDbSymbolTableRecord
100
AcDbRegAppTableRecord
  2
GENIUS_GENCFG2_13
 70
     0
  0
APPID
  5
66B
330
9
100
AcDbSymbolTableRecord
100
AcDbRegAppTableRecord
  2
GENIUS_GENCFG3_13
 70
     0
  0
APPID
  5
66C
330
9
100
AcDbSymbolTableRecord
100
AcDbRegAppTableRecord
  2
GENIUS_GENCFG4_13
 70
     0
  0
APPID
  5
A76
330
9
100
AcDbSymbolTableRecord
100
AcDbRegAppTableRecord
  2
GENIUS_GENBLLY_14
 70
     0
  0
APPID
  5
A77
330
9
100
AcDbSymbolTableRecord
100
AcDbRegAppTableRecord
  2
GENIUS_GENOBJ-N-CEN_13
 70
     0
  0
APPID
  5
A83
330
9
100
AcDbSymbolTableRecord
100
AcDbRegAppTableRecord
  2
GENIUS_GENTRA_14
 70
     0
  0
APPID
  5
A8D
330
9
100
AcDbSymbolTableRecord
100
AcDbRegAppTableRecord
  2
GENIUS_GENOBJ-N-TIT_13
 70
     0
  0
APPID
  5
A8E
330
9
100
AcDbSymbolTableRecord
100
AcDbRegAppTableRecord
  2
GENIUS_GENTITLE_13
 70
     0
  0
APPID
  5
A8F
330
9
100
AcDbSymbolTableRecord
100
AcDbRegAppTableRecord
  2
GENIUS_GENOENT_13
 70
     0
  0
APPID
  5
A90
330
9
100
AcDbSymbolTableRecord
100
AcDbRegAppTableRecord
  2
GENIUS_GENOREF_13
 70
     0
  0
APPID
  5
A91
330
9
100
AcDbSymbolTableRecord
100
AcDbRegAppTableRecord
  2
GENIUS_GENOLIS_13
 70
     0
  0
APPID
  5
A92
330
9
100
AcDbSymbolTableRecord
100
AcDbRegAppTableRecord
  2
GENIUS_GENZVEED_13
 70
     0
  0
APPID
  5
A93
330
9
100
AcDbSymbolTableRecord
100
AcDbRegAppTableRecord
  2
GENIUS_GENSCREG_15
 70
     0
  0
APPID
  5
A94
330
9
100
AcDbSymbolTableRecord
100
AcDbRegAppTableRecord
  2
GENIUS_GENOBJ-N-SDF_13
 70
     0
  0
APPID
  5
12B5
330
9
100
AcDbSymbolTableRecord
100
AcDbRegAppTableRecord
  2
GENIUS_GENOBJ-N-RSBK_13
 70
     0
  0
APPID
  5
12B6
330
9
100
AcDbSymbolTableRecord
100
AcDbRegAppTableRecord
  2
GENIUS_GENOBJ-N-LIB_13
 70
     0
  0
APPID
  5
12B7
330
9
100
AcDbSymbolTableRecord
100
AcDbRegAppTableRecord
  2
GENIUS_GENSCALE_13
 70
     0
  0
APPID
  5
12B8
330
9
100
AcDbSymbolTableRecord
100
AcDbRegAppTableRecord
  2
GENIUS_GENOBJ-N-HTC_13
 70
     0
  0
APPID
  5
12B9
330
9
100
AcDbSymbolTableRecord
100
AcDbRegAppTableRecord
  2
GENIUS_GENHATCH_13
 70
     0
  0
APPID
  5
1C0A
330
9
100
AcDbSymbolTableRecord
100
AcDbRegAppTableRecord
  2
BASE_TYPE
 70
     0
  0
APPID
  5
276B
330
9
100
AcDbSymbolTableRecord
100
AcDbRegAppTableRecord
  2
GENIUS_GENOBJ-N-FIL_13
 70
     0
  0
APPID
  5
3640
330
9
100
AcDbSymbolTableRecord
100
AcDbRegAppTableRecord
  2
GENIUS_GENBH_13
 70
     0
  0
APPID
  5
36D1
330
9
100
AcDbSymbolTableRecord
100
AcDbRegAppTableRecord
  2
GENIUS_GENOBJ-F-SPR_13
 70
     0
  0
APPID
  5
36DA
330
9
100
AcDbSymbolTableRecord
100
AcDbRegAppTableRecord
  2
GENIUS_GEFSPRING_13
 70
     0
  0
APPID
  5
36DB
330
9
100
AcDbSymbolTableRecord
100
AcDbRegAppTableRecord
  2
GENIUS_GEFSPRINGP_13
 70
     0
  0
APPID
  5
4D67
330
9
100
AcDbSymbolTableRecord
100
AcDbRegAppTableRecord
  2
GENIUS_GENFIL_13
 70
     0
  0
APPID
  5
4D68
330
9
100
AcDbSymbolTableRecord
100
AcDbRegAppTableRecord
  2
GENIUS_GENOBJ-N-CHA_13
 70
     0
  0
APPID
  5
B602
330
9
100
AcDbSymbolTableRecord
100
AcDbRegAppTableRecord
  2
AD_DRAW
 70
     0
  0
APPID
  5
B605
330
9
100
AcDbSymbolTableRecord
100
AcDbRegAppTableRecord
  2
ACATTRIBSERVICES
 70
     0
  0
APPID
  5
B623
330
9
100
AcDbSymbolTableRecord
100
AcDbRegAppTableRecord
  2
DESIGNERASSEMBLIES
 70
     0
  0
APPID
  5
B628
330
9
100
AcDbSymbolTableRecord
100
AcDbRegAppTableRecord
  2
ACADM_DIM_EDIT
 70
     0
  0
APPID
  5
B629
330
9
100
AcDbSymbolTableRecord
100
AcDbRegAppTableRecord
  2
AMDT_DM_ADJ
 70
     0
  0
ENDTAB
  0
TABLE
  2
DIMSTYLE
  5
A
330
0
100
AcDbSymbolTable
 70
    20
100
AcDbDimStyleTable
 71
     0
  0
DIMSTYLE
105
58
330
A
100
AcDbSymbolTableRecord
100
AcDbDimStyleTableRecord
  2
AM_JIS
 70
     0
  4
"
 41
2.5
 42
0.0
 43
10.0
 44
1.0
 47
0.1
 48
0.1000000001
 73
     0
 74
     0
 77
     3
 78
     9
140
3.799999999999998
141
0.0
143
0.0393701
146
0.71
147
1.5
172
     1
176
   256
177
   256
178
     2
271
     2
272
     2
275
     1
283
     0
284
     8
340
11
341
59
342
59
  0
DIMSTYLE
105
65F
330
A
100
AcDbSymbolTableRecord
100
AcDbDimStyleTableRecord
  2
STANDARD
 70
     0
340
11
  0
DIMSTYLE
105
1761
102
{ACAD_REACTORS
330
B0B8
330
B130
330
B266
330
B284
330
B291
330
B37F
102
}
330
A
100
AcDbSymbolTableRecord
100
AcDbDimStyleTableRecord
  2
AM_JIS$0
 70
     0
  4
"
 41
2.5
 42
0.0
 43
10.0
 44
1.0
 47
0.1
 48
0.1000000001
 73
     0
 74
     0
 77
     3
 78
     9
140
3.799999999999998
141
0.0
143
0.0393701
146
0.71
147
1.5
172
     1
176
     3
177
     3
178
     2
271
     2
272
     2
275
     1
283
     0
284
     8
340
11
341
59
342
59
  0
DIMSTYLE
105
1762
102
{ACAD_REACTORS
330
B1BF
330
B29E
102
}
330
A
100
AcDbSymbolTableRecord
100
AcDbDimStyleTableRecord
  2
AM_JIS$2
 70
     0
  4
"
 41
2.5
 42
0.0
 43
10.0
 44
1.0
 47
0.1
 48
0.1000000001
 73
     0
 74
     0
 77
     3
 78
     9
140
3.799999999999998
141
0.0
143
0.0393701
146
0.71
147
1.5
172
     1
176
     3
177
     3
178
     2
271
     2
272
     2
275
     1
283
     0
284
     8
340
11
341
59
342
59
  0
DIMSTYLE
105
B64B
330
A
100
AcDbSymbolTableRecord
100
AcDbDimStyleTableRecord
  2
AM_ISO
 70
     0
  4
"
 41
2.5
 42
1.0
 43
10.0
 44
1.0
 47
0.1
 48
0.1
 73
     0
 74
     0
 77
     1
 78
     8
 79
     2
140
3.5
141
0.0
143
0.0393701
146
0.71
147
1.5
172
     1
176
   256
177
   256
178
     2
271
     2
272
     3
274
     4
283
     0
284
     8
340
11
371
    -1
372
    -1
  0
DIMSTYLE
105
B64C
330
A
100
AcDbSymbolTableRecord
100
AcDbDimStyleTableRecord
  2
AM_ISO$3
 70
     0
  4
"
 41
2.5
 42
1.0
 43
10.0
 44
1.0
 47
0.1
 48
0.1
 73
     0
 77
     1
 78
     8
 79
     2
140
3.5
141
0.0
143
0.0393701
146
0.71
147
1.5
176
   256
177
   256
178
     2
271
     2
272
     3
274
     4
283
     0
284
     8
288
     1
289
     0
340
11
371
    -1
372
    -1
  0
DIMSTYLE
105
B64D
330
A
100
AcDbSymbolTableRecord
100
AcDbDimStyleTableRecord
  2
AM_ISO$4
 70
     0
  4
"
 41
2.5
 42
1.0
 43
10.0
 44
1.0
 47
0.1
 48
0.1
 73
     0
 77
     1
 78
     8
 79
     2
140
3.5
141
0.0
143
0.0393701
146
0.71
147
1.5
176
   256
177
   256
178
     2
271
     2
272
     3
274
     4
283
     0
284
     8
288
     1
289
     0
340
11
371
    -1
372
    -1
  0
DIMSTYLE
105
B64E
330
A
100
AcDbSymbolTableRecord
100
AcDbDimStyleTableRecord
  2
AM_ISO$6
 70
     0
  4
"
 41
2.5
 42
1.0
 43
10.0
 44
1.0
 47
0.1
 48
0.1
 73
     0
 74
     0
 78
     8
 79
     2
140
3.5
141
0.0
143
0.0393701
146
0.71
147
1.5
172
     1
176
   256
177
   256
178
     2
271
     2
272
     3
274
     4
283
     0
284
     8
340
11
371
    -1
372
    -1
  0
DIMSTYLE
105
B64F
330
A
100
AcDbSymbolTableRecord
100
AcDbDimStyleTableRecord
  2
AM_ISO$7
 70
     0
  4
"
 41
2.5
 42
1.0
 43
10.0
 44
1.0
 47
0.1
 48
0.1
 73
     0
 74
     0
 77
     1
 78
     8
 79
     2
140
5.0
141
0.0
143
0.0393701
146
0.71
147
1.5
172
     1
176
   256
177
   256
178
     2
271
     2
272
     3
274
     4
283
     0
284
     8
340
11
371
    -1
372
    -1
  0
DIMSTYLE
105
B650
330
A
100
AcDbSymbolTableRecord
100
AcDbDimStyleTableRecord
  2
AM_ISO$SF
 70
     0
  4
"
 41
2.5
 42
1.0
 43
10.0
 44
1.0
 47
0.1
 48
0.1
 73
     0
 74
     0
 75
     1
 76
     1
 77
     1
 78
     8
 79
     2
140
3.5
141
0.0
143
0.0393701
146
0.71
147
1.5
172
     1
176
   256
177
   256
178
     2
271
     2
272
     3
274
     4
283
     0
284
     8
340
11
371
    -1
372
    -1
  0
DIMSTYLE
105
B651
330
A
100
AcDbSymbolTableRecord
100
AcDbDimStyleTableRecord
  2
AM_ISO$SH
 70
     0
  4
"
 41
2.5
 42
1.0
 43
10.0
 44
1.0
 47
0.1
 48
0.1
 73
     0
 74
     0
 75
     1
 76
     1
 77
     1
 78
     8
 79
     2
140
3.5
141
0.0
143
0.0393701
144
2.0
146
0.71
147
1.5
172
     1
173
     1
176
   256
177
   256
178
     2
271
     2
272
     3
274
     4
283
     0
284
     8
340
11
343
64
371
    -1
372
    -1
  0
ENDTAB
  0
TABLE
  2
BLOCK_RECORD
  5
1
330
0
100
AcDbSymbolTable
 70
    20
  0
BLOCK_RECORD
  5
1F
102
{ACAD_XDICTIONARY
360
165
102
}
330
1
100
AcDbSymbolTableRecord
100
AcDbBlockTableRecord
  2
*MODEL_SPACE
340
B5CA
  0
BLOCK_RECORD
  5
1B
102
{ACAD_XDICTIONARY
360
B5A3
102
}
330
1
100
AcDbSymbolTableRecord
100
AcDbBlockTableRecord
  2
*PAPER_SPACE
340
B5CB
  0
BLOCK_RECORD
  5
59
330
1
100
AcDbSymbolTableRecord
100
AcDbBlockTableRecord
  2
_OPEN30
340
0
102
{BLKREFS
331
B6A8
331
B6A9
331
B6B1
331
B6B2
331
B6BC
331
B6C6
331
B6C7
331
B6CF
331
B6D0
331
B6D8
331
B6D9
331
B6E2
331
B6E3
331
B6EF
331
B6F0
102
}
  0
BLOCK_RECORD
  5
64
330
1
100
AcDbSymbolTableRecord
100
AcDbBlockTableRecord
  2
GENAXEH
340
0
  0
BLOCK_RECORD
  5
80B7
330
1
100
AcDbSymbolTableRecord
100
AcDbBlockTableRecord
  2
_NONE
340
0
  0
BLOCK_RECORD
  5
B0B9
330
1
100
AcDbSymbolTableRecord
100
AcDbBlockTableRecord
  2
*D10
340
0
  0
BLOCK_RECORD
  5
B131
330
1
100
AcDbSymbolTableRecord
100
AcDbBlockTableRecord
  2
*D11
340
0
  0
BLOCK_RECORD
  5
B1C0
330
1
100
AcDbSymbolTableRecord
100
AcDbBlockTableRecord
  2
*D13
340
0
  0
BLOCK_RECORD
  5
B267
330
1
100
AcDbSymbolTableRecord
100
AcDbBlockTableRecord
  2
*D14
340
0
  0
BLOCK_RECORD
  5
B285
330
1
100
AcDbSymbolTableRecord
100
AcDbBlockTableRecord
  2
*D15
340
0
  0
BLOCK_RECORD
  5
B292
330
1
100
AcDbSymbolTableRecord
100
AcDbBlockTableRecord
  2
*D16
340
0
  0
BLOCK_RECORD
  5
B29F
330
1
100
AcDbSymbolTableRecord
100
AcDbBlockTableRecord
  2
*D17
340
0
  0
BLOCK_RECORD
  5
B380
330
1
100
AcDbSymbolTableRecord
100
AcDbBlockTableRecord
  2
*D18
340
0
  0
ENDTAB
  0
ENDSEC
  0
SECTION
  2
BLOCKS
  0
BLOCK
  5
20
330
1F
100
AcDbEntity
  8
0
100
AcDbBlockBegin
  2
*MODEL_SPACE
 70
     0
 10
0.0
 20
0.0
 30
0.0
  3
*MODEL_SPACE
  1

  0
ENDBLK
  5
21
330
1F
100
AcDbEntity
  8
0
100
AcDbBlockEnd
  0
BLOCK
  5
1C
330
1B
100
AcDbEntity
 67
     1
  8
0
100
AcDbBlockBegin
  2
*PAPER_SPACE
 70
     0
 10
0.0
 20
0.0
 30
0.0
  3
*PAPER_SPACE
  1

  0
ENDBLK
  5
1D
330
1B
100
AcDbEntity
 67
     1
  8
0
100
AcDbBlockEnd
  0
BLOCK
  5
5D
330
59
100
AcDbEntity
  8
0
100
AcDbBlockBegin
  2
_OPEN30
 70
     0
 10
0.0
 20
0.0
 30
0.0
  3
_OPEN30
  1

  0
LINE
  5
5A
330
59
100
AcDbEntity
  8
0
 62
     0
100
AcDbLine
 10
-1.0
 20
0.26794919
 30
0.0
 11
0.0
 21
0.0
 31
0.0
  0
LINE
  5
5B
330
59
100
AcDbEntity
  8
0
 62
     0
100
AcDbLine
 10
0.0
 20
0.0
 30
0.0
 11
-1.0
 21
-0.26794919
 31
0.0
  0
LINE
  5
5C
330
59
100
AcDbEntity
  8
0
 62
     0
100
AcDbLine
 10
0.0
 20
0.0
 30
0.0
 11
-1.0
 21
0.0
 31
0.0
  0
ENDBLK
  5
5E
330
59
100
AcDbEntity
  8
0
100
AcDbBlockEnd
  0
BLOCK
  5
66
330
64
100
AcDbEntity
  8
0
100
AcDbBlockBegin
  2
GENAXEH
 70
     0
 10
0.0
 20
0.0
 30
0.0
  3
GENAXEH
  1

  0
LINE
  5
65
330
64
100
AcDbEntity
  8
0
100
AcDbLine
 10
-1.0
 20
0.0
 30
0.0
 11
1.0
 21
0.0
 31
0.0
  0
ENDBLK
  5
67
330
64
100
AcDbEntity
  8
0
100
AcDbBlockEnd
  0
BLOCK
  5
80B8
330
80B7
100
AcDbEntity
  8
0
100
AcDbBlockBegin
  2
_NONE
 70
     0
 10
0.0
 20
0.0
 30
0.0
  3
_NONE
  1

  0
ENDBLK
  5
80B9
330
80B7
100
AcDbEntity
  8
0
100
AcDbBlockEnd
  0
BLOCK
  5
B0C3
330
B0B9
100
AcDbEntity
  8
0
100
AcDbBlockBegin
  2
*D10
 70
     1
 10
0.0
 20
0.0
 30
0.0
  3
*D10
  1

  0
LINE
  5
B6A5
330
B0B9
100
AcDbEntity
  8
AM_5
 62
     3
370
    -2
100
AcDbLine
 10
2.903485625587438
 20
-72.97857075358073
 30
0.0
 11
-24.41067236724368
 21
-72.97857075358073
 31
0.0
  0
LINE
  5
B6A6
330
B0B9
100
AcDbEntity
  8
AM_5
 62
     3
370
    -2
100
AcDbLine
 10
0.0034852827369805
 20
-47.97856957049895
 30
0.0
 11
-24.41067236724368
 21
-47.97856957049894
 31
0.0
  0
LINE
  5
B6A7
330
B0B9
100
AcDbEntity
  8
AM_5
 62
     3
370
    -2
100
AcDbLine
 10
-23.41067236724368
 20
-70.47857075358073
 30
0.0
 11
-23.41067236724368
 21
-50.47856957049894
 31
0.0
  0
INSERT
  5
B6A8
330
B0B9
100
AcDbEntity
  8
AM_5
 62
     3
370
    -2
100
AcDbBlockReference
  2
_OPEN30
 10
-23.41067236724368
 20
-72.97857075358073
 30
0.0
 41
2.5
 42
2.5
 43
2.5
 50
270.0
  0
INSERT
  5
B6A9
330
B0B9
100
AcDbEntity
  8
AM_5
 62
     3
370
    -2
100
AcDbBlockReference
  2
_OPEN30
 10
-23.41067236724368
 20
-47.97856957049894
 30
0.0
 41
2.5
 42
2.5
 43
2.5
 50
90.0
  0
MTEXT
  5
B6AA
330
B0B9
100
AcDbEntity
  8
AM_5
 62
     2
100
AcDbMText
 10
-26.8110463829917
 20
-60.47857016203984
 30
0.0
 40
3.799999999999998
 41
0.0
 71
     5
 72
     1
  1
25
 11
0.0000000000000001
 21
1.0
 31
0.0
 73
     1
 44
1.0
1001
ACAD
1000
MTEXTBEGIN
1070
    73
1070
     1
1070
    44
1040
1.0
1070
    74
1070
     0
1000
MTEXTEND
  0
POINT
  5
B6AB
330
B0B9
100
AcDbEntity
  8
DEFPOINTS
 62
     0
100
AcDbPoint
 10
2.903485625587438
 20
-72.97857075358073
 30
0.0
  0
POINT
  5
B6AC
330
B0B9
100
AcDbEntity
  8
DEFPOINTS
 62
     0
100
AcDbPoint
 10
0.0034852827369805
 20
-47.97856957049895
 30
0.0
  0
POINT
  5
B6AD
330
B0B9
100
AcDbEntity
  8
DEFPOINTS
 62
     0
100
AcDbPoint
 10
-23.41067236724368
 20
-47.97856957049894
 30
0.0
  0
ENDBLK
  5
B0C4
330
B0B9
100
AcDbEntity
  8
0
100
AcDbBlockEnd
  0
BLOCK
  5
B13B
330
B131
100
AcDbEntity
  8
0
100
AcDbBlockBegin
  2
*D11
 70
     1
 10
0.0
 20
0.0
 30
0.0
  3
*D11
  1

  0
LINE
  5
B6AE
330
B131
100
AcDbEntity
  8
AM_5
 62
     3
370
    -2
100
AcDbLine
 10
150.0034856255873
 20
-47.97857075358074
 30
0.0
 11
150.0034856255873
 21
-21.93873758880685
 31
0.0
  0
LINE
  5
B6AF
330
B131
100
AcDbEntity
  8
AM_5
 62
     3
370
    -2
100
AcDbLine
 10
0.0034852827369805
 20
-47.97856957049895
 30
0.0
 11
0.0034852827369821
 21
-21.93873758880685
 31
0.0
  0
LINE
  5
B6B0
330
B131
100
AcDbEntity
  8
AM_5
 62
     3
370
    -2
100
AcDbLine
 10
147.5034856255873
 20
-22.93873758880685
 30
0.0
 11
2.503485282736982
 21
-22.93873758880685
 31
0.0
  0
INSERT
  5
B6B1
330
B131
100
AcDbEntity
  8
AM_5
 62
     3
370
    -2
100
AcDbBlockReference
  2
_OPEN30
 10
150.0034856255873
 20
-22.93873758880685
 30
0.0
 41
2.5
 42
2.5
 43
2.5
  0
INSERT
  5
B6B2
330
B131
100
AcDbEntity
  8
AM_5
 62
     3
370
    -2
100
AcDbBlockReference
  2
_OPEN30
 10
0.003485282736982
 20
-22.93873758880685
 30
0.0
 41
2.5
 42
2.5
 43
2.5
 50
180.0
  0
MTEXT
  5
B6B3
330
B131
100
AcDbEntity
  8
AM_5
 62
     2
100
AcDbMText
 10
62.50348545416221
 20
-19.53873758880685
 30
0.0
 40
3.799999999999998
 41
0.0
 71
     5
 72
     1
  1
150
 73
     1
 44
1.0
1001
ACAD
1000
MTEXTBEGIN
1070
    73
1070
     1
1070
    44
1040
1.0
1070
    74
1070
     0
1000
MTEXTEND
  0
POINT
  5
B6B4
330
B131
100
AcDbEntity
  8
DEFPOINTS
 62
     0
100
AcDbPoint
 10
150.0034856255873
 20
-47.97857075358074
 30
0.0
  0
POINT
  5
B6B5
330
B131
100
AcDbEntity
  8
DEFPOINTS
 62
     0
100
AcDbPoint
 10
0.0034852827369805
 20
-47.97856957049895
 30
0.0
  0
POINT
  5
B6B6
330
B131
100
AcDbEntity
  8
DEFPOINTS
 62
     0
100
AcDbPoint
 10
0.003485282736982
 20
-22.93873758880685
 30
0.0
  0
ENDBLK
  5
B13C
330
B131
100
AcDbEntity
  8
0
100
AcDbBlockEnd
  0
BLOCK
  5
B1CF
330
B1C0
100
AcDbEntity
  8
0
100
AcDbBlockBegin
  2
*D13
 70
     1
 10
0.0
 20
0.0
 30
0.0
  3
*D13
  1

  0
LINE
  5
B6B7
330
B1C0
100
AcDbEntity
  8
AM_5
 62
     3
370
    -2
100
AcDbLine
 10
0.00348528273698
 20
-47.97856957049895
 30
0.0
 11
-24.03976645422627
 21
-43.73909558530646
 31
0.0
  0
LINE
  5
B6B8
330
B1C0
100
AcDbEntity
  8
AM_5
 62
     3
370
    -2
100
AcDbLine
 10
-12.92489607981457
 20
-47.97856957049895
 30
0.0
 11
-24.4106723672437
 21
-47.97856957049894
 31
0.0
  0
ARC
  5
B6B9
330
B1C0
100
AcDbEntity
  8
AM_5
 62
     3
370
    -2
100
AcDbCircle
 10
0.00348528273698
 20
-47.97856957049895
 30
0.0
 40
23.41415764998068
100
AcDbArc
 50
163.8794476439186
 51
169.9999999999995
  0
LINE
  5
B6BA
330
B1C0
100
AcDbEntity
  8
AM_5
 62
     3
370
    -2
100
AcDbLine
 10
-22.49001874048008
 20
-41.47741158013551
 30
0.0
 11
-19.28305413764461
 21
-30.38156199408938
 31
0.0
  0
ARC
  5
B6BB
330
B1C0
100
AcDbEntity
  8
AM_5
 62
     3
370
    -2
100
AcDbCircle
 10
0.00348528273698
 20
-47.97856957049895
 30
0.0
 40
23.41415764998068
100
AcDbArc
 50
176.1205523560804
 51
180.0
  0
INSERT
  5
B6BC
330
B1C0
100
AcDbEntity
  8
AM_5
 62
     3
370
    -2
100
AcDbBlockReference
  2
_OPEN30
 10
-23.05495870121406
 20
-43.91274376297339
 30
0.0
 41
2.5
 42
2.5
 43
2.5
 50
83.06027617803996
  0
MTEXT
  5
B6BD
330
B1C0
100
AcDbEntity
  8
AM_5
 62
     2
100
AcDbMText
 10
-24.15284713971663
 20
-34.98544525900504
 30
0.0
 40
3.799999999999998
 41
0.0
 71
     5
 72
     1
  1
10°
 11
0.2776592729727684
 21
0.9606796178394928
 31
0.0
 73
     1
 44
1.0
1001
ACAD
1000
MTEXTBEGIN
1070
    73
1070
     1
1070
    44
1040
1.0
1070
    74
1070
     0
1000
MTEXTEND
  0
POINT
  5
B6BE
330
B1C0
100
AcDbEntity
  8
DEFPOINTS
 62
     0
100
AcDbPoint
 10
-23.37105931828835
 20
-46.61715737985786
 30
0.0
  0
POINT
  5
B6BF
330
B1C0
100
AcDbEntity
  8
DEFPOINTS
 62
     0
100
AcDbPoint
 10
0.00348528273698
 20
-47.97856957049895
 30
0.0
  0
POINT
  5
B6C0
330
B1C0
100
AcDbEntity
  8
DEFPOINTS
 62
     0
100
AcDbPoint
 10
0.00348528273698
 20
-47.97856957049895
 30
0.0
  0
POINT
  5
B6C1
330
B1C0
100
AcDbEntity
  8
DEFPOINTS
 62
     0
100
AcDbPoint
 10
0.5171818141401641
 20
-48.0691481288817
 30
0.0
  0
POINT
  5
B6C2
330
B1C0
100
AcDbEntity
  8
DEFPOINTS
 62
     0
100
AcDbPoint
 10
-12.92489607981457
 20
-47.97856957049895
 30
0.0
  0
ENDBLK
  5
B1D0
330
B1C0
100
AcDbEntity
  8
0
100
AcDbBlockEnd
  0
BLOCK
  5
B271
330
B267
100
AcDbEntity
  8
0
100
AcDbBlockBegin
  2
*D14
 70
     1
 10
0.0
 20
0.0
 30
0.0
  3
*D14
  1

  0
LINE
  5
B6C3
330
B267
100
AcDbEntity
  8
AM_5
 62
     3
370
    -2
100
AcDbLine
 10
0.0999319874208996
 20
0.0
 30
0.0
 11
-25.03958958837876
 21
0.0000000000000071
 31
0.0
  0
LINE
  5
B6C4
330
B267
100
AcDbEntity
  8
AM_5
 62
     3
370
    -2
100
AcDbLine
 10
13.29579047100073
 20
29.99643184767452
 30
0.0
 11
-25.03958958837875
 21
29.99643184767453
 31
0.0
  0
LINE
  5
B6C5
330
B267
100
AcDbEntity
  8
AM_5
 62
     3
370
    -2
100
AcDbLine
 10
-24.03958958837876
 20
2.500000000000006
 30
0.0
 11
-24.03958958837875
 21
27.49643184767454
 31
0.0
  0
INSERT
  5
B6C6
330
B267
100
AcDbEntity
  8
AM_5
 62
     3
370
    -2
100
AcDbBlockReference
  2
_OPEN30
 10
-24.03958958837876
 20
0.0000000000000068
 30
0.0
 41
2.5
 42
2.5
 43
2.5
 50
270.0
  0
INSERT
  5
B6C7
330
B267
100
AcDbEntity
  8
AM_5
 62
     3
370
    -2
100
AcDbBlockReference
  2
_OPEN30
 10
-24.03958958837875
 20
29.99643184767453
 30
0.0
 41
2.5
 42
2.5
 43
2.5
 50
90.0
  0
MTEXT
  5
B6C8
330
B267
100
AcDbEntity
  8
AM_5
 62
     2
100
AcDbMText
 10
-27.43958958837876
 20
14.99821592383726
 30
0.0
 40
3.799999999999998
 41
0.0
 71
     5
 72
     1
  1
30
 11
0.0000000000000001
 21
1.0
 31
0.0
 73
     1
 44
1.0
1001
ACAD
1000
MTEXTBEGIN
1070
    73
1070
     1
1070
    44
1040
1.0
1070
    74
1070
     0
1000
MTEXTEND
  0
POINT
  5
B6C9
330
B267
100
AcDbEntity
  8
DEFPOINTS
 62
     0
100
AcDbPoint
 10
0.0999319874208996
 20
0.0
 30
0.0
  0
POINT
  5
B6CA
330
B267
100
AcDbEntity
  8
DEFPOINTS
 62
     0
100
AcDbPoint
 10
13.29579047100073
 20
29.99643184767452
 30
0.0
  0
POINT
  5
B6CB
330
B267
100
AcDbEntity
  8
DEFPOINTS
 62
     0
100
AcDbPoint
 10
-24.03958958837875
 20
29.99643184767453
 30
0.0
  0
ENDBLK
  5
B272
330
B267
100
AcDbEntity
  8
0
100
AcDbBlockEnd
  0
BLOCK
  5
B28F
330
B285
100
AcDbEntity
  8
0
100
AcDbBlockBegin
  2
*D15
 70
     1
 10
0.0
 20
0.0
 30
0.0
  3
*D15
  1

  0
LINE
  5
B6CC
330
B285
100
AcDbEntity
  8
AM_5
 62
     3
370
    -2
100
AcDbLine
 10
150.0034856255873
 20
-72.97857075358077
 30
0.0
 11
166.8005771729186
 21
-72.97857075358078
 31
0.0
  0
LINE
  5
B6CD
330
B285
100
AcDbEntity
  8
AM_5
 62
     3
370
    -2
100
AcDbLine
 10
150.0034856255873
 20
-47.97857075358074
 30
0.0
 11
166.8005771729187
 21
-47.97857075358074
 31
0.0
  0
LINE
  5
B6CE
330
B285
100
AcDbEntity
  8
AM_5
 62
     3
370
    -2
100
AcDbLine
 10
165.8005771729186
 20
-70.47857075358078
 30
0.0
 11
165.8005771729186
 21
-50.47857075358074
 31
0.0
  0
INSERT
  5
B6CF
330
B285
100
AcDbEntity
  8
AM_5
 62
     3
370
    -2
100
AcDbBlockReference
  2
_OPEN30
 10
165.8005771729186
 20
-72.97857075358078
 30
0.0
 41
2.5
 42
2.5
 43
2.5
 50
270.0
  0
INSERT
  5
B6D0
330
B285
100
AcDbEntity
  8
AM_5
 62
     3
370
    -2
100
AcDbBlockReference
  2
_OPEN30
 10
165.8005771729186
 20
-47.97857075358074
 30
0.0
 41
2.5
 42
2.5
 43
2.5
 50
90.0
  0
MTEXT
  5
B6D1
330
B285
100
AcDbEntity
  8
AM_5
 62
     2
100
AcDbMText
 10
162.4002031571706
 20
-60.47857075358074
 30
0.0
 40
3.799999999999998
 41
0.0
 71
     5
 72
     1
  1
25
 11
0.0000000000000001
 21
1.0
 31
0.0
 73
     1
 44
1.0
1001
ACAD
1000
MTEXTBEGIN
1070
    73
1070
     1
1070
    44
1040
1.0
1070
    74
1070
     0
1000
MTEXTEND
  0
POINT
  5
B6D2
330
B285
100
AcDbEntity
  8
DEFPOINTS
 62
     0
100
AcDbPoint
 10
150.0034856255873
 20
-72.97857075358077
 30
0.0
  0
POINT
  5
B6D3
330
B285
100
AcDbEntity
  8
DEFPOINTS
 62
     0
100
AcDbPoint
 10
150.0034856255873
 20
-47.97857075358074
 30
0.0
  0
POINT
  5
B6D4
330
B285
100
AcDbEntity
  8
DEFPOINTS
 62
     0
100
AcDbPoint
 10
165.8005771729186
 20
-47.97857075358074
 30
0.0
  0
ENDBLK
  5
B290
330
B285
100
AcDbEntity
  8
0
100
AcDbBlockEnd
  0
BLOCK
  5
B29C
330
B292
100
AcDbEntity
  8
0
100
AcDbBlockBegin
  2
*D16
 70
     1
 10
0.0
 20
0.0
 30
0.0
  3
*D16
  1

  0
LINE
  5
B6D5
330
B292
100
AcDbEntity
  8
AM_5
 62
     3
370
    -2
100
AcDbLine
 10
150.0034856255873
 20
4.996431847674509
 30
0.0
 11
164.8881913152743
 21
4.996431847674505
 31
0.0
  0
LINE
  5
B6D6
330
B292
100
AcDbEntity
  8
AM_5
 62
     3
370
    -2
100
AcDbLine
 10
150.0034856255873
 20
29.99643184767451
 30
0.0
 11
164.8881913152743
 21
29.9964318476745
 31
0.0
  0
LINE
  5
B6D7
330
B292
100
AcDbEntity
  8
AM_5
 62
     3
370
    -2
100
AcDbLine
 10
163.8881913152743
 20
7.496431847674505
 30
0.0
 11
163.8881913152743
 21
27.4964318476745
 31
0.0
  0
INSERT
  5
B6D8
330
B292
100
AcDbEntity
  8
AM_5
 62
     3
370
    -2
100
AcDbBlockReference
  2
_OPEN30
 10
163.8881913152743
 20
4.996431847674505
 30
0.0
 41
2.5
 42
2.5
 43
2.5
 50
270.0
  0
INSERT
  5
B6D9
330
B292
100
AcDbEntity
  8
AM_5
 62
     3
370
    -2
100
AcDbBlockReference
  2
_OPEN30
 10
163.8881913152743
 20
29.9964318476745
 30
0.0
 41
2.5
 42
2.5
 43
2.5
 50
90.0
  0
MTEXT
  5
B6DA
330
B292
100
AcDbEntity
  8
AM_5
 62
     2
100
AcDbMText
 10
160.4878172995263
 20
17.49643184767453
 30
0.0
 40
3.799999999999998
 41
0.0
 71
     5
 72
     1
  1
25
 11
0.0000000000000001
 21
1.0
 31
0.0
 73
     1
 44
1.0
1001
ACAD
1000
MTEXTBEGIN
1070
    73
1070
     1
1070
    44
1040
1.0
1070
    74
1070
     0
1000
MTEXTEND
  0
POINT
  5
B6DB
330
B292
100
AcDbEntity
  8
DEFPOINTS
 62
     0
100
AcDbPoint
 10
150.0034856255873
 20
4.996431847674509
 30
0.0
  0
POINT
  5
B6DC
330
B292
100
AcDbEntity
  8
DEFPOINTS
 62
     0
100
AcDbPoint
 10
150.0034856255873
 20
29.99643184767451
 30
0.0
  0
POINT
  5
B6DD
330
B292
100
AcDbEntity
  8
DEFPOINTS
 62
     0
100
AcDbPoint
 10
163.8881913152743
 20
29.9964318476745
 30
0.0
  0
ENDBLK
  5
B29D
330
B292
100
AcDbEntity
  8
0
100
AcDbBlockEnd
  0
BLOCK
  5
B2AE
330
B29F
100
AcDbEntity
  8
0
100
AcDbBlockBegin
  2
*D17
 70
     1
 10
0.0
 20
0.0
 30
0.0
  3
*D17
  1

  0
LINE
  5
B6DE
330
B29F
100
AcDbEntity
  8
AM_5
 62
     3
370
    -2
100
AcDbLine
 10
13.93359886603158
 20
0.4830213378636739
 30
0.0
 11
38.96083598476879
 21
1.356991716302316
 31
0.0
  0
ARC
  5
B6DF
330
B29F
100
AcDbEntity
  8
AM_5
 62
     3
370
    -2
100
AcDbCircle
 10
143.1807653947553
 20
4.996431847674513
 30
0.0
 40
105.2834560737819
100
AcDbArc
 50
177.2789112451266
 51
178.6394556225633
  0
ARC
  5
B6E0
330
B29F
100
AcDbEntity
  8
AM_5
 62
     3
370
    -2
100
AcDbCircle
 10
143.1807653947553
 20
4.996431847674513
 30
0.0
 40
105.2834560737819
100
AcDbArc
 50
183.3605443774366
 51
184.7210887548733
  0
ARC
  5
B6E1
330
B29F
100
AcDbEntity
  8
AM_5
 62
     3
370
    -2
100
AcDbCircle
 10
143.1807653947553
 20
4.996431847674513
 30
0.0
 40
105.2834560737819
100
AcDbArc
 50
180.0
 51
181.9999999999999
  0
INSERT
  5
B6E2
330
B29F
100
AcDbEntity
  8
AM_5
 62
     3
370
    -2
100
AcDbBlockReference
  2
_OPEN30
 10
37.89730932097334
 20
4.996431847674542
 30
0.0
 41
2.5
 42
2.5
 43
2.5
 50
269.3197278112817
  0
INSERT
  5
B6E3
330
B29F
100
AcDbEntity
  8
AM_5
 62
     3
370
    -2
100
AcDbBlockReference
  2
_OPEN30
 10
37.9614451577497
 20
1.322092219599819
 30
0.0
 41
2.5
 42
2.5
 43
2.5
 50
92.68027218871827
  0
MTEXT
  5
B6E4
330
B29F
100
AcDbEntity
  8
AM_5
 62
     2
100
AcDbMText
 10
49.52518757932086
 20
-2.375068542417087
 30
0.0
 40
3.799999999999998
 41
0.0
 71
     5
 72
     1
  1
2°
 73
     1
 44
1.0
1001
ACAD
1000
MTEXTBEGIN
1070
    73
1070
     1
1070
    44
1040
1.0
1070
    74
1070
     0
1000
MTEXTEND
  0
POINT
  5
B6E5
330
B29F
100
AcDbEntity
  8
DEFPOINTS
 62
     0
100
AcDbPoint
 10
37.90443616828578
 20
3.771430851766395
 30
0.0
  0
POINT
  5
B6E6
330
B29F
100
AcDbEntity
  8
DEFPOINTS
 62
     0
100
AcDbPoint
 10
13.93359886603158
 20
0.4830213378636739
 30
0.0
  0
POINT
  5
B6E7
330
B29F
100
AcDbEntity
  8
DEFPOINTS
 62
     0
100
AcDbPoint
 10
125.0034856255874
 20
4.996431847674515
 30
0.0
  0
POINT
  5
B6E8
330
B29F
100
AcDbEntity
  8
DEFPOINTS
 62
     0
100
AcDbPoint
 10
24.00348562558745
 20
4.996431847674526
 30
0.0
  0
POINT
  5
B6E9
330
B29F
100
AcDbEntity
  8
DEFPOINTS
 62
     0
100
AcDbPoint
 10
0.0034828543891738
 20
-0.0034290323721678
 30
0.0
  0
ENDBLK
  5
B2AF
330
B29F
100
AcDbEntity
  8
0
100
AcDbBlockEnd
  0
BLOCK
  5
B38C
330
B380
100
AcDbEntity
  8
0
100
AcDbBlockBegin
  2
*D18
 70
     1
 10
0.0
 20
0.0
 30
0.0
  3
*D18
  1

  0
LINE
  5
B6EA
330
B380
100
AcDbEntity
  8
AM_5
 62
     3
370
    -2
100
AcDbLine
 10
0.1034219370911248
 20
0.0000609172980716
 30
0.0
 11
-14.44879566646078
 21
-0.5081137192292773
 31
0.0
  0
LINE
  5
B6EB
330
B380
100
AcDbEntity
  8
AM_5
 62
     3
370
    -2
100
AcDbLine
 10
0.0685224403886168
 20
0.9994517443172124
 30
0.0
 11
-14.48369516316327
 21
0.4912771077898639
 31
0.0
  0
LINE
  5
B6EC
330
B380
100
AcDbEntity
  8
AM_5
 62
     3
370
    -2
100
AcDbLine
 10
-13.36215609768543
 20
-2.971691290074519
 30
0.0
 11
-13.27490735592919
 21
-5.470168357622258
 31
0.0
  0
LINE
  5
B6ED
330
B380
100
AcDbEntity
  8
AM_5
 62
     3
370
    -2
100
AcDbLine
 10
-13.57155307790043
 20
3.024653672040101
 30
0.0
 11
-13.79002392725806
 21
9.280840249179641
 31
0.0
  0
LINE
  5
B6EE
330
B380
100
AcDbEntity
  8
AM_5
 62
     3
370
    -2
100
AcDbLine
 10
-13.44940483944168
 20
-0.4732142225267792
 30
0.0
 11
-13.48430433614418
 21
0.526176604492362
 31
0.0
  0
INSERT
  5
B6EF
330
B380
100
AcDbEntity
  8
AM_5
 62
     3
370
    -2
100
AcDbBlockReference
  2
_OPEN30
 10
-13.44940483944168
 20
-0.4732142225267792
 30
0.0
 41
2.5
 42
2.5
 43
2.5
 50
91.99999999999985
  0
INSERT
  5
B6F0
330
B380
100
AcDbEntity
  8
AM_5
 62
     3
370
    -2
100
AcDbBlockReference
  2
_OPEN30
 10
-13.48430433614418
 20
0.526176604492362
 30
0.0
 41
2.5
 42
2.5
 43
2.5
 50
271.9999999999998
  0
MTEXT
  5
B6F1
330
B380
100
AcDbEntity
  8
AM_5
 62
     2
100
AcDbMText
 10
-17.12234168532229
 20
7.283327205595249
 30
0.0
 40
3.799999999999998
 41
0.0
 71
     5
 72
     1
  1
1
 11
-0.0348994967024981
 21
0.9993908270190958
 31
0.0
 73
     1
 44
1.0
1001
ACAD
1000
MTEXTBEGIN
1070
    73
1070
     1
1070
    44
1040
1.0
1070
    74
1070
     0
1000
MTEXTEND
  0
POINT
  5
B6F2
330
B380
100
AcDbEntity
  8
DEFPOINTS
 62
     0
100
AcDbPoint
 10
0.1034219370911248
 20
0.0000609172980716
 30
0.0
  0
POINT
  5
B6F3
330
B380
100
AcDbEntity
  8
DEFPOINTS
 62
     0
100
AcDbPoint
 10
0.0685224403886171
 20
0.9994517443172124
 30
0.0
  0
POINT
  5
B6F4
330
B380
100
AcDbEntity
  8
DEFPOINTS
 62
     0
100
AcDbPoint
 10
-13.48430433614418
 20
0.5261766044923661
 30
0.0
  0
ENDBLK
  5
B38D
330
B380
100
AcDbEntity
  8
0
100
AcDbBlockEnd
  0
ENDSEC
  0
SECTION
  2
ENTITIES
  0
TEXT
  5
83BD
330
1F
100
AcDbEntity
  8
AM_6
100
AcDbText
 10
58.92543640176062
 20
-90.36097480735376
 30
0.0
 40
5.0
  1
GCR2525-3
 72
     4
 11
75.1495480541123
 21
-87.86097480735376
 31
0.0
100
AcDbText
  0
LINE
  5
B087
330
1F
100
AcDbEntity
  8
AM_0
100
AcDbLine
 10
150.0034856255873
 20
29.99643184767451
 30
0.0
 11
13.29579047100073
 21
29.99643184767452
 31
0.0
  0
LINE
  5
B08A
330
1F
100
AcDbEntity
  8
AM_0
100
AcDbLine
 10
150.0034856255873
 20
4.996431847674509
 30
0.0
 11
24.00348562558745
 21
4.996431847674525
 31
0.0
  0
LINE
  5
B08B
330
1F
100
AcDbEntity
  8
AM_0
100
AcDbLine
 10
150.0034856255873
 20
29.99643184767451
 30
0.0
 11
150.0034856255873
 21
4.996431847674509
 31
0.0
  0
LINE
  5
B08D
330
1F
100
AcDbEntity
  8
AM_0
100
AcDbLine
 10
23.05865227438053
 20
1.470265776284789
 30
0.0
 11
13.91027960639716
 21
1.150797563121537
 31
0.0
  0
LINE
  5
B08E
330
1F
100
AcDbEntity
  8
AM_0
100
AcDbLine
 10
24.00348562558745
 20
29.99643184767452
 30
0.0
 11
24.00348562558745
 21
4.996431847674525
 31
0.0
  0
LINE
  5
B08F
330
1F
100
AcDbEntity
  8
AM_0
100
AcDbLine
 10
13.29579047100073
 20
29.99643184767452
 30
0.0
 11
2.903485625587448
 21
11.99643184767449
 31
0.0
  0
LINE
  5
B091
330
1F
100
AcDbEntity
  8
AM_0
100
AcDbLine
 10
23.05865227438053
 20
1.470265776284789
 30
0.0
 11
24.00348562558745
 21
4.996431847674497
 31
0.0
  0
LINE
  5
B092
330
1F
100
AcDbEntity
  8
AM_0
100
AcDbLine
 10
150.0034856255873
 20
-47.97857075358074
 30
0.0
 11
24.00348562558744
 21
-47.97857075358073
 31
0.0
  0
LINE
  5
B093
330
1F
100
AcDbEntity
  8
AM_0
100
AcDbLine
 10
150.0034856255873
 20
-72.97857075358077
 30
0.0
 11
2.903485625587438
 21
-72.97857075358073
 31
0.0
  0
LINE
  5
B094
330
1F
100
AcDbEntity
  8
AM_0
100
AcDbLine
 10
150.0034856255873
 20
-47.97857075358074
 30
0.0
 11
150.0034856255873
 21
-72.97857075358077
 31
0.0
  0
LINE
  5
B096
330
1F
100
AcDbEntity
  8
AM_0
100
AcDbLine
 10
24.00348562558744
 20
-72.97857075358073
 30
0.0
 11
24.00348562558744
 21
-47.97857075358073
 31
0.0
  0
LINE
  5
B098
330
1F
100
AcDbEntity
  8
AM_0
100
AcDbLine
 10
23.38166634853498
 20
-45.65790961849514
 30
0.0
 11
24.00348562558744
 21
-47.97857075358073
 31
0.0
  0
LINE
  5
B099
330
1F
100
AcDbEntity
  8
AM_0
100
AcDbLine
 10
2.903485625587458
 20
-72.97857075358073
 30
0.0
 11
2.903485625587384
 21
-53.92579908922869
 31
0.0
  0
LINE
  5
B09D
102
{ACAD_REACTORS
330
B0B7
102
}
330
1F
100
AcDbEntity
  8
AM_0
100
AcDbLine
 10
9.207503099820899
 20
-58.54227285890856
 30
0.0
 11
14.86617035905092
 21
-46.40722176062882
 31
0.0
  0
LINE
  5
B09E
102
{ACAD_REACTORS
330
B0B7
102
}
330
1F
100
AcDbEntity
  8
AM_0
100
AcDbLine
 10
2.454751943729908
 20
-47.31239259948853
 30
0.0
 11
12.06523975687197
 21
-46.47158386488452
 31
0.0
  0
CIRCLE
  5
B09F
102
{ACAD_REACTORS
330
B0B7
102
}
330
1F
100
AcDbEntity
  8
DEFPOINTS
100
AcDbCircle
 10
7.151975625587414
 20
-51.6821307535807
 30
0.0
 40
4.7625
  0
LINE
  5
B0A0
102
{ACAD_REACTORS
330
B0B7
102
}
330
1F
100
AcDbEntity
  8
AM_0
100
AcDbLine
 10
13.93359886603144
 20
-47.34313710950533
 30
0.0
 11
13.59830726773219
 21
-47.7427220763451
 31
0.0
  0
LINE
  5
B0A1
102
{ACAD_REACTORS
330
B0B7
102
}
330
1F
100
AcDbEntity
  8
AM_0
100
AcDbLine
 10
12.06526922525585
 20
-46.47192069005374
 30
0.0
 11
13.93359886603144
 21
-47.34313710950533
 31
0.0
  0
ARC
  5
B0A2
102
{ACAD_REACTORS
330
B0B7
102
}
330
1F
100
AcDbEntity
  8
AM_0
100
AcDbCircle
 10
15.13039615397009
 20
-49.0282972957181
 30
0.0
 40
2.0
100
AcDbArc
 50
140.0000000000008
 51
202.6681868905122
  0
LINE
  5
B0A3
102
{ACAD_REACTORS
330
B0B7
102
}
330
1F
100
AcDbEntity
  8
AM_0
100
AcDbLine
 10
6.412424937492932
 20
-58.92851879672836
 30
0.0
 11
0.1831545516855241
 21
-50.03219871177983
 31
0.0
  0
ARC
  5
B0A4
102
{ACAD_REACTORS
330
B0B7
102
}
330
1F
100
AcDbEntity
  8
AM_0
100
AcDbCircle
 10
5.461052553318172
 20
-59.91856234216663
 30
0.0
 40
2.0
100
AcDbArc
 50
20.00000000000097
 51
82.66818689051218
  0
LINE
  5
B0A5
102
{ACAD_REACTORS
330
B0B7
102
}
330
1F
100
AcDbEntity
  8
AM_0
100
AcDbLine
 10
7.518842727993916
 20
-59.72468558073782
 30
0.0
 11
7.340437794889955
 21
-59.23452205551529
 31
0.0
  0
LINE
  5
B0A6
102
{ACAD_REACTORS
330
B0B7
102
}
330
1F
100
AcDbEntity
  8
AM_0
100
AcDbLine
 10
9.207503099820929
 20
-58.54227285890856
 30
0.0
 11
7.518842727993916
 21
-59.72468558073782
 31
0.0
  0
ARC
  5
B0A7
102
{ACAD_REACTORS
330
B0B7
102
}
330
1F
100
AcDbEntity
  8
AM_0
100
AcDbCircle
 10
0.8644781694740318
 20
-46.0995326228573
 30
0.0
 40
2.0
100
AcDbArc
 50
260.000000000001
 51
322.6681868905122
  0
LINE
  5
B0A8
102
{ACAD_REACTORS
330
B0B7
102
}
330
1F
100
AcDbEntity
  8
AM_0
100
AcDbLine
 10
0.1831545516855241
 20
-50.03219871177983
 30
0.0
 11
0.0034852827369805
 21
-47.97856957049895
 31
0.0
  0
LINE
  5
B0A9
102
{ACAD_REACTORS
330
B0B7
102
}
330
1F
100
AcDbEntity
  8
AM_0
100
AcDbLine
 10
0.0034852827369805
 20
-47.97856957049895
 30
0.0
 11
0.5171818141401646
 21
-48.0691481288817
 31
0.0
  0
DIMENSION
  5
B0B8
330
1F
100
AcDbEntity
  8
AM_5
100
AcDbDimension
  2
*D10
 10
-23.41067236724368
 20
-47.97856957049894
 30
0.0
 11
-26.8110463829917
 21
-60.47857016203984
 31
0.0
 70
    32
 71
     5
 42
25.00000118308177
  3
AM_JIS$0
100
AcDbAlignedDimension
 13
2.903485625587438
 23
-72.97857075358073
 33
0.0
 14
0.0034852827369805
 24
-47.97856957049895
 34
0.0
 50
89.99999999999998
100
AcDbRotatedDimension
1001
ACAD
1000
DSTYLE
1002
{
1070
   271
1070
     5
1002
}
  0
LINE
  5
B0C5
330
1F
100
AcDbEntity
  8
AM_0
100
AcDbLine
 10
12.38243716189884
 20
-46.62021747984931
 30
0.0
 11
23.38166634853498
 21
-45.65790961849514
 31
0.0
  0
LINE
  5
B125
330
1F
100
AcDbEntity
  8
AM_0
100
AcDbLine
 10
10.43836716427243
 20
-57.70437298067801
 30
0.0
 11
9.93406527593463
 21
-56.98415524405212
 31
0.0
  0
ARC
  5
B128
330
1F
100
AcDbEntity
  8
AM_0
100
AcDbCircle
 10
8.817543053407224
 20
-58.87716391104379
 30
0.0
 40
2.0
100
AcDbArc
 50
300.1735200296437
 51
35.8889100832045
  0
ARC
  5
B12B
330
1F
100
AcDbEntity
  8
AM_0
100
AcDbCircle
 10
8.403627524855169
 20
-59.11590144288772
 30
0.0
 40
2.0
100
AcDbArc
 50
174.6239978116648
 51
300.1735200296437
  0
LINE
  5
B12F
330
1F
100
AcDbEntity
  8
AM_0
100
AcDbLine
 10
9.82278396815629
 20
-60.60617828441221
 30
0.0
 11
9.408868439604207
 21
-60.8449158162561
 31
0.0
  0
DIMENSION
  5
B130
330
1F
100
AcDbEntity
  8
AM_5
100
AcDbDimension
  2
*D11
 10
0.003485282736982
 20
-22.93873758880685
 30
0.0
 11
62.50348545416221
 21
-22.93873758880685
 31
0.0
 70
   160
 71
     5
 42
150.0000003428503
  3
AM_JIS$0
100
AcDbAlignedDimension
 13
150.0034856255873
 23
-47.97857075358074
 33
0.0
 14
0.0034852827369805
 24
-47.97856957049895
 34
0.0
100
AcDbRotatedDimension
1001
ACAD
1000
DSTYLE
1002
{
1070
   271
1070
     5
1002
}
  0
LINE
  5
B18A
330
1F
100
AcDbEntity
  8
AM_0
100
AcDbLine
 10
-0.0000070952810088
 20
0.0965100503297264
 30
0.0
 11
-0.0279266926430803
 21
0.8960227119449937
 31
0.0
  0
LINE
  5
B18B
330
1F
100
AcDbEntity
  8
AM_5
100
AcDbLine
 10
150.0034856255873
 20
4.996431847674509
 30
0.0
 11
150.0034856255873
 21
-47.97857075358074
 31
0.0
  0
LINE
  5
B18D
330
1F
100
AcDbEntity
  8
AM_0
100
AcDbLine
 10
13.93359886603158
 20
0.4830213378636739
 30
0.0
 11
0.1034219370911531
 21
0.0000609172980716
 31
0.0
  0
LINE
  5
B18F
330
1F
100
AcDbEntity
  8
AM_0
100
AcDbLine
 10
14.74926416472046
 20
3.693443348611905
 30
0.0
 11
10.64950525947194
 21
3.550276612909986
 31
0.0
  0
LINE
  5
B190
330
1F
100
AcDbEntity
  8
AM_0
100
AcDbLine
 10
13.89869936932898
 20
1.482412164882757
 30
0.0
 11
8.763901402174225
 21
1.303101068685067
 31
0.0
  0
LINE
  5
B192
330
1F
100
AcDbEntity
  8
AM_0
100
AcDbLine
 10
13.93359886603152
 20
0.483021337863617
 30
0.0
 11
13.89869936932893
 21
1.482412164882757
 31
0.0
  0
LINE
  5
B193
330
1F
100
AcDbEntity
  8
AM_0
100
AcDbLine
 10
14.83692530460017
 20
1.183156743949004
 30
0.0
 11
14.74926416472052
 21
3.693443348611876
 31
0.0
  0
LINE
  5
B19A
330
1F
100
AcDbEntity
  8
AM_7
100
AcDbLine
 10
11.65197562558741
 20
21.41182363836989
 30
0.0
 11
11.65197562558741
 21
4.933444535224422
 31
0.0
  0
LINE
  5
B19C
330
1F
100
AcDbEntity
  8
AM_0
100
AcDbLine
 10
2.903485625587447
 20
3.283315145151048
 30
0.0
 11
2.903485625587448
 21
11.99643184767441
 31
0.0
  0
CIRCLE
  5
B19E
330
1F
100
AcDbEntity
  8
AM_0
100
AcDbCircle
 10
11.65197562558741
 20
11.59016000387796
 30
0.0
 40
4.5
  0
LINE
  5
B19F
330
1F
100
AcDbEntity
  8
AM_7
100
AcDbLine
 10
5.005935222558688
 20
11.59016000387796
 30
0.0
 11
19.23824619746821
 21
11.59016000387796
 31
0.0
  0
ARC
  5
B1A2
330
1F
100
AcDbEntity
  8
AM_0
100
AcDbCircle
 10
13.80732876046499
 20
16.21232971776489
 30
0.0
 40
1.5
100
AcDbArc
 50
335.0
 51
163.4565193352697
  0
LINE
  5
B1A4
330
1F
100
AcDbEntity
  8
AM_0
100
AcDbLine
 10
12.44786707991002
 20
16.8462571103759
 30
0.0
 11
12.08553137741315
 21
16.06922568882376
 31
0.0
  0
LINE
  5
B1A5
330
1F
100
AcDbEntity
  8
AM_0
100
AcDbLine
 10
15.16679044101996
 20
15.57840232515382
 30
0.0
 11
14.8044547385231
 21
14.80137090360167
 31
0.0
  0
ARC
  5
B1AB
330
1F
100
AcDbEntity
  8
AM_0
100
AcDbCircle
 10
11.65197562558741
 20
11.59016000387799
 30
0.0
 40
6.59999999999996
100
AcDbArc
 50
64.9999999999996
 51
136.5793676735147
  0
ARC
  5
B1AD
330
1F
100
AcDbEntity
  8
AM_0
100
AcDbCircle
 10
8.045731041536042
 20
15.19640458792935
 30
0.0
 40
1.5
100
AcDbArc
 50
134.9999999999999
 51
256.5692966361254
  0
LINE
  5
B1AF
330
1F
100
AcDbEntity
  8
AM_7
100
AcDbLine
 10
14.61893930612623
 20
17.95283414969392
 30
0.0
 11
6.405537278283871
 21
0.3391366600588404
 31
0.0
  0
LINE
  5
B1B1
330
1F
100
AcDbEntity
  8
AM_0
100
AcDbLine
 10
2.530832846541554
 20
1.085437518427538
 30
0.0
 11
2.454751943729914
 21
3.264109521329202
 31
0.0
  0
LINE
  5
B1B3
330
1F
100
AcDbEntity
  8
AM_0
100
AcDbLine
 10
13.36097261865773
 20
1.463634332973041
 30
0.0
 11
13.28489171584609
 21
3.642306335874704
 31
0.0
  0
LWPOLYLINE
  5
B1B7
330
1F
100
AcDbEntity
  8
AM_0
100
AcDbPolyline
 90
        6
 70
     1
 43
0.0
 10
10.78595022180297
 20
13.09016000387796
 10
9.919924818018557
 20
11.59016000387796
 10
10.78595022180297
 20
10.09016000387796
 10
12.51800102937186
 20
10.09016000387796
 10
13.38402643315628
 20
11.59016000387796
 10
12.51800102937186
 20
13.09016000387796
  0
DIMENSION
  5
B1BF
330
1F
100
AcDbEntity
  8
AM_5
100
AcDbDimension
  2
*D13
 10
-12.92489607981457
 20
-47.97856957049895
 30
0.0
 11
-24.15284713971662
 21
-34.98544525900504
 31
0.0
 70
    34
  1
<>
 71
     5
 42
0.1745329251994414
  3
AM_JIS$2
100
AcDb2LineAngularDimension
 13
0.0034852827369805
 23
-47.97856957049895
 33
0.0
 14
0.5171818141401646
 24
-48.0691481288817
 34
0.0
 15
0.0034852827369805
 25
-47.97856957049895
 35
0.0
 16
-23.37105931828835
 26
-46.61715737985786
 36
0.0
1001
ACAD
1000
DSTYLE
1002
{
1070
   271
1070
     0
1070
   281
1070
     0
1070
    76
1070
     0
1070
   282
1070
     1
1070
     7
1000
NONE
1070
     5
1000

1070
   173
1070
     1
1070
     6
1000
OPEN30
1002
}
  0
DIMENSION
  5
B266
330
1F
100
AcDbEntity
  8
AM_5
100
AcDbDimension
  2
*D14
 10
-24.03958958837875
 20
29.99643184767453
 30
0.0
 11
-27.43958958837876
 21
14.99821592383726
 31
0.0
 70
    32
 71
     5
 42
29.99643184767452
  3
AM_JIS$0
100
AcDbAlignedDimension
 13
0.0999319874208996
 23
0.0
 33
0.0
 14
13.29579047100073
 24
29.99643184767452
 34
0.0
 50
89.99999999999998
100
AcDbRotatedDimension
  0
LINE
  5
B283
330
1F
100
AcDbEntity
  8
AM_5
100
AcDbLine
 10
-0.0000070105541309
 20
0.0965076249133289
 30
0.0
 11
0.0034852827369805
 21
-47.97856957049895
 31
0.0
  0
DIMENSION
  5
B284
330
1F
100
AcDbEntity
  8
AM_5
100
AcDbDimension
  2
*D15
 10
165.8005771729186
 20
-47.97857075358074
 30
0.0
 11
162.4002031571706
 21
-60.47857075358074
 31
0.0
 70
    32
 71
     5
 42
25.00000000000003
  3
AM_JIS$0
100
AcDbAlignedDimension
 13
150.0034856255873
 23
-72.97857075358077
 33
0.0
 14
150.0034856255873
 24
-47.97857075358074
 34
0.0
 50
89.99999999999998
100
AcDbRotatedDimension
  0
DIMENSION
  5
B291
330
1F
100
AcDbEntity
  8
AM_5
100
AcDbDimension
  2
*D16
 10
163.8881913152743
 20
29.9964318476745
 30
0.0
 11
160.4878172995263
 21
17.49643184767453
 31
0.0
 70
    32
 71
     5
 42
25.0
  3
AM_JIS$0
100
AcDbAlignedDimension
 13
150.0034856255873
 23
4.996431847674509
 33
0.0
 14
150.0034856255873
 24
29.99643184767451
 34
0.0
 50
89.99999999999998
100
AcDbRotatedDimension
  0
DIMENSION
  5
B29E
330
1F
100
AcDbEntity
  8
AM_5
100
AcDbDimension
  2
*D17
 10
0.0034828543891738
 20
-0.0034290323721678
 30
0.0
 11
44.41595277541293
 21
-2.777209314259841
 31
0.0
 70
   162
 71
     5
 42
0.0349065850398853
  3
AM_JIS$2
100
AcDb2LineAngularDimension
 13
125.0034856255873
 23
4.996431847674513
 33
0.0
 14
24.00348562558745
 24
4.996431847674525
 34
0.0
 15
13.93359886603158
 25
0.4830213378636739
 35
0.0
 16
37.90443616828578
 26
3.771430851766395
 36
0.0
1001
ACAD
1000
DSTYLE
1002
{
1070
   287
1070
     4
1070
   271
1070
     0
1070
   279
1070
     1
1002
}
  0
ARC
  5
B343
330
1F
100
AcDbEntity
  8
AM_0
100
AcDbCircle
 10
0.0999319874208996
 20
0.0999999999999943
 30
0.0
 40
0.1
100
AcDbArc
 50
182.0000000000051
 51
271.9999999999999
  0
ARC
  5
B344
330
1F
100
AcDbEntity
  8
AM_0
100
AcDbCircle
 10
0.0720123900588281
 20
0.8995126616152615
 30
0.0
 40
0.1
100
AcDbArc
 50
91.99999999999985
 51
182.0000000000047
  0
DIMENSION
  5
B37F
330
1F
100
AcDbEntity
  8
AM_5
100
AcDbDimension
  2
*D18
 10
-13.48430433614418
 20
0.5261766044923661
 30
0.0
 11
-17.12234168532229
 21
7.283327205595249
 31
0.0
 70
    32
 71
     5
 42
1.000000000000045
 51
358.0000000000002
  3
AM_JIS$0
100
AcDbAlignedDimension
 13
0.1034219370911247
 23
0.0000609172980716
 33
0.0
 14
0.0685224403886171
 24
0.9994517443172123
 34
0.0
 50
271.9999999999995
100
AcDbRotatedDimension
  0
CIRCLE
  5
B428
102
{ACAD_REACTORS
330
B433
102
}
330
1F
100
AcDbEntity
  8
AM_0
  6
Continuous
 48
0.5
100
AcDbCircle
 10
11.65197562558741
 20
11.59016000387796
 30
0.0
 40
3.0
  0
LINE
  5
B429
102
{ACAD_REACTORS
330
B433
102
}
330
1F
100
AcDbEntity
  8
AM_0
  6
Continuous
 48
0.5
100
AcDbLine
 10
15.02257872945813
 20
8.761903496689811
 30
0.0
 11
8.460317890634138
 21
0.941304268088532
 31
0.0
  0
CIRCLE
  5
B42A
102
{ACAD_REACTORS
330
B433
102
}
330
1F
100
AcDbEntity
  8
AM_0
  6
Continuous
 48
0.5
100
AcDbCircle
 10
11.65197562558741
 20
11.59016000387796
 30
0.0
 40
3.5
  0
ARC
  5
B42B
102
{ACAD_REACTORS
330
B433
102
}
330
1F
100
AcDbEntity
  8
AM_0
  6
AM_ISO02W050
 48
0.5
100
AcDbCircle
 10
11.65197562558741
 20
11.59016000387796
 30
0.0
 40
4.400000095367397
100
AcDbArc
 50
172.9999998799578
 51
317.0000585286375
  0
ARC
  5
B42C
102
{ACAD_REACTORS
330
B433
102
}
330
1F
100
AcDbEntity
  8
AM_0
  6
Continuous
 48
0.5
100
AcDbCircle
 10
11.65197562558741
 20
11.59016000387796
 30
0.0
 40
4.400000095367397
100
AcDbArc
 50
317.0000585286375
 51
172.9999825771149
  0
LINE
  5
B42D
102
{ACAD_REACTORS
330
B433
102
}
330
1F
100
AcDbEntity
  8
AM_0
  6
Continuous
 48
0.5
100
AcDbLine
 10
12.14602345846602
 20
15.96233825039835
 30
0.0
 11
12.53849402272432
 21
16.80399485358702
 31
0.0
  0
LINE
  5
B42E
102
{ACAD_REACTORS
330
B433
102
}
330
1F
100
AcDbEntity
  8
AM_0
  6
Continuous
 48
0.5
100
AcDbLine
 10
14.68368843837073
 20
14.7790067078328
 30
0.0
 11
15.07615900262903
 21
15.62066331102147
 31
0.0
  0
ARC
  5
B42F
102
{ACAD_REACTORS
330
B433
102
}
330
1F
100
AcDbEntity
  8
AM_0
  6
Continuous
 48
0.5
100
AcDbCircle
 10
13.80732651267667
 20
16.21232908230425
 30
0.0
 40
1.399999976158099
100
AcDbArc
 50
334.9999975578278
 51
155.0000298875389
  0
LINE
  5
B430
102
{ACAD_REACTORS
330
B433
102
}
330
1F
100
AcDbEntity
  8
AM_0
  6
Continuous
 48
0.5
100
AcDbLine
 10
7.318826692529418
 20
12.35421039742751
 30
0.0
 11
5.54604254722057
 21
2.300249843769537
 31
0.0
  0
LINE
  5
B432
102
{ACAD_REACTORS
330
B433
102
}
330
1F
100
AcDbEntity
  8
AM_0
  6
Continuous
 48
0.5
100
AcDbLine
 10
8.460315472394805
 20
0.9412990821528476
 30
0.0
 11
5.546034020484046
 21
2.300249610795612
 31
0.0
  0
LINE
  5
B434
330
1F
100
AcDbEntity
  8
AM_0
100
AcDbLine
 10
5.736202420519631
 20
3.378700297027786
 30
0.0
 11
2.454751943729942
 21
3.26410952132923
 31
0.0
  0
LINE
  5
B435
330
1F
100
AcDbEntity
  8
AM_0
100
AcDbLine
 10
7.759635286053926
 20
1.26803132313566
 30
0.0
 11
0.0685224403885745
 21
0.9994517443171842
 31
0.0
  0
LINE
  5
B498
102
{ACAD_REACTORS
330
B4A2
102
}
330
1F
100
AcDbEntity
  8
AM_0
100
AcDbLine
 10
8.426892309479432
 20
-46.78989802049987
 30
0.0
 11
5.523698169301608
 21
-47.04389459578031
 31
0.0
  0
POLYLINE
  5
B4D0
330
1F
100
AcDbEntity
  8
AM_5
100
AcDb3dPolyline
 66
     1
 10
0.0
 20
0.0
 30
0.0
 70
     8
  0
VERTEX
  5
B4D1
330
B4D0
100
AcDbEntity
  8
AM_5
100
AcDbVertex
100
AcDb3dPolylineVertex
 10
-41.55168116682734
 20
-22.00354120729747
 30
0.0
 70
    32
  0
VERTEX
  5
B4D2
330
B4D0
100
AcDbEntity
  8
AM_5
100
AcDbVertex
100
AcDb3dPolylineVertex
 10
-41.55168116682734
 20
-14.08579211549141
 30
0.0
 70
    32
  0
SEQEND
  5
B4D3
330
B4D0
100
AcDbEntity
  8
AM_5
  0
TEXT
  5
B4D4
330
1F
100
AcDbEntity
  8
AM_6
100
AcDbText
 10
-43.18414615619447
 20
-9.572362057352101
 30
0.0
 40
3.149999999999999
  1
-2%%d
100
AcDbText
  0
POLYLINE
  5
B4D5
330
1F
100
AcDbEntity
  8
AM_5
100
AcDb3dPolyline
 66
     1
 10
0.0
 20
0.0
 30
0.0
 70
     8
  0
VERTEX
  5
B4D6
330
B4D5
100
AcDbEntity
  8
AM_5
100
AcDbVertex
100
AcDb3dPolylineVertex
 10
-41.55168116682734
 20
-14.08579211549141
 30
0.0
 70
    32
  0
VERTEX
  5
B4D7
330
B4D5
100
AcDbEntity
  8
AM_5
100
AcDbVertex
100
AcDb3dPolylineVertex
 10
-41.55168116682734
 20
-10.93579211549143
 30
0.0
 70
    32
  0
SEQEND
  5
B4D8
330
B4D5
100
AcDbEntity
  8
AM_5
  0
POLYLINE
  5
B4D9
330
1F
100
AcDbEntity
  8
AM_5
100
AcDb3dPolyline
 66
     1
 10
0.0
 20
0.0
 30
0.0
 70
     8
  0
VERTEX
  5
B4DA
330
B4D9
100
AcDbEntity
  8
AM_5
100
AcDbVertex
100
AcDb3dPolylineVertex
 10
-41.13697580127741
 20
-14.08579211549141
 30
0.0
 70
    32
  0
VERTEX
  5
B4DB
330
B4D9
100
AcDbEntity
  8
AM_5
100
AcDbVertex
100
AcDb3dPolylineVertex
 10
-41.55168116682734
 20
-10.93579211549143
 30
0.0
 70
    32
  0
SEQEND
  5
B4DC
330
B4D9
100
AcDbEntity
  8
AM_5
  0
POLYLINE
  5
B4DD
330
1F
100
AcDbEntity
  8
AM_5
100
AcDb3dPolyline
 66
     1
 10
0.0
 20
0.0
 30
0.0
 70
     8
  0
VERTEX
  5
B4DE
330
B4DD
100
AcDbEntity
  8
AM_5
100
AcDbVertex
100
AcDb3dPolylineVertex
 10
-41.55168116682734
 20
-10.93579211549143
 30
0.0
 70
    32
  0
VERTEX
  5
B4DF
330
B4DD
100
AcDbEntity
  8
AM_5
100
AcDbVertex
100
AcDb3dPolylineVertex
 10
-41.96638653237739
 20
-14.08579211549141
 30
0.0
 70
    32
  0
SEQEND
  5
B4E0
330
B4DD
100
AcDbEntity
  8
AM_5
  0
POLYLINE
  5
B4E1
330
1F
100
AcDbEntity
  8
AM_5
100
AcDb3dPolyline
 66
     1
 10
0.0
 20
0.0
 30
0.0
 70
     8
  0
VERTEX
  5
B4E2
330
B4E1
100
AcDbEntity
  8
AM_5
100
AcDbVertex
100
AcDb3dPolylineVertex
 10
-33.63393207502139
 20
-22.00354120729747
 30
0.0
 70
    32
  0
VERTEX
  5
B4E3
330
B4E1
100
AcDbEntity
  8
AM_5
100
AcDbVertex
100
AcDb3dPolylineVertex
 10
-30.4839320750213
 20
-22.00354120729747
 30
0.0
 70
    32
  0
SEQEND
  5
B4E4
330
B4E1
100
AcDbEntity
  8
AM_5
  0
POLYLINE
  5
B4E5
330
1F
100
AcDbEntity
  8
AM_5
100
AcDb3dPolyline
 66
     1
 10
0.0
 20
0.0
 30
0.0
 70
     8
  0
VERTEX
  5
B4E6
330
B4E5
100
AcDbEntity
  8
AM_5
100
AcDbVertex
100
AcDb3dPolylineVertex
 10
-33.63393207502139
 20
-22.41824657284746
 30
0.0
 70
    32
  0
VERTEX
  5
B4E7
330
B4E5
100
AcDbEntity
  8
AM_5
100
AcDbVertex
100
AcDb3dPolylineVertex
 10
-30.4839320750213
 20
-22.00354120729747
 30
0.0
 70
    32
  0
SEQEND
  5
B4E8
330
B4E5
100
AcDbEntity
  8
AM_5
  0
POLYLINE
  5
B4E9
330
1F
100
AcDbEntity
  8
AM_5
100
AcDb3dPolyline
 66
     1
 10
0.0
 20
0.0
 30
0.0
 70
     8
  0
VERTEX
  5
B4EA
330
B4E9
100
AcDbEntity
  8
AM_5
100
AcDbVertex
100
AcDb3dPolylineVertex
 10
-30.4839320750213
 20
-22.00354120729747
 30
0.0
 70
    32
  0
VERTEX
  5
B4EB
330
B4E9
100
AcDbEntity
  8
AM_5
100
AcDbVertex
100
AcDb3dPolylineVertex
 10
-33.63393207502139
 20
-21.58883584174747
 30
0.0
 70
    32
  0
SEQEND
  5
B4EC
330
B4E9
100
AcDbEntity
  8
AM_5
  0
TEXT
  5
B4ED
330
1F
100
AcDbEntity
  8
AM_6
100
AcDbText
 10
-29.09841605668369
 20
-23.15897035723429
 30
0.0
 40
3.149999999999999
  1
-5%%D
100
AcDbText
  0
POLYLINE
  5
B4EE
330
1F
100
AcDbEntity
  8
AM_5
100
AcDb3dPolyline
 66
     1
 10
0.0
 20
0.0
 30
0.0
 70
     8
  0
VERTEX
  5
B4EF
330
B4EE
100
AcDbEntity
  8
AM_5
100
AcDbVertex
100
AcDb3dPolylineVertex
 10
-41.55168116682734
 20
-22.00354120729747
 30
0.0
 70
    32
  0
VERTEX
  5
B4F0
330
B4EE
100
AcDbEntity
  8
AM_5
100
AcDbVertex
100
AcDb3dPolylineVertex
 10
-33.63393207502139
 20
-22.00354120729747
 30
0.0
 70
    32
  0
SEQEND
  5
B4F1
330
B4EE
100
AcDbEntity
  8
AM_5
  0
LINE
  5
B557
330
1F
100
AcDbEntity
  8
AM_0
100
AcDbLine
 10
16.01855013980012
 20
-41.78989039110487
 30
0.0
 11
16.41031852483006
 21
-46.26782352256548
 31
0.0
  0
ARC
  5
B558
330
1F
100
AcDbEntity
  8
AM_0
100
AcDbCircle
 10
12.82521526422695
 20
-47.69742172923726
 30
0.0
 40
5.615277113680853
100
AcDbArc
 50
91.83905374623895
 51
145.0148964115294
  0
LINE
  5
B559
330
1F
100
AcDbEntity
  8
AM_0
100
AcDbLine
 10
7.351739189885252
 20
-42.54813809814478
 30
0.0
 11
16.01855013980012
 21
-41.78989039110487
 31
0.0
  0
LINE
  5
B55A
330
1F
100
AcDbEntity
  8
AM_0
100
AcDbLine
 10
14.84548839359296
 20
-41.89251999551392
 30
0.0
 11
15.09723710151674
 21
-44.77002089423534
 31
0.0
  0
LINE
  5
B55B
330
1F
100
AcDbEntity
  8
AM_0
100
AcDbLine
 10
5.321418174643032
 20
-44.73182367703059
 30
0.0
 11
5.523698169301608
 21
-47.04389459578031
 31
0.0
  0
LINE
  5
B55C
330
1F
100
AcDbEntity
  8
AM_0
100
AcDbLine
 10
8.224612314820857
 20
-44.47782710175014
 30
0.0
 11
8.426892309479432
 21
-46.78989802049987
 31
0.0
  0
ARC
  5
B55D
330
1F
100
AcDbEntity
  8
AM_0
100
AcDbCircle
 10
11.03462247342676
 20
-46.39221490255122
 30
0.0
 40
1.274902150009608
100
AcDbArc
 50
103.1769565895772
 51
192.2601013406959
  0
ARC
  5
B55E
330
1F
100
AcDbEntity
  8
AM_0
100
AcDbCircle
 10
8.554664634439749
 20
-45.70228626976337
 30
0.0
 40
3.375748852281756
100
AcDbArc
 50
110.8757938591392
 51
163.2928117260516
  0
LINE
  5
B55F
330
1F
100
AcDbEntity
  8
AM_0
100
AcDbLine
 10
5.321418174643032
 20
-44.73182367703059
 30
0.0
 11
8.224612314820857
 21
-44.47782710175014
 31
0.0
  0
LINE
  5
B560
330
1F
100
AcDbEntity
  8
AM_0
100
AcDbLine
 10
10.74399667888584
 20
-45.15088008081836
 30
0.0
 11
15.09723710151674
 21
-44.77002089423534
 31
0.0
  0
ENDSEC
  0
SECTION
  2
OBJECTS
  0
DICTIONARY
  5
C
330
0
100
AcDbDictionary
281
     1
  3
ACAD_COLOR
350
B5C7
  3
ACAD_GROUP
350
D
  3
ACAD_LAYOUT
350
1A
  3
ACAD_MATERIAL
350
B5C6
  3
ACAD_MLINESTYLE
350
17
  3
ACAD_PLOTSETTINGS
350
19
  3
ACAD_PLOTSTYLENAME
350
E
  3
ACAD_TABLESTYLE
350
B5C8
  3
ACDBHEADERROUNDTRIPXREC
350
B6FB
  3
ACDBVARIABLEDICTIONARY
350
30
  3
ACMDICTIONARY
350
4D
  3
AMG
350
3F
  3
AMGSNAPSETTINGS
350
73
  3
DWGPROPS
350
B6FA
  3
ENG_DATA
350
21C6
  3
FILENAME
350
21C9
  3
HOLD_DIC_DATA
350
21C4
  3
TABLE_DIC_DATA
350
1C0B
  3
ZWKSIZE
350
21CB
  0
DICTIONARY
  5
165
330
1F
100
AcDbDictionary
280
     1
281
     1
  3
ACAD_INDEX
360
B572
  3
ACAD_LAYOUTSELFREF
360
B5A5
  0
DICTIONARY
  5
B5A3
330
1B
100
AcDbDictionary
280
     1
281
     1
  3
ACAD_LAYOUTSELFREF
360
B5A4
  0
DICTIONARY
  5
B5C7
102
{ACAD_REACTORS
330
C
102
}
330
C
100
AcDbDictionary
281
     1
  0
DICTIONARY
  5
D
102
{ACAD_REACTORS
330
C
102
}
330
C
100
AcDbDictionary
281
     1
  3
*A1
350
7C0D
  3
*A10
350
8E0E
  3
*A11
350
B0B7
  3
*A12
350
B427
  3
*A2
350
B433
  3
*A3
350
B440
  3
*A4
350
B466
  3
*A5
350
B492
  3
*A6
350
B493
  3
*A7
350
B4A2
  3
*A8
350
7C0E
  3
*A9
350
7FE3
  0
DICTIONARY
  5
1A
102
{ACAD_REACTORS
330
C
102
}
330
C
100
AcDbDictionary
281
     1
  3
Model
350
B5CA
  3
レイアウト1
350
B5CB
  0
DICTIONARY
  5
B5C6
102
{ACAD_REACTORS
330
C
102
}
330
C
100
AcDbDictionary
281
     1
  0
DICTIONARY
  5
17
102
{ACAD_REACTORS
330
C
102
}
330
C
100
AcDbDictionary
281
     1
  3
STANDARD
350
18
  0
DICTIONARY
  5
19
102
{ACAD_REACTORS
330
C
102
}
330
C
100
AcDbDictionary
281
     1
  0
ACDBDICTIONARYWDFLT
  5
E
102
{ACAD_REACTORS
330
C
102
}
330
C
100
AcDbDictionary
281
     1
  3
Normal
350
F
100
AcDbDictionaryWithDefault
340
F
  0
DICTIONARY
  5
B5C8
102
{ACAD_REACTORS
330
C
102
}
330
C
100
AcDbDictionary
281
     1
  3
Standard
350
B5C9
  0
DICTIONARY
  5
B6FB
102
{ACAD_REACTORS
330
C
102
}
330
C
100
AcDbDictionary
281
     1
  0
DICTIONARY
  5
30
102
{ACAD_REACTORS
330
C
102
}
330
C
100
AcDbDictionary
281
     1
  3
CTABLESTYLE
350
B6F6
  3
DIMASSOC
350
B6F7
  3
INDEXCTL
350
31
  3
PROJECTNAME
350
B6F8
  3
SORTENTS
350
42BE
  0
DICTIONARY
  5
4D
102
{ACAD_REACTORS
330
C
102
}
330
C
100
AcDbDictionary
281
     1
  3
ACMSTDDICTIONARY
350
17E
  3
AMDTSECTSYM_ARROWCOLOR
350
B643
  0
DICTIONARY
  5
3F
102
{ACAD_REACTORS
330
C
102
}
330
C
100
AcDbDictionary
281
     1
  0
DICTIONARY
  5
73
102
{ACAD_REACTORS
330
C
102
}
330
C
100
AcDbDictionary
281
     1
  0
XRECORD
  5
B6FA
102
{ACAD_REACTORS
330
C
102
}
330
C
100
AcDbXrecord
280
     1
  1
DWGPROPS COOKIE
  2

  3

  4

  6

  7

  8

  9

300
AmdtFileType=82
301
=
302
=
303
=
304
=
305
=
306
=
307
=
308
=
309
=
 40
1.448369548611111
 41
2451943.610431666
 42
2455604.623639676
  1

 90
        1
  0
DICTIONARY
  5
21C6
102
{ACAD_REACTORS
330
C
102
}
330
C
100
AcDbDictionary
281
     1
  3
ENG_ID
350
21C7
  0
DICTIONARY
  5
21C9
102
{ACAD_REACTORS
330
C
102
}
330
C
100
AcDbDictionary
281
     1
  3
FILENAME
350
21CA
  0
DICTIONARY
  5
21C4
102
{ACAD_REACTORS
330
C
102
}
330
C
100
AcDbDictionary
281
     1
  3
HOLD_DATA
350
21C5
  0
DICTIONARY
  5
1C0B
102
{ACAD_REACTORS
330
C
102
}
330
C
100
AcDbDictionary
281
     1
  3
INPUT_DATA
350
1C0D
  3
TABLE_DATA
350
1C0C
  0
DICTIONARY
  5
21CB
102
{ACAD_REACTORS
330
C
102
}
330
C
100
AcDbDictionary
281
     1
  3
ZWKSIZE
350
21CC
  0
DICTIONARY
  5
B572
102
{ACAD_REACTORS
330
165
102
}
330
165
100
AcDbDictionary
281
     1
  3
*A1
350
B573
  0
XRECORD
  5
B5A5
102
{ACAD_REACTORS
330
165
102
}
330
165
100
AcDbXrecord
280
     1
340
1F
  0
XRECORD
  5
B5A4
102
{ACAD_REACTORS
330
B5A3
102
}
330
B5A3
100
AcDbXrecord
280
     1
340
1B
  0
GROUP
  5
7C0D
102
{ACAD_REACTORS
330
D
102
}
330
D
100
AcDbGroup
300

 70
     1
 71
     1
  0
GROUP
  5
8E0E
102
{ACAD_REACTORS
330
D
102
}
330
D
100
AcDbGroup
300

 70
     1
 71
     1
  0
GROUP
  5
B0B7
102
{ACAD_REACTORS
330
D
102
}
330
D
100
AcDbGroup
300

 70
     1
 71
     1
340
B0A7
340
B0A3
340
B0A8
340
B0A9
340
B0A1
340
B09E
340
B09F
340
B09D
340
B0A4
340
B0A6
340
B0A5
340
B0A0
340
B0A2
  0
GROUP
  5
B427
102
{ACAD_REACTORS
330
D
102
}
330
D
100
AcDbGroup
300

 70
     1
 71
     1
  0
GROUP
  5
B433
102
{ACAD_REACTORS
330
D
102
}
330
D
100
AcDbGroup
300

 70
     1
 71
     1
340
B429
340
B428
340
B42A
340
B42B
340
B42C
340
B42D
340
B42E
340
B42F
340
B430
340
B432
  0
GROUP
  5
B440
102
{ACAD_REACTORS
330
D
102
}
330
D
100
AcDbGroup
300

 70
     1
 71
     1
  0
GROUP
  5
B466
102
{ACAD_REACTORS
330
D
102
}
330
D
100
AcDbGroup
300

 70
     1
 71
     1
  0
GROUP
  5
B492
102
{ACAD_REACTORS
330
D
102
}
330
D
100
AcDbGroup
300

 70
     1
 71
     1
  0
GROUP
  5
B493
102
{ACAD_REACTORS
330
D
102
}
330
D
100
AcDbGroup
300

 70
     1
 71
     1
  0
GROUP
  5
B4A2
102
{ACAD_REACTORS
330
D
102
}
330
D
100
AcDbGroup
300

 70
     1
 71
     1
340
B498
  0
GROUP
  5
7C0E
102
{ACAD_REACTORS
330
D
102
}
330
D
100
AcDbGroup
300

 70
     1
 71
     1
  0
GROUP
  5
7FE3
102
{ACAD_REACTORS
330
D
102
}
330
D
100
AcDbGroup
300

 70
     1
 71
     1
  0
LAYOUT
  5
B5CA
102
{ACAD_XDICTIONARY
360
B6FC
102
}
102
{ACAD_REACTORS
330
1A
102
}
330
1A
100
AcDbPlotSettings
  1

  2
SII LP-1010 (C2 VR)2R
  4

  6

 40
0.0
 41
0.0
 42
0.0
 43
0.0
 44
0.0
 45
0.0
 46
0.0
 47
0.0
 48
0.0
 49
0.0
140
0.0
141
0.0
142
1.0
143
1.0
 70
  1712
 72
     0
 73
     0
 74
     0
  7
sei_cad.ctb
 75
     0
147
1.0
148
0.0
149
0.0
100
AcDbLayout
  1
Model
 70
     1
 71
     0
 10
0.0
 20
0.0
 11
12.0
 21
9.0
 12
0.0
 22
0.0
 32
0.0
 14
0.0
 24
0.0
 34
0.0
 15
0.0
 25
0.0
 35
0.0
146
0.0
 13
0.0
 23
0.0
 33
0.0
 16
1.0
 26
0.0
 36
0.0
 17
0.0
 27
1.0
 37
0.0
 76
     0
330
1F
  0
LAYOUT
  5
B5CB
102
{ACAD_XDICTIONARY
360
B6FE
102
}
102
{ACAD_REACTORS
330
1A
102
}
330
1A
100
AcDbPlotSettings
  1

  2
SII LP-1010 (C2 VR)2R
  4

  6

 40
0.0
 41
0.0
 42
0.0
 43
0.0
 44
0.0
 45
0.0
 46
0.0
 47
0.0
 48
0.0
 49
0.0
140
0.0
141
0.0
142
1.0
143
1.0
 70
   688
 72
     0
 73
     0
 74
     5
  7
sei_cad.ctb
 75
    16
147
1.0
148
0.0
149
0.0
100
AcDbLayout
  1
レイアウト1
 70
     1
 71
     1
 10
0.0
 20
0.0
 11
420.0
 21
297.0
 12
0.0
 22
0.0
 32
0.0
 14
1.000000000000000E+20
 24
1.000000000000000E+20
 34
1.000000000000000E+20
 15
-1.000000000000000E+20
 25
-1.000000000000000E+20
 35
-1.000000000000000E+20
146
0.0
 13
0.0
 23
0.0
 33
0.0
 16
1.0
 26
0.0
 36
0.0
 17
0.0
 27
1.0
 37
0.0
 76
     0
330
1B
  0
MLINESTYLE
  5
18
102
{ACAD_REACTORS
330
17
102
}
330
17
100
AcDbMlineStyle
  2
STANDARD
 70
     0
  3

 62
   256
 51
90.0
 52
90.0
 71
     2
 49
0.5
 62
   256
  6
BYLAYER
 49
-0.5
 62
   256
  6
BYLAYER
  0
ACDBPLACEHOLDER
  5
F
102
{ACAD_REACTORS
330
E
102
}
330
E
  0
TABLESTYLE
  5
B5C9
102
{ACAD_REACTORS
330
B5C8
102
}
330
B5C8
100
AcDbTableStyle
  3
Standard
 70
     0
 71
     0
 40
1.5
 41
1.5
280
     0
281
     0
  7
STANDARD
140
4.5
170
     2
 62
     0
 63
     7
283
     0
274
    -2
284
     1
 64
     0
275
    -2
285
     1
 65
     0
276
    -2
286
     1
 66
     0
277
    -2
287
     1
 67
     0
278
    -2
288
     1
 68
     0
279
    -2
289
     1
 69
     0
  7
STANDARD
140
6.0
170
     5
 62
     0
 63
     7
283
     0
274
    -2
284
     1
 64
     0
275
    -2
285
     1
 65
     0
276
    -2
286
     1
 66
     0
277
    -2
287
     1
 67
     0
278
    -2
288
     1
 68
     0
279
    -2
289
     1
 69
     0
  7
STANDARD
140
4.5
170
     5
 62
     0
 63
     7
283
     0
274
    -2
284
     1
 64
     0
275
    -2
285
     1
 65
     0
276
    -2
286
     1
 66
     0
277
    -2
287
     1
 67
     0
278
    -2
288
     1
 68
     0
279
    -2
289
     1
 69
     0
  0
DICTIONARYVAR
  5
B6F6
102
{ACAD_REACTORS
330
30
102
}
330
30
100
DictionaryVariables
280
     0
  1
STANDARD
  0
DICTIONARYVAR
  5
B6F7
102
{ACAD_REACTORS
330
30
102
}
330
30
100
DictionaryVariables
280
     0
  1
1
  0
DICTIONARYVAR
  5
31
102
{ACAD_REACTORS
330
30
102
}
330
30
100
DictionaryVariables
280
     0
  1
1
  0
DICTIONARYVAR
  5
B6F8
102
{ACAD_REACTORS
330
30
102
}
330
30
100
DictionaryVariables
280
     0
  1

  0
DICTIONARYVAR
  5
42BE
102
{ACAD_REACTORS
330
30
102
}
330
30
100
DictionaryVariables
280
     0
  1
96
  0
DICTIONARY
  5
17E
102
{ACAD_REACTORS
330
4D
102
}
330
4D
100
AcDbDictionary
281
     1
  0
XRECORD
  5
B643
102
{ACAD_REACTORS
330
4D
102
}
330
4D
100
AcDbXrecord
280
     1
 90
-1023410169
  0
XRECORD
  5
21C7
102
{ACAD_REACTORS
330
21C6
102
}
330
21C6
100
AcDbXrecord
280
     1
  1
HOLD
  0
XRECORD
  5
21CA
102
{ACAD_REACTORS
330
21C9
102
}
330
21C9
100
AcDbXrecord
280
     1
  1
21000065__00___
  0
XRECORD
  5
21C5
102
{ACAD_REACTORS
330
21C4
102
}
330
21C4
100
AcDbXrecord
280
     1
  1
クランクシャフト加工用 ^M^J１コーナー型 ^M^J15.875 ^M^J20 ^M^Jクランプオン ^M^J９０° ^M^J1 ^M^J鋼 ^M^J ^M^J ^M^J ^M^J ^M^J
  0
XRECORD
  5
1C0D
102
{ACAD_REACTORS
330
1C0B
102
}
330
1C0B
100
AcDbXrecord
280
     1
  1
1,,,,,,,,,^M^J2,,,,,,,,,^M^J3,,,,,,,,,^M^J4,,,,,,,,,^M^J5,,,,,,,,,^M^J6,,,,,,,,,^M^J7,,,,,,,,,^M^J8,,,,,,,,,^M^J9,,,,,,,,,^M^J10,,,,,,,,,
  0
XRECORD
  5
1C0C
102
{ACAD_REACTORS
330
1C0B
102
}
330
1C0B
100
AcDbXrecord
280
     1
  1
10,10
  0
XRECORD
  5
21CC
102
{ACAD_REACTORS
330
21CB
102
}
330
21CB
100
AcDbXrecord
280
     1
  1
3
  0
LAYER_INDEX
  5
B573
102
{ACAD_REACTORS
330
B572
102
}
330
B572
100
AcDbIndex
 40
2455604.623639676
100
AcDbLayerIndex
  8
0
360
B574
 90
        0
  8
AM_5
360
B575
 90
       18
  8
DEFPOINTS
360
B576
 90
        1
  8
AM_0
360
B577
 90
       71
  8
AM_6
360
B578
 90
        3
  8
AM_7
360
B579
 90
        3
  0
DICTIONARY
  5
B6FC
330
B5CA
100
AcDbDictionary
280
     1
281
     1
  3
ACAD_XREC_ROUNDTRIP
360
B6FD
  0
DICTIONARY
  5
B6FE
330
B5CB
100
AcDbDictionary
280
     1
281
     1
  3
ACAD_XREC_ROUNDTRIP
360
B6FF
  0
IDBUFFER
  5
B574
330
0
100
AcDbIdBuffer
  0
IDBUFFER
  5
B575
330
0
100
AcDbIdBuffer
330
B0B8
330
B130
330
B18B
330
B1BF
330
B266
330
B283
330
B284
330
B291
330
B29E
330
B37F
330
B4D0
330
B4D5
330
B4D9
330
B4DD
330
B4E1
330
B4E5
330
B4E9
330
B4EE
  0
IDBUFFER
  5
B576
330
0
100
AcDbIdBuffer
330
B09F
  0
IDBUFFER
  5
B577
330
0
100
AcDbIdBuffer
330
B087
330
B08A
330
B08B
330
B08D
330
B08E
330
B08F
330
B091
330
B092
330
B093
330
B094
330
B096
330
B098
330
B099
330
B09D
330
B09E
330
B0A0
330
B0A1
330
B0A2
330
B0A3
330
B0A4
330
B0A5
330
B0A6
330
B0A7
330
B0A8
330
B0A9
330
B0C5
330
B125
330
B128
330
B12B
330
B12F
330
B18A
330
B18D
330
B18F
330
B190
330
B192
330
B193
330
B19C
330
B19E
330
B1A2
330
B1A4
330
B1A5
330
B1AB
330
B1AD
330
B1B1
330
B1B3
330
B1B7
330
B343
330
B344
330
B428
330
B429
330
B42A
330
B42B
330
B42C
330
B42D
330
B42E
330
B42F
330
B430
330
B432
330
B434
330
B435
330
B498
330
B557
330
B558
330
B559
330
B55A
330
B55B
330
B55C
330
B55D
330
B55E
330
B55F
330
B560
  0
IDBUFFER
  5
B578
330
0
100
AcDbIdBuffer
330
83BD
330
B4D4
330
B4ED
  0
IDBUFFER
  5
B579
330
0
100
AcDbIdBuffer
330
B19A
330
B19F
330
B1AF
  0
XRECORD
  5
B6FD
102
{ACAD_REACTORS
330
B6FC
102
}
330
B6FC
100
AcDbXrecord
280
     1
102
SHADEPLOT
 70
     0
102
SHADEPLOTRESLEVEL
 70
     2
102
SHADEPLOTCUSTOMDPI
 70
   300
  0
XRECORD
  5
B6FF
102
{ACAD_REACTORS
330
B6FE
102
}
330
B6FE
100
AcDbXrecord
280
     1
102
SHADEPLOT
 70
     0
102
SHADEPLOTRESLEVEL
 70
     2
102
SHADEPLOTCUSTOMDPI
 70
   300
  0
ENDSEC
  0
EOF
