  0
SECTION
  2
HEADER
  9
$ACADVER
  1
AC1015
  9
$ACADMAINTVER
 70
    20
  9
$DWGCODEPAGE
  3
ANSI_932
  9
$INSBASE
 10
0.0
 20
0.0
 30
0.0
  9
$EXTMIN
 10
-25.05432398483652
 20
-75.46819258520258
 30
-0.0015258207003583
  9
$EXTMAX
 10
142.0514612266215
 20
20.24408683639842
 30
0.0000000349246037
  9
$LIMMIN
 10
-190.8104173693708
 20
-71.24028097151728
  9
$LIMMAX
 10
75.61568036072651
 20
102.8052226397589
  9
$ORTHOMODE
 70
     0
  9
$REGENMODE
 70
     1
  9
$FILLMODE
 70
     1
  9
$QTEXTMODE
 70
     0
  9
$MIRRTEXT
 70
     1
  9
$LTSCALE
 40
0.5
  9
$ATTMODE
 70
     1
  9
$TEXTSIZE
 40
2.5
  9
$TRACEWID
 40
1.0
  9
$TEXTSTYLE
  7
STANDARD
  9
$CLAYER
  8
AM_0
  9
$CELTYPE
  6
BYLAYER
  9
$CECOLOR
 62
   256
  9
$CELTSCALE
 40
1.0
  9
$DISPSILH
 70
     0
  9
$DIMSCALE
 40
1.0
  9
$DIMASZ
 40
2.5
  9
$DIMEXO
 40
0.0
  9
$DIMDLI
 40
10.0
  9
$DIMRND
 40
0.0
  9
$DIMDLE
 40
0.0
  9
$DIMEXE
 40
1.0
  9
$DIMTP
 40
0.1
  9
$DIMTM
 40
0.1000000001
  9
$DIMTXT
 40
3.799999999999998
  9
$DIMCEN
 40
0.0
  9
$DIMTSZ
 40
0.0
  9
$DIMTOL
 70
     0
  9
$DIMLIM
 70
     0
  9
$DIMTIH
 70
     0
  9
$DIMTOH
 70
     0
  9
$DIMSE1
 70
     0
  9
$DIMSE2
 70
     0
  9
$DIMTAD
 70
     3
  9
$DIMZIN
 70
     9
  9
$DIMBLK
  1
OPEN30
  9
$DIMASO
 70
     1
  9
$DIMSHO
 70
     1
  9
$DIMPOST
  1

  9
$DIMAPOST
  1
"
  9
$DIMALT
 70
     0
  9
$DIMALTD
 70
     2
  9
$DIMALTF
 40
0.0393701
  9
$DIMLFAC
 40
1.0
  9
$DIMTOFL
 70
     1
  9
$DIMTVP
 40
0.0
  9
$DIMTIX
 70
     0
  9
$DIMSOXD
 70
     0
  9
$DIMSAH
 70
     0
  9
$DIMBLK1
  1

  9
$DIMBLK2
  1

  9
$DIMSTYLE
  2
AM_JIS
  9
$DIMCLRD
 70
   256
  9
$DIMCLRE
 70
   256
  9
$DIMCLRT
 70
     2
  9
$DIMTFAC
 40
0.71
  9
$DIMGAP
 40
1.5
  9
$DIMJUST
 70
     0
  9
$DIMSD1
 70
     0
  9
$DIMSD2
 70
     0
  9
$DIMTOLJ
 70
     0
  9
$DIMTZIN
 70
     8
  9
$DIMALTZ
 70
     0
  9
$DIMALTTZ
 70
     0
  9
$DIMUPT
 70
     0
  9
$DIMDEC
 70
     2
  9
$DIMTDEC
 70
     2
  9
$DIMALTU
 70
     2
  9
$DIMALTTD
 70
     2
  9
$DIMTXSTY
  7
STANDARD
  9
$DIMAUNIT
 70
     1
  9
$DIMADEC
 70
     1
  9
$DIMALTRND
 40
0.0
  9
$DIMAZIN
 70
     2
  9
$DIMDSEP
 70
    46
  9
$DIMATFIT
 70
     3
  9
$DIMFRAC
 70
     0
  9
$DIMLDRBLK
  1
OPEN30
  9
$DIMLUNIT
 70
     2
  9
$DIMLWD
 70
    -1
  9
$DIMLWE
 70
    -1
  9
$DIMTMOVE
 70
     0
  9
$LUNITS
 70
     2
  9
$LUPREC
 70
     2
  9
$SKETCHINC
 40
1.0
  9
$FILLETRAD
 40
0.25
  9
$AUNITS
 70
     1
  9
$AUPREC
 70
     5
  9
$MENU
  1
.
  9
$ELEVATION
 40
0.0
  9
$PELEVATION
 40
0.0
  9
$THICKNESS
 40
0.0
  9
$LIMCHECK
 70
     0
  9
$CHAMFERA
 40
0.0
  9
$CHAMFERB
 40
0.0
  9
$CHAMFERC
 40
20.0
  9
$CHAMFERD
 40
0.0
  9
$SKPOLY
 70
     0
  9
$TDCREATE
 40
2451943.610431666
  9
$TDUCREATE
 40
2451943.235431667
  9
$TDUPDATE
 40
2455601.712107200
  9
$TDUUPDATE
 40
2455601.337107199
  9
$TDINDWG
 40
0.9889367593
  9
$TDUSRTIMER
 40
0.9889364005
  9
$USRTIMER
 70
     1
  9
$ANGBASE
 50
0.0
  9
$ANGDIR
 70
     0
  9
$PDMODE
 70
     0
  9
$PDSIZE
 40
0.0
  9
$PLINEWID
 40
0.0
  9
$SPLFRAME
 70
     0
  9
$SPLINETYPE
 70
     6
  9
$SPLINESEGS
 70
     8
  9
$HANDSEED
  5
B01D
  9
$SURFTAB1
 70
     6
  9
$SURFTAB2
 70
     6
  9
$SURFTYPE
 70
     6
  9
$SURFU
 70
     6
  9
$SURFV
 70
     6
  9
$UCSBASE
  2

  9
$UCSNAME
  2

  9
$UCSORG
 10
0.0
 20
0.0
 30
0.0
  9
$UCSXDIR
 10
1.0
 20
0.0
 30
0.0
  9
$UCSYDIR
 10
0.0
 20
1.0
 30
0.0
  9
$UCSORTHOREF
  2

  9
$UCSORTHOVIEW
 70
     0
  9
$UCSORGTOP
 10
0.0
 20
0.0
 30
0.0
  9
$UCSORGBOTTOM
 10
0.0
 20
0.0
 30
0.0
  9
$UCSORGLEFT
 10
0.0
 20
0.0
 30
0.0
  9
$UCSORGRIGHT
 10
0.0
 20
0.0
 30
0.0
  9
$UCSORGFRONT
 10
0.0
 20
0.0
 30
0.0
  9
$UCSORGBACK
 10
0.0
 20
0.0
 30
0.0
  9
$PUCSBASE
  2

  9
$PUCSNAME
  2

  9
$PUCSORG
 10
0.0
 20
0.0
 30
0.0
  9
$PUCSXDIR
 10
1.0
 20
0.0
 30
0.0
  9
$PUCSYDIR
 10
0.0
 20
1.0
 30
0.0
  9
$PUCSORTHOREF
  2

  9
$PUCSORTHOVIEW
 70
     0
  9
$PUCSORGTOP
 10
0.0
 20
0.0
 30
0.0
  9
$PUCSORGBOTTOM
 10
0.0
 20
0.0
 30
0.0
  9
$PUCSORGLEFT
 10
0.0
 20
0.0
 30
0.0
  9
$PUCSORGRIGHT
 10
0.0
 20
0.0
 30
0.0
  9
$PUCSORGFRONT
 10
0.0
 20
0.0
 30
0.0
  9
$PUCSORGBACK
 10
0.0
 20
0.0
 30
0.0
  9
$USERI1
 70
     0
  9
$USERI2
 70
     0
  9
$USERI3
 70
     0
  9
$USERI4
 70
     0
  9
$USERI5
 70
     0
  9
$USERR1
 40
0.0
  9
$USERR2
 40
0.0
  9
$USERR3
 40
0.0
  9
$USERR4
 40
0.0
  9
$USERR5
 40
0.0
  9
$WORLDVIEW
 70
     1
  9
$SHADEDGE
 70
     3
  9
$SHADEDIF
 70
    70
  9
$TILEMODE
 70
     1
  9
$MAXACTVP
 70
    64
  9
$PINSBASE
 10
0.0
 20
0.0
 30
0.0
  9
$PLIMCHECK
 70
     0
  9
$PEXTMIN
 10
1.000000000000000E+20
 20
1.000000000000000E+20
 30
1.000000000000000E+20
  9
$PEXTMAX
 10
-1.000000000000000E+20
 20
-1.000000000000000E+20
 30
-1.000000000000000E+20
  9
$PLIMMIN
 10
0.0
 20
0.0
  9
$PLIMMAX
 10
420.0
 20
297.0
  9
$UNITMODE
 70
     0
  9
$VISRETAIN
 70
     1
  9
$PLINEGEN
 70
     0
  9
$PSLTSCALE
 70
     1
  9
$TREEDEPTH
 70
  3020
  9
$CMLSTYLE
  2
STANDARD
  9
$CMLJUST
 70
     0
  9
$CMLSCALE
 40
20.0
  9
$PROXYGRAPHICS
 70
     1
  9
$MEASUREMENT
 70
     1
  9
$CELWEIGHT
370
    -1
  9
$ENDCAPS
280
     0
  9
$JOINSTYLE
280
     0
  9
$LWDISPLAY
290
     0
  9
$INSUNITS
 70
     4
  9
$HYPERLINKBASE
  1

  9
$STYLESHEET
  1
sei_cad.ctb
  9
$XEDIT
290
     1
  9
$CEPSNTYPE
380
     0
  9
$PSTYLEMODE
290
     1
  9
$FINGERPRINTGUID
  2
{C77AB3BE-9CA2-11D3-BAF3-006094EB760E}
  9
$VERSIONGUID
  2
{BFBD2572-B88F-4220-AA23-0C309EBD07EE}
  9
$EXTNAMES
290
     1
  9
$PSVPSCALE
 40
0.0
  9
$OLESTARTUP
290
     0
  0
ENDSEC
  0
SECTION
  2
CLASSES
  0
CLASS
  1
ACDBDICTIONARYWDFLT
  2
AcDbDictionaryWithDefault
  3
ObjectDBX Classes
 90
        0
280
     0
281
     0
  0
CLASS
  1
ACDBPLACEHOLDER
  2
AcDbPlaceHolder
  3
ObjectDBX Classes
 90
        0
280
     0
281
     0
  0
CLASS
  1
LAYOUT
  2
AcDbLayout
  3
ObjectDBX Classes
 90
        0
280
     0
281
     0
  0
CLASS
  1
ACME_DOCUMENT
  2
AcMeDbDoc
  3
AcMeServices
 90
        0
280
     0
281
     0
  0
CLASS
  1
ACMESCOPE
  2
AcMeScope
  3
AcMeServices
 90
        0
280
     0
281
     0
  0
CLASS
  1
ACMECOMMANDHISTORY
  2
AcMeCommandHistory
  3
AcMeServices
 90
        0
280
     0
281
     0
  0
CLASS
  1
DICTIONARYVAR
  2
AcDbDictionaryVar
  3
ObjectDBX Classes
 90
        0
280
     0
281
     0
  0
CLASS
  1
ACIMSYSVARMAN
  2
AcImSysVarManager
  3
AcMeServices
 90
        0
280
     0
281
     0
  0
CLASS
  1
ACIMREALSYSVAR
  2
AcImRealSysVar
  3
AcMeServices
 90
        0
280
     0
281
     0
  0
CLASS
  1
ACIMINTSYSVAR
  2
AcImIntSysVar
  3
AcMeServices
 90
        0
280
     0
281
     0
  0
CLASS
  1
ACMEDRAWINGMAN
  2
AcMeDrawingMan
  3
AcMeServices
 90
        0
280
     0
281
     0
  0
CLASS
  1
ACMEVIEW
  2
AcMeView
  3
AcMeServices
 90
        0
280
     0
281
     0
  0
CLASS
  1
ACDBENTITYCACHE
  2
AcMeEntityCache
  3
AcMeServices
 90
        0
280
     0
281
     0
  0
CLASS
  1
GSMANAGER
  2
AcMeGSManager
  3
AcMeServices
 90
        0
280
     0
281
     0
  0
CLASS
  1
AMDTINTERNALREACTOR
  2
AmdtInternalReactor
  3
AcMeServices
 90
        0
280
     0
281
     0
  0
CLASS
  1
ACMESTATEMGR
  2
AcMeStateMgr
  3
AcMeServices
 90
        0
280
     0
281
     0
  0
CLASS
  1
ACME_DATABASE
  2
AcMeDbDatabase
  3
AcMeServices
 90
        0
280
     0
281
     0
  0
CLASS
  1
ACRFINSADJUSTERMGR
  2
AcRfInsAdjusterMgr
  3
AcMeServices
 90
        0
280
     0
281
     0
  0
CLASS
  1
AMGSETTINGSOBJ
  2
AmgSettingsObj
  3
"AcadM|Product Description: AutoCAD Mechanical 2000|Company: Autodesk"
 90
        0
280
     0
281
     0
  0
CLASS
  1
AMGOBJPROPCFG
  2
AmgObjPropCfg
  3
"AmgLay|Product Description: AutoCAD Mechanical 2000|Company: Autodesk"
 90
        1
280
     0
281
     0
  0
CLASS
  1
ACMDATADICTIONARY
  2
AcmDataDictionary
  3
"AcmSymBB|Product Description: AutoCAD Mechanical 2004 DX|Company: Autodesk"
 90
        0
280
     0
281
     0
  0
CLASS
  1
ACMDATAENTRYBLOCK
  2
AcmDataEntryBlock
  3
"AcmSymBB|Product Description: AutoCAD Mechanical 2004 DX|Company: Autodesk"
 90
    32768
280
     0
281
     0
  0
CLASS
  1
ACIMSTRSYSVAR
  2
AcImStrSysVar
  3
AcMeServices
 90
        0
280
     0
281
     0
  0
CLASS
  1
ACAMGFILTERDAT
  2
AcAmgFilterDat
  3
"AcadM|Product Description: AutoCAD Mechanical 2000|Company: Autodesk"
 90
    32768
280
     0
281
     0
  0
CLASS
  1
LAYER_INDEX
  2
AcDbLayerIndex
  3
ObjectDBX Classes
 90
        0
280
     0
281
     0
  0
CLASS
  1
IDBUFFER
  2
AcDbIdBuffer
  3
ObjectDBX Classes
 90
        0
280
     0
281
     0
  0
CLASS
  1
ACMSTANDARDJIS
  2
AcmStandardJIS
  3
"Amdt_StdImp|Product Description: AutoCAD Mechanical 2004 DX|Company: Autodesk"
 90
    32768
280
     0
281
     0
  0
CLASS
  1
ACMSURFSTANDARDJIS
  2
AcmSurfTextStdJIS
  3
"Amdt_StdImp|Product Description: AutoCAD Mechanical 2004 DX|Company: Autodesk"
 90
    32768
280
     0
281
     0
  0
CLASS
  1
ACMFCFSTANDARDJIS
  2
AcmFCFStdJIS
  3
"Amdt_StdImp|Product Description: AutoCAD Mechanical 2004 DX|Company: Autodesk"
 90
    32768
280
     0
281
     0
  0
CLASS
  1
ACMWELDSTANDARDJIS
  2
AcmWeldingStdJIS
  3
"Amdt_StdImp|Product Description: AutoCAD Mechanical 2004 DX|Company: Autodesk"
 90
    32768
280
     0
281
     0
  0
CLASS
  1
ACMIDSTANDARDJIS
  2
AcmIdStdJIS
  3
"Amdt_StdImp|Product Description: AutoCAD Mechanical 2004 DX|Company: Autodesk"
 90
    32768
280
     0
281
     0
  0
CLASS
  1
ACMDATUMSTANDARDJIS
  2
AcmDatumStdJIS
  3
"Amdt_StdImp|Product Description: AutoCAD Mechanical 2004 DX|Company: Autodesk"
 90
    32768
280
     0
281
     0
  0
CLASS
  1
ACMBOMSTANDARDJIS
  2
AcmBOMStdJIS
  3
"Amdt_StdImp|Product Description: AutoCAD Mechanical 2004 DX|Company: Autodesk"
 90
    32768
280
     0
281
     0
  0
CLASS
  1
AMDTNOTE
  2
AmdtNote
  3
"AcmSymBB|Product Description: AutoCAD Mechanical 2004 DX|Company: Autodesk"
 90
    33791
280
     0
281
     1
  0
CLASS
  1
ACMDATAENTRYPART
  2
AcmDataEntryPart
  3
"AcmSymBB|Product Description: AutoCAD Mechanical 2004 DX|Company: Autodesk"
 90
    32768
280
     0
281
     0
  0
CLASS
  1
ACMPARTREF
  2
AcmPartRef
  3
"AcmSymBB|Product Description: AutoCAD Mechanical 2004 DX|Company: Autodesk"
 90
    33791
280
     0
281
     1
  0
CLASS
  1
ACDB_PROXY_ENTITY_DATA
  2
AcDbProxyEntityData
  3
ObjectDBX Classes
 90
    32768
280
     0
281
     0
  0
CLASS
  1
TABLESTYLE
  2
AcDbTableStyle
  3
ObjectDBX Classes
 90
     2047
280
     0
281
     0
  0
CLASS
  1
ACGREFMASTER
  2
AcGrefMaster
  3
AcAttribServices
 90
        0
280
     0
281
     0
  0
CLASS
  1
AM_DRAWING_MGR
  2
AcDmDwgMgr
  3
AcMechDwgViewMgmt
 90
        0
280
     0
281
     0
  0
CLASS
  1
AM_DWG_DOCUMENT
  2
AcDmDwgDocument
  3
AcMechDwgViewMgmt
 90
        0
280
     0
281
     0
  0
CLASS
  1
AM_DWG_SHEET
  2
AcDmSheet
  3
AcMechDwgViewMgmt
 90
        0
280
     0
281
     0
  0
CLASS
  1
AM_VIEWDIMPARMAP
  2
AcDmViewDimParMap
  3
AcMechDwgViewMgmt
 90
        0
280
     0
281
     0
  0
CLASS
  1
AM_DWGMGR_NAME
  2
AcDmDwgMgrName
  3
AcMechDwgViewMgmt
 90
        0
280
     0
281
     0
  0
CLASS
  1
ACGREFACADMASTER
  2
AcGrefacadMaster
  3
AcGrefServices
 90
        0
280
     0
281
     0
  0
CLASS
  1
AMDTMENUSTATEMGR
  2
AmdtMenuStateMgr
  3
McadcomServices
 90
        0
280
     0
281
     0
  0
CLASS
  1
AMDTMCOMMENUSTATE
  2
AmdtMcomMenuState
  3
McadcomServices
 90
        0
280
     0
281
     0
  0
CLASS
  1
AMIMASTER
  2
AmiMaster
  3
AmiServices
 90
        0
280
     0
281
     0
  0
CLASS
  1
MAPIAMMOUDLE
  2
MApiAmModule
  3
MApiAmServices
 90
        0
280
     0
281
     0
  0
CLASS
  1
AMDTADMENUSTATE
  2
AmdtAdMenuState
  3
DesignerServices
 90
        0
280
     0
281
     0
  0
CLASS
  1
ADAPPL
  2
AcAdAppl
  3
DesignerServices
 90
        0
280
     0
281
     0
  0
CLASS
  1
DEPMGR
  2
AcAdDepMgr
  3
DesignerServices
 90
        0
280
     0
281
     0
  0
CLASS
  1
PARAMMGR
  2
AcAdParamMgr
  3
DesignerServices
 90
        0
280
     0
281
     0
  0
CLASS
  1
PARAMSCOPE
  2
AcAdParamScope
  3
DesignerServices
 90
        0
280
     0
281
     0
  0
CLASS
  1
NAMEDAPPL
  2
AcAdNamedAppl
  3
DesignerServices
 90
        0
280
     0
281
     0
  0
CLASS
  1
AMDTDMMENUSTATE
  2
AmdtDmMenuState
  3
AcMechDwgViewMgmt
 90
        0
280
     0
281
     0
  0
CLASS
  1
AMDTAMMENUSTATE
  2
AmdtAmMenuState
  3
DesignerAssemblies
 90
        0
280
     0
281
     0
  0
CLASS
  1
ACAMPROJECT
  2
AcAmProject
  3
DesignerAssemblies
 90
        0
280
     0
281
     0
  0
CLASS
  1
ACAMGRCOMPDEF
  2
AcAmGrCompDef
  3
DesignerAssemblies
 90
        0
280
     0
281
     0
  0
CLASS
  1
ACCMCONTEXT
  2
AcCmContext
  3
DesignerAssemblies
 90
        0
280
     0
281
     0
  0
CLASS
  1
ACAMCOMPDEF
  2
AcAmCompDef
  3
DesignerAssemblies
 90
        0
280
     0
281
     0
  0
CLASS
  1
ACAMCOMPDEFMGR
  2
AcAmCompDefMgr
  3
DesignerAssemblies
 90
        0
280
     0
281
     0
  0
CLASS
  1
AMCONTEXTMGR
  2
AcAmContextMgr
  3
DesignerAssemblies
 90
        0
280
     0
281
     0
  0
CLASS
  1
ACAMCONTEXTMODELER
  2
AcAmContextModeler
  3
DesignerAssemblies
 90
        0
280
     0
281
     0
  0
CLASS
  1
CATALOGSTATE
  2
AcAmCatalogState
  3
DesignerAssemblies
 90
        0
280
     0
281
     0
  0
CLASS
  1
ACAMGRCOMPDEFSET
  2
AcAmGrCompDefSet
  3
DesignerAssemblies
 90
        0
280
     0
281
     0
  0
CLASS
  1
AMDTBROWSERDBTAB
  2
AmdtBrowserDbTab
  3
McadcomServices
 90
        0
280
     0
281
     0
  0
CLASS
  1
CBROWSERAPPOBJECT
  2
CBrowserAppObject
  3
McadcomServices
 90
        0
280
     0
281
     0
  0
CLASS
  1
DM_PLACEHOLDER
  2
AcDmSelsetPlaceholder
  3
AcMechDwgViewMgmt
 90
        0
280
     0
281
     0
  0
CLASS
  1
ACMSTANDARDISO
  2
AcmStandardISO
  3
"Amdt_StdImp|Product Description: AutoCAD Mechanical 2004 DX|Company: Autodesk"
 90
        0
280
     0
281
     0
  0
CLASS
  1
AMDTEDGESTANDARDISO13715
  2
AmdtEdgeStdISO13715
  3
"Amdt_StdImp|Product Description: AutoCAD Mechanical 2004 DX|Company: Autodesk"
 90
        0
280
     0
281
     0
  0
CLASS
  1
ACMSURFSTANDARDISO
  2
AcmSurfTextStdISO
  3
"Amdt_StdImp|Product Description: AutoCAD Mechanical 2004 DX|Company: Autodesk"
 90
        0
280
     0
281
     0
  0
CLASS
  1
ACMFCFSTANDARDISO
  2
AcmFCFStdISO
  3
"Amdt_StdImp|Product Description: AutoCAD Mechanical 2004 DX|Company: Autodesk"
 90
        0
280
     0
281
     0
  0
CLASS
  1
ACMWELDSTANDARDISO
  2
AcmWeldingStdISO
  3
"Amdt_StdImp|Product Description: AutoCAD Mechanical 2004 DX|Company: Autodesk"
 90
        0
280
     0
281
     0
  0
CLASS
  1
ACMIDSTANDARDISO
  2
AcmIdStdISO
  3
"Amdt_StdImp|Product Description: AutoCAD Mechanical 2004 DX|Company: Autodesk"
 90
        0
280
     0
281
     0
  0
CLASS
  1
ACMDATUMSTANDARDISO
  2
AcmDatumStdISO
  3
"Amdt_StdImp|Product Description: AutoCAD Mechanical 2004 DX|Company: Autodesk"
 90
        0
280
     0
281
     0
  0
CLASS
  1
ACMBOMSTANDARDISO
  2
AcmBOMStdISO
  3
"Amdt_StdImp|Product Description: AutoCAD Mechanical 2004 DX|Company: Autodesk"
 90
        0
280
     0
281
     0
  0
CLASS
  1
ACMDETAILSTANDARDISO
  2
AmdtDetailSymStdISO
  3
"Amdt_StdImp|Product Description: AutoCAD Mechanical 2004 DX|Company: Autodesk"
 90
        0
280
     0
281
     0
  0
CLASS
  1
ACMSECTIONSTANDARDISO
  2
AmdtSectionSymStdISO
  3
"Amdt_StdImp|Product Description: AutoCAD Mechanical 2004 DX|Company: Autodesk"
 90
        0
280
     0
281
     0
  0
CLASS
  1
ACMCENTERLINESTANDARDISO
  2
AmdtCenterLineStdISO
  3
"Amdt_StdImp|Product Description: AutoCAD Mechanical 2004 DX|Company: Autodesk"
 90
        0
280
     0
281
     0
  0
CLASS
  1
ACMTHREADLINESTANDARDISO
  2
AmdtThreadLineStdISO
  3
"Amdt_StdImp|Product Description: AutoCAD Mechanical 2004 DX|Company: Autodesk"
 90
        0
280
     0
281
     0
  0
CLASS
  1
ACMNOTESTANDARDISO
  2
AmdtNoteStdISO
  3
"Amdt_StdImp|Product Description: AutoCAD Mechanical 2004 DX|Company: Autodesk"
 90
        0
280
     0
281
     0
  0
CLASS
  1
AMDTNOTETEMPLATEDB
  2
AmdtNoteTemplateDB
  3
AMDT_STDIMP_MODULE_NAME
 90
        0
280
     0
281
     0
  0
CLASS
  1
ACAMGLAYSTD
  2
AcAmgLayStd
  3
"AcAmgLayStd|Product Description: AutoCAD Mechanical 2000|Company: Autodesk"
 90
        0
280
     0
281
     0
  0
CLASS
  1
ACAMGDIMSTD
  2
AcAmgDimStd
  3
"AcAmgDimStd|Product Description: AutoCAD Mechanical 2000|Company: Autodesk"
 90
        0
280
     0
281
     0
  0
CLASS
  1
ACAMGHOLECHARTSTDISO
  2
AcAmgHoleChartStdISO
  3
ACMSYMBB_MODULE_NAME
 90
        0
280
     0
281
     0
  0
CLASS
  1
ACAMGTITLESTD
  2
AcAmgTitleStd
  3
"TITLEAPP"
 90
        0
280
     0
281
     0
  0
ENDSEC
  0
SECTION
  2
TABLES
  0
TABLE
  2
VPORT
  5
8
330
0
100
AcDbSymbolTable
 70
     5
  0
VPORT
  5
B016
330
8
100
AcDbSymbolTableRecord
100
AcDbViewportTableRecord
  2
*Active
 70
     0
 10
0.0
 20
0.0
 11
1.0
 21
1.0
 12
58.49856862089251
 22
-27.61205287440208
 13
0.0
 23
0.0
 14
2.5
 24
2.5
 15
10.0
 25
10.0
 16
0.0
 26
0.0
 36
1.0
 17
0.0
 27
0.0
 37
0.0
 40
96.39269846962188
 41
2.166073546856464
 42
50.0
 43
0.0
 44
0.0
 50
0.0
 51
0.0
 71
     0
 72
  2000
 73
     1
 74
     3
 75
     0
 76
     0
 77
     0
 78
     0
281
     0
 65
     0
110
0.0
120
0.0
130
0.0
111
1.0
121
0.0
131
0.0
112
0.0
122
1.0
132
0.0
 79
     0
146
0.0
  0
ENDTAB
  0
TABLE
  2
LTYPE
  5
5
330
0
100
AcDbSymbolTable
 70
    17
  0
LTYPE
  5
14
330
5
100
AcDbSymbolTableRecord
100
AcDbLinetypeTableRecord
  2
BYBLOCK
 70
     0
  3

 72
    65
 73
     0
 40
0.0
  0
LTYPE
  5
15
330
5
100
AcDbSymbolTableRecord
100
AcDbLinetypeTableRecord
  2
BYLAYER
 70
     0
  3

 72
    65
 73
     0
 40
0.0
  0
LTYPE
  5
16
330
5
100
AcDbSymbolTableRecord
100
AcDbLinetypeTableRecord
  2
CONTINUOUS
 70
     0
  3
Solid line
 72
    65
 73
     0
 40
0.0
  0
LTYPE
  5
43
330
5
100
AcDbSymbolTableRecord
100
AcDbLinetypeTableRecord
  2
AM_ISO02W050
 70
     0
  3
__ __ __ __ __ __ __ __ __ __ __ __ __ __ __
 72
    65
 73
     2
 40
7.5
 49
6.0
 74
     0
 49
-1.5
 74
     0
  0
LTYPE
  5
44
330
5
100
AcDbSymbolTableRecord
100
AcDbLinetypeTableRecord
  2
AM_ISO08W050
 70
     0
  3
____ . ____ . ____ . ____ . ____ . ____ . ____
 72
    65
 73
     4
 40
18.0
 49
12.0
 74
     0
 49
-1.5
 74
     0
 49
3.0
 74
     0
 49
-1.5
 74
     0
  0
LTYPE
  5
45
330
5
100
AcDbSymbolTableRecord
100
AcDbLinetypeTableRecord
  2
AM_ISO09W050
 70
     0
  3
_____ . . _____ . . _____ . . ____ .. ____
 72
    65
 73
     6
 40
22.5
 49
12.0
 74
     0
 49
-1.5
 74
     0
 49
3.0
 74
     0
 49
-1.5
 74
     0
 49
3.0
 74
     0
 49
-1.5
 74
     0
  0
LTYPE
  5
46
330
5
100
AcDbSymbolTableRecord
100
AcDbLinetypeTableRecord
  2
AMCONSTR
 70
     0
  3
_______________________
 72
    65
 73
     2
 40
9999.0
 49
9999.0
 74
     0
 49
0.0
 74
     0
  0
LTYPE
  5
47
330
5
100
AcDbSymbolTableRecord
100
AcDbLinetypeTableRecord
  2
AM_ISO02W050X2
 70
     0
  3
 _ _ _ _ _ _ _ _ _ _ _ _
 72
    65
 73
     2
 40
3.75
 49
3.0
 74
     0
 49
-0.75
 74
     0
  0
LTYPE
  5
48
330
5
100
AcDbSymbolTableRecord
100
AcDbLinetypeTableRecord
  2
AM_ISO08W050X2
 70
     0
  3
__ . __ . __ . __ . __ . __
 72
    65
 73
     4
 40
9.0
 49
6.0
 74
     0
 49
-0.75
 74
     0
 49
1.5
 74
     0
 49
-0.75
 74
     0
  0
LTYPE
  5
4B
330
5
100
AcDbSymbolTableRecord
100
AcDbLinetypeTableRecord
  2
AMZIGZAG
 70
     0
  3
/\/-/\/-/\/-/\/-/\/-/\/
 72
    65
 73
     2
 40
11.00009999999999
 49
0.0001
 74
     4
 75
   135
340
4A
 46
0.04
 50
0.0
 44
0.0
 45
0.0
 49
-11.0
 74
     0
  0
LTYPE
  5
AF4A
330
5
100
AcDbSymbolTableRecord
100
AcDbLinetypeTableRecord
  2
HIDDEN
 70
     0
  3
Hidden __ __ __ __ __ __ __ __ __ __ __ __ __ _
 72
    65
 73
     2
 40
9.524999999999998
 49
6.349999999999999
 74
     0
 49
-3.174999999999999
 74
     0
  0
LTYPE
  5
AF4B
330
5
100
AcDbSymbolTableRecord
100
AcDbLinetypeTableRecord
  2
PHANTOM2
 70
     0
  3
Phantom (.5x) ___ _ _ ___ _ _ ___ _ _ ___ _ _
 72
    65
 73
     6
 40
31.75
 49
15.875
 74
     0
 49
-3.174999999999999
 74
     0
 49
3.174999999999999
 74
     0
 49
-3.174999999999999
 74
     0
 49
3.174999999999999
 74
     0
 49
-3.174999999999999
 74
     0
  0
LTYPE
  5
AF4C
330
5
100
AcDbSymbolTableRecord
100
AcDbLinetypeTableRecord
  2
CENTER
 70
     0
  3
Center ____ _ ____ _ ____ _ ____ _ ____ _ ____
 72
    65
 73
     4
 40
50.8
 49
31.75
 74
     0
 49
-6.349999999999999
 74
     0
 49
6.349999999999999
 74
     0
 49
-6.349999999999999
 74
     0
  0
LTYPE
  5
AF8C
330
5
100
AcDbSymbolTableRecord
100
AcDbLinetypeTableRecord
  2
ACISOWELD
 70
     0
  3
_ _ _ _ _
 72
    65
 73
     2
 40
2.0
 49
2.0
 74
     0
 49
-1.0
 74
     0
  0
LTYPE
  5
AF8D
330
5
100
AcDbSymbolTableRecord
100
AcDbLinetypeTableRecord
  2
ACISOTGB
 70
     0
  3
__ . . __ . .
 72
    65
 73
     6
 40
9.0
 49
4.0
 74
     0
 49
-1.0
 74
     0
 49
1.0
 74
     0
 49
-1.0
 74
     0
 49
1.0
 74
     0
 49
-1.0
 74
     0
  0
LTYPE
  5
AF8E
330
5
100
AcDbSymbolTableRecord
100
AcDbLinetypeTableRecord
  2
ACISOTGL
 70
     0
  3
_ _ _ _ _
 72
    65
 73
     2
 40
3.0
 49
2.0
 74
     0
 49
-1.0
 74
     0
  0
ENDTAB
  0
TABLE
  2
LAYER
  5
2
330
0
100
AcDbSymbolTable
 70
    12
  0
LAYER
  5
10
330
2
100
AcDbSymbolTableRecord
100
AcDbLayerTableRecord
  2
0
 70
     0
 62
     7
  6
CONTINUOUS
370
    -3
390
F
  0
LAYER
  5
7D
330
2
100
AcDbSymbolTableRecord
100
AcDbLayerTableRecord
  2
AM_5
 70
     0
 62
     3
  6
CONTINUOUS
370
    -3
390
F
  0
LAYER
  5
7F
330
2
100
AcDbSymbolTableRecord
100
AcDbLayerTableRecord
  2
DEFPOINTS
 70
     0
 62
     7
  6
CONTINUOUS
290
     0
370
    -3
390
F
  0
LAYER
  5
12B1
330
2
100
AcDbSymbolTableRecord
100
AcDbLayerTableRecord
  2
AM_0
 70
     0
 62
     7
  6
CONTINUOUS
370
    -3
390
F
  0
LAYER
  5
2222
330
2
100
AcDbSymbolTableRecord
100
AcDbLayerTableRecord
  2
AM_6
 70
     0
 62
     2
  6
CONTINUOUS
370
    -3
390
F
  0
LAYER
  5
4379
330
2
100
AcDbSymbolTableRecord
100
AcDbLayerTableRecord
  2
AM_1
 70
     0
 62
     3
  6
CONTINUOUS
370
    -3
390
F
  0
LAYER
  5
7DB2
330
2
100
AcDbSymbolTableRecord
100
AcDbLayerTableRecord
  2
AM_7
 70
     0
 62
     4
  6
AM_ISO08W050
370
    -3
390
F
  0
ENDTAB
  0
TABLE
  2
STYLE
  5
3
330
0
100
AcDbSymbolTable
 70
     6
  0
STYLE
  5
11
330
3
100
AcDbSymbolTableRecord
100
AcDbTextStyleTableRecord
  2
STANDARD
 70
     0
 40
0.0
 41
1.0
 50
0.0
 71
     0
 42
2.5
  3
ISOCP.SHX
  4
EXTFONT.SHX
  0
STYLE
  5
4A
330
3
100
AcDbSymbolTableRecord
100
AcDbTextStyleTableRecord
  2

 70
     1
 40
0.0
 41
1.0
 50
0.0
 71
     0
 42
2.5
  3
ltypeshp.shx
  4

  0
STYLE
  5
AF7E
330
3
100
AcDbSymbolTableRecord
100
AcDbTextStyleTableRecord
  2
ACISOTS
 70
     0
 40
1.0
 41
1.0
 50
0.0
 71
     0
 42
2.5
  3
isocp.shx
  4
extfont.shx
  0
STYLE
  5
AF8B
330
3
100
AcDbSymbolTableRecord
100
AcDbTextStyleTableRecord
  2
ACISOGDT
 70
     0
 40
0.0
 41
1.0
 50
0.0
 71
     0
 42
2.5
  3
amgdt.shx
  4

  0
ENDTAB
  0
TABLE
  2
VIEW
  5
6
330
0
100
AcDbSymbolTable
 70
     6
  0
VIEW
  5
A30
330
6
100
AcDbSymbolTableRecord
100
AcDbViewTableRecord
  2
AM_VIEW1
 70
     0
 40
148.5
 10
112.0719649561952
 20
222.75
 41
224.1439299123904
 11
0.0
 21
0.0
 31
1.0
 12
0.0
 22
0.0
 32
0.0
 42
50.0
 43
0.0
 44
0.0
 50
0.0
 71
     0
281
     0
 72
     0
  0
VIEW
  5
A31
330
6
100
AcDbSymbolTableRecord
100
AcDbViewTableRecord
  2
AM_VIEW2
 70
     0
 40
148.5
 10
307.9280350438047
 20
222.75
 41
224.1439299123904
 11
0.0
 21
0.0
 31
1.0
 12
0.0
 22
0.0
 32
0.0
 42
50.0
 43
0.0
 44
0.0
 50
0.0
 71
     0
281
     0
 72
     0
  0
VIEW
  5
A32
330
6
100
AcDbSymbolTableRecord
100
AcDbViewTableRecord
  2
AM_VIEW3
 70
     0
 40
148.5
 10
112.0719649561952
 20
74.25
 41
224.1439299123904
 11
0.0
 21
0.0
 31
1.0
 12
0.0
 22
0.0
 32
0.0
 42
50.0
 43
0.0
 44
0.0
 50
0.0
 71
     0
281
     0
 72
     0
  0
VIEW
  5
A33
330
6
100
AcDbSymbolTableRecord
100
AcDbViewTableRecord
  2
AM_VIEW4
 70
     0
 40
148.5
 10
307.9280350438047
 20
74.25
 41
224.1439299123904
 11
0.0
 21
0.0
 31
1.0
 12
0.0
 22
0.0
 32
0.0
 42
50.0
 43
0.0
 44
0.0
 50
0.0
 71
     0
281
     0
 72
     0
  0
VIEW
  5
A34
330
6
100
AcDbSymbolTableRecord
100
AcDbViewTableRecord
  2
AM_VIEW5
 70
     0
 40
148.5
 10
210.0
 20
148.5
 41
224.1439299123904
 11
0.0
 21
0.0
 31
1.0
 12
0.0
 22
0.0
 32
0.0
 42
50.0
 43
0.0
 44
0.0
 50
0.0
 71
     0
281
     0
 72
     0
  0
VIEW
  5
A35
330
6
100
AcDbSymbolTableRecord
100
AcDbViewTableRecord
  2
AM_VIEW6
 70
     0
 40
296.9970299999999
 10
210.0
 20
148.5
 41
448.2833769461826
 11
0.0
 21
0.0
 31
1.0
 12
0.0
 22
0.0
 32
0.0
 42
50.0
 43
0.0
 44
0.0
 50
0.0
 71
     0
281
     0
 72
     0
  0
ENDTAB
  0
TABLE
  2
UCS
  5
7
330
0
100
AcDbSymbolTable
 70
     0
  0
ENDTAB
  0
TABLE
  2
APPID
  5
9
330
0
100
AcDbSymbolTable
 70
    42
  0
APPID
  5
12
330
9
100
AcDbSymbolTableRecord
100
AcDbRegAppTableRecord
  2
ACAD
 70
     0
  0
APPID
  5
2C
330
9
100
AcDbSymbolTableRecord
100
AcDbRegAppTableRecord
  2
MCAD_NO_VIS
 70
     0
  0
APPID
  5
2D
330
9
100
AcDbSymbolTableRecord
100
AcDbRegAppTableRecord
  2
ACAD_TEMP_GRAPHIC
 70
     0
  0
APPID
  5
B9
330
9
100
AcDbSymbolTableRecord
100
AcDbRegAppTableRecord
  2
GENIUS_GENDTOL_13
 70
     0
  0
APPID
  5
359
330
9
100
AcDbSymbolTableRecord
100
AcDbRegAppTableRecord
  2
GENIUS_GENREC_14
 70
     0
  0
APPID
  5
35A
330
9
100
AcDbSymbolTableRecord
100
AcDbRegAppTableRecord
  2
GENIUS_GENODEF_13
 70
     0
  0
APPID
  5
35B
330
9
100
AcDbSymbolTableRecord
100
AcDbRegAppTableRecord
  2
GENIUS_GENOBJ-N-REC_13
 70
     0
  0
APPID
  5
667
330
9
100
AcDbSymbolTableRecord
100
AcDbRegAppTableRecord
  2
GENIUS_GENCFG_13
 70
     0
  0
APPID
  5
668
330
9
100
AcDbSymbolTableRecord
100
AcDbRegAppTableRecord
  2
GENIUS_GENCFG0_13
 70
     0
  0
APPID
  5
669
330
9
100
AcDbSymbolTableRecord
100
AcDbRegAppTableRecord
  2
GENIUS_GENCFG1_13
 70
     0
  0
APPID
  5
66A
330
9
100
AcDbSymbolTableRecord
100
AcDbRegAppTableRecord
  2
GENIUS_GENCFG2_13
 70
     0
  0
APPID
  5
66B
330
9
100
AcDbSymbolTableRecord
100
AcDbRegAppTableRecord
  2
GENIUS_GENCFG3_13
 70
     0
  0
APPID
  5
66C
330
9
100
AcDbSymbolTableRecord
100
AcDbRegAppTableRecord
  2
GENIUS_GENCFG4_13
 70
     0
  0
APPID
  5
A76
330
9
100
AcDbSymbolTableRecord
100
AcDbRegAppTableRecord
  2
GENIUS_GENBLLY_14
 70
     0
  0
APPID
  5
A77
330
9
100
AcDbSymbolTableRecord
100
AcDbRegAppTableRecord
  2
GENIUS_GENOBJ-N-CEN_13
 70
     0
  0
APPID
  5
A83
330
9
100
AcDbSymbolTableRecord
100
AcDbRegAppTableRecord
  2
GENIUS_GENTRA_14
 70
     0
  0
APPID
  5
A8D
330
9
100
AcDbSymbolTableRecord
100
AcDbRegAppTableRecord
  2
GENIUS_GENOBJ-N-TIT_13
 70
     0
  0
APPID
  5
A8E
330
9
100
AcDbSymbolTableRecord
100
AcDbRegAppTableRecord
  2
GENIUS_GENTITLE_13
 70
     0
  0
APPID
  5
A8F
330
9
100
AcDbSymbolTableRecord
100
AcDbRegAppTableRecord
  2
GENIUS_GENOENT_13
 70
     0
  0
APPID
  5
A90
330
9
100
AcDbSymbolTableRecord
100
AcDbRegAppTableRecord
  2
GENIUS_GENOREF_13
 70
     0
  0
APPID
  5
A91
330
9
100
AcDbSymbolTableRecord
100
AcDbRegAppTableRecord
  2
GENIUS_GENOLIS_13
 70
     0
  0
APPID
  5
A92
330
9
100
AcDbSymbolTableRecord
100
AcDbRegAppTableRecord
  2
GENIUS_GENZVEED_13
 70
     0
  0
APPID
  5
A93
330
9
100
AcDbSymbolTableRecord
100
AcDbRegAppTableRecord
  2
GENIUS_GENSCREG_15
 70
     0
  0
APPID
  5
A94
330
9
100
AcDbSymbolTableRecord
100
AcDbRegAppTableRecord
  2
GENIUS_GENOBJ-N-SDF_13
 70
     0
  0
APPID
  5
12B5
330
9
100
AcDbSymbolTableRecord
100
AcDbRegAppTableRecord
  2
GENIUS_GENOBJ-N-RSBK_13
 70
     0
  0
APPID
  5
12B6
330
9
100
AcDbSymbolTableRecord
100
AcDbRegAppTableRecord
  2
GENIUS_GENOBJ-N-LIB_13
 70
     0
  0
APPID
  5
12B7
330
9
100
AcDbSymbolTableRecord
100
AcDbRegAppTableRecord
  2
GENIUS_GENSCALE_13
 70
     0
  0
APPID
  5
12B8
330
9
100
AcDbSymbolTableRecord
100
AcDbRegAppTableRecord
  2
GENIUS_GENOBJ-N-HTC_13
 70
     0
  0
APPID
  5
12B9
330
9
100
AcDbSymbolTableRecord
100
AcDbRegAppTableRecord
  2
GENIUS_GENHATCH_13
 70
     0
  0
APPID
  5
1C0A
330
9
100
AcDbSymbolTableRecord
100
AcDbRegAppTableRecord
  2
BASE_TYPE
 70
     0
  0
APPID
  5
276B
330
9
100
AcDbSymbolTableRecord
100
AcDbRegAppTableRecord
  2
GENIUS_GENOBJ-N-FIL_13
 70
     0
  0
APPID
  5
3640
330
9
100
AcDbSymbolTableRecord
100
AcDbRegAppTableRecord
  2
GENIUS_GENBH_13
 70
     0
  0
APPID
  5
36D1
330
9
100
AcDbSymbolTableRecord
100
AcDbRegAppTableRecord
  2
GENIUS_GENOBJ-F-SPR_13
 70
     0
  0
APPID
  5
36DA
330
9
100
AcDbSymbolTableRecord
100
AcDbRegAppTableRecord
  2
GENIUS_GEFSPRING_13
 70
     0
  0
APPID
  5
36DB
330
9
100
AcDbSymbolTableRecord
100
AcDbRegAppTableRecord
  2
GENIUS_GEFSPRINGP_13
 70
     0
  0
APPID
  5
4D67
330
9
100
AcDbSymbolTableRecord
100
AcDbRegAppTableRecord
  2
GENIUS_GENFIL_13
 70
     0
  0
APPID
  5
4D68
330
9
100
AcDbSymbolTableRecord
100
AcDbRegAppTableRecord
  2
GENIUS_GENOBJ-N-CHA_13
 70
     0
  0
APPID
  5
AF4E
330
9
100
AcDbSymbolTableRecord
100
AcDbRegAppTableRecord
  2
AD_DRAW
 70
     0
  0
APPID
  5
AF51
330
9
100
AcDbSymbolTableRecord
100
AcDbRegAppTableRecord
  2
ACATTRIBSERVICES
 70
     0
  0
APPID
  5
AF6F
330
9
100
AcDbSymbolTableRecord
100
AcDbRegAppTableRecord
  2
DESIGNERASSEMBLIES
 70
     0
  0
APPID
  5
AF74
330
9
100
AcDbSymbolTableRecord
100
AcDbRegAppTableRecord
  2
ACADM_DIM_EDIT
 70
     0
  0
APPID
  5
AF75
330
9
100
AcDbSymbolTableRecord
100
AcDbRegAppTableRecord
  2
AMDT_DM_ADJ
 70
     0
  0
ENDTAB
  0
TABLE
  2
DIMSTYLE
  5
A
330
0
100
AcDbSymbolTable
 70
    19
100
AcDbDimStyleTable
 71
     0
  0
DIMSTYLE
105
58
330
A
100
AcDbSymbolTableRecord
100
AcDbDimStyleTableRecord
  2
AM_JIS
 70
     0
  4
"
 41
2.5
 42
0.0
 43
10.0
 44
1.0
 47
0.1
 48
0.1000000001
 73
     0
 74
     0
 77
     3
 78
     9
140
3.799999999999998
141
0.0
143
0.0393701
146
0.71
147
1.5
172
     1
176
   256
177
   256
178
     2
271
     2
272
     2
275
     1
283
     0
284
     8
340
11
341
59
342
59
  0
DIMSTYLE
105
65F
330
A
100
AcDbSymbolTableRecord
100
AcDbDimStyleTableRecord
  2
STANDARD
 70
     0
340
11
  0
DIMSTYLE
105
1761
102
{ACAD_REACTORS
330
AB2B
330
ABE4
330
AC55
330
AC74
330
AC81
330
ADC3
102
}
330
A
100
AcDbSymbolTableRecord
100
AcDbDimStyleTableRecord
  2
AM_JIS$0
 70
     0
  4
"
 41
2.5
 42
0.0
 43
10.0
 44
1.0
 47
0.1
 48
0.1000000001
 73
     0
 74
     0
 77
     3
 78
     9
140
3.799999999999998
141
0.0
143
0.0393701
146
0.71
147
1.5
172
     1
176
     3
177
     3
178
     2
271
     2
272
     2
275
     1
283
     0
284
     8
340
11
341
59
342
59
  0
DIMSTYLE
105
AF97
330
A
100
AcDbSymbolTableRecord
100
AcDbDimStyleTableRecord
  2
AM_ISO
 70
     0
  4
"
 41
2.5
 42
1.0
 43
10.0
 44
1.0
 47
0.1
 48
0.1
 73
     0
 74
     0
 77
     1
 78
     8
 79
     2
140
3.5
141
0.0
143
0.0393701
146
0.71
147
1.5
172
     1
176
   256
177
   256
178
     2
271
     2
272
     3
274
     4
283
     0
284
     8
340
11
371
    -1
372
    -1
  0
DIMSTYLE
105
AF98
330
A
100
AcDbSymbolTableRecord
100
AcDbDimStyleTableRecord
  2
AM_ISO$3
 70
     0
  4
"
 41
2.5
 42
1.0
 43
10.0
 44
1.0
 47
0.1
 48
0.1
 73
     0
 77
     1
 78
     8
 79
     2
140
3.5
141
0.0
143
0.0393701
146
0.71
147
1.5
176
   256
177
   256
178
     2
271
     2
272
     3
274
     4
283
     0
284
     8
288
     1
289
     0
340
11
371
    -1
372
    -1
  0
DIMSTYLE
105
AF99
330
A
100
AcDbSymbolTableRecord
100
AcDbDimStyleTableRecord
  2
AM_ISO$4
 70
     0
  4
"
 41
2.5
 42
1.0
 43
10.0
 44
1.0
 47
0.1
 48
0.1
 73
     0
 77
     1
 78
     8
 79
     2
140
3.5
141
0.0
143
0.0393701
146
0.71
147
1.5
176
   256
177
   256
178
     2
271
     2
272
     3
274
     4
283
     0
284
     8
288
     1
289
     0
340
11
371
    -1
372
    -1
  0
DIMSTYLE
105
AF9A
330
A
100
AcDbSymbolTableRecord
100
AcDbDimStyleTableRecord
  2
AM_ISO$6
 70
     0
  4
"
 41
2.5
 42
1.0
 43
10.0
 44
1.0
 47
0.1
 48
0.1
 73
     0
 74
     0
 78
     8
 79
     2
140
3.5
141
0.0
143
0.0393701
146
0.71
147
1.5
172
     1
176
   256
177
   256
178
     2
271
     2
272
     3
274
     4
283
     0
284
     8
340
11
371
    -1
372
    -1
  0
DIMSTYLE
105
AF9B
330
A
100
AcDbSymbolTableRecord
100
AcDbDimStyleTableRecord
  2
AM_ISO$7
 70
     0
  4
"
 41
2.5
 42
1.0
 43
10.0
 44
1.0
 47
0.1
 48
0.1
 73
     0
 74
     0
 77
     1
 78
     8
 79
     2
140
5.0
141
0.0
143
0.0393701
146
0.71
147
1.5
172
     1
176
   256
177
   256
178
     2
271
     2
272
     3
274
     4
283
     0
284
     8
340
11
371
    -1
372
    -1
  0
DIMSTYLE
105
AF9C
330
A
100
AcDbSymbolTableRecord
100
AcDbDimStyleTableRecord
  2
AM_ISO$SF
 70
     0
  4
"
 41
2.5
 42
1.0
 43
10.0
 44
1.0
 47
0.1
 48
0.1
 73
     0
 74
     0
 75
     1
 76
     1
 77
     1
 78
     8
 79
     2
140
3.5
141
0.0
143
0.0393701
146
0.71
147
1.5
172
     1
176
   256
177
   256
178
     2
271
     2
272
     3
274
     4
283
     0
284
     8
340
11
371
    -1
372
    -1
  0
DIMSTYLE
105
AF9D
330
A
100
AcDbSymbolTableRecord
100
AcDbDimStyleTableRecord
  2
AM_ISO$SH
 70
     0
  4
"
 41
2.5
 42
1.0
 43
10.0
 44
1.0
 47
0.1
 48
0.1
 73
     0
 74
     0
 75
     1
 76
     1
 77
     1
 78
     8
 79
     2
140
3.5
141
0.0
143
0.0393701
144
2.0
146
0.71
147
1.5
172
     1
173
     1
176
   256
177
   256
178
     2
271
     2
272
     3
274
     4
283
     0
284
     8
340
11
343
64
371
    -1
372
    -1
  0
ENDTAB
  0
TABLE
  2
BLOCK_RECORD
  5
1
330
0
100
AcDbSymbolTable
 70
    14
  0
BLOCK_RECORD
  5
1F
102
{ACAD_XDICTIONARY
360
165
102
}
330
1
100
AcDbSymbolTableRecord
100
AcDbBlockTableRecord
  2
*MODEL_SPACE
340
AF16
  0
BLOCK_RECORD
  5
1B
102
{ACAD_XDICTIONARY
360
AF09
102
}
330
1
100
AcDbSymbolTableRecord
100
AcDbBlockTableRecord
  2
*PAPER_SPACE
340
AF17
  0
BLOCK_RECORD
  5
59
330
1
100
AcDbSymbolTableRecord
100
AcDbBlockTableRecord
  2
_OPEN30
340
0
102
{BLKREFS
331
AFDC
331
AFDD
331
AFE7
331
AFE8
331
AFF0
331
AFF1
331
AFF9
331
AFFA
331
B002
331
B003
331
B00B
331
B00C
102
}
  0
BLOCK_RECORD
  5
64
330
1
100
AcDbSymbolTableRecord
100
AcDbBlockTableRecord
  2
GENAXEH
340
0
  0
BLOCK_RECORD
  5
AB1E
330
1
100
AcDbSymbolTableRecord
100
AcDbBlockTableRecord
  2
CBF06
340
0
102
{BLKREFS
331
AB29
102
}
  0
BLOCK_RECORD
  5
AB2C
330
1
100
AcDbSymbolTableRecord
100
AcDbBlockTableRecord
  2
*D7
340
0
  0
BLOCK_RECORD
  5
ABE5
330
1
100
AcDbSymbolTableRecord
100
AcDbBlockTableRecord
  2
*D8
340
0
  0
BLOCK_RECORD
  5
AC56
330
1
100
AcDbSymbolTableRecord
100
AcDbBlockTableRecord
  2
*D9
340
0
  0
BLOCK_RECORD
  5
AC75
330
1
100
AcDbSymbolTableRecord
100
AcDbBlockTableRecord
  2
*D10
340
0
  0
BLOCK_RECORD
  5
AC82
330
1
100
AcDbSymbolTableRecord
100
AcDbBlockTableRecord
  2
*D11
340
0
  0
BLOCK_RECORD
  5
ADC4
330
1
100
AcDbSymbolTableRecord
100
AcDbBlockTableRecord
  2
*D12
340
0
  0
ENDTAB
  0
ENDSEC
  0
SECTION
  2
BLOCKS
  0
BLOCK
  5
20
330
1F
100
AcDbEntity
  8
0
100
AcDbBlockBegin
  2
*MODEL_SPACE
 70
     0
 10
0.0
 20
0.0
 30
0.0
  3
*MODEL_SPACE
  1

  0
ENDBLK
  5
21
330
1F
100
AcDbEntity
  8
0
100
AcDbBlockEnd
  0
BLOCK
  5
1C
330
1B
100
AcDbEntity
 67
     1
  8
0
100
AcDbBlockBegin
  2
*PAPER_SPACE
 70
     0
 10
0.0
 20
0.0
 30
0.0
  3
*PAPER_SPACE
  1

  0
ENDBLK
  5
1D
330
1B
100
AcDbEntity
 67
     1
  8
0
100
AcDbBlockEnd
  0
BLOCK
  5
5D
330
59
100
AcDbEntity
  8
0
100
AcDbBlockBegin
  2
_OPEN30
 70
     0
 10
0.0
 20
0.0
 30
0.0
  3
_OPEN30
  1

  0
LINE
  5
5A
330
59
100
AcDbEntity
  8
0
 62
     0
100
AcDbLine
 10
-1.0
 20
0.26794919
 30
0.0
 11
0.0
 21
0.0
 31
0.0
  0
LINE
  5
5B
330
59
100
AcDbEntity
  8
0
 62
     0
100
AcDbLine
 10
0.0
 20
0.0
 30
0.0
 11
-1.0
 21
-0.26794919
 31
0.0
  0
LINE
  5
5C
330
59
100
AcDbEntity
  8
0
 62
     0
100
AcDbLine
 10
0.0
 20
0.0
 30
0.0
 11
-1.0
 21
0.0
 31
0.0
  0
ENDBLK
  5
5E
330
59
100
AcDbEntity
  8
0
100
AcDbBlockEnd
  0
BLOCK
  5
66
330
64
100
AcDbEntity
  8
0
100
AcDbBlockBegin
  2
GENAXEH
 70
     0
 10
0.0
 20
0.0
 30
0.0
  3
GENAXEH
  1

  0
LINE
  5
65
330
64
100
AcDbEntity
  8
0
100
AcDbLine
 10
-1.0
 20
0.0
 30
0.0
 11
1.0
 21
0.0
 31
0.0
  0
ENDBLK
  5
67
330
64
100
AcDbEntity
  8
0
100
AcDbBlockEnd
  0
BLOCK
  5
AB27
330
AB1E
100
AcDbEntity
  8
0
100
AcDbBlockBegin
  2
CBF06
 70
     0
 10
0.0
 20
0.0
 30
0.0
  3
CBF06
  1

  0
CIRCLE
  5
AB1F
330
AB1E
100
AcDbEntity
  8
0
  6
Continuous
100
AcDbCircle
 10
0.0000187875812969
 20
0.0000034482758053
 30
0.0
 40
4.307179353944746
  0
CIRCLE
  5
AB20
330
AB1E
100
AcDbEntity
  8
0
  6
Continuous
100
AcDbCircle
 10
0.0000187875812969
 20
0.0000034482758053
 30
0.0
 40
5.0
  0
LINE
  5
AB21
330
AB1E
100
AcDbEntity
  8
0
  6
Continuous
100
AcDbLine
 10
-1.443356212418706
 20
-2.499995386098901
 30
0.0
 11
1.443393787581185
 21
-2.499995386098901
 31
0.0
  0
LINE
  5
AB22
330
AB1E
100
AcDbEntity
  8
0
  6
Continuous
100
AcDbLine
 10
1.4433937875813
 20
2.500002282650598
 30
0.0
 11
-1.443356212418706
 21
2.500002282650598
 31
0.0
  0
LINE
  5
AB23
330
AB1E
100
AcDbEntity
  8
0
  6
Continuous
100
AcDbLine
 10
-2.886731212418651
 20
0.0000034482758053
 30
0.0
 11
-1.443356212418706
 21
-2.499995386098901
 31
0.0
  0
LINE
  5
AB24
330
AB1E
100
AcDbEntity
  8
0
  6
Continuous
100
AcDbLine
 10
-1.443356212418706
 20
2.500002282650598
 30
0.0
 11
-2.886731212418651
 21
0.0000034482758053
 31
0.0
  0
LINE
  5
AB25
330
AB1E
100
AcDbEntity
  8
0
  6
Continuous
100
AcDbLine
 10
1.443393787581185
 20
-2.499995386098901
 30
0.0
 11
2.886768787581303
 21
0.0000034482758053
 31
0.0
  0
LINE
  5
AB26
330
AB1E
100
AcDbEntity
  8
0
  6
Continuous
100
AcDbLine
 10
2.886768787581303
 20
0.0000034482758053
 30
0.0
 11
1.4433937875813
 21
2.500002282650598
 31
0.0
  0
ENDBLK
  5
AB28
330
AB1E
100
AcDbEntity
  8
0
100
AcDbBlockEnd
  0
BLOCK
  5
AB36
330
AB2C
100
AcDbEntity
  8
0
100
AcDbBlockBegin
  2
*D7
 70
     1
 10
0.0
 20
0.0
 30
0.0
  3
*D7
  1

  0
LINE
  5
AFD9
330
AB2C
100
AcDbEntity
  8
AM_5
 62
     3
370
    -2
100
AcDbLine
 10
0.2587248741756247
 20
-0.0000000000000001
 30
0.0
 11
-20.73420434133515
 21
0.0000000000000059
 31
0.0
  0
LINE
  5
AFDA
330
AB2C
100
AcDbEntity
  8
AM_5
 62
     3
370
    -2
100
AcDbLine
 10
22.9
 20
20.23973652005606
 30
0.0
 11
-20.73420434133515
 21
20.23973652005607
 31
0.0
  0
LINE
  5
AFDB
330
AB2C
100
AcDbEntity
  8
AM_5
 62
     3
370
    -2
100
AcDbLine
 10
-19.73420434133515
 20
2.500000000000005
 30
0.0
 11
-19.73420434133515
 21
17.73973652005606
 31
0.0
  0
INSERT
  5
AFDC
330
AB2C
100
AcDbEntity
  8
AM_5
 62
     3
370
    -2
100
AcDbBlockReference
  2
_OPEN30
 10
-19.73420434133515
 20
0.0000000000000056
 30
0.0
 41
2.5
 42
2.5
 43
2.5
 50
270.0
  0
INSERT
  5
AFDD
330
AB2C
100
AcDbEntity
  8
AM_5
 62
     3
370
    -2
100
AcDbBlockReference
  2
_OPEN30
 10
-19.73420434133515
 20
20.23973652005607
 30
0.0
 41
2.5
 42
2.5
 43
2.5
 50
90.0
  0
MTEXT
  5
AFDE
330
AB2C
100
AcDbEntity
  8
AM_5
 62
     2
100
AcDbMText
 10
-23.13457835708318
 20
10.11986826002803
 30
0.0
 40
3.799999999999998
 41
0.0
 71
     5
 72
     1
  1
20
 11
0.0000000000000001
 21
1.0
 31
0.0
 73
     1
 44
1.0
1001
ACAD
1000
MTEXTBEGIN
1070
    73
1070
     1
1070
    44
1040
1.0
1070
    74
1070
     0
1000
MTEXTEND
  0
POINT
  5
AFDF
330
AB2C
100
AcDbEntity
  8
DEFPOINTS
 62
     0
100
AcDbPoint
 10
0.2587248741756247
 20
-0.0000000000000001
 30
0.0
  0
POINT
  5
AFE0
330
AB2C
100
AcDbEntity
  8
DEFPOINTS
 62
     0
100
AcDbPoint
 10
22.9
 20
20.23973652005606
 30
0.0
  0
POINT
  5
AFE1
330
AB2C
100
AcDbEntity
  8
DEFPOINTS
 62
     0
100
AcDbPoint
 10
-19.73420434133515
 20
20.23973652005607
 30
0.0
  0
ENDBLK
  5
AB37
330
AB2C
100
AcDbEntity
  8
0
100
AcDbBlockEnd
  0
BLOCK
  5
ABF1
330
ABE5
100
AcDbEntity
  8
0
100
AcDbBlockBegin
  2
*D8
 70
     1
 10
0.0
 20
0.0
 30
0.0
  3
*D8
  1

  0
LINE
  5
AFE2
330
ABE5
100
AcDbEntity
  8
AM_5
 62
     3
370
    -2
100
AcDbLine
 10
0.2587248741756247
 20
-0.0000000000000001
 30
0.0
 11
-10.54708834976861
 21
0.000000000000003
 31
0.0
  0
LINE
  5
AFE3
330
ABE5
100
AcDbEntity
  8
AM_5
 62
     3
370
    -2
100
AcDbLine
 10
0.2500000000000007
 20
5.979625333357351
 30
0.0
 11
-10.54708834976861
 21
5.979625333357354
 31
0.0
  0
LINE
  5
AFE4
330
ABE5
100
AcDbEntity
  8
AM_5
 62
     3
370
    -2
100
AcDbLine
 10
-9.547088349768614
 20
-2.499999999999997
 30
0.0
 11
-9.547088349768616
 21
-4.999999999999997
 31
0.0
  0
LINE
  5
AFE5
330
ABE5
100
AcDbEntity
  8
AM_5
 62
     3
370
    -2
100
AcDbLine
 10
-9.547088349768612
 20
8.479625333357352
 30
0.0
 11
-9.547088349768612
 21
10.97962533335735
 31
0.0
  0
LINE
  5
AFE6
330
ABE5
100
AcDbEntity
  8
AM_5
 62
     3
370
    -2
100
AcDbLine
 10
-9.547088349768614
 20
0.0000000000000027
 30
0.0
 11
-9.547088349768612
 21
5.979625333357353
 31
0.0
  0
INSERT
  5
AFE7
330
ABE5
100
AcDbEntity
  8
AM_5
 62
     3
370
    -2
100
AcDbBlockReference
  2
_OPEN30
 10
-9.547088349768614
 20
0.0000000000000027
 30
0.0
 41
2.5
 42
2.5
 43
2.5
 50
90.0
  0
INSERT
  5
AFE8
330
ABE5
100
AcDbEntity
  8
AM_5
 62
     3
370
    -2
100
AcDbBlockReference
  2
_OPEN30
 10
-9.547088349768612
 20
5.979625333357353
 30
0.0
 41
2.5
 42
2.5
 43
2.5
 50
270.0
  0
MTEXT
  5
AFE9
330
ABE5
100
AcDbEntity
  8
AM_5
 62
     2
100
AcDbMText
 10
-12.94708834976861
 20
2.989812666678677
 30
0.0
 40
3.799999999999998
 41
0.0
 71
     5
 72
     1
  1
6
 11
0.0000000000000001
 21
1.0
 31
0.0
 73
     1
 44
1.0
1001
ACAD
1000
MTEXTBEGIN
1070
    73
1070
     1
1070
    44
1040
1.0
1070
    74
1070
     0
1000
MTEXTEND
  0
POINT
  5
AFEA
330
ABE5
100
AcDbEntity
  8
DEFPOINTS
 62
     0
100
AcDbPoint
 10
0.2587248741756247
 20
-0.0000000000000001
 30
0.0
  0
POINT
  5
AFEB
330
ABE5
100
AcDbEntity
  8
DEFPOINTS
 62
     0
100
AcDbPoint
 10
0.2500000000000007
 20
5.979625333357351
 30
0.0
  0
POINT
  5
AFEC
330
ABE5
100
AcDbEntity
  8
DEFPOINTS
 62
     0
100
AcDbPoint
 10
-9.547088349768612
 20
5.979625333357353
 30
0.0
  0
ENDBLK
  5
ABF2
330
ABE5
100
AcDbEntity
  8
0
100
AcDbBlockEnd
  0
BLOCK
  5
AC60
330
AC56
100
AcDbEntity
  8
0
100
AcDbBlockBegin
  2
*D9
 70
     1
 10
0.0
 20
0.0
 30
0.0
  3
*D9
  1

  0
LINE
  5
AFED
330
AC56
100
AcDbEntity
  8
AM_5
 62
     3
370
    -2
100
AcDbLine
 10
125.0
 20
-20.1500388823466
 30
0.0
 11
125.0
 21
-14.13823351112648
 31
0.0
  0
LINE
  5
AFEE
330
AC56
100
AcDbEntity
  8
AM_5
 62
     3
370
    -2
100
AcDbLine
 10
-0.0000000000000028
 20
-20.14559759312275
 30
0.0
 11
-0.0000000000000024
 21
-14.13823351112648
 31
0.0
  0
LINE
  5
AFEF
330
AC56
100
AcDbEntity
  8
AM_5
 62
     3
370
    -2
100
AcDbLine
 10
122.5
 20
-15.13823351112648
 30
0.0
 11
2.499999999999997
 21
-15.13823351112648
 31
0.0
  0
INSERT
  5
AFF0
330
AC56
100
AcDbEntity
  8
AM_5
 62
     3
370
    -2
100
AcDbBlockReference
  2
_OPEN30
 10
125.0
 20
-15.13823351112648
 30
0.0
 41
2.5
 42
2.5
 43
2.5
  0
INSERT
  5
AFF1
330
AC56
100
AcDbEntity
  8
AM_5
 62
     3
370
    -2
100
AcDbBlockReference
  2
_OPEN30
 10
-0.0000000000000025
 20
-15.13823351112648
 30
0.0
 41
2.5
 42
2.5
 43
2.5
 50
180.0
  0
MTEXT
  5
AFF2
330
AC56
100
AcDbEntity
  8
AM_5
 62
     2
100
AcDbMText
 10
62.5
 20
-11.73785949537845
 30
0.0
 40
3.799999999999998
 41
0.0
 71
     5
 72
     1
  1
125
 73
     1
 44
1.0
1001
ACAD
1000
MTEXTBEGIN
1070
    73
1070
     1
1070
    44
1040
1.0
1070
    74
1070
     0
1000
MTEXTEND
  0
POINT
  5
AFF3
330
AC56
100
AcDbEntity
  8
DEFPOINTS
 62
     0
100
AcDbPoint
 10
125.0
 20
-20.1500388823466
 30
0.0
  0
POINT
  5
AFF4
330
AC56
100
AcDbEntity
  8
DEFPOINTS
 62
     0
100
AcDbPoint
 10
-0.0000000000000028
 20
-20.14559759312275
 30
0.0
  0
POINT
  5
AFF5
330
AC56
100
AcDbEntity
  8
DEFPOINTS
 62
     0
100
AcDbPoint
 10
-0.0000000000000025
 20
-15.13823351112648
 30
0.0
  0
ENDBLK
  5
AC61
330
AC56
100
AcDbEntity
  8
0
100
AcDbBlockEnd
  0
BLOCK
  5
AC7F
330
AC75
100
AcDbEntity
  8
0
100
AcDbBlockBegin
  2
*D10
 70
     1
 10
0.0
 20
0.0
 30
0.0
  3
*D10
  1

  0
LINE
  5
AFF6
330
AC75
100
AcDbEntity
  8
AM_5
 62
     3
370
    -2
100
AcDbLine
 10
125.0
 20
-40.76981428474923
 30
0.0
 11
142.0333675347087
 21
-40.76981428474923
 31
0.0
  0
LINE
  5
AFF7
330
AC75
100
AcDbEntity
  8
AM_5
 62
     3
370
    -2
100
AcDbLine
 10
125.0
 20
-60.76981428474923
 30
0.0
 11
142.0333675347087
 21
-60.76981428474923
 31
0.0
  0
LINE
  5
AFF8
330
AC75
100
AcDbEntity
  8
AM_5
 62
     3
370
    -2
100
AcDbLine
 10
141.0333675347087
 20
-43.26981428474923
 30
0.0
 11
141.0333675347087
 21
-58.26981428474923
 31
0.0
  0
INSERT
  5
AFF9
330
AC75
100
AcDbEntity
  8
AM_5
 62
     3
370
    -2
100
AcDbBlockReference
  2
_OPEN30
 10
141.0333675347087
 20
-40.76981428474923
 30
0.0
 41
2.5
 42
2.5
 43
2.5
 50
90.0
  0
INSERT
  5
AFFA
330
AC75
100
AcDbEntity
  8
AM_5
 62
     3
370
    -2
100
AcDbBlockReference
  2
_OPEN30
 10
141.0333675347087
 20
-60.76981428474923
 30
0.0
 41
2.5
 42
2.5
 43
2.5
 50
270.0
  0
MTEXT
  5
AFFB
330
AC75
100
AcDbEntity
  8
AM_5
 62
     2
100
AcDbMText
 10
137.6329935189606
 20
-50.76981428474922
 30
0.0
 40
3.799999999999998
 41
0.0
 71
     5
 72
     1
  1
20
 11
0.0000000000000001
 21
1.0
 31
0.0
 73
     1
 44
1.0
1001
ACAD
1000
MTEXTBEGIN
1070
    73
1070
     1
1070
    44
1040
1.0
1070
    74
1070
     0
1000
MTEXTEND
  0
POINT
  5
AFFC
330
AC75
100
AcDbEntity
  8
DEFPOINTS
 62
     0
100
AcDbPoint
 10
125.0
 20
-40.76981428474923
 30
0.0
  0
POINT
  5
AFFD
330
AC75
100
AcDbEntity
  8
DEFPOINTS
 62
     0
100
AcDbPoint
 10
125.0
 20
-60.76981428474923
 30
0.0
  0
POINT
  5
AFFE
330
AC75
100
AcDbEntity
  8
DEFPOINTS
 62
     0
100
AcDbPoint
 10
141.0333675347087
 20
-60.76981428474923
 30
0.0
  0
ENDBLK
  5
AC80
330
AC75
100
AcDbEntity
  8
0
100
AcDbBlockEnd
  0
BLOCK
  5
AC8C
330
AC82
100
AcDbEntity
  8
0
100
AcDbBlockBegin
  2
*D11
 70
     1
 10
0.0
 20
0.0
 30
0.0
  3
*D11
  1

  0
LINE
  5
AFFF
330
AC82
100
AcDbEntity
  8
AM_5
 62
     3
370
    -2
100
AcDbLine
 10
2.663266001690507
 20
-60.76981428474921
 30
0.0
 11
-20.12328290273057
 21
-60.7698142847492
 31
0.0
  0
LINE
  5
B000
330
AC82
100
AcDbEntity
  8
AM_5
 62
     3
370
    -2
100
AcDbLine
 10
-0.0000000000000053
 20
-40.76981428474952
 30
0.0
 11
-20.12328290273056
 21
-40.76981428474951
 31
0.0
  0
LINE
  5
B001
330
AC82
100
AcDbEntity
  8
AM_5
 62
     3
370
    -2
100
AcDbLine
 10
-19.12328290273056
 20
-58.2698142847492
 30
0.0
 11
-19.12328290273056
 21
-43.26981428474951
 31
0.0
  0
INSERT
  5
B002
330
AC82
100
AcDbEntity
  8
AM_5
 62
     3
370
    -2
100
AcDbBlockReference
  2
_OPEN30
 10
-19.12328290273056
 20
-60.7698142847492
 30
0.0
 41
2.5
 42
2.5
 43
2.5
 50
270.0
  0
INSERT
  5
B003
330
AC82
100
AcDbEntity
  8
AM_5
 62
     3
370
    -2
100
AcDbBlockReference
  2
_OPEN30
 10
-19.12328290273056
 20
-40.76981428474951
 30
0.0
 41
2.5
 42
2.5
 43
2.5
 50
90.0
  0
MTEXT
  5
B004
330
AC82
100
AcDbEntity
  8
AM_5
 62
     2
100
AcDbMText
 10
-22.52365691847859
 20
-50.76981428474937
 30
0.0
 40
3.799999999999998
 41
0.0
 71
     5
 72
     1
  1
20
 11
0.0000000000000001
 21
1.0
 31
0.0
 73
     1
 44
1.0
1001
ACAD
1000
MTEXTBEGIN
1070
    73
1070
     1
1070
    44
1040
1.0
1070
    74
1070
     0
1000
MTEXTEND
  0
POINT
  5
B005
330
AC82
100
AcDbEntity
  8
DEFPOINTS
 62
     0
100
AcDbPoint
 10
2.663266001690507
 20
-60.76981428474921
 30
0.0
  0
POINT
  5
B006
330
AC82
100
AcDbEntity
  8
DEFPOINTS
 62
     0
100
AcDbPoint
 10
-0.0000000000000053
 20
-40.76981428474952
 30
0.0
  0
POINT
  5
B007
330
AC82
100
AcDbEntity
  8
DEFPOINTS
 62
     0
100
AcDbPoint
 10
-19.12328290273056
 20
-40.76981428474951
 30
0.0
  0
ENDBLK
  5
AC8D
330
AC82
100
AcDbEntity
  8
0
100
AcDbBlockEnd
  0
BLOCK
  5
ADCE
330
ADC4
100
AcDbEntity
  8
0
100
AcDbBlockBegin
  2
*D12
 70
     1
 10
0.0
 20
0.0
 30
0.0
  3
*D12
  1

  0
LINE
  5
B008
330
ADC4
100
AcDbEntity
  8
AM_5
 62
     3
370
    -2
100
AcDbLine
 10
125.0
 20
20.23973652005603
 30
0.0
 11
139.54875570699
 21
20.23973652005602
 31
0.0
  0
LINE
  5
B009
330
ADC4
100
AcDbEntity
  8
AM_5
 62
     3
370
    -2
100
AcDbLine
 10
125.0
 20
0.3197365200560283
 30
0.0
 11
139.54875570699
 21
0.3197365200560242
 31
0.0
  0
LINE
  5
B00A
330
ADC4
100
AcDbEntity
  8
AM_5
 62
     3
370
    -2
100
AcDbLine
 10
138.54875570699
 20
17.73973652005602
 30
0.0
 11
138.54875570699
 21
2.819736520056024
 31
0.0
  0
INSERT
  5
B00B
330
ADC4
100
AcDbEntity
  8
AM_5
 62
     3
370
    -2
100
AcDbBlockReference
  2
_OPEN30
 10
138.54875570699
 20
20.23973652005602
 30
0.0
 41
2.5
 42
2.5
 43
2.5
 50
90.0
  0
INSERT
  5
B00C
330
ADC4
100
AcDbEntity
  8
AM_5
 62
     3
370
    -2
100
AcDbBlockReference
  2
_OPEN30
 10
138.54875570699
 20
0.3197365200560244
 30
0.0
 41
2.5
 42
2.5
 43
2.5
 50
270.0
  0
MTEXT
  5
B00D
330
ADC4
100
AcDbEntity
  8
AM_5
 62
     2
100
AcDbMText
 10
135.1483816912419
 20
10.27973652005604
 30
0.0
 40
3.799999999999998
 41
0.0
 71
     5
 72
     1
  1
20
 11
0.0000000000000001
 21
1.0
 31
0.0
 73
     1
 44
1.0
1001
ACAD
1000
MTEXTBEGIN
1070
    73
1070
     1
1070
    44
1040
1.0
1070
    74
1070
     0
1000
MTEXTEND
  0
POINT
  5
B00E
330
ADC4
100
AcDbEntity
  8
DEFPOINTS
 62
     0
100
AcDbPoint
 10
125.0
 20
20.23973652005603
 30
0.0
  0
POINT
  5
B00F
330
ADC4
100
AcDbEntity
  8
DEFPOINTS
 62
     0
100
AcDbPoint
 10
125.0
 20
0.3197365200560283
 30
0.0
  0
POINT
  5
B010
330
ADC4
100
AcDbEntity
  8
DEFPOINTS
 62
     0
100
AcDbPoint
 10
138.54875570699
 20
0.3197365200560244
 30
0.0
  0
ENDBLK
  5
ADCF
330
ADC4
100
AcDbEntity
  8
0
100
AcDbBlockEnd
  0
ENDSEC
  0
SECTION
  2
ENTITIES
  0
TEXT
  5
83BD
330
1F
100
AcDbEntity
  8
AM_6
100
AcDbText
 10
34.47992281295714
 20
-75.43237414781725
 30
0.0
 40
5.0
  1
GMDNR2020-60
 72
     4
 11
56.85244957865256
 21
-72.93237414781725
 31
0.0
100
AcDbText
  0
LINE
  5
AA8D
330
1F
100
AcDbEntity
  8
AM_0
100
AcDbLine
 10
125.0
 20
20.23973652005603
 30
0.0
 11
22.9
 21
20.23973652005606
 31
0.0
  0
LINE
  5
AA8F
330
1F
100
AcDbEntity
  8
AM_0
100
AcDbLine
 10
125.0
 20
20.23973652005603
 30
0.0
 11
125.0
 21
0.3197365200560283
 31
0.0
  0
LINE
  5
AA95
330
1F
100
AcDbEntity
  8
AM_0
100
AcDbLine
 10
39.95213390444644
 20
6.339736520056049
 30
0.0
 11
37.99999999999998
 21
6.33973652005605
 31
0.0
  0
LINE
  5
AA96
330
1F
100
AcDbEntity
  8
AM_0
100
AcDbLine
 10
125.0
 20
-40.76981428474923
 30
0.0
 11
37.99999999999994
 21
-40.7698142847492
 31
0.0
  0
LINE
  5
AA97
330
1F
100
AcDbEntity
  8
AM_0
100
AcDbLine
 10
125.0
 20
-60.76981428474923
 30
0.0
 11
2.768821862714078
 21
-60.76981428474922
 31
0.0
  0
ARC
  5
AA9B
330
1F
100
AcDbEntity
  8
AM_0
100
AcDbCircle
 10
38.09999999999998
 20
-38.40981428474922
 30
0.0
 40
3.0
100
AcDbArc
 50
270.0
 51
308.12491162204
  0
LINE
  5
AA9C
330
1F
100
AcDbEntity
  8
AM_0
100
AcDbLine
 10
34.29999999999996
 20
-42.21981428474922
 30
0.0
 11
34.29999999999998
 21
-60.76981428474923
 31
0.0
  0
LINE
  5
AA9D
330
1F
100
AcDbEntity
  8
AM_0
100
AcDbLine
 10
22.9
 20
20.23973652005606
 30
0.0
 11
22.89999999999999
 21
6.454736520056057
 31
0.0
  0
LINE
  5
AAA0
330
1F
100
AcDbEntity
  8
AM_0
100
AcDbLine
 10
0.5999999999999883
 20
-48.4698142847492
 30
0.0
 11
0.5999999999999887
 21
-45.3198142847492
 31
0.0
  0
LINE
  5
AAA2
330
1F
100
AcDbEntity
  8
AM_0
100
AcDbLine
 10
2.768821862714078
 20
-60.76981428474922
 30
0.0
 11
0.5999999999999883
 21
-48.4698142847492
 31
0.0
  0
ARC
  5
AAA4
330
1F
100
AcDbEntity
  8
AM_0
100
AcDbCircle
 10
31.29999999999999
 20
-45.26981428474922
 30
0.0
 40
3.0
100
AcDbArc
 50
180.9563777213539
 51
0.0
  0
LINE
  5
AAAA
330
1F
100
AcDbEntity
  8
AM_0
100
AcDbLine
 10
41.29999999999997
 20
16.83973652005606
 30
0.0
 11
22.9
 21
16.83973652005606
 31
0.0
  0
LINE
  5
AAAB
330
1F
100
AcDbEntity
  8
AM_0
100
AcDbLine
 10
41.29999999999997
 20
13.63973652005605
 30
0.0
 11
37.99999999999998
 21
13.63973652005605
 31
0.0
  0
ARC
  5
AAAD
330
1F
100
AcDbEntity
  8
AM_0
100
AcDbCircle
 10
41.29999999999997
 20
15.23973652005606
 30
0.0
 40
1.599999999999995
100
AcDbArc
 50
270.0
 51
90.0
  0
LINE
  5
AAAF
330
1F
100
AcDbEntity
  8
AM_0
100
AcDbLine
 10
125.0
 20
-40.76981428474923
 30
0.0
 11
125.0
 21
-60.76981428474923
 31
0.0
  0
LINE
  5
AAB1
330
1F
100
AcDbEntity
  8
AM_0
100
AcDbLine
 10
39.95213390444644
 20
6.339736520056049
 30
0.0
 11
39.95213390444644
 21
0.319736520056052
 31
0.0
  0
LINE
  5
AAB3
330
1F
100
AcDbEntity
  8
AM_0
100
AcDbLine
 10
0.0000000000000003
 20
2.489736520056061
 30
0.0
 11
0.0000000000000007
 21
5.729625333357351
 31
0.0
  0
LINE
  5
AAB5
330
1F
100
AcDbEntity
  8
AM_0
100
AcDbLine
 10
4.799695499808994
 20
5.820898851625591
 30
0.0
 11
0.2587248741756254
 21
5.979473040112124
 31
0.0
  0
LINE
  5
AAB6
330
1F
100
AcDbEntity
  8
AM_0
100
AcDbLine
 10
4.8
 20
5.830847204471026
 30
0.0
 11
4.799999999999999
 21
0.1573562136164539
 31
0.0
  0
LINE
  5
AABA
330
1F
100
AcDbEntity
  8
AM_0
100
AcDbLine
 10
0.5356549443599701
 20
-46.89237831501651
 30
0.0
 11
-0.0000000000000337
 21
-40.7698142847492
 31
0.0
  0
LINE
  5
AABB
330
1F
100
AcDbEntity
  8
AM_0
100
AcDbLine
 10
4.199999999999995
 20
-41.51038760372475
 30
0.0
 11
-0.0000000000000053
 21
-40.7698142847492
 31
0.0
  0
LINE
  5
AAD0
330
1F
100
AcDbEntity
  8
AM_0
100
AcDbLine
 10
4.799999999999993
 20
-40.7698142847492
 30
0.0
 11
4.799999999999993
 21
-45.3198142847492
 31
0.0
  0
LINE
  5
AAD1
330
1F
100
AcDbEntity
  8
AM_0
100
AcDbLine
 10
20.62499999999994
 20
-42.2798142847492
 30
0.0
 11
4.799999999999994
 21
-42.2798142847492
 31
0.0
  0
LINE
  5
AAD6
330
1F
100
AcDbEntity
  8
AM_0
100
AcDbLine
 10
20.62499999999994
 20
-40.7698142847492
 30
0.0
 11
20.62499999999993
 21
-45.3198142847492
 31
0.0
  0
LINE
  5
AADC
330
1F
100
AcDbEntity
  8
AM_0
100
AcDbLine
 10
25.02651601195961
 20
-45.3245071098632
 30
0.0
 11
25.42499999999996
 21
-40.76981428474922
 31
0.0
  0
LINE
  5
AADD
330
1F
100
AcDbEntity
  8
AM_7
100
AcDbLine
 10
39.42140809337952
 20
9.83973652005606
 30
0.0
 11
21.15633898291965
 21
9.839736520056064
 31
0.0
  0
LINE
  5
AADE
330
1F
100
AcDbEntity
  8
AM_7
100
AcDbLine
 10
29.29999999999998
 20
-62.67985509641888
 30
0.0
 11
29.29999999999999
 21
-26.04531558377455
 31
0.0
  0
LINE
  5
AADF
330
1F
100
AcDbEntity
  8
AM_7
100
AcDbLine
 10
29.29999999999999
 20
1.691038582966299
 30
0.0
 11
29.3
 21
18.17373032462823
 31
0.0
  0
LINE
  5
AAE1
330
1F
100
AcDbEntity
  8
AM_0
100
AcDbLine
 10
8.499999999999952
 20
-42.27981428474921
 30
0.0
 11
8.499999999999952
 21
-41.77981428474923
 31
0.0
  0
LINE
  5
AAE2
330
1F
100
AcDbEntity
  8
AM_0
100
AcDbLine
 10
22.49585046607269
 20
-31.97981428474921
 30
0.0
 11
8.49999999999998
 21
-41.77981428474924
 31
0.0
  0
LINE
  5
AAE3
330
1F
100
AcDbEntity
  8
AM_0
100
AcDbLine
 10
34.29999999999996
 20
-44.67981428474921
 30
0.0
 11
25.08291932561355
 21
-44.6798142847492
 31
0.0
  0
LINE
  5
AAE5
330
1F
100
AcDbEntity
  8
AM_0
100
AcDbLine
 10
37.99999999999994
 20
-41.4198142847492
 30
0.0
 11
37.99999999999997
 21
-31.97981428474922
 31
0.0
  0
LINE
  5
AAE6
330
1F
100
AcDbEntity
  8
AM_0
100
AcDbLine
 10
37.99999999999997
 20
-31.97981428474922
 30
0.0
 11
22.49585046607269
 21
-31.97981428474921
 31
0.0
  0
LINE
  5
AAE7
330
1F
100
AcDbEntity
  8
AM_0
100
AcDbLine
 10
38.09999999999998
 20
-41.4198142847492
 30
0.0
 11
35.09999999999998
 21
-41.4198142847492
 31
0.0
  0
ARC
  5
AAE9
330
1F
100
AcDbEntity
  8
AM_0
100
AcDbCircle
 10
35.09999999999998
 20
-42.21981428474922
 30
0.0
 40
0.8
100
AcDbArc
 50
90.0
 51
180.0
  0
LINE
  5
AAEB
330
1F
100
AcDbEntity
  8
AM_0
100
AcDbLine
 10
23.96578643762687
 20
-39.97981428474921
 30
0.0
 11
20.49999999999995
 21
-39.97981428474921
 31
0.0
  0
LINE
  5
AAEC
330
1F
100
AcDbEntity
  8
AM_0
100
AcDbLine
 10
18.99999999999995
 20
-42.2798142847492
 30
0.0
 11
18.99999999999995
 21
-41.4798142847492
 31
0.0
  0
ARC
  5
AAED
330
1F
100
AcDbEntity
  8
AM_0
100
AcDbCircle
 10
20.49999999999995
 20
-41.4798142847492
 30
0.0
 40
1.5
100
AcDbArc
 50
90.0
 51
179.9999999999998
  0
ARC
  5
AAF1
330
1F
100
AcDbEntity
  8
AM_0
100
AcDbCircle
 10
25.37999999999998
 20
-40.4798142847492
 30
0.0
 40
1.5
100
AcDbArc
 50
267.6787485355877
 51
160.5287793655095
  0
LINE
  5
AAF8
330
1F
100
AcDbEntity
  8
AM_0
100
AcDbLine
 10
35.29999999999996
 20
-41.4198142847492
 30
0.0
 11
34.29999999999996
 21
-42.41981428474921
 31
0.0
  0
LINE
  5
AB07
330
1F
100
AcDbEntity
  8
AM_0
 48
0.3
100
AcDbLine
 10
29.29999999999999
 20
-28.07981428474922
 30
0.0
 11
24.29999999999999
 21
-28.07981428474922
 31
0.0
  0
LINE
  5
AB08
330
1F
100
AcDbEntity
  8
AM_0
 48
0.3
100
AcDbLine
 10
24.29999999999999
 20
-28.07981428474922
 30
0.0
 11
24.99282032302754
 21
-27.67981428474921
 31
0.0
  0
LINE
  5
AB09
330
1F
100
AcDbEntity
  8
AM_0
 48
0.3
100
AcDbLine
 10
24.29999999999999
 20
-28.07981428474925
 30
0.0
 11
24.29999999999999
 21
-31.97981428474921
 31
0.0
  0
LINE
  5
AB0A
330
1F
100
AcDbEntity
  8
AM_0
 48
0.3
100
AcDbLine
 10
34.29999999999999
 20
-28.07981428474922
 30
0.0
 11
34.29999999999998
 21
-31.97981428474921
 31
0.0
  0
LINE
  5
AB0B
330
1F
100
AcDbEntity
  8
AM_0
 48
0.3
100
AcDbLine
 10
34.29999999999999
 20
-28.07981428474922
 30
0.0
 11
29.29999999999999
 21
-28.07981428474922
 31
0.0
  0
LINE
  5
AB0C
330
1F
100
AcDbEntity
  8
AM_0
 48
0.3
100
AcDbLine
 10
34.29999999999999
 20
-28.07981428474922
 30
0.0
 11
33.60717967697245
 21
-27.67981428474921
 31
0.0
  0
LINE
  5
AB0D
330
1F
100
AcDbEntity
  8
AM_0
 48
0.3
100
AcDbLine
 10
33.60717967697245
 20
-27.67981428474921
 30
0.0
 11
24.99282032302754
 21
-27.67981428474921
 31
0.0
  0
LINE
  5
AB0E
330
1F
100
AcDbEntity
  8
AM_0
100
AcDbLine
 10
37.99999999999998
 20
0.5397365200560662
 30
0.0
 11
22.49585046607269
 21
0.539736520056068
 31
0.0
  0
LINE
  5
AB0F
330
1F
100
AcDbEntity
  8
AM_0
100
AcDbLine
 10
37.99999999999998
 20
0.5397365200560662
 30
0.0
 11
37.99999999999998
 21
16.83973652005606
 31
0.0
  0
LINE
  5
AB11
330
1F
100
AcDbEntity
  8
AM_0
100
AcDbLine
 10
23.00000000000001
 20
5.339736520056079
 30
0.0
 11
22.99999999999998
 21
16.83973652005606
 31
0.0
  0
LINE
  5
AB12
330
1F
100
AcDbEntity
  8
AM_0
100
AcDbLine
 10
20.2
 20
4.539736520056078
 30
0.0
 11
12.50000000000001
 21
4.539736520056079
 31
0.0
  0
LINE
  5
AB13
330
1F
100
AcDbEntity
  8
AM_0
100
AcDbLine
 10
22.49585046607269
 20
0.5397365200560787
 30
0.0
 11
12.49942569699585
 21
0.53973652005608
 31
0.0
  0
LINE
  5
AB14
330
1F
100
AcDbEntity
  8
AM_0
100
AcDbLine
 10
6.499999999999985
 20
0.7489859106122474
 30
0.0
 11
6.499999999999986
 21
4.328141656648416
 31
0.0
  0
LINE
  5
AB16
330
1F
100
AcDbEntity
  8
AM_0
100
AcDbLine
 10
12.49999999999998
 20
4.539736520056107
 30
0.0
 11
6.503655037885394
 21
4.330339539841075
 31
0.0
  0
LINE
  5
AB17
330
1F
100
AcDbEntity
  8
AM_0
100
AcDbLine
 10
12.49942569699594
 20
0.53973652005608
 30
0.0
 11
6.502506781727517
 21
0.7491535431568643
 31
0.0
  0
LINE
  5
AB19
330
1F
100
AcDbEntity
  8
AM_0
100
AcDbLine
 10
22.49585046607269
 20
4.596451580262078
 30
0.0
 11
22.49585046607269
 21
0.5397365200560822
 31
0.0
  0
ARC
  5
AB1A
330
1F
100
AcDbEntity
  8
AM_0
100
AcDbCircle
 10
22.2
 20
5.339736520056079
 30
0.0
 40
0.8
100
AcDbArc
 50
270.0
 51
0.0
  0
CIRCLE
  5
AB1D
330
1F
100
AcDbEntity
  8
AM_0
100
AcDbCircle
 10
29.32420413329392
 20
9.839736520056062
 30
0.0
 40
5.5
  0
INSERT
  5
AB29
330
1F
100
AcDbEntity
  8
AM_0
100
AcDbBlockReference
  2
CBF06
 10
29.29999999999999
 20
9.839736520056062
 30
0.0
  0
DIMENSION
  5
AB2B
330
1F
100
AcDbEntity
  8
AM_5
100
AcDbDimension
  2
*D7
 10
-19.73420434133515
 20
20.23973652005607
 30
0.0
 11
-23.13457835708318
 21
10.11986826002803
 31
0.0
 70
    32
 71
     5
 42
20.23973652005606
  3
AM_JIS$0
100
AcDbAlignedDimension
 13
0.2587248741756247
 23
-0.0000000000000001
 33
0.0
 14
22.9
 24
20.23973652005606
 34
0.0
 50
89.99999999999998
100
AcDbRotatedDimension
1001
ACAD
1000
DSTYLE
1002
{
1070
   271
1070
     0
1002
}
  0
LINE
  5
AB9B
330
1F
100
AcDbEntity
  8
AM_0
100
AcDbLine
 10
0.5999999999999886
 20
-46.18625551973183
 30
0.0
 11
0.4738772047153303
 21
-46.18625551973183
 31
0.0
  0
LINE
  5
ABA1
330
1F
100
AcDbEntity
  8
AM_0
100
AcDbLine
 10
4.799999999999993
 20
-40.7698142847492
 30
0.0
 11
2.499999999999994
 21
-40.7698142847492
 31
0.0
  0
LINE
  5
ABA2
330
1F
100
AcDbEntity
  8
AM_0
100
AcDbLine
 10
2.499999999999994
 20
-40.7698142847492
 30
0.0
 11
1.969615506024404
 21
-41.11711064008306
 31
0.0
  0
LINE
  5
ABA3
330
1F
100
AcDbEntity
  8
AM_0
100
AcDbLine
 10
4.199999999999995
 20
-41.51038760372475
 30
0.0
 11
4.799999999999993
 21
-40.7698142847492
 31
0.0
  0
LINE
  5
ABA4
330
1F
100
AcDbEntity
  8
AM_0
100
AcDbLine
 10
22.92499999999991
 20
-40.76981428474922
 30
0.0
 11
23.4553844939755
 21
-41.11711064008306
 31
0.0
  0
LINE
  5
ABA5
330
1F
100
AcDbEntity
  8
AM_0
100
AcDbLine
 10
21.22499999999991
 20
-41.51038760372476
 30
0.0
 11
20.62499999999991
 21
-40.7698142847492
 31
0.0
  0
LINE
  5
ABA6
330
1F
100
AcDbEntity
  8
AM_0
100
AcDbLine
 10
20.62499999999991
 20
-40.7698142847492
 30
0.0
 11
22.92499999999991
 21
-40.76981428474922
 31
0.0
  0
LINE
  5
ABA7
330
1F
100
AcDbEntity
  8
AM_0
100
AcDbLine
 10
21.22499999999991
 20
-41.51038760372476
 30
0.0
 11
25.42499999999991
 21
-40.76981428474922
 31
0.0
  0
DIMENSION
  5
ABE4
330
1F
100
AcDbEntity
  8
AM_5
100
AcDbDimension
  2
*D8
 10
-9.547088349768612
 20
5.979625333357353
 30
0.0
 11
-12.94708834976861
 21
2.989812666678677
 31
0.0
 70
    32
 71
     5
 42
5.979625333357351
  3
AM_JIS$0
100
AcDbAlignedDimension
 13
0.2587248741756247
 23
-0.0000000000000001
 33
0.0
 14
0.2500000000000007
 24
5.979625333357351
 34
0.0
 50
89.99999999999998
100
AcDbRotatedDimension
1001
ACAD
1000
DSTYLE
1002
{
1070
   271
1070
     0
1002
}
  0
LINE
  5
AC52
330
1F
100
AcDbEntity
  8
AM_1
100
AcDbLine
 10
125.0
 20
0.4697365200560303
 30
0.0
 11
125.0
 21
-40.76981428474923
 31
0.0
  0
LINE
  5
AC53
330
1F
100
AcDbEntity
  8
AM_1
100
AcDbLine
 10
0.0
 20
0.2498477067547738
 30
0.0
 11
-0.0000000000000053
 21
-40.76981428474919
 31
0.0
  0
DIMENSION
  5
AC55
330
1F
100
AcDbEntity
  8
AM_5
100
AcDbDimension
  2
*D9
 10
-0.0000000000000025
 20
-15.13823351112648
 30
0.0
 11
62.5
 21
-11.73785949537845
 31
0.0
 70
    32
 71
     5
 42
125.0
  3
AM_JIS$0
100
AcDbAlignedDimension
 13
125.0
 23
-20.1500388823466
 33
0.0
 14
-0.0000000000000028
 24
-20.14559759312275
 34
0.0
 50
180.0
100
AcDbRotatedDimension
  0
DIMENSION
  5
AC74
330
1F
100
AcDbEntity
  8
AM_5
100
AcDbDimension
  2
*D10
 10
141.0333675347087
 20
-60.76981428474923
 30
0.0
 11
137.6329935189606
 21
-50.76981428474922
 31
0.0
 70
    32
 71
     5
 42
20.0
  3
AM_JIS$0
100
AcDbAlignedDimension
 13
125.0
 23
-40.76981428474923
 33
0.0
 14
125.0
 24
-60.76981428474923
 34
0.0
 50
270.0
100
AcDbRotatedDimension
  0
DIMENSION
  5
AC81
330
1F
100
AcDbEntity
  8
AM_5
100
AcDbDimension
  2
*D11
 10
-19.12328290273056
 20
-40.76981428474951
 30
0.0
 11
-22.52365691847859
 21
-50.76981428474937
 31
0.0
 70
    32
 71
     5
 42
19.99999999999969
  3
AM_JIS$0
100
AcDbAlignedDimension
 13
2.663266001690507
 23
-60.76981428474921
 33
0.0
 14
-0.0000000000000053
 24
-40.76981428474952
 34
0.0
 50
270.0
100
AcDbRotatedDimension
  0
LINE
  5
AD37
330
1F
100
AcDbEntity
  8
AM_0
100
AcDbLine
 10
22.2
 20
4.539736520056078
 30
0.0
 11
12.49942569699585
 21
4.539736520056079
 31
0.0
  0
LINE
  5
AD3A
330
1F
100
AcDbEntity
  8
AM_0
100
AcDbLine
 10
0.0000000000000003
 20
2.489736520056075
 30
0.0
 11
0.0
 21
0.2520419236244351
 31
0.0
  0
LINE
  5
AD79
330
1F
100
AcDbEntity
  8
AM_0
100
AcDbLine
 10
28.30482053960032
 20
-45.3198142847492
 30
0.0
 11
0.5999999999999887
 21
-45.3198142847492
 31
0.0
  0
DIMENSION
  5
ADC3
330
1F
100
AcDbEntity
  8
AM_5
100
AcDbDimension
  2
*D12
 10
138.54875570699
 20
0.3197365200560244
 30
0.0
 11
135.1483816912419
 21
10.27973652005604
 31
0.0
 70
    32
 71
     5
 42
19.91999999999999
  3
AM_JIS$0
100
AcDbAlignedDimension
 13
125.0
 23
20.23973652005603
 33
0.0
 14
125.0
 24
0.3197365200560283
 34
0.0
 50
270.0
100
AcDbRotatedDimension
1001
ACAD
1000
DSTYLE
1002
{
1070
   271
1070
     0
1002
}
  0
LINE
  5
ADD9
330
1F
100
AcDbEntity
  8
AM_0
100
AcDbLine
 10
34.29999999999999
 20
0.3197365200560537
 30
0.0
 11
34.29999999999999
 21
0.5397365200560667
 31
0.0
  0
LINE
  5
ADE6
330
1F
100
AcDbEntity
  8
AM_0
100
AcDbLine
 10
34.29999999999999
 20
0.3247365200560537
 30
0.0
 11
25.42499999999995
 21
0.3247365200560561
 31
0.0
  0
LINE
  5
ADE9
330
1F
100
AcDbEntity
  8
AM_0
100
AcDbLine
 10
125.0
 20
0.3197365200560299
 30
0.0
 11
34.29999999999999
 21
0.3197365200560537
 31
0.0
  0
LINE
  5
AE2A
330
1F
100
AcDbEntity
  8
AM_0
100
AcDbLine
 10
7.774443905315284
 20
0.7047365200560602
 30
0.0
 11
4.799999999999998
 21
0.7047365200560614
 31
0.0
  0
LINE
  5
AE2B
330
1F
100
AcDbEntity
  8
AM_0
100
AcDbLine
 10
20.62499999999994
 20
5.274736520056054
 30
0.0
 11
4.8
 21
5.274736520056059
 31
0.0
  0
LINE
  5
AE2F
330
1F
100
AcDbEntity
  8
AM_0
100
AcDbLine
 10
20.62499999999994
 20
5.82089885162559
 30
0.0
 11
20.62499999999994
 21
4.539736520056078
 31
0.0
  0
ARC
  5
AE4E
330
1F
100
AcDbEntity
  8
AM_0
100
AcDbCircle
 10
0.2500000000000007
 20
5.729625333357351
 30
0.0
 40
0.25
100
AcDbArc
 50
88.00000000000009
 51
180.0
  0
ARC
  5
AE5A
330
1F
100
AcDbEntity
  8
AM_0
100
AcDbCircle
 10
0.25
 20
0.2498477067547738
 30
0.0
 40
0.25
100
AcDbArc
 50
179.4971160795104
 51
271.9999999999999
  0
LINE
  5
AE5B
330
1F
100
AcDbEntity
  8
AM_0
100
AcDbLine
 10
4.799695499808994
 20
0.1585741884865306
 30
0.0
 11
0.2587248741756247
 21
0.0000000000000001
 31
0.0
  0
ARC
  5
AE5C
330
1F
100
AcDbEntity
  8
AM_0
100
AcDbCircle
 10
25.17499999999995
 20
0.2498477067547708
 30
0.0
 40
0.25
100
AcDbArc
 50
268.0000000000001
 51
0.5028839204893743
  0
LINE
  5
AE5E
330
1F
100
AcDbEntity
  8
AM_0
100
AcDbLine
 10
20.62530450019094
 20
0.1585741884865286
 30
0.0
 11
25.16627512582431
 21
-0.0000000000000029
 31
0.0
  0
LINE
  5
AE61
330
1F
100
AcDbEntity
  8
AM_0
100
AcDbLine
 10
20.62530450019094
 20
5.82089885162559
 30
0.0
 11
22.99801019458106
 21
5.90375556025114
 31
0.0
  0
LINE
  5
AE62
330
1F
100
AcDbEntity
  8
AM_0
100
AcDbLine
 10
20.62499999999994
 20
0.3247365200560572
 30
0.0
 11
4.799999999999999
 21
0.3247365200560614
 31
0.0
  0
LINE
  5
AE63
330
1F
100
AcDbEntity
  8
AM_0
100
AcDbLine
 10
20.62499999999994
 20
0.5397365200560789
 30
0.0
 11
20.62499999999994
 21
0.1573562136164519
 31
0.0
  0
LINE
  5
AE65
330
1F
100
AcDbEntity
  8
AM_0
100
AcDbLine
 10
25.42499999999995
 20
0.5397365200560678
 30
0.0
 11
25.42499999999995
 21
0.252041923624432
 31
0.0
  0
LINE
  5
AE69
330
1F
100
AcDbEntity
  8
AM_0
100
AcDbLine
 10
20.62499999999994
 20
5.654736520056056
 30
0.0
 11
4.799999999999998
 21
5.65473652005606
 31
0.0
  0
ARC
  5
AE6A
330
1F
100
AcDbEntity
  8
AM_0
100
AcDbCircle
 10
22.09999999999998
 20
6.454736520056057
 30
0.0
 40
0.8
100
AcDbArc
 50
315.3243041929447
 51
0.0
  0
ENDSEC
  0
SECTION
  2
OBJECTS
  0
DICTIONARY
  5
C
330
0
100
AcDbDictionary
281
     1
  3
ACAD_COLOR
350
AF13
  3
ACAD_GROUP
350
D
  3
ACAD_LAYOUT
350
1A
  3
ACAD_MATERIAL
350
AF12
  3
ACAD_MLINESTYLE
350
17
  3
ACAD_PLOTSETTINGS
350
19
  3
ACAD_PLOTSTYLENAME
350
E
  3
ACAD_TABLESTYLE
350
AF14
  3
ACDBHEADERROUNDTRIPXREC
350
B018
  3
ACDBVARIABLEDICTIONARY
350
30
  3
ACMDICTIONARY
350
4D
  3
AMG
350
3F
  3
AMGSNAPSETTINGS
350
73
  3
DWGPROPS
350
B017
  3
ENG_DATA
350
21C6
  3
FILENAME
350
21C9
  3
HOLD_DIC_DATA
350
21C4
  3
TABLE_DIC_DATA
350
1C0B
  3
ZWKSIZE
350
21CB
  0
DICTIONARY
  5
165
330
1F
100
AcDbDictionary
280
     1
281
     1
  3
ACAD_INDEX
360
AED9
  3
ACAD_LAYOUTSELFREF
360
AF0B
  0
DICTIONARY
  5
AF09
330
1B
100
AcDbDictionary
280
     1
281
     1
  3
ACAD_LAYOUTSELFREF
360
AF0A
  0
DICTIONARY
  5
AF13
102
{ACAD_REACTORS
330
C
102
}
330
C
100
AcDbDictionary
281
     1
  0
DICTIONARY
  5
D
102
{ACAD_REACTORS
330
C
102
}
330
C
100
AcDbDictionary
281
     1
  3
*A1
350
7C0D
  3
*A2
350
7C0E
  3
*A3
350
7FE3
  3
*A4
350
8E0E
  0
DICTIONARY
  5
1A
102
{ACAD_REACTORS
330
C
102
}
330
C
100
AcDbDictionary
281
     1
  3
Model
350
AF16
  3
レイアウト1
350
AF17
  0
DICTIONARY
  5
AF12
102
{ACAD_REACTORS
330
C
102
}
330
C
100
AcDbDictionary
281
     1
  0
DICTIONARY
  5
17
102
{ACAD_REACTORS
330
C
102
}
330
C
100
AcDbDictionary
281
     1
  3
STANDARD
350
18
  0
DICTIONARY
  5
19
102
{ACAD_REACTORS
330
C
102
}
330
C
100
AcDbDictionary
281
     1
  0
ACDBDICTIONARYWDFLT
  5
E
102
{ACAD_REACTORS
330
C
102
}
330
C
100
AcDbDictionary
281
     1
  3
Normal
350
F
100
AcDbDictionaryWithDefault
340
F
  0
DICTIONARY
  5
AF14
102
{ACAD_REACTORS
330
C
102
}
330
C
100
AcDbDictionary
281
     1
  3
Standard
350
AF15
  0
DICTIONARY
  5
B018
102
{ACAD_REACTORS
330
C
102
}
330
C
100
AcDbDictionary
281
     1
  0
DICTIONARY
  5
30
102
{ACAD_REACTORS
330
C
102
}
330
C
100
AcDbDictionary
281
     1
  3
CTABLESTYLE
350
B013
  3
DIMASSOC
350
B014
  3
INDEXCTL
350
31
  3
PROJECTNAME
350
B015
  3
SORTENTS
350
42BE
  0
DICTIONARY
  5
4D
102
{ACAD_REACTORS
330
C
102
}
330
C
100
AcDbDictionary
281
     1
  3
ACMSTDDICTIONARY
350
17E
  3
AMDTSECTSYM_ARROWCOLOR
350
AF8F
  0
DICTIONARY
  5
3F
102
{ACAD_REACTORS
330
C
102
}
330
C
100
AcDbDictionary
281
     1
  0
DICTIONARY
  5
73
102
{ACAD_REACTORS
330
C
102
}
330
C
100
AcDbDictionary
281
     1
  0
XRECORD
  5
B017
102
{ACAD_REACTORS
330
C
102
}
330
C
100
AcDbXrecord
280
     1
  1
DWGPROPS COOKIE
  2

  3

  4

  6

  7

  8

  9

300
AmdtFileType=82
301
=
302
=
303
=
304
=
305
=
306
=
307
=
308
=
309
=
 40
0.9889362152777778
 41
2451943.610431666
 42
2455601.7121072
  1

 90
        1
  0
DICTIONARY
  5
21C6
102
{ACAD_REACTORS
330
C
102
}
330
C
100
AcDbDictionary
281
     1
  3
ENG_ID
350
21C7
  0
DICTIONARY
  5
21C9
102
{ACAD_REACTORS
330
C
102
}
330
C
100
AcDbDictionary
281
     1
  3
FILENAME
350
21CA
  0
DICTIONARY
  5
21C4
102
{ACAD_REACTORS
330
C
102
}
330
C
100
AcDbDictionary
281
     1
  3
HOLD_DATA
350
21C5
  0
DICTIONARY
  5
1C0B
102
{ACAD_REACTORS
330
C
102
}
330
C
100
AcDbDictionary
281
     1
  3
INPUT_DATA
350
1C0D
  3
TABLE_DATA
350
1C0C
  0
DICTIONARY
  5
21CB
102
{ACAD_REACTORS
330
C
102
}
330
C
100
AcDbDictionary
281
     1
  3
ZWKSIZE
350
21CC
  0
DICTIONARY
  5
AED9
102
{ACAD_REACTORS
330
165
102
}
330
165
100
AcDbDictionary
281
     1
  3
*A1
350
AEDA
  0
XRECORD
  5
AF0B
102
{ACAD_REACTORS
330
165
102
}
330
165
100
AcDbXrecord
280
     1
340
1F
  0
XRECORD
  5
AF0A
102
{ACAD_REACTORS
330
AF09
102
}
330
AF09
100
AcDbXrecord
280
     1
340
1B
  0
GROUP
  5
7C0D
102
{ACAD_REACTORS
330
D
102
}
330
D
100
AcDbGroup
300

 70
     1
 71
     1
  0
GROUP
  5
7C0E
102
{ACAD_REACTORS
330
D
102
}
330
D
100
AcDbGroup
300

 70
     1
 71
     1
  0
GROUP
  5
7FE3
102
{ACAD_REACTORS
330
D
102
}
330
D
100
AcDbGroup
300

 70
     1
 71
     1
  0
GROUP
  5
8E0E
102
{ACAD_REACTORS
330
D
102
}
330
D
100
AcDbGroup
300

 70
     1
 71
     1
  0
LAYOUT
  5
AF16
102
{ACAD_XDICTIONARY
360
B019
102
}
102
{ACAD_REACTORS
330
1A
102
}
330
1A
100
AcDbPlotSettings
  1

  2
SII LP-1010 (C2 VR)2R
  4

  6

 40
0.0
 41
0.0
 42
0.0
 43
0.0
 44
0.0
 45
0.0
 46
0.0
 47
0.0
 48
0.0
 49
0.0
140
0.0
141
0.0
142
1.0
143
1.0
 70
  1712
 72
     0
 73
     0
 74
     0
  7
sei_cad.ctb
 75
     0
147
1.0
148
0.0
149
0.0
100
AcDbLayout
  1
Model
 70
     1
 71
     0
 10
0.0
 20
0.0
 11
12.0
 21
9.0
 12
0.0
 22
0.0
 32
0.0
 14
0.0
 24
0.0
 34
0.0
 15
0.0
 25
0.0
 35
0.0
146
0.0
 13
0.0
 23
0.0
 33
0.0
 16
1.0
 26
0.0
 36
0.0
 17
0.0
 27
1.0
 37
0.0
 76
     0
330
1F
  0
LAYOUT
  5
AF17
102
{ACAD_XDICTIONARY
360
B01B
102
}
102
{ACAD_REACTORS
330
1A
102
}
330
1A
100
AcDbPlotSettings
  1

  2
SII LP-1010 (C2 VR)2R
  4

  6

 40
0.0
 41
0.0
 42
0.0
 43
0.0
 44
0.0
 45
0.0
 46
0.0
 47
0.0
 48
0.0
 49
0.0
140
0.0
141
0.0
142
1.0
143
1.0
 70
   688
 72
     0
 73
     0
 74
     5
  7
sei_cad.ctb
 75
    16
147
1.0
148
0.0
149
0.0
100
AcDbLayout
  1
レイアウト1
 70
     1
 71
     1
 10
0.0
 20
0.0
 11
420.0
 21
297.0
 12
0.0
 22
0.0
 32
0.0
 14
1.000000000000000E+20
 24
1.000000000000000E+20
 34
1.000000000000000E+20
 15
-1.000000000000000E+20
 25
-1.000000000000000E+20
 35
-1.000000000000000E+20
146
0.0
 13
0.0
 23
0.0
 33
0.0
 16
1.0
 26
0.0
 36
0.0
 17
0.0
 27
1.0
 37
0.0
 76
     0
330
1B
  0
MLINESTYLE
  5
18
102
{ACAD_REACTORS
330
17
102
}
330
17
100
AcDbMlineStyle
  2
STANDARD
 70
     0
  3

 62
   256
 51
90.0
 52
90.0
 71
     2
 49
0.5
 62
   256
  6
BYLAYER
 49
-0.5
 62
   256
  6
BYLAYER
  0
ACDBPLACEHOLDER
  5
F
102
{ACAD_REACTORS
330
E
102
}
330
E
  0
TABLESTYLE
  5
AF15
102
{ACAD_REACTORS
330
AF14
102
}
330
AF14
100
AcDbTableStyle
  3
Standard
 70
     0
 71
     0
 40
1.5
 41
1.5
280
     0
281
     0
  7
STANDARD
140
4.5
170
     2
 62
     0
 63
     7
283
     0
274
    -2
284
     1
 64
     0
275
    -2
285
     1
 65
     0
276
    -2
286
     1
 66
     0
277
    -2
287
     1
 67
     0
278
    -2
288
     1
 68
     0
279
    -2
289
     1
 69
     0
  7
STANDARD
140
6.0
170
     5
 62
     0
 63
     7
283
     0
274
    -2
284
     1
 64
     0
275
    -2
285
     1
 65
     0
276
    -2
286
     1
 66
     0
277
    -2
287
     1
 67
     0
278
    -2
288
     1
 68
     0
279
    -2
289
     1
 69
     0
  7
STANDARD
140
4.5
170
     5
 62
     0
 63
     7
283
     0
274
    -2
284
     1
 64
     0
275
    -2
285
     1
 65
     0
276
    -2
286
     1
 66
     0
277
    -2
287
     1
 67
     0
278
    -2
288
     1
 68
     0
279
    -2
289
     1
 69
     0
  0
DICTIONARYVAR
  5
B013
102
{ACAD_REACTORS
330
30
102
}
330
30
100
DictionaryVariables
280
     0
  1
STANDARD
  0
DICTIONARYVAR
  5
B014
102
{ACAD_REACTORS
330
30
102
}
330
30
100
DictionaryVariables
280
     0
  1
1
  0
DICTIONARYVAR
  5
31
102
{ACAD_REACTORS
330
30
102
}
330
30
100
DictionaryVariables
280
     0
  1
1
  0
DICTIONARYVAR
  5
B015
102
{ACAD_REACTORS
330
30
102
}
330
30
100
DictionaryVariables
280
     0
  1

  0
DICTIONARYVAR
  5
42BE
102
{ACAD_REACTORS
330
30
102
}
330
30
100
DictionaryVariables
280
     0
  1
96
  0
DICTIONARY
  5
17E
102
{ACAD_REACTORS
330
4D
102
}
330
4D
100
AcDbDictionary
281
     1
  0
XRECORD
  5
AF8F
102
{ACAD_REACTORS
330
4D
102
}
330
4D
100
AcDbXrecord
280
     1
 90
-1023410169
  0
XRECORD
  5
21C7
102
{ACAD_REACTORS
330
21C6
102
}
330
21C6
100
AcDbXrecord
280
     1
  1
HOLD
  0
XRECORD
  5
21CA
102
{ACAD_REACTORS
330
21C9
102
}
330
21C9
100
AcDbXrecord
280
     1
  1
21000065__00___
  0
XRECORD
  5
21C5
102
{ACAD_REACTORS
330
21C4
102
}
330
21C4
100
AcDbXrecord
280
     1
  1
クランクシャフト加工用 ^M^J１コーナー型 ^M^J15.875 ^M^J20 ^M^Jクランプオン ^M^J９０° ^M^J1 ^M^J鋼 ^M^J ^M^J ^M^J ^M^J ^M^J
  0
XRECORD
  5
1C0D
102
{ACAD_REACTORS
330
1C0B
102
}
330
1C0B
100
AcDbXrecord
280
     1
  1
1,,,,,,,,,^M^J2,,,,,,,,,^M^J3,,,,,,,,,^M^J4,,,,,,,,,^M^J5,,,,,,,,,^M^J6,,,,,,,,,^M^J7,,,,,,,,,^M^J8,,,,,,,,,^M^J9,,,,,,,,,^M^J10,,,,,,,,,
  0
XRECORD
  5
1C0C
102
{ACAD_REACTORS
330
1C0B
102
}
330
1C0B
100
AcDbXrecord
280
     1
  1
10,10
  0
XRECORD
  5
21CC
102
{ACAD_REACTORS
330
21CB
102
}
330
21CB
100
AcDbXrecord
280
     1
  1
3
  0
LAYER_INDEX
  5
AEDA
102
{ACAD_REACTORS
330
AED9
102
}
330
AED9
100
AcDbIndex
 40
2455601.7121072
100
AcDbLayerIndex
  8
0
360
AEDB
 90
        0
  8
AM_5
360
AEDC
 90
        6
  8
DEFPOINTS
360
AEDD
 90
        0
  8
AM_0
360
AEDE
 90
       84
  8
AM_6
360
AEDF
 90
        1
  8
AM_1
360
AEE0
 90
        2
  8
AM_7
360
AEE1
 90
        3
  0
DICTIONARY
  5
B019
330
AF16
100
AcDbDictionary
280
     1
281
     1
  3
ACAD_XREC_ROUNDTRIP
360
B01A
  0
DICTIONARY
  5
B01B
330
AF17
100
AcDbDictionary
280
     1
281
     1
  3
ACAD_XREC_ROUNDTRIP
360
B01C
  0
IDBUFFER
  5
AEDB
330
0
100
AcDbIdBuffer
  0
IDBUFFER
  5
AEDC
330
0
100
AcDbIdBuffer
330
AB2B
330
ABE4
330
AC55
330
AC74
330
AC81
330
ADC3
  0
IDBUFFER
  5
AEDD
330
0
100
AcDbIdBuffer
  0
IDBUFFER
  5
AEDE
330
0
100
AcDbIdBuffer
330
AA8D
330
AA8F
330
AA95
330
AA96
330
AA97
330
AA9B
330
AA9C
330
AA9D
330
AAA0
330
AAA2
330
AAA4
330
AAAA
330
AAAB
330
AAAD
330
AAAF
330
AAB1
330
AAB3
330
AAB5
330
AAB6
330
AABA
330
AABB
330
AAD0
330
AAD1
330
AAD6
330
AADC
330
AAE1
330
AAE2
330
AAE3
330
AAE5
330
AAE6
330
AAE7
330
AAE9
330
AAEB
330
AAEC
330
AAED
330
AAF1
330
AAF8
330
AB07
330
AB08
330
AB09
330
AB0A
330
AB0B
330
AB0C
330
AB0D
330
AB0E
330
AB0F
330
AB11
330
AB12
330
AB13
330
AB14
330
AB16
330
AB17
330
AB19
330
AB1A
330
AB1D
330
AB29
330
AB9B
330
ABA1
330
ABA2
330
ABA3
330
ABA4
330
ABA5
330
ABA6
330
ABA7
330
AD37
330
AD3A
330
AD79
330
ADD9
330
ADE6
330
ADE9
330
AE2A
330
AE2B
330
AE2F
330
AE4E
330
AE5A
330
AE5B
330
AE5C
330
AE5E
330
AE61
330
AE62
330
AE63
330
AE65
330
AE69
330
AE6A
  0
IDBUFFER
  5
AEDF
330
0
100
AcDbIdBuffer
330
83BD
  0
IDBUFFER
  5
AEE0
330
0
100
AcDbIdBuffer
330
AC52
330
AC53
  0
IDBUFFER
  5
AEE1
330
0
100
AcDbIdBuffer
330
AADD
330
AADE
330
AADF
  0
XRECORD
  5
B01A
102
{ACAD_REACTORS
330
B019
102
}
330
B019
100
AcDbXrecord
280
     1
102
SHADEPLOT
 70
     0
102
SHADEPLOTRESLEVEL
 70
     2
102
SHADEPLOTCUSTOMDPI
 70
   300
  0
XRECORD
  5
B01C
102
{ACAD_REACTORS
330
B01B
102
}
330
B01B
100
AcDbXrecord
280
     1
102
SHADEPLOT
 70
     0
102
SHADEPLOTRESLEVEL
 70
     2
102
SHADEPLOTCUSTOMDPI
 70
   300
  0
ENDSEC
  0
EOF
