  0
SECTION
  2
HEADER
  9
$ACADVER
  1
AC1015
  9
$ACADMAINTVER
 70
    20
  9
$DWGCODEPAGE
  3
ANSI_932
  9
$INSBASE
 10
0.0
 20
0.0
 30
0.0
  9
$EXTMIN
 10
-32.33461868243774
 20
-104.4022413139259
 30
-0.0015258207003583
  9
$EXTMAX
 10
187.0423523781696
 20
32.61134174793381
 30
0.0000000349246037
  9
$LIMMIN
 10
-203.0045838151573
 20
-75.51034299546518
  9
$LIMMAX
 10
61.08595951400025
 20
117.3652274868455
  9
$ORTHOMODE
 70
     0
  9
$REGENMODE
 70
     1
  9
$FILLMODE
 70
     1
  9
$QTEXTMODE
 70
     0
  9
$MIRRTEXT
 70
     1
  9
$LTSCALE
 40
0.5
  9
$ATTMODE
 70
     1
  9
$TEXTSIZE
 40
2.5
  9
$TRACEWID
 40
1.0
  9
$TEXTSTYLE
  7
STANDARD
  9
$CLAYER
  8
AM_0
  9
$CELTYPE
  6
BYLAYER
  9
$CECOLOR
 62
   256
  9
$CELTSCALE
 40
1.0
  9
$DISPSILH
 70
     0
  9
$DIMSCALE
 40
1.0
  9
$DIMASZ
 40
2.5
  9
$DIMEXO
 40
0.0
  9
$DIMDLI
 40
10.0
  9
$DIMRND
 40
0.0
  9
$DIMDLE
 40
0.0
  9
$DIMEXE
 40
1.0
  9
$DIMTP
 40
0.1
  9
$DIMTM
 40
0.1000000001
  9
$DIMTXT
 40
3.799999999999998
  9
$DIMCEN
 40
0.0
  9
$DIMTSZ
 40
0.0
  9
$DIMTOL
 70
     0
  9
$DIMLIM
 70
     0
  9
$DIMTIH
 70
     0
  9
$DIMTOH
 70
     0
  9
$DIMSE1
 70
     0
  9
$DIMSE2
 70
     0
  9
$DIMTAD
 70
     3
  9
$DIMZIN
 70
     9
  9
$DIMBLK
  1
OPEN30
  9
$DIMASO
 70
     1
  9
$DIMSHO
 70
     1
  9
$DIMPOST
  1

  9
$DIMAPOST
  1
"
  9
$DIMALT
 70
     0
  9
$DIMALTD
 70
     2
  9
$DIMALTF
 40
0.0393701
  9
$DIMLFAC
 40
1.0
  9
$DIMTOFL
 70
     1
  9
$DIMTVP
 40
0.0
  9
$DIMTIX
 70
     0
  9
$DIMSOXD
 70
     0
  9
$DIMSAH
 70
     0
  9
$DIMBLK1
  1

  9
$DIMBLK2
  1

  9
$DIMSTYLE
  2
AM_JIS
  9
$DIMCLRD
 70
   256
  9
$DIMCLRE
 70
   256
  9
$DIMCLRT
 70
     2
  9
$DIMTFAC
 40
0.71
  9
$DIMGAP
 40
1.5
  9
$DIMJUST
 70
     0
  9
$DIMSD1
 70
     0
  9
$DIMSD2
 70
     0
  9
$DIMTOLJ
 70
     0
  9
$DIMTZIN
 70
     8
  9
$DIMALTZ
 70
     0
  9
$DIMALTTZ
 70
     0
  9
$DIMUPT
 70
     0
  9
$DIMDEC
 70
     2
  9
$DIMTDEC
 70
     2
  9
$DIMALTU
 70
     2
  9
$DIMALTTD
 70
     2
  9
$DIMTXSTY
  7
STANDARD
  9
$DIMAUNIT
 70
     1
  9
$DIMADEC
 70
     1
  9
$DIMALTRND
 40
0.0
  9
$DIMAZIN
 70
     2
  9
$DIMDSEP
 70
    46
  9
$DIMATFIT
 70
     3
  9
$DIMFRAC
 70
     0
  9
$DIMLDRBLK
  1
OPEN30
  9
$DIMLUNIT
 70
     2
  9
$DIMLWD
 70
    -1
  9
$DIMLWE
 70
    -1
  9
$DIMTMOVE
 70
     0
  9
$LUNITS
 70
     2
  9
$LUPREC
 70
     2
  9
$SKETCHINC
 40
1.0
  9
$FILLETRAD
 40
3.0
  9
$AUNITS
 70
     1
  9
$AUPREC
 70
     5
  9
$MENU
  1
.
  9
$ELEVATION
 40
0.0
  9
$PELEVATION
 40
0.0
  9
$THICKNESS
 40
0.0
  9
$LIMCHECK
 70
     0
  9
$CHAMFERA
 40
5.0
  9
$CHAMFERB
 40
5.0
  9
$CHAMFERC
 40
20.0
  9
$CHAMFERD
 40
0.0
  9
$SKPOLY
 70
     0
  9
$TDCREATE
 40
2451943.610431666
  9
$TDUCREATE
 40
2451943.235431667
  9
$TDUPDATE
 40
2455602.333395012
  9
$TDUUPDATE
 40
2455601.958395012
  9
$TDINDWG
 40
1.2370117130
  9
$TDUSRTIMER
 40
1.2370115394
  9
$USRTIMER
 70
     1
  9
$ANGBASE
 50
0.0
  9
$ANGDIR
 70
     0
  9
$PDMODE
 70
     0
  9
$PDSIZE
 40
0.0
  9
$PLINEWID
 40
0.0
  9
$SPLFRAME
 70
     0
  9
$SPLINETYPE
 70
     6
  9
$SPLINESEGS
 70
     8
  9
$HANDSEED
  5
B440
  9
$SURFTAB1
 70
     6
  9
$SURFTAB2
 70
     6
  9
$SURFTYPE
 70
     6
  9
$SURFU
 70
     6
  9
$SURFV
 70
     6
  9
$UCSBASE
  2

  9
$UCSNAME
  2

  9
$UCSORG
 10
0.0
 20
0.0
 30
0.0
  9
$UCSXDIR
 10
1.0
 20
0.0
 30
0.0
  9
$UCSYDIR
 10
0.0
 20
1.0
 30
0.0
  9
$UCSORTHOREF
  2

  9
$UCSORTHOVIEW
 70
     0
  9
$UCSORGTOP
 10
0.0
 20
0.0
 30
0.0
  9
$UCSORGBOTTOM
 10
0.0
 20
0.0
 30
0.0
  9
$UCSORGLEFT
 10
0.0
 20
0.0
 30
0.0
  9
$UCSORGRIGHT
 10
0.0
 20
0.0
 30
0.0
  9
$UCSORGFRONT
 10
0.0
 20
0.0
 30
0.0
  9
$UCSORGBACK
 10
0.0
 20
0.0
 30
0.0
  9
$PUCSBASE
  2

  9
$PUCSNAME
  2

  9
$PUCSORG
 10
0.0
 20
0.0
 30
0.0
  9
$PUCSXDIR
 10
1.0
 20
0.0
 30
0.0
  9
$PUCSYDIR
 10
0.0
 20
1.0
 30
0.0
  9
$PUCSORTHOREF
  2

  9
$PUCSORTHOVIEW
 70
     0
  9
$PUCSORGTOP
 10
0.0
 20
0.0
 30
0.0
  9
$PUCSORGBOTTOM
 10
0.0
 20
0.0
 30
0.0
  9
$PUCSORGLEFT
 10
0.0
 20
0.0
 30
0.0
  9
$PUCSORGRIGHT
 10
0.0
 20
0.0
 30
0.0
  9
$PUCSORGFRONT
 10
0.0
 20
0.0
 30
0.0
  9
$PUCSORGBACK
 10
0.0
 20
0.0
 30
0.0
  9
$USERI1
 70
     0
  9
$USERI2
 70
     0
  9
$USERI3
 70
     0
  9
$USERI4
 70
     0
  9
$USERI5
 70
     0
  9
$USERR1
 40
0.0
  9
$USERR2
 40
0.0
  9
$USERR3
 40
0.0
  9
$USERR4
 40
0.0
  9
$USERR5
 40
0.0
  9
$WORLDVIEW
 70
     1
  9
$SHADEDGE
 70
     3
  9
$SHADEDIF
 70
    70
  9
$TILEMODE
 70
     1
  9
$MAXACTVP
 70
    64
  9
$PINSBASE
 10
0.0
 20
0.0
 30
0.0
  9
$PLIMCHECK
 70
     0
  9
$PEXTMIN
 10
1.000000000000000E+20
 20
1.000000000000000E+20
 30
1.000000000000000E+20
  9
$PEXTMAX
 10
-1.000000000000000E+20
 20
-1.000000000000000E+20
 30
-1.000000000000000E+20
  9
$PLIMMIN
 10
0.0
 20
0.0
  9
$PLIMMAX
 10
420.0
 20
297.0
  9
$UNITMODE
 70
     0
  9
$VISRETAIN
 70
     1
  9
$PLINEGEN
 70
     0
  9
$PSLTSCALE
 70
     1
  9
$TREEDEPTH
 70
  3020
  9
$CMLSTYLE
  2
STANDARD
  9
$CMLJUST
 70
     0
  9
$CMLSCALE
 40
20.0
  9
$PROXYGRAPHICS
 70
     1
  9
$MEASUREMENT
 70
     1
  9
$CELWEIGHT
370
    -1
  9
$ENDCAPS
280
     0
  9
$JOINSTYLE
280
     0
  9
$LWDISPLAY
290
     0
  9
$INSUNITS
 70
     4
  9
$HYPERLINKBASE
  1

  9
$STYLESHEET
  1
sei_cad.ctb
  9
$XEDIT
290
     1
  9
$CEPSNTYPE
380
     0
  9
$PSTYLEMODE
290
     1
  9
$FINGERPRINTGUID
  2
{C77AB3BE-9CA2-11D3-BAF3-006094EB760E}
  9
$VERSIONGUID
  2
{9E236889-C9F9-4C51-8831-3B240680773D}
  9
$EXTNAMES
290
     1
  9
$PSVPSCALE
 40
0.0
  9
$OLESTARTUP
290
     0
  0
ENDSEC
  0
SECTION
  2
CLASSES
  0
CLASS
  1
ACDBDICTIONARYWDFLT
  2
AcDbDictionaryWithDefault
  3
ObjectDBX Classes
 90
        0
280
     0
281
     0
  0
CLASS
  1
ACDBPLACEHOLDER
  2
AcDbPlaceHolder
  3
ObjectDBX Classes
 90
        0
280
     0
281
     0
  0
CLASS
  1
LAYOUT
  2
AcDbLayout
  3
ObjectDBX Classes
 90
        0
280
     0
281
     0
  0
CLASS
  1
ACME_DOCUMENT
  2
AcMeDbDoc
  3
AcMeServices
 90
        0
280
     0
281
     0
  0
CLASS
  1
ACMESCOPE
  2
AcMeScope
  3
AcMeServices
 90
        0
280
     0
281
     0
  0
CLASS
  1
ACMECOMMANDHISTORY
  2
AcMeCommandHistory
  3
AcMeServices
 90
        0
280
     0
281
     0
  0
CLASS
  1
DICTIONARYVAR
  2
AcDbDictionaryVar
  3
ObjectDBX Classes
 90
        0
280
     0
281
     0
  0
CLASS
  1
ACIMSYSVARMAN
  2
AcImSysVarManager
  3
AcMeServices
 90
        0
280
     0
281
     0
  0
CLASS
  1
ACIMREALSYSVAR
  2
AcImRealSysVar
  3
AcMeServices
 90
        0
280
     0
281
     0
  0
CLASS
  1
ACIMINTSYSVAR
  2
AcImIntSysVar
  3
AcMeServices
 90
        0
280
     0
281
     0
  0
CLASS
  1
ACMEDRAWINGMAN
  2
AcMeDrawingMan
  3
AcMeServices
 90
        0
280
     0
281
     0
  0
CLASS
  1
ACMEVIEW
  2
AcMeView
  3
AcMeServices
 90
        0
280
     0
281
     0
  0
CLASS
  1
ACDBENTITYCACHE
  2
AcMeEntityCache
  3
AcMeServices
 90
        0
280
     0
281
     0
  0
CLASS
  1
GSMANAGER
  2
AcMeGSManager
  3
AcMeServices
 90
        0
280
     0
281
     0
  0
CLASS
  1
AMDTINTERNALREACTOR
  2
AmdtInternalReactor
  3
AcMeServices
 90
        0
280
     0
281
     0
  0
CLASS
  1
ACMESTATEMGR
  2
AcMeStateMgr
  3
AcMeServices
 90
        0
280
     0
281
     0
  0
CLASS
  1
ACME_DATABASE
  2
AcMeDbDatabase
  3
AcMeServices
 90
        0
280
     0
281
     0
  0
CLASS
  1
ACRFINSADJUSTERMGR
  2
AcRfInsAdjusterMgr
  3
AcMeServices
 90
        0
280
     0
281
     0
  0
CLASS
  1
AMGSETTINGSOBJ
  2
AmgSettingsObj
  3
"AcadM|Product Description: AutoCAD Mechanical 2000|Company: Autodesk"
 90
        0
280
     0
281
     0
  0
CLASS
  1
AMGOBJPROPCFG
  2
AmgObjPropCfg
  3
"AmgLay|Product Description: AutoCAD Mechanical 2000|Company: Autodesk"
 90
        1
280
     0
281
     0
  0
CLASS
  1
ACMDATADICTIONARY
  2
AcmDataDictionary
  3
"AcmSymBB|Product Description: AutoCAD Mechanical 2004 DX|Company: Autodesk"
 90
        0
280
     0
281
     0
  0
CLASS
  1
ACMDATAENTRYBLOCK
  2
AcmDataEntryBlock
  3
"AcmSymBB|Product Description: AutoCAD Mechanical 2004 DX|Company: Autodesk"
 90
    32768
280
     0
281
     0
  0
CLASS
  1
ACIMSTRSYSVAR
  2
AcImStrSysVar
  3
AcMeServices
 90
        0
280
     0
281
     0
  0
CLASS
  1
ACAMGFILTERDAT
  2
AcAmgFilterDat
  3
"AcadM|Product Description: AutoCAD Mechanical 2000|Company: Autodesk"
 90
    32768
280
     0
281
     0
  0
CLASS
  1
LAYER_INDEX
  2
AcDbLayerIndex
  3
ObjectDBX Classes
 90
        0
280
     0
281
     0
  0
CLASS
  1
IDBUFFER
  2
AcDbIdBuffer
  3
ObjectDBX Classes
 90
        0
280
     0
281
     0
  0
CLASS
  1
ACMSTANDARDJIS
  2
AcmStandardJIS
  3
"Amdt_StdImp|Product Description: AutoCAD Mechanical 2004 DX|Company: Autodesk"
 90
    32768
280
     0
281
     0
  0
CLASS
  1
ACMSURFSTANDARDJIS
  2
AcmSurfTextStdJIS
  3
"Amdt_StdImp|Product Description: AutoCAD Mechanical 2004 DX|Company: Autodesk"
 90
    32768
280
     0
281
     0
  0
CLASS
  1
ACMFCFSTANDARDJIS
  2
AcmFCFStdJIS
  3
"Amdt_StdImp|Product Description: AutoCAD Mechanical 2004 DX|Company: Autodesk"
 90
    32768
280
     0
281
     0
  0
CLASS
  1
ACMWELDSTANDARDJIS
  2
AcmWeldingStdJIS
  3
"Amdt_StdImp|Product Description: AutoCAD Mechanical 2004 DX|Company: Autodesk"
 90
    32768
280
     0
281
     0
  0
CLASS
  1
ACMIDSTANDARDJIS
  2
AcmIdStdJIS
  3
"Amdt_StdImp|Product Description: AutoCAD Mechanical 2004 DX|Company: Autodesk"
 90
    32768
280
     0
281
     0
  0
CLASS
  1
ACMDATUMSTANDARDJIS
  2
AcmDatumStdJIS
  3
"Amdt_StdImp|Product Description: AutoCAD Mechanical 2004 DX|Company: Autodesk"
 90
    32768
280
     0
281
     0
  0
CLASS
  1
ACMBOMSTANDARDJIS
  2
AcmBOMStdJIS
  3
"Amdt_StdImp|Product Description: AutoCAD Mechanical 2004 DX|Company: Autodesk"
 90
    32768
280
     0
281
     0
  0
CLASS
  1
AMDTNOTE
  2
AmdtNote
  3
"AcmSymBB|Product Description: AutoCAD Mechanical 2004 DX|Company: Autodesk"
 90
    33791
280
     0
281
     1
  0
CLASS
  1
ACMDATAENTRYPART
  2
AcmDataEntryPart
  3
"AcmSymBB|Product Description: AutoCAD Mechanical 2004 DX|Company: Autodesk"
 90
    32768
280
     0
281
     0
  0
CLASS
  1
ACMPARTREF
  2
AcmPartRef
  3
"AcmSymBB|Product Description: AutoCAD Mechanical 2004 DX|Company: Autodesk"
 90
    33791
280
     0
281
     1
  0
CLASS
  1
ACDB_PROXY_ENTITY_DATA
  2
AcDbProxyEntityData
  3
ObjectDBX Classes
 90
    32768
280
     0
281
     0
  0
CLASS
  1
TABLESTYLE
  2
AcDbTableStyle
  3
ObjectDBX Classes
 90
     2047
280
     0
281
     0
  0
CLASS
  1
ACGREFMASTER
  2
AcGrefMaster
  3
AcAttribServices
 90
        0
280
     0
281
     0
  0
CLASS
  1
AM_DRAWING_MGR
  2
AcDmDwgMgr
  3
AcMechDwgViewMgmt
 90
        0
280
     0
281
     0
  0
CLASS
  1
AM_DWG_DOCUMENT
  2
AcDmDwgDocument
  3
AcMechDwgViewMgmt
 90
        0
280
     0
281
     0
  0
CLASS
  1
AM_DWG_SHEET
  2
AcDmSheet
  3
AcMechDwgViewMgmt
 90
        0
280
     0
281
     0
  0
CLASS
  1
AM_VIEWDIMPARMAP
  2
AcDmViewDimParMap
  3
AcMechDwgViewMgmt
 90
        0
280
     0
281
     0
  0
CLASS
  1
AM_DWGMGR_NAME
  2
AcDmDwgMgrName
  3
AcMechDwgViewMgmt
 90
        0
280
     0
281
     0
  0
CLASS
  1
ACGREFACADMASTER
  2
AcGrefacadMaster
  3
AcGrefServices
 90
        0
280
     0
281
     0
  0
CLASS
  1
AMDTMENUSTATEMGR
  2
AmdtMenuStateMgr
  3
McadcomServices
 90
        0
280
     0
281
     0
  0
CLASS
  1
AMDTMCOMMENUSTATE
  2
AmdtMcomMenuState
  3
McadcomServices
 90
        0
280
     0
281
     0
  0
CLASS
  1
AMIMASTER
  2
AmiMaster
  3
AmiServices
 90
        0
280
     0
281
     0
  0
CLASS
  1
MAPIAMMOUDLE
  2
MApiAmModule
  3
MApiAmServices
 90
        0
280
     0
281
     0
  0
CLASS
  1
AMDTADMENUSTATE
  2
AmdtAdMenuState
  3
DesignerServices
 90
        0
280
     0
281
     0
  0
CLASS
  1
ADAPPL
  2
AcAdAppl
  3
DesignerServices
 90
        0
280
     0
281
     0
  0
CLASS
  1
DEPMGR
  2
AcAdDepMgr
  3
DesignerServices
 90
        0
280
     0
281
     0
  0
CLASS
  1
PARAMMGR
  2
AcAdParamMgr
  3
DesignerServices
 90
        0
280
     0
281
     0
  0
CLASS
  1
PARAMSCOPE
  2
AcAdParamScope
  3
DesignerServices
 90
        0
280
     0
281
     0
  0
CLASS
  1
NAMEDAPPL
  2
AcAdNamedAppl
  3
DesignerServices
 90
        0
280
     0
281
     0
  0
CLASS
  1
AMDTDMMENUSTATE
  2
AmdtDmMenuState
  3
AcMechDwgViewMgmt
 90
        0
280
     0
281
     0
  0
CLASS
  1
AMDTAMMENUSTATE
  2
AmdtAmMenuState
  3
DesignerAssemblies
 90
        0
280
     0
281
     0
  0
CLASS
  1
ACAMPROJECT
  2
AcAmProject
  3
DesignerAssemblies
 90
        0
280
     0
281
     0
  0
CLASS
  1
ACAMGRCOMPDEF
  2
AcAmGrCompDef
  3
DesignerAssemblies
 90
        0
280
     0
281
     0
  0
CLASS
  1
ACCMCONTEXT
  2
AcCmContext
  3
DesignerAssemblies
 90
        0
280
     0
281
     0
  0
CLASS
  1
ACAMCOMPDEF
  2
AcAmCompDef
  3
DesignerAssemblies
 90
        0
280
     0
281
     0
  0
CLASS
  1
ACAMCOMPDEFMGR
  2
AcAmCompDefMgr
  3
DesignerAssemblies
 90
        0
280
     0
281
     0
  0
CLASS
  1
AMCONTEXTMGR
  2
AcAmContextMgr
  3
DesignerAssemblies
 90
        0
280
     0
281
     0
  0
CLASS
  1
ACAMCONTEXTMODELER
  2
AcAmContextModeler
  3
DesignerAssemblies
 90
        0
280
     0
281
     0
  0
CLASS
  1
CATALOGSTATE
  2
AcAmCatalogState
  3
DesignerAssemblies
 90
        0
280
     0
281
     0
  0
CLASS
  1
ACAMGRCOMPDEFSET
  2
AcAmGrCompDefSet
  3
DesignerAssemblies
 90
        0
280
     0
281
     0
  0
CLASS
  1
AMDTBROWSERDBTAB
  2
AmdtBrowserDbTab
  3
McadcomServices
 90
        0
280
     0
281
     0
  0
CLASS
  1
CBROWSERAPPOBJECT
  2
CBrowserAppObject
  3
McadcomServices
 90
        0
280
     0
281
     0
  0
CLASS
  1
DM_PLACEHOLDER
  2
AcDmSelsetPlaceholder
  3
AcMechDwgViewMgmt
 90
        0
280
     0
281
     0
  0
CLASS
  1
ACMSTANDARDISO
  2
AcmStandardISO
  3
"Amdt_StdImp|Product Description: AutoCAD Mechanical 2004 DX|Company: Autodesk"
 90
        0
280
     0
281
     0
  0
CLASS
  1
AMDTEDGESTANDARDISO13715
  2
AmdtEdgeStdISO13715
  3
"Amdt_StdImp|Product Description: AutoCAD Mechanical 2004 DX|Company: Autodesk"
 90
        0
280
     0
281
     0
  0
CLASS
  1
ACMSURFSTANDARDISO
  2
AcmSurfTextStdISO
  3
"Amdt_StdImp|Product Description: AutoCAD Mechanical 2004 DX|Company: Autodesk"
 90
        0
280
     0
281
     0
  0
CLASS
  1
ACMFCFSTANDARDISO
  2
AcmFCFStdISO
  3
"Amdt_StdImp|Product Description: AutoCAD Mechanical 2004 DX|Company: Autodesk"
 90
        0
280
     0
281
     0
  0
CLASS
  1
ACMWELDSTANDARDISO
  2
AcmWeldingStdISO
  3
"Amdt_StdImp|Product Description: AutoCAD Mechanical 2004 DX|Company: Autodesk"
 90
        0
280
     0
281
     0
  0
CLASS
  1
ACMIDSTANDARDISO
  2
AcmIdStdISO
  3
"Amdt_StdImp|Product Description: AutoCAD Mechanical 2004 DX|Company: Autodesk"
 90
        0
280
     0
281
     0
  0
CLASS
  1
ACMDATUMSTANDARDISO
  2
AcmDatumStdISO
  3
"Amdt_StdImp|Product Description: AutoCAD Mechanical 2004 DX|Company: Autodesk"
 90
        0
280
     0
281
     0
  0
CLASS
  1
ACMBOMSTANDARDISO
  2
AcmBOMStdISO
  3
"Amdt_StdImp|Product Description: AutoCAD Mechanical 2004 DX|Company: Autodesk"
 90
        0
280
     0
281
     0
  0
CLASS
  1
ACMDETAILSTANDARDISO
  2
AmdtDetailSymStdISO
  3
"Amdt_StdImp|Product Description: AutoCAD Mechanical 2004 DX|Company: Autodesk"
 90
        0
280
     0
281
     0
  0
CLASS
  1
ACMSECTIONSTANDARDISO
  2
AmdtSectionSymStdISO
  3
"Amdt_StdImp|Product Description: AutoCAD Mechanical 2004 DX|Company: Autodesk"
 90
        0
280
     0
281
     0
  0
CLASS
  1
ACMCENTERLINESTANDARDISO
  2
AmdtCenterLineStdISO
  3
"Amdt_StdImp|Product Description: AutoCAD Mechanical 2004 DX|Company: Autodesk"
 90
        0
280
     0
281
     0
  0
CLASS
  1
ACMTHREADLINESTANDARDISO
  2
AmdtThreadLineStdISO
  3
"Amdt_StdImp|Product Description: AutoCAD Mechanical 2004 DX|Company: Autodesk"
 90
        0
280
     0
281
     0
  0
CLASS
  1
ACMNOTESTANDARDISO
  2
AmdtNoteStdISO
  3
"Amdt_StdImp|Product Description: AutoCAD Mechanical 2004 DX|Company: Autodesk"
 90
        0
280
     0
281
     0
  0
CLASS
  1
AMDTNOTETEMPLATEDB
  2
AmdtNoteTemplateDB
  3
AMDT_STDIMP_MODULE_NAME
 90
        0
280
     0
281
     0
  0
CLASS
  1
ACAMGLAYSTD
  2
AcAmgLayStd
  3
"AcAmgLayStd|Product Description: AutoCAD Mechanical 2000|Company: Autodesk"
 90
        0
280
     0
281
     0
  0
CLASS
  1
ACAMGDIMSTD
  2
AcAmgDimStd
  3
"AcAmgDimStd|Product Description: AutoCAD Mechanical 2000|Company: Autodesk"
 90
        0
280
     0
281
     0
  0
CLASS
  1
ACAMGHOLECHARTSTDISO
  2
AcAmgHoleChartStdISO
  3
ACMSYMBB_MODULE_NAME
 90
        0
280
     0
281
     0
  0
CLASS
  1
ACAMGTITLESTD
  2
AcAmgTitleStd
  3
"TITLEAPP"
 90
        0
280
     0
281
     0
  0
ENDSEC
  0
SECTION
  2
TABLES
  0
TABLE
  2
VPORT
  5
8
330
0
100
AcDbSymbolTable
 70
     5
  0
VPORT
  5
B439
330
8
100
AcDbSymbolTableRecord
100
AcDbViewportTableRecord
  2
*Active
 70
     0
 10
0.0
 20
0.0
 11
1.0
 21
1.0
 12
77.35386684786594
 22
-35.89544978299608
 13
0.0
 23
0.0
 14
2.5
 24
2.5
 15
10.0
 25
10.0
 16
0.0
 26
0.0
 36
1.0
 17
0.0
 27
0.0
 37
0.0
 40
137.9922515123016
 41
2.176400476758045
 42
50.0
 43
0.0
 44
0.0
 50
0.0
 51
0.0
 71
     0
 72
  2000
 73
     1
 74
     3
 75
     0
 76
     0
 77
     0
 78
     0
281
     0
 65
     0
110
0.0
120
0.0
130
0.0
111
1.0
121
0.0
131
0.0
112
0.0
122
1.0
132
0.0
 79
     0
146
0.0
  0
ENDTAB
  0
TABLE
  2
LTYPE
  5
5
330
0
100
AcDbSymbolTable
 70
    17
  0
LTYPE
  5
14
330
5
100
AcDbSymbolTableRecord
100
AcDbLinetypeTableRecord
  2
BYBLOCK
 70
     0
  3

 72
    65
 73
     0
 40
0.0
  0
LTYPE
  5
15
330
5
100
AcDbSymbolTableRecord
100
AcDbLinetypeTableRecord
  2
BYLAYER
 70
     0
  3

 72
    65
 73
     0
 40
0.0
  0
LTYPE
  5
16
330
5
100
AcDbSymbolTableRecord
100
AcDbLinetypeTableRecord
  2
CONTINUOUS
 70
     0
  3
Solid line
 72
    65
 73
     0
 40
0.0
  0
LTYPE
  5
43
330
5
100
AcDbSymbolTableRecord
100
AcDbLinetypeTableRecord
  2
AM_ISO02W050
 70
     0
  3
__ __ __ __ __ __ __ __ __ __ __ __ __ __ __
 72
    65
 73
     2
 40
7.5
 49
6.0
 74
     0
 49
-1.5
 74
     0
  0
LTYPE
  5
44
330
5
100
AcDbSymbolTableRecord
100
AcDbLinetypeTableRecord
  2
AM_ISO08W050
 70
     0
  3
____ . ____ . ____ . ____ . ____ . ____ . ____
 72
    65
 73
     4
 40
18.0
 49
12.0
 74
     0
 49
-1.5
 74
     0
 49
3.0
 74
     0
 49
-1.5
 74
     0
  0
LTYPE
  5
45
330
5
100
AcDbSymbolTableRecord
100
AcDbLinetypeTableRecord
  2
AM_ISO09W050
 70
     0
  3
_____ . . _____ . . _____ . . ____ .. ____
 72
    65
 73
     6
 40
22.5
 49
12.0
 74
     0
 49
-1.5
 74
     0
 49
3.0
 74
     0
 49
-1.5
 74
     0
 49
3.0
 74
     0
 49
-1.5
 74
     0
  0
LTYPE
  5
46
330
5
100
AcDbSymbolTableRecord
100
AcDbLinetypeTableRecord
  2
AMCONSTR
 70
     0
  3
_______________________
 72
    65
 73
     2
 40
9999.0
 49
9999.0
 74
     0
 49
0.0
 74
     0
  0
LTYPE
  5
47
330
5
100
AcDbSymbolTableRecord
100
AcDbLinetypeTableRecord
  2
AM_ISO02W050X2
 70
     0
  3
 _ _ _ _ _ _ _ _ _ _ _ _
 72
    65
 73
     2
 40
3.75
 49
3.0
 74
     0
 49
-0.75
 74
     0
  0
LTYPE
  5
48
330
5
100
AcDbSymbolTableRecord
100
AcDbLinetypeTableRecord
  2
AM_ISO08W050X2
 70
     0
  3
__ . __ . __ . __ . __ . __
 72
    65
 73
     4
 40
9.0
 49
6.0
 74
     0
 49
-0.75
 74
     0
 49
1.5
 74
     0
 49
-0.75
 74
     0
  0
LTYPE
  5
4B
330
5
100
AcDbSymbolTableRecord
100
AcDbLinetypeTableRecord
  2
AMZIGZAG
 70
     0
  3
/\/-/\/-/\/-/\/-/\/-/\/
 72
    65
 73
     2
 40
11.00009999999999
 49
0.0001
 74
     4
 75
   135
340
4A
 46
0.04
 50
0.0
 44
0.0
 45
0.0
 49
-11.0
 74
     0
  0
LTYPE
  5
B35B
330
5
100
AcDbSymbolTableRecord
100
AcDbLinetypeTableRecord
  2
HIDDEN
 70
     0
  3
Hidden __ __ __ __ __ __ __ __ __ __ __ __ __ _
 72
    65
 73
     2
 40
9.524999999999998
 49
6.349999999999999
 74
     0
 49
-3.174999999999999
 74
     0
  0
LTYPE
  5
B35C
330
5
100
AcDbSymbolTableRecord
100
AcDbLinetypeTableRecord
  2
PHANTOM2
 70
     0
  3
Phantom (.5x) ___ _ _ ___ _ _ ___ _ _ ___ _ _
 72
    65
 73
     6
 40
31.75
 49
15.875
 74
     0
 49
-3.174999999999999
 74
     0
 49
3.174999999999999
 74
     0
 49
-3.174999999999999
 74
     0
 49
3.174999999999999
 74
     0
 49
-3.174999999999999
 74
     0
  0
LTYPE
  5
B35D
330
5
100
AcDbSymbolTableRecord
100
AcDbLinetypeTableRecord
  2
CENTER
 70
     0
  3
Center ____ _ ____ _ ____ _ ____ _ ____ _ ____
 72
    65
 73
     4
 40
50.8
 49
31.75
 74
     0
 49
-6.349999999999999
 74
     0
 49
6.349999999999999
 74
     0
 49
-6.349999999999999
 74
     0
  0
LTYPE
  5
B39D
330
5
100
AcDbSymbolTableRecord
100
AcDbLinetypeTableRecord
  2
ACISOWELD
 70
     0
  3
_ _ _ _ _
 72
    65
 73
     2
 40
2.0
 49
2.0
 74
     0
 49
-1.0
 74
     0
  0
LTYPE
  5
B39E
330
5
100
AcDbSymbolTableRecord
100
AcDbLinetypeTableRecord
  2
ACISOTGB
 70
     0
  3
__ . . __ . .
 72
    65
 73
     6
 40
9.0
 49
4.0
 74
     0
 49
-1.0
 74
     0
 49
1.0
 74
     0
 49
-1.0
 74
     0
 49
1.0
 74
     0
 49
-1.0
 74
     0
  0
LTYPE
  5
B39F
330
5
100
AcDbSymbolTableRecord
100
AcDbLinetypeTableRecord
  2
ACISOTGL
 70
     0
  3
_ _ _ _ _
 72
    65
 73
     2
 40
3.0
 49
2.0
 74
     0
 49
-1.0
 74
     0
  0
ENDTAB
  0
TABLE
  2
LAYER
  5
2
330
0
100
AcDbSymbolTable
 70
    13
  0
LAYER
  5
10
330
2
100
AcDbSymbolTableRecord
100
AcDbLayerTableRecord
  2
0
 70
     0
 62
     7
  6
CONTINUOUS
370
    -3
390
F
  0
LAYER
  5
7D
330
2
100
AcDbSymbolTableRecord
100
AcDbLayerTableRecord
  2
AM_5
 70
     0
 62
     3
  6
CONTINUOUS
370
    -3
390
F
  0
LAYER
  5
7F
330
2
100
AcDbSymbolTableRecord
100
AcDbLayerTableRecord
  2
DEFPOINTS
 70
     0
 62
     7
  6
CONTINUOUS
290
     0
370
    -3
390
F
  0
LAYER
  5
12B1
330
2
100
AcDbSymbolTableRecord
100
AcDbLayerTableRecord
  2
AM_0
 70
     0
 62
     7
  6
CONTINUOUS
370
    -3
390
F
  0
LAYER
  5
2222
330
2
100
AcDbSymbolTableRecord
100
AcDbLayerTableRecord
  2
AM_6
 70
     0
 62
     2
  6
CONTINUOUS
370
    -3
390
F
  0
LAYER
  5
4379
330
2
100
AcDbSymbolTableRecord
100
AcDbLayerTableRecord
  2
AM_1
 70
     0
 62
     3
  6
CONTINUOUS
370
    -3
390
F
  0
LAYER
  5
7DB1
330
2
100
AcDbSymbolTableRecord
100
AcDbLayerTableRecord
  2
AM_3
 70
     0
 62
     6
  6
AM_ISO02W050
370
    -3
390
F
  0
LAYER
  5
7DB2
330
2
100
AcDbSymbolTableRecord
100
AcDbLayerTableRecord
  2
AM_7
 70
     0
 62
     4
  6
AM_ISO08W050
370
    -3
390
F
  0
ENDTAB
  0
TABLE
  2
STYLE
  5
3
330
0
100
AcDbSymbolTable
 70
     6
  0
STYLE
  5
11
330
3
100
AcDbSymbolTableRecord
100
AcDbTextStyleTableRecord
  2
STANDARD
 70
     0
 40
0.0
 41
1.0
 50
0.0
 71
     0
 42
2.5
  3
ISOCP.SHX
  4
EXTFONT.SHX
  0
STYLE
  5
4A
330
3
100
AcDbSymbolTableRecord
100
AcDbTextStyleTableRecord
  2

 70
     1
 40
0.0
 41
1.0
 50
0.0
 71
     0
 42
2.5
  3
ltypeshp.shx
  4

  0
STYLE
  5
B38F
330
3
100
AcDbSymbolTableRecord
100
AcDbTextStyleTableRecord
  2
ACISOTS
 70
     0
 40
1.0
 41
1.0
 50
0.0
 71
     0
 42
2.5
  3
isocp.shx
  4
extfont.shx
  0
STYLE
  5
B39C
330
3
100
AcDbSymbolTableRecord
100
AcDbTextStyleTableRecord
  2
ACISOGDT
 70
     0
 40
0.0
 41
1.0
 50
0.0
 71
     0
 42
2.5
  3
amgdt.shx
  4

  0
ENDTAB
  0
TABLE
  2
VIEW
  5
6
330
0
100
AcDbSymbolTable
 70
     6
  0
VIEW
  5
A30
330
6
100
AcDbSymbolTableRecord
100
AcDbViewTableRecord
  2
AM_VIEW1
 70
     0
 40
148.5
 10
112.0719649561952
 20
222.75
 41
224.1439299123904
 11
0.0
 21
0.0
 31
1.0
 12
0.0
 22
0.0
 32
0.0
 42
50.0
 43
0.0
 44
0.0
 50
0.0
 71
     0
281
     0
 72
     0
  0
VIEW
  5
A31
330
6
100
AcDbSymbolTableRecord
100
AcDbViewTableRecord
  2
AM_VIEW2
 70
     0
 40
148.5
 10
307.9280350438047
 20
222.75
 41
224.1439299123904
 11
0.0
 21
0.0
 31
1.0
 12
0.0
 22
0.0
 32
0.0
 42
50.0
 43
0.0
 44
0.0
 50
0.0
 71
     0
281
     0
 72
     0
  0
VIEW
  5
A32
330
6
100
AcDbSymbolTableRecord
100
AcDbViewTableRecord
  2
AM_VIEW3
 70
     0
 40
148.5
 10
112.0719649561952
 20
74.25
 41
224.1439299123904
 11
0.0
 21
0.0
 31
1.0
 12
0.0
 22
0.0
 32
0.0
 42
50.0
 43
0.0
 44
0.0
 50
0.0
 71
     0
281
     0
 72
     0
  0
VIEW
  5
A33
330
6
100
AcDbSymbolTableRecord
100
AcDbViewTableRecord
  2
AM_VIEW4
 70
     0
 40
148.5
 10
307.9280350438047
 20
74.25
 41
224.1439299123904
 11
0.0
 21
0.0
 31
1.0
 12
0.0
 22
0.0
 32
0.0
 42
50.0
 43
0.0
 44
0.0
 50
0.0
 71
     0
281
     0
 72
     0
  0
VIEW
  5
A34
330
6
100
AcDbSymbolTableRecord
100
AcDbViewTableRecord
  2
AM_VIEW5
 70
     0
 40
148.5
 10
210.0
 20
148.5
 41
224.1439299123904
 11
0.0
 21
0.0
 31
1.0
 12
0.0
 22
0.0
 32
0.0
 42
50.0
 43
0.0
 44
0.0
 50
0.0
 71
     0
281
     0
 72
     0
  0
VIEW
  5
A35
330
6
100
AcDbSymbolTableRecord
100
AcDbViewTableRecord
  2
AM_VIEW6
 70
     0
 40
296.9970299999999
 10
210.0
 20
148.5
 41
448.2833769461826
 11
0.0
 21
0.0
 31
1.0
 12
0.0
 22
0.0
 32
0.0
 42
50.0
 43
0.0
 44
0.0
 50
0.0
 71
     0
281
     0
 72
     0
  0
ENDTAB
  0
TABLE
  2
UCS
  5
7
330
0
100
AcDbSymbolTable
 70
     0
  0
ENDTAB
  0
TABLE
  2
APPID
  5
9
330
0
100
AcDbSymbolTable
 70
    42
  0
APPID
  5
12
330
9
100
AcDbSymbolTableRecord
100
AcDbRegAppTableRecord
  2
ACAD
 70
     0
  0
APPID
  5
2C
330
9
100
AcDbSymbolTableRecord
100
AcDbRegAppTableRecord
  2
MCAD_NO_VIS
 70
     0
  0
APPID
  5
2D
330
9
100
AcDbSymbolTableRecord
100
AcDbRegAppTableRecord
  2
ACAD_TEMP_GRAPHIC
 70
     0
  0
APPID
  5
B9
330
9
100
AcDbSymbolTableRecord
100
AcDbRegAppTableRecord
  2
GENIUS_GENDTOL_13
 70
     0
  0
APPID
  5
359
330
9
100
AcDbSymbolTableRecord
100
AcDbRegAppTableRecord
  2
GENIUS_GENREC_14
 70
     0
  0
APPID
  5
35A
330
9
100
AcDbSymbolTableRecord
100
AcDbRegAppTableRecord
  2
GENIUS_GENODEF_13
 70
     0
  0
APPID
  5
35B
330
9
100
AcDbSymbolTableRecord
100
AcDbRegAppTableRecord
  2
GENIUS_GENOBJ-N-REC_13
 70
     0
  0
APPID
  5
667
330
9
100
AcDbSymbolTableRecord
100
AcDbRegAppTableRecord
  2
GENIUS_GENCFG_13
 70
     0
  0
APPID
  5
668
330
9
100
AcDbSymbolTableRecord
100
AcDbRegAppTableRecord
  2
GENIUS_GENCFG0_13
 70
     0
  0
APPID
  5
669
330
9
100
AcDbSymbolTableRecord
100
AcDbRegAppTableRecord
  2
GENIUS_GENCFG1_13
 70
     0
  0
APPID
  5
66A
330
9
100
AcDbSymbolTableRecord
100
AcDbRegAppTableRecord
  2
GENIUS_GENCFG2_13
 70
     0
  0
APPID
  5
66B
330
9
100
AcDbSymbolTableRecord
100
AcDbRegAppTableRecord
  2
GENIUS_GENCFG3_13
 70
     0
  0
APPID
  5
66C
330
9
100
AcDbSymbolTableRecord
100
AcDbRegAppTableRecord
  2
GENIUS_GENCFG4_13
 70
     0
  0
APPID
  5
A76
330
9
100
AcDbSymbolTableRecord
100
AcDbRegAppTableRecord
  2
GENIUS_GENBLLY_14
 70
     0
  0
APPID
  5
A77
330
9
100
AcDbSymbolTableRecord
100
AcDbRegAppTableRecord
  2
GENIUS_GENOBJ-N-CEN_13
 70
     0
  0
APPID
  5
A83
330
9
100
AcDbSymbolTableRecord
100
AcDbRegAppTableRecord
  2
GENIUS_GENTRA_14
 70
     0
  0
APPID
  5
A8D
330
9
100
AcDbSymbolTableRecord
100
AcDbRegAppTableRecord
  2
GENIUS_GENOBJ-N-TIT_13
 70
     0
  0
APPID
  5
A8E
330
9
100
AcDbSymbolTableRecord
100
AcDbRegAppTableRecord
  2
GENIUS_GENTITLE_13
 70
     0
  0
APPID
  5
A8F
330
9
100
AcDbSymbolTableRecord
100
AcDbRegAppTableRecord
  2
GENIUS_GENOENT_13
 70
     0
  0
APPID
  5
A90
330
9
100
AcDbSymbolTableRecord
100
AcDbRegAppTableRecord
  2
GENIUS_GENOREF_13
 70
     0
  0
APPID
  5
A91
330
9
100
AcDbSymbolTableRecord
100
AcDbRegAppTableRecord
  2
GENIUS_GENOLIS_13
 70
     0
  0
APPID
  5
A92
330
9
100
AcDbSymbolTableRecord
100
AcDbRegAppTableRecord
  2
GENIUS_GENZVEED_13
 70
     0
  0
APPID
  5
A93
330
9
100
AcDbSymbolTableRecord
100
AcDbRegAppTableRecord
  2
GENIUS_GENSCREG_15
 70
     0
  0
APPID
  5
A94
330
9
100
AcDbSymbolTableRecord
100
AcDbRegAppTableRecord
  2
GENIUS_GENOBJ-N-SDF_13
 70
     0
  0
APPID
  5
12B5
330
9
100
AcDbSymbolTableRecord
100
AcDbRegAppTableRecord
  2
GENIUS_GENOBJ-N-RSBK_13
 70
     0
  0
APPID
  5
12B6
330
9
100
AcDbSymbolTableRecord
100
AcDbRegAppTableRecord
  2
GENIUS_GENOBJ-N-LIB_13
 70
     0
  0
APPID
  5
12B7
330
9
100
AcDbSymbolTableRecord
100
AcDbRegAppTableRecord
  2
GENIUS_GENSCALE_13
 70
     0
  0
APPID
  5
12B8
330
9
100
AcDbSymbolTableRecord
100
AcDbRegAppTableRecord
  2
GENIUS_GENOBJ-N-HTC_13
 70
     0
  0
APPID
  5
12B9
330
9
100
AcDbSymbolTableRecord
100
AcDbRegAppTableRecord
  2
GENIUS_GENHATCH_13
 70
     0
  0
APPID
  5
1C0A
330
9
100
AcDbSymbolTableRecord
100
AcDbRegAppTableRecord
  2
BASE_TYPE
 70
     0
  0
APPID
  5
276B
330
9
100
AcDbSymbolTableRecord
100
AcDbRegAppTableRecord
  2
GENIUS_GENOBJ-N-FIL_13
 70
     0
  0
APPID
  5
3640
330
9
100
AcDbSymbolTableRecord
100
AcDbRegAppTableRecord
  2
GENIUS_GENBH_13
 70
     0
  0
APPID
  5
36D1
330
9
100
AcDbSymbolTableRecord
100
AcDbRegAppTableRecord
  2
GENIUS_GENOBJ-F-SPR_13
 70
     0
  0
APPID
  5
36DA
330
9
100
AcDbSymbolTableRecord
100
AcDbRegAppTableRecord
  2
GENIUS_GEFSPRING_13
 70
     0
  0
APPID
  5
36DB
330
9
100
AcDbSymbolTableRecord
100
AcDbRegAppTableRecord
  2
GENIUS_GEFSPRINGP_13
 70
     0
  0
APPID
  5
4D67
330
9
100
AcDbSymbolTableRecord
100
AcDbRegAppTableRecord
  2
GENIUS_GENFIL_13
 70
     0
  0
APPID
  5
4D68
330
9
100
AcDbSymbolTableRecord
100
AcDbRegAppTableRecord
  2
GENIUS_GENOBJ-N-CHA_13
 70
     0
  0
APPID
  5
B35F
330
9
100
AcDbSymbolTableRecord
100
AcDbRegAppTableRecord
  2
AD_DRAW
 70
     0
  0
APPID
  5
B362
330
9
100
AcDbSymbolTableRecord
100
AcDbRegAppTableRecord
  2
ACATTRIBSERVICES
 70
     0
  0
APPID
  5
B380
330
9
100
AcDbSymbolTableRecord
100
AcDbRegAppTableRecord
  2
DESIGNERASSEMBLIES
 70
     0
  0
APPID
  5
B385
330
9
100
AcDbSymbolTableRecord
100
AcDbRegAppTableRecord
  2
ACADM_DIM_EDIT
 70
     0
  0
APPID
  5
B386
330
9
100
AcDbSymbolTableRecord
100
AcDbRegAppTableRecord
  2
AMDT_DM_ADJ
 70
     0
  0
ENDTAB
  0
TABLE
  2
DIMSTYLE
  5
A
330
0
100
AcDbSymbolTable
 70
    20
100
AcDbDimStyleTable
 71
     0
  0
DIMSTYLE
105
58
330
A
100
AcDbSymbolTableRecord
100
AcDbDimStyleTableRecord
  2
AM_JIS
 70
     0
  4
"
 41
2.5
 42
0.0
 43
10.0
 44
1.0
 47
0.1
 48
0.1000000001
 73
     0
 74
     0
 77
     3
 78
     9
140
3.799999999999998
141
0.0
143
0.0393701
146
0.71
147
1.5
172
     1
176
   256
177
   256
178
     2
271
     2
272
     2
275
     1
283
     0
284
     8
340
11
341
59
342
59
  0
DIMSTYLE
105
65F
330
A
100
AcDbSymbolTableRecord
100
AcDbDimStyleTableRecord
  2
STANDARD
 70
     0
340
11
  0
DIMSTYLE
105
1761
102
{ACAD_REACTORS
330
AB2B
330
AC55
330
AC74
330
AC81
330
ACC5
330
AF9E
330
ABE4
102
}
330
A
100
AcDbSymbolTableRecord
100
AcDbDimStyleTableRecord
  2
AM_JIS$0
 70
     0
  4
"
 41
2.5
 42
0.0
 43
10.0
 44
1.0
 47
0.1
 48
0.1000000001
 73
     0
 74
     0
 77
     3
 78
     9
140
3.799999999999998
141
0.0
143
0.0393701
146
0.71
147
1.5
172
     1
176
     3
177
     3
178
     2
271
     2
272
     2
275
     1
283
     0
284
     8
340
11
341
59
342
59
  0
DIMSTYLE
105
B3A8
330
A
100
AcDbSymbolTableRecord
100
AcDbDimStyleTableRecord
  2
AM_ISO
 70
     0
  4
"
 41
2.5
 42
1.0
 43
10.0
 44
1.0
 47
0.1
 48
0.1
 73
     0
 74
     0
 77
     1
 78
     8
 79
     2
140
3.5
141
0.0
143
0.0393701
146
0.71
147
1.5
172
     1
176
   256
177
   256
178
     2
271
     2
272
     3
274
     4
283
     0
284
     8
340
11
371
    -1
372
    -1
  0
DIMSTYLE
105
B3A9
330
A
100
AcDbSymbolTableRecord
100
AcDbDimStyleTableRecord
  2
AM_ISO$3
 70
     0
  4
"
 41
2.5
 42
1.0
 43
10.0
 44
1.0
 47
0.1
 48
0.1
 73
     0
 77
     1
 78
     8
 79
     2
140
3.5
141
0.0
143
0.0393701
146
0.71
147
1.5
176
   256
177
   256
178
     2
271
     2
272
     3
274
     4
283
     0
284
     8
288
     1
289
     0
340
11
371
    -1
372
    -1
  0
DIMSTYLE
105
B3AA
330
A
100
AcDbSymbolTableRecord
100
AcDbDimStyleTableRecord
  2
AM_ISO$4
 70
     0
  4
"
 41
2.5
 42
1.0
 43
10.0
 44
1.0
 47
0.1
 48
0.1
 73
     0
 77
     1
 78
     8
 79
     2
140
3.5
141
0.0
143
0.0393701
146
0.71
147
1.5
176
   256
177
   256
178
     2
271
     2
272
     3
274
     4
283
     0
284
     8
288
     1
289
     0
340
11
371
    -1
372
    -1
  0
DIMSTYLE
105
B3AB
330
A
100
AcDbSymbolTableRecord
100
AcDbDimStyleTableRecord
  2
AM_ISO$6
 70
     0
  4
"
 41
2.5
 42
1.0
 43
10.0
 44
1.0
 47
0.1
 48
0.1
 73
     0
 74
     0
 78
     8
 79
     2
140
3.5
141
0.0
143
0.0393701
146
0.71
147
1.5
172
     1
176
   256
177
   256
178
     2
271
     2
272
     3
274
     4
283
     0
284
     8
340
11
371
    -1
372
    -1
  0
DIMSTYLE
105
B3AC
330
A
100
AcDbSymbolTableRecord
100
AcDbDimStyleTableRecord
  2
AM_ISO$7
 70
     0
  4
"
 41
2.5
 42
1.0
 43
10.0
 44
1.0
 47
0.1
 48
0.1
 73
     0
 74
     0
 77
     1
 78
     8
 79
     2
140
5.0
141
0.0
143
0.0393701
146
0.71
147
1.5
172
     1
176
   256
177
   256
178
     2
271
     2
272
     3
274
     4
283
     0
284
     8
340
11
371
    -1
372
    -1
  0
DIMSTYLE
105
B3AD
330
A
100
AcDbSymbolTableRecord
100
AcDbDimStyleTableRecord
  2
AM_ISO$SF
 70
     0
  4
"
 41
2.5
 42
1.0
 43
10.0
 44
1.0
 47
0.1
 48
0.1
 73
     0
 74
     0
 75
     1
 76
     1
 77
     1
 78
     8
 79
     2
140
3.5
141
0.0
143
0.0393701
146
0.71
147
1.5
172
     1
176
   256
177
   256
178
     2
271
     2
272
     3
274
     4
283
     0
284
     8
340
11
371
    -1
372
    -1
  0
DIMSTYLE
105
B3AE
330
A
100
AcDbSymbolTableRecord
100
AcDbDimStyleTableRecord
  2
AM_ISO$SH
 70
     0
  4
"
 41
2.5
 42
1.0
 43
10.0
 44
1.0
 47
0.1
 48
0.1
 73
     0
 74
     0
 75
     1
 76
     1
 77
     1
 78
     8
 79
     2
140
3.5
141
0.0
143
0.0393701
144
2.0
146
0.71
147
1.5
172
     1
173
     1
176
   256
177
   256
178
     2
271
     2
272
     3
274
     4
283
     0
284
     8
340
11
343
64
371
    -1
372
    -1
  0
ENDTAB
  0
TABLE
  2
BLOCK_RECORD
  5
1
330
0
100
AcDbSymbolTable
 70
    17
  0
BLOCK_RECORD
  5
1F
102
{ACAD_XDICTIONARY
360
165
102
}
330
1
100
AcDbSymbolTableRecord
100
AcDbBlockTableRecord
  2
*MODEL_SPACE
340
B327
  0
BLOCK_RECORD
  5
1B
102
{ACAD_XDICTIONARY
360
B31A
102
}
330
1
100
AcDbSymbolTableRecord
100
AcDbBlockTableRecord
  2
*PAPER_SPACE
340
B328
  0
BLOCK_RECORD
  5
59
330
1
100
AcDbSymbolTableRecord
100
AcDbBlockTableRecord
  2
_OPEN30
340
0
102
{BLKREFS
331
B3F6
331
B3F7
331
B401
331
B402
331
B40A
331
B40B
331
B413
331
B414
331
B41C
331
B41D
331
B425
331
B426
331
B42E
331
B42F
102
}
  0
BLOCK_RECORD
  5
64
330
1
100
AcDbSymbolTableRecord
100
AcDbBlockTableRecord
  2
GENAXEH
340
0
  0
BLOCK_RECORD
  5
AB1E
330
1
100
AcDbSymbolTableRecord
100
AcDbBlockTableRecord
  2
CBF06
340
0
102
{BLKREFS
331
AB29
102
}
  0
BLOCK_RECORD
  5
AB2C
330
1
100
AcDbSymbolTableRecord
100
AcDbBlockTableRecord
  2
*D7
340
0
  0
BLOCK_RECORD
  5
ABE5
330
1
100
AcDbSymbolTableRecord
100
AcDbBlockTableRecord
  2
*D8
340
0
  0
BLOCK_RECORD
  5
AC56
330
1
100
AcDbSymbolTableRecord
100
AcDbBlockTableRecord
  2
*D9
340
0
  0
BLOCK_RECORD
  5
AC75
330
1
100
AcDbSymbolTableRecord
100
AcDbBlockTableRecord
  2
*D10
340
0
  0
BLOCK_RECORD
  5
AC82
330
1
100
AcDbSymbolTableRecord
100
AcDbBlockTableRecord
  2
*D11
340
0
  0
BLOCK_RECORD
  5
ACC6
330
1
100
AcDbSymbolTableRecord
100
AcDbBlockTableRecord
  2
*D12
340
0
  0
BLOCK_RECORD
  5
AD2C
330
1
100
AcDbSymbolTableRecord
100
AcDbBlockTableRecord
  2
CBF03
340
0
102
{BLKREFS
331
AD37
102
}
  0
BLOCK_RECORD
  5
AF9F
330
1
100
AcDbSymbolTableRecord
100
AcDbBlockTableRecord
  2
*D15
340
0
  0
ENDTAB
  0
ENDSEC
  0
SECTION
  2
BLOCKS
  0
BLOCK
  5
20
330
1F
100
AcDbEntity
  8
0
100
AcDbBlockBegin
  2
*MODEL_SPACE
 70
     0
 10
0.0
 20
0.0
 30
0.0
  3
*MODEL_SPACE
  1

  0
ENDBLK
  5
21
330
1F
100
AcDbEntity
  8
0
100
AcDbBlockEnd
  0
BLOCK
  5
1C
330
1B
100
AcDbEntity
 67
     1
  8
0
100
AcDbBlockBegin
  2
*PAPER_SPACE
 70
     0
 10
0.0
 20
0.0
 30
0.0
  3
*PAPER_SPACE
  1

  0
ENDBLK
  5
1D
330
1B
100
AcDbEntity
 67
     1
  8
0
100
AcDbBlockEnd
  0
BLOCK
  5
5D
330
59
100
AcDbEntity
  8
0
100
AcDbBlockBegin
  2
_OPEN30
 70
     0
 10
0.0
 20
0.0
 30
0.0
  3
_OPEN30
  1

  0
LINE
  5
5A
330
59
100
AcDbEntity
  8
0
 62
     0
100
AcDbLine
 10
-1.0
 20
0.26794919
 30
0.0
 11
0.0
 21
0.0
 31
0.0
  0
LINE
  5
5B
330
59
100
AcDbEntity
  8
0
 62
     0
100
AcDbLine
 10
0.0
 20
0.0
 30
0.0
 11
-1.0
 21
-0.26794919
 31
0.0
  0
LINE
  5
5C
330
59
100
AcDbEntity
  8
0
 62
     0
100
AcDbLine
 10
0.0
 20
0.0
 30
0.0
 11
-1.0
 21
0.0
 31
0.0
  0
ENDBLK
  5
5E
330
59
100
AcDbEntity
  8
0
100
AcDbBlockEnd
  0
BLOCK
  5
66
330
64
100
AcDbEntity
  8
0
100
AcDbBlockBegin
  2
GENAXEH
 70
     0
 10
0.0
 20
0.0
 30
0.0
  3
GENAXEH
  1

  0
LINE
  5
65
330
64
100
AcDbEntity
  8
0
100
AcDbLine
 10
-1.0
 20
0.0
 30
0.0
 11
1.0
 21
0.0
 31
0.0
  0
ENDBLK
  5
67
330
64
100
AcDbEntity
  8
0
100
AcDbBlockEnd
  0
BLOCK
  5
AB27
330
AB1E
100
AcDbEntity
  8
0
100
AcDbBlockBegin
  2
CBF06
 70
     0
 10
0.0
 20
0.0
 30
0.0
  3
CBF06
  1

  0
CIRCLE
  5
AB1F
330
AB1E
100
AcDbEntity
  8
0
  6
Continuous
100
AcDbCircle
 10
0.0000187875812969
 20
0.0000034482758053
 30
0.0
 40
4.307179353944746
  0
CIRCLE
  5
AB20
330
AB1E
100
AcDbEntity
  8
0
  6
Continuous
100
AcDbCircle
 10
0.0000187875812969
 20
0.0000034482758053
 30
0.0
 40
5.0
  0
LINE
  5
AB21
330
AB1E
100
AcDbEntity
  8
0
  6
Continuous
100
AcDbLine
 10
-1.443356212418706
 20
-2.499995386098901
 30
0.0
 11
1.443393787581185
 21
-2.499995386098901
 31
0.0
  0
LINE
  5
AB22
330
AB1E
100
AcDbEntity
  8
0
  6
Continuous
100
AcDbLine
 10
1.4433937875813
 20
2.500002282650598
 30
0.0
 11
-1.443356212418706
 21
2.500002282650598
 31
0.0
  0
LINE
  5
AB23
330
AB1E
100
AcDbEntity
  8
0
  6
Continuous
100
AcDbLine
 10
-2.886731212418651
 20
0.0000034482758053
 30
0.0
 11
-1.443356212418706
 21
-2.499995386098901
 31
0.0
  0
LINE
  5
AB24
330
AB1E
100
AcDbEntity
  8
0
  6
Continuous
100
AcDbLine
 10
-1.443356212418706
 20
2.500002282650598
 30
0.0
 11
-2.886731212418651
 21
0.0000034482758053
 31
0.0
  0
LINE
  5
AB25
330
AB1E
100
AcDbEntity
  8
0
  6
Continuous
100
AcDbLine
 10
1.443393787581185
 20
-2.499995386098901
 30
0.0
 11
2.886768787581303
 21
0.0000034482758053
 31
0.0
  0
LINE
  5
AB26
330
AB1E
100
AcDbEntity
  8
0
  6
Continuous
100
AcDbLine
 10
2.886768787581303
 20
0.0000034482758053
 30
0.0
 11
1.4433937875813
 21
2.500002282650598
 31
0.0
  0
ENDBLK
  5
AB28
330
AB1E
100
AcDbEntity
  8
0
100
AcDbBlockEnd
  0
BLOCK
  5
AB36
330
AB2C
100
AcDbEntity
  8
0
100
AcDbBlockBegin
  2
*D7
 70
     1
 10
0.0
 20
0.0
 30
0.0
  3
*D7
  1

  0
LINE
  5
B3F3
330
AB2C
100
AcDbEntity
  8
AM_5
 62
     3
370
    -2
100
AcDbLine
 10
0.2587248741756251
 20
-0.0000000000000001
 30
0.0
 11
-28.0193201365429
 21
0.0000000000000079
 31
0.0
  0
LINE
  5
B3F4
330
AB2C
100
AcDbEntity
  8
AM_5
 62
     3
370
    -2
100
AcDbLine
 10
25.60000000000001
 20
32.6
 30
0.0
 11
-28.01932013654289
 21
32.60000000000002
 31
0.0
  0
LINE
  5
B3F5
330
AB2C
100
AcDbEntity
  8
AM_5
 62
     3
370
    -2
100
AcDbLine
 10
-27.01932013654289
 20
2.500000000000007
 30
0.0
 11
-27.01932013654289
 21
30.10000000000002
 31
0.0
  0
INSERT
  5
B3F6
330
AB2C
100
AcDbEntity
  8
AM_5
 62
     3
370
    -2
100
AcDbBlockReference
  2
_OPEN30
 10
-27.01932013654289
 20
0.0000000000000077
 30
0.0
 41
2.5
 42
2.5
 43
2.5
 50
270.0
  0
INSERT
  5
B3F7
330
AB2C
100
AcDbEntity
  8
AM_5
 62
     3
370
    -2
100
AcDbBlockReference
  2
_OPEN30
 10
-27.01932013654289
 20
32.60000000000002
 30
0.0
 41
2.5
 42
2.5
 43
2.5
 50
90.0
  0
MTEXT
  5
B3F8
330
AB2C
100
AcDbEntity
  8
AM_5
 62
     2
100
AcDbMText
 10
-30.41969415229093
 20
16.3
 30
0.0
 40
3.799999999999998
 41
0.0
 71
     5
 72
     1
  1
32.6
 11
0.0000000000000001
 21
1.0
 31
0.0
 73
     1
 44
1.0
1001
ACAD
1000
MTEXTBEGIN
1070
    73
1070
     1
1070
    44
1040
1.0
1070
    74
1070
     0
1000
MTEXTEND
  0
POINT
  5
B3F9
330
AB2C
100
AcDbEntity
  8
DEFPOINTS
 62
     0
100
AcDbPoint
 10
0.2587248741756251
 20
-0.0000000000000001
 30
0.0
  0
POINT
  5
B3FA
330
AB2C
100
AcDbEntity
  8
DEFPOINTS
 62
     0
100
AcDbPoint
 10
25.60000000000001
 20
32.6
 30
0.0
  0
POINT
  5
B3FB
330
AB2C
100
AcDbEntity
  8
DEFPOINTS
 62
     0
100
AcDbPoint
 10
-27.01932013654289
 20
32.60000000000002
 30
0.0
  0
ENDBLK
  5
AB37
330
AB2C
100
AcDbEntity
  8
0
100
AcDbBlockEnd
  0
BLOCK
  5
ABF1
330
ABE5
100
AcDbEntity
  8
0
100
AcDbBlockBegin
  2
*D8
 70
     1
 10
0.0
 20
0.0
 30
0.0
  3
*D8
  1

  0
LINE
  5
B3FC
330
ABE5
100
AcDbEntity
  8
AM_5
 62
     3
370
    -2
100
AcDbLine
 10
0.258724874175339
 20
-0.0000000000000006
 30
0.0
 11
-17.18496850123995
 21
0.0000000000000044
 31
0.0
  0
LINE
  5
B3FD
330
ABE5
100
AcDbEntity
  8
AM_5
 62
     3
370
    -2
100
AcDbLine
 10
0.252985090803449
 20
4.999982727689999
 30
0.0
 11
-17.18496850123995
 21
4.999982727690004
 31
0.0
  0
LINE
  5
B3FE
330
ABE5
100
AcDbEntity
  8
AM_5
 62
     3
370
    -2
100
AcDbLine
 10
-16.18496850123994
 20
-2.499999999999996
 30
0.0
 11
-16.18496850123994
 21
-4.999999999999995
 31
0.0
  0
LINE
  5
B3FF
330
ABE5
100
AcDbEntity
  8
AM_5
 62
     3
370
    -2
100
AcDbLine
 10
-16.18496850123994
 20
7.499982727690004
 30
0.0
 11
-16.18496850123994
 21
9.999982727690003
 31
0.0
  0
LINE
  5
B400
330
ABE5
100
AcDbEntity
  8
AM_5
 62
     3
370
    -2
100
AcDbLine
 10
-16.18496850123994
 20
0.0000000000000041
 30
0.0
 11
-16.18496850123994
 21
4.999982727690004
 31
0.0
  0
INSERT
  5
B401
330
ABE5
100
AcDbEntity
  8
AM_5
 62
     3
370
    -2
100
AcDbBlockReference
  2
_OPEN30
 10
-16.18496850123994
 20
0.0000000000000041
 30
0.0
 41
2.5
 42
2.5
 43
2.5
 50
90.0
  0
INSERT
  5
B402
330
ABE5
100
AcDbEntity
  8
AM_5
 62
     3
370
    -2
100
AcDbBlockReference
  2
_OPEN30
 10
-16.18496850123994
 20
4.999982727690004
 30
0.0
 41
2.5
 42
2.5
 43
2.5
 50
270.0
  0
MTEXT
  5
B403
330
ABE5
100
AcDbEntity
  8
AM_5
 62
     2
100
AcDbMText
 10
-19.58496850123994
 20
2.499991363845002
 30
0.0
 40
3.799999999999998
 41
0.0
 71
     5
 72
     1
  1
5
 11
0.0000000000000001
 21
1.0
 31
0.0
 73
     1
 44
1.0
1001
ACAD
1000
MTEXTBEGIN
1070
    73
1070
     1
1070
    44
1040
1.0
1070
    74
1070
     0
1000
MTEXTEND
  0
POINT
  5
B404
330
ABE5
100
AcDbEntity
  8
DEFPOINTS
 62
     0
100
AcDbPoint
 10
0.258724874175339
 20
-0.0000000000000006
 30
0.0
  0
POINT
  5
B405
330
ABE5
100
AcDbEntity
  8
DEFPOINTS
 62
     0
100
AcDbPoint
 10
0.252985090803449
 20
4.999982727689999
 30
0.0
  0
POINT
  5
B406
330
ABE5
100
AcDbEntity
  8
DEFPOINTS
 62
     0
100
AcDbPoint
 10
-16.18496850123994
 20
4.999982727690004
 30
0.0
  0
ENDBLK
  5
ABF2
330
ABE5
100
AcDbEntity
  8
0
100
AcDbBlockEnd
  0
BLOCK
  5
AC60
330
AC56
100
AcDbEntity
  8
0
100
AcDbBlockBegin
  2
*D9
 70
     1
 10
0.0
 20
0.0
 30
0.0
  3
*D9
  1

  0
LINE
  5
B407
330
AC56
100
AcDbEntity
  8
AM_5
 62
     3
370
    -2
100
AcDbLine
 10
170.0
 20
-20.01977540240266
 30
0.0
 11
170.0
 21
-14.00797003118254
 31
0.0
  0
LINE
  5
B408
330
AC56
100
AcDbEntity
  8
AM_5
 62
     3
370
    -2
100
AcDbLine
 10
-0.0000000000000025
 20
-20.01533411317881
 30
0.0
 11
-0.0000000000000021
 21
-14.00797003118254
 31
0.0
  0
LINE
  5
B409
330
AC56
100
AcDbEntity
  8
AM_5
 62
     3
370
    -2
100
AcDbLine
 10
167.5
 20
-15.00797003118254
 30
0.0
 11
2.499999999999997
 21
-15.00797003118254
 31
0.0
  0
INSERT
  5
B40A
330
AC56
100
AcDbEntity
  8
AM_5
 62
     3
370
    -2
100
AcDbBlockReference
  2
_OPEN30
 10
170.0
 20
-15.00797003118254
 30
0.0
 41
2.5
 42
2.5
 43
2.5
  0
INSERT
  5
B40B
330
AC56
100
AcDbEntity
  8
AM_5
 62
     3
370
    -2
100
AcDbBlockReference
  2
_OPEN30
 10
-0.0000000000000022
 20
-15.00797003118254
 30
0.0
 41
2.5
 42
2.5
 43
2.5
 50
180.0
  0
MTEXT
  5
B40C
330
AC56
100
AcDbEntity
  8
AM_5
 62
     2
100
AcDbMText
 10
85.0
 20
-11.60797003118254
 30
0.0
 40
3.799999999999998
 41
0.0
 71
     5
 72
     1
  1
170
 73
     1
 44
1.0
1001
ACAD
1000
MTEXTBEGIN
1070
    73
1070
     1
1070
    44
1040
1.0
1070
    74
1070
     0
1000
MTEXTEND
  0
POINT
  5
B40D
330
AC56
100
AcDbEntity
  8
DEFPOINTS
 62
     0
100
AcDbPoint
 10
170.0
 20
-20.01977540240266
 30
0.0
  0
POINT
  5
B40E
330
AC56
100
AcDbEntity
  8
DEFPOINTS
 62
     0
100
AcDbPoint
 10
-0.0000000000000025
 20
-20.01533411317881
 30
0.0
  0
POINT
  5
B40F
330
AC56
100
AcDbEntity
  8
DEFPOINTS
 62
     0
100
AcDbPoint
 10
-0.0000000000000022
 20
-15.00797003118254
 30
0.0
  0
ENDBLK
  5
AC61
330
AC56
100
AcDbEntity
  8
0
100
AcDbBlockEnd
  0
BLOCK
  5
AC7F
330
AC75
100
AcDbEntity
  8
0
100
AcDbBlockBegin
  2
*D10
 70
     1
 10
0.0
 20
0.0
 30
0.0
  3
*D10
  1

  0
LINE
  5
B410
330
AC75
100
AcDbEntity
  8
AM_5
 62
     3
370
    -2
100
AcDbLine
 10
170.0
 20
-55.31045481860854
 30
0.0
 11
187.0333675347087
 21
-55.31045481860854
 31
0.0
  0
LINE
  5
B411
330
AC75
100
AcDbEntity
  8
AM_5
 62
     3
370
    -2
100
AcDbLine
 10
170.0
 20
-87.31045481860865
 30
0.0
 11
187.0333675347086
 21
-87.31045481860865
 31
0.0
  0
LINE
  5
B412
330
AC75
100
AcDbEntity
  8
AM_5
 62
     3
370
    -2
100
AcDbLine
 10
186.0333675347087
 20
-57.81045481860854
 30
0.0
 11
186.0333675347087
 21
-84.81045481860865
 31
0.0
  0
INSERT
  5
B413
330
AC75
100
AcDbEntity
  8
AM_5
 62
     3
370
    -2
100
AcDbBlockReference
  2
_OPEN30
 10
186.0333675347087
 20
-55.31045481860854
 30
0.0
 41
2.5
 42
2.5
 43
2.5
 50
90.0
  0
INSERT
  5
B414
330
AC75
100
AcDbEntity
  8
AM_5
 62
     3
370
    -2
100
AcDbBlockReference
  2
_OPEN30
 10
186.0333675347087
 20
-87.31045481860865
 30
0.0
 41
2.5
 42
2.5
 43
2.5
 50
270.0
  0
MTEXT
  5
B415
330
AC75
100
AcDbEntity
  8
AM_5
 62
     2
100
AcDbMText
 10
182.6329935189606
 20
-71.31045481860856
 30
0.0
 40
3.799999999999998
 41
0.0
 71
     5
 72
     1
  1
32
 11
0.0000000000000001
 21
1.0
 31
0.0
 73
     1
 44
1.0
1001
ACAD
1000
MTEXTBEGIN
1070
    73
1070
     1
1070
    44
1040
1.0
1070
    74
1070
     0
1000
MTEXTEND
  0
POINT
  5
B416
330
AC75
100
AcDbEntity
  8
DEFPOINTS
 62
     0
100
AcDbPoint
 10
170.0
 20
-55.31045481860854
 30
0.0
  0
POINT
  5
B417
330
AC75
100
AcDbEntity
  8
DEFPOINTS
 62
     0
100
AcDbPoint
 10
170.0
 20
-87.31045481860865
 30
0.0
  0
POINT
  5
B418
330
AC75
100
AcDbEntity
  8
DEFPOINTS
 62
     0
100
AcDbPoint
 10
186.0333675347087
 20
-87.31045481860865
 30
0.0
  0
ENDBLK
  5
AC80
330
AC75
100
AcDbEntity
  8
0
100
AcDbBlockEnd
  0
BLOCK
  5
AC8C
330
AC82
100
AcDbEntity
  8
0
100
AcDbBlockBegin
  2
*D11
 70
     1
 10
0.0
 20
0.0
 30
0.0
  3
*D11
  1

  0
LINE
  5
B419
330
AC82
100
AcDbEntity
  8
AM_5
 62
     3
370
    -2
100
AcDbLine
 10
20.6
 20
-87.31045481860849
 30
0.0
 11
-26.07395309083099
 21
-87.31045481860849
 31
0.0
  0
LINE
  5
B41A
330
AC82
100
AcDbEntity
  8
AM_5
 62
     3
370
    -2
100
AcDbLine
 10
-0.0000000000000068
 20
-55.31045481860883
 30
0.0
 11
-26.07395309083098
 21
-55.31045481860882
 31
0.0
  0
LINE
  5
B41B
330
AC82
100
AcDbEntity
  8
AM_5
 62
     3
370
    -2
100
AcDbLine
 10
-25.07395309083098
 20
-84.81045481860849
 30
0.0
 11
-25.07395309083098
 21
-57.81045481860882
 31
0.0
  0
INSERT
  5
B41C
330
AC82
100
AcDbEntity
  8
AM_5
 62
     3
370
    -2
100
AcDbBlockReference
  2
_OPEN30
 10
-25.07395309083098
 20
-87.31045481860849
 30
0.0
 41
2.5
 42
2.5
 43
2.5
 50
270.0
  0
INSERT
  5
B41D
330
AC82
100
AcDbEntity
  8
AM_5
 62
     3
370
    -2
100
AcDbBlockReference
  2
_OPEN30
 10
-25.07395309083098
 20
-55.31045481860882
 30
0.0
 41
2.5
 42
2.5
 43
2.5
 50
90.0
  0
MTEXT
  5
B41E
330
AC82
100
AcDbEntity
  8
AM_5
 62
     2
100
AcDbMText
 10
-28.474327106579
 20
-71.31045481860866
 30
0.0
 40
3.799999999999998
 41
0.0
 71
     5
 72
     1
  1
32
 11
0.0000000000000001
 21
1.0
 31
0.0
 73
     1
 44
1.0
1001
ACAD
1000
MTEXTBEGIN
1070
    73
1070
     1
1070
    44
1040
1.0
1070
    74
1070
     0
1000
MTEXTEND
  0
POINT
  5
B41F
330
AC82
100
AcDbEntity
  8
DEFPOINTS
 62
     0
100
AcDbPoint
 10
20.6
 20
-87.31045481860849
 30
0.0
  0
POINT
  5
B420
330
AC82
100
AcDbEntity
  8
DEFPOINTS
 62
     0
100
AcDbPoint
 10
-0.0000000000000068
 20
-55.31045481860883
 30
0.0
  0
POINT
  5
B421
330
AC82
100
AcDbEntity
  8
DEFPOINTS
 62
     0
100
AcDbPoint
 10
-25.07395309083098
 20
-55.31045481860882
 30
0.0
  0
ENDBLK
  5
AC8D
330
AC82
100
AcDbEntity
  8
0
100
AcDbBlockEnd
  0
BLOCK
  5
ACD0
330
ACC6
100
AcDbEntity
  8
0
100
AcDbBlockBegin
  2
*D12
 70
     1
 10
0.0
 20
0.0
 30
0.0
  3
*D12
  1

  0
LINE
  5
B422
330
ACC6
100
AcDbEntity
  8
AM_5
 62
     3
370
    -2
100
AcDbLine
 10
170.0
 20
32.59999999999996
 30
0.0
 11
185.9969373151983
 21
32.59999999999995
 31
0.0
  0
LINE
  5
B423
330
ACC6
100
AcDbEntity
  8
AM_5
 62
     3
370
    -2
100
AcDbLine
 10
170.0
 20
0.5999999999999646
 30
0.0
 11
185.9969373151983
 21
0.5999999999999601
 31
0.0
  0
LINE
  5
B424
330
ACC6
100
AcDbEntity
  8
AM_5
 62
     3
370
    -2
100
AcDbLine
 10
184.9969373151983
 20
30.09999999999995
 30
0.0
 11
184.9969373151983
 21
3.09999999999996
 31
0.0
  0
INSERT
  5
B425
330
ACC6
100
AcDbEntity
  8
AM_5
 62
     3
370
    -2
100
AcDbBlockReference
  2
_OPEN30
 10
184.9969373151983
 20
32.59999999999995
 30
0.0
 41
2.5
 42
2.5
 43
2.5
 50
90.0
  0
INSERT
  5
B426
330
ACC6
100
AcDbEntity
  8
AM_5
 62
     3
370
    -2
100
AcDbBlockReference
  2
_OPEN30
 10
184.9969373151983
 20
0.5999999999999604
 30
0.0
 41
2.5
 42
2.5
 43
2.5
 50
270.0
  0
MTEXT
  5
B427
330
ACC6
100
AcDbEntity
  8
AM_5
 62
     2
100
AcDbMText
 10
181.5965632994503
 20
16.59999999999999
 30
0.0
 40
3.799999999999998
 41
0.0
 71
     5
 72
     1
  1
32
 11
0.0000000000000001
 21
1.0
 31
0.0
 73
     1
 44
1.0
1001
ACAD
1000
MTEXTBEGIN
1070
    73
1070
     1
1070
    44
1040
1.0
1070
    74
1070
     0
1000
MTEXTEND
  0
POINT
  5
B428
330
ACC6
100
AcDbEntity
  8
DEFPOINTS
 62
     0
100
AcDbPoint
 10
170.0
 20
32.59999999999996
 30
0.0
  0
POINT
  5
B429
330
ACC6
100
AcDbEntity
  8
DEFPOINTS
 62
     0
100
AcDbPoint
 10
170.0
 20
0.5999999999999646
 30
0.0
  0
POINT
  5
B42A
330
ACC6
100
AcDbEntity
  8
DEFPOINTS
 62
     0
100
AcDbPoint
 10
184.9969373151983
 20
0.5999999999999604
 30
0.0
  0
ENDBLK
  5
ACD1
330
ACC6
100
AcDbEntity
  8
0
100
AcDbBlockEnd
  0
BLOCK
  5
AD35
330
AD2C
100
AcDbEntity
  8
0
100
AcDbBlockBegin
  2
CBF03
 70
     0
 10
0.0
 20
0.0
 30
0.0
  3
CBF03
  1

  0
CIRCLE
  5
AD2D
330
AD2C
100
AcDbEntity
  8
0
  6
Continuous
100
AcDbCircle
 10
0.0
 20
0.0
 30
0.0
 40
2.75
  0
CIRCLE
  5
AD2E
330
AD2C
100
AcDbEntity
  8
0
  6
Continuous
100
AcDbCircle
 10
0.0
 20
0.0
 30
0.0
 40
2.403589676972373
  0
LINE
  5
AD2F
330
AD2C
100
AcDbEntity
  8
0
  6
Continuous
100
AcDbLine
 10
1.443375000000003
 20
0.0
 30
0.0
 11
0.7216875000000301
 21
1.249999417187382
 31
0.0
  0
LINE
  5
AD30
330
AD2C
100
AcDbEntity
  8
0
  6
Continuous
100
AcDbLine
 10
0.7216875000000301
 20
1.249999417187382
 30
0.0
 11
-0.7216874999999732
 21
1.249999417187382
 31
0.0
  0
LINE
  5
AD31
330
AD2C
100
AcDbEntity
  8
0
  6
Continuous
100
AcDbLine
 10
-0.7216874999999732
 20
1.249999417187382
 30
0.0
 11
-1.443375000000003
 21
0.0
 31
0.0
  0
LINE
  5
AD32
330
AD2C
100
AcDbEntity
  8
0
  6
Continuous
100
AcDbLine
 10
-1.443375000000003
 20
0.0
 30
0.0
 11
-0.7216874999999732
 21
-1.249999417187297
 31
0.0
  0
LINE
  5
AD33
330
AD2C
100
AcDbEntity
  8
0
  6
Continuous
100
AcDbLine
 10
-0.7216874999999732
 20
-1.249999417187297
 30
0.0
 11
0.7216875000000301
 21
-1.249999417187297
 31
0.0
  0
LINE
  5
AD34
330
AD2C
100
AcDbEntity
  8
0
  6
Continuous
100
AcDbLine
 10
0.7216875000000301
 20
-1.249999417187297
 30
0.0
 11
1.443375000000003
 21
0.0
 31
0.0
  0
ENDBLK
  5
AD36
330
AD2C
100
AcDbEntity
  8
0
100
AcDbBlockEnd
  0
BLOCK
  5
AFA9
330
AF9F
100
AcDbEntity
  8
0
100
AcDbBlockBegin
  2
*D15
 70
     1
 10
0.0
 20
0.0
 30
0.0
  3
*D15
  1

  0
LINE
  5
B42B
330
AF9F
100
AcDbEntity
  8
AM_5
 62
     3
370
    -2
100
AcDbLine
 10
-0.0000000000000068
 20
-55.31045481860883
 30
0.0
 11
-0.000000000000005
 21
-26.06841864808428
 31
0.0
  0
LINE
  5
B42C
330
AF9F
100
AcDbEntity
  8
AM_5
 62
     3
370
    -2
100
AcDbLine
 10
49.19999999999998
 20
-42.7104548186085
 30
0.0
 11
49.19999999999998
 21
-26.06841864808428
 31
0.0
  0
LINE
  5
B42D
330
AF9F
100
AcDbEntity
  8
AM_5
 62
     3
370
    -2
100
AcDbLine
 10
2.499999999999995
 20
-27.06841864808428
 30
0.0
 11
46.69999999999998
 21
-27.06841864808428
 31
0.0
  0
INSERT
  5
B42E
330
AF9F
100
AcDbEntity
  8
AM_5
 62
     3
370
    -2
100
AcDbBlockReference
  2
_OPEN30
 10
-0.0000000000000051
 20
-27.06841864808428
 30
0.0
 41
2.5
 42
2.5
 43
2.5
 50
180.0
  0
INSERT
  5
B42F
330
AF9F
100
AcDbEntity
  8
AM_5
 62
     3
370
    -2
100
AcDbBlockReference
  2
_OPEN30
 10
49.19999999999998
 20
-27.06841864808428
 30
0.0
 41
2.5
 42
2.5
 43
2.5
  0
MTEXT
  5
B430
330
AF9F
100
AcDbEntity
  8
AM_5
 62
     2
100
AcDbMText
 10
24.59999999999999
 20
-23.66712625019883
 30
0.0
 40
3.799999999999998
 41
0.0
 71
     5
 72
     1
  1
49.2
 73
     1
 44
1.0
1001
ACAD
1000
MTEXTBEGIN
1070
    73
1070
     1
1070
    44
1040
1.0
1070
    74
1070
     0
1000
MTEXTEND
  0
POINT
  5
B431
330
AF9F
100
AcDbEntity
  8
DEFPOINTS
 62
     0
100
AcDbPoint
 10
-0.0000000000000068
 20
-55.31045481860883
 30
0.0
  0
POINT
  5
B432
330
AF9F
100
AcDbEntity
  8
DEFPOINTS
 62
     0
100
AcDbPoint
 10
49.19999999999998
 20
-42.7104548186085
 30
0.0
  0
POINT
  5
B433
330
AF9F
100
AcDbEntity
  8
DEFPOINTS
 62
     0
100
AcDbPoint
 10
49.19999999999998
 20
-27.06841864808428
 30
0.0
  0
ENDBLK
  5
AFAA
330
AF9F
100
AcDbEntity
  8
0
100
AcDbBlockEnd
  0
ENDSEC
  0
SECTION
  2
ENTITIES
  0
TEXT
  5
83BD
330
1F
100
AcDbEntity
  8
AM_6
100
AcDbText
 10
54.94202782035869
 20
-104.3592371064229
 30
0.0
 40
5.0
  1
GMDR3232-50
 72
     4
 11
75.31455458605411
 21
-101.8592371064229
 31
0.0
100
AcDbText
  0
LINE
  5
AA8D
330
1F
100
AcDbEntity
  8
AM_0
100
AcDbLine
 10
170.0
 20
32.59999999999995
 30
0.0
 11
25.60000000000001
 21
32.6
 31
0.0
  0
LINE
  5
AA8F
330
1F
100
AcDbEntity
  8
AM_0
100
AcDbLine
 10
170.0
 20
32.59999999999996
 30
0.0
 11
170.0
 21
0.5999999999999679
 31
0.0
  0
LINE
  5
AA96
330
1F
100
AcDbEntity
  8
AM_0
100
AcDbLine
 10
170.0
 20
-55.31045481860856
 30
0.0
 11
49.2
 21
-55.31045481860851
 31
0.0
  0
LINE
  5
AAAF
330
1F
100
AcDbEntity
  8
AM_0
100
AcDbLine
 10
170.0
 20
-55.31045481860854
 30
0.0
 11
170.0
 21
-87.31045481860867
 31
0.0
  0
LINE
  5
AABA
330
1F
100
AcDbEntity
  8
AM_0
100
AcDbLine
 10
0.5340759874415198
 20
-61.4149712887141
 30
0.0
 11
-0.0000000000000352
 21
-55.3104548186085
 31
0.0
  0
LINE
  5
AAD1
330
1F
100
AcDbEntity
  8
AM_0
100
AcDbLine
 10
20.62499999999996
 20
-56.7104548186085
 30
0.0
 11
4.800000000000018
 21
-56.7104548186085
 31
0.0
  0
LINE
  5
AADD
330
1F
100
AcDbEntity
  8
AM_7
100
AcDbLine
 10
38.32140809337952
 20
14.09999999999998
 30
0.0
 11
20.05633898291964
 21
14.09999999999999
 31
0.0
  0
LINE
  5
AADE
330
1F
100
AcDbEntity
  8
AM_7
100
AcDbLine
 10
28.20000000000002
 20
-56.71045481860851
 30
0.0
 11
28.20000000000002
 21
-36.77595611763383
 31
0.0
  0
LINE
  5
AADF
330
1F
100
AcDbEntity
  8
AM_7
100
AcDbLine
 10
28.19999999999998
 20
6.539350598313878
 30
0.0
 11
28.19999999999998
 21
21.245755732711
 31
0.0
  0
LINE
  5
AB07
330
1F
100
AcDbEntity
  8
AM_0
 48
0.3
100
AcDbLine
 10
28.20000000000002
 20
-38.81045481860851
 30
0.0
 11
23.19999999999998
 21
-38.81045481860851
 31
0.0
  0
LINE
  5
AB08
330
1F
100
AcDbEntity
  8
AM_0
 48
0.3
100
AcDbLine
 10
23.19999999999998
 20
-38.81045481860851
 30
0.0
 11
23.89282032302755
 21
-38.4104548186085
 31
0.0
  0
LINE
  5
AB09
330
1F
100
AcDbEntity
  8
AM_0
 48
0.3
100
AcDbLine
 10
23.19999999999998
 20
-38.81045481860854
 30
0.0
 11
23.19999999999998
 21
-42.71045481860849
 31
0.0
  0
LINE
  5
AB0A
330
1F
100
AcDbEntity
  8
AM_0
 48
0.3
100
AcDbLine
 10
33.20000000000001
 20
-38.81045481860852
 30
0.0
 11
33.20000000000001
 21
-42.7104548186085
 31
0.0
  0
LINE
  5
AB0B
330
1F
100
AcDbEntity
  8
AM_0
 48
0.3
100
AcDbLine
 10
33.20000000000001
 20
-38.81045481860852
 30
0.0
 11
28.20000000000002
 21
-38.81045481860851
 31
0.0
  0
LINE
  5
AB0C
330
1F
100
AcDbEntity
  8
AM_0
 48
0.3
100
AcDbLine
 10
33.20000000000001
 20
-38.81045481860852
 30
0.0
 11
32.50717967697247
 21
-38.41045481860851
 31
0.0
  0
LINE
  5
AB0D
330
1F
100
AcDbEntity
  8
AM_0
 48
0.3
100
AcDbLine
 10
32.50717967697247
 20
-38.41045481860851
 30
0.0
 11
23.89282032302755
 21
-38.4104548186085
 31
0.0
  0
CIRCLE
  5
AB1D
330
1F
100
AcDbEntity
  8
AM_0
100
AcDbCircle
 10
28.22420413329391
 20
14.1
 30
0.0
 40
5.5
  0
INSERT
  5
AB29
330
1F
100
AcDbEntity
  8
AM_0
100
AcDbBlockReference
  2
CBF06
 10
28.19999999999998
 20
14.1
 30
0.0
  0
DIMENSION
  5
AB2B
330
1F
100
AcDbEntity
  8
AM_5
100
AcDbDimension
  2
*D7
 10
-27.01932013654289
 20
32.60000000000002
 30
0.0
 11
-30.41969415229093
 21
16.3
 31
0.0
 70
    32
 71
     5
 42
32.60000000000001
  3
AM_JIS$0
100
AcDbAlignedDimension
 13
0.2587248741756251
 23
-0.0000000000000001
 33
0.0
 14
25.60000000000001
 24
32.6
 34
0.0
 50
89.99999999999998
100
AcDbRotatedDimension
1001
ACAD
1000
DSTYLE
1002
{
1070
   271
1070
     1
1002
}
  0
DIMENSION
  5
ABE4
330
1F
100
AcDbEntity
  8
AM_5
100
AcDbDimension
  2
*D8
 10
-16.18496850123994
 20
4.999982727690004
 30
0.0
 11
-19.58496850123994
 21
2.499991363845002
 31
0.0
 70
    32
 71
     5
 42
4.99998272769
  3
AM_JIS$0
100
AcDbAlignedDimension
 13
0.258724874175339
 23
-0.0000000000000006
 33
0.0
 14
0.252985090803449
 24
4.999982727689999
 34
0.0
 50
89.99999999999998
100
AcDbRotatedDimension
  0
LINE
  5
AC52
330
1F
100
AcDbEntity
  8
AM_1
100
AcDbLine
 10
170.0
 20
0.5999999999999679
 30
0.0
 11
170.0
 21
-55.31045481860854
 31
0.0
  0
LINE
  5
AC53
330
1F
100
AcDbEntity
  8
AM_1
100
AcDbLine
 10
0.0000000000000001
 20
0.6088825784476466
 30
0.0
 11
-0.0000000000000068
 21
-55.31045481860883
 31
0.0
  0
DIMENSION
  5
AC55
330
1F
100
AcDbEntity
  8
AM_5
100
AcDbDimension
  2
*D9
 10
-0.0000000000000022
 20
-15.00797003118254
 30
0.0
 11
85.0
 21
-11.60797003118254
 31
0.0
 70
    32
 71
     5
 42
170.0
  3
AM_JIS$0
100
AcDbAlignedDimension
 13
170.0
 23
-20.01977540240266
 33
0.0
 14
-0.0000000000000025
 24
-20.01533411317881
 34
0.0
 50
180.0
100
AcDbRotatedDimension
  0
DIMENSION
  5
AC74
330
1F
100
AcDbEntity
  8
AM_5
100
AcDbDimension
  2
*D10
 10
186.0333675347087
 20
-87.31045481860865
 30
0.0
 11
182.6329935189606
 21
-71.31045481860856
 31
0.0
 70
    32
 71
     5
 42
32.00000000000011
  3
AM_JIS$0
100
AcDbAlignedDimension
 13
170.0
 23
-55.31045481860854
 33
0.0
 14
170.0
 24
-87.31045481860865
 34
0.0
 50
270.0
100
AcDbRotatedDimension
  0
DIMENSION
  5
AC81
330
1F
100
AcDbEntity
  8
AM_5
100
AcDbDimension
  2
*D11
 10
-25.07395309083098
 20
-55.31045481860882
 30
0.0
 11
-28.474327106579
 21
-71.31045481860866
 31
0.0
 70
    32
 71
     5
 42
31.99999999999966
  3
AM_JIS$0
100
AcDbAlignedDimension
 13
20.6
 23
-87.31045481860849
 33
0.0
 14
-0.0000000000000068
 24
-55.31045481860883
 34
0.0
 50
270.0
100
AcDbRotatedDimension
  0
DIMENSION
  5
ACC5
330
1F
100
AcDbEntity
  8
AM_5
100
AcDbDimension
  2
*D12
 10
184.9969373151983
 20
0.5999999999999604
 30
0.0
 11
181.5965632994503
 21
16.59999999999999
 31
0.0
 70
    32
 71
     5
 42
31.99999999999999
  3
AM_JIS$0
100
AcDbAlignedDimension
 13
170.0
 23
32.59999999999996
 33
0.0
 14
170.0
 24
0.5999999999999646
 34
0.0
 50
270.0
100
AcDbRotatedDimension
  0
LINE
  5
AD18
330
1F
100
AcDbEntity
  8
AM_0
100
AcDbLine
 10
21.20000000000001
 20
-42.7104548186086
 30
0.0
 11
7.199999999999994
 21
-56.7104548186086
 31
0.0
  0
LINE
  5
AD19
330
1F
100
AcDbEntity
  8
AM_0
100
AcDbLine
 10
21.39999999999998
 20
-42.71045481860849
 30
0.0
 11
49.19999999999998
 21
-42.7104548186085
 31
0.0
  0
LINE
  5
AD1A
330
1F
100
AcDbEntity
  8
AM_0
100
AcDbLine
 10
49.19999999999998
 20
-42.7104548186085
 30
0.0
 11
49.2
 21
-56.71045481860851
 31
0.0
  0
LINE
  5
AD1E
330
1F
100
AcDbEntity
  8
AM_0
100
AcDbLine
 10
18.19999999999999
 20
-56.71045481860851
 30
0.0
 11
18.19999999999999
 21
-54.3104548186085
 31
0.0
  0
LINE
  5
AD1F
330
1F
100
AcDbEntity
  8
AM_0
100
AcDbLine
 10
18.19999999999999
 20
-54.3104548186085
 30
0.0
 11
44.40000000000001
 21
-54.3104548186085
 31
0.0
  0
LINE
  5
AD24
330
1F
100
AcDbEntity
  8
AM_0
100
AcDbLine
 10
49.2
 20
-55.31045481860852
 30
0.0
 11
49.2
 21
-78.71045481860853
 31
0.0
  0
LINE
  5
AD28
330
1F
100
AcDbEntity
  8
AM_7
100
AcDbLine
 10
44.7974220655466
 20
-60.7104548186085
 30
0.0
 11
37.85772258437272
 21
-60.7104548186085
 31
0.0
  0
LINE
  5
AD29
330
1F
100
AcDbEntity
  8
AM_7
100
AcDbLine
 10
41.29999999999997
 20
-57.39171856478869
 30
0.0
 11
41.29999999999997
 21
-64.06626946784925
 31
0.0
  0
INSERT
  5
AD37
330
1F
100
AcDbEntity
  8
AM_0
100
AcDbBlockReference
  2
CBF03
 10
41.29999999999997
 20
-60.7104548186085
 30
0.0
 50
180.0
  0
LINE
  5
AD47
330
1F
100
AcDbEntity
  8
AM_0
100
AcDbLine
 10
49.2
 20
-64.6104548186085
 30
0.0
 11
22.8
 21
-64.6104548186085
 31
0.0
  0
LINE
  5
AD48
330
1F
100
AcDbEntity
  8
AM_0
100
AcDbLine
 10
49.2
 20
-56.71045481860851
 30
0.0
 11
25.31465055778666
 21
-56.71045481860851
 31
0.0
  0
LINE
  5
AD4E
330
1F
100
AcDbEntity
  8
AM_0
100
AcDbLine
 10
20.6
 20
-78.71045481860845
 30
0.0
 11
20.6
 21
-87.31045481860849
 31
0.0
  0
LINE
  5
AD4F
330
1F
100
AcDbEntity
  8
AM_7
100
AcDbLine
 10
26.89999999999999
 20
-66.70492219704328
 30
0.0
 11
26.89999999999999
 21
-77.77278334476523
 31
0.0
  0
LINE
  5
AD50
330
1F
100
AcDbEntity
  8
AM_7
100
AcDbLine
 10
42.50000000000001
 20
-66.32974032426716
 30
0.0
 11
42.50000000000001
 21
-77.39760192745281
 31
0.0
  0
LINE
  5
AD51
330
1F
100
AcDbEntity
  8
AM_7
100
AcDbLine
 10
48.41106074381574
 20
-72.31045481860849
 30
0.0
 11
22.41099565492144
 21
-72.31045481860849
 31
0.0
  0
LINE
  5
AD52
330
1F
100
AcDbEntity
  8
AM_0
100
AcDbLine
 10
170.0
 20
-87.31045481860869
 30
0.0
 11
20.6
 21
-87.31045481860849
 31
0.0
  0
LINE
  5
AD72
330
1F
100
AcDbEntity
  8
AM_0
100
AcDbLine
 10
52.20000000000001
 20
-67.6104548186085
 30
0.0
 11
52.20000000000001
 21
-75.71045481860853
 31
0.0
  0
LINE
  5
AD73
330
1F
100
AcDbEntity
  8
AM_0
100
AcDbLine
 10
49.2
 20
-78.71045481860853
 30
0.0
 11
20.59999999999999
 21
-78.71045481860845
 31
0.0
  0
ARC
  5
AD74
330
1F
100
AcDbEntity
  8
AM_0
100
AcDbCircle
 10
49.2
 20
-75.71045481860853
 30
0.0
 40
3.0
100
AcDbArc
 50
270.0
 51
0.0
  0
ARC
  5
AD75
330
1F
100
AcDbEntity
  8
AM_0
100
AcDbCircle
 10
49.2
 20
-67.6104548186085
 30
0.0
 40
3.0
100
AcDbArc
 50
0.0
 51
90.0
  0
CIRCLE
  5
AD92
330
1F
100
AcDbEntity
  8
AM_0
100
AcDbCircle
 10
42.50000000000001
 20
-72.31045481860849
 30
0.0
 40
4.5
  0
CIRCLE
  5
AD93
330
1F
100
AcDbEntity
  8
AM_0
100
AcDbCircle
 10
26.89999999999999
 20
-72.31045481860849
 30
0.0
 40
4.5
  0
LWPOLYLINE
  5
AD95
330
1F
100
AcDbEntity
  8
AM_0
100
AcDbPolyline
 90
        6
 70
     1
 43
0.0
 10
43.65470053837925
 20
-74.31045481860849
 10
44.8094010767585
 20
-72.31045481860849
 10
43.65470053837925
 20
-70.31045481860849
 10
41.34529946162074
 20
-70.31045481860849
 10
40.1905989232415
 20
-72.31045481860849
 10
41.34529946162074
 20
-74.31045481860849
  0
LWPOLYLINE
  5
AD96
330
1F
100
AcDbEntity
  8
AM_0
100
AcDbPolyline
 90
        6
 70
     1
 43
0.0
 10
28.05470053837926
 20
-74.31045481860849
 10
29.20940107675851
 20
-72.31045481860849
 10
28.05470053837926
 20
-70.31045481860849
 10
25.74529946162074
 20
-70.31045481860849
 10
24.5905989232415
 20
-72.31045481860849
 10
25.74529946162074
 20
-74.31045481860849
  0
LINE
  5
AD98
330
1F
100
AcDbEntity
  8
AM_0
100
AcDbLine
 10
20.6
 20
-84.5104548186085
 30
0.0
 11
4.261805010310983
 21
-84.5104548186085
 31
0.0
  0
LINE
  5
AD9A
330
1F
100
AcDbEntity
  8
AM_0
100
AcDbLine
 10
0.6999999999999958
 20
-59.51045481860849
 30
0.0
 11
0.6999999999999952
 21
-64.31045481860849
 31
0.0
  0
LINE
  5
AD9C
330
1F
100
AcDbEntity
  8
AM_0
100
AcDbLine
 10
0.6999999999999952
 20
-64.31045481860849
 30
0.0
 11
4.261805010310983
 21
-84.5104548186085
 31
0.0
  0
LINE
  5
AD9D
330
1F
100
AcDbEntity
  8
AM_0
100
AcDbLine
 10
22.8
 20
-59.51045481860849
 30
0.0
 11
22.8
 21
-64.6104548186085
 31
0.0
  0
LINE
  5
ADB6
330
1F
100
AcDbEntity
  8
AM_0
100
AcDbLine
 10
20.60000000000001
 20
4.499999999999999
 30
0.0
 11
20.60000000000002
 21
27.6
 31
0.0
  0
LINE
  5
ADB7
330
1F
100
AcDbEntity
  8
AM_0
100
AcDbLine
 10
170.0
 20
0.5999999999999584
 30
0.0
 11
49.19999999999999
 21
0.5999999999999892
 31
0.0
  0
LINE
  5
ADD4
330
1F
100
AcDbEntity
  8
AM_0
100
AcDbLine
 10
41.59999999999999
 20
24.19999999999999
 30
0.0
 11
20.6
 21
24.19999999999999
 31
0.0
  0
LINE
  5
ADD5
330
1F
100
AcDbEntity
  8
AM_0
100
AcDbLine
 10
41.59999999999999
 20
20.19999999999999
 30
0.0
 11
38.8094010767585
 21
20.19999999999999
 31
0.0
  0
ARC
  5
ADD7
330
1F
100
AcDbEntity
  8
AM_0
100
AcDbCircle
 10
41.59999999999999
 20
22.19999999999999
 30
0.0
 40
2.0
100
AcDbArc
 50
270.0
 51
90.0
  0
LINE
  5
ADD9
330
1F
100
AcDbEntity
  8
AM_0
100
AcDbLine
 10
49.19999999999999
 20
0.3999999999999942
 30
0.0
 11
49.19999999999999
 21
5.599999999999989
 31
0.0
  0
LINE
  5
ADDC
330
1F
100
AcDbEntity
  8
AM_0
100
AcDbLine
 10
49.19999999999999
 20
5.599999999999989
 30
0.0
 11
44.39997989035557
 21
5.599999999999991
 31
0.0
  0
LINE
  5
ADDD
330
1F
100
AcDbEntity
  8
AM_0
100
AcDbLine
 10
49.19999999999999
 20
0.3999999999999888
 30
0.0
 11
7.199999999999986
 21
0.4000000000000019
 31
0.0
  0
LINE
  5
ADDE
330
1F
100
AcDbEntity
  8
AM_0
100
AcDbLine
 10
44.4
 20
10.51679862020584
 30
0.0
 11
44.4
 21
5.599999999999991
 31
0.0
  0
LINE
  5
ADDF
330
1F
100
AcDbEntity
  8
AM_0
100
AcDbLine
 10
44.4
 20
10.51679862020584
 30
0.0
 11
36.5
 21
24.19999999999999
 31
0.0
  0
LINE
  5
ADE0
330
1F
100
AcDbEntity
  8
AM_0
100
AcDbLine
 10
21.39999999999999
 20
4.499999999999997
 30
0.0
 11
21.39999999999999
 21
24.19999999999999
 31
0.0
  0
LINE
  5
AE86
330
1F
100
AcDbEntity
  8
AM_0
100
AcDbLine
 10
21.4
 20
20.19999999999999
 30
0.0
 11
20.60000000000002
 21
20.19999999999999
 31
0.0
  0
DIMENSION
  5
AF9E
330
1F
100
AcDbEntity
  8
AM_5
100
AcDbDimension
  2
*D15
 10
49.19999999999998
 20
-27.06841864808428
 30
0.0
 11
24.59999999999999
 21
-23.66712625019883
 31
0.0
 70
    32
 71
     5
 42
49.19999999999999
  3
AM_JIS$0
100
AcDbAlignedDimension
 13
-0.0000000000000068
 23
-55.31045481860883
 33
0.0
 14
49.19999999999998
 24
-42.7104548186085
 34
0.0
 50
180.0
100
AcDbRotatedDimension
  0
LINE
  5
B03E
330
1F
100
AcDbEntity
  8
AM_0
100
AcDbLine
 10
4.799999999999999
 20
0.1585848218675115
 30
0.0
 11
0.2587248741753401
 21
-0.00000000000001
 31
0.0
  0
LINE
  5
B03F
330
1F
100
AcDbEntity
  8
AM_0
100
AcDbLine
 10
4.8
 20
4.841263434746738
 30
0.0
 11
0.2585823061031334
 21
4.99985323520105
 31
0.0
  0
LINE
  5
B040
330
1F
100
AcDbEntity
  8
AM_0
100
AcDbLine
 10
4.8
 20
4.823345434746738
 30
0.0
 11
4.799999999999999
 21
0.1585848218675115
 31
0.0
  0
LINE
  5
B041
330
1F
100
AcDbEntity
  8
AM_0
100
AcDbLine
 10
0.0000000000000003
 20
2.490965128307132
 30
0.0
 11
0.0
 21
0.2498477067547852
 31
0.0
  0
ARC
  5
B042
330
1F
100
AcDbEntity
  8
AM_0
100
AcDbCircle
 10
0.2500000000000007
 20
4.750000549859469
 30
0.0
 40
0.25
100
AcDbArc
 50
88.03269411353239
 51
179.151367686432
  0
LINE
  5
B043
330
1F
100
AcDbEntity
  8
AM_0
100
AcDbLine
 10
0.0000000000000003
 20
2.490965128307117
 30
0.0
 11
0.0000000000000006
 21
4.735785271475791
 31
0.0
  0
ARC
  5
B044
330
1F
100
AcDbEntity
  8
AM_0
100
AcDbCircle
 10
0.25
 20
0.2498477067547834
 30
0.0
 40
0.25
100
AcDbArc
 50
180.0
 51
271.9999999999999
  0
LINE
  5
B047
330
1F
100
AcDbEntity
  8
AM_0
100
AcDbLine
 10
20.62499999999994
 20
0.1585848218675095
 30
0.0
 11
25.17499468504232
 21
-0.0003044937175249
 31
0.0
  0
ARC
  5
B04A
330
1F
100
AcDbEntity
  8
AM_0
100
AcDbCircle
 10
25.17499999999993
 20
0.2498477067547804
 30
0.0
 40
0.25
100
AcDbArc
 50
268.0000000000002
 51
0.0
  0
LINE
  5
B04B
330
1F
100
AcDbEntity
  8
AM_0
100
AcDbLine
 10
25.42499999999993
 20
0.3999999999999964
 30
0.0
 11
25.42499999999993
 21
0.2498477067547804
 31
0.0
  0
LINE
  5
B04E
330
1F
100
AcDbEntity
  8
AM_0
100
AcDbLine
 10
20.62499999999994
 20
4.841263434746736
 30
0.0
 11
20.62499999999994
 21
4.558883128307136
 31
0.0
  0
LINE
  5
B04F
330
1F
100
AcDbEntity
  8
AM_0
100
AcDbLine
 10
20.62499999999994
 20
4.841263434746736
 30
0.0
 11
21.40182695906838
 21
4.868390829919341
 31
0.0
  0
LINE
  5
B051
330
1F
100
AcDbEntity
  8
AM_0
100
AcDbLine
 10
20.62499999999994
 20
0.3999999999999977
 30
0.0
 11
20.62499999999994
 21
0.1585848218675095
 31
0.0
  0
LINE
  5
B053
330
1F
100
AcDbEntity
  8
AM_0
100
AcDbLine
 10
4.799999999999998
 20
0.8389651283071369
 30
0.0
 11
7.199999999999986
 21
0.8389651283071366
 31
0.0
  0
LINE
  5
B054
330
1F
100
AcDbEntity
  8
AM_0
100
AcDbLine
 10
4.8
 20
4.138965128307138
 30
0.0
 11
7.199999999999987
 21
4.138965128307138
 31
0.0
  0
LINE
  5
B1B3
330
1F
100
AcDbEntity
  8
AM_0
100
AcDbLine
 10
7.199999999999986
 20
0.3999999999999993
 30
0.0
 11
7.199999999999987
 21
4.5
 31
0.0
  0
LINE
  5
B1B4
330
1F
100
AcDbEntity
  8
AM_0
100
AcDbLine
 10
21.39999999999999
 20
4.499999999999997
 30
0.0
 11
7.199999999999988
 21
4.5
 31
0.0
  0
LINE
  5
B1E5
330
1F
100
AcDbEntity
  8
AM_0
100
AcDbLine
 10
22.8
 20
-59.51045481860849
 30
0.0
 11
0.6999999999999958
 21
-59.51045481860849
 31
0.0
  0
LINE
  5
B1E8
330
1F
100
AcDbEntity
  8
AM_0
100
AcDbLine
 10
44.40000000000001
 20
-54.3104548186085
 30
0.0
 11
44.40000000000001
 21
-56.71045481860851
 31
0.0
  0
LINE
  5
B1EB
330
1F
100
AcDbEntity
  8
AM_0
100
AcDbLine
 10
21.20000000000001
 20
0.3999999999999976
 30
0.0
 11
21.20000000000001
 21
4.499999999999997
 31
0.0
  0
LINE
  5
B202
330
1F
100
AcDbEntity
  8
AM_0
100
AcDbLine
 10
21.22499999999992
 20
-56.05102813758438
 30
0.0
 11
25.42499999999994
 21
-55.31045481860885
 31
0.0
  0
LINE
  5
B203
330
1F
100
AcDbEntity
  8
AM_0
100
AcDbLine
 10
21.22499999999992
 20
-56.05102813758438
 30
0.0
 11
20.62499999999992
 21
-55.31045481860884
 31
0.0
  0
LINE
  5
B204
330
1F
100
AcDbEntity
  8
AM_0
100
AcDbLine
 10
20.62499999999992
 20
-55.31045481860884
 30
0.0
 11
22.92499999999994
 21
-55.31045481860885
 31
0.0
  0
LINE
  5
B205
330
1F
100
AcDbEntity
  8
AM_0
100
AcDbLine
 10
22.92499999999994
 20
-55.31045481860885
 30
0.0
 11
23.45538449397551
 21
-55.65775117394269
 31
0.0
  0
LINE
  5
B206
330
1F
100
AcDbEntity
  8
AM_0
100
AcDbLine
 10
24.61126917196632
 20
-64.61144074340288
 30
0.0
 11
25.42499999999999
 21
-55.31045481860885
 31
0.0
  0
LINE
  5
B207
330
1F
100
AcDbEntity
  8
AM_0
100
AcDbLine
 10
20.62499999999996
 20
-55.31045481860884
 30
0.0
 11
20.62499999999996
 21
-59.51045481860849
 31
0.0
  0
LINE
  5
B209
330
1F
100
AcDbEntity
  8
AM_0
100
AcDbLine
 10
24.82499999999994
 20
-60.72689605359148
 30
0.0
 11
22.8
 21
-60.72689605359148
 31
0.0
  0
LINE
  5
B20B
330
1F
100
AcDbEntity
  8
AM_3
100
AcDbLine
 10
24.95065352394514
 20
-60.73225984954631
 30
0.0
 11
25.02651601195966
 21
-59.86514764372285
 31
0.0
  0
LINE
  5
B20C
330
1F
100
AcDbEntity
  8
AM_0
100
AcDbLine
 10
4.800000000000018
 20
-55.31045481860884
 30
0.0
 11
4.800000000000018
 21
-59.51045481860849
 31
0.0
  0
LINE
  5
B20D
330
1F
100
AcDbEntity
  8
AM_0
100
AcDbLine
 10
4.200000000000017
 20
-56.05102813758438
 30
0.0
 11
0.0000000000000217
 21
-55.31045481860884
 31
0.0
  0
LINE
  5
B20E
330
1F
100
AcDbEntity
  8
AM_0
100
AcDbLine
 10
4.200000000000017
 20
-56.05102813758438
 30
0.0
 11
4.800000000000018
 21
-55.31045481860884
 31
0.0
  0
LINE
  5
B20F
330
1F
100
AcDbEntity
  8
AM_0
100
AcDbLine
 10
4.800000000000018
 20
-55.31045481860884
 30
0.0
 11
2.500000000000014
 21
-55.31045481860884
 31
0.0
  0
LINE
  5
B217
330
1F
100
AcDbEntity
  8
AM_0
100
AcDbLine
 10
0.6999999999999957
 20
-60.72689605359146
 30
0.0
 11
0.4738772047153217
 21
-60.72689605359112
 31
0.0
  0
LINE
  5
B289
330
1F
100
AcDbEntity
  8
AM_0
100
AcDbLine
 10
20.60000000000002
 20
27.6
 30
0.0
 11
25.60000000000001
 21
32.6
 31
0.0
  0
LINE
  5
B2C5
330
1F
100
AcDbEntity
  8
AM_0
100
AcDbLine
 10
0.5340759874415183
 20
-61.40045481860849
 30
0.0
 11
0.6999999999999956
 21
-61.40045481860849
 31
0.0
  0
LINE
  5
B2CF
330
1F
100
AcDbEntity
  8
AM_0
100
AcDbLine
 10
22.8
 20
-61.40045481860849
 30
0.0
 11
24.87630147483273
 21
-61.40045481860849
 31
0.0
  0
ENDSEC
  0
SECTION
  2
OBJECTS
  0
DICTIONARY
  5
C
330
0
100
AcDbDictionary
281
     1
  3
ACAD_COLOR
350
B324
  3
ACAD_GROUP
350
D
  3
ACAD_LAYOUT
350
1A
  3
ACAD_MATERIAL
350
B323
  3
ACAD_MLINESTYLE
350
17
  3
ACAD_PLOTSETTINGS
350
19
  3
ACAD_PLOTSTYLENAME
350
E
  3
ACAD_TABLESTYLE
350
B325
  3
ACDBHEADERROUNDTRIPXREC
350
B43B
  3
ACDBVARIABLEDICTIONARY
350
30
  3
ACMDICTIONARY
350
4D
  3
AMG
350
3F
  3
AMGSNAPSETTINGS
350
73
  3
DWGPROPS
350
B43A
  3
ENG_DATA
350
21C6
  3
FILENAME
350
21C9
  3
HOLD_DIC_DATA
350
21C4
  3
TABLE_DIC_DATA
350
1C0B
  3
ZWKSIZE
350
21CB
  0
DICTIONARY
  5
165
330
1F
100
AcDbDictionary
280
     1
281
     1
  3
ACAD_INDEX
360
B2E9
  3
ACAD_LAYOUTSELFREF
360
B31C
  0
DICTIONARY
  5
B31A
330
1B
100
AcDbDictionary
280
     1
281
     1
  3
ACAD_LAYOUTSELFREF
360
B31B
  0
DICTIONARY
  5
B324
102
{ACAD_REACTORS
330
C
102
}
330
C
100
AcDbDictionary
281
     1
  0
DICTIONARY
  5
D
102
{ACAD_REACTORS
330
C
102
}
330
C
100
AcDbDictionary
281
     1
  3
*A1
350
7C0D
  3
*A2
350
7C0E
  3
*A3
350
7FE3
  3
*A4
350
8E0E
  0
DICTIONARY
  5
1A
102
{ACAD_REACTORS
330
C
102
}
330
C
100
AcDbDictionary
281
     1
  3
Model
350
B327
  3
レイアウト1
350
B328
  0
DICTIONARY
  5
B323
102
{ACAD_REACTORS
330
C
102
}
330
C
100
AcDbDictionary
281
     1
  0
DICTIONARY
  5
17
102
{ACAD_REACTORS
330
C
102
}
330
C
100
AcDbDictionary
281
     1
  3
STANDARD
350
18
  0
DICTIONARY
  5
19
102
{ACAD_REACTORS
330
C
102
}
330
C
100
AcDbDictionary
281
     1
  0
ACDBDICTIONARYWDFLT
  5
E
102
{ACAD_REACTORS
330
C
102
}
330
C
100
AcDbDictionary
281
     1
  3
Normal
350
F
100
AcDbDictionaryWithDefault
340
F
  0
DICTIONARY
  5
B325
102
{ACAD_REACTORS
330
C
102
}
330
C
100
AcDbDictionary
281
     1
  3
Standard
350
B326
  0
DICTIONARY
  5
B43B
102
{ACAD_REACTORS
330
C
102
}
330
C
100
AcDbDictionary
281
     1
  0
DICTIONARY
  5
30
102
{ACAD_REACTORS
330
C
102
}
330
C
100
AcDbDictionary
281
     1
  3
CTABLESTYLE
350
B436
  3
DIMASSOC
350
B437
  3
INDEXCTL
350
31
  3
PROJECTNAME
350
B438
  3
SORTENTS
350
42BE
  0
DICTIONARY
  5
4D
102
{ACAD_REACTORS
330
C
102
}
330
C
100
AcDbDictionary
281
     1
  3
ACMSTDDICTIONARY
350
17E
  3
AMDTSECTSYM_ARROWCOLOR
350
B3A0
  0
DICTIONARY
  5
3F
102
{ACAD_REACTORS
330
C
102
}
330
C
100
AcDbDictionary
281
     1
  0
DICTIONARY
  5
73
102
{ACAD_REACTORS
330
C
102
}
330
C
100
AcDbDictionary
281
     1
  0
XRECORD
  5
B43A
102
{ACAD_REACTORS
330
C
102
}
330
C
100
AcDbXrecord
280
     1
  1
DWGPROPS COOKIE
  2

  3

  4

  6

  7

  8

  9

300
AmdtFileType=82
301
=
302
=
303
=
304
=
305
=
306
=
307
=
308
=
309
=
 40
1.237011168981481
 41
2451943.610431666
 42
2455602.333395012
  1

 90
        1
  0
DICTIONARY
  5
21C6
102
{ACAD_REACTORS
330
C
102
}
330
C
100
AcDbDictionary
281
     1
  3
ENG_ID
350
21C7
  0
DICTIONARY
  5
21C9
102
{ACAD_REACTORS
330
C
102
}
330
C
100
AcDbDictionary
281
     1
  3
FILENAME
350
21CA
  0
DICTIONARY
  5
21C4
102
{ACAD_REACTORS
330
C
102
}
330
C
100
AcDbDictionary
281
     1
  3
HOLD_DATA
350
21C5
  0
DICTIONARY
  5
1C0B
102
{ACAD_REACTORS
330
C
102
}
330
C
100
AcDbDictionary
281
     1
  3
INPUT_DATA
350
1C0D
  3
TABLE_DATA
350
1C0C
  0
DICTIONARY
  5
21CB
102
{ACAD_REACTORS
330
C
102
}
330
C
100
AcDbDictionary
281
     1
  3
ZWKSIZE
350
21CC
  0
DICTIONARY
  5
B2E9
102
{ACAD_REACTORS
330
165
102
}
330
165
100
AcDbDictionary
281
     1
  3
*A1
350
B2EA
  0
XRECORD
  5
B31C
102
{ACAD_REACTORS
330
165
102
}
330
165
100
AcDbXrecord
280
     1
340
1F
  0
XRECORD
  5
B31B
102
{ACAD_REACTORS
330
B31A
102
}
330
B31A
100
AcDbXrecord
280
     1
340
1B
  0
GROUP
  5
7C0D
102
{ACAD_REACTORS
330
D
102
}
330
D
100
AcDbGroup
300

 70
     1
 71
     1
  0
GROUP
  5
7C0E
102
{ACAD_REACTORS
330
D
102
}
330
D
100
AcDbGroup
300

 70
     1
 71
     1
  0
GROUP
  5
7FE3
102
{ACAD_REACTORS
330
D
102
}
330
D
100
AcDbGroup
300

 70
     1
 71
     1
  0
GROUP
  5
8E0E
102
{ACAD_REACTORS
330
D
102
}
330
D
100
AcDbGroup
300

 70
     1
 71
     1
  0
LAYOUT
  5
B327
102
{ACAD_XDICTIONARY
360
B43C
102
}
102
{ACAD_REACTORS
330
1A
102
}
330
1A
100
AcDbPlotSettings
  1

  2
SII LP-1010 (C2 VR)2R
  4

  6

 40
0.0
 41
0.0
 42
0.0
 43
0.0
 44
0.0
 45
0.0
 46
0.0
 47
0.0
 48
0.0
 49
0.0
140
0.0
141
0.0
142
1.0
143
1.0
 70
  1712
 72
     0
 73
     0
 74
     0
  7
sei_cad.ctb
 75
     0
147
1.0
148
0.0
149
0.0
100
AcDbLayout
  1
Model
 70
     1
 71
     0
 10
0.0
 20
0.0
 11
12.0
 21
9.0
 12
0.0
 22
0.0
 32
0.0
 14
0.0
 24
0.0
 34
0.0
 15
0.0
 25
0.0
 35
0.0
146
0.0
 13
0.0
 23
0.0
 33
0.0
 16
1.0
 26
0.0
 36
0.0
 17
0.0
 27
1.0
 37
0.0
 76
     0
330
1F
  0
LAYOUT
  5
B328
102
{ACAD_XDICTIONARY
360
B43E
102
}
102
{ACAD_REACTORS
330
1A
102
}
330
1A
100
AcDbPlotSettings
  1

  2
SII LP-1010 (C2 VR)2R
  4

  6

 40
0.0
 41
0.0
 42
0.0
 43
0.0
 44
0.0
 45
0.0
 46
0.0
 47
0.0
 48
0.0
 49
0.0
140
0.0
141
0.0
142
1.0
143
1.0
 70
   688
 72
     0
 73
     0
 74
     5
  7
sei_cad.ctb
 75
    16
147
1.0
148
0.0
149
0.0
100
AcDbLayout
  1
レイアウト1
 70
     1
 71
     1
 10
0.0
 20
0.0
 11
420.0
 21
297.0
 12
0.0
 22
0.0
 32
0.0
 14
1.000000000000000E+20
 24
1.000000000000000E+20
 34
1.000000000000000E+20
 15
-1.000000000000000E+20
 25
-1.000000000000000E+20
 35
-1.000000000000000E+20
146
0.0
 13
0.0
 23
0.0
 33
0.0
 16
1.0
 26
0.0
 36
0.0
 17
0.0
 27
1.0
 37
0.0
 76
     0
330
1B
  0
MLINESTYLE
  5
18
102
{ACAD_REACTORS
330
17
102
}
330
17
100
AcDbMlineStyle
  2
STANDARD
 70
     0
  3

 62
   256
 51
90.0
 52
90.0
 71
     2
 49
0.5
 62
   256
  6
BYLAYER
 49
-0.5
 62
   256
  6
BYLAYER
  0
ACDBPLACEHOLDER
  5
F
102
{ACAD_REACTORS
330
E
102
}
330
E
  0
TABLESTYLE
  5
B326
102
{ACAD_REACTORS
330
B325
102
}
330
B325
100
AcDbTableStyle
  3
Standard
 70
     0
 71
     0
 40
1.5
 41
1.5
280
     0
281
     0
  7
STANDARD
140
4.5
170
     2
 62
     0
 63
     7
283
     0
274
    -2
284
     1
 64
     0
275
    -2
285
     1
 65
     0
276
    -2
286
     1
 66
     0
277
    -2
287
     1
 67
     0
278
    -2
288
     1
 68
     0
279
    -2
289
     1
 69
     0
  7
STANDARD
140
6.0
170
     5
 62
     0
 63
     7
283
     0
274
    -2
284
     1
 64
     0
275
    -2
285
     1
 65
     0
276
    -2
286
     1
 66
     0
277
    -2
287
     1
 67
     0
278
    -2
288
     1
 68
     0
279
    -2
289
     1
 69
     0
  7
STANDARD
140
4.5
170
     5
 62
     0
 63
     7
283
     0
274
    -2
284
     1
 64
     0
275
    -2
285
     1
 65
     0
276
    -2
286
     1
 66
     0
277
    -2
287
     1
 67
     0
278
    -2
288
     1
 68
     0
279
    -2
289
     1
 69
     0
  0
DICTIONARYVAR
  5
B436
102
{ACAD_REACTORS
330
30
102
}
330
30
100
DictionaryVariables
280
     0
  1
STANDARD
  0
DICTIONARYVAR
  5
B437
102
{ACAD_REACTORS
330
30
102
}
330
30
100
DictionaryVariables
280
     0
  1
1
  0
DICTIONARYVAR
  5
31
102
{ACAD_REACTORS
330
30
102
}
330
30
100
DictionaryVariables
280
     0
  1
1
  0
DICTIONARYVAR
  5
B438
102
{ACAD_REACTORS
330
30
102
}
330
30
100
DictionaryVariables
280
     0
  1

  0
DICTIONARYVAR
  5
42BE
102
{ACAD_REACTORS
330
30
102
}
330
30
100
DictionaryVariables
280
     0
  1
96
  0
DICTIONARY
  5
17E
102
{ACAD_REACTORS
330
4D
102
}
330
4D
100
AcDbDictionary
281
     1
  0
XRECORD
  5
B3A0
102
{ACAD_REACTORS
330
4D
102
}
330
4D
100
AcDbXrecord
280
     1
 90
-1023410169
  0
XRECORD
  5
21C7
102
{ACAD_REACTORS
330
21C6
102
}
330
21C6
100
AcDbXrecord
280
     1
  1
HOLD
  0
XRECORD
  5
21CA
102
{ACAD_REACTORS
330
21C9
102
}
330
21C9
100
AcDbXrecord
280
     1
  1
21000065__00___
  0
XRECORD
  5
21C5
102
{ACAD_REACTORS
330
21C4
102
}
330
21C4
100
AcDbXrecord
280
     1
  1
クランクシャフト加工用 ^M^J１コーナー型 ^M^J15.875 ^M^J20 ^M^Jクランプオン ^M^J９０° ^M^J1 ^M^J鋼 ^M^J ^M^J ^M^J ^M^J ^M^J
  0
XRECORD
  5
1C0D
102
{ACAD_REACTORS
330
1C0B
102
}
330
1C0B
100
AcDbXrecord
280
     1
  1
1,,,,,,,,,^M^J2,,,,,,,,,^M^J3,,,,,,,,,^M^J4,,,,,,,,,^M^J5,,,,,,,,,^M^J6,,,,,,,,,^M^J7,,,,,,,,,^M^J8,,,,,,,,,^M^J9,,,,,,,,,^M^J10,,,,,,,,,
  0
XRECORD
  5
1C0C
102
{ACAD_REACTORS
330
1C0B
102
}
330
1C0B
100
AcDbXrecord
280
     1
  1
10,10
  0
XRECORD
  5
21CC
102
{ACAD_REACTORS
330
21CB
102
}
330
21CB
100
AcDbXrecord
280
     1
  1
3
  0
LAYER_INDEX
  5
B2EA
102
{ACAD_REACTORS
330
B2E9
102
}
330
B2E9
100
AcDbIndex
 40
2455602.333395012
100
AcDbLayerIndex
  8
0
360
B2EB
 90
        0
  8
AM_5
360
B2EC
 90
        7
  8
DEFPOINTS
360
B2ED
 90
        0
  8
AM_0
360
B2EE
 90
       85
  8
AM_6
360
B2EF
 90
        1
  8
AM_1
360
B2F0
 90
        2
  8
AM_3
360
B2F1
 90
        1
  8
AM_7
360
B2F2
 90
        8
  0
DICTIONARY
  5
B43C
330
B327
100
AcDbDictionary
280
     1
281
     1
  3
ACAD_XREC_ROUNDTRIP
360
B43D
  0
DICTIONARY
  5
B43E
330
B328
100
AcDbDictionary
280
     1
281
     1
  3
ACAD_XREC_ROUNDTRIP
360
B43F
  0
IDBUFFER
  5
B2EB
330
0
100
AcDbIdBuffer
  0
IDBUFFER
  5
B2EC
330
0
100
AcDbIdBuffer
330
AB2B
330
ABE4
330
AC55
330
AC74
330
AC81
330
ACC5
330
AF9E
  0
IDBUFFER
  5
B2ED
330
0
100
AcDbIdBuffer
  0
IDBUFFER
  5
B2EE
330
0
100
AcDbIdBuffer
330
AA8D
330
AA8F
330
AA96
330
AAAF
330
AABA
330
AAD1
330
AB07
330
AB08
330
AB09
330
AB0A
330
AB0B
330
AB0C
330
AB0D
330
AB1D
330
AB29
330
AD18
330
AD19
330
AD1A
330
AD1E
330
AD1F
330
AD24
330
AD37
330
AD47
330
AD48
330
AD4E
330
AD52
330
AD72
330
AD73
330
AD74
330
AD75
330
AD92
330
AD93
330
AD95
330
AD96
330
AD98
330
AD9A
330
AD9C
330
AD9D
330
ADB6
330
ADB7
330
ADD4
330
ADD5
330
ADD7
330
ADD9
330
ADDC
330
ADDD
330
ADDE
330
ADDF
330
ADE0
330
AE86
330
B03E
330
B03F
330
B040
330
B041
330
B042
330
B043
330
B044
330
B047
330
B04A
330
B04B
330
B04E
330
B04F
330
B051
330
B053
330
B054
330
B1B3
330
B1B4
330
B1E5
330
B1E8
330
B1EB
330
B202
330
B203
330
B204
330
B205
330
B206
330
B207
330
B209
330
B20C
330
B20D
330
B20E
330
B20F
330
B217
330
B289
330
B2C5
330
B2CF
  0
IDBUFFER
  5
B2EF
330
0
100
AcDbIdBuffer
330
83BD
  0
IDBUFFER
  5
B2F0
330
0
100
AcDbIdBuffer
330
AC52
330
AC53
  0
IDBUFFER
  5
B2F1
330
0
100
AcDbIdBuffer
330
B20B
  0
IDBUFFER
  5
B2F2
330
0
100
AcDbIdBuffer
330
AD51
330
AADD
330
AADE
330
AADF
330
AD28
330
AD29
330
AD4F
330
AD50
  0
XRECORD
  5
B43D
102
{ACAD_REACTORS
330
B43C
102
}
330
B43C
100
AcDbXrecord
280
     1
102
SHADEPLOT
 70
     0
102
SHADEPLOTRESLEVEL
 70
     2
102
SHADEPLOTCUSTOMDPI
 70
   300
  0
XRECORD
  5
B43F
102
{ACAD_REACTORS
330
B43E
102
}
330
B43E
100
AcDbXrecord
280
     1
102
SHADEPLOT
 70
     0
102
SHADEPLOTRESLEVEL
 70
     2
102
SHADEPLOTCUSTOMDPI
 70
   300
  0
ENDSEC
  0
EOF
