  0
SECTION
  2
HEADER
  9
$ACADVER
  1
AC1015
  9
$ACADMAINTVER
 70
    20
  9
$DWGCODEPAGE
  3
ANSI_932
  9
$INSBASE
 10
0.0
 20
0.0
 30
0.0
  9
$EXTMIN
 10
-32.1331335875002
 20
-105.9179108530194
 30
-0.0015258207003583
  9
$EXTMAX
 10
187.0423523781696
 20
35.45138272895349
 30
0.0000000349246037
  9
$LIMMIN
 10
-203.0045838151573
 20
-75.51034299546518
  9
$LIMMAX
 10
61.08595951400025
 20
117.3652274868455
  9
$ORTHOMODE
 70
     0
  9
$REGENMODE
 70
     1
  9
$FILLMODE
 70
     1
  9
$QTEXTMODE
 70
     0
  9
$MIRRTEXT
 70
     1
  9
$LTSCALE
 40
0.5
  9
$ATTMODE
 70
     1
  9
$TEXTSIZE
 40
2.5
  9
$TRACEWID
 40
1.0
  9
$TEXTSTYLE
  7
STANDARD
  9
$CLAYER
  8
AM_5
  9
$CELTYPE
  6
BYLAYER
  9
$CECOLOR
 62
   256
  9
$CELTSCALE
 40
1.0
  9
$DISPSILH
 70
     0
  9
$DIMSCALE
 40
1.0
  9
$DIMASZ
 40
2.5
  9
$DIMEXO
 40
0.0
  9
$DIMDLI
 40
10.0
  9
$DIMRND
 40
0.0
  9
$DIMDLE
 40
0.0
  9
$DIMEXE
 40
1.0
  9
$DIMTP
 40
0.1
  9
$DIMTM
 40
0.1000000001
  9
$DIMTXT
 40
3.799999999999998
  9
$DIMCEN
 40
0.0
  9
$DIMTSZ
 40
0.0
  9
$DIMTOL
 70
     0
  9
$DIMLIM
 70
     0
  9
$DIMTIH
 70
     0
  9
$DIMTOH
 70
     0
  9
$DIMSE1
 70
     0
  9
$DIMSE2
 70
     0
  9
$DIMTAD
 70
     3
  9
$DIMZIN
 70
     9
  9
$DIMBLK
  1
OPEN30
  9
$DIMASO
 70
     1
  9
$DIMSHO
 70
     1
  9
$DIMPOST
  1

  9
$DIMAPOST
  1
"
  9
$DIMALT
 70
     0
  9
$DIMALTD
 70
     2
  9
$DIMALTF
 40
0.0393701
  9
$DIMLFAC
 40
1.0
  9
$DIMTOFL
 70
     1
  9
$DIMTVP
 40
0.0
  9
$DIMTIX
 70
     0
  9
$DIMSOXD
 70
     0
  9
$DIMSAH
 70
     0
  9
$DIMBLK1
  1

  9
$DIMBLK2
  1

  9
$DIMSTYLE
  2
AM_JIS
  9
$DIMCLRD
 70
   256
  9
$DIMCLRE
 70
   256
  9
$DIMCLRT
 70
     2
  9
$DIMTFAC
 40
0.71
  9
$DIMGAP
 40
1.5
  9
$DIMJUST
 70
     0
  9
$DIMSD1
 70
     0
  9
$DIMSD2
 70
     0
  9
$DIMTOLJ
 70
     0
  9
$DIMTZIN
 70
     8
  9
$DIMALTZ
 70
     0
  9
$DIMALTTZ
 70
     0
  9
$DIMUPT
 70
     0
  9
$DIMDEC
 70
     2
  9
$DIMTDEC
 70
     2
  9
$DIMALTU
 70
     2
  9
$DIMALTTD
 70
     2
  9
$DIMTXSTY
  7
STANDARD
  9
$DIMAUNIT
 70
     1
  9
$DIMADEC
 70
     1
  9
$DIMALTRND
 40
0.0
  9
$DIMAZIN
 70
     2
  9
$DIMDSEP
 70
    46
  9
$DIMATFIT
 70
     3
  9
$DIMFRAC
 70
     0
  9
$DIMLDRBLK
  1
OPEN30
  9
$DIMLUNIT
 70
     2
  9
$DIMLWD
 70
    -1
  9
$DIMLWE
 70
    -1
  9
$DIMTMOVE
 70
     0
  9
$LUNITS
 70
     2
  9
$LUPREC
 70
     2
  9
$SKETCHINC
 40
1.0
  9
$FILLETRAD
 40
0.25
  9
$AUNITS
 70
     1
  9
$AUPREC
 70
     5
  9
$MENU
  1
.
  9
$ELEVATION
 40
0.0
  9
$PELEVATION
 40
0.0
  9
$THICKNESS
 40
0.0
  9
$LIMCHECK
 70
     0
  9
$CHAMFERA
 40
5.0
  9
$CHAMFERB
 40
5.0
  9
$CHAMFERC
 40
20.0
  9
$CHAMFERD
 40
0.0
  9
$SKPOLY
 70
     0
  9
$TDCREATE
 40
2451943.610431666
  9
$TDUCREATE
 40
2451943.235431667
  9
$TDUPDATE
 40
2455602.338414722
  9
$TDUUPDATE
 40
2455601.963414722
  9
$TDINDWG
 40
1.3538651852
  9
$TDUSRTIMER
 40
1.3538650116
  9
$USRTIMER
 70
     1
  9
$ANGBASE
 50
0.0
  9
$ANGDIR
 70
     0
  9
$PDMODE
 70
     0
  9
$PDSIZE
 40
0.0
  9
$PLINEWID
 40
0.0
  9
$SPLFRAME
 70
     0
  9
$SPLINETYPE
 70
     6
  9
$SPLINESEGS
 70
     8
  9
$HANDSEED
  5
B623
  9
$SURFTAB1
 70
     6
  9
$SURFTAB2
 70
     6
  9
$SURFTYPE
 70
     6
  9
$SURFU
 70
     6
  9
$SURFV
 70
     6
  9
$UCSBASE
  2

  9
$UCSNAME
  2

  9
$UCSORG
 10
0.0
 20
0.0
 30
0.0
  9
$UCSXDIR
 10
1.0
 20
0.0
 30
0.0
  9
$UCSYDIR
 10
0.0
 20
1.0
 30
0.0
  9
$UCSORTHOREF
  2

  9
$UCSORTHOVIEW
 70
     0
  9
$UCSORGTOP
 10
0.0
 20
0.0
 30
0.0
  9
$UCSORGBOTTOM
 10
0.0
 20
0.0
 30
0.0
  9
$UCSORGLEFT
 10
0.0
 20
0.0
 30
0.0
  9
$UCSORGRIGHT
 10
0.0
 20
0.0
 30
0.0
  9
$UCSORGFRONT
 10
0.0
 20
0.0
 30
0.0
  9
$UCSORGBACK
 10
0.0
 20
0.0
 30
0.0
  9
$PUCSBASE
  2

  9
$PUCSNAME
  2

  9
$PUCSORG
 10
0.0
 20
0.0
 30
0.0
  9
$PUCSXDIR
 10
1.0
 20
0.0
 30
0.0
  9
$PUCSYDIR
 10
0.0
 20
1.0
 30
0.0
  9
$PUCSORTHOREF
  2

  9
$PUCSORTHOVIEW
 70
     0
  9
$PUCSORGTOP
 10
0.0
 20
0.0
 30
0.0
  9
$PUCSORGBOTTOM
 10
0.0
 20
0.0
 30
0.0
  9
$PUCSORGLEFT
 10
0.0
 20
0.0
 30
0.0
  9
$PUCSORGRIGHT
 10
0.0
 20
0.0
 30
0.0
  9
$PUCSORGFRONT
 10
0.0
 20
0.0
 30
0.0
  9
$PUCSORGBACK
 10
0.0
 20
0.0
 30
0.0
  9
$USERI1
 70
     0
  9
$USERI2
 70
     0
  9
$USERI3
 70
     0
  9
$USERI4
 70
     0
  9
$USERI5
 70
     0
  9
$USERR1
 40
0.0
  9
$USERR2
 40
0.0
  9
$USERR3
 40
0.0
  9
$USERR4
 40
0.0
  9
$USERR5
 40
0.0
  9
$WORLDVIEW
 70
     1
  9
$SHADEDGE
 70
     3
  9
$SHADEDIF
 70
    70
  9
$TILEMODE
 70
     1
  9
$MAXACTVP
 70
    64
  9
$PINSBASE
 10
0.0
 20
0.0
 30
0.0
  9
$PLIMCHECK
 70
     0
  9
$PEXTMIN
 10
1.000000000000000E+20
 20
1.000000000000000E+20
 30
1.000000000000000E+20
  9
$PEXTMAX
 10
-1.000000000000000E+20
 20
-1.000000000000000E+20
 30
-1.000000000000000E+20
  9
$PLIMMIN
 10
0.0
 20
0.0
  9
$PLIMMAX
 10
420.0
 20
297.0
  9
$UNITMODE
 70
     0
  9
$VISRETAIN
 70
     1
  9
$PLINEGEN
 70
     0
  9
$PSLTSCALE
 70
     1
  9
$TREEDEPTH
 70
  3020
  9
$CMLSTYLE
  2
STANDARD
  9
$CMLJUST
 70
     0
  9
$CMLSCALE
 40
20.0
  9
$PROXYGRAPHICS
 70
     1
  9
$MEASUREMENT
 70
     1
  9
$CELWEIGHT
370
    -1
  9
$ENDCAPS
280
     0
  9
$JOINSTYLE
280
     0
  9
$LWDISPLAY
290
     0
  9
$INSUNITS
 70
     4
  9
$HYPERLINKBASE
  1

  9
$STYLESHEET
  1
sei_cad.ctb
  9
$XEDIT
290
     1
  9
$CEPSNTYPE
380
     0
  9
$PSTYLEMODE
290
     1
  9
$FINGERPRINTGUID
  2
{C77AB3BE-9CA2-11D3-BAF3-006094EB760E}
  9
$VERSIONGUID
  2
{90FCA6A7-5460-41DE-94DC-FE71BD354A6F}
  9
$EXTNAMES
290
     1
  9
$PSVPSCALE
 40
0.0
  9
$OLESTARTUP
290
     0
  0
ENDSEC
  0
SECTION
  2
CLASSES
  0
CLASS
  1
ACDBDICTIONARYWDFLT
  2
AcDbDictionaryWithDefault
  3
ObjectDBX Classes
 90
        0
280
     0
281
     0
  0
CLASS
  1
ACDBPLACEHOLDER
  2
AcDbPlaceHolder
  3
ObjectDBX Classes
 90
        0
280
     0
281
     0
  0
CLASS
  1
LAYOUT
  2
AcDbLayout
  3
ObjectDBX Classes
 90
        0
280
     0
281
     0
  0
CLASS
  1
ACME_DOCUMENT
  2
AcMeDbDoc
  3
AcMeServices
 90
        0
280
     0
281
     0
  0
CLASS
  1
ACMESCOPE
  2
AcMeScope
  3
AcMeServices
 90
        0
280
     0
281
     0
  0
CLASS
  1
ACMECOMMANDHISTORY
  2
AcMeCommandHistory
  3
AcMeServices
 90
        0
280
     0
281
     0
  0
CLASS
  1
DICTIONARYVAR
  2
AcDbDictionaryVar
  3
ObjectDBX Classes
 90
        0
280
     0
281
     0
  0
CLASS
  1
ACIMSYSVARMAN
  2
AcImSysVarManager
  3
AcMeServices
 90
        0
280
     0
281
     0
  0
CLASS
  1
ACIMREALSYSVAR
  2
AcImRealSysVar
  3
AcMeServices
 90
        0
280
     0
281
     0
  0
CLASS
  1
ACIMINTSYSVAR
  2
AcImIntSysVar
  3
AcMeServices
 90
        0
280
     0
281
     0
  0
CLASS
  1
ACMEDRAWINGMAN
  2
AcMeDrawingMan
  3
AcMeServices
 90
        0
280
     0
281
     0
  0
CLASS
  1
ACMEVIEW
  2
AcMeView
  3
AcMeServices
 90
        0
280
     0
281
     0
  0
CLASS
  1
ACDBENTITYCACHE
  2
AcMeEntityCache
  3
AcMeServices
 90
        0
280
     0
281
     0
  0
CLASS
  1
GSMANAGER
  2
AcMeGSManager
  3
AcMeServices
 90
        0
280
     0
281
     0
  0
CLASS
  1
AMDTINTERNALREACTOR
  2
AmdtInternalReactor
  3
AcMeServices
 90
        0
280
     0
281
     0
  0
CLASS
  1
ACMESTATEMGR
  2
AcMeStateMgr
  3
AcMeServices
 90
        0
280
     0
281
     0
  0
CLASS
  1
ACME_DATABASE
  2
AcMeDbDatabase
  3
AcMeServices
 90
        0
280
     0
281
     0
  0
CLASS
  1
ACRFINSADJUSTERMGR
  2
AcRfInsAdjusterMgr
  3
AcMeServices
 90
        0
280
     0
281
     0
  0
CLASS
  1
AMGSETTINGSOBJ
  2
AmgSettingsObj
  3
"AcadM|Product Description: AutoCAD Mechanical 2000|Company: Autodesk"
 90
        0
280
     0
281
     0
  0
CLASS
  1
AMGOBJPROPCFG
  2
AmgObjPropCfg
  3
"AmgLay|Product Description: AutoCAD Mechanical 2000|Company: Autodesk"
 90
        1
280
     0
281
     0
  0
CLASS
  1
ACMDATADICTIONARY
  2
AcmDataDictionary
  3
"AcmSymBB|Product Description: AutoCAD Mechanical 2004 DX|Company: Autodesk"
 90
        0
280
     0
281
     0
  0
CLASS
  1
ACMDATAENTRYBLOCK
  2
AcmDataEntryBlock
  3
"AcmSymBB|Product Description: AutoCAD Mechanical 2004 DX|Company: Autodesk"
 90
    32768
280
     0
281
     0
  0
CLASS
  1
ACIMSTRSYSVAR
  2
AcImStrSysVar
  3
AcMeServices
 90
        0
280
     0
281
     0
  0
CLASS
  1
ACAMGFILTERDAT
  2
AcAmgFilterDat
  3
"AcadM|Product Description: AutoCAD Mechanical 2000|Company: Autodesk"
 90
    32768
280
     0
281
     0
  0
CLASS
  1
LAYER_INDEX
  2
AcDbLayerIndex
  3
ObjectDBX Classes
 90
        0
280
     0
281
     0
  0
CLASS
  1
IDBUFFER
  2
AcDbIdBuffer
  3
ObjectDBX Classes
 90
        0
280
     0
281
     0
  0
CLASS
  1
ACMSTANDARDJIS
  2
AcmStandardJIS
  3
"Amdt_StdImp|Product Description: AutoCAD Mechanical 2004 DX|Company: Autodesk"
 90
    32768
280
     0
281
     0
  0
CLASS
  1
ACMSURFSTANDARDJIS
  2
AcmSurfTextStdJIS
  3
"Amdt_StdImp|Product Description: AutoCAD Mechanical 2004 DX|Company: Autodesk"
 90
    32768
280
     0
281
     0
  0
CLASS
  1
ACMFCFSTANDARDJIS
  2
AcmFCFStdJIS
  3
"Amdt_StdImp|Product Description: AutoCAD Mechanical 2004 DX|Company: Autodesk"
 90
    32768
280
     0
281
     0
  0
CLASS
  1
ACMWELDSTANDARDJIS
  2
AcmWeldingStdJIS
  3
"Amdt_StdImp|Product Description: AutoCAD Mechanical 2004 DX|Company: Autodesk"
 90
    32768
280
     0
281
     0
  0
CLASS
  1
ACMIDSTANDARDJIS
  2
AcmIdStdJIS
  3
"Amdt_StdImp|Product Description: AutoCAD Mechanical 2004 DX|Company: Autodesk"
 90
    32768
280
     0
281
     0
  0
CLASS
  1
ACMDATUMSTANDARDJIS
  2
AcmDatumStdJIS
  3
"Amdt_StdImp|Product Description: AutoCAD Mechanical 2004 DX|Company: Autodesk"
 90
    32768
280
     0
281
     0
  0
CLASS
  1
ACMBOMSTANDARDJIS
  2
AcmBOMStdJIS
  3
"Amdt_StdImp|Product Description: AutoCAD Mechanical 2004 DX|Company: Autodesk"
 90
    32768
280
     0
281
     0
  0
CLASS
  1
AMDTNOTE
  2
AmdtNote
  3
"AcmSymBB|Product Description: AutoCAD Mechanical 2004 DX|Company: Autodesk"
 90
    33791
280
     0
281
     1
  0
CLASS
  1
ACMDATAENTRYPART
  2
AcmDataEntryPart
  3
"AcmSymBB|Product Description: AutoCAD Mechanical 2004 DX|Company: Autodesk"
 90
    32768
280
     0
281
     0
  0
CLASS
  1
ACMPARTREF
  2
AcmPartRef
  3
"AcmSymBB|Product Description: AutoCAD Mechanical 2004 DX|Company: Autodesk"
 90
    33791
280
     0
281
     1
  0
CLASS
  1
ACDB_PROXY_ENTITY_DATA
  2
AcDbProxyEntityData
  3
ObjectDBX Classes
 90
    32768
280
     0
281
     0
  0
CLASS
  1
TABLESTYLE
  2
AcDbTableStyle
  3
ObjectDBX Classes
 90
     2047
280
     0
281
     0
  0
CLASS
  1
ACGREFMASTER
  2
AcGrefMaster
  3
AcAttribServices
 90
        0
280
     0
281
     0
  0
CLASS
  1
AM_DRAWING_MGR
  2
AcDmDwgMgr
  3
AcMechDwgViewMgmt
 90
        0
280
     0
281
     0
  0
CLASS
  1
AM_DWG_DOCUMENT
  2
AcDmDwgDocument
  3
AcMechDwgViewMgmt
 90
        0
280
     0
281
     0
  0
CLASS
  1
AM_DWG_SHEET
  2
AcDmSheet
  3
AcMechDwgViewMgmt
 90
        0
280
     0
281
     0
  0
CLASS
  1
AM_VIEWDIMPARMAP
  2
AcDmViewDimParMap
  3
AcMechDwgViewMgmt
 90
        0
280
     0
281
     0
  0
CLASS
  1
AM_DWGMGR_NAME
  2
AcDmDwgMgrName
  3
AcMechDwgViewMgmt
 90
        0
280
     0
281
     0
  0
CLASS
  1
ACGREFACADMASTER
  2
AcGrefacadMaster
  3
AcGrefServices
 90
        0
280
     0
281
     0
  0
CLASS
  1
AMDTMENUSTATEMGR
  2
AmdtMenuStateMgr
  3
McadcomServices
 90
        0
280
     0
281
     0
  0
CLASS
  1
AMDTMCOMMENUSTATE
  2
AmdtMcomMenuState
  3
McadcomServices
 90
        0
280
     0
281
     0
  0
CLASS
  1
AMIMASTER
  2
AmiMaster
  3
AmiServices
 90
        0
280
     0
281
     0
  0
CLASS
  1
MAPIAMMOUDLE
  2
MApiAmModule
  3
MApiAmServices
 90
        0
280
     0
281
     0
  0
CLASS
  1
AMDTADMENUSTATE
  2
AmdtAdMenuState
  3
DesignerServices
 90
        0
280
     0
281
     0
  0
CLASS
  1
ADAPPL
  2
AcAdAppl
  3
DesignerServices
 90
        0
280
     0
281
     0
  0
CLASS
  1
DEPMGR
  2
AcAdDepMgr
  3
DesignerServices
 90
        0
280
     0
281
     0
  0
CLASS
  1
PARAMMGR
  2
AcAdParamMgr
  3
DesignerServices
 90
        0
280
     0
281
     0
  0
CLASS
  1
PARAMSCOPE
  2
AcAdParamScope
  3
DesignerServices
 90
        0
280
     0
281
     0
  0
CLASS
  1
NAMEDAPPL
  2
AcAdNamedAppl
  3
DesignerServices
 90
        0
280
     0
281
     0
  0
CLASS
  1
AMDTDMMENUSTATE
  2
AmdtDmMenuState
  3
AcMechDwgViewMgmt
 90
        0
280
     0
281
     0
  0
CLASS
  1
AMDTAMMENUSTATE
  2
AmdtAmMenuState
  3
DesignerAssemblies
 90
        0
280
     0
281
     0
  0
CLASS
  1
ACAMPROJECT
  2
AcAmProject
  3
DesignerAssemblies
 90
        0
280
     0
281
     0
  0
CLASS
  1
ACAMGRCOMPDEF
  2
AcAmGrCompDef
  3
DesignerAssemblies
 90
        0
280
     0
281
     0
  0
CLASS
  1
ACCMCONTEXT
  2
AcCmContext
  3
DesignerAssemblies
 90
        0
280
     0
281
     0
  0
CLASS
  1
ACAMCOMPDEF
  2
AcAmCompDef
  3
DesignerAssemblies
 90
        0
280
     0
281
     0
  0
CLASS
  1
ACAMCOMPDEFMGR
  2
AcAmCompDefMgr
  3
DesignerAssemblies
 90
        0
280
     0
281
     0
  0
CLASS
  1
AMCONTEXTMGR
  2
AcAmContextMgr
  3
DesignerAssemblies
 90
        0
280
     0
281
     0
  0
CLASS
  1
ACAMCONTEXTMODELER
  2
AcAmContextModeler
  3
DesignerAssemblies
 90
        0
280
     0
281
     0
  0
CLASS
  1
CATALOGSTATE
  2
AcAmCatalogState
  3
DesignerAssemblies
 90
        0
280
     0
281
     0
  0
CLASS
  1
ACAMGRCOMPDEFSET
  2
AcAmGrCompDefSet
  3
DesignerAssemblies
 90
        0
280
     0
281
     0
  0
CLASS
  1
AMDTBROWSERDBTAB
  2
AmdtBrowserDbTab
  3
McadcomServices
 90
        0
280
     0
281
     0
  0
CLASS
  1
CBROWSERAPPOBJECT
  2
CBrowserAppObject
  3
McadcomServices
 90
        0
280
     0
281
     0
  0
CLASS
  1
DM_PLACEHOLDER
  2
AcDmSelsetPlaceholder
  3
AcMechDwgViewMgmt
 90
        0
280
     0
281
     0
  0
CLASS
  1
ACMSTANDARDISO
  2
AcmStandardISO
  3
"Amdt_StdImp|Product Description: AutoCAD Mechanical 2004 DX|Company: Autodesk"
 90
        0
280
     0
281
     0
  0
CLASS
  1
AMDTEDGESTANDARDISO13715
  2
AmdtEdgeStdISO13715
  3
"Amdt_StdImp|Product Description: AutoCAD Mechanical 2004 DX|Company: Autodesk"
 90
        0
280
     0
281
     0
  0
CLASS
  1
ACMSURFSTANDARDISO
  2
AcmSurfTextStdISO
  3
"Amdt_StdImp|Product Description: AutoCAD Mechanical 2004 DX|Company: Autodesk"
 90
        0
280
     0
281
     0
  0
CLASS
  1
ACMFCFSTANDARDISO
  2
AcmFCFStdISO
  3
"Amdt_StdImp|Product Description: AutoCAD Mechanical 2004 DX|Company: Autodesk"
 90
        0
280
     0
281
     0
  0
CLASS
  1
ACMWELDSTANDARDISO
  2
AcmWeldingStdISO
  3
"Amdt_StdImp|Product Description: AutoCAD Mechanical 2004 DX|Company: Autodesk"
 90
        0
280
     0
281
     0
  0
CLASS
  1
ACMIDSTANDARDISO
  2
AcmIdStdISO
  3
"Amdt_StdImp|Product Description: AutoCAD Mechanical 2004 DX|Company: Autodesk"
 90
        0
280
     0
281
     0
  0
CLASS
  1
ACMDATUMSTANDARDISO
  2
AcmDatumStdISO
  3
"Amdt_StdImp|Product Description: AutoCAD Mechanical 2004 DX|Company: Autodesk"
 90
        0
280
     0
281
     0
  0
CLASS
  1
ACMBOMSTANDARDISO
  2
AcmBOMStdISO
  3
"Amdt_StdImp|Product Description: AutoCAD Mechanical 2004 DX|Company: Autodesk"
 90
        0
280
     0
281
     0
  0
CLASS
  1
ACMDETAILSTANDARDISO
  2
AmdtDetailSymStdISO
  3
"Amdt_StdImp|Product Description: AutoCAD Mechanical 2004 DX|Company: Autodesk"
 90
        0
280
     0
281
     0
  0
CLASS
  1
ACMSECTIONSTANDARDISO
  2
AmdtSectionSymStdISO
  3
"Amdt_StdImp|Product Description: AutoCAD Mechanical 2004 DX|Company: Autodesk"
 90
        0
280
     0
281
     0
  0
CLASS
  1
ACMCENTERLINESTANDARDISO
  2
AmdtCenterLineStdISO
  3
"Amdt_StdImp|Product Description: AutoCAD Mechanical 2004 DX|Company: Autodesk"
 90
        0
280
     0
281
     0
  0
CLASS
  1
ACMTHREADLINESTANDARDISO
  2
AmdtThreadLineStdISO
  3
"Amdt_StdImp|Product Description: AutoCAD Mechanical 2004 DX|Company: Autodesk"
 90
        0
280
     0
281
     0
  0
CLASS
  1
ACMNOTESTANDARDISO
  2
AmdtNoteStdISO
  3
"Amdt_StdImp|Product Description: AutoCAD Mechanical 2004 DX|Company: Autodesk"
 90
        0
280
     0
281
     0
  0
CLASS
  1
AMDTNOTETEMPLATEDB
  2
AmdtNoteTemplateDB
  3
AMDT_STDIMP_MODULE_NAME
 90
        0
280
     0
281
     0
  0
CLASS
  1
ACAMGLAYSTD
  2
AcAmgLayStd
  3
"AcAmgLayStd|Product Description: AutoCAD Mechanical 2000|Company: Autodesk"
 90
        0
280
     0
281
     0
  0
CLASS
  1
ACAMGDIMSTD
  2
AcAmgDimStd
  3
"AcAmgDimStd|Product Description: AutoCAD Mechanical 2000|Company: Autodesk"
 90
        0
280
     0
281
     0
  0
CLASS
  1
ACAMGHOLECHARTSTDISO
  2
AcAmgHoleChartStdISO
  3
ACMSYMBB_MODULE_NAME
 90
        0
280
     0
281
     0
  0
CLASS
  1
ACAMGTITLESTD
  2
AcAmgTitleStd
  3
"TITLEAPP"
 90
        0
280
     0
281
     0
  0
ENDSEC
  0
SECTION
  2
TABLES
  0
TABLE
  2
VPORT
  5
8
330
0
100
AcDbSymbolTable
 70
     3
  0
VPORT
  5
B61C
330
8
100
AcDbSymbolTableRecord
100
AcDbViewportTableRecord
  2
*Active
 70
     0
 10
0.0
 20
0.0
 11
1.0
 21
1.0
 12
77.45460939533472
 22
-35.23326406203296
 13
0.0
 23
0.0
 14
2.5
 24
2.5
 15
10.0
 25
10.0
 16
0.0
 26
0.0
 36
1.0
 17
0.0
 27
0.0
 37
0.0
 40
142.3790742504155
 41
2.176400476758045
 42
50.0
 43
0.0
 44
0.0
 50
0.0
 51
0.0
 71
     0
 72
  2000
 73
     1
 74
     3
 75
     0
 76
     0
 77
     0
 78
     0
281
     0
 65
     0
110
0.0
120
0.0
130
0.0
111
1.0
121
0.0
131
0.0
112
0.0
122
1.0
132
0.0
 79
     0
146
0.0
  0
ENDTAB
  0
TABLE
  2
LTYPE
  5
5
330
0
100
AcDbSymbolTable
 70
    17
  0
LTYPE
  5
14
330
5
100
AcDbSymbolTableRecord
100
AcDbLinetypeTableRecord
  2
BYBLOCK
 70
     0
  3

 72
    65
 73
     0
 40
0.0
  0
LTYPE
  5
15
330
5
100
AcDbSymbolTableRecord
100
AcDbLinetypeTableRecord
  2
BYLAYER
 70
     0
  3

 72
    65
 73
     0
 40
0.0
  0
LTYPE
  5
16
330
5
100
AcDbSymbolTableRecord
100
AcDbLinetypeTableRecord
  2
CONTINUOUS
 70
     0
  3
Solid line
 72
    65
 73
     0
 40
0.0
  0
LTYPE
  5
43
330
5
100
AcDbSymbolTableRecord
100
AcDbLinetypeTableRecord
  2
AM_ISO02W050
 70
     0
  3
__ __ __ __ __ __ __ __ __ __ __ __ __ __ __
 72
    65
 73
     2
 40
7.5
 49
6.0
 74
     0
 49
-1.5
 74
     0
  0
LTYPE
  5
44
330
5
100
AcDbSymbolTableRecord
100
AcDbLinetypeTableRecord
  2
AM_ISO08W050
 70
     0
  3
____ . ____ . ____ . ____ . ____ . ____ . ____
 72
    65
 73
     4
 40
18.0
 49
12.0
 74
     0
 49
-1.5
 74
     0
 49
3.0
 74
     0
 49
-1.5
 74
     0
  0
LTYPE
  5
45
330
5
100
AcDbSymbolTableRecord
100
AcDbLinetypeTableRecord
  2
AM_ISO09W050
 70
     0
  3
_____ . . _____ . . _____ . . ____ .. ____
 72
    65
 73
     6
 40
22.5
 49
12.0
 74
     0
 49
-1.5
 74
     0
 49
3.0
 74
     0
 49
-1.5
 74
     0
 49
3.0
 74
     0
 49
-1.5
 74
     0
  0
LTYPE
  5
46
330
5
100
AcDbSymbolTableRecord
100
AcDbLinetypeTableRecord
  2
AMCONSTR
 70
     0
  3
_______________________
 72
    65
 73
     2
 40
9999.0
 49
9999.0
 74
     0
 49
0.0
 74
     0
  0
LTYPE
  5
47
330
5
100
AcDbSymbolTableRecord
100
AcDbLinetypeTableRecord
  2
AM_ISO02W050X2
 70
     0
  3
 _ _ _ _ _ _ _ _ _ _ _ _
 72
    65
 73
     2
 40
3.75
 49
3.0
 74
     0
 49
-0.75
 74
     0
  0
LTYPE
  5
48
330
5
100
AcDbSymbolTableRecord
100
AcDbLinetypeTableRecord
  2
AM_ISO08W050X2
 70
     0
  3
__ . __ . __ . __ . __ . __
 72
    65
 73
     4
 40
9.0
 49
6.0
 74
     0
 49
-0.75
 74
     0
 49
1.5
 74
     0
 49
-0.75
 74
     0
  0
LTYPE
  5
4B
330
5
100
AcDbSymbolTableRecord
100
AcDbLinetypeTableRecord
  2
AMZIGZAG
 70
     0
  3
/\/-/\/-/\/-/\/-/\/-/\/
 72
    65
 73
     2
 40
11.00009999999999
 49
0.0001
 74
     4
 75
   135
340
4A
 46
0.04
 50
0.0
 44
0.0
 45
0.0
 49
-11.0
 74
     0
  0
LTYPE
  5
B544
330
5
100
AcDbSymbolTableRecord
100
AcDbLinetypeTableRecord
  2
HIDDEN
 70
     0
  3
Hidden __ __ __ __ __ __ __ __ __ __ __ __ __ _
 72
    65
 73
     2
 40
9.524999999999998
 49
6.349999999999999
 74
     0
 49
-3.174999999999999
 74
     0
  0
LTYPE
  5
B545
330
5
100
AcDbSymbolTableRecord
100
AcDbLinetypeTableRecord
  2
PHANTOM2
 70
     0
  3
Phantom (.5x) ___ _ _ ___ _ _ ___ _ _ ___ _ _
 72
    65
 73
     6
 40
31.75
 49
15.875
 74
     0
 49
-3.174999999999999
 74
     0
 49
3.174999999999999
 74
     0
 49
-3.174999999999999
 74
     0
 49
3.174999999999999
 74
     0
 49
-3.174999999999999
 74
     0
  0
LTYPE
  5
B546
330
5
100
AcDbSymbolTableRecord
100
AcDbLinetypeTableRecord
  2
CENTER
 70
     0
  3
Center ____ _ ____ _ ____ _ ____ _ ____ _ ____
 72
    65
 73
     4
 40
50.8
 49
31.75
 74
     0
 49
-6.349999999999999
 74
     0
 49
6.349999999999999
 74
     0
 49
-6.349999999999999
 74
     0
  0
LTYPE
  5
B586
330
5
100
AcDbSymbolTableRecord
100
AcDbLinetypeTableRecord
  2
ACISOWELD
 70
     0
  3
_ _ _ _ _
 72
    65
 73
     2
 40
2.0
 49
2.0
 74
     0
 49
-1.0
 74
     0
  0
LTYPE
  5
B587
330
5
100
AcDbSymbolTableRecord
100
AcDbLinetypeTableRecord
  2
ACISOTGB
 70
     0
  3
__ . . __ . .
 72
    65
 73
     6
 40
9.0
 49
4.0
 74
     0
 49
-1.0
 74
     0
 49
1.0
 74
     0
 49
-1.0
 74
     0
 49
1.0
 74
     0
 49
-1.0
 74
     0
  0
LTYPE
  5
B588
330
5
100
AcDbSymbolTableRecord
100
AcDbLinetypeTableRecord
  2
ACISOTGL
 70
     0
  3
_ _ _ _ _
 72
    65
 73
     2
 40
3.0
 49
2.0
 74
     0
 49
-1.0
 74
     0
  0
ENDTAB
  0
TABLE
  2
LAYER
  5
2
330
0
100
AcDbSymbolTable
 70
    13
  0
LAYER
  5
10
330
2
100
AcDbSymbolTableRecord
100
AcDbLayerTableRecord
  2
0
 70
     0
 62
     7
  6
CONTINUOUS
370
    -3
390
F
  0
LAYER
  5
7D
330
2
100
AcDbSymbolTableRecord
100
AcDbLayerTableRecord
  2
AM_5
 70
     0
 62
     3
  6
CONTINUOUS
370
    -3
390
F
  0
LAYER
  5
7F
330
2
100
AcDbSymbolTableRecord
100
AcDbLayerTableRecord
  2
DEFPOINTS
 70
     0
 62
     7
  6
CONTINUOUS
290
     0
370
    -3
390
F
  0
LAYER
  5
12B1
330
2
100
AcDbSymbolTableRecord
100
AcDbLayerTableRecord
  2
AM_0
 70
     0
 62
     7
  6
CONTINUOUS
370
    -3
390
F
  0
LAYER
  5
2222
330
2
100
AcDbSymbolTableRecord
100
AcDbLayerTableRecord
  2
AM_6
 70
     0
 62
     2
  6
CONTINUOUS
370
    -3
390
F
  0
LAYER
  5
4379
330
2
100
AcDbSymbolTableRecord
100
AcDbLayerTableRecord
  2
AM_1
 70
     0
 62
     3
  6
CONTINUOUS
370
    -3
390
F
  0
LAYER
  5
7DB2
330
2
100
AcDbSymbolTableRecord
100
AcDbLayerTableRecord
  2
AM_7
 70
     0
 62
     4
  6
AM_ISO08W050
370
    -3
390
F
  0
ENDTAB
  0
TABLE
  2
STYLE
  5
3
330
0
100
AcDbSymbolTable
 70
     6
  0
STYLE
  5
11
330
3
100
AcDbSymbolTableRecord
100
AcDbTextStyleTableRecord
  2
STANDARD
 70
     0
 40
0.0
 41
1.0
 50
0.0
 71
     0
 42
2.5
  3
ISOCP.SHX
  4
EXTFONT.SHX
  0
STYLE
  5
4A
330
3
100
AcDbSymbolTableRecord
100
AcDbTextStyleTableRecord
  2

 70
     1
 40
0.0
 41
1.0
 50
0.0
 71
     0
 42
2.5
  3
ltypeshp.shx
  4

  0
STYLE
  5
B578
330
3
100
AcDbSymbolTableRecord
100
AcDbTextStyleTableRecord
  2
ACISOTS
 70
     0
 40
1.0
 41
1.0
 50
0.0
 71
     0
 42
2.5
  3
isocp.shx
  4
extfont.shx
  0
STYLE
  5
B585
330
3
100
AcDbSymbolTableRecord
100
AcDbTextStyleTableRecord
  2
ACISOGDT
 70
     0
 40
0.0
 41
1.0
 50
0.0
 71
     0
 42
2.5
  3
amgdt.shx
  4

  0
ENDTAB
  0
TABLE
  2
VIEW
  5
6
330
0
100
AcDbSymbolTable
 70
     6
  0
VIEW
  5
A30
330
6
100
AcDbSymbolTableRecord
100
AcDbViewTableRecord
  2
AM_VIEW1
 70
     0
 40
148.5
 10
112.0719649561952
 20
222.75
 41
224.1439299123904
 11
0.0
 21
0.0
 31
1.0
 12
0.0
 22
0.0
 32
0.0
 42
50.0
 43
0.0
 44
0.0
 50
0.0
 71
     0
281
     0
 72
     0
  0
VIEW
  5
A31
330
6
100
AcDbSymbolTableRecord
100
AcDbViewTableRecord
  2
AM_VIEW2
 70
     0
 40
148.5
 10
307.9280350438047
 20
222.75
 41
224.1439299123904
 11
0.0
 21
0.0
 31
1.0
 12
0.0
 22
0.0
 32
0.0
 42
50.0
 43
0.0
 44
0.0
 50
0.0
 71
     0
281
     0
 72
     0
  0
VIEW
  5
A32
330
6
100
AcDbSymbolTableRecord
100
AcDbViewTableRecord
  2
AM_VIEW3
 70
     0
 40
148.5
 10
112.0719649561952
 20
74.25
 41
224.1439299123904
 11
0.0
 21
0.0
 31
1.0
 12
0.0
 22
0.0
 32
0.0
 42
50.0
 43
0.0
 44
0.0
 50
0.0
 71
     0
281
     0
 72
     0
  0
VIEW
  5
A33
330
6
100
AcDbSymbolTableRecord
100
AcDbViewTableRecord
  2
AM_VIEW4
 70
     0
 40
148.5
 10
307.9280350438047
 20
74.25
 41
224.1439299123904
 11
0.0
 21
0.0
 31
1.0
 12
0.0
 22
0.0
 32
0.0
 42
50.0
 43
0.0
 44
0.0
 50
0.0
 71
     0
281
     0
 72
     0
  0
VIEW
  5
A34
330
6
100
AcDbSymbolTableRecord
100
AcDbViewTableRecord
  2
AM_VIEW5
 70
     0
 40
148.5
 10
210.0
 20
148.5
 41
224.1439299123904
 11
0.0
 21
0.0
 31
1.0
 12
0.0
 22
0.0
 32
0.0
 42
50.0
 43
0.0
 44
0.0
 50
0.0
 71
     0
281
     0
 72
     0
  0
VIEW
  5
A35
330
6
100
AcDbSymbolTableRecord
100
AcDbViewTableRecord
  2
AM_VIEW6
 70
     0
 40
296.9970299999999
 10
210.0
 20
148.5
 41
448.2833769461826
 11
0.0
 21
0.0
 31
1.0
 12
0.0
 22
0.0
 32
0.0
 42
50.0
 43
0.0
 44
0.0
 50
0.0
 71
     0
281
     0
 72
     0
  0
ENDTAB
  0
TABLE
  2
UCS
  5
7
330
0
100
AcDbSymbolTable
 70
     0
  0
ENDTAB
  0
TABLE
  2
APPID
  5
9
330
0
100
AcDbSymbolTable
 70
    42
  0
APPID
  5
12
330
9
100
AcDbSymbolTableRecord
100
AcDbRegAppTableRecord
  2
ACAD
 70
     0
  0
APPID
  5
2C
330
9
100
AcDbSymbolTableRecord
100
AcDbRegAppTableRecord
  2
MCAD_NO_VIS
 70
     0
  0
APPID
  5
2D
330
9
100
AcDbSymbolTableRecord
100
AcDbRegAppTableRecord
  2
ACAD_TEMP_GRAPHIC
 70
     0
  0
APPID
  5
B9
330
9
100
AcDbSymbolTableRecord
100
AcDbRegAppTableRecord
  2
GENIUS_GENDTOL_13
 70
     0
  0
APPID
  5
359
330
9
100
AcDbSymbolTableRecord
100
AcDbRegAppTableRecord
  2
GENIUS_GENREC_14
 70
     0
  0
APPID
  5
35A
330
9
100
AcDbSymbolTableRecord
100
AcDbRegAppTableRecord
  2
GENIUS_GENODEF_13
 70
     0
  0
APPID
  5
35B
330
9
100
AcDbSymbolTableRecord
100
AcDbRegAppTableRecord
  2
GENIUS_GENOBJ-N-REC_13
 70
     0
  0
APPID
  5
667
330
9
100
AcDbSymbolTableRecord
100
AcDbRegAppTableRecord
  2
GENIUS_GENCFG_13
 70
     0
  0
APPID
  5
668
330
9
100
AcDbSymbolTableRecord
100
AcDbRegAppTableRecord
  2
GENIUS_GENCFG0_13
 70
     0
  0
APPID
  5
669
330
9
100
AcDbSymbolTableRecord
100
AcDbRegAppTableRecord
  2
GENIUS_GENCFG1_13
 70
     0
  0
APPID
  5
66A
330
9
100
AcDbSymbolTableRecord
100
AcDbRegAppTableRecord
  2
GENIUS_GENCFG2_13
 70
     0
  0
APPID
  5
66B
330
9
100
AcDbSymbolTableRecord
100
AcDbRegAppTableRecord
  2
GENIUS_GENCFG3_13
 70
     0
  0
APPID
  5
66C
330
9
100
AcDbSymbolTableRecord
100
AcDbRegAppTableRecord
  2
GENIUS_GENCFG4_13
 70
     0
  0
APPID
  5
A76
330
9
100
AcDbSymbolTableRecord
100
AcDbRegAppTableRecord
  2
GENIUS_GENBLLY_14
 70
     0
  0
APPID
  5
A77
330
9
100
AcDbSymbolTableRecord
100
AcDbRegAppTableRecord
  2
GENIUS_GENOBJ-N-CEN_13
 70
     0
  0
APPID
  5
A83
330
9
100
AcDbSymbolTableRecord
100
AcDbRegAppTableRecord
  2
GENIUS_GENTRA_14
 70
     0
  0
APPID
  5
A8D
330
9
100
AcDbSymbolTableRecord
100
AcDbRegAppTableRecord
  2
GENIUS_GENOBJ-N-TIT_13
 70
     0
  0
APPID
  5
A8E
330
9
100
AcDbSymbolTableRecord
100
AcDbRegAppTableRecord
  2
GENIUS_GENTITLE_13
 70
     0
  0
APPID
  5
A8F
330
9
100
AcDbSymbolTableRecord
100
AcDbRegAppTableRecord
  2
GENIUS_GENOENT_13
 70
     0
  0
APPID
  5
A90
330
9
100
AcDbSymbolTableRecord
100
AcDbRegAppTableRecord
  2
GENIUS_GENOREF_13
 70
     0
  0
APPID
  5
A91
330
9
100
AcDbSymbolTableRecord
100
AcDbRegAppTableRecord
  2
GENIUS_GENOLIS_13
 70
     0
  0
APPID
  5
A92
330
9
100
AcDbSymbolTableRecord
100
AcDbRegAppTableRecord
  2
GENIUS_GENZVEED_13
 70
     0
  0
APPID
  5
A93
330
9
100
AcDbSymbolTableRecord
100
AcDbRegAppTableRecord
  2
GENIUS_GENSCREG_15
 70
     0
  0
APPID
  5
A94
330
9
100
AcDbSymbolTableRecord
100
AcDbRegAppTableRecord
  2
GENIUS_GENOBJ-N-SDF_13
 70
     0
  0
APPID
  5
12B5
330
9
100
AcDbSymbolTableRecord
100
AcDbRegAppTableRecord
  2
GENIUS_GENOBJ-N-RSBK_13
 70
     0
  0
APPID
  5
12B6
330
9
100
AcDbSymbolTableRecord
100
AcDbRegAppTableRecord
  2
GENIUS_GENOBJ-N-LIB_13
 70
     0
  0
APPID
  5
12B7
330
9
100
AcDbSymbolTableRecord
100
AcDbRegAppTableRecord
  2
GENIUS_GENSCALE_13
 70
     0
  0
APPID
  5
12B8
330
9
100
AcDbSymbolTableRecord
100
AcDbRegAppTableRecord
  2
GENIUS_GENOBJ-N-HTC_13
 70
     0
  0
APPID
  5
12B9
330
9
100
AcDbSymbolTableRecord
100
AcDbRegAppTableRecord
  2
GENIUS_GENHATCH_13
 70
     0
  0
APPID
  5
1C0A
330
9
100
AcDbSymbolTableRecord
100
AcDbRegAppTableRecord
  2
BASE_TYPE
 70
     0
  0
APPID
  5
276B
330
9
100
AcDbSymbolTableRecord
100
AcDbRegAppTableRecord
  2
GENIUS_GENOBJ-N-FIL_13
 70
     0
  0
APPID
  5
3640
330
9
100
AcDbSymbolTableRecord
100
AcDbRegAppTableRecord
  2
GENIUS_GENBH_13
 70
     0
  0
APPID
  5
36D1
330
9
100
AcDbSymbolTableRecord
100
AcDbRegAppTableRecord
  2
GENIUS_GENOBJ-F-SPR_13
 70
     0
  0
APPID
  5
36DA
330
9
100
AcDbSymbolTableRecord
100
AcDbRegAppTableRecord
  2
GENIUS_GEFSPRING_13
 70
     0
  0
APPID
  5
36DB
330
9
100
AcDbSymbolTableRecord
100
AcDbRegAppTableRecord
  2
GENIUS_GEFSPRINGP_13
 70
     0
  0
APPID
  5
4D67
330
9
100
AcDbSymbolTableRecord
100
AcDbRegAppTableRecord
  2
GENIUS_GENFIL_13
 70
     0
  0
APPID
  5
4D68
330
9
100
AcDbSymbolTableRecord
100
AcDbRegAppTableRecord
  2
GENIUS_GENOBJ-N-CHA_13
 70
     0
  0
APPID
  5
B548
330
9
100
AcDbSymbolTableRecord
100
AcDbRegAppTableRecord
  2
AD_DRAW
 70
     0
  0
APPID
  5
B54B
330
9
100
AcDbSymbolTableRecord
100
AcDbRegAppTableRecord
  2
ACATTRIBSERVICES
 70
     0
  0
APPID
  5
B569
330
9
100
AcDbSymbolTableRecord
100
AcDbRegAppTableRecord
  2
DESIGNERASSEMBLIES
 70
     0
  0
APPID
  5
B56E
330
9
100
AcDbSymbolTableRecord
100
AcDbRegAppTableRecord
  2
ACADM_DIM_EDIT
 70
     0
  0
APPID
  5
B56F
330
9
100
AcDbSymbolTableRecord
100
AcDbRegAppTableRecord
  2
AMDT_DM_ADJ
 70
     0
  0
ENDTAB
  0
TABLE
  2
DIMSTYLE
  5
A
330
0
100
AcDbSymbolTable
 70
    20
100
AcDbDimStyleTable
 71
     0
  0
DIMSTYLE
105
58
330
A
100
AcDbSymbolTableRecord
100
AcDbDimStyleTableRecord
  2
AM_JIS
 70
     0
  4
"
 41
2.5
 42
0.0
 43
10.0
 44
1.0
 47
0.1
 48
0.1000000001
 73
     0
 74
     0
 77
     3
 78
     9
140
3.799999999999998
141
0.0
143
0.0393701
146
0.71
147
1.5
172
     1
176
   256
177
   256
178
     2
271
     2
272
     2
275
     1
283
     0
284
     8
340
11
341
59
342
59
  0
DIMSTYLE
105
65F
330
A
100
AcDbSymbolTableRecord
100
AcDbDimStyleTableRecord
  2
STANDARD
 70
     0
340
11
  0
DIMSTYLE
105
1761
102
{ACAD_REACTORS
330
AB2B
330
AC55
330
AC74
330
AC81
330
ACC5
330
AF9E
330
ABE4
102
}
330
A
100
AcDbSymbolTableRecord
100
AcDbDimStyleTableRecord
  2
AM_JIS$0
 70
     0
  4
"
 41
2.5
 42
0.0
 43
10.0
 44
1.0
 47
0.1
 48
0.1000000001
 73
     0
 74
     0
 77
     3
 78
     9
140
3.799999999999998
141
0.0
143
0.0393701
146
0.71
147
1.5
172
     1
176
     3
177
     3
178
     2
271
     2
272
     2
275
     1
283
     0
284
     8
340
11
341
59
342
59
  0
DIMSTYLE
105
B591
330
A
100
AcDbSymbolTableRecord
100
AcDbDimStyleTableRecord
  2
AM_ISO
 70
     0
  4
"
 41
2.5
 42
1.0
 43
10.0
 44
1.0
 47
0.1
 48
0.1
 73
     0
 74
     0
 77
     1
 78
     8
 79
     2
140
3.5
141
0.0
143
0.0393701
146
0.71
147
1.5
172
     1
176
   256
177
   256
178
     2
271
     2
272
     3
274
     4
283
     0
284
     8
340
11
371
    -1
372
    -1
  0
DIMSTYLE
105
B592
330
A
100
AcDbSymbolTableRecord
100
AcDbDimStyleTableRecord
  2
AM_ISO$3
 70
     0
  4
"
 41
2.5
 42
1.0
 43
10.0
 44
1.0
 47
0.1
 48
0.1
 73
     0
 77
     1
 78
     8
 79
     2
140
3.5
141
0.0
143
0.0393701
146
0.71
147
1.5
176
   256
177
   256
178
     2
271
     2
272
     3
274
     4
283
     0
284
     8
288
     1
289
     0
340
11
371
    -1
372
    -1
  0
DIMSTYLE
105
B593
330
A
100
AcDbSymbolTableRecord
100
AcDbDimStyleTableRecord
  2
AM_ISO$4
 70
     0
  4
"
 41
2.5
 42
1.0
 43
10.0
 44
1.0
 47
0.1
 48
0.1
 73
     0
 77
     1
 78
     8
 79
     2
140
3.5
141
0.0
143
0.0393701
146
0.71
147
1.5
176
   256
177
   256
178
     2
271
     2
272
     3
274
     4
283
     0
284
     8
288
     1
289
     0
340
11
371
    -1
372
    -1
  0
DIMSTYLE
105
B594
330
A
100
AcDbSymbolTableRecord
100
AcDbDimStyleTableRecord
  2
AM_ISO$6
 70
     0
  4
"
 41
2.5
 42
1.0
 43
10.0
 44
1.0
 47
0.1
 48
0.1
 73
     0
 74
     0
 78
     8
 79
     2
140
3.5
141
0.0
143
0.0393701
146
0.71
147
1.5
172
     1
176
   256
177
   256
178
     2
271
     2
272
     3
274
     4
283
     0
284
     8
340
11
371
    -1
372
    -1
  0
DIMSTYLE
105
B595
330
A
100
AcDbSymbolTableRecord
100
AcDbDimStyleTableRecord
  2
AM_ISO$7
 70
     0
  4
"
 41
2.5
 42
1.0
 43
10.0
 44
1.0
 47
0.1
 48
0.1
 73
     0
 74
     0
 77
     1
 78
     8
 79
     2
140
5.0
141
0.0
143
0.0393701
146
0.71
147
1.5
172
     1
176
   256
177
   256
178
     2
271
     2
272
     3
274
     4
283
     0
284
     8
340
11
371
    -1
372
    -1
  0
DIMSTYLE
105
B596
330
A
100
AcDbSymbolTableRecord
100
AcDbDimStyleTableRecord
  2
AM_ISO$SF
 70
     0
  4
"
 41
2.5
 42
1.0
 43
10.0
 44
1.0
 47
0.1
 48
0.1
 73
     0
 74
     0
 75
     1
 76
     1
 77
     1
 78
     8
 79
     2
140
3.5
141
0.0
143
0.0393701
146
0.71
147
1.5
172
     1
176
   256
177
   256
178
     2
271
     2
272
     3
274
     4
283
     0
284
     8
340
11
371
    -1
372
    -1
  0
DIMSTYLE
105
B597
330
A
100
AcDbSymbolTableRecord
100
AcDbDimStyleTableRecord
  2
AM_ISO$SH
 70
     0
  4
"
 41
2.5
 42
1.0
 43
10.0
 44
1.0
 47
0.1
 48
0.1
 73
     0
 74
     0
 75
     1
 76
     1
 77
     1
 78
     8
 79
     2
140
3.5
141
0.0
143
0.0393701
144
2.0
146
0.71
147
1.5
172
     1
173
     1
176
   256
177
   256
178
     2
271
     2
272
     3
274
     4
283
     0
284
     8
340
11
343
64
371
    -1
372
    -1
  0
ENDTAB
  0
TABLE
  2
BLOCK_RECORD
  5
1
330
0
100
AcDbSymbolTable
 70
    17
  0
BLOCK_RECORD
  5
1F
102
{ACAD_XDICTIONARY
360
165
102
}
330
1
100
AcDbSymbolTableRecord
100
AcDbBlockTableRecord
  2
*MODEL_SPACE
340
B510
  0
BLOCK_RECORD
  5
1B
102
{ACAD_XDICTIONARY
360
B503
102
}
330
1
100
AcDbSymbolTableRecord
100
AcDbBlockTableRecord
  2
*PAPER_SPACE
340
B511
  0
BLOCK_RECORD
  5
59
330
1
100
AcDbSymbolTableRecord
100
AcDbBlockTableRecord
  2
_OPEN30
340
0
102
{BLKREFS
331
B5DD
331
B5DE
331
B5E6
331
B5E7
331
B5EF
331
B5F0
331
B5F8
331
B5F9
331
B601
331
B602
331
B60A
331
B60B
331
B613
331
B614
102
}
  0
BLOCK_RECORD
  5
64
330
1
100
AcDbSymbolTableRecord
100
AcDbBlockTableRecord
  2
GENAXEH
340
0
  0
BLOCK_RECORD
  5
AB1E
330
1
100
AcDbSymbolTableRecord
100
AcDbBlockTableRecord
  2
CBF06
340
0
102
{BLKREFS
331
AB29
102
}
  0
BLOCK_RECORD
  5
AB2C
330
1
100
AcDbSymbolTableRecord
100
AcDbBlockTableRecord
  2
*D7
340
0
  0
BLOCK_RECORD
  5
ABE5
330
1
100
AcDbSymbolTableRecord
100
AcDbBlockTableRecord
  2
*D8
340
0
  0
BLOCK_RECORD
  5
AC56
330
1
100
AcDbSymbolTableRecord
100
AcDbBlockTableRecord
  2
*D9
340
0
  0
BLOCK_RECORD
  5
AC75
330
1
100
AcDbSymbolTableRecord
100
AcDbBlockTableRecord
  2
*D10
340
0
  0
BLOCK_RECORD
  5
AC82
330
1
100
AcDbSymbolTableRecord
100
AcDbBlockTableRecord
  2
*D11
340
0
  0
BLOCK_RECORD
  5
ACC6
330
1
100
AcDbSymbolTableRecord
100
AcDbBlockTableRecord
  2
*D12
340
0
  0
BLOCK_RECORD
  5
AD2C
330
1
100
AcDbSymbolTableRecord
100
AcDbBlockTableRecord
  2
CBF03
340
0
102
{BLKREFS
331
AD37
102
}
  0
BLOCK_RECORD
  5
AF9F
330
1
100
AcDbSymbolTableRecord
100
AcDbBlockTableRecord
  2
*D15
340
0
  0
ENDTAB
  0
ENDSEC
  0
SECTION
  2
BLOCKS
  0
BLOCK
  5
20
330
1F
100
AcDbEntity
  8
0
100
AcDbBlockBegin
  2
*MODEL_SPACE
 70
     0
 10
0.0
 20
0.0
 30
0.0
  3
*MODEL_SPACE
  1

  0
ENDBLK
  5
21
330
1F
100
AcDbEntity
  8
0
100
AcDbBlockEnd
  0
BLOCK
  5
1C
330
1B
100
AcDbEntity
 67
     1
  8
0
100
AcDbBlockBegin
  2
*PAPER_SPACE
 70
     0
 10
0.0
 20
0.0
 30
0.0
  3
*PAPER_SPACE
  1

  0
ENDBLK
  5
1D
330
1B
100
AcDbEntity
 67
     1
  8
0
100
AcDbBlockEnd
  0
BLOCK
  5
5D
330
59
100
AcDbEntity
  8
0
100
AcDbBlockBegin
  2
_OPEN30
 70
     0
 10
0.0
 20
0.0
 30
0.0
  3
_OPEN30
  1

  0
LINE
  5
5A
330
59
100
AcDbEntity
  8
0
 62
     0
100
AcDbLine
 10
-1.0
 20
0.26794919
 30
0.0
 11
0.0
 21
0.0
 31
0.0
  0
LINE
  5
5B
330
59
100
AcDbEntity
  8
0
 62
     0
100
AcDbLine
 10
0.0
 20
0.0
 30
0.0
 11
-1.0
 21
-0.26794919
 31
0.0
  0
LINE
  5
5C
330
59
100
AcDbEntity
  8
0
 62
     0
100
AcDbLine
 10
0.0
 20
0.0
 30
0.0
 11
-1.0
 21
0.0
 31
0.0
  0
ENDBLK
  5
5E
330
59
100
AcDbEntity
  8
0
100
AcDbBlockEnd
  0
BLOCK
  5
66
330
64
100
AcDbEntity
  8
0
100
AcDbBlockBegin
  2
GENAXEH
 70
     0
 10
0.0
 20
0.0
 30
0.0
  3
GENAXEH
  1

  0
LINE
  5
65
330
64
100
AcDbEntity
  8
0
100
AcDbLine
 10
-1.0
 20
0.0
 30
0.0
 11
1.0
 21
0.0
 31
0.0
  0
ENDBLK
  5
67
330
64
100
AcDbEntity
  8
0
100
AcDbBlockEnd
  0
BLOCK
  5
AB27
330
AB1E
100
AcDbEntity
  8
0
100
AcDbBlockBegin
  2
CBF06
 70
     0
 10
0.0
 20
0.0
 30
0.0
  3
CBF06
  1

  0
CIRCLE
  5
AB1F
330
AB1E
100
AcDbEntity
  8
0
  6
Continuous
100
AcDbCircle
 10
0.0000187875812969
 20
0.0000034482758053
 30
0.0
 40
4.307179353944746
  0
CIRCLE
  5
AB20
330
AB1E
100
AcDbEntity
  8
0
  6
Continuous
100
AcDbCircle
 10
0.0000187875812969
 20
0.0000034482758053
 30
0.0
 40
5.0
  0
LINE
  5
AB21
330
AB1E
100
AcDbEntity
  8
0
  6
Continuous
100
AcDbLine
 10
-1.443356212418706
 20
-2.499995386098901
 30
0.0
 11
1.443393787581185
 21
-2.499995386098901
 31
0.0
  0
LINE
  5
AB22
330
AB1E
100
AcDbEntity
  8
0
  6
Continuous
100
AcDbLine
 10
1.4433937875813
 20
2.500002282650598
 30
0.0
 11
-1.443356212418706
 21
2.500002282650598
 31
0.0
  0
LINE
  5
AB23
330
AB1E
100
AcDbEntity
  8
0
  6
Continuous
100
AcDbLine
 10
-2.886731212418651
 20
0.0000034482758053
 30
0.0
 11
-1.443356212418706
 21
-2.499995386098901
 31
0.0
  0
LINE
  5
AB24
330
AB1E
100
AcDbEntity
  8
0
  6
Continuous
100
AcDbLine
 10
-1.443356212418706
 20
2.500002282650598
 30
0.0
 11
-2.886731212418651
 21
0.0000034482758053
 31
0.0
  0
LINE
  5
AB25
330
AB1E
100
AcDbEntity
  8
0
  6
Continuous
100
AcDbLine
 10
1.443393787581185
 20
-2.499995386098901
 30
0.0
 11
2.886768787581303
 21
0.0000034482758053
 31
0.0
  0
LINE
  5
AB26
330
AB1E
100
AcDbEntity
  8
0
  6
Continuous
100
AcDbLine
 10
2.886768787581303
 20
0.0000034482758053
 30
0.0
 11
1.4433937875813
 21
2.500002282650598
 31
0.0
  0
ENDBLK
  5
AB28
330
AB1E
100
AcDbEntity
  8
0
100
AcDbBlockEnd
  0
BLOCK
  5
AB36
330
AB2C
100
AcDbEntity
  8
0
100
AcDbBlockBegin
  2
*D7
 70
     1
 10
0.0
 20
0.0
 30
0.0
  3
*D7
  1

  0
LINE
  5
B5DA
330
AB2C
100
AcDbEntity
  8
AM_5
 62
     3
370
    -2
100
AcDbLine
 10
0.2608179357983732
 20
0.0000000000000001
 30
0.0
 11
-28.0193201365429
 21
0.0000000000000081
 31
0.0
  0
LINE
  5
B5DB
330
AB2C
100
AcDbEntity
  8
AM_5
 62
     3
370
    -2
100
AcDbLine
 10
25.60000000000001
 20
35.45089203698466
 30
0.0
 11
-28.01932013654289
 21
35.45089203698468
 31
0.0
  0
LINE
  5
B5DC
330
AB2C
100
AcDbEntity
  8
AM_5
 62
     3
370
    -2
100
AcDbLine
 10
-27.01932013654289
 20
2.500000000000007
 30
0.0
 11
-27.01932013654289
 21
32.95089203698468
 31
0.0
  0
INSERT
  5
B5DD
330
AB2C
100
AcDbEntity
  8
AM_5
 62
     3
370
    -2
100
AcDbBlockReference
  2
_OPEN30
 10
-27.01932013654289
 20
0.0000000000000078
 30
0.0
 41
2.5
 42
2.5
 43
2.5
 50
270.0
  0
INSERT
  5
B5DE
330
AB2C
100
AcDbEntity
  8
AM_5
 62
     3
370
    -2
100
AcDbBlockReference
  2
_OPEN30
 10
-27.01932013654289
 20
35.45089203698468
 30
0.0
 41
2.5
 42
2.5
 43
2.5
 50
90.0
  0
MTEXT
  5
B5DF
330
AB2C
100
AcDbEntity
  8
AM_5
 62
     2
100
AcDbMText
 10
-30.41932013654289
 20
17.72544601849234
 30
0.0
 40
3.799999999999998
 41
0.0
 71
     5
 72
     1
  1
35.5
 11
0.0000000000000001
 21
1.0
 31
0.0
 73
     1
 44
1.0
1001
ACAD
1000
MTEXTBEGIN
1070
    73
1070
     1
1070
    44
1040
1.0
1070
    74
1070
     0
1000
MTEXTEND
  0
POINT
  5
B5E0
330
AB2C
100
AcDbEntity
  8
DEFPOINTS
 62
     0
100
AcDbPoint
 10
0.2608179357983732
 20
0.0000000000000001
 30
0.0
  0
POINT
  5
B5E1
330
AB2C
100
AcDbEntity
  8
DEFPOINTS
 62
     0
100
AcDbPoint
 10
25.60000000000001
 20
35.45089203698466
 30
0.0
  0
POINT
  5
B5E2
330
AB2C
100
AcDbEntity
  8
DEFPOINTS
 62
     0
100
AcDbPoint
 10
-27.01932013654289
 20
35.45089203698468
 30
0.0
  0
ENDBLK
  5
AB37
330
AB2C
100
AcDbEntity
  8
0
100
AcDbBlockEnd
  0
BLOCK
  5
ABF1
330
ABE5
100
AcDbEntity
  8
0
100
AcDbBlockBegin
  2
*D8
 70
     1
 10
0.0
 20
0.0
 30
0.0
  3
*D8
  1

  0
LINE
  5
B5E3
330
ABE5
100
AcDbEntity
  8
AM_5
 62
     3
370
    -2
100
AcDbLine
 10
0.2608179357983732
 20
0.0000000000000001
 30
0.0
 11
-17.18496850123994
 21
0.0000000000000051
 31
0.0
  0
LINE
  5
B5E4
330
ABE5
100
AcDbEntity
  8
AM_5
 62
     3
370
    -2
100
AcDbLine
 10
0.2587248741756137
 20
8.001857165291797
 30
0.0
 11
-17.18496850123994
 21
8.001857165291802
 31
0.0
  0
LINE
  5
B5E5
330
ABE5
100
AcDbEntity
  8
AM_5
 62
     3
370
    -2
100
AcDbLine
 10
-16.18496850123994
 20
2.500000000000004
 30
0.0
 11
-16.18496850123994
 21
5.501857165291802
 31
0.0
  0
INSERT
  5
B5E6
330
ABE5
100
AcDbEntity
  8
AM_5
 62
     3
370
    -2
100
AcDbBlockReference
  2
_OPEN30
 10
-16.18496850123994
 20
0.0000000000000048
 30
0.0
 41
2.5
 42
2.5
 43
2.5
 50
270.0
  0
INSERT
  5
B5E7
330
ABE5
100
AcDbEntity
  8
AM_5
 62
     3
370
    -2
100
AcDbBlockReference
  2
_OPEN30
 10
-16.18496850123994
 20
8.001857165291802
 30
0.0
 41
2.5
 42
2.5
 43
2.5
 50
90.0
  0
MTEXT
  5
B5E8
330
ABE5
100
AcDbEntity
  8
AM_5
 62
     2
100
AcDbMText
 10
-19.58496850123994
 20
4.000928582645901
 30
0.0
 40
3.799999999999998
 41
0.0
 71
     5
 72
     1
  1
8
 11
0.0000000000000001
 21
1.0
 31
0.0
 73
     1
 44
1.0
1001
ACAD
1000
MTEXTBEGIN
1070
    73
1070
     1
1070
    44
1040
1.0
1070
    74
1070
     0
1000
MTEXTEND
  0
POINT
  5
B5E9
330
ABE5
100
AcDbEntity
  8
DEFPOINTS
 62
     0
100
AcDbPoint
 10
0.2608179357983732
 20
0.0000000000000001
 30
0.0
  0
POINT
  5
B5EA
330
ABE5
100
AcDbEntity
  8
DEFPOINTS
 62
     0
100
AcDbPoint
 10
0.2587248741756137
 20
8.001857165291797
 30
0.0
  0
POINT
  5
B5EB
330
ABE5
100
AcDbEntity
  8
DEFPOINTS
 62
     0
100
AcDbPoint
 10
-16.18496850123994
 20
8.001857165291802
 30
0.0
  0
ENDBLK
  5
ABF2
330
ABE5
100
AcDbEntity
  8
0
100
AcDbBlockEnd
  0
BLOCK
  5
AC60
330
AC56
100
AcDbEntity
  8
0
100
AcDbBlockBegin
  2
*D9
 70
     1
 10
0.0
 20
0.0
 30
0.0
  3
*D9
  1

  0
LINE
  5
B5EC
330
AC56
100
AcDbEntity
  8
AM_5
 62
     3
370
    -2
100
AcDbLine
 10
170.0
 20
-17.168883365418
 30
0.0
 11
170.0
 21
-11.15707799419788
 31
0.0
  0
LINE
  5
B5ED
330
AC56
100
AcDbEntity
  8
AM_5
 62
     3
370
    -2
100
AcDbLine
 10
-0.0000000000000021
 20
-17.16444207619414
 30
0.0
 11
-0.0000000000000017
 21
-11.15707799419788
 31
0.0
  0
LINE
  5
B5EE
330
AC56
100
AcDbEntity
  8
AM_5
 62
     3
370
    -2
100
AcDbLine
 10
167.5
 20
-12.15707799419788
 30
0.0
 11
2.499999999999998
 21
-12.15707799419788
 31
0.0
  0
INSERT
  5
B5EF
330
AC56
100
AcDbEntity
  8
AM_5
 62
     3
370
    -2
100
AcDbBlockReference
  2
_OPEN30
 10
170.0
 20
-12.15707799419788
 30
0.0
 41
2.5
 42
2.5
 43
2.5
  0
INSERT
  5
B5F0
330
AC56
100
AcDbEntity
  8
AM_5
 62
     3
370
    -2
100
AcDbBlockReference
  2
_OPEN30
 10
-0.0000000000000018
 20
-12.15707799419788
 30
0.0
 41
2.5
 42
2.5
 43
2.5
 50
180.0
  0
MTEXT
  5
B5F1
330
AC56
100
AcDbEntity
  8
AM_5
 62
     2
100
AcDbMText
 10
85.0
 20
-8.757077994197882
 30
0.0
 40
3.799999999999998
 41
0.0
 71
     5
 72
     1
  1
170
 73
     1
 44
1.0
1001
ACAD
1000
MTEXTBEGIN
1070
    73
1070
     1
1070
    44
1040
1.0
1070
    74
1070
     0
1000
MTEXTEND
  0
POINT
  5
B5F2
330
AC56
100
AcDbEntity
  8
DEFPOINTS
 62
     0
100
AcDbPoint
 10
170.0
 20
-17.168883365418
 30
0.0
  0
POINT
  5
B5F3
330
AC56
100
AcDbEntity
  8
DEFPOINTS
 62
     0
100
AcDbPoint
 10
-0.0000000000000021
 20
-17.16444207619414
 30
0.0
  0
POINT
  5
B5F4
330
AC56
100
AcDbEntity
  8
DEFPOINTS
 62
     0
100
AcDbPoint
 10
-0.0000000000000018
 20
-12.15707799419788
 30
0.0
  0
ENDBLK
  5
AC61
330
AC56
100
AcDbEntity
  8
0
100
AcDbBlockEnd
  0
BLOCK
  5
AC7F
330
AC75
100
AcDbEntity
  8
0
100
AcDbBlockBegin
  2
*D10
 70
     1
 10
0.0
 20
0.0
 30
0.0
  3
*D10
  1

  0
LINE
  5
B5F5
330
AC75
100
AcDbEntity
  8
AM_5
 62
     3
370
    -2
100
AcDbLine
 10
170.0
 20
-52.45956278162388
 30
0.0
 11
187.0333675347087
 21
-52.45956278162388
 31
0.0
  0
LINE
  5
B5F6
330
AC75
100
AcDbEntity
  8
AM_5
 62
     3
370
    -2
100
AcDbLine
 10
170.0
 20
-84.45956278162402
 30
0.0
 11
187.0333675347086
 21
-84.45956278162402
 31
0.0
  0
LINE
  5
B5F7
330
AC75
100
AcDbEntity
  8
AM_5
 62
     3
370
    -2
100
AcDbLine
 10
186.0333675347087
 20
-54.95956278162388
 30
0.0
 11
186.0333675347087
 21
-81.95956278162402
 31
0.0
  0
INSERT
  5
B5F8
330
AC75
100
AcDbEntity
  8
AM_5
 62
     3
370
    -2
100
AcDbBlockReference
  2
_OPEN30
 10
186.0333675347087
 20
-52.45956278162388
 30
0.0
 41
2.5
 42
2.5
 43
2.5
 50
90.0
  0
INSERT
  5
B5F9
330
AC75
100
AcDbEntity
  8
AM_5
 62
     3
370
    -2
100
AcDbBlockReference
  2
_OPEN30
 10
186.0333675347087
 20
-84.45956278162402
 30
0.0
 41
2.5
 42
2.5
 43
2.5
 50
270.0
  0
MTEXT
  5
B5FA
330
AC75
100
AcDbEntity
  8
AM_5
 62
     2
100
AcDbMText
 10
182.6329935189606
 20
-68.45956278162391
 30
0.0
 40
3.799999999999998
 41
0.0
 71
     5
 72
     1
  1
32
 11
0.0000000000000001
 21
1.0
 31
0.0
 73
     1
 44
1.0
1001
ACAD
1000
MTEXTBEGIN
1070
    73
1070
     1
1070
    44
1040
1.0
1070
    74
1070
     0
1000
MTEXTEND
  0
POINT
  5
B5FB
330
AC75
100
AcDbEntity
  8
DEFPOINTS
 62
     0
100
AcDbPoint
 10
170.0
 20
-52.45956278162388
 30
0.0
  0
POINT
  5
B5FC
330
AC75
100
AcDbEntity
  8
DEFPOINTS
 62
     0
100
AcDbPoint
 10
170.0
 20
-84.45956278162402
 30
0.0
  0
POINT
  5
B5FD
330
AC75
100
AcDbEntity
  8
DEFPOINTS
 62
     0
100
AcDbPoint
 10
186.0333675347087
 20
-84.45956278162402
 30
0.0
  0
ENDBLK
  5
AC80
330
AC75
100
AcDbEntity
  8
0
100
AcDbBlockEnd
  0
BLOCK
  5
AC8C
330
AC82
100
AcDbEntity
  8
0
100
AcDbBlockBegin
  2
*D11
 70
     1
 10
0.0
 20
0.0
 30
0.0
  3
*D11
  1

  0
LINE
  5
B5FE
330
AC82
100
AcDbEntity
  8
AM_5
 62
     3
370
    -2
100
AcDbLine
 10
20.6
 20
-84.45956278162382
 30
0.0
 11
-26.07395309083099
 21
-84.45956278162382
 31
0.0
  0
LINE
  5
B5FF
330
AC82
100
AcDbEntity
  8
AM_5
 62
     3
370
    -2
100
AcDbLine
 10
-0.0000000000000064
 20
-52.45956278162417
 30
0.0
 11
-26.07395309083098
 21
-52.45956278162416
 31
0.0
  0
LINE
  5
B600
330
AC82
100
AcDbEntity
  8
AM_5
 62
     3
370
    -2
100
AcDbLine
 10
-25.07395309083098
 20
-81.95956278162382
 30
0.0
 11
-25.07395309083098
 21
-54.95956278162416
 31
0.0
  0
INSERT
  5
B601
330
AC82
100
AcDbEntity
  8
AM_5
 62
     3
370
    -2
100
AcDbBlockReference
  2
_OPEN30
 10
-25.07395309083098
 20
-84.45956278162382
 30
0.0
 41
2.5
 42
2.5
 43
2.5
 50
270.0
  0
INSERT
  5
B602
330
AC82
100
AcDbEntity
  8
AM_5
 62
     3
370
    -2
100
AcDbBlockReference
  2
_OPEN30
 10
-25.07395309083098
 20
-52.45956278162416
 30
0.0
 41
2.5
 42
2.5
 43
2.5
 50
90.0
  0
MTEXT
  5
B603
330
AC82
100
AcDbEntity
  8
AM_5
 62
     2
100
AcDbMText
 10
-28.474327106579
 20
-68.459562781624
 30
0.0
 40
3.799999999999998
 41
0.0
 71
     5
 72
     1
  1
32
 11
0.0000000000000001
 21
1.0
 31
0.0
 73
     1
 44
1.0
1001
ACAD
1000
MTEXTBEGIN
1070
    73
1070
     1
1070
    44
1040
1.0
1070
    74
1070
     0
1000
MTEXTEND
  0
POINT
  5
B604
330
AC82
100
AcDbEntity
  8
DEFPOINTS
 62
     0
100
AcDbPoint
 10
20.6
 20
-84.45956278162382
 30
0.0
  0
POINT
  5
B605
330
AC82
100
AcDbEntity
  8
DEFPOINTS
 62
     0
100
AcDbPoint
 10
-0.0000000000000064
 20
-52.45956278162417
 30
0.0
  0
POINT
  5
B606
330
AC82
100
AcDbEntity
  8
DEFPOINTS
 62
     0
100
AcDbPoint
 10
-25.07395309083098
 20
-52.45956278162416
 30
0.0
  0
ENDBLK
  5
AC8D
330
AC82
100
AcDbEntity
  8
0
100
AcDbBlockEnd
  0
BLOCK
  5
ACD0
330
ACC6
100
AcDbEntity
  8
0
100
AcDbBlockBegin
  2
*D12
 70
     1
 10
0.0
 20
0.0
 30
0.0
  3
*D12
  1

  0
LINE
  5
B607
330
ACC6
100
AcDbEntity
  8
AM_5
 62
     3
370
    -2
100
AcDbLine
 10
170.0
 20
35.45089203698462
 30
0.0
 11
185.9969373151983
 21
35.45089203698462
 31
0.0
  0
LINE
  5
B608
330
ACC6
100
AcDbEntity
  8
AM_5
 62
     3
370
    -2
100
AcDbLine
 10
170.0
 20
3.450892036984625
 30
0.0
 11
185.9969373151983
 21
3.45089203698462
 31
0.0
  0
LINE
  5
B609
330
ACC6
100
AcDbEntity
  8
AM_5
 62
     3
370
    -2
100
AcDbLine
 10
184.9969373151983
 20
32.95089203698462
 30
0.0
 11
184.9969373151983
 21
5.950892036984621
 31
0.0
  0
INSERT
  5
B60A
330
ACC6
100
AcDbEntity
  8
AM_5
 62
     3
370
    -2
100
AcDbBlockReference
  2
_OPEN30
 10
184.9969373151983
 20
35.45089203698462
 30
0.0
 41
2.5
 42
2.5
 43
2.5
 50
90.0
  0
INSERT
  5
B60B
330
ACC6
100
AcDbEntity
  8
AM_5
 62
     3
370
    -2
100
AcDbBlockReference
  2
_OPEN30
 10
184.9969373151983
 20
3.450892036984621
 30
0.0
 41
2.5
 42
2.5
 43
2.5
 50
270.0
  0
MTEXT
  5
B60C
330
ACC6
100
AcDbEntity
  8
AM_5
 62
     2
100
AcDbMText
 10
181.5965632994503
 20
19.45089203698465
 30
0.0
 40
3.799999999999998
 41
0.0
 71
     5
 72
     1
  1
32
 11
0.0000000000000001
 21
1.0
 31
0.0
 73
     1
 44
1.0
1001
ACAD
1000
MTEXTBEGIN
1070
    73
1070
     1
1070
    44
1040
1.0
1070
    74
1070
     0
1000
MTEXTEND
  0
POINT
  5
B60D
330
ACC6
100
AcDbEntity
  8
DEFPOINTS
 62
     0
100
AcDbPoint
 10
170.0
 20
35.45089203698462
 30
0.0
  0
POINT
  5
B60E
330
ACC6
100
AcDbEntity
  8
DEFPOINTS
 62
     0
100
AcDbPoint
 10
170.0
 20
3.450892036984625
 30
0.0
  0
POINT
  5
B60F
330
ACC6
100
AcDbEntity
  8
DEFPOINTS
 62
     0
100
AcDbPoint
 10
184.9969373151983
 20
3.450892036984621
 30
0.0
  0
ENDBLK
  5
ACD1
330
ACC6
100
AcDbEntity
  8
0
100
AcDbBlockEnd
  0
BLOCK
  5
AD35
330
AD2C
100
AcDbEntity
  8
0
100
AcDbBlockBegin
  2
CBF03
 70
     0
 10
0.0
 20
0.0
 30
0.0
  3
CBF03
  1

  0
CIRCLE
  5
AD2D
330
AD2C
100
AcDbEntity
  8
0
  6
Continuous
100
AcDbCircle
 10
0.0
 20
0.0
 30
0.0
 40
2.75
  0
CIRCLE
  5
AD2E
330
AD2C
100
AcDbEntity
  8
0
  6
Continuous
100
AcDbCircle
 10
0.0
 20
0.0
 30
0.0
 40
2.403589676972373
  0
LINE
  5
AD2F
330
AD2C
100
AcDbEntity
  8
0
  6
Continuous
100
AcDbLine
 10
1.443375000000003
 20
0.0
 30
0.0
 11
0.7216875000000301
 21
1.249999417187382
 31
0.0
  0
LINE
  5
AD30
330
AD2C
100
AcDbEntity
  8
0
  6
Continuous
100
AcDbLine
 10
0.7216875000000301
 20
1.249999417187382
 30
0.0
 11
-0.7216874999999732
 21
1.249999417187382
 31
0.0
  0
LINE
  5
AD31
330
AD2C
100
AcDbEntity
  8
0
  6
Continuous
100
AcDbLine
 10
-0.7216874999999732
 20
1.249999417187382
 30
0.0
 11
-1.443375000000003
 21
0.0
 31
0.0
  0
LINE
  5
AD32
330
AD2C
100
AcDbEntity
  8
0
  6
Continuous
100
AcDbLine
 10
-1.443375000000003
 20
0.0
 30
0.0
 11
-0.7216874999999732
 21
-1.249999417187297
 31
0.0
  0
LINE
  5
AD33
330
AD2C
100
AcDbEntity
  8
0
  6
Continuous
100
AcDbLine
 10
-0.7216874999999732
 20
-1.249999417187297
 30
0.0
 11
0.7216875000000301
 21
-1.249999417187297
 31
0.0
  0
LINE
  5
AD34
330
AD2C
100
AcDbEntity
  8
0
  6
Continuous
100
AcDbLine
 10
0.7216875000000301
 20
-1.249999417187297
 30
0.0
 11
1.443375000000003
 21
0.0
 31
0.0
  0
ENDBLK
  5
AD36
330
AD2C
100
AcDbEntity
  8
0
100
AcDbBlockEnd
  0
BLOCK
  5
AFA9
330
AF9F
100
AcDbEntity
  8
0
100
AcDbBlockBegin
  2
*D15
 70
     1
 10
0.0
 20
0.0
 30
0.0
  3
*D15
  1

  0
LINE
  5
B610
330
AF9F
100
AcDbEntity
  8
AM_5
 62
     3
370
    -2
100
AcDbLine
 10
-0.0000000000000064
 20
-52.45956278162417
 30
0.0
 11
-0.0000000000000046
 21
-23.21752661109963
 31
0.0
  0
LINE
  5
B611
330
AF9F
100
AcDbEntity
  8
AM_5
 62
     3
370
    -2
100
AcDbLine
 10
49.19999999999998
 20
-39.85956278162385
 30
0.0
 11
49.19999999999998
 21
-23.21752661109963
 31
0.0
  0
LINE
  5
B612
330
AF9F
100
AcDbEntity
  8
AM_5
 62
     3
370
    -2
100
AcDbLine
 10
2.499999999999995
 20
-24.21752661109963
 30
0.0
 11
46.69999999999998
 21
-24.21752661109963
 31
0.0
  0
INSERT
  5
B613
330
AF9F
100
AcDbEntity
  8
AM_5
 62
     3
370
    -2
100
AcDbBlockReference
  2
_OPEN30
 10
-0.0000000000000047
 20
-24.21752661109963
 30
0.0
 41
2.5
 42
2.5
 43
2.5
 50
180.0
  0
INSERT
  5
B614
330
AF9F
100
AcDbEntity
  8
AM_5
 62
     3
370
    -2
100
AcDbBlockReference
  2
_OPEN30
 10
49.19999999999998
 20
-24.21752661109963
 30
0.0
 41
2.5
 42
2.5
 43
2.5
  0
MTEXT
  5
B615
330
AF9F
100
AcDbEntity
  8
AM_5
 62
     2
100
AcDbMText
 10
24.59999999999999
 20
-20.81623421321419
 30
0.0
 40
3.799999999999998
 41
0.0
 71
     5
 72
     1
  1
49.2
 73
     1
 44
1.0
1001
ACAD
1000
MTEXTBEGIN
1070
    73
1070
     1
1070
    44
1040
1.0
1070
    74
1070
     0
1000
MTEXTEND
  0
POINT
  5
B616
330
AF9F
100
AcDbEntity
  8
DEFPOINTS
 62
     0
100
AcDbPoint
 10
-0.0000000000000064
 20
-52.45956278162417
 30
0.0
  0
POINT
  5
B617
330
AF9F
100
AcDbEntity
  8
DEFPOINTS
 62
     0
100
AcDbPoint
 10
49.19999999999998
 20
-39.85956278162385
 30
0.0
  0
POINT
  5
B618
330
AF9F
100
AcDbEntity
  8
DEFPOINTS
 62
     0
100
AcDbPoint
 10
49.19999999999998
 20
-24.21752661109963
 30
0.0
  0
ENDBLK
  5
AFAA
330
AF9F
100
AcDbEntity
  8
0
100
AcDbBlockEnd
  0
ENDSEC
  0
SECTION
  2
ENTITIES
  0
TEXT
  5
83BD
330
1F
100
AcDbEntity
  8
AM_6
100
AcDbText
 10
67.04872738491554
 20
-105.8738169141683
 30
0.0
 40
5.0
  1
GMDR3232-85
 72
     4
 11
87.52283903726722
 21
-103.3738169141683
 31
0.0
100
AcDbText
  0
LINE
  5
AA8D
330
1F
100
AcDbEntity
  8
AM_0
100
AcDbLine
 10
170.0
 20
35.45089203698462
 30
0.0
 11
25.60000000000001
 21
35.45089203698466
 31
0.0
  0
LINE
  5
AA8F
330
1F
100
AcDbEntity
  8
AM_0
100
AcDbLine
 10
170.0
 20
35.45089203698462
 30
0.0
 11
170.0
 21
3.450892036984628
 31
0.0
  0
LINE
  5
AA96
330
1F
100
AcDbEntity
  8
AM_0
100
AcDbLine
 10
170.0
 20
-52.45956278162388
 30
0.0
 11
49.2
 21
-52.45956278162384
 31
0.0
  0
LINE
  5
AAAF
330
1F
100
AcDbEntity
  8
AM_0
100
AcDbLine
 10
170.0
 20
-52.45956278162388
 30
0.0
 11
170.0
 21
-84.45956278162402
 31
0.0
  0
LINE
  5
AADD
330
1F
100
AcDbEntity
  8
AM_7
100
AcDbLine
 10
38.32140809337952
 20
16.95089203698465
 30
0.0
 11
20.05633898291964
 21
16.95089203698465
 31
0.0
  0
LINE
  5
AADE
330
1F
100
AcDbEntity
  8
AM_7
100
AcDbLine
 10
28.20000000000002
 20
-54.35956278162382
 30
0.0
 11
28.20000000000002
 21
-34.42506408064917
 31
0.0
  0
LINE
  5
AADF
330
1F
100
AcDbEntity
  8
AM_7
100
AcDbLine
 10
28.19999999999998
 20
9.390242635298537
 30
0.0
 11
28.19999999999998
 21
24.09664776969567
 31
0.0
  0
LINE
  5
AB07
330
1F
100
AcDbEntity
  8
AM_0
 48
0.3
100
AcDbLine
 10
28.20000000000002
 20
-36.45956278162385
 30
0.0
 11
23.19999999999998
 21
-36.45956278162385
 31
0.0
  0
LINE
  5
AB08
330
1F
100
AcDbEntity
  8
AM_0
 48
0.3
100
AcDbLine
 10
23.19999999999998
 20
-36.45956278162385
 30
0.0
 11
23.89282032302755
 21
-36.05956278162383
 31
0.0
  0
LINE
  5
AB09
330
1F
100
AcDbEntity
  8
AM_0
 48
0.3
100
AcDbLine
 10
23.19999999999998
 20
-36.45956278162387
 30
0.0
 11
23.19999999999998
 21
-40.35956278162383
 31
0.0
  0
LINE
  5
AB0A
330
1F
100
AcDbEntity
  8
AM_0
 48
0.3
100
AcDbLine
 10
33.20000000000001
 20
-36.45956278162385
 30
0.0
 11
33.20000000000001
 21
-40.35956278162384
 31
0.0
  0
LINE
  5
AB0B
330
1F
100
AcDbEntity
  8
AM_0
 48
0.3
100
AcDbLine
 10
33.20000000000001
 20
-36.45956278162385
 30
0.0
 11
28.20000000000002
 21
-36.45956278162385
 31
0.0
  0
LINE
  5
AB0C
330
1F
100
AcDbEntity
  8
AM_0
 48
0.3
100
AcDbLine
 10
33.20000000000001
 20
-36.45956278162385
 30
0.0
 11
32.50717967697247
 21
-36.05956278162385
 31
0.0
  0
LINE
  5
AB0D
330
1F
100
AcDbEntity
  8
AM_0
 48
0.3
100
AcDbLine
 10
32.50717967697247
 20
-36.05956278162385
 30
0.0
 11
23.89282032302755
 21
-36.05956278162383
 31
0.0
  0
CIRCLE
  5
AB1D
330
1F
100
AcDbEntity
  8
AM_0
100
AcDbCircle
 10
28.22420413329391
 20
16.95089203698465
 30
0.0
 40
5.5
  0
INSERT
  5
AB29
330
1F
100
AcDbEntity
  8
AM_0
100
AcDbBlockReference
  2
CBF06
 10
28.19999999999998
 20
16.95089203698465
 30
0.0
  0
DIMENSION
  5
AB2B
330
1F
100
AcDbEntity
  8
AM_5
100
AcDbDimension
  2
*D7
 10
-27.01932013654289
 20
35.45089203698468
 30
0.0
 11
-30.41932013654289
 21
17.72544601849234
 31
0.0
 70
    32
 71
     5
 42
35.45089203698467
  3
AM_JIS$0
100
AcDbAlignedDimension
 13
0.2608179357983732
 23
0.0000000000000001
 33
0.0
 14
25.60000000000001
 24
35.45089203698466
 34
0.0
 50
89.99999999999998
100
AcDbRotatedDimension
1001
ACAD
1000
DSTYLE
1002
{
1070
   271
1070
     1
1002
}
  0
DIMENSION
  5
ABE4
330
1F
100
AcDbEntity
  8
AM_5
100
AcDbDimension
  2
*D8
 10
-16.18496850123994
 20
8.001857165291802
 30
0.0
 11
-19.58496850123994
 21
4.000928582645901
 31
0.0
 70
    32
 71
     5
 42
8.001857165291797
  3
AM_JIS$0
100
AcDbAlignedDimension
 13
0.2608179357983732
 23
0.0000000000000001
 33
0.0
 14
0.2587248741756137
 24
8.001857165291797
 34
0.0
 50
89.99999999999998
100
AcDbRotatedDimension
  0
LINE
  5
AC52
330
1F
100
AcDbEntity
  8
AM_1
100
AcDbLine
 10
170.0
 20
3.450892036984628
 30
0.0
 11
170.0
 21
-52.45956278162388
 31
0.0
  0
LINE
  5
AC53
330
1F
100
AcDbEntity
  8
AM_1
100
AcDbLine
 10
0.0000000000000004
 20
3.459774615432307
 30
0.0
 11
-0.0000000000000064
 21
-52.45956278162417
 31
0.0
  0
DIMENSION
  5
AC55
330
1F
100
AcDbEntity
  8
AM_5
100
AcDbDimension
  2
*D9
 10
-0.0000000000000018
 20
-12.15707799419788
 30
0.0
 11
85.0
 21
-8.757077994197882
 31
0.0
 70
    32
 71
     5
 42
170.0
  3
AM_JIS$0
100
AcDbAlignedDimension
 13
170.0
 23
-17.168883365418
 33
0.0
 14
-0.0000000000000021
 24
-17.16444207619414
 34
0.0
 50
180.0
100
AcDbRotatedDimension
  0
DIMENSION
  5
AC74
330
1F
100
AcDbEntity
  8
AM_5
100
AcDbDimension
  2
*D10
 10
186.0333675347087
 20
-84.45956278162402
 30
0.0
 11
182.6329935189606
 21
-68.45956278162391
 31
0.0
 70
    32
 71
     5
 42
32.00000000000013
  3
AM_JIS$0
100
AcDbAlignedDimension
 13
170.0
 23
-52.45956278162388
 33
0.0
 14
170.0
 24
-84.45956278162402
 34
0.0
 50
270.0
100
AcDbRotatedDimension
  0
DIMENSION
  5
AC81
330
1F
100
AcDbEntity
  8
AM_5
100
AcDbDimension
  2
*D11
 10
-25.07395309083098
 20
-52.45956278162416
 30
0.0
 11
-28.474327106579
 21
-68.459562781624
 31
0.0
 70
    32
 71
     5
 42
31.99999999999967
  3
AM_JIS$0
100
AcDbAlignedDimension
 13
20.6
 23
-84.45956278162382
 33
0.0
 14
-0.0000000000000064
 24
-52.45956278162417
 34
0.0
 50
270.0
100
AcDbRotatedDimension
  0
DIMENSION
  5
ACC5
330
1F
100
AcDbEntity
  8
AM_5
100
AcDbDimension
  2
*D12
 10
184.9969373151983
 20
3.450892036984621
 30
0.0
 11
181.5965632994503
 21
19.45089203698465
 31
0.0
 70
    32
 71
     5
 42
31.99999999999999
  3
AM_JIS$0
100
AcDbAlignedDimension
 13
170.0
 23
35.45089203698462
 33
0.0
 14
170.0
 24
3.450892036984625
 34
0.0
 50
270.0
100
AcDbRotatedDimension
  0
LINE
  5
AD18
330
1F
100
AcDbEntity
  8
AM_0
100
AcDbLine
 10
22.7
 20
-40.35956278162395
 30
0.0
 11
8.699999999999979
 21
-54.35956278162394
 31
0.0
  0
LINE
  5
AD19
330
1F
100
AcDbEntity
  8
AM_0
100
AcDbLine
 10
21.39999999999998
 20
-40.35956278162383
 30
0.0
 11
49.19999999999998
 21
-40.35956278162384
 31
0.0
  0
LINE
  5
AD1A
330
1F
100
AcDbEntity
  8
AM_0
100
AcDbLine
 10
49.19999999999998
 20
-40.35956278162384
 30
0.0
 11
49.2
 21
-54.35956278162384
 31
0.0
  0
LINE
  5
AD1E
330
1F
100
AcDbEntity
  8
AM_0
100
AcDbLine
 10
19.89999999999997
 20
-54.35956278162382
 30
0.0
 11
19.89999999999997
 21
-51.15956278162384
 31
0.0
  0
LINE
  5
AD1F
330
1F
100
AcDbEntity
  8
AM_0
100
AcDbLine
 10
19.89999999999997
 20
-51.15956278162384
 30
0.0
 11
44.40000000000001
 21
-51.15956278162384
 31
0.0
  0
LINE
  5
AD24
330
1F
100
AcDbEntity
  8
AM_0
100
AcDbLine
 10
49.2
 20
-52.45956278162386
 30
0.0
 11
49.2
 21
-75.85956278162388
 31
0.0
  0
LINE
  5
AD28
330
1F
100
AcDbEntity
  8
AM_7
100
AcDbLine
 10
44.7974220655466
 20
-57.85956278162384
 30
0.0
 11
37.85772258437272
 21
-57.85956278162384
 31
0.0
  0
LINE
  5
AD29
330
1F
100
AcDbEntity
  8
AM_7
100
AcDbLine
 10
41.29999999999997
 20
-54.54082652780403
 30
0.0
 11
41.29999999999997
 21
-61.21537743086459
 31
0.0
  0
INSERT
  5
AD37
330
1F
100
AcDbEntity
  8
AM_0
100
AcDbBlockReference
  2
CBF03
 10
41.29999999999997
 20
-57.85956278162384
 30
0.0
 50
180.0
  0
LINE
  5
AD47
330
1F
100
AcDbEntity
  8
AM_0
100
AcDbLine
 10
49.2
 20
-61.75956278162384
 30
0.0
 11
22.8
 21
-61.75956278162384
 31
0.0
  0
LINE
  5
AD48
330
1F
100
AcDbEntity
  8
AM_0
100
AcDbLine
 10
49.2
 20
-54.35956278162384
 30
0.0
 11
28.34604050466012
 21
-54.35956278162382
 31
0.0
  0
LINE
  5
AD4E
330
1F
100
AcDbEntity
  8
AM_0
100
AcDbLine
 10
20.6
 20
-75.85956278162377
 30
0.0
 11
20.6
 21
-84.45956278162382
 31
0.0
  0
LINE
  5
AD4F
330
1F
100
AcDbEntity
  8
AM_7
100
AcDbLine
 10
26.89999999999999
 20
-63.85403016005862
 30
0.0
 11
26.89999999999999
 21
-74.92189130778057
 31
0.0
  0
LINE
  5
AD50
330
1F
100
AcDbEntity
  8
AM_7
100
AcDbLine
 10
42.50000000000001
 20
-63.4788482872825
 30
0.0
 11
42.50000000000001
 21
-74.54670989046812
 31
0.0
  0
LINE
  5
AD51
330
1F
100
AcDbEntity
  8
AM_7
100
AcDbLine
 10
48.41106074381574
 20
-69.45956278162383
 30
0.0
 11
22.41099565492144
 21
-69.45956278162383
 31
0.0
  0
LINE
  5
AD52
330
1F
100
AcDbEntity
  8
AM_0
100
AcDbLine
 10
170.0
 20
-84.45956278162402
 30
0.0
 11
20.6
 21
-84.45956278162382
 31
0.0
  0
LINE
  5
AD72
330
1F
100
AcDbEntity
  8
AM_0
100
AcDbLine
 10
52.20000000000001
 20
-64.75956278162384
 30
0.0
 11
52.20000000000001
 21
-72.85956278162387
 31
0.0
  0
LINE
  5
AD73
330
1F
100
AcDbEntity
  8
AM_0
100
AcDbLine
 10
49.2
 20
-75.85956278162388
 30
0.0
 11
20.59999999999999
 21
-75.85956278162377
 31
0.0
  0
ARC
  5
AD74
330
1F
100
AcDbEntity
  8
AM_0
100
AcDbCircle
 10
49.2
 20
-72.85956278162387
 30
0.0
 40
3.0
100
AcDbArc
 50
270.0
 51
0.0
  0
ARC
  5
AD75
330
1F
100
AcDbEntity
  8
AM_0
100
AcDbCircle
 10
49.2
 20
-64.75956278162384
 30
0.0
 40
3.0
100
AcDbArc
 50
0.0
 51
90.0
  0
CIRCLE
  5
AD92
330
1F
100
AcDbEntity
  8
AM_0
100
AcDbCircle
 10
42.50000000000001
 20
-69.45956278162383
 30
0.0
 40
4.5
  0
CIRCLE
  5
AD93
330
1F
100
AcDbEntity
  8
AM_0
100
AcDbCircle
 10
26.89999999999999
 20
-69.45956278162383
 30
0.0
 40
4.5
  0
LWPOLYLINE
  5
AD95
330
1F
100
AcDbEntity
  8
AM_0
100
AcDbPolyline
 90
        6
 70
     1
 43
0.0
 10
43.65470053837925
 20
-71.45956278162383
 10
44.8094010767585
 20
-69.45956278162383
 10
43.65470053837925
 20
-67.45956278162383
 10
41.34529946162074
 20
-67.45956278162383
 10
40.1905989232415
 20
-69.45956278162383
 10
41.34529946162074
 20
-71.45956278162383
  0
LWPOLYLINE
  5
AD96
330
1F
100
AcDbEntity
  8
AM_0
100
AcDbPolyline
 90
        6
 70
     1
 43
0.0
 10
28.05470053837926
 20
-71.45956278162383
 10
29.20940107675851
 20
-69.45956278162383
 10
28.05470053837926
 20
-67.45956278162383
 10
25.74529946162074
 20
-67.45956278162383
 10
24.5905989232415
 20
-69.45956278162383
 10
25.74529946162074
 20
-71.45956278162383
  0
LINE
  5
AD98
330
1F
100
AcDbEntity
  8
AM_0
100
AcDbLine
 10
20.6
 20
-81.65956278162385
 30
0.0
 11
4.432579935389981
 21
-81.65956278162385
 31
0.0
  0
LINE
  5
AD9A
330
1F
100
AcDbEntity
  8
AM_0
100
AcDbLine
 10
1.099999999999995
 20
-57.65956278162382
 30
0.0
 11
1.099999999999994
 21
-62.75956278162382
 31
0.0
  0
LINE
  5
AD9C
330
1F
100
AcDbEntity
  8
AM_0
100
AcDbLine
 10
1.099999999999994
 20
-62.75956278162382
 30
0.0
 11
4.432579935389981
 21
-81.65956278162385
 31
0.0
  0
LINE
  5
AD9D
330
1F
100
AcDbEntity
  8
AM_0
100
AcDbLine
 10
22.8
 20
-57.65956278162382
 30
0.0
 11
22.8
 21
-61.75956278162384
 31
0.0
  0
LINE
  5
ADB6
330
1F
100
AcDbEntity
  8
AM_0
100
AcDbLine
 10
20.60000000000001
 20
7.850892036984653
 30
0.0
 11
20.60000000000002
 21
30.45089203698466
 31
0.0
  0
LINE
  5
ADB7
330
1F
100
AcDbEntity
  8
AM_0
100
AcDbLine
 10
170.0
 20
3.450892036984619
 30
0.0
 11
49.19999999999999
 21
3.45089203698465
 31
0.0
  0
LINE
  5
ADD4
330
1F
100
AcDbEntity
  8
AM_0
100
AcDbLine
 10
41.59999999999999
 20
27.05089203698466
 30
0.0
 11
20.6
 21
27.05089203698466
 31
0.0
  0
LINE
  5
ADD5
330
1F
100
AcDbEntity
  8
AM_0
100
AcDbLine
 10
41.59999999999999
 20
23.05089203698466
 30
0.0
 11
38.8094010767585
 21
23.05089203698466
 31
0.0
  0
ARC
  5
ADD7
330
1F
100
AcDbEntity
  8
AM_0
100
AcDbCircle
 10
41.59999999999999
 20
25.05089203698464
 30
0.0
 40
2.0
100
AcDbArc
 50
270.0
 51
90.0
  0
LINE
  5
ADD9
330
1F
100
AcDbEntity
  8
AM_0
100
AcDbLine
 10
49.19999999999999
 20
0.7508920369846518
 30
0.0
 11
49.19999999999999
 21
8.450892036984651
 31
0.0
  0
LINE
  5
ADDC
330
1F
100
AcDbEntity
  8
AM_0
100
AcDbLine
 10
49.19999999999999
 20
8.450892036984651
 30
0.0
 11
44.39997989035557
 21
8.450892036984651
 31
0.0
  0
LINE
  5
ADDE
330
1F
100
AcDbEntity
  8
AM_0
100
AcDbLine
 10
44.4
 20
13.3676906571905
 30
0.0
 11
44.4
 21
8.450892036984651
 31
0.0
  0
LINE
  5
ADDF
330
1F
100
AcDbEntity
  8
AM_0
100
AcDbLine
 10
44.4
 20
13.3676906571905
 30
0.0
 11
36.5
 21
27.05089203698466
 31
0.0
  0
LINE
  5
ADE0
330
1F
100
AcDbEntity
  8
AM_0
100
AcDbLine
 10
21.39999999999999
 20
7.850892036984653
 30
0.0
 11
21.39999999999999
 21
27.05089203698466
 31
0.0
  0
LINE
  5
AE86
330
1F
100
AcDbEntity
  8
AM_0
100
AcDbLine
 10
21.4
 20
23.05089203698466
 30
0.0
 11
20.60000000000002
 21
23.05089203698466
 31
0.0
  0
DIMENSION
  5
AF9E
330
1F
100
AcDbEntity
  8
AM_5
100
AcDbDimension
  2
*D15
 10
49.19999999999998
 20
-24.21752661109963
 30
0.0
 11
24.59999999999999
 21
-20.81623421321419
 31
0.0
 70
    32
 71
     5
 42
49.19999999999999
  3
AM_JIS$0
100
AcDbAlignedDimension
 13
-0.0000000000000064
 23
-52.45956278162417
 33
0.0
 14
49.19999999999998
 24
-39.85956278162385
 34
0.0
 50
180.0
100
AcDbRotatedDimension
  0
LINE
  5
B1E8
330
1F
100
AcDbEntity
  8
AM_0
100
AcDbLine
 10
44.40000000000001
 20
-51.15956278162384
 30
0.0
 11
44.40000000000001
 21
-54.35956278162384
 31
0.0
  0
LINE
  5
B297
330
1F
100
AcDbEntity
  8
AM_0
100
AcDbLine
 10
49.19999999999999
 20
0.7508920369846518
 30
0.0
 11
8.699999999999986
 21
0.7508920369846567
 31
0.0
  0
LINE
  5
B298
330
1F
100
AcDbEntity
  8
AM_0
100
AcDbLine
 10
8.699999999999986
 20
0.7508920369846567
 30
0.0
 11
8.699999999999988
 21
7.850892036984655
 31
0.0
  0
LINE
  5
B29D
330
1F
100
AcDbEntity
  8
AM_0
100
AcDbLine
 10
22.7
 20
0.7508920369846586
 30
0.0
 11
22.7
 21
7.850892036984653
 31
0.0
  0
LINE
  5
B2A0
330
1F
100
AcDbEntity
  8
AM_0
100
AcDbLine
 10
21.39999999999998
 20
-41.65956278162395
 30
0.0
 11
21.39999999999998
 21
-40.35956278162383
 31
0.0
  0
LINE
  5
B376
330
1F
100
AcDbEntity
  8
AM_0
100
AcDbLine
 10
22.7
 20
7.850892036984653
 30
0.0
 11
8.699999999999988
 21
7.850892036984655
 31
0.0
  0
LINE
  5
B378
330
1F
100
AcDbEntity
  8
AM_0
100
AcDbLine
 10
22.8
 20
-57.65956278162382
 30
0.0
 11
1.099999999999995
 21
-57.65956278162382
 31
0.0
  0
LINE
  5
B388
102
{ACAD_REACTORS
330
B3E5
102
}
330
1F
100
AcDbEntity
  8
AM_0
100
AcDbLine
 10
-0.0000000000000064
 20
-52.45956278162418
 30
0.0
 11
1.016656164276034
 21
-60.73956278162416
 31
0.0
  0
LINE
  5
B389
102
{ACAD_REACTORS
330
B3E5
102
}
330
1F
100
AcDbEntity
  8
AM_0
100
AcDbLine
 10
6.399999999999998
 20
-52.45956278162417
 30
0.0
 11
6.399999999999997
 21
-57.65956278162382
 31
0.0
  0
LINE
  5
B38A
102
{ACAD_REACTORS
330
B3E5
102
}
330
1F
100
AcDbEntity
  8
AM_0
100
AcDbLine
 10
2.37173040315087
 20
-52.45956278162417
 30
0.0
 11
6.399999999999998
 21
-52.45956278162417
 31
0.0
  0
LINE
  5
B38C
102
{ACAD_REACTORS
330
B3E5
102
}
330
1F
100
AcDbEntity
  8
AM_0
100
AcDbLine
 10
-0.0000000000000064
 20
-52.45956278162417
 30
0.0
 11
4.361763974703927
 21
-53.22865945384665
 31
0.0
  0
LINE
  5
B390
102
{ACAD_REACTORS
330
B3E5
102
}
330
1F
100
AcDbEntity
  8
AM_0
100
AcDbLine
 10
2.37173040315087
 20
-52.45956278162417
 30
0.0
 11
2.047505585735926
 21
-52.82059325954071
 31
0.0
  0
LINE
  5
B391
102
{ACAD_REACTORS
330
B3E5
102
}
330
1F
100
AcDbEntity
  8
AM_0
100
AcDbLine
 10
6.399999999999998
 20
-52.45956278162417
 30
0.0
 11
3.86484497653236
 21
-52.45956278162417
 31
0.0
  0
LINE
  5
B392
102
{ACAD_REACTORS
330
B3E5
102
}
330
1F
100
AcDbEntity
  8
AM_0
100
AcDbLine
 10
6.399999999999998
 20
-52.45956278162417
 30
0.0
 11
4.361763974703927
 21
-53.22865945384665
 31
0.0
  0
LINE
  5
B393
102
{ACAD_REACTORS
330
B3E5
102
}
330
1F
100
AcDbEntity
  8
AM_0
100
AcDbLine
 10
26.2032695968491
 20
-52.45956278162417
 30
0.0
 11
22.17499999999997
 21
-52.45956278162417
 31
0.0
  0
LINE
  5
B394
102
{ACAD_REACTORS
330
B3E5
102
}
330
1F
100
AcDbEntity
  8
AM_0
100
AcDbLine
 10
28.57499999999999
 20
-52.45956278162417
 30
0.0
 11
24.21323602529604
 21
-53.22865945384665
 31
0.0
  0
LINE
  5
B395
102
{ACAD_REACTORS
330
B3E5
102
}
330
1F
100
AcDbEntity
  8
AM_0
100
AcDbLine
 10
28.57499999999999
 20
-52.45956278162418
 30
0.0
 11
27.43496366896814
 21
-61.7444136020246
 31
0.0
  0
LINE
  5
B396
102
{ACAD_REACTORS
330
B3E5
102
}
330
1F
100
AcDbEntity
  8
AM_0
100
AcDbLine
 10
26.2032695968491
 20
-52.45956278162417
 30
0.0
 11
26.52749441426404
 21
-52.82059325954071
 31
0.0
  0
LINE
  5
B397
102
{ACAD_REACTORS
330
B3E5
102
}
330
1F
100
AcDbEntity
  8
AM_0
100
AcDbLine
 10
22.17499999999997
 20
-52.45956278162417
 30
0.0
 11
22.17499999999997
 21
-57.65956278162382
 31
0.0
  0
LINE
  5
B398
102
{ACAD_REACTORS
330
B3E5
102
}
330
1F
100
AcDbEntity
  8
AM_0
100
AcDbLine
 10
22.17499999999997
 20
-52.45956278162417
 30
0.0
 11
24.21323602529604
 21
-53.22865945384666
 31
0.0
  0
LINE
  5
B399
102
{ACAD_REACTORS
330
B3E5
102
}
330
1F
100
AcDbEntity
  8
AM_0
100
AcDbLine
 10
22.17499999999997
 20
-52.45956278162417
 30
0.0
 11
24.71015502346761
 21
-52.45956278162417
 31
0.0
  0
LINE
  5
B39B
102
{ACAD_REACTORS
330
B3E5
102
}
330
1F
100
AcDbEntity
  8
AM_0
100
AcDbLine
 10
6.399999999999998
 20
-54.44956278162417
 30
0.0
 11
22.17499999999997
 21
-54.44956278162417
 31
0.0
  0
LINE
  5
B39C
102
{ACAD_REACTORS
330
B3E5
102
}
330
1F
100
AcDbEntity
  8
AM_0
100
AcDbLine
 10
0.6974163059285205
 20
-58.13956278162415
 30
0.0
 11
1.099999999999995
 21
-58.13956278162415
 31
0.0
  0
LINE
  5
B3E9
330
1F
100
AcDbEntity
  8
AM_0
100
AcDbLine
 10
22.8
 20
-58.13956278162417
 30
0.0
 11
27.87758369407152
 21
-58.13956278162415
 31
0.0
  0
LINE
  5
B3EA
330
1F
100
AcDbEntity
  8
AM_0
100
AcDbLine
 10
22.8
 20
-60.73956278162416
 30
0.0
 11
27.55834383572393
 21
-60.73956278162416
 31
0.0
  0
LINE
  5
B3EC
330
1F
100
AcDbEntity
  8
AM_0
100
AcDbLine
 10
20.60000000000002
 20
30.45089203698466
 30
0.0
 11
25.60000000000001
 21
35.45089203698466
 31
0.0
  0
LINE
  5
B43C
330
1F
100
AcDbEntity
  8
AM_0
100
AcDbLine
 10
0.0
 20
0.2497746154323108
 30
0.0
 11
0.0000000000000009
 21
7.752009458537026
 31
0.0
  0
LINE
  5
B43E
330
1F
100
AcDbEntity
  8
AM_0
100
AcDbLine
 10
28.31627512582436
 20
-0.0000730913224637
 30
0.0
 11
22.17499999999998
 21
0.2143849617318451
 31
0.0
  0
LINE
  5
B43F
330
1F
100
AcDbEntity
  8
AM_0
100
AcDbLine
 10
28.57499999999999
 20
0.2497746154323073
 30
0.0
 11
28.57499999999999
 21
0.50089203698465
 31
0.0
  0
ARC
  5
B441
330
1F
100
AcDbEntity
  8
AM_0
100
AcDbCircle
 10
28.32499999999999
 20
0.2497746154323074
 30
0.0
 40
0.25
100
AcDbArc
 50
268.0000000000001
 51
0.0
  0
LINE
  5
B442
330
1F
100
AcDbEntity
  8
AM_0
100
AcDbLine
 10
6.400000000000004
 20
0.2143971414805483
 30
0.0
 11
6.400000000000005
 21
7.787399112237481
 31
0.0
  0
LINE
  5
B443
330
1F
100
AcDbEntity
  8
AM_0
100
AcDbLine
 10
22.17499999999998
 20
0.2143849617318451
 30
0.0
 11
22.17499999999998
 21
0.5008920369846509
 31
0.0
  0
LINE
  5
B445
330
1F
100
AcDbEntity
  8
AM_0
100
AcDbLine
 10
0.2587248741756137
 20
8.001857165291797
 30
0.0
 11
6.400000000000005
 21
7.787399112237481
 31
0.0
  0
ARC
  5
B446
330
1F
100
AcDbEntity
  8
AM_0
100
AcDbCircle
 10
0.2500000000000009
 20
7.752009458537026
 30
0.0
 40
0.25
100
AcDbArc
 50
88.00000000000002
 51
180.0
  0
LINE
  5
B448
330
1F
100
AcDbEntity
  8
AM_0
100
AcDbLine
 10
0.2587248741756127
 20
-0.0000730913224603
 30
0.0
 11
6.400000000000004
 21
0.214384961731847
 31
0.0
  0
ARC
  5
B449
330
1F
100
AcDbEntity
  8
AM_0
100
AcDbCircle
 10
0.25
 20
0.2497746154323108
 30
0.0
 40
0.25
100
AcDbArc
 50
180.0
 51
271.9999999999999
  0
LINE
  5
B44A
330
1F
100
AcDbEntity
  8
AM_0
100
AcDbLine
 10
8.699999999999986
 20
1.000892036984667
 30
0.0
 11
6.400000000000004
 21
1.000892036984667
 31
0.0
  0
LINE
  5
B44B
330
1F
100
AcDbEntity
  8
AM_0
100
AcDbLine
 10
8.699999999999986
 20
7.000892036984667
 30
0.0
 11
6.400000000000005
 21
7.000892036984667
 31
0.0
  0
ENDSEC
  0
SECTION
  2
OBJECTS
  0
DICTIONARY
  5
C
330
0
100
AcDbDictionary
281
     1
  3
ACAD_COLOR
350
B50D
  3
ACAD_GROUP
350
D
  3
ACAD_LAYOUT
350
1A
  3
ACAD_MATERIAL
350
B50C
  3
ACAD_MLINESTYLE
350
17
  3
ACAD_PLOTSETTINGS
350
19
  3
ACAD_PLOTSTYLENAME
350
E
  3
ACAD_TABLESTYLE
350
B50E
  3
ACDBHEADERROUNDTRIPXREC
350
B61E
  3
ACDBVARIABLEDICTIONARY
350
30
  3
ACMDICTIONARY
350
4D
  3
AMG
350
3F
  3
AMGSNAPSETTINGS
350
73
  3
DWGPROPS
350
B61D
  3
ENG_DATA
350
21C6
  3
FILENAME
350
21C9
  3
HOLD_DIC_DATA
350
21C4
  3
TABLE_DIC_DATA
350
1C0B
  3
ZWKSIZE
350
21CB
  0
DICTIONARY
  5
165
330
1F
100
AcDbDictionary
280
     1
281
     1
  3
ACAD_INDEX
360
B4D2
  3
ACAD_LAYOUTSELFREF
360
B505
  0
DICTIONARY
  5
B503
330
1B
100
AcDbDictionary
280
     1
281
     1
  3
ACAD_LAYOUTSELFREF
360
B504
  0
DICTIONARY
  5
B50D
102
{ACAD_REACTORS
330
C
102
}
330
C
100
AcDbDictionary
281
     1
  0
DICTIONARY
  5
D
102
{ACAD_REACTORS
330
C
102
}
330
C
100
AcDbDictionary
281
     1
  3
*A1
350
7C0D
  3
*A2
350
7C0E
  3
*A3
350
7FE3
  3
*A4
350
8E0E
  3
*A5
350
B2CB
  3
*A6
350
B2D0
  3
*A7
350
B3A2
  3
*A8
350
B3E5
  0
DICTIONARY
  5
1A
102
{ACAD_REACTORS
330
C
102
}
330
C
100
AcDbDictionary
281
     1
  3
Model
350
B510
  3
レイアウト1
350
B511
  0
DICTIONARY
  5
B50C
102
{ACAD_REACTORS
330
C
102
}
330
C
100
AcDbDictionary
281
     1
  0
DICTIONARY
  5
17
102
{ACAD_REACTORS
330
C
102
}
330
C
100
AcDbDictionary
281
     1
  3
STANDARD
350
18
  0
DICTIONARY
  5
19
102
{ACAD_REACTORS
330
C
102
}
330
C
100
AcDbDictionary
281
     1
  0
ACDBDICTIONARYWDFLT
  5
E
102
{ACAD_REACTORS
330
C
102
}
330
C
100
AcDbDictionary
281
     1
  3
Normal
350
F
100
AcDbDictionaryWithDefault
340
F
  0
DICTIONARY
  5
B50E
102
{ACAD_REACTORS
330
C
102
}
330
C
100
AcDbDictionary
281
     1
  3
Standard
350
B50F
  0
DICTIONARY
  5
B61E
102
{ACAD_REACTORS
330
C
102
}
330
C
100
AcDbDictionary
281
     1
  0
DICTIONARY
  5
30
102
{ACAD_REACTORS
330
C
102
}
330
C
100
AcDbDictionary
281
     1
  3
CTABLESTYLE
350
B619
  3
DIMASSOC
350
B61A
  3
INDEXCTL
350
31
  3
PROJECTNAME
350
B61B
  3
SORTENTS
350
42BE
  0
DICTIONARY
  5
4D
102
{ACAD_REACTORS
330
C
102
}
330
C
100
AcDbDictionary
281
     1
  3
ACMSTDDICTIONARY
350
17E
  3
AMDTSECTSYM_ARROWCOLOR
350
B589
  0
DICTIONARY
  5
3F
102
{ACAD_REACTORS
330
C
102
}
330
C
100
AcDbDictionary
281
     1
  0
DICTIONARY
  5
73
102
{ACAD_REACTORS
330
C
102
}
330
C
100
AcDbDictionary
281
     1
  0
XRECORD
  5
B61D
102
{ACAD_REACTORS
330
C
102
}
330
C
100
AcDbXrecord
280
     1
  1
DWGPROPS COOKIE
  2

  3

  4

  6

  7

  8

  9

300
AmdtFileType=82
301
=
302
=
303
=
304
=
305
=
306
=
307
=
308
=
309
=
 40
1.353864652777777
 41
2451943.610431666
 42
2455602.338414722
  1

 90
        1
  0
DICTIONARY
  5
21C6
102
{ACAD_REACTORS
330
C
102
}
330
C
100
AcDbDictionary
281
     1
  3
ENG_ID
350
21C7
  0
DICTIONARY
  5
21C9
102
{ACAD_REACTORS
330
C
102
}
330
C
100
AcDbDictionary
281
     1
  3
FILENAME
350
21CA
  0
DICTIONARY
  5
21C4
102
{ACAD_REACTORS
330
C
102
}
330
C
100
AcDbDictionary
281
     1
  3
HOLD_DATA
350
21C5
  0
DICTIONARY
  5
1C0B
102
{ACAD_REACTORS
330
C
102
}
330
C
100
AcDbDictionary
281
     1
  3
INPUT_DATA
350
1C0D
  3
TABLE_DATA
350
1C0C
  0
DICTIONARY
  5
21CB
102
{ACAD_REACTORS
330
C
102
}
330
C
100
AcDbDictionary
281
     1
  3
ZWKSIZE
350
21CC
  0
DICTIONARY
  5
B4D2
102
{ACAD_REACTORS
330
165
102
}
330
165
100
AcDbDictionary
281
     1
  3
*A1
350
B4D3
  0
XRECORD
  5
B505
102
{ACAD_REACTORS
330
165
102
}
330
165
100
AcDbXrecord
280
     1
340
1F
  0
XRECORD
  5
B504
102
{ACAD_REACTORS
330
B503
102
}
330
B503
100
AcDbXrecord
280
     1
340
1B
  0
GROUP
  5
7C0D
102
{ACAD_REACTORS
330
D
102
}
330
D
100
AcDbGroup
300

 70
     1
 71
     1
  0
GROUP
  5
7C0E
102
{ACAD_REACTORS
330
D
102
}
330
D
100
AcDbGroup
300

 70
     1
 71
     1
  0
GROUP
  5
7FE3
102
{ACAD_REACTORS
330
D
102
}
330
D
100
AcDbGroup
300

 70
     1
 71
     1
  0
GROUP
  5
8E0E
102
{ACAD_REACTORS
330
D
102
}
330
D
100
AcDbGroup
300

 70
     1
 71
     1
  0
GROUP
  5
B2CB
102
{ACAD_REACTORS
330
D
102
}
330
D
100
AcDbGroup
300

 70
     1
 71
     1
  0
GROUP
  5
B2D0
102
{ACAD_REACTORS
330
D
102
}
330
D
100
AcDbGroup
300

 70
     1
 71
     1
  0
GROUP
  5
B3A2
102
{ACAD_REACTORS
330
D
102
}
330
D
100
AcDbGroup
300

 70
     1
 71
     1
  0
GROUP
  5
B3E5
102
{ACAD_REACTORS
330
D
102
}
330
D
100
AcDbGroup
300

 70
     1
 71
     1
340
B394
340
B393
340
B39C
340
B395
340
B396
340
B388
340
B397
340
B389
340
B39B
340
B398
340
B399
340
B391
340
B392
340
B38A
340
B38C
340
B390
  0
LAYOUT
  5
B510
102
{ACAD_XDICTIONARY
360
B61F
102
}
102
{ACAD_REACTORS
330
1A
102
}
330
1A
100
AcDbPlotSettings
  1

  2
SII LP-1010 (C2 VR)2R
  4

  6

 40
0.0
 41
0.0
 42
0.0
 43
0.0
 44
0.0
 45
0.0
 46
0.0
 47
0.0
 48
0.0
 49
0.0
140
0.0
141
0.0
142
1.0
143
1.0
 70
  1712
 72
     0
 73
     0
 74
     0
  7
sei_cad.ctb
 75
     0
147
1.0
148
0.0
149
0.0
100
AcDbLayout
  1
Model
 70
     1
 71
     0
 10
0.0
 20
0.0
 11
12.0
 21
9.0
 12
0.0
 22
0.0
 32
0.0
 14
0.0
 24
0.0
 34
0.0
 15
0.0
 25
0.0
 35
0.0
146
0.0
 13
0.0
 23
0.0
 33
0.0
 16
1.0
 26
0.0
 36
0.0
 17
0.0
 27
1.0
 37
0.0
 76
     0
330
1F
  0
LAYOUT
  5
B511
102
{ACAD_XDICTIONARY
360
B621
102
}
102
{ACAD_REACTORS
330
1A
102
}
330
1A
100
AcDbPlotSettings
  1

  2
SII LP-1010 (C2 VR)2R
  4

  6

 40
0.0
 41
0.0
 42
0.0
 43
0.0
 44
0.0
 45
0.0
 46
0.0
 47
0.0
 48
0.0
 49
0.0
140
0.0
141
0.0
142
1.0
143
1.0
 70
   688
 72
     0
 73
     0
 74
     5
  7
sei_cad.ctb
 75
    16
147
1.0
148
0.0
149
0.0
100
AcDbLayout
  1
レイアウト1
 70
     1
 71
     1
 10
0.0
 20
0.0
 11
420.0
 21
297.0
 12
0.0
 22
0.0
 32
0.0
 14
1.000000000000000E+20
 24
1.000000000000000E+20
 34
1.000000000000000E+20
 15
-1.000000000000000E+20
 25
-1.000000000000000E+20
 35
-1.000000000000000E+20
146
0.0
 13
0.0
 23
0.0
 33
0.0
 16
1.0
 26
0.0
 36
0.0
 17
0.0
 27
1.0
 37
0.0
 76
     0
330
1B
  0
MLINESTYLE
  5
18
102
{ACAD_REACTORS
330
17
102
}
330
17
100
AcDbMlineStyle
  2
STANDARD
 70
     0
  3

 62
   256
 51
90.0
 52
90.0
 71
     2
 49
0.5
 62
   256
  6
BYLAYER
 49
-0.5
 62
   256
  6
BYLAYER
  0
ACDBPLACEHOLDER
  5
F
102
{ACAD_REACTORS
330
E
102
}
330
E
  0
TABLESTYLE
  5
B50F
102
{ACAD_REACTORS
330
B50E
102
}
330
B50E
100
AcDbTableStyle
  3
Standard
 70
     0
 71
     0
 40
1.5
 41
1.5
280
     0
281
     0
  7
STANDARD
140
4.5
170
     2
 62
     0
 63
     7
283
     0
274
    -2
284
     1
 64
     0
275
    -2
285
     1
 65
     0
276
    -2
286
     1
 66
     0
277
    -2
287
     1
 67
     0
278
    -2
288
     1
 68
     0
279
    -2
289
     1
 69
     0
  7
STANDARD
140
6.0
170
     5
 62
     0
 63
     7
283
     0
274
    -2
284
     1
 64
     0
275
    -2
285
     1
 65
     0
276
    -2
286
     1
 66
     0
277
    -2
287
     1
 67
     0
278
    -2
288
     1
 68
     0
279
    -2
289
     1
 69
     0
  7
STANDARD
140
4.5
170
     5
 62
     0
 63
     7
283
     0
274
    -2
284
     1
 64
     0
275
    -2
285
     1
 65
     0
276
    -2
286
     1
 66
     0
277
    -2
287
     1
 67
     0
278
    -2
288
     1
 68
     0
279
    -2
289
     1
 69
     0
  0
DICTIONARYVAR
  5
B619
102
{ACAD_REACTORS
330
30
102
}
330
30
100
DictionaryVariables
280
     0
  1
STANDARD
  0
DICTIONARYVAR
  5
B61A
102
{ACAD_REACTORS
330
30
102
}
330
30
100
DictionaryVariables
280
     0
  1
1
  0
DICTIONARYVAR
  5
31
102
{ACAD_REACTORS
330
30
102
}
330
30
100
DictionaryVariables
280
     0
  1
1
  0
DICTIONARYVAR
  5
B61B
102
{ACAD_REACTORS
330
30
102
}
330
30
100
DictionaryVariables
280
     0
  1

  0
DICTIONARYVAR
  5
42BE
102
{ACAD_REACTORS
330
30
102
}
330
30
100
DictionaryVariables
280
     0
  1
96
  0
DICTIONARY
  5
17E
102
{ACAD_REACTORS
330
4D
102
}
330
4D
100
AcDbDictionary
281
     1
  0
XRECORD
  5
B589
102
{ACAD_REACTORS
330
4D
102
}
330
4D
100
AcDbXrecord
280
     1
 90
-1023410169
  0
XRECORD
  5
21C7
102
{ACAD_REACTORS
330
21C6
102
}
330
21C6
100
AcDbXrecord
280
     1
  1
HOLD
  0
XRECORD
  5
21CA
102
{ACAD_REACTORS
330
21C9
102
}
330
21C9
100
AcDbXrecord
280
     1
  1
21000065__00___
  0
XRECORD
  5
21C5
102
{ACAD_REACTORS
330
21C4
102
}
330
21C4
100
AcDbXrecord
280
     1
  1
クランクシャフト加工用 ^M^J１コーナー型 ^M^J15.875 ^M^J20 ^M^Jクランプオン ^M^J９０° ^M^J1 ^M^J鋼 ^M^J ^M^J ^M^J ^M^J ^M^J
  0
XRECORD
  5
1C0D
102
{ACAD_REACTORS
330
1C0B
102
}
330
1C0B
100
AcDbXrecord
280
     1
  1
1,,,,,,,,,^M^J2,,,,,,,,,^M^J3,,,,,,,,,^M^J4,,,,,,,,,^M^J5,,,,,,,,,^M^J6,,,,,,,,,^M^J7,,,,,,,,,^M^J8,,,,,,,,,^M^J9,,,,,,,,,^M^J10,,,,,,,,,
  0
XRECORD
  5
1C0C
102
{ACAD_REACTORS
330
1C0B
102
}
330
1C0B
100
AcDbXrecord
280
     1
  1
10,10
  0
XRECORD
  5
21CC
102
{ACAD_REACTORS
330
21CB
102
}
330
21CB
100
AcDbXrecord
280
     1
  1
3
  0
LAYER_INDEX
  5
B4D3
102
{ACAD_REACTORS
330
B4D2
102
}
330
B4D2
100
AcDbIndex
 40
2455602.338414722
100
AcDbLayerIndex
  8
0
360
B4D4
 90
        0
  8
AM_5
360
B4D5
 90
        7
  8
DEFPOINTS
360
B4D6
 90
        0
  8
AM_0
360
B4D7
 90
       85
  8
AM_6
360
B4D8
 90
        1
  8
AM_1
360
B4D9
 90
        2
  8
AM_7
360
B4DA
 90
        8
  0
DICTIONARY
  5
B61F
330
B510
100
AcDbDictionary
280
     1
281
     1
  3
ACAD_XREC_ROUNDTRIP
360
B620
  0
DICTIONARY
  5
B621
330
B511
100
AcDbDictionary
280
     1
281
     1
  3
ACAD_XREC_ROUNDTRIP
360
B622
  0
IDBUFFER
  5
B4D4
330
0
100
AcDbIdBuffer
  0
IDBUFFER
  5
B4D5
330
0
100
AcDbIdBuffer
330
AB2B
330
ABE4
330
AC55
330
AC74
330
AC81
330
ACC5
330
AF9E
  0
IDBUFFER
  5
B4D6
330
0
100
AcDbIdBuffer
  0
IDBUFFER
  5
B4D7
330
0
100
AcDbIdBuffer
330
AA8D
330
AA8F
330
AA96
330
AAAF
330
AB07
330
AB08
330
AB09
330
AB0A
330
AB0B
330
AB0C
330
AB0D
330
AB1D
330
AB29
330
AD18
330
AD19
330
AD1A
330
AD1E
330
AD1F
330
AD24
330
AD37
330
AD47
330
AD48
330
AD4E
330
AD52
330
AD72
330
AD73
330
AD74
330
AD75
330
AD92
330
AD93
330
AD95
330
AD96
330
AD98
330
AD9A
330
AD9C
330
AD9D
330
ADB6
330
ADB7
330
ADD4
330
ADD5
330
ADD7
330
ADD9
330
ADDC
330
ADDE
330
ADDF
330
ADE0
330
AE86
330
B1E8
330
B297
330
B298
330
B29D
330
B2A0
330
B376
330
B378
330
B388
330
B389
330
B38A
330
B38C
330
B390
330
B391
330
B392
330
B393
330
B394
330
B395
330
B396
330
B397
330
B398
330
B399
330
B39B
330
B39C
330
B3E9
330
B3EA
330
B3EC
330
B43C
330
B43E
330
B43F
330
B441
330
B442
330
B443
330
B445
330
B446
330
B448
330
B449
330
B44A
330
B44B
  0
IDBUFFER
  5
B4D8
330
0
100
AcDbIdBuffer
330
83BD
  0
IDBUFFER
  5
B4D9
330
0
100
AcDbIdBuffer
330
AC52
330
AC53
  0
IDBUFFER
  5
B4DA
330
0
100
AcDbIdBuffer
330
AADD
330
AADE
330
AADF
330
AD28
330
AD29
330
AD4F
330
AD50
330
AD51
  0
XRECORD
  5
B620
102
{ACAD_REACTORS
330
B61F
102
}
330
B61F
100
AcDbXrecord
280
     1
102
SHADEPLOT
 70
     0
102
SHADEPLOTRESLEVEL
 70
     2
102
SHADEPLOTCUSTOMDPI
 70
   300
  0
XRECORD
  5
B622
102
{ACAD_REACTORS
330
B621
102
}
330
B621
100
AcDbXrecord
280
     1
102
SHADEPLOT
 70
     0
102
SHADEPLOTRESLEVEL
 70
     2
102
SHADEPLOTCUSTOMDPI
 70
   300
  0
ENDSEC
  0
EOF
