  0
SECTION
  2
HEADER
  9
$ACADVER
  1
AC1015
  9
$ACADMAINTVER
 70
    20
  9
$DWGCODEPAGE
  3
ANSI_932
  9
$INSBASE
 10
0.0
 20
0.0
 30
0.0
  9
$EXTMIN
 10
-27.22298223221526
 20
-104.7597993281724
 30
-0.0015258207003583
  9
$EXTMAX
 10
176.2632040836308
 20
69.66121711700077
 30
0.0000000349246037
  9
$LIMMIN
 10
-239.9705511360255
 20
-134.066917210955
  9
$LIMMAX
 10
69.22654402883428
 20
122.6043691935823
  9
$ORTHOMODE
 70
     0
  9
$REGENMODE
 70
     1
  9
$FILLMODE
 70
     1
  9
$QTEXTMODE
 70
     0
  9
$MIRRTEXT
 70
     1
  9
$LTSCALE
 40
0.5
  9
$ATTMODE
 70
     1
  9
$TEXTSIZE
 40
2.5
  9
$TRACEWID
 40
1.0
  9
$TEXTSTYLE
  7
STANDARD
  9
$CLAYER
  8
AM_0
  9
$CELTYPE
  6
BYLAYER
  9
$CECOLOR
 62
   256
  9
$CELTSCALE
 40
1.0
  9
$DISPSILH
 70
     0
  9
$DIMSCALE
 40
1.0
  9
$DIMASZ
 40
2.5
  9
$DIMEXO
 40
0.0
  9
$DIMDLI
 40
10.0
  9
$DIMRND
 40
0.0
  9
$DIMDLE
 40
0.0
  9
$DIMEXE
 40
1.0
  9
$DIMTP
 40
0.1
  9
$DIMTM
 40
0.1000000001
  9
$DIMTXT
 40
3.799999999999998
  9
$DIMCEN
 40
0.0
  9
$DIMTSZ
 40
0.0
  9
$DIMTOL
 70
     0
  9
$DIMLIM
 70
     0
  9
$DIMTIH
 70
     0
  9
$DIMTOH
 70
     0
  9
$DIMSE1
 70
     0
  9
$DIMSE2
 70
     0
  9
$DIMTAD
 70
     3
  9
$DIMZIN
 70
     9
  9
$DIMBLK
  1
OPEN30
  9
$DIMASO
 70
     1
  9
$DIMSHO
 70
     1
  9
$DIMPOST
  1

  9
$DIMAPOST
  1
"
  9
$DIMALT
 70
     0
  9
$DIMALTD
 70
     2
  9
$DIMALTF
 40
0.0393701
  9
$DIMLFAC
 40
1.0
  9
$DIMTOFL
 70
     1
  9
$DIMTVP
 40
0.0
  9
$DIMTIX
 70
     0
  9
$DIMSOXD
 70
     0
  9
$DIMSAH
 70
     0
  9
$DIMBLK1
  1

  9
$DIMBLK2
  1

  9
$DIMSTYLE
  2
AM_JIS
  9
$DIMCLRD
 70
   256
  9
$DIMCLRE
 70
   256
  9
$DIMCLRT
 70
     2
  9
$DIMTFAC
 40
0.71
  9
$DIMGAP
 40
1.5
  9
$DIMJUST
 70
     0
  9
$DIMSD1
 70
     0
  9
$DIMSD2
 70
     0
  9
$DIMTOLJ
 70
     0
  9
$DIMTZIN
 70
     8
  9
$DIMALTZ
 70
     0
  9
$DIMALTTZ
 70
     0
  9
$DIMUPT
 70
     0
  9
$DIMDEC
 70
     2
  9
$DIMTDEC
 70
     2
  9
$DIMALTU
 70
     2
  9
$DIMALTTD
 70
     2
  9
$DIMTXSTY
  7
STANDARD
  9
$DIMAUNIT
 70
     1
  9
$DIMADEC
 70
     1
  9
$DIMALTRND
 40
0.0
  9
$DIMAZIN
 70
     2
  9
$DIMDSEP
 70
    46
  9
$DIMATFIT
 70
     3
  9
$DIMFRAC
 70
     0
  9
$DIMLDRBLK
  1
OPEN30
  9
$DIMLUNIT
 70
     2
  9
$DIMLWD
 70
    -1
  9
$DIMLWE
 70
    -1
  9
$DIMTMOVE
 70
     0
  9
$LUNITS
 70
     2
  9
$LUPREC
 70
     2
  9
$SKETCHINC
 40
1.0
  9
$FILLETRAD
 40
3.0
  9
$AUNITS
 70
     1
  9
$AUPREC
 70
     5
  9
$MENU
  1
.
  9
$ELEVATION
 40
0.0
  9
$PELEVATION
 40
0.0
  9
$THICKNESS
 40
0.0
  9
$LIMCHECK
 70
     0
  9
$CHAMFERA
 40
0.0
  9
$CHAMFERB
 40
0.0
  9
$CHAMFERC
 40
20.0
  9
$CHAMFERD
 40
0.0
  9
$SKPOLY
 70
     0
  9
$TDCREATE
 40
2451943.610431666
  9
$TDUCREATE
 40
2451943.235431667
  9
$TDUPDATE
 40
2455602.323443113
  9
$TDUUPDATE
 40
2455601.948443113
  9
$TDINDWG
 40
1.3024107755
  9
$TDUSRTIMER
 40
1.3024104167
  9
$USRTIMER
 70
     1
  9
$ANGBASE
 50
0.0
  9
$ANGDIR
 70
     0
  9
$PDMODE
 70
     0
  9
$PDSIZE
 40
0.0
  9
$PLINEWID
 40
0.0
  9
$SPLFRAME
 70
     0
  9
$SPLINETYPE
 70
     6
  9
$SPLINESEGS
 70
     8
  9
$HANDSEED
  5
B4F0
  9
$SURFTAB1
 70
     6
  9
$SURFTAB2
 70
     6
  9
$SURFTYPE
 70
     6
  9
$SURFU
 70
     6
  9
$SURFV
 70
     6
  9
$UCSBASE
  2

  9
$UCSNAME
  2

  9
$UCSORG
 10
0.0
 20
0.0
 30
0.0
  9
$UCSXDIR
 10
1.0
 20
0.0
 30
0.0
  9
$UCSYDIR
 10
0.0
 20
1.0
 30
0.0
  9
$UCSORTHOREF
  2

  9
$UCSORTHOVIEW
 70
     0
  9
$UCSORGTOP
 10
0.0
 20
0.0
 30
0.0
  9
$UCSORGBOTTOM
 10
0.0
 20
0.0
 30
0.0
  9
$UCSORGLEFT
 10
0.0
 20
0.0
 30
0.0
  9
$UCSORGRIGHT
 10
0.0
 20
0.0
 30
0.0
  9
$UCSORGFRONT
 10
0.0
 20
0.0
 30
0.0
  9
$UCSORGBACK
 10
0.0
 20
0.0
 30
0.0
  9
$PUCSBASE
  2

  9
$PUCSNAME
  2

  9
$PUCSORG
 10
0.0
 20
0.0
 30
0.0
  9
$PUCSXDIR
 10
1.0
 20
0.0
 30
0.0
  9
$PUCSYDIR
 10
0.0
 20
1.0
 30
0.0
  9
$PUCSORTHOREF
  2

  9
$PUCSORTHOVIEW
 70
     0
  9
$PUCSORGTOP
 10
0.0
 20
0.0
 30
0.0
  9
$PUCSORGBOTTOM
 10
0.0
 20
0.0
 30
0.0
  9
$PUCSORGLEFT
 10
0.0
 20
0.0
 30
0.0
  9
$PUCSORGRIGHT
 10
0.0
 20
0.0
 30
0.0
  9
$PUCSORGFRONT
 10
0.0
 20
0.0
 30
0.0
  9
$PUCSORGBACK
 10
0.0
 20
0.0
 30
0.0
  9
$USERI1
 70
     0
  9
$USERI2
 70
     0
  9
$USERI3
 70
     0
  9
$USERI4
 70
     0
  9
$USERI5
 70
     0
  9
$USERR1
 40
0.0
  9
$USERR2
 40
0.0
  9
$USERR3
 40
0.0
  9
$USERR4
 40
0.0
  9
$USERR5
 40
0.0
  9
$WORLDVIEW
 70
     1
  9
$SHADEDGE
 70
     3
  9
$SHADEDIF
 70
    70
  9
$TILEMODE
 70
     1
  9
$MAXACTVP
 70
    64
  9
$PINSBASE
 10
0.0
 20
0.0
 30
0.0
  9
$PLIMCHECK
 70
     0
  9
$PEXTMIN
 10
1.000000000000000E+20
 20
1.000000000000000E+20
 30
1.000000000000000E+20
  9
$PEXTMAX
 10
-1.000000000000000E+20
 20
-1.000000000000000E+20
 30
-1.000000000000000E+20
  9
$PLIMMIN
 10
0.0
 20
0.0
  9
$PLIMMAX
 10
420.0
 20
297.0
  9
$UNITMODE
 70
     0
  9
$VISRETAIN
 70
     1
  9
$PLINEGEN
 70
     0
  9
$PSLTSCALE
 70
     1
  9
$TREEDEPTH
 70
  3020
  9
$CMLSTYLE
  2
STANDARD
  9
$CMLJUST
 70
     0
  9
$CMLSCALE
 40
20.0
  9
$PROXYGRAPHICS
 70
     1
  9
$MEASUREMENT
 70
     1
  9
$CELWEIGHT
370
    -1
  9
$ENDCAPS
280
     0
  9
$JOINSTYLE
280
     0
  9
$LWDISPLAY
290
     0
  9
$INSUNITS
 70
     4
  9
$HYPERLINKBASE
  1

  9
$STYLESHEET
  1
sei_cad.ctb
  9
$XEDIT
290
     1
  9
$CEPSNTYPE
380
     0
  9
$PSTYLEMODE
290
     1
  9
$FINGERPRINTGUID
  2
{C77AB3BE-9CA2-11D3-BAF3-006094EB760E}
  9
$VERSIONGUID
  2
{2BB9D7A8-01F3-42C4-9ED4-4BB37C992857}
  9
$EXTNAMES
290
     1
  9
$PSVPSCALE
 40
0.0
  9
$OLESTARTUP
290
     0
  0
ENDSEC
  0
SECTION
  2
CLASSES
  0
CLASS
  1
ACDBDICTIONARYWDFLT
  2
AcDbDictionaryWithDefault
  3
ObjectDBX Classes
 90
        0
280
     0
281
     0
  0
CLASS
  1
ACDBPLACEHOLDER
  2
AcDbPlaceHolder
  3
ObjectDBX Classes
 90
        0
280
     0
281
     0
  0
CLASS
  1
LAYOUT
  2
AcDbLayout
  3
ObjectDBX Classes
 90
        0
280
     0
281
     0
  0
CLASS
  1
ACME_DOCUMENT
  2
AcMeDbDoc
  3
AcMeServices
 90
        0
280
     0
281
     0
  0
CLASS
  1
ACMESCOPE
  2
AcMeScope
  3
AcMeServices
 90
        0
280
     0
281
     0
  0
CLASS
  1
ACMECOMMANDHISTORY
  2
AcMeCommandHistory
  3
AcMeServices
 90
        0
280
     0
281
     0
  0
CLASS
  1
DICTIONARYVAR
  2
AcDbDictionaryVar
  3
ObjectDBX Classes
 90
        0
280
     0
281
     0
  0
CLASS
  1
ACIMSYSVARMAN
  2
AcImSysVarManager
  3
AcMeServices
 90
        0
280
     0
281
     0
  0
CLASS
  1
ACIMREALSYSVAR
  2
AcImRealSysVar
  3
AcMeServices
 90
        0
280
     0
281
     0
  0
CLASS
  1
ACIMINTSYSVAR
  2
AcImIntSysVar
  3
AcMeServices
 90
        0
280
     0
281
     0
  0
CLASS
  1
ACMEDRAWINGMAN
  2
AcMeDrawingMan
  3
AcMeServices
 90
        0
280
     0
281
     0
  0
CLASS
  1
ACMEVIEW
  2
AcMeView
  3
AcMeServices
 90
        0
280
     0
281
     0
  0
CLASS
  1
ACDBENTITYCACHE
  2
AcMeEntityCache
  3
AcMeServices
 90
        0
280
     0
281
     0
  0
CLASS
  1
GSMANAGER
  2
AcMeGSManager
  3
AcMeServices
 90
        0
280
     0
281
     0
  0
CLASS
  1
AMDTINTERNALREACTOR
  2
AmdtInternalReactor
  3
AcMeServices
 90
        0
280
     0
281
     0
  0
CLASS
  1
ACMESTATEMGR
  2
AcMeStateMgr
  3
AcMeServices
 90
        0
280
     0
281
     0
  0
CLASS
  1
ACME_DATABASE
  2
AcMeDbDatabase
  3
AcMeServices
 90
        0
280
     0
281
     0
  0
CLASS
  1
ACRFINSADJUSTERMGR
  2
AcRfInsAdjusterMgr
  3
AcMeServices
 90
        0
280
     0
281
     0
  0
CLASS
  1
AMGSETTINGSOBJ
  2
AmgSettingsObj
  3
"AcadM|Product Description: AutoCAD Mechanical 2000|Company: Autodesk"
 90
        0
280
     0
281
     0
  0
CLASS
  1
AMGOBJPROPCFG
  2
AmgObjPropCfg
  3
"AmgLay|Product Description: AutoCAD Mechanical 2000|Company: Autodesk"
 90
        1
280
     0
281
     0
  0
CLASS
  1
ACMDATADICTIONARY
  2
AcmDataDictionary
  3
"AcmSymBB|Product Description: AutoCAD Mechanical 2004 DX|Company: Autodesk"
 90
        0
280
     0
281
     0
  0
CLASS
  1
ACMDATAENTRYBLOCK
  2
AcmDataEntryBlock
  3
"AcmSymBB|Product Description: AutoCAD Mechanical 2004 DX|Company: Autodesk"
 90
    32768
280
     0
281
     0
  0
CLASS
  1
ACIMSTRSYSVAR
  2
AcImStrSysVar
  3
AcMeServices
 90
        0
280
     0
281
     0
  0
CLASS
  1
ACAMGFILTERDAT
  2
AcAmgFilterDat
  3
"AcadM|Product Description: AutoCAD Mechanical 2000|Company: Autodesk"
 90
    32768
280
     0
281
     0
  0
CLASS
  1
LAYER_INDEX
  2
AcDbLayerIndex
  3
ObjectDBX Classes
 90
        0
280
     0
281
     0
  0
CLASS
  1
IDBUFFER
  2
AcDbIdBuffer
  3
ObjectDBX Classes
 90
        0
280
     0
281
     0
  0
CLASS
  1
ACMSTANDARDJIS
  2
AcmStandardJIS
  3
"Amdt_StdImp|Product Description: AutoCAD Mechanical 2004 DX|Company: Autodesk"
 90
    32768
280
     0
281
     0
  0
CLASS
  1
ACMSURFSTANDARDJIS
  2
AcmSurfTextStdJIS
  3
"Amdt_StdImp|Product Description: AutoCAD Mechanical 2004 DX|Company: Autodesk"
 90
    32768
280
     0
281
     0
  0
CLASS
  1
ACMFCFSTANDARDJIS
  2
AcmFCFStdJIS
  3
"Amdt_StdImp|Product Description: AutoCAD Mechanical 2004 DX|Company: Autodesk"
 90
    32768
280
     0
281
     0
  0
CLASS
  1
ACMWELDSTANDARDJIS
  2
AcmWeldingStdJIS
  3
"Amdt_StdImp|Product Description: AutoCAD Mechanical 2004 DX|Company: Autodesk"
 90
    32768
280
     0
281
     0
  0
CLASS
  1
ACMIDSTANDARDJIS
  2
AcmIdStdJIS
  3
"Amdt_StdImp|Product Description: AutoCAD Mechanical 2004 DX|Company: Autodesk"
 90
    32768
280
     0
281
     0
  0
CLASS
  1
ACMDATUMSTANDARDJIS
  2
AcmDatumStdJIS
  3
"Amdt_StdImp|Product Description: AutoCAD Mechanical 2004 DX|Company: Autodesk"
 90
    32768
280
     0
281
     0
  0
CLASS
  1
ACMBOMSTANDARDJIS
  2
AcmBOMStdJIS
  3
"Amdt_StdImp|Product Description: AutoCAD Mechanical 2004 DX|Company: Autodesk"
 90
    32768
280
     0
281
     0
  0
CLASS
  1
AMDTNOTE
  2
AmdtNote
  3
"AcmSymBB|Product Description: AutoCAD Mechanical 2004 DX|Company: Autodesk"
 90
    33791
280
     0
281
     1
  0
CLASS
  1
ACMDATAENTRYPART
  2
AcmDataEntryPart
  3
"AcmSymBB|Product Description: AutoCAD Mechanical 2004 DX|Company: Autodesk"
 90
    32768
280
     0
281
     0
  0
CLASS
  1
ACMPARTREF
  2
AcmPartRef
  3
"AcmSymBB|Product Description: AutoCAD Mechanical 2004 DX|Company: Autodesk"
 90
    33791
280
     0
281
     1
  0
CLASS
  1
ACDB_PROXY_ENTITY_DATA
  2
AcDbProxyEntityData
  3
ObjectDBX Classes
 90
    32768
280
     0
281
     0
  0
CLASS
  1
TABLESTYLE
  2
AcDbTableStyle
  3
ObjectDBX Classes
 90
     2047
280
     0
281
     0
  0
CLASS
  1
ACGREFMASTER
  2
AcGrefMaster
  3
AcAttribServices
 90
        0
280
     0
281
     0
  0
CLASS
  1
AM_DRAWING_MGR
  2
AcDmDwgMgr
  3
AcMechDwgViewMgmt
 90
        0
280
     0
281
     0
  0
CLASS
  1
AM_DWG_DOCUMENT
  2
AcDmDwgDocument
  3
AcMechDwgViewMgmt
 90
        0
280
     0
281
     0
  0
CLASS
  1
AM_DWG_SHEET
  2
AcDmSheet
  3
AcMechDwgViewMgmt
 90
        0
280
     0
281
     0
  0
CLASS
  1
AM_VIEWDIMPARMAP
  2
AcDmViewDimParMap
  3
AcMechDwgViewMgmt
 90
        0
280
     0
281
     0
  0
CLASS
  1
AM_DWGMGR_NAME
  2
AcDmDwgMgrName
  3
AcMechDwgViewMgmt
 90
        0
280
     0
281
     0
  0
CLASS
  1
ACGREFACADMASTER
  2
AcGrefacadMaster
  3
AcGrefServices
 90
        0
280
     0
281
     0
  0
CLASS
  1
AMDTMENUSTATEMGR
  2
AmdtMenuStateMgr
  3
McadcomServices
 90
        0
280
     0
281
     0
  0
CLASS
  1
AMDTMCOMMENUSTATE
  2
AmdtMcomMenuState
  3
McadcomServices
 90
        0
280
     0
281
     0
  0
CLASS
  1
AMIMASTER
  2
AmiMaster
  3
AmiServices
 90
        0
280
     0
281
     0
  0
CLASS
  1
MAPIAMMOUDLE
  2
MApiAmModule
  3
MApiAmServices
 90
        0
280
     0
281
     0
  0
CLASS
  1
AMDTADMENUSTATE
  2
AmdtAdMenuState
  3
DesignerServices
 90
        0
280
     0
281
     0
  0
CLASS
  1
ADAPPL
  2
AcAdAppl
  3
DesignerServices
 90
        0
280
     0
281
     0
  0
CLASS
  1
DEPMGR
  2
AcAdDepMgr
  3
DesignerServices
 90
        0
280
     0
281
     0
  0
CLASS
  1
PARAMMGR
  2
AcAdParamMgr
  3
DesignerServices
 90
        0
280
     0
281
     0
  0
CLASS
  1
PARAMSCOPE
  2
AcAdParamScope
  3
DesignerServices
 90
        0
280
     0
281
     0
  0
CLASS
  1
NAMEDAPPL
  2
AcAdNamedAppl
  3
DesignerServices
 90
        0
280
     0
281
     0
  0
CLASS
  1
AMDTDMMENUSTATE
  2
AmdtDmMenuState
  3
AcMechDwgViewMgmt
 90
        0
280
     0
281
     0
  0
CLASS
  1
AMDTAMMENUSTATE
  2
AmdtAmMenuState
  3
DesignerAssemblies
 90
        0
280
     0
281
     0
  0
CLASS
  1
ACAMPROJECT
  2
AcAmProject
  3
DesignerAssemblies
 90
        0
280
     0
281
     0
  0
CLASS
  1
ACAMGRCOMPDEF
  2
AcAmGrCompDef
  3
DesignerAssemblies
 90
        0
280
     0
281
     0
  0
CLASS
  1
ACCMCONTEXT
  2
AcCmContext
  3
DesignerAssemblies
 90
        0
280
     0
281
     0
  0
CLASS
  1
ACAMCOMPDEF
  2
AcAmCompDef
  3
DesignerAssemblies
 90
        0
280
     0
281
     0
  0
CLASS
  1
ACAMCOMPDEFMGR
  2
AcAmCompDefMgr
  3
DesignerAssemblies
 90
        0
280
     0
281
     0
  0
CLASS
  1
AMCONTEXTMGR
  2
AcAmContextMgr
  3
DesignerAssemblies
 90
        0
280
     0
281
     0
  0
CLASS
  1
ACAMCONTEXTMODELER
  2
AcAmContextModeler
  3
DesignerAssemblies
 90
        0
280
     0
281
     0
  0
CLASS
  1
CATALOGSTATE
  2
AcAmCatalogState
  3
DesignerAssemblies
 90
        0
280
     0
281
     0
  0
CLASS
  1
ACAMGRCOMPDEFSET
  2
AcAmGrCompDefSet
  3
DesignerAssemblies
 90
        0
280
     0
281
     0
  0
CLASS
  1
AMDTBROWSERDBTAB
  2
AmdtBrowserDbTab
  3
McadcomServices
 90
        0
280
     0
281
     0
  0
CLASS
  1
CBROWSERAPPOBJECT
  2
CBrowserAppObject
  3
McadcomServices
 90
        0
280
     0
281
     0
  0
CLASS
  1
DM_PLACEHOLDER
  2
AcDmSelsetPlaceholder
  3
AcMechDwgViewMgmt
 90
        0
280
     0
281
     0
  0
CLASS
  1
ACMSTANDARDISO
  2
AcmStandardISO
  3
"Amdt_StdImp|Product Description: AutoCAD Mechanical 2004 DX|Company: Autodesk"
 90
        0
280
     0
281
     0
  0
CLASS
  1
AMDTEDGESTANDARDISO13715
  2
AmdtEdgeStdISO13715
  3
"Amdt_StdImp|Product Description: AutoCAD Mechanical 2004 DX|Company: Autodesk"
 90
        0
280
     0
281
     0
  0
CLASS
  1
ACMSURFSTANDARDISO
  2
AcmSurfTextStdISO
  3
"Amdt_StdImp|Product Description: AutoCAD Mechanical 2004 DX|Company: Autodesk"
 90
        0
280
     0
281
     0
  0
CLASS
  1
ACMFCFSTANDARDISO
  2
AcmFCFStdISO
  3
"Amdt_StdImp|Product Description: AutoCAD Mechanical 2004 DX|Company: Autodesk"
 90
        0
280
     0
281
     0
  0
CLASS
  1
ACMWELDSTANDARDISO
  2
AcmWeldingStdISO
  3
"Amdt_StdImp|Product Description: AutoCAD Mechanical 2004 DX|Company: Autodesk"
 90
        0
280
     0
281
     0
  0
CLASS
  1
ACMIDSTANDARDISO
  2
AcmIdStdISO
  3
"Amdt_StdImp|Product Description: AutoCAD Mechanical 2004 DX|Company: Autodesk"
 90
        0
280
     0
281
     0
  0
CLASS
  1
ACMDATUMSTANDARDISO
  2
AcmDatumStdISO
  3
"Amdt_StdImp|Product Description: AutoCAD Mechanical 2004 DX|Company: Autodesk"
 90
        0
280
     0
281
     0
  0
CLASS
  1
ACMBOMSTANDARDISO
  2
AcmBOMStdISO
  3
"Amdt_StdImp|Product Description: AutoCAD Mechanical 2004 DX|Company: Autodesk"
 90
        0
280
     0
281
     0
  0
CLASS
  1
ACMDETAILSTANDARDISO
  2
AmdtDetailSymStdISO
  3
"Amdt_StdImp|Product Description: AutoCAD Mechanical 2004 DX|Company: Autodesk"
 90
        0
280
     0
281
     0
  0
CLASS
  1
ACMSECTIONSTANDARDISO
  2
AmdtSectionSymStdISO
  3
"Amdt_StdImp|Product Description: AutoCAD Mechanical 2004 DX|Company: Autodesk"
 90
        0
280
     0
281
     0
  0
CLASS
  1
ACMCENTERLINESTANDARDISO
  2
AmdtCenterLineStdISO
  3
"Amdt_StdImp|Product Description: AutoCAD Mechanical 2004 DX|Company: Autodesk"
 90
        0
280
     0
281
     0
  0
CLASS
  1
ACMTHREADLINESTANDARDISO
  2
AmdtThreadLineStdISO
  3
"Amdt_StdImp|Product Description: AutoCAD Mechanical 2004 DX|Company: Autodesk"
 90
        0
280
     0
281
     0
  0
CLASS
  1
ACMNOTESTANDARDISO
  2
AmdtNoteStdISO
  3
"Amdt_StdImp|Product Description: AutoCAD Mechanical 2004 DX|Company: Autodesk"
 90
        0
280
     0
281
     0
  0
CLASS
  1
AMDTNOTETEMPLATEDB
  2
AmdtNoteTemplateDB
  3
AMDT_STDIMP_MODULE_NAME
 90
        0
280
     0
281
     0
  0
CLASS
  1
ACAMGLAYSTD
  2
AcAmgLayStd
  3
"AcAmgLayStd|Product Description: AutoCAD Mechanical 2000|Company: Autodesk"
 90
        0
280
     0
281
     0
  0
CLASS
  1
ACAMGDIMSTD
  2
AcAmgDimStd
  3
"AcAmgDimStd|Product Description: AutoCAD Mechanical 2000|Company: Autodesk"
 90
        0
280
     0
281
     0
  0
CLASS
  1
ACAMGHOLECHARTSTDISO
  2
AcAmgHoleChartStdISO
  3
ACMSYMBB_MODULE_NAME
 90
        0
280
     0
281
     0
  0
CLASS
  1
ACAMGTITLESTD
  2
AcAmgTitleStd
  3
"TITLEAPP"
 90
        0
280
     0
281
     0
  0
ENDSEC
  0
SECTION
  2
TABLES
  0
TABLE
  2
VPORT
  5
8
330
0
100
AcDbSymbolTable
 70
     3
  0
VPORT
  5
B4E9
330
8
100
AcDbSymbolTableRecord
100
AcDbViewportTableRecord
  2
*Active
 70
     0
 10
0.0
 20
0.0
 11
1.0
 21
1.0
 12
74.5201109257078
 22
-17.54929110558584
 13
0.0
 23
0.0
 14
2.5
 24
2.5
 15
10.0
 25
10.0
 16
0.0
 26
0.0
 36
1.0
 17
0.0
 27
0.0
 37
0.0
 40
175.6609762777218
 41
2.166073546856464
 42
50.0
 43
0.0
 44
0.0
 50
0.0
 51
0.0
 71
     0
 72
  2000
 73
     1
 74
     3
 75
     0
 76
     0
 77
     0
 78
     0
281
     0
 65
     0
110
0.0
120
0.0
130
0.0
111
1.0
121
0.0
131
0.0
112
0.0
122
1.0
132
0.0
 79
     0
146
0.0
  0
ENDTAB
  0
TABLE
  2
LTYPE
  5
5
330
0
100
AcDbSymbolTable
 70
    17
  0
LTYPE
  5
14
330
5
100
AcDbSymbolTableRecord
100
AcDbLinetypeTableRecord
  2
BYBLOCK
 70
     0
  3

 72
    65
 73
     0
 40
0.0
  0
LTYPE
  5
15
330
5
100
AcDbSymbolTableRecord
100
AcDbLinetypeTableRecord
  2
BYLAYER
 70
     0
  3

 72
    65
 73
     0
 40
0.0
  0
LTYPE
  5
16
330
5
100
AcDbSymbolTableRecord
100
AcDbLinetypeTableRecord
  2
CONTINUOUS
 70
     0
  3
Solid line
 72
    65
 73
     0
 40
0.0
  0
LTYPE
  5
43
330
5
100
AcDbSymbolTableRecord
100
AcDbLinetypeTableRecord
  2
AM_ISO02W050
 70
     0
  3
__ __ __ __ __ __ __ __ __ __ __ __ __ __ __
 72
    65
 73
     2
 40
7.5
 49
6.0
 74
     0
 49
-1.5
 74
     0
  0
LTYPE
  5
44
330
5
100
AcDbSymbolTableRecord
100
AcDbLinetypeTableRecord
  2
AM_ISO08W050
 70
     0
  3
____ . ____ . ____ . ____ . ____ . ____ . ____
 72
    65
 73
     4
 40
18.0
 49
12.0
 74
     0
 49
-1.5
 74
     0
 49
3.0
 74
     0
 49
-1.5
 74
     0
  0
LTYPE
  5
45
330
5
100
AcDbSymbolTableRecord
100
AcDbLinetypeTableRecord
  2
AM_ISO09W050
 70
     0
  3
_____ . . _____ . . _____ . . ____ .. ____
 72
    65
 73
     6
 40
22.5
 49
12.0
 74
     0
 49
-1.5
 74
     0
 49
3.0
 74
     0
 49
-1.5
 74
     0
 49
3.0
 74
     0
 49
-1.5
 74
     0
  0
LTYPE
  5
46
330
5
100
AcDbSymbolTableRecord
100
AcDbLinetypeTableRecord
  2
AMCONSTR
 70
     0
  3
_______________________
 72
    65
 73
     2
 40
9999.0
 49
9999.0
 74
     0
 49
0.0
 74
     0
  0
LTYPE
  5
47
330
5
100
AcDbSymbolTableRecord
100
AcDbLinetypeTableRecord
  2
AM_ISO02W050X2
 70
     0
  3
 _ _ _ _ _ _ _ _ _ _ _ _
 72
    65
 73
     2
 40
3.75
 49
3.0
 74
     0
 49
-0.75
 74
     0
  0
LTYPE
  5
48
330
5
100
AcDbSymbolTableRecord
100
AcDbLinetypeTableRecord
  2
AM_ISO08W050X2
 70
     0
  3
__ . __ . __ . __ . __ . __
 72
    65
 73
     4
 40
9.0
 49
6.0
 74
     0
 49
-0.75
 74
     0
 49
1.5
 74
     0
 49
-0.75
 74
     0
  0
LTYPE
  5
4B
330
5
100
AcDbSymbolTableRecord
100
AcDbLinetypeTableRecord
  2
AMZIGZAG
 70
     0
  3
/\/-/\/-/\/-/\/-/\/-/\/
 72
    65
 73
     2
 40
11.00009999999999
 49
0.0001
 74
     4
 75
   135
340
4A
 46
0.04
 50
0.0
 44
0.0
 45
0.0
 49
-11.0
 74
     0
  0
LTYPE
  5
B438
330
5
100
AcDbSymbolTableRecord
100
AcDbLinetypeTableRecord
  2
HIDDEN
 70
     0
  3
Hidden __ __ __ __ __ __ __ __ __ __ __ __ __ _
 72
    65
 73
     2
 40
9.524999999999998
 49
6.349999999999999
 74
     0
 49
-3.174999999999999
 74
     0
  0
LTYPE
  5
B439
330
5
100
AcDbSymbolTableRecord
100
AcDbLinetypeTableRecord
  2
PHANTOM2
 70
     0
  3
Phantom (.5x) ___ _ _ ___ _ _ ___ _ _ ___ _ _
 72
    65
 73
     6
 40
31.75
 49
15.875
 74
     0
 49
-3.174999999999999
 74
     0
 49
3.174999999999999
 74
     0
 49
-3.174999999999999
 74
     0
 49
3.174999999999999
 74
     0
 49
-3.174999999999999
 74
     0
  0
LTYPE
  5
B43A
330
5
100
AcDbSymbolTableRecord
100
AcDbLinetypeTableRecord
  2
CENTER
 70
     0
  3
Center ____ _ ____ _ ____ _ ____ _ ____ _ ____
 72
    65
 73
     4
 40
50.8
 49
31.75
 74
     0
 49
-6.349999999999999
 74
     0
 49
6.349999999999999
 74
     0
 49
-6.349999999999999
 74
     0
  0
LTYPE
  5
B47A
330
5
100
AcDbSymbolTableRecord
100
AcDbLinetypeTableRecord
  2
ACISOWELD
 70
     0
  3
_ _ _ _ _
 72
    65
 73
     2
 40
2.0
 49
2.0
 74
     0
 49
-1.0
 74
     0
  0
LTYPE
  5
B47B
330
5
100
AcDbSymbolTableRecord
100
AcDbLinetypeTableRecord
  2
ACISOTGB
 70
     0
  3
__ . . __ . .
 72
    65
 73
     6
 40
9.0
 49
4.0
 74
     0
 49
-1.0
 74
     0
 49
1.0
 74
     0
 49
-1.0
 74
     0
 49
1.0
 74
     0
 49
-1.0
 74
     0
  0
LTYPE
  5
B47C
330
5
100
AcDbSymbolTableRecord
100
AcDbLinetypeTableRecord
  2
ACISOTGL
 70
     0
  3
_ _ _ _ _
 72
    65
 73
     2
 40
3.0
 49
2.0
 74
     0
 49
-1.0
 74
     0
  0
ENDTAB
  0
TABLE
  2
LAYER
  5
2
330
0
100
AcDbSymbolTable
 70
    13
  0
LAYER
  5
10
330
2
100
AcDbSymbolTableRecord
100
AcDbLayerTableRecord
  2
0
 70
     0
 62
     7
  6
CONTINUOUS
370
    -3
390
F
  0
LAYER
  5
7D
330
2
100
AcDbSymbolTableRecord
100
AcDbLayerTableRecord
  2
AM_5
 70
     0
 62
     3
  6
CONTINUOUS
370
    -3
390
F
  0
LAYER
  5
7F
330
2
100
AcDbSymbolTableRecord
100
AcDbLayerTableRecord
  2
DEFPOINTS
 70
     0
 62
     7
  6
CONTINUOUS
290
     0
370
    -3
390
F
  0
LAYER
  5
12B1
330
2
100
AcDbSymbolTableRecord
100
AcDbLayerTableRecord
  2
AM_0
 70
     0
 62
     7
  6
CONTINUOUS
370
    -3
390
F
  0
LAYER
  5
2222
330
2
100
AcDbSymbolTableRecord
100
AcDbLayerTableRecord
  2
AM_6
 70
     0
 62
     2
  6
CONTINUOUS
370
    -3
390
F
  0
LAYER
  5
7DB2
330
2
100
AcDbSymbolTableRecord
100
AcDbLayerTableRecord
  2
AM_7
 70
     0
 62
     4
  6
AM_ISO08W050
370
    -3
390
F
  0
ENDTAB
  0
TABLE
  2
STYLE
  5
3
330
0
100
AcDbSymbolTable
 70
     6
  0
STYLE
  5
11
330
3
100
AcDbSymbolTableRecord
100
AcDbTextStyleTableRecord
  2
STANDARD
 70
     0
 40
0.0
 41
1.0
 50
0.0
 71
     0
 42
2.5
  3
ISOCP.SHX
  4
EXTFONT.SHX
  0
STYLE
  5
4A
330
3
100
AcDbSymbolTableRecord
100
AcDbTextStyleTableRecord
  2

 70
     1
 40
0.0
 41
1.0
 50
0.0
 71
     0
 42
2.5
  3
ltypeshp.shx
  4

  0
STYLE
  5
B46C
330
3
100
AcDbSymbolTableRecord
100
AcDbTextStyleTableRecord
  2
ACISOTS
 70
     0
 40
1.0
 41
1.0
 50
0.0
 71
     0
 42
2.5
  3
isocp.shx
  4
extfont.shx
  0
STYLE
  5
B479
330
3
100
AcDbSymbolTableRecord
100
AcDbTextStyleTableRecord
  2
ACISOGDT
 70
     0
 40
0.0
 41
1.0
 50
0.0
 71
     0
 42
2.5
  3
amgdt.shx
  4

  0
ENDTAB
  0
TABLE
  2
VIEW
  5
6
330
0
100
AcDbSymbolTable
 70
     6
  0
VIEW
  5
A30
330
6
100
AcDbSymbolTableRecord
100
AcDbViewTableRecord
  2
AM_VIEW1
 70
     0
 40
148.5
 10
112.0719649561952
 20
222.75
 41
224.1439299123904
 11
0.0
 21
0.0
 31
1.0
 12
0.0
 22
0.0
 32
0.0
 42
50.0
 43
0.0
 44
0.0
 50
0.0
 71
     0
281
     0
 72
     0
  0
VIEW
  5
A31
330
6
100
AcDbSymbolTableRecord
100
AcDbViewTableRecord
  2
AM_VIEW2
 70
     0
 40
148.5
 10
307.9280350438047
 20
222.75
 41
224.1439299123904
 11
0.0
 21
0.0
 31
1.0
 12
0.0
 22
0.0
 32
0.0
 42
50.0
 43
0.0
 44
0.0
 50
0.0
 71
     0
281
     0
 72
     0
  0
VIEW
  5
A32
330
6
100
AcDbSymbolTableRecord
100
AcDbViewTableRecord
  2
AM_VIEW3
 70
     0
 40
148.5
 10
112.0719649561952
 20
74.25
 41
224.1439299123904
 11
0.0
 21
0.0
 31
1.0
 12
0.0
 22
0.0
 32
0.0
 42
50.0
 43
0.0
 44
0.0
 50
0.0
 71
     0
281
     0
 72
     0
  0
VIEW
  5
A33
330
6
100
AcDbSymbolTableRecord
100
AcDbViewTableRecord
  2
AM_VIEW4
 70
     0
 40
148.5
 10
307.9280350438047
 20
74.25
 41
224.1439299123904
 11
0.0
 21
0.0
 31
1.0
 12
0.0
 22
0.0
 32
0.0
 42
50.0
 43
0.0
 44
0.0
 50
0.0
 71
     0
281
     0
 72
     0
  0
VIEW
  5
A34
330
6
100
AcDbSymbolTableRecord
100
AcDbViewTableRecord
  2
AM_VIEW5
 70
     0
 40
148.5
 10
210.0
 20
148.5
 41
224.1439299123904
 11
0.0
 21
0.0
 31
1.0
 12
0.0
 22
0.0
 32
0.0
 42
50.0
 43
0.0
 44
0.0
 50
0.0
 71
     0
281
     0
 72
     0
  0
VIEW
  5
A35
330
6
100
AcDbSymbolTableRecord
100
AcDbViewTableRecord
  2
AM_VIEW6
 70
     0
 40
296.9970299999999
 10
210.0
 20
148.5
 41
448.2833769461826
 11
0.0
 21
0.0
 31
1.0
 12
0.0
 22
0.0
 32
0.0
 42
50.0
 43
0.0
 44
0.0
 50
0.0
 71
     0
281
     0
 72
     0
  0
ENDTAB
  0
TABLE
  2
UCS
  5
7
330
0
100
AcDbSymbolTable
 70
     0
  0
ENDTAB
  0
TABLE
  2
APPID
  5
9
330
0
100
AcDbSymbolTable
 70
    42
  0
APPID
  5
12
330
9
100
AcDbSymbolTableRecord
100
AcDbRegAppTableRecord
  2
ACAD
 70
     0
  0
APPID
  5
2C
330
9
100
AcDbSymbolTableRecord
100
AcDbRegAppTableRecord
  2
MCAD_NO_VIS
 70
     0
  0
APPID
  5
2D
330
9
100
AcDbSymbolTableRecord
100
AcDbRegAppTableRecord
  2
ACAD_TEMP_GRAPHIC
 70
     0
  0
APPID
  5
B9
330
9
100
AcDbSymbolTableRecord
100
AcDbRegAppTableRecord
  2
GENIUS_GENDTOL_13
 70
     0
  0
APPID
  5
359
330
9
100
AcDbSymbolTableRecord
100
AcDbRegAppTableRecord
  2
GENIUS_GENREC_14
 70
     0
  0
APPID
  5
35A
330
9
100
AcDbSymbolTableRecord
100
AcDbRegAppTableRecord
  2
GENIUS_GENODEF_13
 70
     0
  0
APPID
  5
35B
330
9
100
AcDbSymbolTableRecord
100
AcDbRegAppTableRecord
  2
GENIUS_GENOBJ-N-REC_13
 70
     0
  0
APPID
  5
667
330
9
100
AcDbSymbolTableRecord
100
AcDbRegAppTableRecord
  2
GENIUS_GENCFG_13
 70
     0
  0
APPID
  5
668
330
9
100
AcDbSymbolTableRecord
100
AcDbRegAppTableRecord
  2
GENIUS_GENCFG0_13
 70
     0
  0
APPID
  5
669
330
9
100
AcDbSymbolTableRecord
100
AcDbRegAppTableRecord
  2
GENIUS_GENCFG1_13
 70
     0
  0
APPID
  5
66A
330
9
100
AcDbSymbolTableRecord
100
AcDbRegAppTableRecord
  2
GENIUS_GENCFG2_13
 70
     0
  0
APPID
  5
66B
330
9
100
AcDbSymbolTableRecord
100
AcDbRegAppTableRecord
  2
GENIUS_GENCFG3_13
 70
     0
  0
APPID
  5
66C
330
9
100
AcDbSymbolTableRecord
100
AcDbRegAppTableRecord
  2
GENIUS_GENCFG4_13
 70
     0
  0
APPID
  5
A76
330
9
100
AcDbSymbolTableRecord
100
AcDbRegAppTableRecord
  2
GENIUS_GENBLLY_14
 70
     0
  0
APPID
  5
A77
330
9
100
AcDbSymbolTableRecord
100
AcDbRegAppTableRecord
  2
GENIUS_GENOBJ-N-CEN_13
 70
     0
  0
APPID
  5
A83
330
9
100
AcDbSymbolTableRecord
100
AcDbRegAppTableRecord
  2
GENIUS_GENTRA_14
 70
     0
  0
APPID
  5
A8D
330
9
100
AcDbSymbolTableRecord
100
AcDbRegAppTableRecord
  2
GENIUS_GENOBJ-N-TIT_13
 70
     0
  0
APPID
  5
A8E
330
9
100
AcDbSymbolTableRecord
100
AcDbRegAppTableRecord
  2
GENIUS_GENTITLE_13
 70
     0
  0
APPID
  5
A8F
330
9
100
AcDbSymbolTableRecord
100
AcDbRegAppTableRecord
  2
GENIUS_GENOENT_13
 70
     0
  0
APPID
  5
A90
330
9
100
AcDbSymbolTableRecord
100
AcDbRegAppTableRecord
  2
GENIUS_GENOREF_13
 70
     0
  0
APPID
  5
A91
330
9
100
AcDbSymbolTableRecord
100
AcDbRegAppTableRecord
  2
GENIUS_GENOLIS_13
 70
     0
  0
APPID
  5
A92
330
9
100
AcDbSymbolTableRecord
100
AcDbRegAppTableRecord
  2
GENIUS_GENZVEED_13
 70
     0
  0
APPID
  5
A93
330
9
100
AcDbSymbolTableRecord
100
AcDbRegAppTableRecord
  2
GENIUS_GENSCREG_15
 70
     0
  0
APPID
  5
A94
330
9
100
AcDbSymbolTableRecord
100
AcDbRegAppTableRecord
  2
GENIUS_GENOBJ-N-SDF_13
 70
     0
  0
APPID
  5
12B5
330
9
100
AcDbSymbolTableRecord
100
AcDbRegAppTableRecord
  2
GENIUS_GENOBJ-N-RSBK_13
 70
     0
  0
APPID
  5
12B6
330
9
100
AcDbSymbolTableRecord
100
AcDbRegAppTableRecord
  2
GENIUS_GENOBJ-N-LIB_13
 70
     0
  0
APPID
  5
12B7
330
9
100
AcDbSymbolTableRecord
100
AcDbRegAppTableRecord
  2
GENIUS_GENSCALE_13
 70
     0
  0
APPID
  5
12B8
330
9
100
AcDbSymbolTableRecord
100
AcDbRegAppTableRecord
  2
GENIUS_GENOBJ-N-HTC_13
 70
     0
  0
APPID
  5
12B9
330
9
100
AcDbSymbolTableRecord
100
AcDbRegAppTableRecord
  2
GENIUS_GENHATCH_13
 70
     0
  0
APPID
  5
1C0A
330
9
100
AcDbSymbolTableRecord
100
AcDbRegAppTableRecord
  2
BASE_TYPE
 70
     0
  0
APPID
  5
276B
330
9
100
AcDbSymbolTableRecord
100
AcDbRegAppTableRecord
  2
GENIUS_GENOBJ-N-FIL_13
 70
     0
  0
APPID
  5
3640
330
9
100
AcDbSymbolTableRecord
100
AcDbRegAppTableRecord
  2
GENIUS_GENBH_13
 70
     0
  0
APPID
  5
36D1
330
9
100
AcDbSymbolTableRecord
100
AcDbRegAppTableRecord
  2
GENIUS_GENOBJ-F-SPR_13
 70
     0
  0
APPID
  5
36DA
330
9
100
AcDbSymbolTableRecord
100
AcDbRegAppTableRecord
  2
GENIUS_GEFSPRING_13
 70
     0
  0
APPID
  5
36DB
330
9
100
AcDbSymbolTableRecord
100
AcDbRegAppTableRecord
  2
GENIUS_GEFSPRINGP_13
 70
     0
  0
APPID
  5
4D67
330
9
100
AcDbSymbolTableRecord
100
AcDbRegAppTableRecord
  2
GENIUS_GENFIL_13
 70
     0
  0
APPID
  5
4D68
330
9
100
AcDbSymbolTableRecord
100
AcDbRegAppTableRecord
  2
GENIUS_GENOBJ-N-CHA_13
 70
     0
  0
APPID
  5
B43C
330
9
100
AcDbSymbolTableRecord
100
AcDbRegAppTableRecord
  2
AD_DRAW
 70
     0
  0
APPID
  5
B43F
330
9
100
AcDbSymbolTableRecord
100
AcDbRegAppTableRecord
  2
ACATTRIBSERVICES
 70
     0
  0
APPID
  5
B45D
330
9
100
AcDbSymbolTableRecord
100
AcDbRegAppTableRecord
  2
DESIGNERASSEMBLIES
 70
     0
  0
APPID
  5
B462
330
9
100
AcDbSymbolTableRecord
100
AcDbRegAppTableRecord
  2
ACADM_DIM_EDIT
 70
     0
  0
APPID
  5
B463
330
9
100
AcDbSymbolTableRecord
100
AcDbRegAppTableRecord
  2
AMDT_DM_ADJ
 70
     0
  0
ENDTAB
  0
TABLE
  2
DIMSTYLE
  5
A
330
0
100
AcDbSymbolTable
 70
    20
100
AcDbDimStyleTable
 71
     0
  0
DIMSTYLE
105
58
330
A
100
AcDbSymbolTableRecord
100
AcDbDimStyleTableRecord
  2
AM_JIS
 70
     0
  4
"
 41
2.5
 42
0.0
 43
10.0
 44
1.0
 47
0.1
 48
0.1000000001
 73
     0
 74
     0
 77
     3
 78
     9
140
3.799999999999998
141
0.0
143
0.0393701
146
0.71
147
1.5
172
     1
176
   256
177
   256
178
     2
271
     2
272
     2
275
     1
283
     0
284
     8
340
11
341
59
342
59
  0
DIMSTYLE
105
65F
330
A
100
AcDbSymbolTableRecord
100
AcDbDimStyleTableRecord
  2
STANDARD
 70
     0
340
11
  0
DIMSTYLE
105
1761
102
{ACAD_REACTORS
330
B2D4
330
B2E1
330
B2F0
330
B30B
330
B318
330
B325
330
B334
330
B341
330
B34E
102
}
330
A
100
AcDbSymbolTableRecord
100
AcDbDimStyleTableRecord
  2
AM_JIS$0
 70
     0
  4
"
 41
2.5
 42
0.0
 43
10.0
 44
1.0
 47
0.1
 48
0.1000000001
 73
     0
 74
     0
 77
     3
 78
     9
140
3.799999999999998
141
0.0
143
0.0393701
146
0.71
147
1.5
172
     1
176
     3
177
     3
178
     2
271
     2
272
     2
275
     1
283
     0
284
     8
340
11
341
59
342
59
  0
DIMSTYLE
105
B485
330
A
100
AcDbSymbolTableRecord
100
AcDbDimStyleTableRecord
  2
AM_ISO
 70
     0
  4
"
 41
2.5
 42
1.0
 43
10.0
 44
1.0
 47
0.1
 48
0.1
 73
     0
 74
     0
 77
     1
 78
     8
 79
     2
140
3.5
141
0.0
143
0.0393701
146
0.71
147
1.5
172
     1
176
   256
177
   256
178
     2
271
     2
272
     3
274
     4
283
     0
284
     8
340
11
371
    -1
372
    -1
  0
DIMSTYLE
105
B486
330
A
100
AcDbSymbolTableRecord
100
AcDbDimStyleTableRecord
  2
AM_ISO$3
 70
     0
  4
"
 41
2.5
 42
1.0
 43
10.0
 44
1.0
 47
0.1
 48
0.1
 73
     0
 77
     1
 78
     8
 79
     2
140
3.5
141
0.0
143
0.0393701
146
0.71
147
1.5
176
   256
177
   256
178
     2
271
     2
272
     3
274
     4
283
     0
284
     8
288
     1
289
     0
340
11
371
    -1
372
    -1
  0
DIMSTYLE
105
B487
330
A
100
AcDbSymbolTableRecord
100
AcDbDimStyleTableRecord
  2
AM_ISO$4
 70
     0
  4
"
 41
2.5
 42
1.0
 43
10.0
 44
1.0
 47
0.1
 48
0.1
 73
     0
 77
     1
 78
     8
 79
     2
140
3.5
141
0.0
143
0.0393701
146
0.71
147
1.5
176
   256
177
   256
178
     2
271
     2
272
     3
274
     4
283
     0
284
     8
288
     1
289
     0
340
11
371
    -1
372
    -1
  0
DIMSTYLE
105
B488
330
A
100
AcDbSymbolTableRecord
100
AcDbDimStyleTableRecord
  2
AM_ISO$6
 70
     0
  4
"
 41
2.5
 42
1.0
 43
10.0
 44
1.0
 47
0.1
 48
0.1
 73
     0
 74
     0
 78
     8
 79
     2
140
3.5
141
0.0
143
0.0393701
146
0.71
147
1.5
172
     1
176
   256
177
   256
178
     2
271
     2
272
     3
274
     4
283
     0
284
     8
340
11
371
    -1
372
    -1
  0
DIMSTYLE
105
B489
330
A
100
AcDbSymbolTableRecord
100
AcDbDimStyleTableRecord
  2
AM_ISO$7
 70
     0
  4
"
 41
2.5
 42
1.0
 43
10.0
 44
1.0
 47
0.1
 48
0.1
 73
     0
 74
     0
 77
     1
 78
     8
 79
     2
140
5.0
141
0.0
143
0.0393701
146
0.71
147
1.5
172
     1
176
   256
177
   256
178
     2
271
     2
272
     3
274
     4
283
     0
284
     8
340
11
371
    -1
372
    -1
  0
DIMSTYLE
105
B48A
330
A
100
AcDbSymbolTableRecord
100
AcDbDimStyleTableRecord
  2
AM_ISO$SF
 70
     0
  4
"
 41
2.5
 42
1.0
 43
10.0
 44
1.0
 47
0.1
 48
0.1
 73
     0
 74
     0
 75
     1
 76
     1
 77
     1
 78
     8
 79
     2
140
3.5
141
0.0
143
0.0393701
146
0.71
147
1.5
172
     1
176
   256
177
   256
178
     2
271
     2
272
     3
274
     4
283
     0
284
     8
340
11
371
    -1
372
    -1
  0
DIMSTYLE
105
B48B
330
A
100
AcDbSymbolTableRecord
100
AcDbDimStyleTableRecord
  2
AM_ISO$SH
 70
     0
  4
"
 41
2.5
 42
1.0
 43
10.0
 44
1.0
 47
0.1
 48
0.1
 73
     0
 74
     0
 75
     1
 76
     1
 77
     1
 78
     8
 79
     2
140
3.5
141
0.0
143
0.0393701
144
2.0
146
0.71
147
1.5
172
     1
173
     1
176
   256
177
   256
178
     2
271
     2
272
     3
274
     4
283
     0
284
     8
340
11
343
64
371
    -1
372
    -1
  0
ENDTAB
  0
TABLE
  2
BLOCK_RECORD
  5
1
330
0
100
AcDbSymbolTable
 70
    20
  0
BLOCK_RECORD
  5
1F
102
{ACAD_XDICTIONARY
360
165
102
}
330
1
100
AcDbSymbolTableRecord
100
AcDbBlockTableRecord
  2
*MODEL_SPACE
340
B404
  0
BLOCK_RECORD
  5
1B
102
{ACAD_XDICTIONARY
360
B3F7
102
}
330
1
100
AcDbSymbolTableRecord
100
AcDbBlockTableRecord
  2
*PAPER_SPACE
340
B405
  0
BLOCK_RECORD
  5
59
330
1
100
AcDbSymbolTableRecord
100
AcDbBlockTableRecord
  2
_OPEN30
340
0
102
{BLKREFS
331
B492
331
B493
331
B49D
331
B49E
331
B4A8
331
B4A9
331
B4B1
331
B4B2
331
B4BA
331
B4BB
331
B4C5
331
B4C6
331
B4CE
331
B4CF
331
B4D7
331
B4D8
331
B4E0
331
B4E1
102
}
  0
BLOCK_RECORD
  5
64
330
1
100
AcDbSymbolTableRecord
100
AcDbBlockTableRecord
  2
GENAXEH
340
0
  0
BLOCK_RECORD
  5
AB1E
330
1
100
AcDbSymbolTableRecord
100
AcDbBlockTableRecord
  2
CBF06
340
0
102
{BLKREFS
331
B1C3
102
}
  0
BLOCK_RECORD
  5
B2D5
330
1
100
AcDbSymbolTableRecord
100
AcDbBlockTableRecord
  2
*D10
340
0
  0
BLOCK_RECORD
  5
B2E2
330
1
100
AcDbSymbolTableRecord
100
AcDbBlockTableRecord
  2
*D11
340
0
  0
BLOCK_RECORD
  5
B2F1
330
1
100
AcDbSymbolTableRecord
100
AcDbBlockTableRecord
  2
*D12
340
0
  0
BLOCK_RECORD
  5
B30C
330
1
100
AcDbSymbolTableRecord
100
AcDbBlockTableRecord
  2
*D13
340
0
  0
BLOCK_RECORD
  5
B319
330
1
100
AcDbSymbolTableRecord
100
AcDbBlockTableRecord
  2
*D14
340
0
  0
BLOCK_RECORD
  5
B326
330
1
100
AcDbSymbolTableRecord
100
AcDbBlockTableRecord
  2
*D15
340
0
  0
BLOCK_RECORD
  5
B335
330
1
100
AcDbSymbolTableRecord
100
AcDbBlockTableRecord
  2
*D16
340
0
  0
BLOCK_RECORD
  5
B342
330
1
100
AcDbSymbolTableRecord
100
AcDbBlockTableRecord
  2
*D17
340
0
  0
BLOCK_RECORD
  5
B34F
330
1
100
AcDbSymbolTableRecord
100
AcDbBlockTableRecord
  2
*D18
340
0
  0
ENDTAB
  0
ENDSEC
  0
SECTION
  2
BLOCKS
  0
BLOCK
  5
20
330
1F
100
AcDbEntity
  8
0
100
AcDbBlockBegin
  2
*MODEL_SPACE
 70
     0
 10
0.0
 20
0.0
 30
0.0
  3
*MODEL_SPACE
  1

  0
ENDBLK
  5
21
330
1F
100
AcDbEntity
  8
0
100
AcDbBlockEnd
  0
BLOCK
  5
1C
330
1B
100
AcDbEntity
 67
     1
  8
0
100
AcDbBlockBegin
  2
*PAPER_SPACE
 70
     0
 10
0.0
 20
0.0
 30
0.0
  3
*PAPER_SPACE
  1

  0
ENDBLK
  5
1D
330
1B
100
AcDbEntity
 67
     1
  8
0
100
AcDbBlockEnd
  0
BLOCK
  5
5D
330
59
100
AcDbEntity
  8
0
100
AcDbBlockBegin
  2
_OPEN30
 70
     0
 10
0.0
 20
0.0
 30
0.0
  3
_OPEN30
  1

  0
LINE
  5
5A
330
59
100
AcDbEntity
  8
0
 62
     0
100
AcDbLine
 10
-1.0
 20
0.26794919
 30
0.0
 11
0.0
 21
0.0
 31
0.0
  0
LINE
  5
5B
330
59
100
AcDbEntity
  8
0
 62
     0
100
AcDbLine
 10
0.0
 20
0.0
 30
0.0
 11
-1.0
 21
-0.26794919
 31
0.0
  0
LINE
  5
5C
330
59
100
AcDbEntity
  8
0
 62
     0
100
AcDbLine
 10
0.0
 20
0.0
 30
0.0
 11
-1.0
 21
0.0
 31
0.0
  0
ENDBLK
  5
5E
330
59
100
AcDbEntity
  8
0
100
AcDbBlockEnd
  0
BLOCK
  5
66
330
64
100
AcDbEntity
  8
0
100
AcDbBlockBegin
  2
GENAXEH
 70
     0
 10
0.0
 20
0.0
 30
0.0
  3
GENAXEH
  1

  0
LINE
  5
65
330
64
100
AcDbEntity
  8
0
100
AcDbLine
 10
-1.0
 20
0.0
 30
0.0
 11
1.0
 21
0.0
 31
0.0
  0
ENDBLK
  5
67
330
64
100
AcDbEntity
  8
0
100
AcDbBlockEnd
  0
BLOCK
  5
AB27
330
AB1E
100
AcDbEntity
  8
0
100
AcDbBlockBegin
  2
CBF06
 70
     0
 10
0.0
 20
0.0
 30
0.0
  3
CBF06
  1

  0
CIRCLE
  5
AB1F
330
AB1E
100
AcDbEntity
  8
0
  6
Continuous
100
AcDbCircle
 10
0.0000187875812969
 20
0.0000034482758053
 30
0.0
 40
4.307179353944746
  0
CIRCLE
  5
AB20
330
AB1E
100
AcDbEntity
  8
0
  6
Continuous
100
AcDbCircle
 10
0.0000187875812969
 20
0.0000034482758053
 30
0.0
 40
5.0
  0
LINE
  5
AB21
330
AB1E
100
AcDbEntity
  8
0
  6
Continuous
100
AcDbLine
 10
-1.443356212418706
 20
-2.499995386098901
 30
0.0
 11
1.443393787581185
 21
-2.499995386098901
 31
0.0
  0
LINE
  5
AB22
330
AB1E
100
AcDbEntity
  8
0
  6
Continuous
100
AcDbLine
 10
1.4433937875813
 20
2.500002282650598
 30
0.0
 11
-1.443356212418706
 21
2.500002282650598
 31
0.0
  0
LINE
  5
AB23
330
AB1E
100
AcDbEntity
  8
0
  6
Continuous
100
AcDbLine
 10
-2.886731212418651
 20
0.0000034482758053
 30
0.0
 11
-1.443356212418706
 21
-2.499995386098901
 31
0.0
  0
LINE
  5
AB24
330
AB1E
100
AcDbEntity
  8
0
  6
Continuous
100
AcDbLine
 10
-1.443356212418706
 20
2.500002282650598
 30
0.0
 11
-2.886731212418651
 21
0.0000034482758053
 31
0.0
  0
LINE
  5
AB25
330
AB1E
100
AcDbEntity
  8
0
  6
Continuous
100
AcDbLine
 10
1.443393787581185
 20
-2.499995386098901
 30
0.0
 11
2.886768787581303
 21
0.0000034482758053
 31
0.0
  0
LINE
  5
AB26
330
AB1E
100
AcDbEntity
  8
0
  6
Continuous
100
AcDbLine
 10
2.886768787581303
 20
0.0000034482758053
 30
0.0
 11
1.4433937875813
 21
2.500002282650598
 31
0.0
  0
ENDBLK
  5
AB28
330
AB1E
100
AcDbEntity
  8
0
100
AcDbBlockEnd
  0
BLOCK
  5
B2DF
330
B2D5
100
AcDbEntity
  8
0
100
AcDbBlockBegin
  2
*D10
 70
     1
 10
0.0
 20
0.0
 30
0.0
  3
*D10
  1

  0
LINE
  5
B48F
330
B2D5
100
AcDbEntity
  8
AM_5
 62
     3
370
    -2
100
AcDbLine
 10
25.99985866852879
 20
47.80000000000001
 30
0.0
 11
25.99985866852879
 21
65.34581919373886
 31
0.0
  0
LINE
  5
B490
330
B2D5
100
AcDbEntity
  8
AM_5
 62
     3
370
    -2
100
AcDbLine
 10
-0.0001522932452652
 20
0.2500000000000282
 30
0.0
 11
-0.0001522932452612
 21
65.34581919373886
 31
0.0
  0
LINE
  5
B491
330
B2D5
100
AcDbEntity
  8
AM_5
 62
     3
370
    -2
100
AcDbLine
 10
23.49985866852879
 20
64.34581919373886
 30
0.0
 11
2.499847706754738
 21
64.34581919373886
 31
0.0
  0
INSERT
  5
B492
330
B2D5
100
AcDbEntity
  8
AM_5
 62
     3
370
    -2
100
AcDbBlockReference
  2
_OPEN30
 10
25.99985866852879
 20
64.34581919373886
 30
0.0
 41
2.5
 42
2.5
 43
2.5
  0
INSERT
  5
B493
330
B2D5
100
AcDbEntity
  8
AM_5
 62
     3
370
    -2
100
AcDbBlockReference
  2
_OPEN30
 10
-0.0001522932452612
 20
64.34581919373886
 30
0.0
 41
2.5
 42
2.5
 43
2.5
 50
180.0
  0
MTEXT
  5
B494
330
B2D5
100
AcDbEntity
  8
AM_5
 62
     2
100
AcDbMText
 10
12.99985318764176
 20
67.74619320948689
 30
0.0
 40
3.799999999999998
 41
0.0
 71
     5
 72
     1
  1
26
 73
     1
 44
1.0
1001
ACAD
1000
MTEXTBEGIN
1070
    73
1070
     1
1070
    44
1040
1.0
1070
    74
1070
     0
1000
MTEXTEND
  0
POINT
  5
B495
330
B2D5
100
AcDbEntity
  8
DEFPOINTS
 62
     0
100
AcDbPoint
 10
25.99985866852879
 20
47.80000000000001
 30
0.0
  0
POINT
  5
B496
330
B2D5
100
AcDbEntity
  8
DEFPOINTS
 62
     0
100
AcDbPoint
 10
-0.0001522932452652
 20
0.2500000000000282
 30
0.0
  0
POINT
  5
B497
330
B2D5
100
AcDbEntity
  8
DEFPOINTS
 62
     0
100
AcDbPoint
 10
-0.0001522932452612
 20
64.34581919373886
 30
0.0
  0
ENDBLK
  5
B2E0
330
B2D5
100
AcDbEntity
  8
0
100
AcDbBlockEnd
  0
BLOCK
  5
B2EE
330
B2E2
100
AcDbEntity
  8
0
100
AcDbBlockBegin
  2
*D11
 70
     1
 10
0.0
 20
0.0
 30
0.0
  3
*D11
  1

  0
LINE
  5
B498
330
B2E2
100
AcDbEntity
  8
AM_5
 62
     3
370
    -2
100
AcDbLine
 10
4.000082549859537
 20
0.2587248741756569
 30
0.0
 11
4.000082549859536
 21
-8.184182448936667
 31
0.0
  0
LINE
  5
B499
330
B2E2
100
AcDbEntity
  8
AM_5
 62
     3
370
    -2
100
AcDbLine
 10
-0.0000000000000004
 20
0.2587248741756537
 30
0.0
 11
-0.0000000000000009
 21
-8.184182448936667
 31
0.0
  0
LINE
  5
B49A
330
B2E2
100
AcDbEntity
  8
AM_5
 62
     3
370
    -2
100
AcDbLine
 10
6.500082549859536
 20
-7.184182448936667
 30
0.0
 11
9.000082549859536
 21
-7.184182448936667
 31
0.0
  0
LINE
  5
B49B
330
B2E2
100
AcDbEntity
  8
AM_5
 62
     3
370
    -2
100
AcDbLine
 10
-2.5
 20
-7.184182448936667
 30
0.0
 11
-9.899999999999998
 21
-7.184182448936667
 31
0.0
  0
LINE
  5
B49C
330
B2E2
100
AcDbEntity
  8
AM_5
 62
     3
370
    -2
100
AcDbLine
 10
4.000082549859536
 20
-7.184182448936667
 30
0.0
 11
-0.0000000000000008
 21
-7.184182448936667
 31
0.0
  0
INSERT
  5
B49D
330
B2E2
100
AcDbEntity
  8
AM_5
 62
     3
370
    -2
100
AcDbBlockReference
  2
_OPEN30
 10
4.000082549859536
 20
-7.184182448936667
 30
0.0
 41
2.5
 42
2.5
 43
2.5
 50
180.0
  0
INSERT
  5
B49E
330
B2E2
100
AcDbEntity
  8
AM_5
 62
     3
370
    -2
100
AcDbBlockReference
  2
_OPEN30
 10
-0.0000000000000008
 20
-7.184182448936667
 30
0.0
 41
2.5
 42
2.5
 43
2.5
  0
MTEXT
  5
B49F
330
B2E2
100
AcDbEntity
  8
AM_5
 62
     2
100
AcDbMText
 10
-7.45
 20
-3.784182448936667
 30
0.0
 40
3.799999999999998
 41
0.0
 71
     5
 72
     1
  1
4
 73
     1
 44
1.0
1001
ACAD
1000
MTEXTBEGIN
1070
    73
1070
     1
1070
    44
1040
1.0
1070
    74
1070
     0
1000
MTEXTEND
  0
POINT
  5
B4A0
330
B2E2
100
AcDbEntity
  8
DEFPOINTS
 62
     0
100
AcDbPoint
 10
4.000082549859537
 20
0.2587248741756569
 30
0.0
  0
POINT
  5
B4A1
330
B2E2
100
AcDbEntity
  8
DEFPOINTS
 62
     0
100
AcDbPoint
 10
-0.0000000000000004
 20
0.2587248741756537
 30
0.0
  0
POINT
  5
B4A2
330
B2E2
100
AcDbEntity
  8
DEFPOINTS
 62
     0
100
AcDbPoint
 10
-0.0000000000000008
 20
-7.184182448936667
 30
0.0
  0
ENDBLK
  5
B2EF
330
B2E2
100
AcDbEntity
  8
0
100
AcDbBlockEnd
  0
BLOCK
  5
B2FD
330
B2F1
100
AcDbEntity
  8
0
100
AcDbBlockBegin
  2
*D12
 70
     1
 10
0.0
 20
0.0
 30
0.0
  3
*D12
  1

  0
LINE
  5
B4A3
330
B2F1
100
AcDbEntity
  8
AM_5
 62
     3
370
    -2
100
AcDbLine
 10
25.99985866852879
 20
47.80000000000001
 30
0.0
 11
45.05611538396375
 21
47.80000000000001
 31
0.0
  0
LINE
  5
B4A4
330
B2F1
100
AcDbEntity
  8
AM_5
 62
     3
370
    -2
100
AcDbLine
 10
25.99985866852879
 20
40.8
 30
0.0
 11
45.05611538396375
 21
40.8
 31
0.0
  0
LINE
  5
B4A5
330
B2F1
100
AcDbEntity
  8
AM_5
 62
     3
370
    -2
100
AcDbLine
 10
44.05611538396374
 20
38.3
 30
0.0
 11
44.05611538396374
 21
35.8
 31
0.0
  0
LINE
  5
B4A6
330
B2F1
100
AcDbEntity
  8
AM_5
 62
     3
370
    -2
100
AcDbLine
 10
44.05611538396375
 20
50.30000000000001
 30
0.0
 11
44.05611538396375
 21
57.32000000000001
 31
0.0
  0
LINE
  5
B4A7
330
B2F1
100
AcDbEntity
  8
AM_5
 62
     3
370
    -2
100
AcDbLine
 10
44.05611538396374
 20
40.8
 30
0.0
 11
44.05611538396374
 21
47.80000000000001
 31
0.0
  0
INSERT
  5
B4A8
330
B2F1
100
AcDbEntity
  8
AM_5
 62
     3
370
    -2
100
AcDbBlockReference
  2
_OPEN30
 10
44.05611538396374
 20
40.8
 30
0.0
 41
2.5
 42
2.5
 43
2.5
 50
90.0
  0
INSERT
  5
B4A9
330
B2F1
100
AcDbEntity
  8
AM_5
 62
     3
370
    -2
100
AcDbBlockReference
  2
_OPEN30
 10
44.05611538396374
 20
47.80000000000001
 30
0.0
 41
2.5
 42
2.5
 43
2.5
 50
270.0
  0
MTEXT
  5
B4AA
330
B2F1
100
AcDbEntity
  8
AM_5
 62
     2
100
AcDbMText
 10
40.65611538396374
 20
55.06000000000002
 30
0.0
 40
3.799999999999998
 41
0.0
 71
     5
 72
     1
  1
7
 11
0.0000000000000001
 21
1.0
 31
0.0
 73
     1
 44
1.0
1001
ACAD
1000
MTEXTBEGIN
1070
    73
1070
     1
1070
    44
1040
1.0
1070
    74
1070
     0
1000
MTEXTEND
  0
POINT
  5
B4AB
330
B2F1
100
AcDbEntity
  8
DEFPOINTS
 62
     0
100
AcDbPoint
 10
25.99985866852879
 20
47.80000000000001
 30
0.0
  0
POINT
  5
B4AC
330
B2F1
100
AcDbEntity
  8
DEFPOINTS
 62
     0
100
AcDbPoint
 10
25.99985866852879
 20
40.8
 30
0.0
  0
POINT
  5
B4AD
330
B2F1
100
AcDbEntity
  8
DEFPOINTS
 62
     0
100
AcDbPoint
 10
44.05611538396374
 20
40.8
 30
0.0
  0
ENDBLK
  5
B2FE
330
B2F1
100
AcDbEntity
  8
0
100
AcDbBlockEnd
  0
BLOCK
  5
B316
330
B30C
100
AcDbEntity
  8
0
100
AcDbBlockBegin
  2
*D13
 70
     1
 10
0.0
 20
0.0
 30
0.0
  3
*D13
  1

  0
LINE
  5
B4AE
330
B30C
100
AcDbEntity
  8
AM_5
 62
     3
370
    -2
100
AcDbLine
 10
150.3998586685287
 20
40.79999999999993
 30
0.0
 11
175.3175640672814
 21
40.79999999999993
 31
0.0
  0
LINE
  5
B4AF
330
B30C
100
AcDbEntity
  8
AM_5
 62
     3
370
    -2
100
AcDbLine
 10
150.3998586685287
 20
15.79999999999993
 30
0.0
 11
175.3175640672814
 21
15.79999999999992
 31
0.0
  0
LINE
  5
B4B0
330
B30C
100
AcDbEntity
  8
AM_5
 62
     3
370
    -2
100
AcDbLine
 10
174.3175640672814
 20
38.29999999999993
 30
0.0
 11
174.3175640672814
 21
18.29999999999992
 31
0.0
  0
INSERT
  5
B4B1
330
B30C
100
AcDbEntity
  8
AM_5
 62
     3
370
    -2
100
AcDbBlockReference
  2
_OPEN30
 10
174.3175640672814
 20
40.79999999999993
 30
0.0
 41
2.5
 42
2.5
 43
2.5
 50
90.0
  0
INSERT
  5
B4B2
330
B30C
100
AcDbEntity
  8
AM_5
 62
     3
370
    -2
100
AcDbBlockReference
  2
_OPEN30
 10
174.3175640672814
 20
15.79999999999992
 30
0.0
 41
2.5
 42
2.5
 43
2.5
 50
270.0
  0
MTEXT
  5
B4B3
330
B30C
100
AcDbEntity
  8
AM_5
 62
     2
100
AcDbMText
 10
170.9171900515333
 20
28.29999999999996
 30
0.0
 40
3.799999999999998
 41
0.0
 71
     5
 72
     1
  1
25
 11
0.0000000000000001
 21
1.0
 31
0.0
 73
     1
 44
1.0
1001
ACAD
1000
MTEXTBEGIN
1070
    73
1070
     1
1070
    44
1040
1.0
1070
    74
1070
     0
1000
MTEXTEND
  0
POINT
  5
B4B4
330
B30C
100
AcDbEntity
  8
DEFPOINTS
 62
     0
100
AcDbPoint
 10
150.3998586685287
 20
40.79999999999993
 30
0.0
  0
POINT
  5
B4B5
330
B30C
100
AcDbEntity
  8
DEFPOINTS
 62
     0
100
AcDbPoint
 10
150.3998586685287
 20
15.79999999999993
 30
0.0
  0
POINT
  5
B4B6
330
B30C
100
AcDbEntity
  8
DEFPOINTS
 62
     0
100
AcDbPoint
 10
174.3175640672814
 20
15.79999999999992
 30
0.0
  0
ENDBLK
  5
B317
330
B30C
100
AcDbEntity
  8
0
100
AcDbBlockEnd
  0
BLOCK
  5
B323
330
B319
100
AcDbEntity
  8
0
100
AcDbBlockBegin
  2
*D14
 70
     1
 10
0.0
 20
0.0
 30
0.0
  3
*D14
  1

  0
LINE
  5
B4B7
330
B319
100
AcDbEntity
  8
AM_5
 62
     3
370
    -2
100
AcDbLine
 10
150.3998586685287
 20
-52.71252318336987
 30
0.0
 11
176.256442973126
 21
-52.71252318336988
 31
0.0
  0
LINE
  5
B4B8
330
B319
100
AcDbEntity
  8
AM_5
 62
     3
370
    -2
100
AcDbLine
 10
150.3998586685287
 20
-77.71252318336983
 30
0.0
 11
176.256442973126
 21
-77.71252318336985
 31
0.0
  0
LINE
  5
B4B9
330
B319
100
AcDbEntity
  8
AM_5
 62
     3
370
    -2
100
AcDbLine
 10
175.256442973126
 20
-55.21252318336987
 30
0.0
 11
175.256442973126
 21
-75.21252318336985
 31
0.0
  0
INSERT
  5
B4BA
330
B319
100
AcDbEntity
  8
AM_5
 62
     3
370
    -2
100
AcDbBlockReference
  2
_OPEN30
 10
175.256442973126
 20
-52.71252318336987
 30
0.0
 41
2.5
 42
2.5
 43
2.5
 50
90.0
  0
INSERT
  5
B4BB
330
B319
100
AcDbEntity
  8
AM_5
 62
     3
370
    -2
100
AcDbBlockReference
  2
_OPEN30
 10
175.256442973126
 20
-77.71252318336985
 30
0.0
 41
2.5
 42
2.5
 43
2.5
 50
270.0
  0
MTEXT
  5
B4BC
330
B319
100
AcDbEntity
  8
AM_5
 62
     2
100
AcDbMText
 10
171.8560689573779
 20
-65.21252318336983
 30
0.0
 40
3.799999999999998
 41
0.0
 71
     5
 72
     1
  1
25
 11
0.0000000000000001
 21
1.0
 31
0.0
 73
     1
 44
1.0
1001
ACAD
1000
MTEXTBEGIN
1070
    73
1070
     1
1070
    44
1040
1.0
1070
    74
1070
     0
1000
MTEXTEND
  0
POINT
  5
B4BD
330
B319
100
AcDbEntity
  8
DEFPOINTS
 62
     0
100
AcDbPoint
 10
150.3998586685287
 20
-52.71252318336987
 30
0.0
  0
POINT
  5
B4BE
330
B319
100
AcDbEntity
  8
DEFPOINTS
 62
     0
100
AcDbPoint
 10
150.3998586685287
 20
-77.71252318336983
 30
0.0
  0
POINT
  5
B4BF
330
B319
100
AcDbEntity
  8
DEFPOINTS
 62
     0
100
AcDbPoint
 10
175.256442973126
 20
-77.71252318336985
 30
0.0
  0
ENDBLK
  5
B324
330
B319
100
AcDbEntity
  8
0
100
AcDbBlockEnd
  0
BLOCK
  5
B332
330
B326
100
AcDbEntity
  8
0
100
AcDbBlockBegin
  2
*D15
 70
     1
 10
0.0
 20
0.0
 30
0.0
  3
*D15
  1

  0
LINE
  5
B4C0
330
B326
100
AcDbEntity
  8
AM_5
 62
     3
370
    -2
100
AcDbLine
 10
26.39985866852872
 20
-77.71252318336983
 30
0.0
 11
51.25341901424417
 21
-77.71252318336983
 31
0.0
  0
LINE
  5
B4C1
330
B326
100
AcDbEntity
  8
AM_5
 62
     3
370
    -2
100
AcDbLine
 10
26.39985866852872
 20
-84.71252318336983
 30
0.0
 11
51.25341901424416
 21
-84.71252318336984
 31
0.0
  0
LINE
  5
B4C2
330
B326
100
AcDbEntity
  8
AM_5
 62
     3
370
    -2
100
AcDbLine
 10
50.25341901424417
 20
-75.21252318336983
 30
0.0
 11
50.25341901424417
 21
-72.71252318336983
 31
0.0
  0
LINE
  5
B4C3
330
B326
100
AcDbEntity
  8
AM_5
 62
     3
370
    -2
100
AcDbLine
 10
50.25341901424416
 20
-87.21252318336984
 30
0.0
 11
50.25341901424416
 21
-89.71252318336984
 31
0.0
  0
LINE
  5
B4C4
330
B326
100
AcDbEntity
  8
AM_5
 62
     3
370
    -2
100
AcDbLine
 10
50.25341901424417
 20
-77.71252318336983
 30
0.0
 11
50.25341901424416
 21
-84.71252318336984
 31
0.0
  0
INSERT
  5
B4C5
330
B326
100
AcDbEntity
  8
AM_5
 62
     3
370
    -2
100
AcDbBlockReference
  2
_OPEN30
 10
50.25341901424417
 20
-77.71252318336983
 30
0.0
 41
2.5
 42
2.5
 43
2.5
 50
270.0
  0
INSERT
  5
B4C6
330
B326
100
AcDbEntity
  8
AM_5
 62
     3
370
    -2
100
AcDbBlockReference
  2
_OPEN30
 10
50.25341901424416
 20
-84.71252318336984
 30
0.0
 41
2.5
 42
2.5
 43
2.5
 50
90.0
  0
MTEXT
  5
B4C7
330
B326
100
AcDbEntity
  8
AM_5
 62
     2
100
AcDbMText
 10
46.85341901424417
 20
-81.21252318336983
 30
0.0
 40
3.799999999999998
 41
0.0
 71
     5
 72
     1
  1
7
 11
0.0000000000000001
 21
1.0
 31
0.0
 73
     1
 44
1.0
1001
ACAD
1000
MTEXTBEGIN
1070
    73
1070
     1
1070
    44
1040
1.0
1070
    74
1070
     0
1000
MTEXTEND
  0
POINT
  5
B4C8
330
B326
100
AcDbEntity
  8
DEFPOINTS
 62
     0
100
AcDbPoint
 10
26.39985866852872
 20
-77.71252318336983
 30
0.0
  0
POINT
  5
B4C9
330
B326
100
AcDbEntity
  8
DEFPOINTS
 62
     0
100
AcDbPoint
 10
26.39985866852872
 20
-84.71252318336983
 30
0.0
  0
POINT
  5
B4CA
330
B326
100
AcDbEntity
  8
DEFPOINTS
 62
     0
100
AcDbPoint
 10
50.25341901424416
 20
-84.71252318336984
 30
0.0
  0
ENDBLK
  5
B333
330
B326
100
AcDbEntity
  8
0
100
AcDbBlockEnd
  0
BLOCK
  5
B33F
330
B335
100
AcDbEntity
  8
0
100
AcDbBlockBegin
  2
*D16
 70
     1
 10
0.0
 20
0.0
 30
0.0
  3
*D16
  1

  0
LINE
  5
B4CB
330
B335
100
AcDbEntity
  8
AM_5
 62
     3
370
    -2
100
AcDbLine
 10
26.39985866852872
 20
-77.71252318336983
 30
0.0
 11
-20.74211574387164
 21
-77.71252318336983
 31
0.0
  0
LINE
  5
B4CC
330
B335
100
AcDbEntity
  8
AM_5
 62
     3
370
    -2
100
AcDbLine
 10
-0.0001522932452717
 20
-52.71252318336985
 30
0.0
 11
-20.74211574387164
 21
-52.71252318336984
 31
0.0
  0
LINE
  5
B4CD
330
B335
100
AcDbEntity
  8
AM_5
 62
     3
370
    -2
100
AcDbLine
 10
-19.74211574387164
 20
-75.21252318336983
 30
0.0
 11
-19.74211574387163
 21
-55.21252318336984
 31
0.0
  0
INSERT
  5
B4CE
330
B335
100
AcDbEntity
  8
AM_5
 62
     3
370
    -2
100
AcDbBlockReference
  2
_OPEN30
 10
-19.74211574387164
 20
-77.71252318336983
 30
0.0
 41
2.5
 42
2.5
 43
2.5
 50
270.0
  0
INSERT
  5
B4CF
330
B335
100
AcDbEntity
  8
AM_5
 62
     3
370
    -2
100
AcDbBlockReference
  2
_OPEN30
 10
-19.74211574387163
 20
-52.71252318336984
 30
0.0
 41
2.5
 42
2.5
 43
2.5
 50
90.0
  0
MTEXT
  5
B4D0
330
B335
100
AcDbEntity
  8
AM_5
 62
     2
100
AcDbMText
 10
-23.14248975961966
 20
-65.21252318336983
 30
0.0
 40
3.799999999999998
 41
0.0
 71
     5
 72
     1
  1
25
 11
0.0000000000000001
 21
1.0
 31
0.0
 73
     1
 44
1.0
1001
ACAD
1000
MTEXTBEGIN
1070
    73
1070
     1
1070
    44
1040
1.0
1070
    74
1070
     0
1000
MTEXTEND
  0
POINT
  5
B4D1
330
B335
100
AcDbEntity
  8
DEFPOINTS
 62
     0
100
AcDbPoint
 10
26.39985866852872
 20
-77.71252318336983
 30
0.0
  0
POINT
  5
B4D2
330
B335
100
AcDbEntity
  8
DEFPOINTS
 62
     0
100
AcDbPoint
 10
-0.0001522932452717
 20
-52.71252318336985
 30
0.0
  0
POINT
  5
B4D3
330
B335
100
AcDbEntity
  8
DEFPOINTS
 62
     0
100
AcDbPoint
 10
-19.74211574387163
 20
-52.71252318336984
 30
0.0
  0
ENDBLK
  5
B340
330
B335
100
AcDbEntity
  8
0
100
AcDbBlockEnd
  0
BLOCK
  5
B34C
330
B342
100
AcDbEntity
  8
0
100
AcDbBlockBegin
  2
*D17
 70
     1
 10
0.0
 20
0.0
 30
0.0
  3
*D17
  1

  0
LINE
  5
B4D4
330
B342
100
AcDbEntity
  8
AM_5
 62
     3
370
    -2
100
AcDbLine
 10
25.99985866852879
 20
40.8
 30
0.0
 11
-23.10496798154439
 21
40.8
 31
0.0
  0
LINE
  5
B4D5
330
B342
100
AcDbEntity
  8
AM_5
 62
     3
370
    -2
100
AcDbLine
 10
0.2588477067547493
 20
-0.0000000000000002
 30
0.0
 11
-23.1049679815444
 21
0.0000000000000064
 31
0.0
  0
LINE
  5
B4D6
330
B342
100
AcDbEntity
  8
AM_5
 62
     3
370
    -2
100
AcDbLine
 10
-22.10496798154439
 20
38.30000000000001
 30
0.0
 11
-22.1049679815444
 21
2.500000000000006
 31
0.0
  0
INSERT
  5
B4D7
330
B342
100
AcDbEntity
  8
AM_5
 62
     3
370
    -2
100
AcDbBlockReference
  2
_OPEN30
 10
-22.10496798154439
 20
40.8
 30
0.0
 41
2.5
 42
2.5
 43
2.5
 50
90.0
  0
INSERT
  5
B4D8
330
B342
100
AcDbEntity
  8
AM_5
 62
     3
370
    -2
100
AcDbBlockReference
  2
_OPEN30
 10
-22.1049679815444
 20
0.0000000000000062
 30
0.0
 41
2.5
 42
2.5
 43
2.5
 50
270.0
  0
MTEXT
  5
B4D9
330
B342
100
AcDbEntity
  8
AM_5
 62
     2
100
AcDbMText
 10
-25.5049679815444
 20
20.4
 30
0.0
 40
3.799999999999998
 41
0.0
 71
     5
 72
     1
  1
40.8
 11
0.0000000000000001
 21
1.0
 31
0.0
 73
     1
 44
1.0
1001
ACAD
1000
MTEXTBEGIN
1070
    73
1070
     1
1070
    44
1040
1.0
1070
    74
1070
     0
1000
MTEXTEND
  0
POINT
  5
B4DA
330
B342
100
AcDbEntity
  8
DEFPOINTS
 62
     0
100
AcDbPoint
 10
25.99985866852879
 20
40.8
 30
0.0
  0
POINT
  5
B4DB
330
B342
100
AcDbEntity
  8
DEFPOINTS
 62
     0
100
AcDbPoint
 10
0.2588477067547493
 20
-0.0000000000000002
 30
0.0
  0
POINT
  5
B4DC
330
B342
100
AcDbEntity
  8
DEFPOINTS
 62
     0
100
AcDbPoint
 10
-22.1049679815444
 20
0.0000000000000062
 30
0.0
  0
ENDBLK
  5
B34D
330
B342
100
AcDbEntity
  8
0
100
AcDbBlockEnd
  0
BLOCK
  5
B359
330
B34F
100
AcDbEntity
  8
0
100
AcDbBlockBegin
  2
*D18
 70
     1
 10
0.0
 20
0.0
 30
0.0
  3
*D18
  1

  0
LINE
  5
B4DD
330
B34F
100
AcDbEntity
  8
AM_5
 62
     3
370
    -2
100
AcDbLine
 10
150.3998586685287
 20
15.79999999999993
 30
0.0
 11
150.3998586685287
 21
-19.94228012302982
 31
0.0
  0
LINE
  5
B4DE
330
B34F
100
AcDbEntity
  8
AM_5
 62
     3
370
    -2
100
AcDbLine
 10
-0.0000000000000004
 20
0.0
 30
0.0
 11
-0.0000000000000016
 21
-19.94228012302983
 31
0.0
  0
LINE
  5
B4DF
330
B34F
100
AcDbEntity
  8
AM_5
 62
     3
370
    -2
100
AcDbLine
 10
147.8998586685287
 20
-18.94228012302983
 30
0.0
 11
2.499999999999998
 21
-18.94228012302983
 31
0.0
  0
INSERT
  5
B4E0
330
B34F
100
AcDbEntity
  8
AM_5
 62
     3
370
    -2
100
AcDbBlockReference
  2
_OPEN30
 10
150.3998586685287
 20
-18.94228012302983
 30
0.0
 41
2.5
 42
2.5
 43
2.5
  0
INSERT
  5
B4E1
330
B34F
100
AcDbEntity
  8
AM_5
 62
     3
370
    -2
100
AcDbBlockReference
  2
_OPEN30
 10
-0.0000000000000016
 20
-18.94228012302983
 30
0.0
 41
2.5
 42
2.5
 43
2.5
 50
180.0
  0
MTEXT
  5
B4E2
330
B34F
100
AcDbEntity
  8
AM_5
 62
     2
100
AcDbMText
 10
75.19992933426434
 20
-15.54228012302983
 30
0.0
 40
3.799999999999998
 41
0.0
 71
     5
 72
     1
  1
150
 73
     1
 44
1.0
1001
ACAD
1000
MTEXTBEGIN
1070
    73
1070
     1
1070
    44
1040
1.0
1070
    74
1070
     0
1000
MTEXTEND
  0
POINT
  5
B4E3
330
B34F
100
AcDbEntity
  8
DEFPOINTS
 62
     0
100
AcDbPoint
 10
150.3998586685287
 20
15.79999999999993
 30
0.0
  0
POINT
  5
B4E4
330
B34F
100
AcDbEntity
  8
DEFPOINTS
 62
     0
100
AcDbPoint
 10
-0.0000000000000004
 20
0.0
 30
0.0
  0
POINT
  5
B4E5
330
B34F
100
AcDbEntity
  8
DEFPOINTS
 62
     0
100
AcDbPoint
 10
-0.0000000000000016
 20
-18.94228012302983
 30
0.0
  0
ENDBLK
  5
B35A
330
B34F
100
AcDbEntity
  8
0
100
AcDbBlockEnd
  0
ENDSEC
  0
SECTION
  2
ENTITIES
  0
TEXT
  5
83BD
330
1F
100
AcDbEntity
  8
AM_6
100
AcDbText
 10
60.48192824114822
 20
-104.7201073850337
 30
0.0
 40
5.0
  1
GMDSR2525-40
 72
     4
 11
83.10445500684364
 21
-102.2201073850337
 31
0.0
100
AcDbText
  0
LINE
  5
B1A8
330
1F
100
AcDbEntity
  8
AM_0
100
AcDbLine
 10
25.99985866852879
 20
40.8
 30
0.0
 11
150.3998586685287
 21
40.79999999999993
 31
0.0
  0
LINE
  5
B1A9
330
1F
100
AcDbEntity
  8
AM_0
100
AcDbLine
 10
150.3998586685287
 20
15.79999999999993
 30
0.0
 11
150.3998586685287
 21
40.79999999999993
 31
0.0
  0
LINE
  5
B1AA
330
1F
100
AcDbEntity
  8
AM_0
100
AcDbLine
 10
3.770117421552357
 20
15.79999999999998
 30
0.0
 11
150.3998586685287
 21
15.79999999999993
 31
0.0
  0
LINE
  5
B1AB
330
1F
100
AcDbEntity
  8
AM_0
100
AcDbLine
 10
0.9998586685287643
 20
47.80000000000001
 30
0.0
 11
0.9998586685287637
 21
44.39999999999996
 31
0.0
  0
LINE
  5
B1AC
330
1F
100
AcDbEntity
  8
AM_0
100
AcDbLine
 10
0.9998586685287643
 20
47.80000000000001
 30
0.0
 11
25.99985866852879
 21
47.80000000000001
 31
0.0
  0
LINE
  5
B1AD
330
1F
100
AcDbEntity
  8
AM_0
100
AcDbLine
 10
25.99985866852879
 20
40.8
 30
0.0
 11
25.99985866852879
 21
47.80000000000001
 31
0.0
  0
LINE
  5
B1AF
330
1F
100
AcDbEntity
  8
AM_0
100
AcDbLine
 10
7.499858668528762
 20
44.39999999999996
 30
0.0
 11
0.9998586685287637
 21
44.39999999999996
 31
0.0
  0
LINE
  5
B1B1
330
1F
100
AcDbEntity
  8
AM_0
100
AcDbLine
 10
7.499858668528762
 20
44.39999999999996
 30
0.0
 11
7.499858668528761
 21
39.60000000000002
 31
0.0
  0
LINE
  5
B1B2
330
1F
100
AcDbEntity
  8
AM_0
100
AcDbLine
 10
24.59985866852879
 20
33.80000000000006
 30
0.0
 11
24.59985866852879
 21
15.79999999999998
 31
0.0
  0
ARC
  5
B1B6
330
1F
100
AcDbEntity
  8
AM_0
100
AcDbCircle
 10
22.59985866852879
 20
33.80000000000001
 30
0.0
 40
1.999999999999939
100
AcDbArc
 50
0.0
 51
174.1625445303124
  0
LINE
  5
B1B9
102
{ACAD_REACTORS
330
B1C8
102
}
330
1F
100
AcDbEntity
  8
AM_0
100
AcDbLine
 10
10.91665728873454
 20
39.60000000000002
 30
0.0
 11
24.59985866852879
 21
31.70000000000003
 31
0.0
  0
LINE
  5
B1BA
102
{ACAD_REACTORS
330
B1C8
102
}
330
1F
100
AcDbEntity
  8
AM_0
100
AcDbLine
 10
10.91665728873454
 20
39.60000000000002
 30
0.0
 11
5.999858668528761
 21
39.60000000000002
 31
0.0
  0
LINE
  5
B1BB
102
{ACAD_REACTORS
330
B1C8
102
}
330
1F
100
AcDbEntity
  8
AM_0
100
AcDbLine
 10
5.999858668528762
 20
44.39999999999996
 30
0.0
 11
5.999858668528761
 21
39.5999798903556
 31
0.0
  0
LINE
  5
B1BC
102
{ACAD_REACTORS
330
B1C8
102
}
330
1F
100
AcDbEntity
  8
AM_0
100
AcDbLine
 10
0.3998586685287411
 20
44.39999999999996
 30
0.0
 11
5.999858668528762
 21
44.39999999999996
 31
0.0
  0
LINE
  5
B1BD
102
{ACAD_REACTORS
330
B1C8
102
}
330
1F
100
AcDbEntity
  8
AM_0
100
AcDbLine
 10
0.3998586685287411
 20
44.39999999999996
 30
0.0
 11
0.3998586685287364
 21
6.300000000000068
 31
0.0
  0
LINE
  5
B1BE
102
{ACAD_REACTORS
330
B1C8
102
}
330
1F
100
AcDbEntity
  8
AM_0
100
AcDbLine
 10
3.299858668528736
 20
6.300000000000068
 30
0.0
 11
0.3998586685287364
 21
6.300000000000068
 31
0.0
  0
LINE
  5
B1C0
102
{ACAD_REACTORS
330
B1C8
102
}
330
1F
100
AcDbEntity
  8
AM_0
100
AcDbLine
 10
3.299858668528734
 20
16.60000000000002
 30
0.0
 11
24.59985866852879
 21
16.60000000000001
 31
0.0
  0
LINE
  5
B1C1
102
{ACAD_REACTORS
330
B1C8
102
}
330
1F
100
AcDbEntity
  8
AM_0
100
AcDbLine
 10
8.366301480924336
 20
20.29999999999995
 30
0.0
 11
0.3998586685287381
 21
20.29999999999995
 31
0.0
  0
LINE
  5
B1C2
102
{ACAD_REACTORS
330
B1C8
102
}
330
1F
100
AcDbEntity
  8
AM_0
100
AcDbLine
 10
8.366301480924336
 20
20.29999999999995
 30
0.0
 11
8.366301480924336
 21
16.60000000000002
 31
0.0
  0
INSERT
  5
B1C3
102
{ACAD_REACTORS
330
B1C8
102
}
330
1F
100
AcDbEntity
  8
AM_0
100
AcDbBlockReference
  2
CBF06
 10
14.49985866852876
 20
23.39999999999997
 30
0.0
 41
-1.0
 50
270.0
  0
CIRCLE
  5
B1C4
102
{ACAD_REACTORS
330
B1C8
102
}
330
1F
100
AcDbEntity
  8
AM_0
100
AcDbCircle
 10
14.49985866852876
 20
23.42420413329386
 30
0.0
 40
5.5
  0
LINE
  5
B1C5
102
{ACAD_REACTORS
330
B1C8
102
}
330
1F
100
AcDbEntity
  8
AM_7
100
AcDbLine
 10
6.939209266842569
 20
23.39999999999997
 30
0.0
 11
21.64561440123975
 21
23.39999999999996
 31
0.0
  0
LINE
  5
B1C6
102
{ACAD_REACTORS
330
B1C8
102
}
330
1F
100
AcDbEntity
  8
AM_7
100
AcDbLine
 10
14.49985866852876
 20
33.52140809337948
 30
0.0
 11
14.49985866852876
 21
15.2563389829196
 31
0.0
  0
LINE
  5
B1C7
102
{ACAD_REACTORS
330
B1C8
102
}
330
1F
100
AcDbEntity
  8
AM_0
100
AcDbLine
 10
24.59985866852879
 20
31.70000000000003
 30
0.0
 11
24.59985866852879
 21
16.60000000000001
 31
0.0
  0
LINE
  5
B1E3
330
1F
100
AcDbEntity
  8
AM_0
100
AcDbLine
 10
26.39985866852872
 20
-77.71252318336983
 30
0.0
 11
150.3998586685287
 21
-77.71252318336983
 31
0.0
  0
LINE
  5
B1E4
330
1F
100
AcDbEntity
  8
AM_0
100
AcDbLine
 10
0.9998586685287518
 20
-52.71252318336983
 30
0.0
 11
20.69985866852869
 21
-52.71252318336985
 31
0.0
  0
LINE
  5
B1E5
330
1F
100
AcDbEntity
  8
AM_0
100
AcDbLine
 10
150.3998586685287
 20
-77.71252318336983
 30
0.0
 11
150.3998586685287
 21
-52.71252318336987
 31
0.0
  0
LINE
  5
B1E6
330
1F
100
AcDbEntity
  8
AM_0
100
AcDbLine
 10
0.9998586685287483
 20
-81.8125231833698
 30
0.0
 11
0.9998586685287481
 21
-84.71252318336983
 31
0.0
  0
LINE
  5
B1E8
330
1F
100
AcDbEntity
  8
AM_0
100
AcDbLine
 10
0.9998586685287481
 20
-84.71252318336983
 30
0.0
 11
26.39985866852872
 21
-84.71252318336983
 31
0.0
  0
LINE
  5
B1E9
330
1F
100
AcDbEntity
  8
AM_0
100
AcDbLine
 10
26.39985866852872
 20
-77.71252318336983
 30
0.0
 11
26.39985866852872
 21
-84.71252318336983
 31
0.0
  0
LINE
  5
B1EA
330
1F
100
AcDbEntity
  8
AM_0
100
AcDbLine
 10
24.59985866852878
 20
-40.11252318336983
 30
0.0
 11
24.59985866852878
 21
-54.11252318336983
 31
0.0
  0
LINE
  5
B1EB
330
1F
100
AcDbEntity
  8
AM_0
100
AcDbLine
 10
20.59985866852866
 20
-54.11252318336983
 30
0.0
 11
24.59985866852878
 21
-54.11252318336983
 31
0.0
  0
LINE
  5
B1EC
330
1F
100
AcDbEntity
  8
AM_0
100
AcDbLine
 10
20.59985866852878
 20
-52.71252318336983
 30
0.0
 11
20.59985866852878
 21
-54.11252318336983
 31
0.0
  0
LINE
  5
B1EE
330
1F
100
AcDbEntity
  8
AM_0
100
AcDbLine
 10
3.494150614134345
 20
-76.11252318336983
 30
0.0
 11
8.99985866852875
 21
-76.11252318336983
 31
0.0
  0
LINE
  5
B1F0
330
1F
100
AcDbEntity
  8
AM_0
100
AcDbLine
 10
8.999858668528752
 20
-52.71252318336983
 30
0.0
 11
8.99985866852875
 21
-78.11252318336983
 31
0.0
  0
LINE
  5
B1F1
330
1F
100
AcDbEntity
  8
AM_0
100
AcDbLine
 10
8.499858668528752
 20
-52.71252318336983
 30
0.0
 11
8.499858668528752
 21
-57.41252318336985
 31
0.0
  0
LINE
  5
B1F2
330
1F
100
AcDbEntity
  8
AM_0
100
AcDbLine
 10
3.494150614134344
 20
-78.11252318336983
 30
0.0
 11
8.99985866852875
 21
-78.11252318336983
 31
0.0
  0
LINE
  5
B1F4
330
1F
100
AcDbEntity
  8
AM_0
100
AcDbLine
 10
0.3998586685287307
 20
-40.11252318336983
 30
0.0
 11
0.3998586685287292
 21
-52.71252318336985
 31
0.0
  0
LINE
  5
B240
102
{ACAD_REACTORS
330
B241
102
}
330
1F
100
AcDbEntity
  8
AM_7
100
AcDbLine
 10
-3.878657506049657
 20
-69.61252318336983
 30
0.0
 11
18.17593292624507
 21
-69.61252318336986
 31
0.0
  0
LINE
  5
B253
330
1F
100
AcDbEntity
  8
AM_0
100
AcDbLine
 10
0.3941506141343474
 20
-57.53252318337115
 30
0.0
 11
0.3941506141343444
 21
-81.8125231833698
 31
0.0
  0
LINE
  5
B254
330
1F
100
AcDbEntity
  8
AM_0
100
AcDbLine
 10
3.494150614134344
 20
-81.81252318336985
 30
0.0
 11
3.494150614134347
 21
-57.63252318337116
 31
0.0
  0
LINE
  5
B255
330
1F
100
AcDbEntity
  8
AM_0
100
AcDbLine
 10
3.714150614135666
 20
-57.41252318336985
 30
0.0
 11
8.999858668528752
 21
-57.41252318336985
 31
0.0
  0
LINE
  5
B258
330
1F
100
AcDbEntity
  8
AM_0
100
AcDbLine
 10
0.3941506141343444
 20
-81.8125231833698
 30
0.0
 11
3.494150614134344
 21
-81.8125231833698
 31
0.0
  0
LINE
  5
B259
330
1F
100
AcDbEntity
  8
AM_0
100
AcDbLine
 10
3.299858668528726
 20
-51.71252318336982
 30
0.0
 11
20.6998586685288
 21
-51.71252318336982
 31
0.0
  0
LINE
  5
B25A
330
1F
100
AcDbEntity
  8
AM_0
100
AcDbLine
 10
20.6998586685288
 20
-51.71252318336982
 30
0.0
 11
20.6998586685288
 21
-54.11252318336983
 31
0.0
  0
LINE
  5
B25B
330
1F
100
AcDbEntity
  8
AM_0
100
AcDbLine
 10
24.59985866852878
 20
-52.71252318336985
 30
0.0
 11
150.3998586685287
 21
-52.71252318336987
 31
0.0
  0
LINE
  5
B25C
330
1F
100
AcDbEntity
  8
AM_0
100
AcDbLine
 10
0.3998586685287307
 20
-40.11252318336983
 30
0.0
 11
24.59985866852878
 21
-40.11252318336983
 31
0.0
  0
LINE
  5
B25D
330
1F
100
AcDbEntity
  8
AM_0
100
AcDbLine
 10
3.29985866852873
 20
-43.81252318336982
 30
0.0
 11
3.299858668528728
 21
-52.71252318336985
 31
0.0
  0
LINE
  5
B25E
330
1F
100
AcDbEntity
  8
AM_0
100
AcDbLine
 10
3.29985866852873
 20
-43.81252318336982
 30
0.0
 11
8.366301480924329
 21
-43.81252318336982
 31
0.0
  0
LINE
  5
B260
330
1F
100
AcDbEntity
  8
AM_0
100
AcDbLine
 10
8.366301480924336
 20
20.30000000000001
 30
0.0
 11
12.06630148092438
 21
16.60000000000002
 31
0.0
  0
LINE
  5
B261
330
1F
100
AcDbEntity
  8
AM_0
100
AcDbLine
 10
8.366301480924329
 20
-40.11252318336988
 30
0.0
 11
8.366301480924329
 21
-43.81252318336982
 31
0.0
  0
LINE
  5
B262
330
1F
100
AcDbEntity
  8
AM_0
100
AcDbLine
 10
12.06630148092425
 20
-40.11252318336983
 30
0.0
 11
8.366301480924329
 21
-43.81252318336986
 31
0.0
  0
LINE
  5
B263
330
1F
100
AcDbEntity
  8
AM_7
100
AcDbLine
 10
14.49985866852875
 20
-33.64637258603906
 30
0.0
 11
14.49985866852875
 21
-59.96772803724624
 31
0.0
  0
LINE
  5
B264
330
1F
100
AcDbEntity
  8
AM_0
 48
0.3
100
AcDbLine
 10
9.499858668528755
 20
-36.21252318336983
 30
0.0
 11
10.19267899155635
 21
-35.81252318336982
 31
0.0
  0
LINE
  5
B265
330
1F
100
AcDbEntity
  8
AM_0
 48
0.3
100
AcDbLine
 10
9.499858668528755
 20
-36.21252318336985
 30
0.0
 11
9.499858668528753
 21
-40.11252318336983
 31
0.0
  0
LINE
  5
B266
330
1F
100
AcDbEntity
  8
AM_0
 48
0.3
100
AcDbLine
 10
19.49985866852874
 20
-36.21252318336983
 30
0.0
 11
18.80703834550126
 21
-35.81252318336982
 31
0.0
  0
LINE
  5
B267
330
1F
100
AcDbEntity
  8
AM_0
 48
0.3
100
AcDbLine
 10
19.49985866852874
 20
-36.21252318336983
 30
0.0
 11
19.49985866852874
 21
-40.11252318336983
 31
0.0
  0
LINE
  5
B268
330
1F
100
AcDbEntity
  8
AM_0
 48
0.3
100
AcDbLine
 10
19.49985866852874
 20
-36.21252318336983
 30
0.0
 11
14.49985866852875
 21
-36.21252318336983
 31
0.0
  0
LINE
  5
B269
330
1F
100
AcDbEntity
  8
AM_0
 48
0.3
100
AcDbLine
 10
18.80703834550126
 20
-35.81252318336982
 30
0.0
 11
10.19267899155635
 21
-35.81252318336982
 31
0.0
  0
LINE
  5
B26A
330
1F
100
AcDbEntity
  8
AM_0
 48
0.3
100
AcDbLine
 10
14.49985866852875
 20
-36.21252318336983
 30
0.0
 11
9.499858668528755
 21
-36.21252318336983
 31
0.0
  0
DIMENSION
  5
B2D4
330
1F
100
AcDbEntity
  8
AM_5
100
AcDbDimension
  2
*D10
 10
-0.0001522932452612
 20
64.34581919373886
 30
0.0
 11
12.99985318764176
 21
67.74619320948689
 31
0.0
 70
    32
 71
     5
 42
26.00001096177405
  3
AM_JIS$0
100
AcDbAlignedDimension
 13
25.99985866852879
 23
47.80000000000001
 33
0.0
 14
-0.0001522932452652
 24
0.2500000000000282
 34
0.0
 50
180.0
100
AcDbRotatedDimension
  0
DIMENSION
  5
B2E1
330
1F
100
AcDbEntity
  8
AM_5
100
AcDbDimension
  2
*D11
 10
-0.0000000000000008
 20
-7.184182448936667
 30
0.0
 11
-7.45
 21
-3.784182448936667
 31
0.0
 70
    32
 71
     5
 42
4.000082549859537
  3
AM_JIS$0
100
AcDbAlignedDimension
 13
4.000082549859537
 23
0.2587248741756569
 33
0.0
 14
-0.0000000000000004
 24
0.2587248741756537
 34
0.0
 50
180.0
100
AcDbRotatedDimension
  0
DIMENSION
  5
B2F0
330
1F
100
AcDbEntity
  8
AM_5
100
AcDbDimension
  2
*D12
 10
44.05611538396374
 20
40.8
 30
0.0
 11
44.05611538396374
 21
55.06000000000002
 31
0.0
 70
   160
 71
     5
 42
7.000000000000014
  3
AM_JIS$0
100
AcDbAlignedDimension
 13
25.99985866852879
 23
47.80000000000001
 33
0.0
 14
25.99985866852879
 24
40.8
 34
0.0
 50
270.0
100
AcDbRotatedDimension
  0
DIMENSION
  5
B30B
330
1F
100
AcDbEntity
  8
AM_5
100
AcDbDimension
  2
*D13
 10
174.3175640672814
 20
15.79999999999992
 30
0.0
 11
170.9171900515333
 21
28.29999999999996
 31
0.0
 70
    32
 71
     5
 42
25.0
  3
AM_JIS$0
100
AcDbAlignedDimension
 13
150.3998586685287
 23
40.79999999999993
 33
0.0
 14
150.3998586685287
 24
15.79999999999993
 34
0.0
 50
270.0
100
AcDbRotatedDimension
  0
DIMENSION
  5
B318
330
1F
100
AcDbEntity
  8
AM_5
100
AcDbDimension
  2
*D14
 10
175.256442973126
 20
-77.71252318336985
 30
0.0
 11
171.8560689573779
 21
-65.21252318336983
 31
0.0
 70
    32
 71
     5
 42
24.99999999999997
  3
AM_JIS$0
100
AcDbAlignedDimension
 13
150.3998586685287
 23
-52.71252318336987
 33
0.0
 14
150.3998586685287
 24
-77.71252318336983
 34
0.0
 50
270.0
100
AcDbRotatedDimension
  0
DIMENSION
  5
B325
330
1F
100
AcDbEntity
  8
AM_5
100
AcDbDimension
  2
*D15
 10
50.25341901424416
 20
-84.71252318336984
 30
0.0
 11
46.85341901424417
 21
-81.21252318336983
 31
0.0
 70
    32
 71
     5
 42
7.0
  3
AM_JIS$0
100
AcDbAlignedDimension
 13
26.39985866852872
 23
-77.71252318336983
 33
0.0
 14
26.39985866852872
 24
-84.71252318336983
 34
0.0
 50
270.0
100
AcDbRotatedDimension
  0
DIMENSION
  5
B334
330
1F
100
AcDbEntity
  8
AM_5
100
AcDbDimension
  2
*D16
 10
-19.74211574387163
 20
-52.71252318336984
 30
0.0
 11
-23.14248975961966
 21
-65.21252318336983
 31
0.0
 70
    32
 71
     5
 42
24.99999999999997
  3
AM_JIS$0
100
AcDbAlignedDimension
 13
26.39985866852872
 23
-77.71252318336983
 33
0.0
 14
-0.0001522932452717
 24
-52.71252318336985
 34
0.0
 50
270.0
100
AcDbRotatedDimension
  0
DIMENSION
  5
B341
330
1F
100
AcDbEntity
  8
AM_5
100
AcDbDimension
  2
*D17
 10
-22.1049679815444
 20
0.0000000000000062
 30
0.0
 11
-25.5049679815444
 21
20.4
 31
0.0
 70
    32
 71
     5
 42
40.8
  3
AM_JIS$0
100
AcDbAlignedDimension
 13
25.99985866852879
 23
40.8
 33
0.0
 14
0.2588477067547493
 24
-0.0000000000000002
 34
0.0
 50
270.0
100
AcDbRotatedDimension
  0
DIMENSION
  5
B34E
330
1F
100
AcDbEntity
  8
AM_5
100
AcDbDimension
  2
*D18
 10
-0.0000000000000016
 20
-18.94228012302983
 30
0.0
 11
75.19992933426434
 21
-15.54228012302983
 31
0.0
 70
    32
 71
     5
 42
150.3998586685287
  3
AM_JIS$0
100
AcDbAlignedDimension
 13
150.3998586685287
 23
15.79999999999993
 33
0.0
 14
-0.0000000000000004
 24
0.0
 34
0.0
 50
180.0
100
AcDbRotatedDimension
1001
ACAD
1000
DSTYLE
1002
{
1070
   271
1070
     0
1002
}
  0
LINE
  5
B364
330
1F
100
AcDbEntity
  8
AM_5
100
AcDbLine
 10
150.3998586685287
 20
15.79999999999993
 30
0.0
 11
150.3998586685287
 21
-52.71252318336987
 31
0.0
  0
LINE
  5
B365
330
1F
100
AcDbEntity
  8
AM_5
100
AcDbLine
 10
-0.0001522932452717
 20
-52.71252318336985
 30
0.0
 11
-0.0001522932452652
 21
0.1393453773696364
 31
0.0
  0
LINE
  5
B380
330
1F
100
AcDbEntity
  8
AM_0
100
AcDbLine
 10
-0.0001522932451581
 20
-52.71252318337115
 30
0.0
 11
0.4241693653766483
 21
-57.56254193461344
 31
0.0
  0
LINE
  5
B381
330
1F
100
AcDbEntity
  8
AM_0
100
AcDbLine
 10
3.999847706754727
 20
-52.71252318337115
 30
0.0
 11
3.576618486110183
 21
-57.55005531139532
 31
0.0
  0
LINE
  5
B383
330
1F
100
AcDbEntity
  8
AM_0
100
AcDbLine
 10
-0.0001522932451581
 20
-52.71252318337115
 30
0.0
 11
3.988453521513853
 21
-52.71252318337115
 31
0.0
  0
LINE
  5
B384
330
1F
100
AcDbEntity
  8
AM_0
100
AcDbLine
 10
1.994150614134346
 20
-59.13252318337113
 30
0.0
 11
3.714150614135666
 21
-57.41252318336985
 31
0.0
  0
LINE
  5
B385
330
1F
100
AcDbEntity
  8
AM_0
100
AcDbLine
 10
1.694150614134334
 20
-58.83252318337113
 30
0.0
 11
1.994150614134346
 21
-58.83252318337113
 31
0.0
  0
LINE
  5
B386
330
1F
100
AcDbEntity
  8
AM_0
100
AcDbLine
 10
2.294150614134357
 20
-58.83252318337111
 30
0.0
 11
1.994150614134346
 21
-58.83252318337113
 31
0.0
  0
LINE
  5
B387
330
1F
100
AcDbEntity
  8
AM_0
100
AcDbLine
 10
0.3941506141343474
 20
-57.53252318337115
 30
0.0
 11
1.994150614134346
 21
-59.13252318337113
 31
0.0
  0
LINE
  5
B389
330
1F
100
AcDbEntity
  8
AM_0
100
AcDbLine
 10
0.1308004995193525
 20
4.0
 30
0.0
 11
3.869423381811542
 21
3.999999999999999
 31
0.0
  0
LINE
  5
B38A
330
1F
100
AcDbEntity
  8
AM_0
100
AcDbLine
 10
0.2499999999999992
 20
-0.0000000000000002
 30
0.0
 11
3.741234843104677
 21
-0.0000000000000006
 31
0.0
  0
ARC
  5
B38B
330
1F
100
AcDbEntity
  8
AM_0
100
AcDbCircle
 10
3.750234843104691
 20
0.2500000000000278
 30
0.0
 40
0.25
100
AcDbArc
 50
270.0
 51
1.999999999999673
  0
LINE
  5
B38C
330
1F
100
AcDbEntity
  8
AM_0
100
AcDbLine
 10
3.869434343585396
 20
3.999999999999999
 30
0.0
 11
4.00008254985954
 21
0.2587248741755836
 31
0.0
  0
ARC
  5
B38D
330
1F
100
AcDbEntity
  8
AM_0
100
AcDbCircle
 10
0.2499999999999992
 20
0.2500000000000282
 30
0.0
 40
0.25
100
AcDbArc
 50
178.0000000000001
 51
270.0
  0
LINE
  5
B38E
330
1F
100
AcDbEntity
  8
AM_0
100
AcDbLine
 10
0.1308004995193525
 20
4.0
 30
0.0
 11
0.0001522932452068
 21
0.2587248741755841
 31
0.0
  0
LINE
  5
B38F
330
1F
100
AcDbEntity
  8
AM_0
100
AcDbLine
 10
3.770117421552357
 20
16.60000000000002
 30
0.0
 11
3.770117421552356
 21
3.999999999999999
 31
0.0
  0
LINE
  5
B390
330
1F
100
AcDbEntity
  8
AM_0
100
AcDbLine
 10
0.2956174215523233
 20
18.22
 30
0.0
 11
0.2956174215523216
 21
4.0
 31
0.0
  0
ARC
  5
B391
330
1F
100
AcDbEntity
  8
AM_0
100
AcDbCircle
 10
0.2500000000000019
 20
21.96999999999996
 30
0.0
 40
0.25
100
AcDbArc
 50
90.0
 51
181.9999999999997
  0
LINE
  5
B392
330
1F
100
AcDbEntity
  8
AM_0
100
AcDbLine
 10
0.2500000000000019
 20
22.21999999999999
 30
0.0
 11
0.3999999999999791
 21
22.21999999999999
 31
0.0
  0
LINE
  5
B393
330
1F
100
AcDbEntity
  8
AM_0
100
AcDbLine
 10
0.1308004995193542
 20
18.22
 30
0.0
 11
0.3999999999999786
 21
18.22
 31
0.0
  0
LINE
  5
B394
330
1F
100
AcDbEntity
  8
AM_0
100
AcDbLine
 10
0.1308004995193542
 20
18.22
 30
0.0
 11
0.0001522932452095
 21
21.96127512582441
 31
0.0
  0
LINE
  5
B39A
330
1F
100
AcDbEntity
  8
AM_0
100
AcDbLine
 10
3.299858668528736
 20
16.60000000000002
 30
0.0
 11
3.299858668528736
 21
6.300000000000068
 31
0.0
  0
ENDSEC
  0
SECTION
  2
OBJECTS
  0
DICTIONARY
  5
C
330
0
100
AcDbDictionary
281
     1
  3
ACAD_COLOR
350
B401
  3
ACAD_GROUP
350
D
  3
ACAD_LAYOUT
350
1A
  3
ACAD_MATERIAL
350
B400
  3
ACAD_MLINESTYLE
350
17
  3
ACAD_PLOTSETTINGS
350
19
  3
ACAD_PLOTSTYLENAME
350
E
  3
ACAD_TABLESTYLE
350
B402
  3
ACDBHEADERROUNDTRIPXREC
350
B4EB
  3
ACDBVARIABLEDICTIONARY
350
30
  3
ACMDICTIONARY
350
4D
  3
AMG
350
3F
  3
AMGSNAPSETTINGS
350
73
  3
DWGPROPS
350
B4EA
  3
ENG_DATA
350
21C6
  3
FILENAME
350
21C9
  3
HOLD_DIC_DATA
350
21C4
  3
TABLE_DIC_DATA
350
1C0B
  3
ZWKSIZE
350
21CB
  0
DICTIONARY
  5
165
330
1F
100
AcDbDictionary
280
     1
281
     1
  3
ACAD_INDEX
360
B3C6
  3
ACAD_LAYOUTSELFREF
360
B3F9
  0
DICTIONARY
  5
B3F7
330
1B
100
AcDbDictionary
280
     1
281
     1
  3
ACAD_LAYOUTSELFREF
360
B3F8
  0
DICTIONARY
  5
B401
102
{ACAD_REACTORS
330
C
102
}
330
C
100
AcDbDictionary
281
     1
  0
DICTIONARY
  5
D
102
{ACAD_REACTORS
330
C
102
}
330
C
100
AcDbDictionary
281
     1
  3
*A1
350
7C0D
  3
*A2
350
7C0E
  3
*A3
350
7FE3
  3
*A4
350
8E0E
  3
*A5
350
B1C8
  3
*A6
350
B1E1
  3
*A7
350
B241
  0
DICTIONARY
  5
1A
102
{ACAD_REACTORS
330
C
102
}
330
C
100
AcDbDictionary
281
     1
  3
Model
350
B404
  3
レイアウト1
350
B405
  0
DICTIONARY
  5
B400
102
{ACAD_REACTORS
330
C
102
}
330
C
100
AcDbDictionary
281
     1
  0
DICTIONARY
  5
17
102
{ACAD_REACTORS
330
C
102
}
330
C
100
AcDbDictionary
281
     1
  3
STANDARD
350
18
  0
DICTIONARY
  5
19
102
{ACAD_REACTORS
330
C
102
}
330
C
100
AcDbDictionary
281
     1
  0
ACDBDICTIONARYWDFLT
  5
E
102
{ACAD_REACTORS
330
C
102
}
330
C
100
AcDbDictionary
281
     1
  3
Normal
350
F
100
AcDbDictionaryWithDefault
340
F
  0
DICTIONARY
  5
B402
102
{ACAD_REACTORS
330
C
102
}
330
C
100
AcDbDictionary
281
     1
  3
Standard
350
B403
  0
DICTIONARY
  5
B4EB
102
{ACAD_REACTORS
330
C
102
}
330
C
100
AcDbDictionary
281
     1
  0
DICTIONARY
  5
30
102
{ACAD_REACTORS
330
C
102
}
330
C
100
AcDbDictionary
281
     1
  3
CTABLESTYLE
350
B4E6
  3
DIMASSOC
350
B4E7
  3
INDEXCTL
350
31
  3
PROJECTNAME
350
B4E8
  3
SORTENTS
350
42BE
  0
DICTIONARY
  5
4D
102
{ACAD_REACTORS
330
C
102
}
330
C
100
AcDbDictionary
281
     1
  3
ACMSTDDICTIONARY
350
17E
  3
AMDTSECTSYM_ARROWCOLOR
350
B47D
  0
DICTIONARY
  5
3F
102
{ACAD_REACTORS
330
C
102
}
330
C
100
AcDbDictionary
281
     1
  0
DICTIONARY
  5
73
102
{ACAD_REACTORS
330
C
102
}
330
C
100
AcDbDictionary
281
     1
  0
XRECORD
  5
B4EA
102
{ACAD_REACTORS
330
C
102
}
330
C
100
AcDbXrecord
280
     1
  1
DWGPROPS COOKIE
  2

  3

  4

  6

  7

  8

  9

300
AmdtFileType=82
301
=
302
=
303
=
304
=
305
=
306
=
307
=
308
=
309
=
 40
1.302410231481481
 41
2451943.610431666
 42
2455602.323443113
  1

 90
        1
  0
DICTIONARY
  5
21C6
102
{ACAD_REACTORS
330
C
102
}
330
C
100
AcDbDictionary
281
     1
  3
ENG_ID
350
21C7
  0
DICTIONARY
  5
21C9
102
{ACAD_REACTORS
330
C
102
}
330
C
100
AcDbDictionary
281
     1
  3
FILENAME
350
21CA
  0
DICTIONARY
  5
21C4
102
{ACAD_REACTORS
330
C
102
}
330
C
100
AcDbDictionary
281
     1
  3
HOLD_DATA
350
21C5
  0
DICTIONARY
  5
1C0B
102
{ACAD_REACTORS
330
C
102
}
330
C
100
AcDbDictionary
281
     1
  3
INPUT_DATA
350
1C0D
  3
TABLE_DATA
350
1C0C
  0
DICTIONARY
  5
21CB
102
{ACAD_REACTORS
330
C
102
}
330
C
100
AcDbDictionary
281
     1
  3
ZWKSIZE
350
21CC
  0
DICTIONARY
  5
B3C6
102
{ACAD_REACTORS
330
165
102
}
330
165
100
AcDbDictionary
281
     1
  3
*A1
350
B3C7
  0
XRECORD
  5
B3F9
102
{ACAD_REACTORS
330
165
102
}
330
165
100
AcDbXrecord
280
     1
340
1F
  0
XRECORD
  5
B3F8
102
{ACAD_REACTORS
330
B3F7
102
}
330
B3F7
100
AcDbXrecord
280
     1
340
1B
  0
GROUP
  5
7C0D
102
{ACAD_REACTORS
330
D
102
}
330
D
100
AcDbGroup
300

 70
     1
 71
     1
  0
GROUP
  5
7C0E
102
{ACAD_REACTORS
330
D
102
}
330
D
100
AcDbGroup
300

 70
     1
 71
     1
  0
GROUP
  5
7FE3
102
{ACAD_REACTORS
330
D
102
}
330
D
100
AcDbGroup
300

 70
     1
 71
     1
  0
GROUP
  5
8E0E
102
{ACAD_REACTORS
330
D
102
}
330
D
100
AcDbGroup
300

 70
     1
 71
     1
  0
GROUP
  5
B1C8
102
{ACAD_REACTORS
330
D
102
}
330
D
100
AcDbGroup
300

 70
     1
 71
     1
340
B1BC
340
B1BA
340
B1BB
340
B1C7
340
B1C6
340
B1C5
340
B1C4
340
B1C3
340
B1C2
340
B1C1
340
B1C0
340
B1BE
340
B1BD
340
B1B9
  0
GROUP
  5
B1E1
102
{ACAD_REACTORS
330
D
102
}
330
D
100
AcDbGroup
300

 70
     1
 71
     1
  0
GROUP
  5
B241
102
{ACAD_REACTORS
330
D
102
}
330
D
100
AcDbGroup
300

 70
     1
 71
     1
340
B240
  0
LAYOUT
  5
B404
102
{ACAD_XDICTIONARY
360
B4EC
102
}
102
{ACAD_REACTORS
330
1A
102
}
330
1A
100
AcDbPlotSettings
  1

  2
SII LP-1010 (C2 VR)2R
  4

  6

 40
0.0
 41
0.0
 42
0.0
 43
0.0
 44
0.0
 45
0.0
 46
0.0
 47
0.0
 48
0.0
 49
0.0
140
0.0
141
0.0
142
1.0
143
1.0
 70
  1712
 72
     0
 73
     0
 74
     0
  7
sei_cad.ctb
 75
     0
147
1.0
148
0.0
149
0.0
100
AcDbLayout
  1
Model
 70
     1
 71
     0
 10
0.0
 20
0.0
 11
12.0
 21
9.0
 12
0.0
 22
0.0
 32
0.0
 14
0.0
 24
0.0
 34
0.0
 15
0.0
 25
0.0
 35
0.0
146
0.0
 13
0.0
 23
0.0
 33
0.0
 16
1.0
 26
0.0
 36
0.0
 17
0.0
 27
1.0
 37
0.0
 76
     0
330
1F
  0
LAYOUT
  5
B405
102
{ACAD_XDICTIONARY
360
B4EE
102
}
102
{ACAD_REACTORS
330
1A
102
}
330
1A
100
AcDbPlotSettings
  1

  2
SII LP-1010 (C2 VR)2R
  4

  6

 40
0.0
 41
0.0
 42
0.0
 43
0.0
 44
0.0
 45
0.0
 46
0.0
 47
0.0
 48
0.0
 49
0.0
140
0.0
141
0.0
142
1.0
143
1.0
 70
   688
 72
     0
 73
     0
 74
     5
  7
sei_cad.ctb
 75
    16
147
1.0
148
0.0
149
0.0
100
AcDbLayout
  1
レイアウト1
 70
     1
 71
     1
 10
0.0
 20
0.0
 11
420.0
 21
297.0
 12
0.0
 22
0.0
 32
0.0
 14
1.000000000000000E+20
 24
1.000000000000000E+20
 34
1.000000000000000E+20
 15
-1.000000000000000E+20
 25
-1.000000000000000E+20
 35
-1.000000000000000E+20
146
0.0
 13
0.0
 23
0.0
 33
0.0
 16
1.0
 26
0.0
 36
0.0
 17
0.0
 27
1.0
 37
0.0
 76
     0
330
1B
  0
MLINESTYLE
  5
18
102
{ACAD_REACTORS
330
17
102
}
330
17
100
AcDbMlineStyle
  2
STANDARD
 70
     0
  3

 62
   256
 51
90.0
 52
90.0
 71
     2
 49
0.5
 62
   256
  6
BYLAYER
 49
-0.5
 62
   256
  6
BYLAYER
  0
ACDBPLACEHOLDER
  5
F
102
{ACAD_REACTORS
330
E
102
}
330
E
  0
TABLESTYLE
  5
B403
102
{ACAD_REACTORS
330
B402
102
}
330
B402
100
AcDbTableStyle
  3
Standard
 70
     0
 71
     0
 40
1.5
 41
1.5
280
     0
281
     0
  7
STANDARD
140
4.5
170
     2
 62
     0
 63
     7
283
     0
274
    -2
284
     1
 64
     0
275
    -2
285
     1
 65
     0
276
    -2
286
     1
 66
     0
277
    -2
287
     1
 67
     0
278
    -2
288
     1
 68
     0
279
    -2
289
     1
 69
     0
  7
STANDARD
140
6.0
170
     5
 62
     0
 63
     7
283
     0
274
    -2
284
     1
 64
     0
275
    -2
285
     1
 65
     0
276
    -2
286
     1
 66
     0
277
    -2
287
     1
 67
     0
278
    -2
288
     1
 68
     0
279
    -2
289
     1
 69
     0
  7
STANDARD
140
4.5
170
     5
 62
     0
 63
     7
283
     0
274
    -2
284
     1
 64
     0
275
    -2
285
     1
 65
     0
276
    -2
286
     1
 66
     0
277
    -2
287
     1
 67
     0
278
    -2
288
     1
 68
     0
279
    -2
289
     1
 69
     0
  0
DICTIONARYVAR
  5
B4E6
102
{ACAD_REACTORS
330
30
102
}
330
30
100
DictionaryVariables
280
     0
  1
STANDARD
  0
DICTIONARYVAR
  5
B4E7
102
{ACAD_REACTORS
330
30
102
}
330
30
100
DictionaryVariables
280
     0
  1
1
  0
DICTIONARYVAR
  5
31
102
{ACAD_REACTORS
330
30
102
}
330
30
100
DictionaryVariables
280
     0
  1
1
  0
DICTIONARYVAR
  5
B4E8
102
{ACAD_REACTORS
330
30
102
}
330
30
100
DictionaryVariables
280
     0
  1

  0
DICTIONARYVAR
  5
42BE
102
{ACAD_REACTORS
330
30
102
}
330
30
100
DictionaryVariables
280
     0
  1
96
  0
DICTIONARY
  5
17E
102
{ACAD_REACTORS
330
4D
102
}
330
4D
100
AcDbDictionary
281
     1
  0
XRECORD
  5
B47D
102
{ACAD_REACTORS
330
4D
102
}
330
4D
100
AcDbXrecord
280
     1
 90
-1023410169
  0
XRECORD
  5
21C7
102
{ACAD_REACTORS
330
21C6
102
}
330
21C6
100
AcDbXrecord
280
     1
  1
HOLD
  0
XRECORD
  5
21CA
102
{ACAD_REACTORS
330
21C9
102
}
330
21C9
100
AcDbXrecord
280
     1
  1
21000065__00___
  0
XRECORD
  5
21C5
102
{ACAD_REACTORS
330
21C4
102
}
330
21C4
100
AcDbXrecord
280
     1
  1
クランクシャフト加工用 ^M^J１コーナー型 ^M^J15.875 ^M^J20 ^M^Jクランプオン ^M^J９０° ^M^J1 ^M^J鋼 ^M^J ^M^J ^M^J ^M^J ^M^J
  0
XRECORD
  5
1C0D
102
{ACAD_REACTORS
330
1C0B
102
}
330
1C0B
100
AcDbXrecord
280
     1
  1
1,,,,,,,,,^M^J2,,,,,,,,,^M^J3,,,,,,,,,^M^J4,,,,,,,,,^M^J5,,,,,,,,,^M^J6,,,,,,,,,^M^J7,,,,,,,,,^M^J8,,,,,,,,,^M^J9,,,,,,,,,^M^J10,,,,,,,,,
  0
XRECORD
  5
1C0C
102
{ACAD_REACTORS
330
1C0B
102
}
330
1C0B
100
AcDbXrecord
280
     1
  1
10,10
  0
XRECORD
  5
21CC
102
{ACAD_REACTORS
330
21CB
102
}
330
21CB
100
AcDbXrecord
280
     1
  1
3
  0
LAYER_INDEX
  5
B3C7
102
{ACAD_REACTORS
330
B3C6
102
}
330
B3C6
100
AcDbIndex
 40
2455602.323443113
100
AcDbLayerIndex
  8
0
360
B3C8
 90
        0
  8
AM_5
360
B3C9
 90
       11
  8
DEFPOINTS
360
B3CA
 90
        0
  8
AM_0
360
B3CB
 90
       76
  8
AM_6
360
B3CC
 90
        1
  8
AM_7
360
B3CD
 90
        4
  0
DICTIONARY
  5
B4EC
330
B404
100
AcDbDictionary
280
     1
281
     1
  3
ACAD_XREC_ROUNDTRIP
360
B4ED
  0
DICTIONARY
  5
B4EE
330
B405
100
AcDbDictionary
280
     1
281
     1
  3
ACAD_XREC_ROUNDTRIP
360
B4EF
  0
IDBUFFER
  5
B3C8
330
0
100
AcDbIdBuffer
  0
IDBUFFER
  5
B3C9
330
0
100
AcDbIdBuffer
330
B2D4
330
B2E1
330
B2F0
330
B30B
330
B318
330
B325
330
B334
330
B341
330
B34E
330
B364
330
B365
  0
IDBUFFER
  5
B3CA
330
0
100
AcDbIdBuffer
  0
IDBUFFER
  5
B3CB
330
0
100
AcDbIdBuffer
330
B1A8
330
B1A9
330
B1AA
330
B1AB
330
B1AC
330
B1AD
330
B1AF
330
B1B1
330
B1B2
330
B1B6
330
B1B9
330
B1BA
330
B1BB
330
B1BC
330
B1BD
330
B1BE
330
B1C0
330
B1C1
330
B1C2
330
B1C3
330
B1C4
330
B1C7
330
B1E3
330
B1E4
330
B1E5
330
B1E6
330
B1E8
330
B1E9
330
B1EA
330
B1EB
330
B1EC
330
B1EE
330
B1F0
330
B1F1
330
B1F2
330
B1F4
330
B253
330
B254
330
B255
330
B258
330
B259
330
B25A
330
B25B
330
B25C
330
B25D
330
B25E
330
B260
330
B261
330
B262
330
B264
330
B265
330
B266
330
B267
330
B268
330
B269
330
B26A
330
B380
330
B381
330
B383
330
B384
330
B385
330
B386
330
B387
330
B389
330
B38A
330
B38B
330
B38C
330
B38D
330
B38E
330
B38F
330
B390
330
B391
330
B392
330
B393
330
B394
330
B39A
  0
IDBUFFER
  5
B3CC
330
0
100
AcDbIdBuffer
330
83BD
  0
IDBUFFER
  5
B3CD
330
0
100
AcDbIdBuffer
330
B1C5
330
B1C6
330
B240
330
B263
  0
XRECORD
  5
B4ED
102
{ACAD_REACTORS
330
B4EC
102
}
330
B4EC
100
AcDbXrecord
280
     1
102
SHADEPLOT
 70
     0
102
SHADEPLOTRESLEVEL
 70
     2
102
SHADEPLOTCUSTOMDPI
 70
   300
  0
XRECORD
  5
B4EF
102
{ACAD_REACTORS
330
B4EE
102
}
330
B4EE
100
AcDbXrecord
280
     1
102
SHADEPLOT
 70
     0
102
SHADEPLOTRESLEVEL
 70
     2
102
SHADEPLOTCUSTOMDPI
 70
   300
  0
ENDSEC
  0
EOF
