  0
SECTION
  2
HEADER
  9
$ACADVER
  1
AC1015
  9
$ACADMAINTVER
 70
    20
  9
$DWGCODEPAGE
  3
ANSI_932
  9
$INSBASE
 10
0.0
 20
0.0
 30
0.0
  9
$EXTMIN
 10
-25.02912466661724
 20
-124.9689033227592
 30
-0.0015258207003583
  9
$EXTMAX
 10
198.6735770655471
 20
52.60489000529037
 30
0.0000000349246037
  9
$LIMMIN
 10
-239.9705511360255
 20
-134.066917210955
  9
$LIMMAX
 10
69.22654402883428
 20
122.6043691935823
  9
$ORTHOMODE
 70
     0
  9
$REGENMODE
 70
     1
  9
$FILLMODE
 70
     1
  9
$QTEXTMODE
 70
     0
  9
$MIRRTEXT
 70
     1
  9
$LTSCALE
 40
0.5
  9
$ATTMODE
 70
     1
  9
$TEXTSIZE
 40
2.5
  9
$TRACEWID
 40
1.0
  9
$TEXTSTYLE
  7
STANDARD
  9
$CLAYER
  8
AM_5
  9
$CELTYPE
  6
BYLAYER
  9
$CECOLOR
 62
   256
  9
$CELTSCALE
 40
1.0
  9
$DISPSILH
 70
     0
  9
$DIMSCALE
 40
1.0
  9
$DIMASZ
 40
2.5
  9
$DIMEXO
 40
0.0
  9
$DIMDLI
 40
10.0
  9
$DIMRND
 40
0.0
  9
$DIMDLE
 40
0.0
  9
$DIMEXE
 40
1.0
  9
$DIMTP
 40
0.1
  9
$DIMTM
 40
0.1000000001
  9
$DIMTXT
 40
3.799999999999998
  9
$DIMCEN
 40
0.0
  9
$DIMTSZ
 40
0.0
  9
$DIMTOL
 70
     0
  9
$DIMLIM
 70
     0
  9
$DIMTIH
 70
     0
  9
$DIMTOH
 70
     0
  9
$DIMSE1
 70
     0
  9
$DIMSE2
 70
     0
  9
$DIMTAD
 70
     3
  9
$DIMZIN
 70
     9
  9
$DIMBLK
  1
OPEN30
  9
$DIMASO
 70
     1
  9
$DIMSHO
 70
     1
  9
$DIMPOST
  1

  9
$DIMAPOST
  1
"
  9
$DIMALT
 70
     0
  9
$DIMALTD
 70
     2
  9
$DIMALTF
 40
0.0393701
  9
$DIMLFAC
 40
1.0
  9
$DIMTOFL
 70
     1
  9
$DIMTVP
 40
0.0
  9
$DIMTIX
 70
     0
  9
$DIMSOXD
 70
     0
  9
$DIMSAH
 70
     0
  9
$DIMBLK1
  1

  9
$DIMBLK2
  1

  9
$DIMSTYLE
  2
AM_JIS
  9
$DIMCLRD
 70
   256
  9
$DIMCLRE
 70
   256
  9
$DIMCLRT
 70
     2
  9
$DIMTFAC
 40
0.71
  9
$DIMGAP
 40
1.5
  9
$DIMJUST
 70
     0
  9
$DIMSD1
 70
     0
  9
$DIMSD2
 70
     0
  9
$DIMTOLJ
 70
     0
  9
$DIMTZIN
 70
     8
  9
$DIMALTZ
 70
     0
  9
$DIMALTTZ
 70
     0
  9
$DIMUPT
 70
     0
  9
$DIMDEC
 70
     2
  9
$DIMTDEC
 70
     2
  9
$DIMALTU
 70
     2
  9
$DIMALTTD
 70
     2
  9
$DIMTXSTY
  7
STANDARD
  9
$DIMAUNIT
 70
     1
  9
$DIMADEC
 70
     1
  9
$DIMALTRND
 40
0.0
  9
$DIMAZIN
 70
     2
  9
$DIMDSEP
 70
    46
  9
$DIMATFIT
 70
     3
  9
$DIMFRAC
 70
     0
  9
$DIMLDRBLK
  1
OPEN30
  9
$DIMLUNIT
 70
     2
  9
$DIMLWD
 70
    -1
  9
$DIMLWE
 70
    -1
  9
$DIMTMOVE
 70
     0
  9
$LUNITS
 70
     2
  9
$LUPREC
 70
     2
  9
$SKETCHINC
 40
1.0
  9
$FILLETRAD
 40
3.0
  9
$AUNITS
 70
     1
  9
$AUPREC
 70
     5
  9
$MENU
  1
.
  9
$ELEVATION
 40
0.0
  9
$PELEVATION
 40
0.0
  9
$THICKNESS
 40
0.0
  9
$LIMCHECK
 70
     0
  9
$CHAMFERA
 40
0.0
  9
$CHAMFERB
 40
0.0
  9
$CHAMFERC
 40
20.0
  9
$CHAMFERD
 40
0.0
  9
$SKPOLY
 70
     0
  9
$TDCREATE
 40
2451943.610431666
  9
$TDUCREATE
 40
2451943.235431667
  9
$TDUPDATE
 40
2455602.318086655
  9
$TDUUPDATE
 40
2455601.943086655
  9
$TDINDWG
 40
1.3291282407
  9
$TDUSRTIMER
 40
1.3291280671
  9
$USRTIMER
 70
     1
  9
$ANGBASE
 50
0.0
  9
$ANGDIR
 70
     0
  9
$PDMODE
 70
     0
  9
$PDSIZE
 40
0.0
  9
$PLINEWID
 40
0.0
  9
$SPLFRAME
 70
     0
  9
$SPLINETYPE
 70
     6
  9
$SPLINESEGS
 70
     8
  9
$HANDSEED
  5
B76D
  9
$SURFTAB1
 70
     6
  9
$SURFTAB2
 70
     6
  9
$SURFTYPE
 70
     6
  9
$SURFU
 70
     6
  9
$SURFV
 70
     6
  9
$UCSBASE
  2

  9
$UCSNAME
  2

  9
$UCSORG
 10
0.0
 20
0.0
 30
0.0
  9
$UCSXDIR
 10
1.0
 20
0.0
 30
0.0
  9
$UCSYDIR
 10
0.0
 20
1.0
 30
0.0
  9
$UCSORTHOREF
  2

  9
$UCSORTHOVIEW
 70
     0
  9
$UCSORGTOP
 10
0.0
 20
0.0
 30
0.0
  9
$UCSORGBOTTOM
 10
0.0
 20
0.0
 30
0.0
  9
$UCSORGLEFT
 10
0.0
 20
0.0
 30
0.0
  9
$UCSORGRIGHT
 10
0.0
 20
0.0
 30
0.0
  9
$UCSORGFRONT
 10
0.0
 20
0.0
 30
0.0
  9
$UCSORGBACK
 10
0.0
 20
0.0
 30
0.0
  9
$PUCSBASE
  2

  9
$PUCSNAME
  2

  9
$PUCSORG
 10
0.0
 20
0.0
 30
0.0
  9
$PUCSXDIR
 10
1.0
 20
0.0
 30
0.0
  9
$PUCSYDIR
 10
0.0
 20
1.0
 30
0.0
  9
$PUCSORTHOREF
  2

  9
$PUCSORTHOVIEW
 70
     0
  9
$PUCSORGTOP
 10
0.0
 20
0.0
 30
0.0
  9
$PUCSORGBOTTOM
 10
0.0
 20
0.0
 30
0.0
  9
$PUCSORGLEFT
 10
0.0
 20
0.0
 30
0.0
  9
$PUCSORGRIGHT
 10
0.0
 20
0.0
 30
0.0
  9
$PUCSORGFRONT
 10
0.0
 20
0.0
 30
0.0
  9
$PUCSORGBACK
 10
0.0
 20
0.0
 30
0.0
  9
$USERI1
 70
     0
  9
$USERI2
 70
     0
  9
$USERI3
 70
     0
  9
$USERI4
 70
     0
  9
$USERI5
 70
     0
  9
$USERR1
 40
0.0
  9
$USERR2
 40
0.0
  9
$USERR3
 40
0.0
  9
$USERR4
 40
0.0
  9
$USERR5
 40
0.0
  9
$WORLDVIEW
 70
     1
  9
$SHADEDGE
 70
     3
  9
$SHADEDIF
 70
    70
  9
$TILEMODE
 70
     1
  9
$MAXACTVP
 70
    64
  9
$PINSBASE
 10
0.0
 20
0.0
 30
0.0
  9
$PLIMCHECK
 70
     0
  9
$PEXTMIN
 10
1.000000000000000E+20
 20
1.000000000000000E+20
 30
1.000000000000000E+20
  9
$PEXTMAX
 10
-1.000000000000000E+20
 20
-1.000000000000000E+20
 30
-1.000000000000000E+20
  9
$PLIMMIN
 10
0.0
 20
0.0
  9
$PLIMMAX
 10
420.0
 20
297.0
  9
$UNITMODE
 70
     0
  9
$VISRETAIN
 70
     1
  9
$PLINEGEN
 70
     0
  9
$PSLTSCALE
 70
     1
  9
$TREEDEPTH
 70
  3020
  9
$CMLSTYLE
  2
STANDARD
  9
$CMLJUST
 70
     0
  9
$CMLSCALE
 40
20.0
  9
$PROXYGRAPHICS
 70
     1
  9
$MEASUREMENT
 70
     1
  9
$CELWEIGHT
370
    -1
  9
$ENDCAPS
280
     0
  9
$JOINSTYLE
280
     0
  9
$LWDISPLAY
290
     0
  9
$INSUNITS
 70
     4
  9
$HYPERLINKBASE
  1

  9
$STYLESHEET
  1
sei_cad.ctb
  9
$XEDIT
290
     1
  9
$CEPSNTYPE
380
     0
  9
$PSTYLEMODE
290
     1
  9
$FINGERPRINTGUID
  2
{C77AB3BE-9CA2-11D3-BAF3-006094EB760E}
  9
$VERSIONGUID
  2
{2DF70599-0477-4BA4-A7F8-93136989EEF9}
  9
$EXTNAMES
290
     1
  9
$PSVPSCALE
 40
0.0
  9
$OLESTARTUP
290
     0
  0
ENDSEC
  0
SECTION
  2
CLASSES
  0
CLASS
  1
ACDBDICTIONARYWDFLT
  2
AcDbDictionaryWithDefault
  3
ObjectDBX Classes
 90
        0
280
     0
281
     0
  0
CLASS
  1
ACDBPLACEHOLDER
  2
AcDbPlaceHolder
  3
ObjectDBX Classes
 90
        0
280
     0
281
     0
  0
CLASS
  1
LAYOUT
  2
AcDbLayout
  3
ObjectDBX Classes
 90
        0
280
     0
281
     0
  0
CLASS
  1
ACME_DOCUMENT
  2
AcMeDbDoc
  3
AcMeServices
 90
        0
280
     0
281
     0
  0
CLASS
  1
ACMESCOPE
  2
AcMeScope
  3
AcMeServices
 90
        0
280
     0
281
     0
  0
CLASS
  1
ACMECOMMANDHISTORY
  2
AcMeCommandHistory
  3
AcMeServices
 90
        0
280
     0
281
     0
  0
CLASS
  1
DICTIONARYVAR
  2
AcDbDictionaryVar
  3
ObjectDBX Classes
 90
        0
280
     0
281
     0
  0
CLASS
  1
ACIMSYSVARMAN
  2
AcImSysVarManager
  3
AcMeServices
 90
        0
280
     0
281
     0
  0
CLASS
  1
ACIMREALSYSVAR
  2
AcImRealSysVar
  3
AcMeServices
 90
        0
280
     0
281
     0
  0
CLASS
  1
ACIMINTSYSVAR
  2
AcImIntSysVar
  3
AcMeServices
 90
        0
280
     0
281
     0
  0
CLASS
  1
ACMEDRAWINGMAN
  2
AcMeDrawingMan
  3
AcMeServices
 90
        0
280
     0
281
     0
  0
CLASS
  1
ACMEVIEW
  2
AcMeView
  3
AcMeServices
 90
        0
280
     0
281
     0
  0
CLASS
  1
ACDBENTITYCACHE
  2
AcMeEntityCache
  3
AcMeServices
 90
        0
280
     0
281
     0
  0
CLASS
  1
GSMANAGER
  2
AcMeGSManager
  3
AcMeServices
 90
        0
280
     0
281
     0
  0
CLASS
  1
AMDTINTERNALREACTOR
  2
AmdtInternalReactor
  3
AcMeServices
 90
        0
280
     0
281
     0
  0
CLASS
  1
ACMESTATEMGR
  2
AcMeStateMgr
  3
AcMeServices
 90
        0
280
     0
281
     0
  0
CLASS
  1
ACME_DATABASE
  2
AcMeDbDatabase
  3
AcMeServices
 90
        0
280
     0
281
     0
  0
CLASS
  1
ACRFINSADJUSTERMGR
  2
AcRfInsAdjusterMgr
  3
AcMeServices
 90
        0
280
     0
281
     0
  0
CLASS
  1
AMGSETTINGSOBJ
  2
AmgSettingsObj
  3
"AcadM|Product Description: AutoCAD Mechanical 2000|Company: Autodesk"
 90
        0
280
     0
281
     0
  0
CLASS
  1
AMGOBJPROPCFG
  2
AmgObjPropCfg
  3
"AmgLay|Product Description: AutoCAD Mechanical 2000|Company: Autodesk"
 90
        1
280
     0
281
     0
  0
CLASS
  1
ACMDATADICTIONARY
  2
AcmDataDictionary
  3
"AcmSymBB|Product Description: AutoCAD Mechanical 2004 DX|Company: Autodesk"
 90
        0
280
     0
281
     0
  0
CLASS
  1
ACMDATAENTRYBLOCK
  2
AcmDataEntryBlock
  3
"AcmSymBB|Product Description: AutoCAD Mechanical 2004 DX|Company: Autodesk"
 90
    32768
280
     0
281
     0
  0
CLASS
  1
ACIMSTRSYSVAR
  2
AcImStrSysVar
  3
AcMeServices
 90
        0
280
     0
281
     0
  0
CLASS
  1
ACAMGFILTERDAT
  2
AcAmgFilterDat
  3
"AcadM|Product Description: AutoCAD Mechanical 2000|Company: Autodesk"
 90
    32768
280
     0
281
     0
  0
CLASS
  1
LAYER_INDEX
  2
AcDbLayerIndex
  3
ObjectDBX Classes
 90
        0
280
     0
281
     0
  0
CLASS
  1
IDBUFFER
  2
AcDbIdBuffer
  3
ObjectDBX Classes
 90
        0
280
     0
281
     0
  0
CLASS
  1
ACMSTANDARDJIS
  2
AcmStandardJIS
  3
"Amdt_StdImp|Product Description: AutoCAD Mechanical 2004 DX|Company: Autodesk"
 90
    32768
280
     0
281
     0
  0
CLASS
  1
ACMSURFSTANDARDJIS
  2
AcmSurfTextStdJIS
  3
"Amdt_StdImp|Product Description: AutoCAD Mechanical 2004 DX|Company: Autodesk"
 90
    32768
280
     0
281
     0
  0
CLASS
  1
ACMFCFSTANDARDJIS
  2
AcmFCFStdJIS
  3
"Amdt_StdImp|Product Description: AutoCAD Mechanical 2004 DX|Company: Autodesk"
 90
    32768
280
     0
281
     0
  0
CLASS
  1
ACMWELDSTANDARDJIS
  2
AcmWeldingStdJIS
  3
"Amdt_StdImp|Product Description: AutoCAD Mechanical 2004 DX|Company: Autodesk"
 90
    32768
280
     0
281
     0
  0
CLASS
  1
ACMIDSTANDARDJIS
  2
AcmIdStdJIS
  3
"Amdt_StdImp|Product Description: AutoCAD Mechanical 2004 DX|Company: Autodesk"
 90
    32768
280
     0
281
     0
  0
CLASS
  1
ACMDATUMSTANDARDJIS
  2
AcmDatumStdJIS
  3
"Amdt_StdImp|Product Description: AutoCAD Mechanical 2004 DX|Company: Autodesk"
 90
    32768
280
     0
281
     0
  0
CLASS
  1
ACMBOMSTANDARDJIS
  2
AcmBOMStdJIS
  3
"Amdt_StdImp|Product Description: AutoCAD Mechanical 2004 DX|Company: Autodesk"
 90
    32768
280
     0
281
     0
  0
CLASS
  1
AMDTNOTE
  2
AmdtNote
  3
"AcmSymBB|Product Description: AutoCAD Mechanical 2004 DX|Company: Autodesk"
 90
    33791
280
     0
281
     1
  0
CLASS
  1
ACMDATAENTRYPART
  2
AcmDataEntryPart
  3
"AcmSymBB|Product Description: AutoCAD Mechanical 2004 DX|Company: Autodesk"
 90
    32768
280
     0
281
     0
  0
CLASS
  1
ACMPARTREF
  2
AcmPartRef
  3
"AcmSymBB|Product Description: AutoCAD Mechanical 2004 DX|Company: Autodesk"
 90
    33791
280
     0
281
     1
  0
CLASS
  1
ACDB_PROXY_ENTITY_DATA
  2
AcDbProxyEntityData
  3
ObjectDBX Classes
 90
    32768
280
     0
281
     0
  0
CLASS
  1
TABLESTYLE
  2
AcDbTableStyle
  3
ObjectDBX Classes
 90
     2047
280
     0
281
     0
  0
CLASS
  1
ACGREFMASTER
  2
AcGrefMaster
  3
AcAttribServices
 90
        0
280
     0
281
     0
  0
CLASS
  1
AM_DRAWING_MGR
  2
AcDmDwgMgr
  3
AcMechDwgViewMgmt
 90
        0
280
     0
281
     0
  0
CLASS
  1
AM_DWG_DOCUMENT
  2
AcDmDwgDocument
  3
AcMechDwgViewMgmt
 90
        0
280
     0
281
     0
  0
CLASS
  1
AM_DWG_SHEET
  2
AcDmSheet
  3
AcMechDwgViewMgmt
 90
        0
280
     0
281
     0
  0
CLASS
  1
AM_VIEWDIMPARMAP
  2
AcDmViewDimParMap
  3
AcMechDwgViewMgmt
 90
        0
280
     0
281
     0
  0
CLASS
  1
AM_DWGMGR_NAME
  2
AcDmDwgMgrName
  3
AcMechDwgViewMgmt
 90
        0
280
     0
281
     0
  0
CLASS
  1
ACGREFACADMASTER
  2
AcGrefacadMaster
  3
AcGrefServices
 90
        0
280
     0
281
     0
  0
CLASS
  1
AMDTMENUSTATEMGR
  2
AmdtMenuStateMgr
  3
McadcomServices
 90
        0
280
     0
281
     0
  0
CLASS
  1
AMDTMCOMMENUSTATE
  2
AmdtMcomMenuState
  3
McadcomServices
 90
        0
280
     0
281
     0
  0
CLASS
  1
AMIMASTER
  2
AmiMaster
  3
AmiServices
 90
        0
280
     0
281
     0
  0
CLASS
  1
MAPIAMMOUDLE
  2
MApiAmModule
  3
MApiAmServices
 90
        0
280
     0
281
     0
  0
CLASS
  1
AMDTADMENUSTATE
  2
AmdtAdMenuState
  3
DesignerServices
 90
        0
280
     0
281
     0
  0
CLASS
  1
ADAPPL
  2
AcAdAppl
  3
DesignerServices
 90
        0
280
     0
281
     0
  0
CLASS
  1
DEPMGR
  2
AcAdDepMgr
  3
DesignerServices
 90
        0
280
     0
281
     0
  0
CLASS
  1
PARAMMGR
  2
AcAdParamMgr
  3
DesignerServices
 90
        0
280
     0
281
     0
  0
CLASS
  1
PARAMSCOPE
  2
AcAdParamScope
  3
DesignerServices
 90
        0
280
     0
281
     0
  0
CLASS
  1
NAMEDAPPL
  2
AcAdNamedAppl
  3
DesignerServices
 90
        0
280
     0
281
     0
  0
CLASS
  1
AMDTDMMENUSTATE
  2
AmdtDmMenuState
  3
AcMechDwgViewMgmt
 90
        0
280
     0
281
     0
  0
CLASS
  1
AMDTAMMENUSTATE
  2
AmdtAmMenuState
  3
DesignerAssemblies
 90
        0
280
     0
281
     0
  0
CLASS
  1
ACAMPROJECT
  2
AcAmProject
  3
DesignerAssemblies
 90
        0
280
     0
281
     0
  0
CLASS
  1
ACAMGRCOMPDEF
  2
AcAmGrCompDef
  3
DesignerAssemblies
 90
        0
280
     0
281
     0
  0
CLASS
  1
ACCMCONTEXT
  2
AcCmContext
  3
DesignerAssemblies
 90
        0
280
     0
281
     0
  0
CLASS
  1
ACAMCOMPDEF
  2
AcAmCompDef
  3
DesignerAssemblies
 90
        0
280
     0
281
     0
  0
CLASS
  1
ACAMCOMPDEFMGR
  2
AcAmCompDefMgr
  3
DesignerAssemblies
 90
        0
280
     0
281
     0
  0
CLASS
  1
AMCONTEXTMGR
  2
AcAmContextMgr
  3
DesignerAssemblies
 90
        0
280
     0
281
     0
  0
CLASS
  1
ACAMCONTEXTMODELER
  2
AcAmContextModeler
  3
DesignerAssemblies
 90
        0
280
     0
281
     0
  0
CLASS
  1
CATALOGSTATE
  2
AcAmCatalogState
  3
DesignerAssemblies
 90
        0
280
     0
281
     0
  0
CLASS
  1
ACAMGRCOMPDEFSET
  2
AcAmGrCompDefSet
  3
DesignerAssemblies
 90
        0
280
     0
281
     0
  0
CLASS
  1
AMDTBROWSERDBTAB
  2
AmdtBrowserDbTab
  3
McadcomServices
 90
        0
280
     0
281
     0
  0
CLASS
  1
CBROWSERAPPOBJECT
  2
CBrowserAppObject
  3
McadcomServices
 90
        0
280
     0
281
     0
  0
CLASS
  1
DM_PLACEHOLDER
  2
AcDmSelsetPlaceholder
  3
AcMechDwgViewMgmt
 90
        0
280
     0
281
     0
  0
CLASS
  1
ACMSTANDARDISO
  2
AcmStandardISO
  3
"Amdt_StdImp|Product Description: AutoCAD Mechanical 2004 DX|Company: Autodesk"
 90
        0
280
     0
281
     0
  0
CLASS
  1
AMDTEDGESTANDARDISO13715
  2
AmdtEdgeStdISO13715
  3
"Amdt_StdImp|Product Description: AutoCAD Mechanical 2004 DX|Company: Autodesk"
 90
        0
280
     0
281
     0
  0
CLASS
  1
ACMSURFSTANDARDISO
  2
AcmSurfTextStdISO
  3
"Amdt_StdImp|Product Description: AutoCAD Mechanical 2004 DX|Company: Autodesk"
 90
        0
280
     0
281
     0
  0
CLASS
  1
ACMFCFSTANDARDISO
  2
AcmFCFStdISO
  3
"Amdt_StdImp|Product Description: AutoCAD Mechanical 2004 DX|Company: Autodesk"
 90
        0
280
     0
281
     0
  0
CLASS
  1
ACMWELDSTANDARDISO
  2
AcmWeldingStdISO
  3
"Amdt_StdImp|Product Description: AutoCAD Mechanical 2004 DX|Company: Autodesk"
 90
        0
280
     0
281
     0
  0
CLASS
  1
ACMIDSTANDARDISO
  2
AcmIdStdISO
  3
"Amdt_StdImp|Product Description: AutoCAD Mechanical 2004 DX|Company: Autodesk"
 90
        0
280
     0
281
     0
  0
CLASS
  1
ACMDATUMSTANDARDISO
  2
AcmDatumStdISO
  3
"Amdt_StdImp|Product Description: AutoCAD Mechanical 2004 DX|Company: Autodesk"
 90
        0
280
     0
281
     0
  0
CLASS
  1
ACMBOMSTANDARDISO
  2
AcmBOMStdISO
  3
"Amdt_StdImp|Product Description: AutoCAD Mechanical 2004 DX|Company: Autodesk"
 90
        0
280
     0
281
     0
  0
CLASS
  1
ACMDETAILSTANDARDISO
  2
AmdtDetailSymStdISO
  3
"Amdt_StdImp|Product Description: AutoCAD Mechanical 2004 DX|Company: Autodesk"
 90
        0
280
     0
281
     0
  0
CLASS
  1
ACMSECTIONSTANDARDISO
  2
AmdtSectionSymStdISO
  3
"Amdt_StdImp|Product Description: AutoCAD Mechanical 2004 DX|Company: Autodesk"
 90
        0
280
     0
281
     0
  0
CLASS
  1
ACMCENTERLINESTANDARDISO
  2
AmdtCenterLineStdISO
  3
"Amdt_StdImp|Product Description: AutoCAD Mechanical 2004 DX|Company: Autodesk"
 90
        0
280
     0
281
     0
  0
CLASS
  1
ACMTHREADLINESTANDARDISO
  2
AmdtThreadLineStdISO
  3
"Amdt_StdImp|Product Description: AutoCAD Mechanical 2004 DX|Company: Autodesk"
 90
        0
280
     0
281
     0
  0
CLASS
  1
ACMNOTESTANDARDISO
  2
AmdtNoteStdISO
  3
"Amdt_StdImp|Product Description: AutoCAD Mechanical 2004 DX|Company: Autodesk"
 90
        0
280
     0
281
     0
  0
CLASS
  1
AMDTNOTETEMPLATEDB
  2
AmdtNoteTemplateDB
  3
AMDT_STDIMP_MODULE_NAME
 90
        0
280
     0
281
     0
  0
CLASS
  1
ACAMGLAYSTD
  2
AcAmgLayStd
  3
"AcAmgLayStd|Product Description: AutoCAD Mechanical 2000|Company: Autodesk"
 90
        0
280
     0
281
     0
  0
CLASS
  1
ACAMGDIMSTD
  2
AcAmgDimStd
  3
"AcAmgDimStd|Product Description: AutoCAD Mechanical 2000|Company: Autodesk"
 90
        0
280
     0
281
     0
  0
CLASS
  1
ACAMGHOLECHARTSTDISO
  2
AcAmgHoleChartStdISO
  3
ACMSYMBB_MODULE_NAME
 90
        0
280
     0
281
     0
  0
CLASS
  1
ACAMGTITLESTD
  2
AcAmgTitleStd
  3
"TITLEAPP"
 90
        0
280
     0
281
     0
  0
ENDSEC
  0
SECTION
  2
TABLES
  0
TABLE
  2
VPORT
  5
8
330
0
100
AcDbSymbolTable
 70
    10
  0
VPORT
  5
B766
330
8
100
AcDbSymbolTableRecord
100
AcDbViewportTableRecord
  2
*Active
 70
     0
 10
0.0
 20
0.0
 11
1.0
 21
1.0
 12
86.82222619946491
 22
-36.18200665873445
 13
0.0
 23
0.0
 14
2.5
 24
2.5
 15
10.0
 25
10.0
 16
0.0
 26
0.0
 36
1.0
 17
0.0
 27
0.0
 37
0.0
 40
178.8361662664007
 41
2.166073546856464
 42
50.0
 43
0.0
 44
0.0
 50
0.0
 51
0.0
 71
     0
 72
  2000
 73
     1
 74
     3
 75
     0
 76
     0
 77
     0
 78
     0
281
     0
 65
     0
110
0.0
120
0.0
130
0.0
111
1.0
121
0.0
131
0.0
112
0.0
122
1.0
132
0.0
 79
     0
146
0.0
  0
ENDTAB
  0
TABLE
  2
LTYPE
  5
5
330
0
100
AcDbSymbolTable
 70
    17
  0
LTYPE
  5
14
330
5
100
AcDbSymbolTableRecord
100
AcDbLinetypeTableRecord
  2
BYBLOCK
 70
     0
  3

 72
    65
 73
     0
 40
0.0
  0
LTYPE
  5
15
330
5
100
AcDbSymbolTableRecord
100
AcDbLinetypeTableRecord
  2
BYLAYER
 70
     0
  3

 72
    65
 73
     0
 40
0.0
  0
LTYPE
  5
16
330
5
100
AcDbSymbolTableRecord
100
AcDbLinetypeTableRecord
  2
CONTINUOUS
 70
     0
  3
Solid line
 72
    65
 73
     0
 40
0.0
  0
LTYPE
  5
43
330
5
100
AcDbSymbolTableRecord
100
AcDbLinetypeTableRecord
  2
AM_ISO02W050
 70
     0
  3
__ __ __ __ __ __ __ __ __ __ __ __ __ __ __
 72
    65
 73
     2
 40
7.5
 49
6.0
 74
     0
 49
-1.5
 74
     0
  0
LTYPE
  5
44
330
5
100
AcDbSymbolTableRecord
100
AcDbLinetypeTableRecord
  2
AM_ISO08W050
 70
     0
  3
____ . ____ . ____ . ____ . ____ . ____ . ____
 72
    65
 73
     4
 40
18.0
 49
12.0
 74
     0
 49
-1.5
 74
     0
 49
3.0
 74
     0
 49
-1.5
 74
     0
  0
LTYPE
  5
45
330
5
100
AcDbSymbolTableRecord
100
AcDbLinetypeTableRecord
  2
AM_ISO09W050
 70
     0
  3
_____ . . _____ . . _____ . . ____ .. ____
 72
    65
 73
     6
 40
22.5
 49
12.0
 74
     0
 49
-1.5
 74
     0
 49
3.0
 74
     0
 49
-1.5
 74
     0
 49
3.0
 74
     0
 49
-1.5
 74
     0
  0
LTYPE
  5
46
330
5
100
AcDbSymbolTableRecord
100
AcDbLinetypeTableRecord
  2
AMCONSTR
 70
     0
  3
_______________________
 72
    65
 73
     2
 40
9999.0
 49
9999.0
 74
     0
 49
0.0
 74
     0
  0
LTYPE
  5
47
330
5
100
AcDbSymbolTableRecord
100
AcDbLinetypeTableRecord
  2
AM_ISO02W050X2
 70
     0
  3
 _ _ _ _ _ _ _ _ _ _ _ _
 72
    65
 73
     2
 40
3.75
 49
3.0
 74
     0
 49
-0.75
 74
     0
  0
LTYPE
  5
48
330
5
100
AcDbSymbolTableRecord
100
AcDbLinetypeTableRecord
  2
AM_ISO08W050X2
 70
     0
  3
__ . __ . __ . __ . __ . __
 72
    65
 73
     4
 40
9.0
 49
6.0
 74
     0
 49
-0.75
 74
     0
 49
1.5
 74
     0
 49
-0.75
 74
     0
  0
LTYPE
  5
4B
330
5
100
AcDbSymbolTableRecord
100
AcDbLinetypeTableRecord
  2
AMZIGZAG
 70
     0
  3
/\/-/\/-/\/-/\/-/\/-/\/
 72
    65
 73
     2
 40
11.00009999999999
 49
0.0001
 74
     4
 75
   135
340
4A
 46
0.04
 50
0.0
 44
0.0
 45
0.0
 49
-11.0
 74
     0
  0
LTYPE
  5
B683
330
5
100
AcDbSymbolTableRecord
100
AcDbLinetypeTableRecord
  2
HIDDEN
 70
     0
  3
Hidden __ __ __ __ __ __ __ __ __ __ __ __ __ _
 72
    65
 73
     2
 40
9.524999999999998
 49
6.349999999999999
 74
     0
 49
-3.174999999999999
 74
     0
  0
LTYPE
  5
B684
330
5
100
AcDbSymbolTableRecord
100
AcDbLinetypeTableRecord
  2
PHANTOM2
 70
     0
  3
Phantom (.5x) ___ _ _ ___ _ _ ___ _ _ ___ _ _
 72
    65
 73
     6
 40
31.75
 49
15.875
 74
     0
 49
-3.174999999999999
 74
     0
 49
3.174999999999999
 74
     0
 49
-3.174999999999999
 74
     0
 49
3.174999999999999
 74
     0
 49
-3.174999999999999
 74
     0
  0
LTYPE
  5
B685
330
5
100
AcDbSymbolTableRecord
100
AcDbLinetypeTableRecord
  2
CENTER
 70
     0
  3
Center ____ _ ____ _ ____ _ ____ _ ____ _ ____
 72
    65
 73
     4
 40
50.8
 49
31.75
 74
     0
 49
-6.349999999999999
 74
     0
 49
6.349999999999999
 74
     0
 49
-6.349999999999999
 74
     0
  0
LTYPE
  5
B6C5
330
5
100
AcDbSymbolTableRecord
100
AcDbLinetypeTableRecord
  2
ACISOWELD
 70
     0
  3
_ _ _ _ _
 72
    65
 73
     2
 40
2.0
 49
2.0
 74
     0
 49
-1.0
 74
     0
  0
LTYPE
  5
B6C6
330
5
100
AcDbSymbolTableRecord
100
AcDbLinetypeTableRecord
  2
ACISOTGB
 70
     0
  3
__ . . __ . .
 72
    65
 73
     6
 40
9.0
 49
4.0
 74
     0
 49
-1.0
 74
     0
 49
1.0
 74
     0
 49
-1.0
 74
     0
 49
1.0
 74
     0
 49
-1.0
 74
     0
  0
LTYPE
  5
B6C7
330
5
100
AcDbSymbolTableRecord
100
AcDbLinetypeTableRecord
  2
ACISOTGL
 70
     0
  3
_ _ _ _ _
 72
    65
 73
     2
 40
3.0
 49
2.0
 74
     0
 49
-1.0
 74
     0
  0
ENDTAB
  0
TABLE
  2
LAYER
  5
2
330
0
100
AcDbSymbolTable
 70
    13
  0
LAYER
  5
10
330
2
100
AcDbSymbolTableRecord
100
AcDbLayerTableRecord
  2
0
 70
     0
 62
     7
  6
CONTINUOUS
370
    -3
390
F
  0
LAYER
  5
7D
330
2
100
AcDbSymbolTableRecord
100
AcDbLayerTableRecord
  2
AM_5
 70
     0
 62
     3
  6
CONTINUOUS
370
    -3
390
F
  0
LAYER
  5
7F
330
2
100
AcDbSymbolTableRecord
100
AcDbLayerTableRecord
  2
DEFPOINTS
 70
     0
 62
     7
  6
CONTINUOUS
290
     0
370
    -3
390
F
  0
LAYER
  5
12B1
330
2
100
AcDbSymbolTableRecord
100
AcDbLayerTableRecord
  2
AM_0
 70
     0
 62
     7
  6
CONTINUOUS
370
    -3
390
F
  0
LAYER
  5
2222
330
2
100
AcDbSymbolTableRecord
100
AcDbLayerTableRecord
  2
AM_6
 70
     0
 62
     2
  6
CONTINUOUS
370
    -3
390
F
  0
LAYER
  5
7DB2
330
2
100
AcDbSymbolTableRecord
100
AcDbLayerTableRecord
  2
AM_7
 70
     0
 62
     4
  6
AM_ISO08W050
370
    -3
390
F
  0
ENDTAB
  0
TABLE
  2
STYLE
  5
3
330
0
100
AcDbSymbolTable
 70
     6
  0
STYLE
  5
11
330
3
100
AcDbSymbolTableRecord
100
AcDbTextStyleTableRecord
  2
STANDARD
 70
     0
 40
0.0
 41
1.0
 50
0.0
 71
     0
 42
2.5
  3
ISOCP.SHX
  4
EXTFONT.SHX
  0
STYLE
  5
4A
330
3
100
AcDbSymbolTableRecord
100
AcDbTextStyleTableRecord
  2

 70
     1
 40
0.0
 41
1.0
 50
0.0
 71
     0
 42
2.5
  3
ltypeshp.shx
  4

  0
STYLE
  5
B6B7
330
3
100
AcDbSymbolTableRecord
100
AcDbTextStyleTableRecord
  2
ACISOTS
 70
     0
 40
1.0
 41
1.0
 50
0.0
 71
     0
 42
2.5
  3
isocp.shx
  4
extfont.shx
  0
STYLE
  5
B6C4
330
3
100
AcDbSymbolTableRecord
100
AcDbTextStyleTableRecord
  2
ACISOGDT
 70
     0
 40
0.0
 41
1.0
 50
0.0
 71
     0
 42
2.5
  3
amgdt.shx
  4

  0
ENDTAB
  0
TABLE
  2
VIEW
  5
6
330
0
100
AcDbSymbolTable
 70
     6
  0
VIEW
  5
A30
330
6
100
AcDbSymbolTableRecord
100
AcDbViewTableRecord
  2
AM_VIEW1
 70
     0
 40
148.5
 10
112.0719649561952
 20
222.75
 41
224.1439299123904
 11
0.0
 21
0.0
 31
1.0
 12
0.0
 22
0.0
 32
0.0
 42
50.0
 43
0.0
 44
0.0
 50
0.0
 71
     0
281
     0
 72
     0
  0
VIEW
  5
A31
330
6
100
AcDbSymbolTableRecord
100
AcDbViewTableRecord
  2
AM_VIEW2
 70
     0
 40
148.5
 10
307.9280350438047
 20
222.75
 41
224.1439299123904
 11
0.0
 21
0.0
 31
1.0
 12
0.0
 22
0.0
 32
0.0
 42
50.0
 43
0.0
 44
0.0
 50
0.0
 71
     0
281
     0
 72
     0
  0
VIEW
  5
A32
330
6
100
AcDbSymbolTableRecord
100
AcDbViewTableRecord
  2
AM_VIEW3
 70
     0
 40
148.5
 10
112.0719649561952
 20
74.25
 41
224.1439299123904
 11
0.0
 21
0.0
 31
1.0
 12
0.0
 22
0.0
 32
0.0
 42
50.0
 43
0.0
 44
0.0
 50
0.0
 71
     0
281
     0
 72
     0
  0
VIEW
  5
A33
330
6
100
AcDbSymbolTableRecord
100
AcDbViewTableRecord
  2
AM_VIEW4
 70
     0
 40
148.5
 10
307.9280350438047
 20
74.25
 41
224.1439299123904
 11
0.0
 21
0.0
 31
1.0
 12
0.0
 22
0.0
 32
0.0
 42
50.0
 43
0.0
 44
0.0
 50
0.0
 71
     0
281
     0
 72
     0
  0
VIEW
  5
A34
330
6
100
AcDbSymbolTableRecord
100
AcDbViewTableRecord
  2
AM_VIEW5
 70
     0
 40
148.5
 10
210.0
 20
148.5
 41
224.1439299123904
 11
0.0
 21
0.0
 31
1.0
 12
0.0
 22
0.0
 32
0.0
 42
50.0
 43
0.0
 44
0.0
 50
0.0
 71
     0
281
     0
 72
     0
  0
VIEW
  5
A35
330
6
100
AcDbSymbolTableRecord
100
AcDbViewTableRecord
  2
AM_VIEW6
 70
     0
 40
296.9970299999999
 10
210.0
 20
148.5
 41
448.2833769461826
 11
0.0
 21
0.0
 31
1.0
 12
0.0
 22
0.0
 32
0.0
 42
50.0
 43
0.0
 44
0.0
 50
0.0
 71
     0
281
     0
 72
     0
  0
ENDTAB
  0
TABLE
  2
UCS
  5
7
330
0
100
AcDbSymbolTable
 70
     0
  0
ENDTAB
  0
TABLE
  2
APPID
  5
9
330
0
100
AcDbSymbolTable
 70
    42
  0
APPID
  5
12
330
9
100
AcDbSymbolTableRecord
100
AcDbRegAppTableRecord
  2
ACAD
 70
     0
  0
APPID
  5
2C
330
9
100
AcDbSymbolTableRecord
100
AcDbRegAppTableRecord
  2
MCAD_NO_VIS
 70
     0
  0
APPID
  5
2D
330
9
100
AcDbSymbolTableRecord
100
AcDbRegAppTableRecord
  2
ACAD_TEMP_GRAPHIC
 70
     0
  0
APPID
  5
B9
330
9
100
AcDbSymbolTableRecord
100
AcDbRegAppTableRecord
  2
GENIUS_GENDTOL_13
 70
     0
  0
APPID
  5
359
330
9
100
AcDbSymbolTableRecord
100
AcDbRegAppTableRecord
  2
GENIUS_GENREC_14
 70
     0
  0
APPID
  5
35A
330
9
100
AcDbSymbolTableRecord
100
AcDbRegAppTableRecord
  2
GENIUS_GENODEF_13
 70
     0
  0
APPID
  5
35B
330
9
100
AcDbSymbolTableRecord
100
AcDbRegAppTableRecord
  2
GENIUS_GENOBJ-N-REC_13
 70
     0
  0
APPID
  5
667
330
9
100
AcDbSymbolTableRecord
100
AcDbRegAppTableRecord
  2
GENIUS_GENCFG_13
 70
     0
  0
APPID
  5
668
330
9
100
AcDbSymbolTableRecord
100
AcDbRegAppTableRecord
  2
GENIUS_GENCFG0_13
 70
     0
  0
APPID
  5
669
330
9
100
AcDbSymbolTableRecord
100
AcDbRegAppTableRecord
  2
GENIUS_GENCFG1_13
 70
     0
  0
APPID
  5
66A
330
9
100
AcDbSymbolTableRecord
100
AcDbRegAppTableRecord
  2
GENIUS_GENCFG2_13
 70
     0
  0
APPID
  5
66B
330
9
100
AcDbSymbolTableRecord
100
AcDbRegAppTableRecord
  2
GENIUS_GENCFG3_13
 70
     0
  0
APPID
  5
66C
330
9
100
AcDbSymbolTableRecord
100
AcDbRegAppTableRecord
  2
GENIUS_GENCFG4_13
 70
     0
  0
APPID
  5
A76
330
9
100
AcDbSymbolTableRecord
100
AcDbRegAppTableRecord
  2
GENIUS_GENBLLY_14
 70
     0
  0
APPID
  5
A77
330
9
100
AcDbSymbolTableRecord
100
AcDbRegAppTableRecord
  2
GENIUS_GENOBJ-N-CEN_13
 70
     0
  0
APPID
  5
A83
330
9
100
AcDbSymbolTableRecord
100
AcDbRegAppTableRecord
  2
GENIUS_GENTRA_14
 70
     0
  0
APPID
  5
A8D
330
9
100
AcDbSymbolTableRecord
100
AcDbRegAppTableRecord
  2
GENIUS_GENOBJ-N-TIT_13
 70
     0
  0
APPID
  5
A8E
330
9
100
AcDbSymbolTableRecord
100
AcDbRegAppTableRecord
  2
GENIUS_GENTITLE_13
 70
     0
  0
APPID
  5
A8F
330
9
100
AcDbSymbolTableRecord
100
AcDbRegAppTableRecord
  2
GENIUS_GENOENT_13
 70
     0
  0
APPID
  5
A90
330
9
100
AcDbSymbolTableRecord
100
AcDbRegAppTableRecord
  2
GENIUS_GENOREF_13
 70
     0
  0
APPID
  5
A91
330
9
100
AcDbSymbolTableRecord
100
AcDbRegAppTableRecord
  2
GENIUS_GENOLIS_13
 70
     0
  0
APPID
  5
A92
330
9
100
AcDbSymbolTableRecord
100
AcDbRegAppTableRecord
  2
GENIUS_GENZVEED_13
 70
     0
  0
APPID
  5
A93
330
9
100
AcDbSymbolTableRecord
100
AcDbRegAppTableRecord
  2
GENIUS_GENSCREG_15
 70
     0
  0
APPID
  5
A94
330
9
100
AcDbSymbolTableRecord
100
AcDbRegAppTableRecord
  2
GENIUS_GENOBJ-N-SDF_13
 70
     0
  0
APPID
  5
12B5
330
9
100
AcDbSymbolTableRecord
100
AcDbRegAppTableRecord
  2
GENIUS_GENOBJ-N-RSBK_13
 70
     0
  0
APPID
  5
12B6
330
9
100
AcDbSymbolTableRecord
100
AcDbRegAppTableRecord
  2
GENIUS_GENOBJ-N-LIB_13
 70
     0
  0
APPID
  5
12B7
330
9
100
AcDbSymbolTableRecord
100
AcDbRegAppTableRecord
  2
GENIUS_GENSCALE_13
 70
     0
  0
APPID
  5
12B8
330
9
100
AcDbSymbolTableRecord
100
AcDbRegAppTableRecord
  2
GENIUS_GENOBJ-N-HTC_13
 70
     0
  0
APPID
  5
12B9
330
9
100
AcDbSymbolTableRecord
100
AcDbRegAppTableRecord
  2
GENIUS_GENHATCH_13
 70
     0
  0
APPID
  5
1C0A
330
9
100
AcDbSymbolTableRecord
100
AcDbRegAppTableRecord
  2
BASE_TYPE
 70
     0
  0
APPID
  5
276B
330
9
100
AcDbSymbolTableRecord
100
AcDbRegAppTableRecord
  2
GENIUS_GENOBJ-N-FIL_13
 70
     0
  0
APPID
  5
3640
330
9
100
AcDbSymbolTableRecord
100
AcDbRegAppTableRecord
  2
GENIUS_GENBH_13
 70
     0
  0
APPID
  5
36D1
330
9
100
AcDbSymbolTableRecord
100
AcDbRegAppTableRecord
  2
GENIUS_GENOBJ-F-SPR_13
 70
     0
  0
APPID
  5
36DA
330
9
100
AcDbSymbolTableRecord
100
AcDbRegAppTableRecord
  2
GENIUS_GEFSPRING_13
 70
     0
  0
APPID
  5
36DB
330
9
100
AcDbSymbolTableRecord
100
AcDbRegAppTableRecord
  2
GENIUS_GEFSPRINGP_13
 70
     0
  0
APPID
  5
4D67
330
9
100
AcDbSymbolTableRecord
100
AcDbRegAppTableRecord
  2
GENIUS_GENFIL_13
 70
     0
  0
APPID
  5
4D68
330
9
100
AcDbSymbolTableRecord
100
AcDbRegAppTableRecord
  2
GENIUS_GENOBJ-N-CHA_13
 70
     0
  0
APPID
  5
B687
330
9
100
AcDbSymbolTableRecord
100
AcDbRegAppTableRecord
  2
AD_DRAW
 70
     0
  0
APPID
  5
B68A
330
9
100
AcDbSymbolTableRecord
100
AcDbRegAppTableRecord
  2
ACATTRIBSERVICES
 70
     0
  0
APPID
  5
B6A8
330
9
100
AcDbSymbolTableRecord
100
AcDbRegAppTableRecord
  2
DESIGNERASSEMBLIES
 70
     0
  0
APPID
  5
B6AD
330
9
100
AcDbSymbolTableRecord
100
AcDbRegAppTableRecord
  2
ACADM_DIM_EDIT
 70
     0
  0
APPID
  5
B6AE
330
9
100
AcDbSymbolTableRecord
100
AcDbRegAppTableRecord
  2
AMDT_DM_ADJ
 70
     0
  0
ENDTAB
  0
TABLE
  2
DIMSTYLE
  5
A
330
0
100
AcDbSymbolTable
 70
    20
100
AcDbDimStyleTable
 71
     0
  0
DIMSTYLE
105
58
330
A
100
AcDbSymbolTableRecord
100
AcDbDimStyleTableRecord
  2
AM_JIS
 70
     0
  4
"
 41
2.5
 42
0.0
 43
10.0
 44
1.0
 47
0.1
 48
0.1000000001
 73
     0
 74
     0
 77
     3
 78
     9
140
3.799999999999998
141
0.0
143
0.0393701
146
0.71
147
1.5
172
     1
176
   256
177
   256
178
     2
271
     2
272
     2
275
     1
283
     0
284
     8
340
11
341
59
342
59
  0
DIMSTYLE
105
65F
330
A
100
AcDbSymbolTableRecord
100
AcDbDimStyleTableRecord
  2
STANDARD
 70
     0
340
11
  0
DIMSTYLE
105
1761
102
{ACAD_REACTORS
330
B2E1
330
B30B
330
B318
330
B334
330
B341
330
B34E
102
}
330
A
100
AcDbSymbolTableRecord
100
AcDbDimStyleTableRecord
  2
AM_JIS$0
 70
     0
  4
"
 41
2.5
 42
0.0
 43
10.0
 44
1.0
 47
0.1
 48
0.1000000001
 73
     0
 74
     0
 77
     3
 78
     9
140
3.799999999999998
141
0.0
143
0.0393701
146
0.71
147
1.5
172
     1
176
     3
177
     3
178
     2
271
     2
272
     2
275
     1
283
     0
284
     8
340
11
341
59
342
59
  0
DIMSTYLE
105
B6D0
330
A
100
AcDbSymbolTableRecord
100
AcDbDimStyleTableRecord
  2
AM_ISO
 70
     0
  4
"
 41
2.5
 42
1.0
 43
10.0
 44
1.0
 47
0.1
 48
0.1
 73
     0
 74
     0
 77
     1
 78
     8
 79
     2
140
3.5
141
0.0
143
0.0393701
146
0.71
147
1.5
172
     1
176
   256
177
   256
178
     2
271
     2
272
     3
274
     4
283
     0
284
     8
340
11
371
    -1
372
    -1
  0
DIMSTYLE
105
B6D1
330
A
100
AcDbSymbolTableRecord
100
AcDbDimStyleTableRecord
  2
AM_ISO$3
 70
     0
  4
"
 41
2.5
 42
1.0
 43
10.0
 44
1.0
 47
0.1
 48
0.1
 73
     0
 77
     1
 78
     8
 79
     2
140
3.5
141
0.0
143
0.0393701
146
0.71
147
1.5
176
   256
177
   256
178
     2
271
     2
272
     3
274
     4
283
     0
284
     8
288
     1
289
     0
340
11
371
    -1
372
    -1
  0
DIMSTYLE
105
B6D2
330
A
100
AcDbSymbolTableRecord
100
AcDbDimStyleTableRecord
  2
AM_ISO$4
 70
     0
  4
"
 41
2.5
 42
1.0
 43
10.0
 44
1.0
 47
0.1
 48
0.1
 73
     0
 77
     1
 78
     8
 79
     2
140
3.5
141
0.0
143
0.0393701
146
0.71
147
1.5
176
   256
177
   256
178
     2
271
     2
272
     3
274
     4
283
     0
284
     8
288
     1
289
     0
340
11
371
    -1
372
    -1
  0
DIMSTYLE
105
B6D3
330
A
100
AcDbSymbolTableRecord
100
AcDbDimStyleTableRecord
  2
AM_ISO$6
 70
     0
  4
"
 41
2.5
 42
1.0
 43
10.0
 44
1.0
 47
0.1
 48
0.1
 73
     0
 74
     0
 78
     8
 79
     2
140
3.5
141
0.0
143
0.0393701
146
0.71
147
1.5
172
     1
176
   256
177
   256
178
     2
271
     2
272
     3
274
     4
283
     0
284
     8
340
11
371
    -1
372
    -1
  0
DIMSTYLE
105
B6D4
330
A
100
AcDbSymbolTableRecord
100
AcDbDimStyleTableRecord
  2
AM_ISO$7
 70
     0
  4
"
 41
2.5
 42
1.0
 43
10.0
 44
1.0
 47
0.1
 48
0.1
 73
     0
 74
     0
 77
     1
 78
     8
 79
     2
140
5.0
141
0.0
143
0.0393701
146
0.71
147
1.5
172
     1
176
   256
177
   256
178
     2
271
     2
272
     3
274
     4
283
     0
284
     8
340
11
371
    -1
372
    -1
  0
DIMSTYLE
105
B6D5
330
A
100
AcDbSymbolTableRecord
100
AcDbDimStyleTableRecord
  2
AM_ISO$SF
 70
     0
  4
"
 41
2.5
 42
1.0
 43
10.0
 44
1.0
 47
0.1
 48
0.1
 73
     0
 74
     0
 75
     1
 76
     1
 77
     1
 78
     8
 79
     2
140
3.5
141
0.0
143
0.0393701
146
0.71
147
1.5
172
     1
176
   256
177
   256
178
     2
271
     2
272
     3
274
     4
283
     0
284
     8
340
11
371
    -1
372
    -1
  0
DIMSTYLE
105
B6D6
330
A
100
AcDbSymbolTableRecord
100
AcDbDimStyleTableRecord
  2
AM_ISO$SH
 70
     0
  4
"
 41
2.5
 42
1.0
 43
10.0
 44
1.0
 47
0.1
 48
0.1
 73
     0
 74
     0
 75
     1
 76
     1
 77
     1
 78
     8
 79
     2
140
3.5
141
0.0
143
0.0393701
144
2.0
146
0.71
147
1.5
172
     1
173
     1
176
   256
177
   256
178
     2
271
     2
272
     3
274
     4
283
     0
284
     8
340
11
343
64
371
    -1
372
    -1
  0
ENDTAB
  0
TABLE
  2
BLOCK_RECORD
  5
1
330
0
100
AcDbSymbolTable
 70
    17
  0
BLOCK_RECORD
  5
1F
102
{ACAD_XDICTIONARY
360
165
102
}
330
1
100
AcDbSymbolTableRecord
100
AcDbBlockTableRecord
  2
*MODEL_SPACE
340
B64F
  0
BLOCK_RECORD
  5
1B
102
{ACAD_XDICTIONARY
360
B642
102
}
330
1
100
AcDbSymbolTableRecord
100
AcDbBlockTableRecord
  2
*PAPER_SPACE
340
B650
  0
BLOCK_RECORD
  5
59
330
1
100
AcDbSymbolTableRecord
100
AcDbBlockTableRecord
  2
_OPEN30
340
0
102
{BLKREFS
331
B718
331
B719
331
B721
331
B722
331
B72A
331
B72B
331
B733
331
B734
331
B73C
331
B73D
331
B745
331
B746
102
}
  0
BLOCK_RECORD
  5
64
330
1
100
AcDbSymbolTableRecord
100
AcDbBlockTableRecord
  2
GENAXEH
340
0
  0
BLOCK_RECORD
  5
AB1E
330
1
100
AcDbSymbolTableRecord
100
AcDbBlockTableRecord
  2
CBF06
340
0
102
{BLKREFS
331
B534
102
}
  0
BLOCK_RECORD
  5
B2E2
330
1
100
AcDbSymbolTableRecord
100
AcDbBlockTableRecord
  2
*D10
340
0
  0
BLOCK_RECORD
  5
B30C
330
1
100
AcDbSymbolTableRecord
100
AcDbBlockTableRecord
  2
*D11
340
0
  0
BLOCK_RECORD
  5
B319
330
1
100
AcDbSymbolTableRecord
100
AcDbBlockTableRecord
  2
*D12
340
0
  0
BLOCK_RECORD
  5
B335
330
1
100
AcDbSymbolTableRecord
100
AcDbBlockTableRecord
  2
*D13
340
0
  0
BLOCK_RECORD
  5
B342
330
1
100
AcDbSymbolTableRecord
100
AcDbBlockTableRecord
  2
*D14
340
0
  0
BLOCK_RECORD
  5
B34F
330
1
100
AcDbSymbolTableRecord
100
AcDbBlockTableRecord
  2
*D15
340
0
  0
ENDTAB
  0
ENDSEC
  0
SECTION
  2
BLOCKS
  0
BLOCK
  5
20
330
1F
100
AcDbEntity
  8
0
100
AcDbBlockBegin
  2
*MODEL_SPACE
 70
     0
 10
0.0
 20
0.0
 30
0.0
  3
*MODEL_SPACE
  1

  0
ENDBLK
  5
21
330
1F
100
AcDbEntity
  8
0
100
AcDbBlockEnd
  0
BLOCK
  5
1C
330
1B
100
AcDbEntity
 67
     1
  8
0
100
AcDbBlockBegin
  2
*PAPER_SPACE
 70
     0
 10
0.0
 20
0.0
 30
0.0
  3
*PAPER_SPACE
  1

  0
ENDBLK
  5
1D
330
1B
100
AcDbEntity
 67
     1
  8
0
100
AcDbBlockEnd
  0
BLOCK
  5
5D
330
59
100
AcDbEntity
  8
0
100
AcDbBlockBegin
  2
_OPEN30
 70
     0
 10
0.0
 20
0.0
 30
0.0
  3
_OPEN30
  1

  0
LINE
  5
5A
330
59
100
AcDbEntity
  8
0
 62
     0
100
AcDbLine
 10
-1.0
 20
0.26794919
 30
0.0
 11
0.0
 21
0.0
 31
0.0
  0
LINE
  5
5B
330
59
100
AcDbEntity
  8
0
 62
     0
100
AcDbLine
 10
0.0
 20
0.0
 30
0.0
 11
-1.0
 21
-0.26794919
 31
0.0
  0
LINE
  5
5C
330
59
100
AcDbEntity
  8
0
 62
     0
100
AcDbLine
 10
0.0
 20
0.0
 30
0.0
 11
-1.0
 21
0.0
 31
0.0
  0
ENDBLK
  5
5E
330
59
100
AcDbEntity
  8
0
100
AcDbBlockEnd
  0
BLOCK
  5
66
330
64
100
AcDbEntity
  8
0
100
AcDbBlockBegin
  2
GENAXEH
 70
     0
 10
0.0
 20
0.0
 30
0.0
  3
GENAXEH
  1

  0
LINE
  5
65
330
64
100
AcDbEntity
  8
0
100
AcDbLine
 10
-1.0
 20
0.0
 30
0.0
 11
1.0
 21
0.0
 31
0.0
  0
ENDBLK
  5
67
330
64
100
AcDbEntity
  8
0
100
AcDbBlockEnd
  0
BLOCK
  5
AB27
330
AB1E
100
AcDbEntity
  8
0
100
AcDbBlockBegin
  2
CBF06
 70
     0
 10
0.0
 20
0.0
 30
0.0
  3
CBF06
  1

  0
CIRCLE
  5
AB1F
330
AB1E
100
AcDbEntity
  8
0
  6
Continuous
100
AcDbCircle
 10
0.0000187875812969
 20
0.0000034482758053
 30
0.0
 40
4.307179353944746
  0
CIRCLE
  5
AB20
330
AB1E
100
AcDbEntity
  8
0
  6
Continuous
100
AcDbCircle
 10
0.0000187875812969
 20
0.0000034482758053
 30
0.0
 40
5.0
  0
LINE
  5
AB21
330
AB1E
100
AcDbEntity
  8
0
  6
Continuous
100
AcDbLine
 10
-1.443356212418706
 20
-2.499995386098901
 30
0.0
 11
1.443393787581185
 21
-2.499995386098901
 31
0.0
  0
LINE
  5
AB22
330
AB1E
100
AcDbEntity
  8
0
  6
Continuous
100
AcDbLine
 10
1.4433937875813
 20
2.500002282650598
 30
0.0
 11
-1.443356212418706
 21
2.500002282650598
 31
0.0
  0
LINE
  5
AB23
330
AB1E
100
AcDbEntity
  8
0
  6
Continuous
100
AcDbLine
 10
-2.886731212418651
 20
0.0000034482758053
 30
0.0
 11
-1.443356212418706
 21
-2.499995386098901
 31
0.0
  0
LINE
  5
AB24
330
AB1E
100
AcDbEntity
  8
0
  6
Continuous
100
AcDbLine
 10
-1.443356212418706
 20
2.500002282650598
 30
0.0
 11
-2.886731212418651
 21
0.0000034482758053
 31
0.0
  0
LINE
  5
AB25
330
AB1E
100
AcDbEntity
  8
0
  6
Continuous
100
AcDbLine
 10
1.443393787581185
 20
-2.499995386098901
 30
0.0
 11
2.886768787581303
 21
0.0000034482758053
 31
0.0
  0
LINE
  5
AB26
330
AB1E
100
AcDbEntity
  8
0
  6
Continuous
100
AcDbLine
 10
2.886768787581303
 20
0.0000034482758053
 30
0.0
 11
1.4433937875813
 21
2.500002282650598
 31
0.0
  0
ENDBLK
  5
AB28
330
AB1E
100
AcDbEntity
  8
0
100
AcDbBlockEnd
  0
BLOCK
  5
B2EE
330
B2E2
100
AcDbEntity
  8
0
100
AcDbBlockBegin
  2
*D10
 70
     1
 10
0.0
 20
0.0
 30
0.0
  3
*D10
  1

  0
LINE
  5
B713
330
B2E2
100
AcDbEntity
  8
AM_5
 62
     3
370
    -2
100
AcDbLine
 10
6.997391953326298
 20
0.2209200375752882
 30
0.0
 11
6.997391953326297
 21
-14.26188041293039
 31
0.0
  0
LINE
  5
B714
330
B2E2
100
AcDbEntity
  8
AM_5
 62
     3
370
    -2
100
AcDbLine
 10
0.0
 20
0.1895328087513031
 30
0.0
 11
-0.0000000000000009
 21
-14.26188041293039
 31
0.0
  0
LINE
  5
B715
330
B2E2
100
AcDbEntity
  8
AM_5
 62
     3
370
    -2
100
AcDbLine
 10
9.497391953326296
 20
-13.26188041293039
 30
0.0
 11
11.99739195332629
 21
-13.26188041293039
 31
0.0
  0
LINE
  5
B716
330
B2E2
100
AcDbEntity
  8
AM_5
 62
     3
370
    -2
100
AcDbLine
 10
-2.5
 20
-13.26188041293039
 30
0.0
 11
-5.0
 21
-13.26188041293039
 31
0.0
  0
LINE
  5
B717
330
B2E2
100
AcDbEntity
  8
AM_5
 62
     3
370
    -2
100
AcDbLine
 10
6.997391953326297
 20
-13.26188041293039
 30
0.0
 11
-0.0000000000000008
 21
-13.26188041293039
 31
0.0
  0
INSERT
  5
B718
330
B2E2
100
AcDbEntity
  8
AM_5
 62
     3
370
    -2
100
AcDbBlockReference
  2
_OPEN30
 10
6.997391953326297
 20
-13.26188041293039
 30
0.0
 41
2.5
 42
2.5
 43
2.5
 50
180.0
  0
INSERT
  5
B719
330
B2E2
100
AcDbEntity
  8
AM_5
 62
     3
370
    -2
100
AcDbBlockReference
  2
_OPEN30
 10
-0.0000000000000008
 20
-13.26188041293039
 30
0.0
 41
2.5
 42
2.5
 43
2.5
  0
MTEXT
  5
B71A
330
B2E2
100
AcDbEntity
  8
AM_5
 62
     2
100
AcDbMText
 10
3.498695976663148
 20
-9.861880412930389
 30
0.0
 40
3.799999999999998
 41
0.0
 71
     5
 72
     1
  1
7
 73
     1
 44
1.0
1001
ACAD
1000
MTEXTBEGIN
1070
    73
1070
     1
1070
    44
1040
1.0
1070
    74
1070
     0
1000
MTEXTEND
  0
POINT
  5
B71B
330
B2E2
100
AcDbEntity
  8
DEFPOINTS
 62
     0
100
AcDbPoint
 10
6.997391953326298
 20
0.2209200375752882
 30
0.0
  0
POINT
  5
B71C
330
B2E2
100
AcDbEntity
  8
DEFPOINTS
 62
     0
100
AcDbPoint
 10
0.0
 20
0.1895328087513031
 30
0.0
  0
POINT
  5
B71D
330
B2E2
100
AcDbEntity
  8
DEFPOINTS
 62
     0
100
AcDbPoint
 10
-0.0000000000000008
 20
-13.26188041293039
 30
0.0
  0
ENDBLK
  5
B2EF
330
B2E2
100
AcDbEntity
  8
0
100
AcDbBlockEnd
  0
BLOCK
  5
B316
330
B30C
100
AcDbEntity
  8
0
100
AcDbBlockBegin
  2
*D11
 70
     1
 10
0.0
 20
0.0
 30
0.0
  3
*D11
  1

  0
LINE
  5
B71E
330
B30C
100
AcDbEntity
  8
AM_5
 62
     3
370
    -2
100
AcDbLine
 10
172.9999999999999
 20
52.59999999999995
 30
0.0
 11
197.7177053987526
 21
52.59999999999994
 31
0.0
  0
LINE
  5
B71F
330
B30C
100
AcDbEntity
  8
AM_5
 62
     3
370
    -2
100
AcDbLine
 10
172.7999999999999
 20
20.59999999999989
 30
0.0
 11
197.7177053987526
 21
20.59999999999989
 31
0.0
  0
LINE
  5
B720
330
B30C
100
AcDbEntity
  8
AM_5
 62
     3
370
    -2
100
AcDbLine
 10
196.7177053987526
 20
50.09999999999994
 30
0.0
 11
196.7177053987526
 21
23.09999999999989
 31
0.0
  0
INSERT
  5
B721
330
B30C
100
AcDbEntity
  8
AM_5
 62
     3
370
    -2
100
AcDbBlockReference
  2
_OPEN30
 10
196.7177053987526
 20
52.59999999999994
 30
0.0
 41
2.5
 42
2.5
 43
2.5
 50
90.0
  0
INSERT
  5
B722
330
B30C
100
AcDbEntity
  8
AM_5
 62
     3
370
    -2
100
AcDbBlockReference
  2
_OPEN30
 10
196.7177053987526
 20
20.59999999999989
 30
0.0
 41
2.5
 42
2.5
 43
2.5
 50
270.0
  0
MTEXT
  5
B723
330
B30C
100
AcDbEntity
  8
AM_5
 62
     2
100
AcDbMText
 10
193.3173313830046
 20
36.59999999999995
 30
0.0
 40
3.799999999999998
 41
0.0
 71
     5
 72
     1
  1
32
 11
0.0000000000000001
 21
1.0
 31
0.0
 73
     1
 44
1.0
1001
ACAD
1000
MTEXTBEGIN
1070
    73
1070
     1
1070
    44
1040
1.0
1070
    74
1070
     0
1000
MTEXTEND
  0
POINT
  5
B724
330
B30C
100
AcDbEntity
  8
DEFPOINTS
 62
     0
100
AcDbPoint
 10
172.9999999999999
 20
52.59999999999995
 30
0.0
  0
POINT
  5
B725
330
B30C
100
AcDbEntity
  8
DEFPOINTS
 62
     0
100
AcDbPoint
 10
172.7999999999999
 20
20.59999999999989
 30
0.0
  0
POINT
  5
B726
330
B30C
100
AcDbEntity
  8
DEFPOINTS
 62
     0
100
AcDbPoint
 10
196.7177053987526
 20
20.59999999999989
 30
0.0
  0
ENDBLK
  5
B317
330
B30C
100
AcDbEntity
  8
0
100
AcDbBlockEnd
  0
BLOCK
  5
B323
330
B319
100
AcDbEntity
  8
0
100
AcDbBlockBegin
  2
*D12
 70
     1
 10
0.0
 20
0.0
 30
0.0
  3
*D12
  1

  0
LINE
  5
B727
330
B319
100
AcDbEntity
  8
AM_5
 62
     3
370
    -2
100
AcDbLine
 10
172.7999999999999
 20
-71.96204962701028
 30
0.0
 11
198.6565843045972
 21
-71.96204962701028
 31
0.0
  0
LINE
  5
B728
330
B319
100
AcDbEntity
  8
AM_5
 62
     3
370
    -2
100
AcDbLine
 10
172.9999999999999
 20
-103.9620496270102
 30
0.0
 11
198.6565843045972
 21
-103.9620496270102
 31
0.0
  0
LINE
  5
B729
330
B319
100
AcDbEntity
  8
AM_5
 62
     3
370
    -2
100
AcDbLine
 10
197.6565843045972
 20
-74.46204962701028
 30
0.0
 11
197.6565843045972
 21
-101.4620496270102
 31
0.0
  0
INSERT
  5
B72A
330
B319
100
AcDbEntity
  8
AM_5
 62
     3
370
    -2
100
AcDbBlockReference
  2
_OPEN30
 10
197.6565843045972
 20
-71.96204962701028
 30
0.0
 41
2.5
 42
2.5
 43
2.5
 50
90.0
  0
INSERT
  5
B72B
330
B319
100
AcDbEntity
  8
AM_5
 62
     3
370
    -2
100
AcDbBlockReference
  2
_OPEN30
 10
197.6565843045972
 20
-103.9620496270102
 30
0.0
 41
2.5
 42
2.5
 43
2.5
 50
270.0
  0
MTEXT
  5
B72C
330
B319
100
AcDbEntity
  8
AM_5
 62
     2
100
AcDbMText
 10
194.2562102888492
 20
-87.96204962701024
 30
0.0
 40
3.799999999999998
 41
0.0
 71
     5
 72
     1
  1
32
 11
0.0000000000000001
 21
1.0
 31
0.0
 73
     1
 44
1.0
1001
ACAD
1000
MTEXTBEGIN
1070
    73
1070
     1
1070
    44
1040
1.0
1070
    74
1070
     0
1000
MTEXTEND
  0
POINT
  5
B72D
330
B319
100
AcDbEntity
  8
DEFPOINTS
 62
     0
100
AcDbPoint
 10
172.7999999999999
 20
-71.96204962701028
 30
0.0
  0
POINT
  5
B72E
330
B319
100
AcDbEntity
  8
DEFPOINTS
 62
     0
100
AcDbPoint
 10
172.9999999999999
 20
-103.9620496270102
 30
0.0
  0
POINT
  5
B72F
330
B319
100
AcDbEntity
  8
DEFPOINTS
 62
     0
100
AcDbPoint
 10
197.6565843045972
 20
-103.9620496270102
 30
0.0
  0
ENDBLK
  5
B324
330
B319
100
AcDbEntity
  8
0
100
AcDbBlockEnd
  0
BLOCK
  5
B33F
330
B335
100
AcDbEntity
  8
0
100
AcDbBlockBegin
  2
*D13
 70
     1
 10
0.0
 20
0.0
 30
0.0
  3
*D13
  1

  0
LINE
  5
B730
330
B335
100
AcDbEntity
  8
AM_5
 62
     3
370
    -2
100
AcDbLine
 10
3.399999999999978
 20
-103.9620496270102
 30
0.0
 11
-18.34197441240041
 21
-103.9620496270102
 31
0.0
  0
LINE
  5
B731
330
B335
100
AcDbEntity
  8
AM_5
 62
     3
370
    -2
100
AcDbLine
 10
2.399989038225958
 20
-71.96204962701026
 30
0.0
 11
-18.34197441240041
 21
-71.96204962701026
 31
0.0
  0
LINE
  5
B732
330
B335
100
AcDbEntity
  8
AM_5
 62
     3
370
    -2
100
AcDbLine
 10
-17.34197441240041
 20
-101.4620496270102
 30
0.0
 11
-17.34197441240041
 21
-74.46204962701026
 31
0.0
  0
INSERT
  5
B733
330
B335
100
AcDbEntity
  8
AM_5
 62
     3
370
    -2
100
AcDbBlockReference
  2
_OPEN30
 10
-17.34197441240041
 20
-103.9620496270102
 30
0.0
 41
2.5
 42
2.5
 43
2.5
 50
270.0
  0
INSERT
  5
B734
330
B335
100
AcDbEntity
  8
AM_5
 62
     3
370
    -2
100
AcDbBlockReference
  2
_OPEN30
 10
-17.34197441240041
 20
-71.96204962701026
 30
0.0
 41
2.5
 42
2.5
 43
2.5
 50
90.0
  0
MTEXT
  5
B735
330
B335
100
AcDbEntity
  8
AM_5
 62
     2
100
AcDbMText
 10
-20.74234842814843
 20
-87.96204962701025
 30
0.0
 40
3.799999999999998
 41
0.0
 71
     5
 72
     1
  1
32
 11
0.0000000000000001
 21
1.0
 31
0.0
 73
     1
 44
1.0
1001
ACAD
1000
MTEXTBEGIN
1070
    73
1070
     1
1070
    44
1040
1.0
1070
    74
1070
     0
1000
MTEXTEND
  0
POINT
  5
B736
330
B335
100
AcDbEntity
  8
DEFPOINTS
 62
     0
100
AcDbPoint
 10
3.399999999999978
 20
-103.9620496270102
 30
0.0
  0
POINT
  5
B737
330
B335
100
AcDbEntity
  8
DEFPOINTS
 62
     0
100
AcDbPoint
 10
2.399989038225958
 20
-71.96204962701026
 30
0.0
  0
POINT
  5
B738
330
B335
100
AcDbEntity
  8
DEFPOINTS
 62
     0
100
AcDbPoint
 10
-17.34197441240041
 20
-71.96204962701026
 30
0.0
  0
ENDBLK
  5
B340
330
B335
100
AcDbEntity
  8
0
100
AcDbBlockEnd
  0
BLOCK
  5
B34C
330
B342
100
AcDbEntity
  8
0
100
AcDbBlockBegin
  2
*D14
 70
     1
 10
0.0
 20
0.0
 30
0.0
  3
*D14
  1

  0
LINE
  5
B739
330
B342
100
AcDbEntity
  8
AM_5
 62
     3
370
    -2
100
AcDbLine
 10
3.399999999999997
 20
52.59999999999998
 30
0.0
 11
-20.70482665007316
 21
52.59999999999998
 31
0.0
  0
LINE
  5
B73A
330
B342
100
AcDbEntity
  8
AM_5
 62
     3
370
    -2
100
AcDbLine
 10
3.249989038225967
 20
0.0000000000000044
 30
0.0
 11
-20.70482665007316
 21
0.0000000000000112
 31
0.0
  0
LINE
  5
B73B
330
B342
100
AcDbEntity
  8
AM_5
 62
     3
370
    -2
100
AcDbLine
 10
-19.70482665007315
 20
50.09999999999998
 30
0.0
 11
-19.70482665007316
 21
2.500000000000011
 31
0.0
  0
INSERT
  5
B73C
330
B342
100
AcDbEntity
  8
AM_5
 62
     3
370
    -2
100
AcDbBlockReference
  2
_OPEN30
 10
-19.70482665007315
 20
52.59999999999998
 30
0.0
 41
2.5
 42
2.5
 43
2.5
 50
90.0
  0
INSERT
  5
B73D
330
B342
100
AcDbEntity
  8
AM_5
 62
     3
370
    -2
100
AcDbBlockReference
  2
_OPEN30
 10
-19.70482665007316
 20
0.0000000000000109
 30
0.0
 41
2.5
 42
2.5
 43
2.5
 50
270.0
  0
MTEXT
  5
B73E
330
B342
100
AcDbEntity
  8
AM_5
 62
     2
100
AcDbMText
 10
-23.1052006658212
 20
26.29999999999999
 30
0.0
 40
3.799999999999998
 41
0.0
 71
     5
 72
     1
  1
52.6
 11
0.0000000000000001
 21
1.0
 31
0.0
 73
     1
 44
1.0
1001
ACAD
1000
MTEXTBEGIN
1070
    73
1070
     1
1070
    44
1040
1.0
1070
    74
1070
     0
1000
MTEXTEND
  0
POINT
  5
B73F
330
B342
100
AcDbEntity
  8
DEFPOINTS
 62
     0
100
AcDbPoint
 10
3.399999999999997
 20
52.59999999999998
 30
0.0
  0
POINT
  5
B740
330
B342
100
AcDbEntity
  8
DEFPOINTS
 62
     0
100
AcDbPoint
 10
3.249989038225967
 20
0.0000000000000044
 30
0.0
  0
POINT
  5
B741
330
B342
100
AcDbEntity
  8
DEFPOINTS
 62
     0
100
AcDbPoint
 10
-19.70482665007316
 20
0.0000000000000109
 30
0.0
  0
ENDBLK
  5
B34D
330
B342
100
AcDbEntity
  8
0
100
AcDbBlockEnd
  0
BLOCK
  5
B359
330
B34F
100
AcDbEntity
  8
0
100
AcDbBlockBegin
  2
*D15
 70
     1
 10
0.0
 20
0.0
 30
0.0
  3
*D15
  1

  0
LINE
  5
B742
330
B34F
100
AcDbEntity
  8
AM_5
 62
     3
370
    -2
100
AcDbLine
 10
172.9999999999999
 20
13.32353404550257
 30
0.0
 11
172.9999999999999
 21
-29.43347336821966
 31
0.0
  0
LINE
  5
B743
330
B34F
100
AcDbEntity
  8
AM_5
 62
     3
370
    -2
100
AcDbLine
 10
-0.0000000000000004
 20
-2.476465954497358
 30
0.0
 11
-0.0000000000000021
 21
-29.43347336821965
 31
0.0
  0
LINE
  5
B744
330
B34F
100
AcDbEntity
  8
AM_5
 62
     3
370
    -2
100
AcDbLine
 10
170.4999999999999
 20
-28.43347336821965
 30
0.0
 11
2.499999999999997
 21
-28.43347336821965
 31
0.0
  0
INSERT
  5
B745
330
B34F
100
AcDbEntity
  8
AM_5
 62
     3
370
    -2
100
AcDbBlockReference
  2
_OPEN30
 10
172.9999999999999
 20
-28.43347336821965
 30
0.0
 41
2.5
 42
2.5
 43
2.5
  0
INSERT
  5
B746
330
B34F
100
AcDbEntity
  8
AM_5
 62
     3
370
    -2
100
AcDbBlockReference
  2
_OPEN30
 10
-0.000000000000002
 20
-28.43347336821965
 30
0.0
 41
2.5
 42
2.5
 43
2.5
 50
180.0
  0
MTEXT
  5
B747
330
B34F
100
AcDbEntity
  8
AM_5
 62
     2
100
AcDbMText
 10
86.49999999999996
 20
-25.03347336821966
 30
0.0
 40
3.799999999999998
 41
0.0
 71
     5
 72
     1
  1
173
 73
     1
 44
1.0
1001
ACAD
1000
MTEXTBEGIN
1070
    73
1070
     1
1070
    44
1040
1.0
1070
    74
1070
     0
1000
MTEXTEND
  0
POINT
  5
B748
330
B34F
100
AcDbEntity
  8
DEFPOINTS
 62
     0
100
AcDbPoint
 10
172.9999999999999
 20
13.32353404550257
 30
0.0
  0
POINT
  5
B749
330
B34F
100
AcDbEntity
  8
DEFPOINTS
 62
     0
100
AcDbPoint
 10
-0.0000000000000004
 20
-2.476465954497358
 30
0.0
  0
POINT
  5
B74A
330
B34F
100
AcDbEntity
  8
DEFPOINTS
 62
     0
100
AcDbPoint
 10
-0.000000000000002
 20
-28.43347336821965
 30
0.0
  0
ENDBLK
  5
B35A
330
B34F
100
AcDbEntity
  8
0
100
AcDbBlockEnd
  0
ENDSEC
  0
SECTION
  2
ENTITIES
  0
TEXT
  5
83BD
330
1F
100
AcDbEntity
  8
AM_6
100
AcDbText
 10
78.61342481843357
 20
-124.933485474002
 30
0.0
 40
5.0
  1
GMDSR3232-70
 72
     4
 11
100.985951584129
 21
-122.433485474002
 31
0.0
100
AcDbText
  0
LINE
  5
B1A9
330
1F
100
AcDbEntity
  8
AM_0
100
AcDbLine
 10
172.9999999999999
 20
20.59999999999989
 30
0.0
 11
172.9999999999999
 21
52.59999999999995
 31
0.0
  0
LINE
  5
B1AA
330
1F
100
AcDbEntity
  8
AM_0
100
AcDbLine
 10
7.300000000000027
 20
20.59999999999995
 30
0.0
 11
172.7999999999999
 21
20.59999999999989
 31
0.0
  0
LINE
  5
B1AB
330
1F
100
AcDbEntity
  8
AM_0
100
AcDbLine
 10
3.399999999999997
 20
52.59999999999998
 30
0.0
 11
3.399999999999996
 21
49.19999999999993
 31
0.0
  0
LINE
  5
B1AC
330
1F
100
AcDbEntity
  8
AM_0
100
AcDbLine
 10
3.399999999999997
 20
52.59999999999998
 30
0.0
 11
172.9999999999999
 21
52.59999999999995
 31
0.0
  0
LINE
  5
B1AF
330
1F
100
AcDbEntity
  8
AM_0
100
AcDbLine
 10
9.899999999999996
 20
49.19999999999993
 30
0.0
 11
3.399999999999996
 21
49.19999999999993
 31
0.0
  0
LINE
  5
B1B1
330
1F
100
AcDbEntity
  8
AM_0
100
AcDbLine
 10
9.899999999999996
 20
49.19999999999993
 30
0.0
 11
9.899999999999995
 21
44.39999999999999
 31
0.0
  0
LINE
  5
B1B2
330
1F
100
AcDbEntity
  8
AM_0
100
AcDbLine
 10
27.00000000000001
 20
38.60000000000002
 30
0.0
 11
27.00000000000001
 21
20.59999999999995
 31
0.0
  0
ARC
  5
B1B6
330
1F
100
AcDbEntity
  8
AM_0
100
AcDbCircle
 10
25.00000000000002
 20
38.59999999999998
 30
0.0
 40
1.999999999999939
100
AcDbArc
 50
0.0
 51
174.1625445303124
  0
LINE
  5
B1E4
330
1F
100
AcDbEntity
  8
AM_0
100
AcDbLine
 10
3.399999999999981
 20
-71.96204962701023
 30
0.0
 11
23.09999999999991
 21
-71.96204962701026
 31
0.0
  0
LINE
  5
B1E5
330
1F
100
AcDbEntity
  8
AM_0
100
AcDbLine
 10
172.9999999999999
 20
-103.9620496270102
 30
0.0
 11
172.9999999999999
 21
-71.96204962701028
 31
0.0
  0
LINE
  5
B1E6
330
1F
100
AcDbEntity
  8
AM_0
100
AcDbLine
 10
3.399999999999978
 20
-101.0620496270102
 30
0.0
 11
3.399999999999978
 21
-103.9620496270102
 31
0.0
  0
LINE
  5
B1E8
330
1F
100
AcDbEntity
  8
AM_0
100
AcDbLine
 10
3.399999999999978
 20
-103.9620496270102
 30
0.0
 11
172.7999999999999
 21
-103.9620496270102
 31
0.0
  0
LINE
  5
B1EA
330
1F
100
AcDbEntity
  8
AM_0
100
AcDbLine
 10
27.00000000000001
 20
-59.36204962701025
 30
0.0
 11
27.0
 21
-73.36204962701024
 31
0.0
  0
LINE
  5
B1EB
330
1F
100
AcDbEntity
  8
AM_0
100
AcDbLine
 10
22.99999999999988
 20
-73.36204962701024
 30
0.0
 11
27.0
 21
-73.36204962701024
 31
0.0
  0
LINE
  5
B1EC
330
1F
100
AcDbEntity
  8
AM_0
100
AcDbLine
 10
23.0
 20
-71.96204962701023
 30
0.0
 11
23.0
 21
-73.36204962701024
 31
0.0
  0
LINE
  5
B1EE
330
1F
100
AcDbEntity
  8
AM_0
100
AcDbLine
 10
6.4
 20
-95.36204962701024
 30
0.0
 11
11.39999999999998
 21
-95.36204962701024
 31
0.0
  0
LINE
  5
B1F0
330
1F
100
AcDbEntity
  8
AM_0
100
AcDbLine
 10
11.39999999999998
 20
-71.96204962701023
 30
0.0
 11
11.39999999999998
 21
-97.36204962701023
 31
0.0
  0
LINE
  5
B1F1
330
1F
100
AcDbEntity
  8
AM_0
100
AcDbLine
 10
10.89999999999998
 20
-71.96204962701023
 30
0.0
 11
10.89999999999998
 21
-77.66204962701022
 31
0.0
  0
LINE
  5
B1F2
330
1F
100
AcDbEntity
  8
AM_0
100
AcDbLine
 10
6.4
 20
-97.36204962701023
 30
0.0
 11
11.39999999999998
 21
-97.36204962701023
 31
0.0
  0
LINE
  5
B240
102
{ACAD_REACTORS
330
B241
102
}
330
1F
100
AcDbEntity
  8
AM_7
100
AcDbLine
 10
-1.478516174578427
 20
-88.86204962701024
 30
0.0
 11
20.5760742577163
 21
-88.86204962701027
 31
0.0
  0
LINE
  5
B253
330
1F
100
AcDbEntity
  8
AM_0
100
AcDbLine
 10
0.5000000000000045
 20
-76.08204962701027
 30
0.0
 11
0.5000000000000018
 21
-101.0620496270102
 31
0.0
  0
LINE
  5
B254
330
1F
100
AcDbEntity
  8
AM_0
100
AcDbLine
 10
6.400000000000002
 20
-101.0620496270102
 30
0.0
 11
6.400000000000003
 21
-77.71512653644035
 31
0.0
  0
LINE
  5
B258
330
1F
100
AcDbEntity
  8
AM_0
100
AcDbLine
 10
0.5000000000000018
 20
-101.0620496270102
 30
0.0
 11
6.400000000000002
 21
-101.0620496270102
 31
0.0
  0
LINE
  5
B259
330
1F
100
AcDbEntity
  8
AM_0
100
AcDbLine
 10
6.300000000000002
 20
-70.96204962701023
 30
0.0
 11
23.10000000000002
 21
-70.96204962701023
 31
0.0
  0
LINE
  5
B25A
330
1F
100
AcDbEntity
  8
AM_0
100
AcDbLine
 10
23.10000000000002
 20
-70.96204962701023
 30
0.0
 11
23.10000000000002
 21
-73.36204962701024
 31
0.0
  0
LINE
  5
B25B
330
1F
100
AcDbEntity
  8
AM_0
100
AcDbLine
 10
27.0
 20
-71.96204962701026
 30
0.0
 11
172.7999999999999
 21
-71.96204962701028
 31
0.0
  0
LINE
  5
B25C
330
1F
100
AcDbEntity
  8
AM_0
100
AcDbLine
 10
0.7000000000000091
 20
-59.36204962701025
 30
0.0
 11
27.00000000000001
 21
-59.36204962701025
 31
0.0
  0
LINE
  5
B25D
330
1F
100
AcDbEntity
  8
AM_0
100
AcDbLine
 10
6.300000000000002
 20
-63.06204962701023
 30
0.0
 11
6.300000000000002
 21
-71.96204962701026
 31
0.0
  0
LINE
  5
B25E
330
1F
100
AcDbEntity
  8
AM_0
100
AcDbLine
 10
6.300000000000002
 20
-63.06204962701023
 30
0.0
 11
10.76644281239556
 21
-63.06204962701023
 31
0.0
  0
LINE
  5
B261
330
1F
100
AcDbEntity
  8
AM_0
100
AcDbLine
 10
10.76644281239556
 20
-59.3620496270103
 30
0.0
 11
10.76644281239556
 21
-63.06204962701023
 31
0.0
  0
LINE
  5
B262
330
1F
100
AcDbEntity
  8
AM_0
100
AcDbLine
 10
14.46644281239549
 20
-59.36204962701025
 30
0.0
 11
10.76644281239556
 21
-63.06204962701027
 31
0.0
  0
LINE
  5
B263
330
1F
100
AcDbEntity
  8
AM_7
100
AcDbLine
 10
16.89999999999998
 20
-52.89589902967948
 30
0.0
 11
16.89999999999997
 21
-79.21725448088665
 31
0.0
  0
LINE
  5
B264
330
1F
100
AcDbEntity
  8
AM_0
 48
0.3
100
AcDbLine
 10
11.89999999999998
 20
-55.46204962701025
 30
0.0
 11
12.59282032302758
 21
-55.06204962701024
 31
0.0
  0
LINE
  5
B265
330
1F
100
AcDbEntity
  8
AM_0
 48
0.3
100
AcDbLine
 10
11.89999999999998
 20
-55.46204962701027
 30
0.0
 11
11.89999999999998
 21
-59.36204962701025
 31
0.0
  0
LINE
  5
B266
330
1F
100
AcDbEntity
  8
AM_0
 48
0.3
100
AcDbLine
 10
21.89999999999997
 20
-55.46204962701025
 30
0.0
 11
21.20717967697249
 21
-55.06204962701024
 31
0.0
  0
LINE
  5
B267
330
1F
100
AcDbEntity
  8
AM_0
 48
0.3
100
AcDbLine
 10
21.89999999999997
 20
-55.46204962701025
 30
0.0
 11
21.89999999999997
 21
-59.36204962701025
 31
0.0
  0
LINE
  5
B268
330
1F
100
AcDbEntity
  8
AM_0
 48
0.3
100
AcDbLine
 10
21.89999999999997
 20
-55.46204962701025
 30
0.0
 11
16.89999999999998
 21
-55.46204962701025
 31
0.0
  0
LINE
  5
B269
330
1F
100
AcDbEntity
  8
AM_0
 48
0.3
100
AcDbLine
 10
21.20717967697249
 20
-55.06204962701024
 30
0.0
 11
12.59282032302758
 21
-55.06204962701024
 31
0.0
  0
LINE
  5
B26A
330
1F
100
AcDbEntity
  8
AM_0
 48
0.3
100
AcDbLine
 10
16.89999999999998
 20
-55.46204962701025
 30
0.0
 11
11.89999999999998
 21
-55.46204962701025
 31
0.0
  0
DIMENSION
  5
B2E1
330
1F
100
AcDbEntity
  8
AM_5
100
AcDbDimension
  2
*D10
 10
-0.0000000000000008
 20
-13.26188041293039
 30
0.0
 11
3.498695976663148
 21
-9.861880412930389
 31
0.0
 70
    32
 71
     5
 42
6.997391953326298
  3
AM_JIS$0
100
AcDbAlignedDimension
 13
6.997391953326298
 23
0.2209200375752882
 33
0.0
 14
0.0
 24
0.1895328087513031
 34
0.0
 50
180.0
100
AcDbRotatedDimension
  0
DIMENSION
  5
B30B
330
1F
100
AcDbEntity
  8
AM_5
100
AcDbDimension
  2
*D11
 10
196.7177053987526
 20
20.59999999999989
 30
0.0
 11
193.3173313830046
 21
36.59999999999995
 31
0.0
 70
    32
 71
     5
 42
32.00000000000006
  3
AM_JIS$0
100
AcDbAlignedDimension
 13
172.9999999999999
 23
52.59999999999995
 33
0.0
 14
172.7999999999999
 24
20.59999999999989
 34
0.0
 50
270.0
100
AcDbRotatedDimension
  0
DIMENSION
  5
B318
330
1F
100
AcDbEntity
  8
AM_5
100
AcDbDimension
  2
*D12
 10
197.6565843045972
 20
-103.9620496270102
 30
0.0
 11
194.2562102888492
 21
-87.96204962701024
 31
0.0
 70
    32
 71
     5
 42
31.99999999999999
  3
AM_JIS$0
100
AcDbAlignedDimension
 13
172.7999999999999
 23
-71.96204962701028
 33
0.0
 14
172.9999999999999
 24
-103.9620496270102
 34
0.0
 50
270.0
100
AcDbRotatedDimension
  0
DIMENSION
  5
B334
330
1F
100
AcDbEntity
  8
AM_5
100
AcDbDimension
  2
*D13
 10
-17.34197441240041
 20
-71.96204962701026
 30
0.0
 11
-20.74234842814843
 21
-87.96204962701025
 31
0.0
 70
    32
 71
     5
 42
31.99999999999999
  3
AM_JIS$0
100
AcDbAlignedDimension
 13
3.399999999999978
 23
-103.9620496270102
 33
0.0
 14
2.399989038225958
 24
-71.96204962701026
 34
0.0
 50
270.0
100
AcDbRotatedDimension
  0
DIMENSION
  5
B341
330
1F
100
AcDbEntity
  8
AM_5
100
AcDbDimension
  2
*D14
 10
-19.70482665007316
 20
0.0000000000000109
 30
0.0
 11
-23.1052006658212
 21
26.29999999999999
 31
0.0
 70
    32
 71
     5
 42
52.59999999999998
  3
AM_JIS$0
100
AcDbAlignedDimension
 13
3.399999999999997
 23
52.59999999999998
 33
0.0
 14
3.249989038225967
 24
0.0000000000000044
 34
0.0
 50
270.0
100
AcDbRotatedDimension
  0
DIMENSION
  5
B34E
330
1F
100
AcDbEntity
  8
AM_5
100
AcDbDimension
  2
*D15
 10
-0.000000000000002
 20
-28.43347336821965
 30
0.0
 11
86.49999999999996
 21
-25.03347336821966
 31
0.0
 70
    32
 71
     5
 42
172.9999999999999
  3
AM_JIS$0
100
AcDbAlignedDimension
 13
172.9999999999999
 23
13.32353404550257
 33
0.0
 14
-0.0000000000000004
 24
-2.476465954497358
 34
0.0
 50
180.0
100
AcDbRotatedDimension
  0
LINE
  5
B364
330
1F
100
AcDbEntity
  8
AM_5
100
AcDbLine
 10
172.9999999999999
 20
20.59999999999989
 30
0.0
 11
172.9999999999999
 21
-71.96204962701028
 31
0.0
  0
LINE
  5
B365
330
1F
100
AcDbEntity
  8
AM_5
100
AcDbLine
 10
-0.0000000000000093
 20
-76.69092781313134
 30
0.0
 11
0.0
 21
0.2104671912485303
 31
0.0
  0
LINE
  5
B482
330
1F
100
AcDbEntity
  8
AM_0
100
AcDbLine
 10
0.7000000000000091
 20
-59.36204962701025
 30
0.0
 11
0.7000000000000078
 21
-71.96204962701023
 31
0.0
  0
LINE
  5
B501
330
1F
100
AcDbEntity
  8
AM_0
100
AcDbLine
 10
0.0000000000000049
 20
-71.96204962701026
 30
0.0
 11
0.4940605051487284
 21
-77.60918704158908
 31
0.0
  0
LINE
  5
B502
330
1F
100
AcDbEntity
  8
AM_0
100
AcDbLine
 10
7.000000000000005
 20
-71.96256250617306
 30
0.0
 11
6.505988668062292
 21
-77.60913786837808
 31
0.0
  0
LINE
  5
B503
330
1F
100
AcDbEntity
  8
AM_0
100
AcDbLine
 10
0.0227883704816971
 20
-71.96204962701026
 30
0.0
 11
4.500000000000117
 21
-71.96204962701026
 31
0.0
  0
LINE
  5
B504
330
1F
100
AcDbEntity
  8
AM_0
100
AcDbLine
 10
6.995486856169666
 20
-71.96204962701026
 30
0.0
 11
4.280000000000091
 21
-71.96204962701026
 31
0.0
  0
LINE
  5
B505
330
1F
100
AcDbEntity
  8
AM_0
100
AcDbLine
 10
0.4940605051487284
 20
-77.60918704158908
 30
0.0
 11
3.500000000000002
 21
-80.61512653644033
 31
0.0
  0
LINE
  5
B506
330
1F
100
AcDbEntity
  8
AM_0
100
AcDbLine
 10
3.879999999999999
 20
-80.23512653644033
 30
0.0
 11
3.120000000000064
 21
-80.23512653644038
 31
0.0
  0
LINE
  5
B507
330
1F
100
AcDbEntity
  8
AM_7
100
AcDbLine
 10
3.500000000000004
 20
-66.03618226167006
 30
0.0
 11
3.500000000000002
 21
-84.27606021117236
 31
0.0
  0
LINE
  5
B508
330
1F
100
AcDbEntity
  8
AM_0
100
AcDbLine
 10
3.500000000000002
 20
-80.61512653644033
 30
0.0
 11
6.505988668062288
 21
-77.60913786837808
 31
0.0
  0
INSERT
  5
B534
102
{ACAD_REACTORS
330
B557
102
}
330
1F
100
AcDbEntity
  8
AM_0
100
AcDbBlockReference
  2
CBF06
 10
16.9
 20
28.19999999999993
 30
0.0
 41
-1.0
 50
270.0
  0
CIRCLE
  5
B535
102
{ACAD_REACTORS
330
B557
102
}
330
1F
100
AcDbEntity
  8
AM_0
100
AcDbCircle
 10
16.9
 20
28.22420413329384
 30
0.0
 40
5.5
  0
LINE
  5
B536
102
{ACAD_REACTORS
330
B557
102
}
330
1F
100
AcDbEntity
  8
AM_7
100
AcDbLine
 10
16.9
 20
38.32140809337945
 30
0.0
 11
16.9
 21
20.05633898291958
 31
0.0
  0
LINE
  5
B537
102
{ACAD_REACTORS
330
B557
102
}
330
1F
100
AcDbEntity
  8
AM_0
100
AcDbLine
 10
13.31679862020588
 20
44.39999999999993
 30
0.0
 11
8.400000000000009
 21
44.39999999999993
 31
0.0
  0
LINE
  5
B538
102
{ACAD_REACTORS
330
B557
102
}
330
1F
100
AcDbEntity
  8
AM_0
100
AcDbLine
 10
13.31679862020588
 20
44.39999999999993
 30
0.0
 11
27.00000000000001
 21
36.49999999999993
 31
0.0
  0
LINE
  5
B53B
102
{ACAD_REACTORS
330
B557
102
}
330
1F
100
AcDbEntity
  8
AM_0
100
AcDbLine
 10
0.7000000000000224
 20
49.19999999999993
 30
0.0
 11
8.400000000000011
 21
49.19999999999993
 31
0.0
  0
LINE
  5
B53C
102
{ACAD_REACTORS
330
B557
102
}
330
1F
100
AcDbEntity
  8
AM_0
100
AcDbLine
 10
8.400000000000011
 20
49.19999999999993
 30
0.0
 11
8.400000000000009
 21
44.39997989035551
 31
0.0
  0
LINE
  5
B53D
102
{ACAD_REACTORS
330
B557
102
}
330
1F
100
AcDbEntity
  8
AM_0
100
AcDbLine
 10
6.300000000000013
 20
21.39999999999993
 30
0.0
 11
27.00000000000001
 21
21.39999999999993
 31
0.0
  0
LINE
  5
B53E
102
{ACAD_REACTORS
330
B557
102
}
330
1F
100
AcDbEntity
  8
AM_0
100
AcDbLine
 10
6.368969881894743
 20
20.59999999999996
 30
0.0
 11
27.00000000000001
 21
20.59999999999995
 31
0.0
  0
LINE
  5
B53F
102
{ACAD_REACTORS
330
B557
102
}
330
1F
100
AcDbEntity
  8
AM_7
100
AcDbLine
 10
9.339350598313902
 20
28.19999999999993
 30
0.0
 11
24.04575573271102
 21
28.19999999999993
 31
0.0
  0
LINE
  5
B540
102
{ACAD_REACTORS
330
B557
102
}
330
1F
100
AcDbEntity
  8
AM_0
100
AcDbLine
 10
23.00000000000002
 20
21.39999999999994
 30
0.0
 11
23.00000000000002
 21
20.59999999999995
 31
0.0
  0
LINE
  5
B543
102
{ACAD_REACTORS
330
B557
102
}
330
1F
100
AcDbEntity
  8
AM_0
100
AcDbLine
 10
0.7000000000000193
 20
22.69999999999994
 30
0.0
 11
6.300000000000013
 21
22.69999999999994
 31
0.0
  0
LINE
  5
B548
102
{ACAD_REACTORS
330
B557
102
}
330
1F
100
AcDbEntity
  8
AM_0
100
AcDbLine
 10
0.160000000000025
 20
28.36953280875136
 30
0.0
 11
0.4843796693062204
 21
22.17999999999993
 31
0.0
  0
ARC
  5
B549
102
{ACAD_REACTORS
330
B557
102
}
330
1F
100
AcDbEntity
  8
AM_0
100
AcDbCircle
 10
0.3597259069509273
 20
28.37999999999995
 30
0.0
 40
0.2
100
AcDbArc
 50
89.9999999999992
 51
182.9999999999975
  0
LINE
  5
B54A
102
{ACAD_REACTORS
330
B557
102
}
330
1F
100
AcDbEntity
  8
AM_0
100
AcDbLine
 10
0.3597259069509424
 20
28.57999999999993
 30
0.0
 11
0.9000000000000198
 21
28.57999999999993
 31
0.0
  0
LINE
  5
B54B
102
{ACAD_REACTORS
330
B557
102
}
330
1F
100
AcDbEntity
  8
AM_0
100
AcDbLine
 10
0.9000000000000195
 20
22.17999999999993
 30
0.0
 11
0.4843796693062204
 21
22.17999999999993
 31
0.0
  0
LINE
  5
B54C
102
{ACAD_REACTORS
330
B557
102
}
330
1F
100
AcDbEntity
  8
AM_0
100
AcDbLine
 10
0.7000000000000175
 20
8.699999999999928
 30
0.0
 11
6.300000000000011
 21
8.699999999999928
 31
0.0
  0
LINE
  5
B54D
102
{ACAD_REACTORS
330
B557
102
}
330
1F
100
AcDbEntity
  8
AM_0
100
AcDbLine
 10
6.300000000000013
 20
22.69999999999994
 30
0.0
 11
6.300000000000011
 21
8.699999999999928
 31
0.0
  0
LINE
  5
B54E
102
{ACAD_REACTORS
330
B557
102
}
330
1F
100
AcDbEntity
  8
AM_0
100
AcDbLine
 10
6.568969881894743
 20
21.39999999999993
 30
0.0
 11
6.568969881894739
 21
6.399999999999945
 31
0.0
  0
LINE
  5
B54F
102
{ACAD_REACTORS
330
B557
102
}
330
1F
100
AcDbEntity
  8
AM_0
100
AcDbLine
 10
0.568969881894744
 20
22.17999999999993
 30
0.0
 11
0.5689698818947418
 21
6.399999999999945
 31
0.0
  0
LINE
  5
B550
102
{ACAD_REACTORS
330
B557
102
}
330
1F
100
AcDbEntity
  8
AM_0
100
AcDbLine
 10
6.673560094483274
 20
6.399999999999945
 30
0.0
 11
0.3243796693062073
 21
6.399999999999945
 31
0.0
  0
LINE
  5
B551
102
{ACAD_REACTORS
330
B557
102
}
330
1F
100
AcDbEntity
  8
AM_0
100
AcDbLine
 10
6.798213856838566
 20
-0.0000000000000613
 30
0.0
 11
0.1997259069509418
 21
-0.0000000000000604
 31
0.0
  0
LINE
  5
B552
102
{ACAD_REACTORS
330
B557
102
}
330
1F
100
AcDbEntity
  8
AM_0
100
AcDbLine
 10
6.997939763789469
 20
0.2104671912485232
 30
0.0
 11
6.673560094483274
 21
6.399999999999959
 31
0.0
  0
ARC
  5
B553
102
{ACAD_REACTORS
330
B557
102
}
330
1F
100
AcDbEntity
  8
AM_0
100
AcDbCircle
 10
6.798213856838552
 20
0.1999999999999353
 30
0.0
 40
0.2
100
AcDbArc
 50
269.9999999999976
 51
3.000000000001508
  0
LINE
  5
B554
102
{ACAD_REACTORS
330
B557
102
}
330
1F
100
AcDbEntity
  8
AM_0
100
AcDbLine
 10
0.0000000000000249
 20
0.2104671912485241
 30
0.0
 11
0.3243796693062073
 21
6.399999999999959
 31
0.0
  0
ARC
  5
B555
102
{ACAD_REACTORS
330
B557
102
}
330
1F
100
AcDbEntity
  8
AM_0
100
AcDbCircle
 10
0.1997259069509134
 20
0.1999999999999211
 30
0.0
 40
0.2
100
AcDbArc
 50
176.9999999999942
 51
270.0000000000041
  0
LINE
  5
B556
102
{ACAD_REACTORS
330
B557
102
}
330
1F
100
AcDbEntity
  8
AM_0
100
AcDbLine
 10
0.7000000000000224
 20
49.19999999999993
 30
0.0
 11
0.7000000000000175
 21
8.699999999999928
 31
0.0
  0
LINE
  5
B5B9
330
1F
100
AcDbEntity
  8
AM_0
100
AcDbLine
 10
11.39999999999998
 20
-77.66204962701022
 30
0.0
 11
6.453076909430107
 21
-77.66204962701023
 31
0.0
  0
ENDSEC
  0
SECTION
  2
OBJECTS
  0
DICTIONARY
  5
C
330
0
100
AcDbDictionary
281
     1
  3
ACAD_COLOR
350
B64C
  3
ACAD_GROUP
350
D
  3
ACAD_LAYOUT
350
1A
  3
ACAD_MATERIAL
350
B64B
  3
ACAD_MLINESTYLE
350
17
  3
ACAD_PLOTSETTINGS
350
19
  3
ACAD_PLOTSTYLENAME
350
E
  3
ACAD_TABLESTYLE
350
B64D
  3
ACDBHEADERROUNDTRIPXREC
350
B768
  3
ACDBVARIABLEDICTIONARY
350
30
  3
ACMDICTIONARY
350
4D
  3
AMG
350
3F
  3
AMGSNAPSETTINGS
350
73
  3
DWGPROPS
350
B767
  3
ENG_DATA
350
21C6
  3
FILENAME
350
21C9
  3
HOLD_DIC_DATA
350
21C4
  3
TABLE_DIC_DATA
350
1C0B
  3
ZWKSIZE
350
21CB
  0
DICTIONARY
  5
165
330
1F
100
AcDbDictionary
280
     1
281
     1
  3
ACAD_INDEX
360
B611
  3
ACAD_LAYOUTSELFREF
360
B644
  0
DICTIONARY
  5
B642
330
1B
100
AcDbDictionary
280
     1
281
     1
  3
ACAD_LAYOUTSELFREF
360
B643
  0
DICTIONARY
  5
B64C
102
{ACAD_REACTORS
330
C
102
}
330
C
100
AcDbDictionary
281
     1
  0
DICTIONARY
  5
D
102
{ACAD_REACTORS
330
C
102
}
330
C
100
AcDbDictionary
281
     1
  3
*A1
350
7C0D
  3
*A2
350
7C0E
  3
*A3
350
7FE3
  3
*A4
350
8E0E
  3
*A5
350
B1C8
  3
*A6
350
B1E1
  3
*A7
350
B241
  3
*A8
350
B439
  3
*A9
350
B557
  0
DICTIONARY
  5
1A
102
{ACAD_REACTORS
330
C
102
}
330
C
100
AcDbDictionary
281
     1
  3
Model
350
B64F
  3
レイアウト1
350
B650
  0
DICTIONARY
  5
B64B
102
{ACAD_REACTORS
330
C
102
}
330
C
100
AcDbDictionary
281
     1
  0
DICTIONARY
  5
17
102
{ACAD_REACTORS
330
C
102
}
330
C
100
AcDbDictionary
281
     1
  3
STANDARD
350
18
  0
DICTIONARY
  5
19
102
{ACAD_REACTORS
330
C
102
}
330
C
100
AcDbDictionary
281
     1
  0
ACDBDICTIONARYWDFLT
  5
E
102
{ACAD_REACTORS
330
C
102
}
330
C
100
AcDbDictionary
281
     1
  3
Normal
350
F
100
AcDbDictionaryWithDefault
340
F
  0
DICTIONARY
  5
B64D
102
{ACAD_REACTORS
330
C
102
}
330
C
100
AcDbDictionary
281
     1
  3
Standard
350
B64E
  0
DICTIONARY
  5
B768
102
{ACAD_REACTORS
330
C
102
}
330
C
100
AcDbDictionary
281
     1
  0
DICTIONARY
  5
30
102
{ACAD_REACTORS
330
C
102
}
330
C
100
AcDbDictionary
281
     1
  3
CTABLESTYLE
350
B763
  3
DIMASSOC
350
B764
  3
INDEXCTL
350
31
  3
PROJECTNAME
350
B765
  3
SORTENTS
350
42BE
  0
DICTIONARY
  5
4D
102
{ACAD_REACTORS
330
C
102
}
330
C
100
AcDbDictionary
281
     1
  3
ACMSTDDICTIONARY
350
17E
  3
AMDTSECTSYM_ARROWCOLOR
350
B6C8
  0
DICTIONARY
  5
3F
102
{ACAD_REACTORS
330
C
102
}
330
C
100
AcDbDictionary
281
     1
  0
DICTIONARY
  5
73
102
{ACAD_REACTORS
330
C
102
}
330
C
100
AcDbDictionary
281
     1
  0
XRECORD
  5
B767
102
{ACAD_REACTORS
330
C
102
}
330
C
100
AcDbXrecord
280
     1
  1
DWGPROPS COOKIE
  2

  3

  4

  6

  7

  8

  9

300
AmdtFileType=82
301
=
302
=
303
=
304
=
305
=
306
=
307
=
308
=
309
=
 40
1.329127881944444
 41
2451943.610431666
 42
2455602.318086655
  1

 90
        1
  0
DICTIONARY
  5
21C6
102
{ACAD_REACTORS
330
C
102
}
330
C
100
AcDbDictionary
281
     1
  3
ENG_ID
350
21C7
  0
DICTIONARY
  5
21C9
102
{ACAD_REACTORS
330
C
102
}
330
C
100
AcDbDictionary
281
     1
  3
FILENAME
350
21CA
  0
DICTIONARY
  5
21C4
102
{ACAD_REACTORS
330
C
102
}
330
C
100
AcDbDictionary
281
     1
  3
HOLD_DATA
350
21C5
  0
DICTIONARY
  5
1C0B
102
{ACAD_REACTORS
330
C
102
}
330
C
100
AcDbDictionary
281
     1
  3
INPUT_DATA
350
1C0D
  3
TABLE_DATA
350
1C0C
  0
DICTIONARY
  5
21CB
102
{ACAD_REACTORS
330
C
102
}
330
C
100
AcDbDictionary
281
     1
  3
ZWKSIZE
350
21CC
  0
DICTIONARY
  5
B611
102
{ACAD_REACTORS
330
165
102
}
330
165
100
AcDbDictionary
281
     1
  3
*A1
350
B612
  0
XRECORD
  5
B644
102
{ACAD_REACTORS
330
165
102
}
330
165
100
AcDbXrecord
280
     1
340
1F
  0
XRECORD
  5
B643
102
{ACAD_REACTORS
330
B642
102
}
330
B642
100
AcDbXrecord
280
     1
340
1B
  0
GROUP
  5
7C0D
102
{ACAD_REACTORS
330
D
102
}
330
D
100
AcDbGroup
300

 70
     1
 71
     1
  0
GROUP
  5
7C0E
102
{ACAD_REACTORS
330
D
102
}
330
D
100
AcDbGroup
300

 70
     1
 71
     1
  0
GROUP
  5
7FE3
102
{ACAD_REACTORS
330
D
102
}
330
D
100
AcDbGroup
300

 70
     1
 71
     1
  0
GROUP
  5
8E0E
102
{ACAD_REACTORS
330
D
102
}
330
D
100
AcDbGroup
300

 70
     1
 71
     1
  0
GROUP
  5
B1C8
102
{ACAD_REACTORS
330
D
102
}
330
D
100
AcDbGroup
300

 70
     1
 71
     1
  0
GROUP
  5
B1E1
102
{ACAD_REACTORS
330
D
102
}
330
D
100
AcDbGroup
300

 70
     1
 71
     1
  0
GROUP
  5
B241
102
{ACAD_REACTORS
330
D
102
}
330
D
100
AcDbGroup
300

 70
     1
 71
     1
340
B240
  0
GROUP
  5
B439
102
{ACAD_REACTORS
330
D
102
}
330
D
100
AcDbGroup
300

 70
     1
 71
     1
  0
GROUP
  5
B557
102
{ACAD_REACTORS
330
D
102
}
330
D
100
AcDbGroup
300

 70
     1
 71
     1
340
B54F
340
B54E
340
B54D
340
B556
340
B536
340
B538
340
B53C
340
B53B
340
B537
340
B53E
340
B53F
340
B53D
340
B535
340
B534
340
B540
340
B548
340
B54A
340
B549
340
B543
340
B54B
340
B54C
340
B551
340
B550
340
B553
340
B552
340
B555
340
B554
  0
LAYOUT
  5
B64F
102
{ACAD_XDICTIONARY
360
B769
102
}
102
{ACAD_REACTORS
330
1A
102
}
330
1A
100
AcDbPlotSettings
  1

  2
SII LP-1010 (C2 VR)2R
  4

  6

 40
0.0
 41
0.0
 42
0.0
 43
0.0
 44
0.0
 45
0.0
 46
0.0
 47
0.0
 48
0.0
 49
0.0
140
0.0
141
0.0
142
1.0
143
1.0
 70
  1712
 72
     0
 73
     0
 74
     0
  7
sei_cad.ctb
 75
     0
147
1.0
148
0.0
149
0.0
100
AcDbLayout
  1
Model
 70
     1
 71
     0
 10
0.0
 20
0.0
 11
12.0
 21
9.0
 12
0.0
 22
0.0
 32
0.0
 14
0.0
 24
0.0
 34
0.0
 15
0.0
 25
0.0
 35
0.0
146
0.0
 13
0.0
 23
0.0
 33
0.0
 16
1.0
 26
0.0
 36
0.0
 17
0.0
 27
1.0
 37
0.0
 76
     0
330
1F
  0
LAYOUT
  5
B650
102
{ACAD_XDICTIONARY
360
B76B
102
}
102
{ACAD_REACTORS
330
1A
102
}
330
1A
100
AcDbPlotSettings
  1

  2
SII LP-1010 (C2 VR)2R
  4

  6

 40
0.0
 41
0.0
 42
0.0
 43
0.0
 44
0.0
 45
0.0
 46
0.0
 47
0.0
 48
0.0
 49
0.0
140
0.0
141
0.0
142
1.0
143
1.0
 70
   688
 72
     0
 73
     0
 74
     5
  7
sei_cad.ctb
 75
    16
147
1.0
148
0.0
149
0.0
100
AcDbLayout
  1
レイアウト1
 70
     1
 71
     1
 10
0.0
 20
0.0
 11
420.0
 21
297.0
 12
0.0
 22
0.0
 32
0.0
 14
1.000000000000000E+20
 24
1.000000000000000E+20
 34
1.000000000000000E+20
 15
-1.000000000000000E+20
 25
-1.000000000000000E+20
 35
-1.000000000000000E+20
146
0.0
 13
0.0
 23
0.0
 33
0.0
 16
1.0
 26
0.0
 36
0.0
 17
0.0
 27
1.0
 37
0.0
 76
     0
330
1B
  0
MLINESTYLE
  5
18
102
{ACAD_REACTORS
330
17
102
}
330
17
100
AcDbMlineStyle
  2
STANDARD
 70
     0
  3

 62
   256
 51
90.0
 52
90.0
 71
     2
 49
0.5
 62
   256
  6
BYLAYER
 49
-0.5
 62
   256
  6
BYLAYER
  0
ACDBPLACEHOLDER
  5
F
102
{ACAD_REACTORS
330
E
102
}
330
E
  0
TABLESTYLE
  5
B64E
102
{ACAD_REACTORS
330
B64D
102
}
330
B64D
100
AcDbTableStyle
  3
Standard
 70
     0
 71
     0
 40
1.5
 41
1.5
280
     0
281
     0
  7
STANDARD
140
4.5
170
     2
 62
     0
 63
     7
283
     0
274
    -2
284
     1
 64
     0
275
    -2
285
     1
 65
     0
276
    -2
286
     1
 66
     0
277
    -2
287
     1
 67
     0
278
    -2
288
     1
 68
     0
279
    -2
289
     1
 69
     0
  7
STANDARD
140
6.0
170
     5
 62
     0
 63
     7
283
     0
274
    -2
284
     1
 64
     0
275
    -2
285
     1
 65
     0
276
    -2
286
     1
 66
     0
277
    -2
287
     1
 67
     0
278
    -2
288
     1
 68
     0
279
    -2
289
     1
 69
     0
  7
STANDARD
140
4.5
170
     5
 62
     0
 63
     7
283
     0
274
    -2
284
     1
 64
     0
275
    -2
285
     1
 65
     0
276
    -2
286
     1
 66
     0
277
    -2
287
     1
 67
     0
278
    -2
288
     1
 68
     0
279
    -2
289
     1
 69
     0
  0
DICTIONARYVAR
  5
B763
102
{ACAD_REACTORS
330
30
102
}
330
30
100
DictionaryVariables
280
     0
  1
STANDARD
  0
DICTIONARYVAR
  5
B764
102
{ACAD_REACTORS
330
30
102
}
330
30
100
DictionaryVariables
280
     0
  1
1
  0
DICTIONARYVAR
  5
31
102
{ACAD_REACTORS
330
30
102
}
330
30
100
DictionaryVariables
280
     0
  1
1
  0
DICTIONARYVAR
  5
B765
102
{ACAD_REACTORS
330
30
102
}
330
30
100
DictionaryVariables
280
     0
  1

  0
DICTIONARYVAR
  5
42BE
102
{ACAD_REACTORS
330
30
102
}
330
30
100
DictionaryVariables
280
     0
  1
96
  0
DICTIONARY
  5
17E
102
{ACAD_REACTORS
330
4D
102
}
330
4D
100
AcDbDictionary
281
     1
  0
XRECORD
  5
B6C8
102
{ACAD_REACTORS
330
4D
102
}
330
4D
100
AcDbXrecord
280
     1
 90
-1023410169
  0
XRECORD
  5
21C7
102
{ACAD_REACTORS
330
21C6
102
}
330
21C6
100
AcDbXrecord
280
     1
  1
HOLD
  0
XRECORD
  5
21CA
102
{ACAD_REACTORS
330
21C9
102
}
330
21C9
100
AcDbXrecord
280
     1
  1
21000065__00___
  0
XRECORD
  5
21C5
102
{ACAD_REACTORS
330
21C4
102
}
330
21C4
100
AcDbXrecord
280
     1
  1
クランクシャフト加工用 ^M^J１コーナー型 ^M^J15.875 ^M^J20 ^M^Jクランプオン ^M^J９０° ^M^J1 ^M^J鋼 ^M^J ^M^J ^M^J ^M^J ^M^J
  0
XRECORD
  5
1C0D
102
{ACAD_REACTORS
330
1C0B
102
}
330
1C0B
100
AcDbXrecord
280
     1
  1
1,,,,,,,,,^M^J2,,,,,,,,,^M^J3,,,,,,,,,^M^J4,,,,,,,,,^M^J5,,,,,,,,,^M^J6,,,,,,,,,^M^J7,,,,,,,,,^M^J8,,,,,,,,,^M^J9,,,,,,,,,^M^J10,,,,,,,,,
  0
XRECORD
  5
1C0C
102
{ACAD_REACTORS
330
1C0B
102
}
330
1C0B
100
AcDbXrecord
280
     1
  1
10,10
  0
XRECORD
  5
21CC
102
{ACAD_REACTORS
330
21CB
102
}
330
21CB
100
AcDbXrecord
280
     1
  1
3
  0
LAYER_INDEX
  5
B612
102
{ACAD_REACTORS
330
B611
102
}
330
B611
100
AcDbIndex
 40
2455602.318086655
100
AcDbLayerIndex
  8
0
360
B613
 90
        0
  8
AM_5
360
B614
 90
        8
  8
DEFPOINTS
360
B615
 90
        0
  8
AM_0
360
B616
 90
       71
  8
AM_6
360
B617
 90
        1
  8
AM_7
360
B618
 90
        5
  0
DICTIONARY
  5
B769
330
B64F
100
AcDbDictionary
280
     1
281
     1
  3
ACAD_XREC_ROUNDTRIP
360
B76A
  0
DICTIONARY
  5
B76B
330
B650
100
AcDbDictionary
280
     1
281
     1
  3
ACAD_XREC_ROUNDTRIP
360
B76C
  0
IDBUFFER
  5
B613
330
0
100
AcDbIdBuffer
  0
IDBUFFER
  5
B614
330
0
100
AcDbIdBuffer
330
B2E1
330
B30B
330
B318
330
B334
330
B341
330
B34E
330
B364
330
B365
  0
IDBUFFER
  5
B615
330
0
100
AcDbIdBuffer
  0
IDBUFFER
  5
B616
330
0
100
AcDbIdBuffer
330
B1A9
330
B1AA
330
B1AB
330
B1AC
330
B1AF
330
B1B1
330
B1B2
330
B1B6
330
B1E4
330
B1E5
330
B1E6
330
B1E8
330
B1EA
330
B1EB
330
B1EC
330
B1EE
330
B1F0
330
B1F1
330
B1F2
330
B253
330
B254
330
B258
330
B259
330
B25A
330
B25B
330
B25C
330
B25D
330
B25E
330
B261
330
B262
330
B264
330
B265
330
B266
330
B267
330
B268
330
B269
330
B26A
330
B482
330
B501
330
B502
330
B503
330
B504
330
B505
330
B506
330
B508
330
B534
330
B535
330
B537
330
B538
330
B53B
330
B53C
330
B53D
330
B53E
330
B540
330
B543
330
B548
330
B549
330
B54A
330
B54B
330
B54C
330
B54D
330
B54E
330
B54F
330
B550
330
B551
330
B552
330
B553
330
B554
330
B555
330
B556
330
B5B9
  0
IDBUFFER
  5
B617
330
0
100
AcDbIdBuffer
330
83BD
  0
IDBUFFER
  5
B618
330
0
100
AcDbIdBuffer
330
B240
330
B263
330
B507
330
B536
330
B53F
  0
XRECORD
  5
B76A
102
{ACAD_REACTORS
330
B769
102
}
330
B769
100
AcDbXrecord
280
     1
102
SHADEPLOT
 70
     0
102
SHADEPLOTRESLEVEL
 70
     2
102
SHADEPLOTCUSTOMDPI
 70
   300
  0
XRECORD
  5
B76C
102
{ACAD_REACTORS
330
B76B
102
}
330
B76B
100
AcDbXrecord
280
     1
102
SHADEPLOT
 70
     0
102
SHADEPLOTRESLEVEL
 70
     2
102
SHADEPLOTCUSTOMDPI
 70
   300
  0
ENDSEC
  0
EOF
