  0
SECTION
  2
HEADER
  9
$ACADVER
  1
AC1015
  9
$ACADMAINTVER
 70
    20
  9
$DWGCODEPAGE
  3
ANSI_932
  9
$INSBASE
 10
0.0
 20
0.0
 30
0.0
  9
$EXTMIN
 10
-20.23528127930206
 20
-104.4063295002419
 30
-0.0015258207003583
  9
$EXTMAX
 10
186.7042314936595
 20
64.39022938908863
 30
0.0000000349246037
  9
$LIMMIN
 10
-232.163837415489
 20
-118.345139030068
  9
$LIMMAX
 10
82.82833346669827
 20
133.0982361188494
  9
$ORTHOMODE
 70
     0
  9
$REGENMODE
 70
     1
  9
$FILLMODE
 70
     1
  9
$QTEXTMODE
 70
     0
  9
$MIRRTEXT
 70
     1
  9
$LTSCALE
 40
0.5
  9
$ATTMODE
 70
     1
  9
$TEXTSIZE
 40
2.5
  9
$TRACEWID
 40
1.0
  9
$TEXTSTYLE
  7
STANDARD
  9
$CLAYER
  8
AM_5
  9
$CELTYPE
  6
BYLAYER
  9
$CECOLOR
 62
   256
  9
$CELTSCALE
 40
1.0
  9
$DISPSILH
 70
     0
  9
$DIMSCALE
 40
1.0
  9
$DIMASZ
 40
2.5
  9
$DIMEXO
 40
0.0
  9
$DIMDLI
 40
10.0
  9
$DIMRND
 40
0.0
  9
$DIMDLE
 40
0.0
  9
$DIMEXE
 40
1.0
  9
$DIMTP
 40
0.1
  9
$DIMTM
 40
0.1000000001
  9
$DIMTXT
 40
3.799999999999998
  9
$DIMCEN
 40
0.0
  9
$DIMTSZ
 40
0.0
  9
$DIMTOL
 70
     0
  9
$DIMLIM
 70
     0
  9
$DIMTIH
 70
     0
  9
$DIMTOH
 70
     0
  9
$DIMSE1
 70
     0
  9
$DIMSE2
 70
     0
  9
$DIMTAD
 70
     3
  9
$DIMZIN
 70
     9
  9
$DIMBLK
  1
OPEN30
  9
$DIMASO
 70
     1
  9
$DIMSHO
 70
     1
  9
$DIMPOST
  1

  9
$DIMAPOST
  1
"
  9
$DIMALT
 70
     0
  9
$DIMALTD
 70
     2
  9
$DIMALTF
 40
0.0393701
  9
$DIMLFAC
 40
1.0
  9
$DIMTOFL
 70
     1
  9
$DIMTVP
 40
0.0
  9
$DIMTIX
 70
     0
  9
$DIMSOXD
 70
     0
  9
$DIMSAH
 70
     0
  9
$DIMBLK1
  1

  9
$DIMBLK2
  1

  9
$DIMSTYLE
  2
AM_JIS
  9
$DIMCLRD
 70
   256
  9
$DIMCLRE
 70
   256
  9
$DIMCLRT
 70
     2
  9
$DIMTFAC
 40
0.71
  9
$DIMGAP
 40
1.5
  9
$DIMJUST
 70
     0
  9
$DIMSD1
 70
     0
  9
$DIMSD2
 70
     0
  9
$DIMTOLJ
 70
     0
  9
$DIMTZIN
 70
     8
  9
$DIMALTZ
 70
     0
  9
$DIMALTTZ
 70
     0
  9
$DIMUPT
 70
     0
  9
$DIMDEC
 70
     2
  9
$DIMTDEC
 70
     2
  9
$DIMALTU
 70
     2
  9
$DIMALTTD
 70
     2
  9
$DIMTXSTY
  7
STANDARD
  9
$DIMAUNIT
 70
     1
  9
$DIMADEC
 70
     1
  9
$DIMALTRND
 40
0.0
  9
$DIMAZIN
 70
     2
  9
$DIMDSEP
 70
    46
  9
$DIMATFIT
 70
     3
  9
$DIMFRAC
 70
     0
  9
$DIMLDRBLK
  1
OPEN30
  9
$DIMLUNIT
 70
     2
  9
$DIMLWD
 70
    -1
  9
$DIMLWE
 70
    -1
  9
$DIMTMOVE
 70
     0
  9
$LUNITS
 70
     2
  9
$LUPREC
 70
     2
  9
$SKETCHINC
 40
1.0
  9
$FILLETRAD
 40
3.0
  9
$AUNITS
 70
     1
  9
$AUPREC
 70
     5
  9
$MENU
  1
.
  9
$ELEVATION
 40
0.0
  9
$PELEVATION
 40
0.0
  9
$THICKNESS
 40
0.0
  9
$LIMCHECK
 70
     0
  9
$CHAMFERA
 40
0.0
  9
$CHAMFERB
 40
0.0
  9
$CHAMFERC
 40
20.0
  9
$CHAMFERD
 40
0.0
  9
$SKPOLY
 70
     0
  9
$TDCREATE
 40
2451943.610431666
  9
$TDUCREATE
 40
2451943.235431667
  9
$TDUPDATE
 40
2455602.343467882
  9
$TDUUPDATE
 40
2455601.968467882
  9
$TDINDWG
 40
1.4879891898
  9
$TDUSRTIMER
 40
1.4879886574
  9
$USRTIMER
 70
     1
  9
$ANGBASE
 50
0.0
  9
$ANGDIR
 70
     0
  9
$PDMODE
 70
     0
  9
$PDSIZE
 40
0.0
  9
$PLINEWID
 40
0.0
  9
$SPLFRAME
 70
     0
  9
$SPLINETYPE
 70
     6
  9
$SPLINESEGS
 70
     8
  9
$HANDSEED
  5
B835
  9
$SURFTAB1
 70
     6
  9
$SURFTAB2
 70
     6
  9
$SURFTYPE
 70
     6
  9
$SURFU
 70
     6
  9
$SURFV
 70
     6
  9
$UCSBASE
  2

  9
$UCSNAME
  2

  9
$UCSORG
 10
0.0
 20
0.0
 30
0.0
  9
$UCSXDIR
 10
1.0
 20
0.0
 30
0.0
  9
$UCSYDIR
 10
0.0
 20
1.0
 30
0.0
  9
$UCSORTHOREF
  2

  9
$UCSORTHOVIEW
 70
     0
  9
$UCSORGTOP
 10
0.0
 20
0.0
 30
0.0
  9
$UCSORGBOTTOM
 10
0.0
 20
0.0
 30
0.0
  9
$UCSORGLEFT
 10
0.0
 20
0.0
 30
0.0
  9
$UCSORGRIGHT
 10
0.0
 20
0.0
 30
0.0
  9
$UCSORGFRONT
 10
0.0
 20
0.0
 30
0.0
  9
$UCSORGBACK
 10
0.0
 20
0.0
 30
0.0
  9
$PUCSBASE
  2

  9
$PUCSNAME
  2

  9
$PUCSORG
 10
0.0
 20
0.0
 30
0.0
  9
$PUCSXDIR
 10
1.0
 20
0.0
 30
0.0
  9
$PUCSYDIR
 10
0.0
 20
1.0
 30
0.0
  9
$PUCSORTHOREF
  2

  9
$PUCSORTHOVIEW
 70
     0
  9
$PUCSORGTOP
 10
0.0
 20
0.0
 30
0.0
  9
$PUCSORGBOTTOM
 10
0.0
 20
0.0
 30
0.0
  9
$PUCSORGLEFT
 10
0.0
 20
0.0
 30
0.0
  9
$PUCSORGRIGHT
 10
0.0
 20
0.0
 30
0.0
  9
$PUCSORGFRONT
 10
0.0
 20
0.0
 30
0.0
  9
$PUCSORGBACK
 10
0.0
 20
0.0
 30
0.0
  9
$USERI1
 70
     0
  9
$USERI2
 70
     0
  9
$USERI3
 70
     0
  9
$USERI4
 70
     0
  9
$USERI5
 70
     0
  9
$USERR1
 40
0.0
  9
$USERR2
 40
0.0
  9
$USERR3
 40
0.0
  9
$USERR4
 40
0.0
  9
$USERR5
 40
0.0
  9
$WORLDVIEW
 70
     1
  9
$SHADEDGE
 70
     3
  9
$SHADEDIF
 70
    70
  9
$TILEMODE
 70
     1
  9
$MAXACTVP
 70
    64
  9
$PINSBASE
 10
0.0
 20
0.0
 30
0.0
  9
$PLIMCHECK
 70
     0
  9
$PEXTMIN
 10
1.000000000000000E+20
 20
1.000000000000000E+20
 30
1.000000000000000E+20
  9
$PEXTMAX
 10
-1.000000000000000E+20
 20
-1.000000000000000E+20
 30
-1.000000000000000E+20
  9
$PLIMMIN
 10
0.0
 20
0.0
  9
$PLIMMAX
 10
420.0
 20
297.0
  9
$UNITMODE
 70
     0
  9
$VISRETAIN
 70
     1
  9
$PLINEGEN
 70
     0
  9
$PSLTSCALE
 70
     1
  9
$TREEDEPTH
 70
  3020
  9
$CMLSTYLE
  2
STANDARD
  9
$CMLJUST
 70
     0
  9
$CMLSCALE
 40
20.0
  9
$PROXYGRAPHICS
 70
     1
  9
$MEASUREMENT
 70
     1
  9
$CELWEIGHT
370
    -1
  9
$ENDCAPS
280
     0
  9
$JOINSTYLE
280
     0
  9
$LWDISPLAY
290
     0
  9
$INSUNITS
 70
     4
  9
$HYPERLINKBASE
  1

  9
$STYLESHEET
  1
ASAMI.ctb
  9
$XEDIT
290
     1
  9
$CEPSNTYPE
380
     0
  9
$PSTYLEMODE
290
     1
  9
$FINGERPRINTGUID
  2
{C77AB3BE-9CA2-11D3-BAF3-006094EB760E}
  9
$VERSIONGUID
  2
{3E792876-629A-4E9D-B48C-54CE1ED008CC}
  9
$EXTNAMES
290
     1
  9
$PSVPSCALE
 40
0.0
  9
$OLESTARTUP
290
     0
  0
ENDSEC
  0
SECTION
  2
CLASSES
  0
CLASS
  1
ACDBDICTIONARYWDFLT
  2
AcDbDictionaryWithDefault
  3
ObjectDBX Classes
 90
        0
280
     0
281
     0
  0
CLASS
  1
ACDBPLACEHOLDER
  2
AcDbPlaceHolder
  3
ObjectDBX Classes
 90
        0
280
     0
281
     0
  0
CLASS
  1
LAYOUT
  2
AcDbLayout
  3
ObjectDBX Classes
 90
        0
280
     0
281
     0
  0
CLASS
  1
ACME_DOCUMENT
  2
AcMeDbDoc
  3
AcMeServices
 90
        0
280
     0
281
     0
  0
CLASS
  1
ACMESCOPE
  2
AcMeScope
  3
AcMeServices
 90
        0
280
     0
281
     0
  0
CLASS
  1
ACMECOMMANDHISTORY
  2
AcMeCommandHistory
  3
AcMeServices
 90
        0
280
     0
281
     0
  0
CLASS
  1
DICTIONARYVAR
  2
AcDbDictionaryVar
  3
ObjectDBX Classes
 90
        0
280
     0
281
     0
  0
CLASS
  1
ACIMSYSVARMAN
  2
AcImSysVarManager
  3
AcMeServices
 90
        0
280
     0
281
     0
  0
CLASS
  1
ACIMREALSYSVAR
  2
AcImRealSysVar
  3
AcMeServices
 90
        0
280
     0
281
     0
  0
CLASS
  1
ACIMINTSYSVAR
  2
AcImIntSysVar
  3
AcMeServices
 90
        0
280
     0
281
     0
  0
CLASS
  1
ACMEDRAWINGMAN
  2
AcMeDrawingMan
  3
AcMeServices
 90
        0
280
     0
281
     0
  0
CLASS
  1
ACMEVIEW
  2
AcMeView
  3
AcMeServices
 90
        0
280
     0
281
     0
  0
CLASS
  1
ACDBENTITYCACHE
  2
AcMeEntityCache
  3
AcMeServices
 90
        0
280
     0
281
     0
  0
CLASS
  1
GSMANAGER
  2
AcMeGSManager
  3
AcMeServices
 90
        0
280
     0
281
     0
  0
CLASS
  1
AMDTINTERNALREACTOR
  2
AmdtInternalReactor
  3
AcMeServices
 90
        0
280
     0
281
     0
  0
CLASS
  1
ACMESTATEMGR
  2
AcMeStateMgr
  3
AcMeServices
 90
        0
280
     0
281
     0
  0
CLASS
  1
ACME_DATABASE
  2
AcMeDbDatabase
  3
AcMeServices
 90
        0
280
     0
281
     0
  0
CLASS
  1
ACRFINSADJUSTERMGR
  2
AcRfInsAdjusterMgr
  3
AcMeServices
 90
        0
280
     0
281
     0
  0
CLASS
  1
AMGSETTINGSOBJ
  2
AmgSettingsObj
  3
"AcadM|Product Description: AutoCAD Mechanical 2000|Company: Autodesk"
 90
        0
280
     0
281
     0
  0
CLASS
  1
AMGOBJPROPCFG
  2
AmgObjPropCfg
  3
"AmgLay|Product Description: AutoCAD Mechanical 2000|Company: Autodesk"
 90
        1
280
     0
281
     0
  0
CLASS
  1
ACMDATADICTIONARY
  2
AcmDataDictionary
  3
"AcmSymBB|Product Description: AutoCAD Mechanical 2004 DX|Company: Autodesk"
 90
        0
280
     0
281
     0
  0
CLASS
  1
ACMDATAENTRYBLOCK
  2
AcmDataEntryBlock
  3
"AcmSymBB|Product Description: AutoCAD Mechanical 2004 DX|Company: Autodesk"
 90
    32768
280
     0
281
     0
  0
CLASS
  1
ACIMSTRSYSVAR
  2
AcImStrSysVar
  3
AcMeServices
 90
        0
280
     0
281
     0
  0
CLASS
  1
ACAMGFILTERDAT
  2
AcAmgFilterDat
  3
"AcadM|Product Description: AutoCAD Mechanical 2000|Company: Autodesk"
 90
    32768
280
     0
281
     0
  0
CLASS
  1
LAYER_INDEX
  2
AcDbLayerIndex
  3
ObjectDBX Classes
 90
        0
280
     0
281
     0
  0
CLASS
  1
IDBUFFER
  2
AcDbIdBuffer
  3
ObjectDBX Classes
 90
        0
280
     0
281
     0
  0
CLASS
  1
ACMSTANDARDJIS
  2
AcmStandardJIS
  3
"Amdt_StdImp|Product Description: AutoCAD Mechanical 2004 DX|Company: Autodesk"
 90
    32768
280
     0
281
     0
  0
CLASS
  1
ACMSURFSTANDARDJIS
  2
AcmSurfTextStdJIS
  3
"Amdt_StdImp|Product Description: AutoCAD Mechanical 2004 DX|Company: Autodesk"
 90
    32768
280
     0
281
     0
  0
CLASS
  1
ACMFCFSTANDARDJIS
  2
AcmFCFStdJIS
  3
"Amdt_StdImp|Product Description: AutoCAD Mechanical 2004 DX|Company: Autodesk"
 90
    32768
280
     0
281
     0
  0
CLASS
  1
ACMWELDSTANDARDJIS
  2
AcmWeldingStdJIS
  3
"Amdt_StdImp|Product Description: AutoCAD Mechanical 2004 DX|Company: Autodesk"
 90
    32768
280
     0
281
     0
  0
CLASS
  1
ACMIDSTANDARDJIS
  2
AcmIdStdJIS
  3
"Amdt_StdImp|Product Description: AutoCAD Mechanical 2004 DX|Company: Autodesk"
 90
    32768
280
     0
281
     0
  0
CLASS
  1
ACMDATUMSTANDARDJIS
  2
AcmDatumStdJIS
  3
"Amdt_StdImp|Product Description: AutoCAD Mechanical 2004 DX|Company: Autodesk"
 90
    32768
280
     0
281
     0
  0
CLASS
  1
ACMBOMSTANDARDJIS
  2
AcmBOMStdJIS
  3
"Amdt_StdImp|Product Description: AutoCAD Mechanical 2004 DX|Company: Autodesk"
 90
    32768
280
     0
281
     0
  0
CLASS
  1
AMDTNOTE
  2
AmdtNote
  3
"AcmSymBB|Product Description: AutoCAD Mechanical 2004 DX|Company: Autodesk"
 90
    33791
280
     0
281
     1
  0
CLASS
  1
ACMDATAENTRYPART
  2
AcmDataEntryPart
  3
"AcmSymBB|Product Description: AutoCAD Mechanical 2004 DX|Company: Autodesk"
 90
    32768
280
     0
281
     0
  0
CLASS
  1
ACMPARTREF
  2
AcmPartRef
  3
"AcmSymBB|Product Description: AutoCAD Mechanical 2004 DX|Company: Autodesk"
 90
    33791
280
     0
281
     1
  0
CLASS
  1
ACDB_PROXY_ENTITY_DATA
  2
AcDbProxyEntityData
  3
ObjectDBX Classes
 90
    32768
280
     0
281
     0
  0
CLASS
  1
TABLESTYLE
  2
AcDbTableStyle
  3
ObjectDBX Classes
 90
     2047
280
     0
281
     0
  0
CLASS
  1
ACGREFMASTER
  2
AcGrefMaster
  3
AcAttribServices
 90
        0
280
     0
281
     0
  0
CLASS
  1
AM_DRAWING_MGR
  2
AcDmDwgMgr
  3
AcMechDwgViewMgmt
 90
        0
280
     0
281
     0
  0
CLASS
  1
AM_DWG_DOCUMENT
  2
AcDmDwgDocument
  3
AcMechDwgViewMgmt
 90
        0
280
     0
281
     0
  0
CLASS
  1
AM_DWG_SHEET
  2
AcDmSheet
  3
AcMechDwgViewMgmt
 90
        0
280
     0
281
     0
  0
CLASS
  1
AM_VIEWDIMPARMAP
  2
AcDmViewDimParMap
  3
AcMechDwgViewMgmt
 90
        0
280
     0
281
     0
  0
CLASS
  1
AM_DWGMGR_NAME
  2
AcDmDwgMgrName
  3
AcMechDwgViewMgmt
 90
        0
280
     0
281
     0
  0
CLASS
  1
ACGREFACADMASTER
  2
AcGrefacadMaster
  3
AcGrefServices
 90
        0
280
     0
281
     0
  0
CLASS
  1
AMDTMENUSTATEMGR
  2
AmdtMenuStateMgr
  3
McadcomServices
 90
        0
280
     0
281
     0
  0
CLASS
  1
AMDTMCOMMENUSTATE
  2
AmdtMcomMenuState
  3
McadcomServices
 90
        0
280
     0
281
     0
  0
CLASS
  1
AMIMASTER
  2
AmiMaster
  3
AmiServices
 90
        0
280
     0
281
     0
  0
CLASS
  1
MAPIAMMOUDLE
  2
MApiAmModule
  3
MApiAmServices
 90
        0
280
     0
281
     0
  0
CLASS
  1
AMDTADMENUSTATE
  2
AmdtAdMenuState
  3
DesignerServices
 90
        0
280
     0
281
     0
  0
CLASS
  1
ADAPPL
  2
AcAdAppl
  3
DesignerServices
 90
        0
280
     0
281
     0
  0
CLASS
  1
DEPMGR
  2
AcAdDepMgr
  3
DesignerServices
 90
        0
280
     0
281
     0
  0
CLASS
  1
PARAMMGR
  2
AcAdParamMgr
  3
DesignerServices
 90
        0
280
     0
281
     0
  0
CLASS
  1
PARAMSCOPE
  2
AcAdParamScope
  3
DesignerServices
 90
        0
280
     0
281
     0
  0
CLASS
  1
NAMEDAPPL
  2
AcAdNamedAppl
  3
DesignerServices
 90
        0
280
     0
281
     0
  0
CLASS
  1
AMDTDMMENUSTATE
  2
AmdtDmMenuState
  3
AcMechDwgViewMgmt
 90
        0
280
     0
281
     0
  0
CLASS
  1
AMDTAMMENUSTATE
  2
AmdtAmMenuState
  3
DesignerAssemblies
 90
        0
280
     0
281
     0
  0
CLASS
  1
ACAMPROJECT
  2
AcAmProject
  3
DesignerAssemblies
 90
        0
280
     0
281
     0
  0
CLASS
  1
ACAMGRCOMPDEF
  2
AcAmGrCompDef
  3
DesignerAssemblies
 90
        0
280
     0
281
     0
  0
CLASS
  1
ACCMCONTEXT
  2
AcCmContext
  3
DesignerAssemblies
 90
        0
280
     0
281
     0
  0
CLASS
  1
ACAMCOMPDEF
  2
AcAmCompDef
  3
DesignerAssemblies
 90
        0
280
     0
281
     0
  0
CLASS
  1
ACAMCOMPDEFMGR
  2
AcAmCompDefMgr
  3
DesignerAssemblies
 90
        0
280
     0
281
     0
  0
CLASS
  1
AMCONTEXTMGR
  2
AcAmContextMgr
  3
DesignerAssemblies
 90
        0
280
     0
281
     0
  0
CLASS
  1
ACAMCONTEXTMODELER
  2
AcAmContextModeler
  3
DesignerAssemblies
 90
        0
280
     0
281
     0
  0
CLASS
  1
CATALOGSTATE
  2
AcAmCatalogState
  3
DesignerAssemblies
 90
        0
280
     0
281
     0
  0
CLASS
  1
ACAMGRCOMPDEFSET
  2
AcAmGrCompDefSet
  3
DesignerAssemblies
 90
        0
280
     0
281
     0
  0
CLASS
  1
AMDTBROWSERDBTAB
  2
AmdtBrowserDbTab
  3
McadcomServices
 90
        0
280
     0
281
     0
  0
CLASS
  1
CBROWSERAPPOBJECT
  2
CBrowserAppObject
  3
McadcomServices
 90
        0
280
     0
281
     0
  0
CLASS
  1
DM_PLACEHOLDER
  2
AcDmSelsetPlaceholder
  3
AcMechDwgViewMgmt
 90
        0
280
     0
281
     0
  0
ENDSEC
  0
SECTION
  2
TABLES
  0
TABLE
  2
VPORT
  5
8
330
0
100
AcDbSymbolTable
 70
     3
  0
VPORT
  5
B82E
330
8
100
AcDbSymbolTableRecord
100
AcDbViewportTableRecord
  2
*Active
 70
     0
 10
0.0
 20
0.0
 11
1.0
 21
1.0
 12
83.23447510717874
 22
-20.00805005557663
 13
0.0
 23
0.0
 14
2.5
 24
2.5
 15
10.0
 25
10.0
 16
0.0
 26
0.0
 36
1.0
 17
0.0
 27
0.0
 37
0.0
 40
170.0022485956829
 41
2.176400476758045
 42
50.0
 43
0.0
 44
0.0
 50
0.0
 51
0.0
 71
     0
 72
  2000
 73
     1
 74
     3
 75
     0
 76
     0
 77
     0
 78
     0
281
     0
 65
     0
110
0.0
120
0.0
130
0.0
111
1.0
121
0.0
131
0.0
112
0.0
122
1.0
132
0.0
 79
     0
146
0.0
  0
ENDTAB
  0
TABLE
  2
LTYPE
  5
5
330
0
100
AcDbSymbolTable
 70
    14
  0
LTYPE
  5
14
330
5
100
AcDbSymbolTableRecord
100
AcDbLinetypeTableRecord
  2
BYBLOCK
 70
     0
  3

 72
    65
 73
     0
 40
0.0
  0
LTYPE
  5
15
330
5
100
AcDbSymbolTableRecord
100
AcDbLinetypeTableRecord
  2
BYLAYER
 70
     0
  3

 72
    65
 73
     0
 40
0.0
  0
LTYPE
  5
16
330
5
100
AcDbSymbolTableRecord
100
AcDbLinetypeTableRecord
  2
CONTINUOUS
 70
     0
  3
Solid line
 72
    65
 73
     0
 40
0.0
  0
LTYPE
  5
43
330
5
100
AcDbSymbolTableRecord
100
AcDbLinetypeTableRecord
  2
AM_ISO02W050
 70
     0
  3
__ __ __ __ __ __ __ __ __ __ __ __ __ __ __
 72
    65
 73
     2
 40
7.5
 49
6.0
 74
     0
 49
-1.5
 74
     0
  0
LTYPE
  5
44
330
5
100
AcDbSymbolTableRecord
100
AcDbLinetypeTableRecord
  2
AM_ISO08W050
 70
     0
  3
____ . ____ . ____ . ____ . ____ . ____ . ____
 72
    65
 73
     4
 40
18.0
 49
12.0
 74
     0
 49
-1.5
 74
     0
 49
3.0
 74
     0
 49
-1.5
 74
     0
  0
LTYPE
  5
45
330
5
100
AcDbSymbolTableRecord
100
AcDbLinetypeTableRecord
  2
AM_ISO09W050
 70
     0
  3
_____ . . _____ . . _____ . . ____ .. ____
 72
    65
 73
     6
 40
22.5
 49
12.0
 74
     0
 49
-1.5
 74
     0
 49
3.0
 74
     0
 49
-1.5
 74
     0
 49
3.0
 74
     0
 49
-1.5
 74
     0
  0
LTYPE
  5
46
330
5
100
AcDbSymbolTableRecord
100
AcDbLinetypeTableRecord
  2
AMCONSTR
 70
     0
  3
_______________________
 72
    65
 73
     2
 40
9999.0
 49
9999.0
 74
     0
 49
0.0
 74
     0
  0
LTYPE
  5
47
330
5
100
AcDbSymbolTableRecord
100
AcDbLinetypeTableRecord
  2
AM_ISO02W050X2
 70
     0
  3
 _ _ _ _ _ _ _ _ _ _ _ _
 72
    65
 73
     2
 40
3.75
 49
3.0
 74
     0
 49
-0.75
 74
     0
  0
LTYPE
  5
48
330
5
100
AcDbSymbolTableRecord
100
AcDbLinetypeTableRecord
  2
AM_ISO08W050X2
 70
     0
  3
__ . __ . __ . __ . __ . __
 72
    65
 73
     4
 40
9.0
 49
6.0
 74
     0
 49
-0.75
 74
     0
 49
1.5
 74
     0
 49
-0.75
 74
     0
  0
LTYPE
  5
4B
330
5
100
AcDbSymbolTableRecord
100
AcDbLinetypeTableRecord
  2
AMZIGZAG
 70
     0
  3
/\/-/\/-/\/-/\/-/\/-/\/
 72
    65
 73
     2
 40
11.00009999999999
 49
0.0001
 74
     4
 75
   135
340
4A
 46
0.04
 50
0.0
 44
0.0
 45
0.0
 49
-11.0
 74
     0
  0
LTYPE
  5
B75D
330
5
100
AcDbSymbolTableRecord
100
AcDbLinetypeTableRecord
  2
HIDDEN
 70
     0
  3
Hidden __ __ __ __ __ __ __ __ __ __ __ __ __ _
 72
    65
 73
     2
 40
9.524999999999998
 49
6.349999999999999
 74
     0
 49
-3.174999999999999
 74
     0
  0
LTYPE
  5
B75E
330
5
100
AcDbSymbolTableRecord
100
AcDbLinetypeTableRecord
  2
PHANTOM2
 70
     0
  3
Phantom (.5x) ___ _ _ ___ _ _ ___ _ _ ___ _ _
 72
    65
 73
     6
 40
31.75
 49
15.875
 74
     0
 49
-3.174999999999999
 74
     0
 49
3.174999999999999
 74
     0
 49
-3.174999999999999
 74
     0
 49
3.174999999999999
 74
     0
 49
-3.174999999999999
 74
     0
  0
LTYPE
  5
B75F
330
5
100
AcDbSymbolTableRecord
100
AcDbLinetypeTableRecord
  2
CENTER
 70
     0
  3
Center ____ _ ____ _ ____ _ ____ _ ____ _ ____
 72
    65
 73
     4
 40
50.8
 49
31.75
 74
     0
 49
-6.349999999999999
 74
     0
 49
6.349999999999999
 74
     0
 49
-6.349999999999999
 74
     0
  0
ENDTAB
  0
TABLE
  2
LAYER
  5
2
330
0
100
AcDbSymbolTable
 70
    13
  0
LAYER
  5
10
330
2
100
AcDbSymbolTableRecord
100
AcDbLayerTableRecord
  2
0
 70
     0
 62
     7
  6
CONTINUOUS
370
    -3
390
F
  0
LAYER
  5
7D
330
2
100
AcDbSymbolTableRecord
100
AcDbLayerTableRecord
  2
AM_5
 70
     0
 62
     3
  6
CONTINUOUS
370
    -3
390
F
  0
LAYER
  5
7F
330
2
100
AcDbSymbolTableRecord
100
AcDbLayerTableRecord
  2
DEFPOINTS
 70
     0
 62
     7
  6
CONTINUOUS
290
     0
370
    -3
390
F
  0
LAYER
  5
12B1
330
2
100
AcDbSymbolTableRecord
100
AcDbLayerTableRecord
  2
AM_0
 70
     0
 62
     7
  6
CONTINUOUS
370
    -3
390
F
  0
LAYER
  5
2222
330
2
100
AcDbSymbolTableRecord
100
AcDbLayerTableRecord
  2
AM_6
 70
     0
 62
     2
  6
CONTINUOUS
370
    -3
390
F
  0
LAYER
  5
7DB2
330
2
100
AcDbSymbolTableRecord
100
AcDbLayerTableRecord
  2
AM_7
 70
     0
 62
     4
  6
AM_ISO08W050
370
    -3
390
F
  0
ENDTAB
  0
TABLE
  2
STYLE
  5
3
330
0
100
AcDbSymbolTable
 70
     4
  0
STYLE
  5
11
330
3
100
AcDbSymbolTableRecord
100
AcDbTextStyleTableRecord
  2
STANDARD
 70
     0
 40
0.0
 41
1.0
 50
0.0
 71
     0
 42
2.5
  3
ISOCP.SHX
  4
EXTFONT.SHX
  0
STYLE
  5
4A
330
3
100
AcDbSymbolTableRecord
100
AcDbTextStyleTableRecord
  2

 70
     1
 40
0.0
 41
1.0
 50
0.0
 71
     0
 42
2.5
  3
ltypeshp.shx
  4

  0
ENDTAB
  0
TABLE
  2
VIEW
  5
6
330
0
100
AcDbSymbolTable
 70
     6
  0
VIEW
  5
A30
330
6
100
AcDbSymbolTableRecord
100
AcDbViewTableRecord
  2
AM_VIEW1
 70
     0
 40
148.5
 10
112.0719649561952
 20
222.75
 41
224.1439299123904
 11
0.0
 21
0.0
 31
1.0
 12
0.0
 22
0.0
 32
0.0
 42
50.0
 43
0.0
 44
0.0
 50
0.0
 71
     0
281
     0
 72
     0
  0
VIEW
  5
A31
330
6
100
AcDbSymbolTableRecord
100
AcDbViewTableRecord
  2
AM_VIEW2
 70
     0
 40
148.5
 10
307.9280350438047
 20
222.75
 41
224.1439299123904
 11
0.0
 21
0.0
 31
1.0
 12
0.0
 22
0.0
 32
0.0
 42
50.0
 43
0.0
 44
0.0
 50
0.0
 71
     0
281
     0
 72
     0
  0
VIEW
  5
A32
330
6
100
AcDbSymbolTableRecord
100
AcDbViewTableRecord
  2
AM_VIEW3
 70
     0
 40
148.5
 10
112.0719649561952
 20
74.25
 41
224.1439299123904
 11
0.0
 21
0.0
 31
1.0
 12
0.0
 22
0.0
 32
0.0
 42
50.0
 43
0.0
 44
0.0
 50
0.0
 71
     0
281
     0
 72
     0
  0
VIEW
  5
A33
330
6
100
AcDbSymbolTableRecord
100
AcDbViewTableRecord
  2
AM_VIEW4
 70
     0
 40
148.5
 10
307.9280350438047
 20
74.25
 41
224.1439299123904
 11
0.0
 21
0.0
 31
1.0
 12
0.0
 22
0.0
 32
0.0
 42
50.0
 43
0.0
 44
0.0
 50
0.0
 71
     0
281
     0
 72
     0
  0
VIEW
  5
A34
330
6
100
AcDbSymbolTableRecord
100
AcDbViewTableRecord
  2
AM_VIEW5
 70
     0
 40
148.5
 10
210.0
 20
148.5
 41
224.1439299123904
 11
0.0
 21
0.0
 31
1.0
 12
0.0
 22
0.0
 32
0.0
 42
50.0
 43
0.0
 44
0.0
 50
0.0
 71
     0
281
     0
 72
     0
  0
VIEW
  5
A35
330
6
100
AcDbSymbolTableRecord
100
AcDbViewTableRecord
  2
AM_VIEW6
 70
     0
 40
296.9970299999999
 10
210.0
 20
148.5
 41
448.2833769461826
 11
0.0
 21
0.0
 31
1.0
 12
0.0
 22
0.0
 32
0.0
 42
50.0
 43
0.0
 44
0.0
 50
0.0
 71
     0
281
     0
 72
     0
  0
ENDTAB
  0
TABLE
  2
UCS
  5
7
330
0
100
AcDbSymbolTable
 70
     0
  0
ENDTAB
  0
TABLE
  2
APPID
  5
9
330
0
100
AcDbSymbolTable
 70
    42
  0
APPID
  5
12
330
9
100
AcDbSymbolTableRecord
100
AcDbRegAppTableRecord
  2
ACAD
 70
     0
  0
APPID
  5
2C
330
9
100
AcDbSymbolTableRecord
100
AcDbRegAppTableRecord
  2
MCAD_NO_VIS
 70
     0
  0
APPID
  5
2D
330
9
100
AcDbSymbolTableRecord
100
AcDbRegAppTableRecord
  2
ACAD_TEMP_GRAPHIC
 70
     0
  0
APPID
  5
B9
330
9
100
AcDbSymbolTableRecord
100
AcDbRegAppTableRecord
  2
GENIUS_GENDTOL_13
 70
     0
  0
APPID
  5
359
330
9
100
AcDbSymbolTableRecord
100
AcDbRegAppTableRecord
  2
GENIUS_GENREC_14
 70
     0
  0
APPID
  5
35A
330
9
100
AcDbSymbolTableRecord
100
AcDbRegAppTableRecord
  2
GENIUS_GENODEF_13
 70
     0
  0
APPID
  5
35B
330
9
100
AcDbSymbolTableRecord
100
AcDbRegAppTableRecord
  2
GENIUS_GENOBJ-N-REC_13
 70
     0
  0
APPID
  5
667
330
9
100
AcDbSymbolTableRecord
100
AcDbRegAppTableRecord
  2
GENIUS_GENCFG_13
 70
     0
  0
APPID
  5
668
330
9
100
AcDbSymbolTableRecord
100
AcDbRegAppTableRecord
  2
GENIUS_GENCFG0_13
 70
     0
  0
APPID
  5
669
330
9
100
AcDbSymbolTableRecord
100
AcDbRegAppTableRecord
  2
GENIUS_GENCFG1_13
 70
     0
  0
APPID
  5
66A
330
9
100
AcDbSymbolTableRecord
100
AcDbRegAppTableRecord
  2
GENIUS_GENCFG2_13
 70
     0
  0
APPID
  5
66B
330
9
100
AcDbSymbolTableRecord
100
AcDbRegAppTableRecord
  2
GENIUS_GENCFG3_13
 70
     0
  0
APPID
  5
66C
330
9
100
AcDbSymbolTableRecord
100
AcDbRegAppTableRecord
  2
GENIUS_GENCFG4_13
 70
     0
  0
APPID
  5
A76
330
9
100
AcDbSymbolTableRecord
100
AcDbRegAppTableRecord
  2
GENIUS_GENBLLY_14
 70
     0
  0
APPID
  5
A77
330
9
100
AcDbSymbolTableRecord
100
AcDbRegAppTableRecord
  2
GENIUS_GENOBJ-N-CEN_13
 70
     0
  0
APPID
  5
A83
330
9
100
AcDbSymbolTableRecord
100
AcDbRegAppTableRecord
  2
GENIUS_GENTRA_14
 70
     0
  0
APPID
  5
A8D
330
9
100
AcDbSymbolTableRecord
100
AcDbRegAppTableRecord
  2
GENIUS_GENOBJ-N-TIT_13
 70
     0
  0
APPID
  5
A8E
330
9
100
AcDbSymbolTableRecord
100
AcDbRegAppTableRecord
  2
GENIUS_GENTITLE_13
 70
     0
  0
APPID
  5
A8F
330
9
100
AcDbSymbolTableRecord
100
AcDbRegAppTableRecord
  2
GENIUS_GENOENT_13
 70
     0
  0
APPID
  5
A90
330
9
100
AcDbSymbolTableRecord
100
AcDbRegAppTableRecord
  2
GENIUS_GENOREF_13
 70
     0
  0
APPID
  5
A91
330
9
100
AcDbSymbolTableRecord
100
AcDbRegAppTableRecord
  2
GENIUS_GENOLIS_13
 70
     0
  0
APPID
  5
A92
330
9
100
AcDbSymbolTableRecord
100
AcDbRegAppTableRecord
  2
GENIUS_GENZVEED_13
 70
     0
  0
APPID
  5
A93
330
9
100
AcDbSymbolTableRecord
100
AcDbRegAppTableRecord
  2
GENIUS_GENSCREG_15
 70
     0
  0
APPID
  5
A94
330
9
100
AcDbSymbolTableRecord
100
AcDbRegAppTableRecord
  2
GENIUS_GENOBJ-N-SDF_13
 70
     0
  0
APPID
  5
12B5
330
9
100
AcDbSymbolTableRecord
100
AcDbRegAppTableRecord
  2
GENIUS_GENOBJ-N-RSBK_13
 70
     0
  0
APPID
  5
12B6
330
9
100
AcDbSymbolTableRecord
100
AcDbRegAppTableRecord
  2
GENIUS_GENOBJ-N-LIB_13
 70
     0
  0
APPID
  5
12B7
330
9
100
AcDbSymbolTableRecord
100
AcDbRegAppTableRecord
  2
GENIUS_GENSCALE_13
 70
     0
  0
APPID
  5
12B8
330
9
100
AcDbSymbolTableRecord
100
AcDbRegAppTableRecord
  2
GENIUS_GENOBJ-N-HTC_13
 70
     0
  0
APPID
  5
12B9
330
9
100
AcDbSymbolTableRecord
100
AcDbRegAppTableRecord
  2
GENIUS_GENHATCH_13
 70
     0
  0
APPID
  5
1C0A
330
9
100
AcDbSymbolTableRecord
100
AcDbRegAppTableRecord
  2
BASE_TYPE
 70
     0
  0
APPID
  5
276B
330
9
100
AcDbSymbolTableRecord
100
AcDbRegAppTableRecord
  2
GENIUS_GENOBJ-N-FIL_13
 70
     0
  0
APPID
  5
3640
330
9
100
AcDbSymbolTableRecord
100
AcDbRegAppTableRecord
  2
GENIUS_GENBH_13
 70
     0
  0
APPID
  5
36D1
330
9
100
AcDbSymbolTableRecord
100
AcDbRegAppTableRecord
  2
GENIUS_GENOBJ-F-SPR_13
 70
     0
  0
APPID
  5
36DA
330
9
100
AcDbSymbolTableRecord
100
AcDbRegAppTableRecord
  2
GENIUS_GEFSPRING_13
 70
     0
  0
APPID
  5
36DB
330
9
100
AcDbSymbolTableRecord
100
AcDbRegAppTableRecord
  2
GENIUS_GEFSPRINGP_13
 70
     0
  0
APPID
  5
4D67
330
9
100
AcDbSymbolTableRecord
100
AcDbRegAppTableRecord
  2
GENIUS_GENFIL_13
 70
     0
  0
APPID
  5
4D68
330
9
100
AcDbSymbolTableRecord
100
AcDbRegAppTableRecord
  2
GENIUS_GENOBJ-N-CHA_13
 70
     0
  0
APPID
  5
B761
330
9
100
AcDbSymbolTableRecord
100
AcDbRegAppTableRecord
  2
AD_DRAW
 70
     0
  0
APPID
  5
B764
330
9
100
AcDbSymbolTableRecord
100
AcDbRegAppTableRecord
  2
ACATTRIBSERVICES
 70
     0
  0
APPID
  5
B782
330
9
100
AcDbSymbolTableRecord
100
AcDbRegAppTableRecord
  2
DESIGNERASSEMBLIES
 70
     0
  0
APPID
  5
B787
330
9
100
AcDbSymbolTableRecord
100
AcDbRegAppTableRecord
  2
ACADM_DIM_EDIT
 70
     0
  0
APPID
  5
B788
330
9
100
AcDbSymbolTableRecord
100
AcDbRegAppTableRecord
  2
AMDT_DM_ADJ
 70
     0
  0
ENDTAB
  0
TABLE
  2
DIMSTYLE
  5
A
330
0
100
AcDbSymbolTable
 70
    13
100
AcDbDimStyleTable
 71
     0
  0
DIMSTYLE
105
58
330
A
100
AcDbSymbolTableRecord
100
AcDbDimStyleTableRecord
  2
AM_JIS
 70
     0
  4
"
 41
2.5
 42
0.0
 43
10.0
 44
1.0
 47
0.1
 48
0.1000000001
 73
     0
 74
     0
 77
     3
 78
     9
140
3.799999999999998
141
0.0
143
0.0393701
146
0.71
147
1.5
172
     1
176
   256
177
   256
178
     2
271
     2
272
     2
275
     1
283
     0
284
     8
340
11
341
59
342
59
  0
DIMSTYLE
105
65F
330
A
100
AcDbSymbolTableRecord
100
AcDbDimStyleTableRecord
  2
STANDARD
 70
     0
340
11
  0
DIMSTYLE
105
1761
102
{ACAD_REACTORS
330
B3C4
330
B3D4
330
B3FC
330
B416
330
B42C
330
B439
330
B456
330
B465
102
}
330
A
100
AcDbSymbolTableRecord
100
AcDbDimStyleTableRecord
  2
AM_JIS$0
 70
     0
  4
"
 41
2.5
 42
0.0
 43
10.0
 44
1.0
 47
0.1
 48
0.1000000001
 73
     0
 74
     0
 77
     3
 78
     9
140
3.799999999999998
141
0.0
143
0.0393701
146
0.71
147
1.5
172
     1
176
     3
177
     3
178
     2
271
     2
272
     2
275
     1
283
     0
284
     8
340
11
341
59
342
59
  0
ENDTAB
  0
TABLE
  2
BLOCK_RECORD
  5
1
330
0
100
AcDbSymbolTable
 70
    20
  0
BLOCK_RECORD
  5
1F
102
{ACAD_XDICTIONARY
360
165
102
}
330
1
100
AcDbSymbolTableRecord
100
AcDbBlockTableRecord
  2
*MODEL_SPACE
340
B727
  0
BLOCK_RECORD
  5
1B
102
{ACAD_XDICTIONARY
360
B71A
102
}
330
1
100
AcDbSymbolTableRecord
100
AcDbBlockTableRecord
  2
*PAPER_SPACE
340
B728
  0
BLOCK_RECORD
  5
59
330
1
100
AcDbSymbolTableRecord
100
AcDbBlockTableRecord
  2
_OPEN30
340
0
102
{BLKREFS
331
B7E4
331
B7E5
331
B7ED
331
B7EE
331
B7F6
331
B7F7
331
B7FF
331
B800
331
B808
331
B809
331
B811
331
B812
331
B81C
331
B81D
331
B825
331
B826
102
}
  0
BLOCK_RECORD
  5
AB1E
330
1
100
AcDbSymbolTableRecord
100
AcDbBlockTableRecord
  2
CBF06
340
0
102
{BLKREFS
331
B377
102
}
  0
BLOCK_RECORD
  5
B3C5
330
1
100
AcDbSymbolTableRecord
100
AcDbBlockTableRecord
  2
*D11
340
0
  0
BLOCK_RECORD
  5
B3D5
330
1
100
AcDbSymbolTableRecord
100
AcDbBlockTableRecord
  2
*D12
340
0
  0
BLOCK_RECORD
  5
B3FD
330
1
100
AcDbSymbolTableRecord
100
AcDbBlockTableRecord
  2
*D13
340
0
  0
BLOCK_RECORD
  5
B417
330
1
100
AcDbSymbolTableRecord
100
AcDbBlockTableRecord
  2
*D14
340
0
  0
BLOCK_RECORD
  5
B42D
330
1
100
AcDbSymbolTableRecord
100
AcDbBlockTableRecord
  2
*D15
340
0
  0
BLOCK_RECORD
  5
B43A
330
1
100
AcDbSymbolTableRecord
100
AcDbBlockTableRecord
  2
*D16
340
0
  0
BLOCK_RECORD
  5
B457
330
1
100
AcDbSymbolTableRecord
100
AcDbBlockTableRecord
  2
*D17
340
0
  0
BLOCK_RECORD
  5
B466
330
1
100
AcDbSymbolTableRecord
100
AcDbBlockTableRecord
  2
*D18
340
0
  0
ENDTAB
  0
ENDSEC
  0
SECTION
  2
BLOCKS
  0
BLOCK
  5
20
330
1F
100
AcDbEntity
  8
0
100
AcDbBlockBegin
  2
*MODEL_SPACE
 70
     0
 10
0.0
 20
0.0
 30
0.0
  3
*MODEL_SPACE
  1

  0
ENDBLK
  5
21
330
1F
100
AcDbEntity
  8
0
100
AcDbBlockEnd
  0
BLOCK
  5
1C
330
1B
100
AcDbEntity
 67
     1
  8
0
100
AcDbBlockBegin
  2
*PAPER_SPACE
 70
     0
 10
0.0
 20
0.0
 30
0.0
  3
*PAPER_SPACE
  1

  0
ENDBLK
  5
1D
330
1B
100
AcDbEntity
 67
     1
  8
0
100
AcDbBlockEnd
  0
BLOCK
  5
5D
330
59
100
AcDbEntity
  8
0
100
AcDbBlockBegin
  2
_OPEN30
 70
     0
 10
0.0
 20
0.0
 30
0.0
  3
_OPEN30
  1

  0
LINE
  5
5A
330
59
100
AcDbEntity
  8
0
 62
     0
100
AcDbLine
 10
-1.0
 20
0.26794919
 30
0.0
 11
0.0
 21
0.0
 31
0.0
  0
LINE
  5
5B
330
59
100
AcDbEntity
  8
0
 62
     0
100
AcDbLine
 10
0.0
 20
0.0
 30
0.0
 11
-1.0
 21
-0.26794919
 31
0.0
  0
LINE
  5
5C
330
59
100
AcDbEntity
  8
0
 62
     0
100
AcDbLine
 10
0.0
 20
0.0
 30
0.0
 11
-1.0
 21
0.0
 31
0.0
  0
ENDBLK
  5
5E
330
59
100
AcDbEntity
  8
0
100
AcDbBlockEnd
  0
BLOCK
  5
AB27
330
AB1E
100
AcDbEntity
  8
0
100
AcDbBlockBegin
  2
CBF06
 70
     0
 10
0.0
 20
0.0
 30
0.0
  3
CBF06
  1

  0
CIRCLE
  5
AB1F
330
AB1E
100
AcDbEntity
  8
0
  6
Continuous
100
AcDbCircle
 10
0.0000187875812969
 20
0.0000034482758053
 30
0.0
 40
4.307179353944746
  0
CIRCLE
  5
AB20
330
AB1E
100
AcDbEntity
  8
0
  6
Continuous
100
AcDbCircle
 10
0.0000187875812969
 20
0.0000034482758053
 30
0.0
 40
5.0
  0
LINE
  5
AB21
330
AB1E
100
AcDbEntity
  8
0
  6
Continuous
100
AcDbLine
 10
-1.443356212418706
 20
-2.499995386098901
 30
0.0
 11
1.443393787581185
 21
-2.499995386098901
 31
0.0
  0
LINE
  5
AB22
330
AB1E
100
AcDbEntity
  8
0
  6
Continuous
100
AcDbLine
 10
1.4433937875813
 20
2.500002282650598
 30
0.0
 11
-1.443356212418706
 21
2.500002282650598
 31
0.0
  0
LINE
  5
AB23
330
AB1E
100
AcDbEntity
  8
0
  6
Continuous
100
AcDbLine
 10
-2.886731212418651
 20
0.0000034482758053
 30
0.0
 11
-1.443356212418706
 21
-2.499995386098901
 31
0.0
  0
LINE
  5
AB24
330
AB1E
100
AcDbEntity
  8
0
  6
Continuous
100
AcDbLine
 10
-1.443356212418706
 20
2.500002282650598
 30
0.0
 11
-2.886731212418651
 21
0.0000034482758053
 31
0.0
  0
LINE
  5
AB25
330
AB1E
100
AcDbEntity
  8
0
  6
Continuous
100
AcDbLine
 10
1.443393787581185
 20
-2.499995386098901
 30
0.0
 11
2.886768787581303
 21
0.0000034482758053
 31
0.0
  0
LINE
  5
AB26
330
AB1E
100
AcDbEntity
  8
0
  6
Continuous
100
AcDbLine
 10
2.886768787581303
 20
0.0000034482758053
 30
0.0
 11
1.4433937875813
 21
2.500002282650598
 31
0.0
  0
ENDBLK
  5
AB28
330
AB1E
100
AcDbEntity
  8
0
100
AcDbBlockEnd
  0
BLOCK
  5
B3CF
330
B3C5
100
AcDbEntity
  8
0
100
AcDbBlockBegin
  2
*D11
 70
     1
 10
0.0
 20
0.0
 30
0.0
  3
*D11
  1

  0
LINE
  5
B7E1
330
B3C5
100
AcDbEntity
  8
AM_5
 62
     3
370
    -2
100
AcDbLine
 10
31.00000000000007
 20
44.7
 30
0.0
 11
31.00000000000007
 21
60.26933642093874
 31
0.0
  0
LINE
  5
B7E2
330
B3C5
100
AcDbEntity
  8
AM_5
 62
     3
370
    -2
100
AcDbLine
 10
0.0
 20
0.2500000000000277
 30
0.0
 11
0.0000000000000037
 21
60.26933642093874
 31
0.0
  0
LINE
  5
B7E3
330
B3C5
100
AcDbEntity
  8
AM_5
 62
     3
370
    -2
100
AcDbLine
 10
28.50000000000007
 20
59.26933642093874
 30
0.0
 11
2.500000000000003
 21
59.26933642093874
 31
0.0
  0
INSERT
  5
B7E4
330
B3C5
100
AcDbEntity
  8
AM_5
 62
     3
370
    -2
100
AcDbBlockReference
  2
_OPEN30
 10
31.00000000000007
 20
59.26933642093874
 30
0.0
 41
2.5
 42
2.5
 43
2.5
  0
INSERT
  5
B7E5
330
B3C5
100
AcDbEntity
  8
AM_5
 62
     3
370
    -2
100
AcDbBlockReference
  2
_OPEN30
 10
0.0000000000000036
 20
59.26933642093874
 30
0.0
 41
2.5
 42
2.5
 43
2.5
 50
180.0
  0
MTEXT
  5
B7E6
330
B3C5
100
AcDbEntity
  8
AM_5
 62
     2
100
AcDbMText
 10
15.50000000000003
 20
62.66933642093874
 30
0.0
 40
3.799999999999998
 41
0.0
 71
     5
 72
     1
  1
31
 73
     1
 44
1.0
1001
ACAD
1000
MTEXTBEGIN
1070
    73
1070
     1
1070
    44
1040
1.0
1070
    74
1070
     0
1000
MTEXTEND
  0
POINT
  5
B7E7
330
B3C5
100
AcDbEntity
  8
DEFPOINTS
 62
     0
100
AcDbPoint
 10
31.00000000000007
 20
44.7
 30
0.0
  0
POINT
  5
B7E8
330
B3C5
100
AcDbEntity
  8
DEFPOINTS
 62
     0
100
AcDbPoint
 10
0.0
 20
0.2500000000000277
 30
0.0
  0
POINT
  5
B7E9
330
B3C5
100
AcDbEntity
  8
DEFPOINTS
 62
     0
100
AcDbPoint
 10
0.0000000000000036
 20
59.26933642093874
 30
0.0
  0
ENDBLK
  5
B3D0
330
B3C5
100
AcDbEntity
  8
0
100
AcDbBlockEnd
  0
BLOCK
  5
B3DF
330
B3D5
100
AcDbEntity
  8
0
100
AcDbBlockBegin
  2
*D12
 70
     1
 10
0.0
 20
0.0
 30
0.0
  3
*D12
  1

  0
LINE
  5
B7EA
330
B3D5
100
AcDbEntity
  8
AM_5
 62
     3
370
    -2
100
AcDbLine
 10
153.0
 20
-24.8753538633123
 30
0.0
 11
153.0
 21
-32.86601736412493
 31
0.0
  0
LINE
  5
B7EB
330
B3D5
100
AcDbEntity
  8
AM_5
 62
     3
370
    -2
100
AcDbLine
 10
-0.0000000000000022
 20
-24.87535386331227
 30
0.0
 11
-0.0000000000000027
 21
-32.86601736412493
 31
0.0
  0
LINE
  5
B7EC
330
B3D5
100
AcDbEntity
  8
AM_5
 62
     3
370
    -2
100
AcDbLine
 10
150.4999999999999
 20
-31.86601736412493
 30
0.0
 11
2.499999999999997
 21
-31.86601736412493
 31
0.0
  0
INSERT
  5
B7ED
330
B3D5
100
AcDbEntity
  8
AM_5
 62
     3
370
    -2
100
AcDbBlockReference
  2
_OPEN30
 10
153.0
 20
-31.86601736412493
 30
0.0
 41
2.5
 42
2.5
 43
2.5
  0
INSERT
  5
B7EE
330
B3D5
100
AcDbEntity
  8
AM_5
 62
     3
370
    -2
100
AcDbBlockReference
  2
_OPEN30
 10
-0.0000000000000026
 20
-31.86601736412493
 30
0.0
 41
2.5
 42
2.5
 43
2.5
 50
180.0
  0
MTEXT
  5
B7EF
330
B3D5
100
AcDbEntity
  8
AM_5
 62
     2
100
AcDbMText
 10
76.49999999999998
 20
-28.46601736412493
 30
0.0
 40
3.799999999999998
 41
0.0
 71
     5
 72
     1
  1
153
 73
     1
 44
1.0
1001
ACAD
1000
MTEXTBEGIN
1070
    73
1070
     1
1070
    44
1040
1.0
1070
    74
1070
     0
1000
MTEXTEND
  0
POINT
  5
B7F0
330
B3D5
100
AcDbEntity
  8
DEFPOINTS
 62
     0
100
AcDbPoint
 10
153.0
 20
-24.8753538633123
 30
0.0
  0
POINT
  5
B7F1
330
B3D5
100
AcDbEntity
  8
DEFPOINTS
 62
     0
100
AcDbPoint
 10
-0.0000000000000022
 20
-24.87535386331227
 30
0.0
  0
POINT
  5
B7F2
330
B3D5
100
AcDbEntity
  8
DEFPOINTS
 62
     0
100
AcDbPoint
 10
-0.0000000000000026
 20
-31.86601736412493
 30
0.0
  0
ENDBLK
  5
B3E0
330
B3D5
100
AcDbEntity
  8
0
100
AcDbBlockEnd
  0
BLOCK
  5
B409
330
B3FD
100
AcDbEntity
  8
0
100
AcDbBlockBegin
  2
*D13
 70
     1
 10
0.0
 20
0.0
 30
0.0
  3
*D13
  1

  0
LINE
  5
B7F3
330
B3FD
100
AcDbEntity
  8
AM_5
 62
     3
370
    -2
100
AcDbLine
 10
8.000234843104749
 20
0.2500000000000268
 30
0.0
 11
8.000234843104747
 21
-14.28022043296918
 31
0.0
  0
LINE
  5
B7F4
330
B3FD
100
AcDbEntity
  8
AM_5
 62
     3
370
    -2
100
AcDbLine
 10
0.0
 20
0.2587248741755836
 30
0.0
 11
-0.0000000000000009
 21
-14.28022043296918
 31
0.0
  0
LINE
  5
B7F5
330
B3FD
100
AcDbEntity
  8
AM_5
 62
     3
370
    -2
100
AcDbLine
 10
5.500234843104749
 20
-13.28022043296918
 30
0.0
 11
2.499999999999999
 21
-13.28022043296918
 31
0.0
  0
INSERT
  5
B7F6
330
B3FD
100
AcDbEntity
  8
AM_5
 62
     3
370
    -2
100
AcDbBlockReference
  2
_OPEN30
 10
8.000234843104749
 20
-13.28022043296918
 30
0.0
 41
2.5
 42
2.5
 43
2.5
  0
INSERT
  5
B7F7
330
B3FD
100
AcDbEntity
  8
AM_5
 62
     3
370
    -2
100
AcDbBlockReference
  2
_OPEN30
 10
-0.0000000000000008
 20
-13.28022043296918
 30
0.0
 41
2.5
 42
2.5
 43
2.5
 50
180.0
  0
MTEXT
  5
B7F8
330
B3FD
100
AcDbEntity
  8
AM_5
 62
     2
100
AcDbMText
 10
4.000117421552374
 20
-9.880220432969181
 30
0.0
 40
3.799999999999998
 41
0.0
 71
     5
 72
     1
  1
8
 73
     1
 44
1.0
1001
ACAD
1000
MTEXTBEGIN
1070
    73
1070
     1
1070
    44
1040
1.0
1070
    74
1070
     0
1000
MTEXTEND
  0
POINT
  5
B7F9
330
B3FD
100
AcDbEntity
  8
DEFPOINTS
 62
     0
100
AcDbPoint
 10
8.000234843104749
 20
0.2500000000000268
 30
0.0
  0
POINT
  5
B7FA
330
B3FD
100
AcDbEntity
  8
DEFPOINTS
 62
     0
100
AcDbPoint
 10
0.0
 20
0.2587248741755836
 30
0.0
  0
POINT
  5
B7FB
330
B3FD
100
AcDbEntity
  8
DEFPOINTS
 62
     0
100
AcDbPoint
 10
-0.0000000000000008
 20
-13.28022043296918
 30
0.0
  0
ENDBLK
  5
B40A
330
B3FD
100
AcDbEntity
  8
0
100
AcDbBlockEnd
  0
BLOCK
  5
B421
330
B417
100
AcDbEntity
  8
0
100
AcDbBlockBegin
  2
*D14
 70
     1
 10
0.0
 20
0.0
 30
0.0
  3
*D14
  1

  0
LINE
  5
B7FC
330
B417
100
AcDbEntity
  8
AM_5
 62
     3
370
    -2
100
AcDbLine
 10
6.500000000000046
 20
-87.45070772662453
 30
0.0
 11
-15.91482431696432
 21
-87.45070772662453
 31
0.0
  0
LINE
  5
B7FD
330
B417
100
AcDbEntity
  8
AM_5
 62
     3
370
    -2
100
AcDbLine
 10
-0.0000000000000067
 20
-62.45019484746176
 30
0.0
 11
-15.91482431696431
 21
-62.45019484746176
 31
0.0
  0
LINE
  5
B7FE
330
B417
100
AcDbEntity
  8
AM_5
 62
     3
370
    -2
100
AcDbLine
 10
-14.91482431696432
 20
-84.95070772662453
 30
0.0
 11
-14.91482431696432
 21
-64.95019484746176
 31
0.0
  0
INSERT
  5
B7FF
330
B417
100
AcDbEntity
  8
AM_5
 62
     3
370
    -2
100
AcDbBlockReference
  2
_OPEN30
 10
-14.91482431696432
 20
-87.45070772662453
 30
0.0
 41
2.5
 42
2.5
 43
2.5
 50
270.0
  0
INSERT
  5
B800
330
B417
100
AcDbEntity
  8
AM_5
 62
     3
370
    -2
100
AcDbBlockReference
  2
_OPEN30
 10
-14.91482431696432
 20
-62.45019484746176
 30
0.0
 41
2.5
 42
2.5
 43
2.5
 50
90.0
  0
MTEXT
  5
B801
330
B417
100
AcDbEntity
  8
AM_5
 62
     2
100
AcDbMText
 10
-18.31519833271234
 20
-74.95045128704314
 30
0.0
 40
3.799999999999998
 41
0.0
 71
     5
 72
     1
  1
25
 11
0.0000000000000001
 21
1.0
 31
0.0
 73
     1
 44
1.0
1001
ACAD
1000
MTEXTBEGIN
1070
    73
1070
     1
1070
    44
1040
1.0
1070
    74
1070
     0
1000
MTEXTEND
  0
POINT
  5
B802
330
B417
100
AcDbEntity
  8
DEFPOINTS
 62
     0
100
AcDbPoint
 10
6.500000000000046
 20
-87.45070772662453
 30
0.0
  0
POINT
  5
B803
330
B417
100
AcDbEntity
  8
DEFPOINTS
 62
     0
100
AcDbPoint
 10
-0.0000000000000067
 20
-62.45019484746176
 30
0.0
  0
POINT
  5
B804
330
B417
100
AcDbEntity
  8
DEFPOINTS
 62
     0
100
AcDbPoint
 10
-14.91482431696432
 20
-62.45019484746176
 30
0.0
  0
ENDBLK
  5
B422
330
B417
100
AcDbEntity
  8
0
100
AcDbBlockEnd
  0
BLOCK
  5
B437
330
B42D
100
AcDbEntity
  8
0
100
AcDbBlockBegin
  2
*D15
 70
     1
 10
0.0
 20
0.0
 30
0.0
  3
*D15
  1

  0
LINE
  5
B805
330
B42D
100
AcDbEntity
  8
AM_5
 62
     3
370
    -2
100
AcDbLine
 10
153.0
 20
37.69999999999997
 30
0.0
 11
174.5579014435824
 21
37.69999999999997
 31
0.0
  0
LINE
  5
B806
330
B42D
100
AcDbEntity
  8
AM_5
 62
     3
370
    -2
100
AcDbLine
 10
153.0
 20
12.69999999999996
 30
0.0
 11
174.5579014435824
 21
12.69999999999995
 31
0.0
  0
LINE
  5
B807
330
B42D
100
AcDbEntity
  8
AM_5
 62
     3
370
    -2
100
AcDbLine
 10
173.5579014435824
 20
35.19999999999997
 30
0.0
 11
173.5579014435824
 21
15.19999999999995
 31
0.0
  0
INSERT
  5
B808
330
B42D
100
AcDbEntity
  8
AM_5
 62
     3
370
    -2
100
AcDbBlockReference
  2
_OPEN30
 10
173.5579014435824
 20
37.69999999999997
 30
0.0
 41
2.5
 42
2.5
 43
2.5
 50
90.0
  0
INSERT
  5
B809
330
B42D
100
AcDbEntity
  8
AM_5
 62
     3
370
    -2
100
AcDbBlockReference
  2
_OPEN30
 10
173.5579014435824
 20
12.69999999999995
 30
0.0
 41
2.5
 42
2.5
 43
2.5
 50
270.0
  0
MTEXT
  5
B80A
330
B42D
100
AcDbEntity
  8
AM_5
 62
     2
100
AcDbMText
 10
170.1575274278343
 20
25.19999999999999
 30
0.0
 40
3.799999999999998
 41
0.0
 71
     5
 72
     1
  1
25
 11
0.0000000000000001
 21
1.0
 31
0.0
 73
     1
 44
1.0
1001
ACAD
1000
MTEXTBEGIN
1070
    73
1070
     1
1070
    44
1040
1.0
1070
    74
1070
     0
1000
MTEXTEND
  0
POINT
  5
B80B
330
B42D
100
AcDbEntity
  8
DEFPOINTS
 62
     0
100
AcDbPoint
 10
153.0
 20
37.69999999999997
 30
0.0
  0
POINT
  5
B80C
330
B42D
100
AcDbEntity
  8
DEFPOINTS
 62
     0
100
AcDbPoint
 10
153.0
 20
12.69999999999996
 30
0.0
  0
POINT
  5
B80D
330
B42D
100
AcDbEntity
  8
DEFPOINTS
 62
     0
100
AcDbPoint
 10
173.5579014435824
 20
12.69999999999995
 30
0.0
  0
ENDBLK
  5
B438
330
B42D
100
AcDbEntity
  8
0
100
AcDbBlockEnd
  0
BLOCK
  5
B444
330
B43A
100
AcDbEntity
  8
0
100
AcDbBlockBegin
  2
*D16
 70
     1
 10
0.0
 20
0.0
 30
0.0
  3
*D16
  1

  0
LINE
  5
B80E
330
B43A
100
AcDbEntity
  8
AM_5
 62
     3
370
    -2
100
AcDbLine
 10
153.0
 20
-62.45070772662456
 30
0.0
 11
173.0045496046348
 21
-62.45070772662456
 31
0.0
  0
LINE
  5
B80F
330
B43A
100
AcDbEntity
  8
AM_5
 62
     3
370
    -2
100
AcDbLine
 10
153.0
 20
-87.45070772662456
 30
0.0
 11
173.0045496046348
 21
-87.45070772662456
 31
0.0
  0
LINE
  5
B810
330
B43A
100
AcDbEntity
  8
AM_5
 62
     3
370
    -2
100
AcDbLine
 10
172.0045496046348
 20
-64.95070772662457
 30
0.0
 11
172.0045496046348
 21
-84.95070772662456
 31
0.0
  0
INSERT
  5
B811
330
B43A
100
AcDbEntity
  8
AM_5
 62
     3
370
    -2
100
AcDbBlockReference
  2
_OPEN30
 10
172.0045496046348
 20
-62.45070772662456
 30
0.0
 41
2.5
 42
2.5
 43
2.5
 50
90.0
  0
INSERT
  5
B812
330
B43A
100
AcDbEntity
  8
AM_5
 62
     3
370
    -2
100
AcDbBlockReference
  2
_OPEN30
 10
172.0045496046348
 20
-87.45070772662456
 30
0.0
 41
2.5
 42
2.5
 43
2.5
 50
270.0
  0
MTEXT
  5
B813
330
B43A
100
AcDbEntity
  8
AM_5
 62
     2
100
AcDbMText
 10
168.6041755888868
 20
-74.95070772662455
 30
0.0
 40
3.799999999999998
 41
0.0
 71
     5
 72
     1
  1
25
 11
0.0000000000000001
 21
1.0
 31
0.0
 73
     1
 44
1.0
1001
ACAD
1000
MTEXTBEGIN
1070
    73
1070
     1
1070
    44
1040
1.0
1070
    74
1070
     0
1000
MTEXTEND
  0
POINT
  5
B814
330
B43A
100
AcDbEntity
  8
DEFPOINTS
 62
     0
100
AcDbPoint
 10
153.0
 20
-62.45070772662456
 30
0.0
  0
POINT
  5
B815
330
B43A
100
AcDbEntity
  8
DEFPOINTS
 62
     0
100
AcDbPoint
 10
153.0
 20
-87.45070772662456
 30
0.0
  0
POINT
  5
B816
330
B43A
100
AcDbEntity
  8
DEFPOINTS
 62
     0
100
AcDbPoint
 10
172.0045496046348
 20
-87.45070772662456
 30
0.0
  0
ENDBLK
  5
B445
330
B43A
100
AcDbEntity
  8
0
100
AcDbBlockEnd
  0
BLOCK
  5
B463
330
B457
100
AcDbEntity
  8
0
100
AcDbBlockBegin
  2
*D17
 70
     1
 10
0.0
 20
0.0
 30
0.0
  3
*D17
  1

  0
LINE
  5
B817
330
B457
100
AcDbEntity
  8
AM_5
 62
     3
370
    -2
100
AcDbLine
 10
31.00000000000007
 20
37.7
 30
0.0
 11
174.5579014435825
 21
37.69999999999997
 31
0.0
  0
LINE
  5
B818
330
B457
100
AcDbEntity
  8
AM_5
 62
     3
370
    -2
100
AcDbLine
 10
31.00000000000007
 20
44.7
 30
0.0
 11
174.5579014435825
 21
44.69999999999997
 31
0.0
  0
LINE
  5
B819
330
B457
100
AcDbEntity
  8
AM_5
 62
     3
370
    -2
100
AcDbLine
 10
173.5579014435825
 20
35.19999999999997
 30
0.0
 11
173.5579014435825
 21
32.69999999999997
 31
0.0
  0
LINE
  5
B81A
330
B457
100
AcDbEntity
  8
AM_5
 62
     3
370
    -2
100
AcDbLine
 10
173.5579014435825
 20
47.19999999999997
 30
0.0
 11
173.5579014435825
 21
49.69999999999997
 31
0.0
  0
LINE
  5
B81B
330
B457
100
AcDbEntity
  8
AM_5
 62
     3
370
    -2
100
AcDbLine
 10
173.5579014435825
 20
37.69999999999997
 30
0.0
 11
173.5579014435825
 21
44.69999999999997
 31
0.0
  0
INSERT
  5
B81C
330
B457
100
AcDbEntity
  8
AM_5
 62
     3
370
    -2
100
AcDbBlockReference
  2
_OPEN30
 10
173.5579014435825
 20
37.69999999999997
 30
0.0
 41
2.5
 42
2.5
 43
2.5
 50
90.0
  0
INSERT
  5
B81D
330
B457
100
AcDbEntity
  8
AM_5
 62
     3
370
    -2
100
AcDbBlockReference
  2
_OPEN30
 10
173.5579014435825
 20
44.69999999999997
 30
0.0
 41
2.5
 42
2.5
 43
2.5
 50
270.0
  0
MTEXT
  5
B81E
330
B457
100
AcDbEntity
  8
AM_5
 62
     2
100
AcDbMText
 10
170.1579014435825
 20
41.2
 30
0.0
 40
3.799999999999998
 41
0.0
 71
     5
 72
     1
  1
7
 11
0.0000000000000001
 21
1.0
 31
0.0
 73
     1
 44
1.0
1001
ACAD
1000
MTEXTBEGIN
1070
    73
1070
     1
1070
    44
1040
1.0
1070
    74
1070
     0
1000
MTEXTEND
  0
POINT
  5
B81F
330
B457
100
AcDbEntity
  8
DEFPOINTS
 62
     0
100
AcDbPoint
 10
31.00000000000007
 20
37.7
 30
0.0
  0
POINT
  5
B820
330
B457
100
AcDbEntity
  8
DEFPOINTS
 62
     0
100
AcDbPoint
 10
31.00000000000007
 20
44.7
 30
0.0
  0
POINT
  5
B821
330
B457
100
AcDbEntity
  8
DEFPOINTS
 62
     0
100
AcDbPoint
 10
173.5579014435825
 20
44.69999999999997
 30
0.0
  0
ENDBLK
  5
B464
330
B457
100
AcDbEntity
  8
0
100
AcDbBlockEnd
  0
BLOCK
  5
B470
330
B466
100
AcDbEntity
  8
0
100
AcDbBlockBegin
  2
*D18
 70
     1
 10
0.0
 20
0.0
 30
0.0
  3
*D18
  1

  0
LINE
  5
B822
330
B466
100
AcDbEntity
  8
AM_5
 62
     3
370
    -2
100
AcDbLine
 10
153.0
 20
37.69999999999997
 30
0.0
 11
186.6860421877568
 21
37.69999999999996
 31
0.0
  0
LINE
  5
B823
330
B466
100
AcDbEntity
  8
AM_5
 62
     3
370
    -2
100
AcDbLine
 10
0.0000000000000002
 20
0.0
 30
0.0
 11
186.6860421877568
 21
-0.0000000000000529
 31
0.0
  0
LINE
  5
B824
330
B466
100
AcDbEntity
  8
AM_5
 62
     3
370
    -2
100
AcDbLine
 10
185.6860421877568
 20
35.19999999999996
 30
0.0
 11
185.6860421877568
 21
2.499999999999947
 31
0.0
  0
INSERT
  5
B825
330
B466
100
AcDbEntity
  8
AM_5
 62
     3
370
    -2
100
AcDbBlockReference
  2
_OPEN30
 10
185.6860421877568
 20
37.69999999999996
 30
0.0
 41
2.5
 42
2.5
 43
2.5
 50
90.0
  0
INSERT
  5
B826
330
B466
100
AcDbEntity
  8
AM_5
 62
     3
370
    -2
100
AcDbBlockReference
  2
_OPEN30
 10
185.6860421877568
 20
-0.0000000000000526
 30
0.0
 41
2.5
 42
2.5
 43
2.5
 50
270.0
  0
MTEXT
  5
B827
330
B466
100
AcDbEntity
  8
AM_5
 62
     2
100
AcDbMText
 10
182.2860421877568
 20
18.84999999999998
 30
0.0
 40
3.799999999999998
 41
0.0
 71
     5
 72
     1
  1
37.7
 11
0.0000000000000001
 21
1.0
 31
0.0
 73
     1
 44
1.0
1001
ACAD
1000
MTEXTBEGIN
1070
    73
1070
     1
1070
    44
1040
1.0
1070
    74
1070
     0
1000
MTEXTEND
  0
POINT
  5
B828
330
B466
100
AcDbEntity
  8
DEFPOINTS
 62
     0
100
AcDbPoint
 10
153.0
 20
37.69999999999997
 30
0.0
  0
POINT
  5
B829
330
B466
100
AcDbEntity
  8
DEFPOINTS
 62
     0
100
AcDbPoint
 10
0.0000000000000002
 20
0.0
 30
0.0
  0
POINT
  5
B82A
330
B466
100
AcDbEntity
  8
DEFPOINTS
 62
     0
100
AcDbPoint
 10
185.6860421877568
 20
-0.0000000000000526
 30
0.0
  0
ENDBLK
  5
B471
330
B466
100
AcDbEntity
  8
0
100
AcDbBlockEnd
  0
ENDSEC
  0
SECTION
  2
ENTITIES
  0
TEXT
  5
B190
330
1F
100
AcDbEntity
  8
AM_6
100
AcDbText
 10
66.42897431083223
 20
-104.3904645537804
 30
0.0
 40
5.0
  1
GMESR2525-85
 72
     4
 11
88.6530859631839
 21
-101.8904645537805
 31
0.0
100
AcDbText
  0
LINE
  5
B30E
330
1F
100
AcDbEntity
  8
AM_0
100
AcDbLine
 10
31.00000000000007
 20
37.7
 30
0.0
 11
153.0
 21
37.69999999999997
 31
0.0
  0
LINE
  5
B30F
330
1F
100
AcDbEntity
  8
AM_0
100
AcDbLine
 10
8.600000000000081
 20
12.70000000000001
 30
0.0
 11
153.0
 21
12.69999999999996
 31
0.0
  0
LINE
  5
B310
330
1F
100
AcDbEntity
  8
AM_0
100
AcDbLine
 10
153.0
 20
37.69999999999997
 30
0.0
 11
153.0
 21
12.69999999999996
 31
0.0
  0
LINE
  5
B311
330
1F
100
AcDbEntity
  8
AM_0
100
AcDbLine
 10
6.500000000000062
 20
41.30000000000001
 30
0.0
 11
6.500000000000062
 21
44.70000000000005
 31
0.0
  0
LINE
  5
B312
330
1F
100
AcDbEntity
  8
AM_0
100
AcDbLine
 10
6.500000000000062
 20
44.70000000000001
 30
0.0
 11
31.00000000000007
 21
44.7
 31
0.0
  0
LINE
  5
B313
330
1F
100
AcDbEntity
  8
AM_0
100
AcDbLine
 10
31.00000000000007
 20
37.7
 30
0.0
 11
31.00000000000007
 21
44.7
 31
0.0
  0
LINE
  5
B315
330
1F
100
AcDbEntity
  8
AM_0
100
AcDbLine
 10
6.500000000000062
 20
41.30000000000001
 30
0.0
 11
10.60000000000008
 21
41.30000000000004
 31
0.0
  0
LINE
  5
B316
330
1F
100
AcDbEntity
  8
AM_0
100
AcDbLine
 10
10.60000000000008
 20
12.7
 30
0.0
 11
10.60000000000008
 21
13.50000000000001
 31
0.0
  0
LINE
  5
B317
330
1F
100
AcDbEntity
  8
AM_0
100
AcDbLine
 10
8.600000000000083
 20
38.10000000000002
 30
0.0
 11
10.60000000000008
 21
38.10000000000002
 31
0.0
  0
LINE
  5
B318
330
1F
100
AcDbEntity
  8
AM_0
100
AcDbLine
 10
8.600000000000081
 20
12.70000000000001
 30
0.0
 11
8.600000000000081
 21
13.50000000000005
 31
0.0
  0
LINE
  5
B319
330
1F
100
AcDbEntity
  8
AM_0
100
AcDbLine
 10
30.00000000000006
 20
12.7
 30
0.0
 11
30.00000000000007
 21
33.09999999999999
 31
0.0
  0
LINE
  5
B31C
330
1F
100
AcDbEntity
  8
AM_0
100
AcDbLine
 10
6.500000000000046
 20
-87.45070772662453
 30
0.0
 11
153.0
 21
-87.45070772662456
 31
0.0
  0
LINE
  5
B31D
330
1F
100
AcDbEntity
  8
AM_0
100
AcDbLine
 10
8.717375235133651
 20
-62.45070772662453
 30
0.0
 11
26.80000000000007
 21
-62.45070772662453
 31
0.0
  0
LINE
  5
B31E
330
1F
100
AcDbEntity
  8
AM_0
100
AcDbLine
 10
153.0
 20
-62.45070772662456
 30
0.0
 11
153.0
 21
-87.45070772662456
 31
0.0
  0
LINE
  5
B320
330
1F
100
AcDbEntity
  8
AM_0
100
AcDbLine
 10
26.80000000000007
 20
12.7
 30
0.0
 11
26.80000000000007
 21
13.50000000000001
 31
0.0
  0
LINE
  5
B324
330
1F
100
AcDbEntity
  8
AM_0
100
AcDbLine
 10
8.60000000000007
 20
-66.51070772662453
 30
0.0
 11
8.60000000000007
 21
-72.77070772662452
 31
0.0
  0
LINE
  5
B325
330
1F
100
AcDbEntity
  8
AM_0
100
AcDbLine
 10
10.60000000000007
 20
-62.45070772662453
 30
0.0
 11
10.60000000000007
 21
-67.21070772662454
 31
0.0
  0
LINE
  5
B326
330
1F
100
AcDbEntity
  8
AM_0
100
AcDbLine
 10
8.600000000000068
 20
-80.71070772662451
 30
0.0
 11
12.20000000000009
 21
-80.71070772662451
 31
0.0
  0
LINE
  5
B327
330
1F
100
AcDbEntity
  8
AM_0
100
AcDbLine
 10
12.20000000000009
 20
-72.77070772662452
 30
0.0
 11
12.20000000000009
 21
-80.71070772662451
 31
0.0
  0
LINE
  5
B328
330
1F
100
AcDbEntity
  8
AM_0
100
AcDbLine
 10
8.60000000000007
 20
-72.77070772662452
 30
0.0
 11
12.20000000000009
 21
-72.77070772662452
 31
0.0
  0
LINE
  5
B329
330
1F
100
AcDbEntity
  8
AM_0
100
AcDbLine
 10
8.60000000000007
 20
-67.21070772662454
 30
0.0
 11
10.60000000000007
 21
-67.21070772662454
 31
0.0
  0
LINE
  5
B32A
330
1F
100
AcDbEntity
  8
AM_0
100
AcDbLine
 10
6.500000000000046
 20
-87.1107077266245
 30
0.0
 11
6.500000000000046
 21
-87.45070772662453
 31
0.0
  0
LINE
  5
B32B
330
1F
100
AcDbEntity
  8
AM_0
100
AcDbLine
 10
8.600000000000068
 20
-80.71070772662451
 30
0.0
 11
8.600000000000068
 21
-87.45070772662453
 31
0.0
  0
LINE
  5
B32C
330
1F
100
AcDbEntity
  8
AM_0
100
AcDbLine
 10
30.00000000000005
 20
-52.15070772662453
 30
0.0
 11
30.00000000000005
 21
-63.85070772662452
 31
0.0
  0
LINE
  5
B32D
330
1F
100
AcDbEntity
  8
AM_0
100
AcDbLine
 10
26.80000000000007
 20
-61.45070772662453
 30
0.0
 11
26.80000000000007
 21
-63.85070772662452
 31
0.0
  0
LINE
  5
B32E
330
1F
100
AcDbEntity
  8
AM_0
100
AcDbLine
 10
26.80000000000007
 20
-63.85070772662452
 30
0.0
 11
30.00000000000005
 21
-63.85070772662452
 31
0.0
  0
LINE
  5
B32F
330
1F
100
AcDbEntity
  8
AM_0
100
AcDbLine
 10
30.00000000000005
 20
-62.45070772662453
 30
0.0
 11
153.0
 21
-62.45070772662456
 31
0.0
  0
LINE
  5
B330
330
1F
100
AcDbEntity
  8
AM_7
100
AcDbLine
 10
-2.428533372871706
 20
-76.71070772662452
 30
0.0
 11
25.77607425771633
 21
-76.71070772662453
 31
0.0
  0
LINE
  5
B338
330
1F
100
AcDbEntity
  8
AM_7
100
AcDbLine
 10
3.998123234259514
 20
-56.52432748212154
 30
0.0
 11
3.998123234259512
 21
-74.76420543162383
 31
0.0
  0
LINE
  5
B33B
330
1F
100
AcDbEntity
  8
AM_0
100
AcDbLine
 10
8.600000000000068
 20
-87.1107077266245
 30
0.0
 11
0.9800000000000695
 21
-87.11070772662454
 31
0.0
  0
LINE
  5
B33C
330
1F
100
AcDbEntity
  8
AM_0
100
AcDbLine
 10
8.60000000000007
 20
-66.51070772662453
 30
0.0
 11
8.590687264526829
 21
-66.51070772662453
 31
0.0
  0
LINE
  5
B344
330
1F
100
AcDbEntity
  8
AM_0
100
AcDbLine
 10
11.83000000000008
 20
-72.77070772662452
 30
0.0
 11
11.83000000000008
 21
-80.71070772662451
 31
0.0
  0
LINE
  5
B348
102
{ACAD_REACTORS
330
B351
102
}
330
1F
100
AcDbEntity
  8
AM_0
100
AcDbLine
 10
4.378123234259513
 20
-70.72327175689181
 30
0.0
 11
3.618123234259563
 21
-70.72327175689186
 31
0.0
  0
LINE
  5
B34A
102
{ACAD_REACTORS
330
B351
102
}
330
1F
100
AcDbEntity
  8
AM_0
100
AcDbLine
 10
7.999999999999992
 20
-62.45070772662455
 30
0.0
 11
7.554107004497426
 21
-67.54728798665391
 31
0.0
  0
LINE
  5
B34E
102
{ACAD_REACTORS
330
B351
102
}
330
1F
100
AcDbEntity
  8
AM_0
100
AcDbLine
 10
0.0227883704816814
 20
-62.45019484746176
 30
0.0
 11
7.973458098037349
 21
-62.45019484746176
 31
0.0
  0
LINE
  5
B350
102
{ACAD_REACTORS
330
B351
102
}
330
1F
100
AcDbEntity
  8
AM_0
100
AcDbLine
 10
-0.0000000000000067
 20
-62.45019484746176
 30
0.0
 11
0.4463020452867697
 21
-67.55145056791907
 31
0.0
  0
LINE
  5
B354
102
{ACAD_REACTORS
330
B362
330
B368
102
}
330
1F
100
AcDbEntity
  8
AM_0
100
AcDbLine
 10
7.785624496805246
 20
6.399999999999996
 30
0.0
 11
8.000082549859596
 21
0.2587248741755827
 31
0.0
  0
LINE
  5
B355
102
{ACAD_REACTORS
330
B362
330
B368
102
}
330
1F
100
AcDbEntity
  8
AM_0
100
AcDbLine
 10
0.214610346299563
 20
6.399999999999999
 30
0.0
 11
0.000152293245208
 21
0.2587248741755838
 31
0.0
  0
LINE
  5
B356
102
{ACAD_REACTORS
330
B362
330
B368
102
}
330
1F
100
AcDbEntity
  8
AM_0
100
AcDbLine
 10
7.750234843104749
 20
-0.0000000000000014
 30
0.0
 11
1.500117421552374
 21
-0.0000000000000006
 31
0.0
  0
ARC
  5
B357
102
{ACAD_REACTORS
330
B362
330
B368
102
}
330
1F
100
AcDbEntity
  8
AM_0
100
AcDbCircle
 10
7.750234843104749
 20
0.2500000000000268
 30
0.0
 40
0.25
100
AcDbArc
 50
270.0
 51
1.999999999999753
  0
ARC
  5
B358
102
{ACAD_REACTORS
330
B362
330
B368
102
}
330
1F
100
AcDbEntity
  8
AM_0
100
AcDbCircle
 10
0.25
 20
0.2500000000000279
 30
0.0
 40
0.25
100
AcDbArc
 50
178.0000000000001
 51
270.0
  0
LINE
  5
B359
102
{ACAD_REACTORS
330
B362
330
B368
102
}
330
1F
100
AcDbEntity
  8
AM_0
100
AcDbLine
 10
0.2589999999999579
 20
-0.0000000000000005
 30
0.0
 11
1.500117421552374
 21
-0.0000000000000006
 31
0.0
  0
LINE
  5
B36D
102
{ACAD_REACTORS
330
B37A
102
}
330
1F
100
AcDbEntity
  8
AM_0
100
AcDbLine
 10
30.0
 20
16.10000000000004
 30
0.0
 11
30.0
 21
34.69999999999998
 31
0.0
  0
LINE
  5
B371
102
{ACAD_REACTORS
330
B37A
102
}
330
1F
100
AcDbEntity
  8
AM_0
100
AcDbLine
 10
8.400000000000039
 20
41.30000000000006
 30
0.0
 11
0.9000000000000641
 21
41.30000000000006
 31
0.0
  0
LINE
  5
B372
102
{ACAD_REACTORS
330
B37A
102
}
330
1F
100
AcDbEntity
  8
AM_0
100
AcDbLine
 10
8.400000000000039
 20
41.30000000000006
 30
0.0
 11
8.400000000000037
 21
34.70000000000001
 31
0.0
  0
LINE
  5
B374
102
{ACAD_REACTORS
330
B37A
102
}
330
1F
100
AcDbEntity
  8
AM_0
100
AcDbLine
 10
8.00000000000006
 20
13.50000000000005
 30
0.0
 11
30.0
 21
13.50000000000001
 31
0.0
  0
LINE
  5
B375
102
{ACAD_REACTORS
330
B37A
102
}
330
1F
100
AcDbEntity
  8
AM_7
100
AcDbLine
 10
9.73935059831388
 20
25.80000000000007
 30
0.0
 11
24.44575573271106
 21
25.80000000000004
 31
0.0
  0
LINE
  5
B376
102
{ACAD_REACTORS
330
B37A
102
}
330
1F
100
AcDbEntity
  8
AM_7
100
AcDbLine
 10
17.30000000000006
 20
15.67859190662053
 30
0.0
 11
17.30000000000006
 21
33.94366101708041
 31
0.0
  0
INSERT
  5
B377
102
{ACAD_REACTORS
330
B37A
102
}
330
1F
100
AcDbEntity
  8
AM_0
100
AcDbBlockReference
  2
CBF06
 10
17.30000000000001
 20
25.80000000000009
 30
0.0
 50
270.0
  0
CIRCLE
  5
B378
102
{ACAD_REACTORS
330
B37A
102
}
330
1F
100
AcDbEntity
  8
AM_0
100
AcDbCircle
 10
17.30000000000001
 20
25.7757958667062
 30
0.0
 40
5.5
  0
LINE
  5
B399
330
1F
100
AcDbEntity
  8
AM_0
100
AcDbLine
 10
8.400000000000037
 20
34.70000000000001
 30
0.0
 11
30.0
 21
34.69999999999998
 31
0.0
  0
LINE
  5
B39D
330
1F
100
AcDbEntity
  8
AM_0
100
AcDbLine
 10
8.00000000000006
 20
13.50000000000005
 30
0.0
 11
8.00000000000006
 21
8.800000000000093
 31
0.0
  0
LINE
  5
B3AD
330
1F
100
AcDbEntity
  8
AM_0
100
AcDbLine
 10
10.80000000000001
 20
19.09999999999999
 30
0.0
 11
10.80000000000001
 21
13.50000000000004
 31
0.0
  0
LINE
  5
B3AF
330
1F
100
AcDbEntity
  8
AM_0
100
AcDbLine
 10
10.80000000000001
 20
19.09999999999999
 30
0.0
 11
0.9000000000000614
 21
19.09999999999999
 31
0.0
  0
LINE
  5
B3B1
330
1F
100
AcDbEntity
  8
AM_0
100
AcDbLine
 10
10.80000000000007
 20
19.09999999999999
 30
0.0
 11
16.39999999999997
 21
13.50000000000001
 31
0.0
  0
LINE
  5
B3B2
330
1F
100
AcDbEntity
  8
AM_0
100
AcDbLine
 10
8.600000000000083
 20
34.70000000000001
 30
0.0
 11
8.600000000000083
 21
38.10000000000002
 31
0.0
  0
LINE
  5
B3B3
330
1F
100
AcDbEntity
  8
AM_0
100
AcDbLine
 10
10.60000000000008
 20
34.70000000000001
 30
0.0
 11
10.60000000000008
 21
41.30000000000004
 31
0.0
  0
LINE
  5
B3B8
330
1F
100
AcDbEntity
  8
AM_0
100
AcDbLine
 10
0.9000000000000525
 20
-52.15070772662453
 30
0.0
 11
30.00000000000005
 21
-52.15070772662453
 31
0.0
  0
LINE
  5
B3BC
330
1F
100
AcDbEntity
  8
AM_0
100
AcDbLine
 10
8.000000000000051
 20
-62.45019484746174
 30
0.0
 11
8.000000000000051
 21
-56.87019484746175
 31
0.0
  0
LINE
  5
B3BE
330
1F
100
AcDbEntity
  8
AM_0
100
AcDbLine
 10
10.8
 20
-52.10070772662453
 30
0.0
 11
10.8
 21
-56.85019484746176
 31
0.0
  0
LINE
  5
B3BF
330
1F
100
AcDbEntity
  8
AM_0
100
AcDbLine
 10
8.000000000000051
 20
-56.85019484746176
 30
0.0
 11
10.8
 21
-56.85019484746176
 31
0.0
  0
LINE
  5
B3C1
330
1F
100
AcDbEntity
  8
AM_0
100
AcDbLine
 10
15.49948712083726
 20
-52.15070772662453
 30
0.0
 11
10.8
 21
-56.85019484746175
 31
0.0
  0
LINE
  5
B3C2
330
1F
100
AcDbEntity
  8
AM_7
100
AcDbLine
 10
17.30000000000005
 20
-66.14706989280787
 30
0.0
 11
17.30000000000005
 21
-48.15503615093078
 31
0.0
  0
LINE
  5
B3C3
330
1F
100
AcDbEntity
  8
AM_0
100
AcDbLine
 10
8.000000000000051
 20
-61.45070772662453
 30
0.0
 11
26.80000000000007
 21
-61.45070772662453
 31
0.0
  0
DIMENSION
  5
B3C4
330
1F
100
AcDbEntity
  8
AM_5
100
AcDbDimension
  2
*D11
 10
0.0000000000000036
 20
59.26933642093874
 30
0.0
 11
15.50000000000003
 21
62.66933642093874
 31
0.0
 70
    32
 71
     5
 42
31.00000000000007
  3
AM_JIS$0
100
AcDbAlignedDimension
 13
31.00000000000007
 23
44.7
 33
0.0
 14
0.0
 24
0.2500000000000277
 34
0.0
 50
180.0
100
AcDbRotatedDimension
  0
LINE
  5
B3D2
330
1F
100
AcDbEntity
  8
AM_5
100
AcDbLine
 10
153.0
 20
12.69999999999996
 30
0.0
 11
153.0
 21
-62.45070772662456
 31
0.0
  0
DIMENSION
  5
B3D4
330
1F
100
AcDbEntity
  8
AM_5
100
AcDbDimension
  2
*D12
 10
-0.0000000000000026
 20
-31.86601736412493
 30
0.0
 11
76.49999999999998
 21
-28.46601736412493
 31
0.0
 70
    32
 71
     5
 42
153.0
  3
AM_JIS$0
100
AcDbAlignedDimension
 13
153.0
 23
-24.8753538633123
 33
0.0
 14
-0.0000000000000022
 24
-24.87535386331227
 34
0.0
 50
180.0
100
AcDbRotatedDimension
  0
DIMENSION
  5
B3FC
330
1F
100
AcDbEntity
  8
AM_5
100
AcDbDimension
  2
*D13
 10
-0.0000000000000008
 20
-13.28022043296918
 30
0.0
 11
4.000117421552374
 21
-9.880220432969181
 31
0.0
 70
    32
 71
     5
 42
8.000234843104749
  3
AM_JIS$0
100
AcDbAlignedDimension
 13
8.000234843104749
 23
0.2500000000000268
 33
0.0
 14
0.0
 24
0.2587248741755836
 34
0.0
 50
180.0
100
AcDbRotatedDimension
  0
DIMENSION
  5
B416
330
1F
100
AcDbEntity
  8
AM_5
100
AcDbDimension
  2
*D14
 10
-14.91482431696432
 20
-62.45019484746176
 30
0.0
 11
-18.31519833271234
 21
-74.95045128704314
 31
0.0
 70
    32
 71
     5
 42
25.00051287916277
  3
AM_JIS$0
100
AcDbAlignedDimension
 13
6.500000000000046
 23
-87.45070772662453
 33
0.0
 14
-0.0000000000000067
 24
-62.45019484746176
 34
0.0
 50
270.0
100
AcDbRotatedDimension
  0
DIMENSION
  5
B42C
330
1F
100
AcDbEntity
  8
AM_5
100
AcDbDimension
  2
*D15
 10
173.5579014435824
 20
12.69999999999995
 30
0.0
 11
170.1575274278343
 21
25.19999999999999
 31
0.0
 70
    32
 71
     5
 42
25.00000000000001
  3
AM_JIS$0
100
AcDbAlignedDimension
 13
153.0
 23
37.69999999999997
 33
0.0
 14
153.0
 24
12.69999999999996
 34
0.0
 50
270.0
100
AcDbRotatedDimension
  0
DIMENSION
  5
B439
330
1F
100
AcDbEntity
  8
AM_5
100
AcDbDimension
  2
*D16
 10
172.0045496046348
 20
-87.45070772662456
 30
0.0
 11
168.6041755888868
 21
-74.95070772662455
 31
0.0
 70
    32
 71
     5
 42
25.0
  3
AM_JIS$0
100
AcDbAlignedDimension
 13
153.0
 23
-62.45070772662456
 33
0.0
 14
153.0
 24
-87.45070772662456
 34
0.0
 50
270.0
100
AcDbRotatedDimension
  0
DIMENSION
  5
B456
330
1F
100
AcDbEntity
  8
AM_5
100
AcDbDimension
  2
*D17
 10
173.5579014435825
 20
44.69999999999997
 30
0.0
 11
170.1579014435825
 21
41.2
 31
0.0
 70
    32
 71
     5
 42
7.0
  3
AM_JIS$0
100
AcDbAlignedDimension
 13
31.00000000000007
 23
37.7
 33
0.0
 14
31.00000000000007
 24
44.7
 34
0.0
 50
270.0
100
AcDbRotatedDimension
  0
DIMENSION
  5
B465
330
1F
100
AcDbEntity
  8
AM_5
100
AcDbDimension
  2
*D18
 10
185.6860421877568
 20
-0.0000000000000526
 30
0.0
 11
182.2860421877568
 21
18.84999999999998
 31
0.0
 70
    32
 71
     5
 42
37.7
  3
AM_JIS$0
100
AcDbAlignedDimension
 13
153.0
 23
37.69999999999997
 33
0.0
 14
0.0000000000000002
 24
0.0
 34
0.0
 50
270.0
100
AcDbRotatedDimension
  0
LINE
  5
B5E4
330
1F
100
AcDbEntity
  8
AM_0
100
AcDbLine
 10
0.9000000000000605
 20
8.800000000000066
 30
0.0
 11
0.9000000000000641
 21
41.30000000000006
 31
0.0
  0
LINE
  5
B607
330
1F
100
AcDbEntity
  8
AM_0
100
AcDbLine
 10
0.2146103462995648
 20
22.17499999999999
 30
0.0
 11
0.9000000000000618
 21
22.17499999999999
 31
0.0
  0
LINE
  5
B60B
330
1F
100
AcDbEntity
  8
AM_0
100
AcDbLine
 10
0.2589999999999615
 20
28.575
 30
0.0
 11
0.9000000000000627
 21
28.575
 31
0.0
  0
ARC
  5
B60C
330
1F
100
AcDbEntity
  8
AM_0
100
AcDbCircle
 10
0.2500000000000035
 20
28.32499999999997
 30
0.0
 40
0.25
100
AcDbArc
 50
90.0
 51
181.9999999999998
  0
LINE
  5
B60D
330
1F
100
AcDbEntity
  8
AM_0
100
AcDbLine
 10
0.2146103462995648
 20
22.17499999999999
 30
0.0
 11
0.0001522932452116
 21
28.31627512582441
 31
0.0
  0
LINE
  5
B612
330
1F
100
AcDbEntity
  8
AM_0
100
AcDbLine
 10
8.600000000000068
 20
-80.71070772662451
 30
0.0
 11
12.20000000000009
 21
-80.71070772662451
 31
0.0
  0
LINE
  5
B625
330
1F
100
AcDbEntity
  8
AM_0
100
AcDbLine
 10
3.99812323425951
 20
-71.10327175689182
 30
0.0
 11
8.590687264526829
 21
-66.51070772662453
 31
0.0
  0
LINE
  5
B626
330
1F
100
AcDbEntity
  8
AM_0
100
AcDbLine
 10
0.4463020452867697
 20
-67.55145056791907
 30
0.0
 11
3.99812323425951
 21
-71.10327175689182
 31
0.0
  0
LINE
  5
B629
330
1F
100
AcDbEntity
  8
AM_0
100
AcDbLine
 10
0.9000000000000525
 20
-52.15070772662453
 30
0.0
 11
0.9000000000000516
 21
-62.45019484746176
 31
0.0
  0
LINE
  5
B62B
330
1F
100
AcDbEntity
  8
AM_5
100
AcDbLine
 10
0.0000000000000024
 20
12.69999999999998
 30
0.0
 11
-0.0000000000000067
 21
-62.45070772662455
 31
0.0
  0
LINE
  5
B64A
330
1F
100
AcDbEntity
  8
AM_0
100
AcDbLine
 10
8.00000000000006
 20
8.800000000000066
 30
0.0
 11
0.9000000000000605
 21
8.800000000000066
 31
0.0
  0
LINE
  5
B64D
330
1F
100
AcDbEntity
  8
AM_0
100
AcDbLine
 10
7.000117421552404
 20
6.399999999999998
 30
0.0
 11
7.000117421552404
 21
8.800000000000066
 31
0.0
  0
LINE
  5
B64E
330
1F
100
AcDbEntity
  8
AM_0
100
AcDbLine
 10
1.000117421552404
 20
6.399999999999999
 30
0.0
 11
1.000117421552404
 21
8.800000000000066
 31
0.0
  0
LINE
  5
B668
330
1F
100
AcDbEntity
  8
AM_0
100
AcDbLine
 10
0.9800000000000713
 20
-68.08514852263236
 30
0.0
 11
0.9800000000000695
 21
-87.11070772662454
 31
0.0
  0
LINE
  5
B672
330
1F
100
AcDbEntity
  8
AM_0
100
AcDbLine
 10
7.785624496805246
 20
6.399999999999996
 30
0.0
 11
0.214610346299563
 21
6.399999999999999
 31
0.0
  0
ENDSEC
  0
SECTION
  2
OBJECTS
  0
DICTIONARY
  5
C
330
0
100
AcDbDictionary
281
     1
  3
ACAD_COLOR
350
B724
  3
ACAD_GROUP
350
D
  3
ACAD_LAYOUT
350
1A
  3
ACAD_MATERIAL
350
B723
  3
ACAD_MLINESTYLE
350
17
  3
ACAD_PLOTSETTINGS
350
19
  3
ACAD_PLOTSTYLENAME
350
E
  3
ACAD_TABLESTYLE
350
B725
  3
ACDBHEADERROUNDTRIPXREC
350
B830
  3
ACDBVARIABLEDICTIONARY
350
30
  3
ACMDICTIONARY
350
4D
  3
AMG
350
3F
  3
AMGSNAPSETTINGS
350
73
  3
DWGPROPS
350
B82F
  3
ENG_DATA
350
21C6
  3
FILENAME
350
21C9
  3
HOLD_DIC_DATA
350
21C4
  3
TABLE_DIC_DATA
350
1C0B
  3
ZWKSIZE
350
21CB
  0
DICTIONARY
  5
165
330
1F
100
AcDbDictionary
280
     1
281
     1
  3
ACAD_INDEX
360
B6E9
  3
ACAD_LAYOUTSELFREF
360
B71C
  0
DICTIONARY
  5
B71A
330
1B
100
AcDbDictionary
280
     1
281
     1
  3
ACAD_LAYOUTSELFREF
360
B71B
  0
DICTIONARY
  5
B724
102
{ACAD_REACTORS
330
C
102
}
330
C
100
AcDbDictionary
281
     1
  0
DICTIONARY
  5
D
102
{ACAD_REACTORS
330
C
102
}
330
C
100
AcDbDictionary
281
     1
  3
*A1
350
7C0D
  3
*A2
350
7C0E
  3
*A3
350
7FE3
  3
*A4
350
8E0E
  3
*A5
350
B351
  3
*A6
350
B353
  3
*A7
350
B362
  3
*A8
350
B368
  3
*A9
350
B37A
  0
DICTIONARY
  5
1A
102
{ACAD_REACTORS
330
C
102
}
330
C
100
AcDbDictionary
281
     1
  3
Model
350
B727
  3
レイアウト1
350
B728
  0
DICTIONARY
  5
B723
102
{ACAD_REACTORS
330
C
102
}
330
C
100
AcDbDictionary
281
     1
  0
DICTIONARY
  5
17
102
{ACAD_REACTORS
330
C
102
}
330
C
100
AcDbDictionary
281
     1
  3
STANDARD
350
18
  0
DICTIONARY
  5
19
102
{ACAD_REACTORS
330
C
102
}
330
C
100
AcDbDictionary
281
     1
  0
ACDBDICTIONARYWDFLT
  5
E
102
{ACAD_REACTORS
330
C
102
}
330
C
100
AcDbDictionary
281
     1
  3
Normal
350
F
100
AcDbDictionaryWithDefault
340
F
  0
DICTIONARY
  5
B725
102
{ACAD_REACTORS
330
C
102
}
330
C
100
AcDbDictionary
281
     1
  3
Standard
350
B726
  0
DICTIONARY
  5
B830
102
{ACAD_REACTORS
330
C
102
}
330
C
100
AcDbDictionary
281
     1
  0
DICTIONARY
  5
30
102
{ACAD_REACTORS
330
C
102
}
330
C
100
AcDbDictionary
281
     1
  3
CTABLESTYLE
350
B82B
  3
DIMASSOC
350
B82C
  3
INDEXCTL
350
31
  3
PROJECTNAME
350
B82D
  3
SORTENTS
350
42BE
  0
DICTIONARY
  5
4D
102
{ACAD_REACTORS
330
C
102
}
330
C
100
AcDbDictionary
281
     1
  3
ACMSTDDICTIONARY
350
17E
  0
DICTIONARY
  5
3F
102
{ACAD_REACTORS
330
C
102
}
330
C
100
AcDbDictionary
281
     1
  0
DICTIONARY
  5
73
102
{ACAD_REACTORS
330
C
102
}
330
C
100
AcDbDictionary
281
     1
  0
XRECORD
  5
B82F
102
{ACAD_REACTORS
330
C
102
}
330
C
100
AcDbXrecord
280
     1
  1
DWGPROPS COOKIE
  2

  3

  4

  6

  7

  8

  9

300
AmdtFileType=82
301
=
302
=
303
=
304
=
305
=
306
=
307
=
308
=
309
=
 40
1.487988645833333
 41
2451943.610431666
 42
2455602.343467882
  1

 90
        1
  0
DICTIONARY
  5
21C6
102
{ACAD_REACTORS
330
C
102
}
330
C
100
AcDbDictionary
281
     1
  3
ENG_ID
350
21C7
  0
DICTIONARY
  5
21C9
102
{ACAD_REACTORS
330
C
102
}
330
C
100
AcDbDictionary
281
     1
  3
FILENAME
350
21CA
  0
DICTIONARY
  5
21C4
102
{ACAD_REACTORS
330
C
102
}
330
C
100
AcDbDictionary
281
     1
  3
HOLD_DATA
350
21C5
  0
DICTIONARY
  5
1C0B
102
{ACAD_REACTORS
330
C
102
}
330
C
100
AcDbDictionary
281
     1
  3
INPUT_DATA
350
1C0D
  3
TABLE_DATA
350
1C0C
  0
DICTIONARY
  5
21CB
102
{ACAD_REACTORS
330
C
102
}
330
C
100
AcDbDictionary
281
     1
  3
ZWKSIZE
350
21CC
  0
DICTIONARY
  5
B6E9
102
{ACAD_REACTORS
330
165
102
}
330
165
100
AcDbDictionary
281
     1
  3
*A1
350
B6EA
  0
XRECORD
  5
B71C
102
{ACAD_REACTORS
330
165
102
}
330
165
100
AcDbXrecord
280
     1
340
1F
  0
XRECORD
  5
B71B
102
{ACAD_REACTORS
330
B71A
102
}
330
B71A
100
AcDbXrecord
280
     1
340
1B
  0
GROUP
  5
7C0D
102
{ACAD_REACTORS
330
D
102
}
330
D
100
AcDbGroup
300

 70
     1
 71
     1
  0
GROUP
  5
7C0E
102
{ACAD_REACTORS
330
D
102
}
330
D
100
AcDbGroup
300

 70
     1
 71
     1
  0
GROUP
  5
7FE3
102
{ACAD_REACTORS
330
D
102
}
330
D
100
AcDbGroup
300

 70
     1
 71
     1
  0
GROUP
  5
8E0E
102
{ACAD_REACTORS
330
D
102
}
330
D
100
AcDbGroup
300

 70
     1
 71
     1
  0
GROUP
  5
B351
102
{ACAD_REACTORS
330
D
102
}
330
D
100
AcDbGroup
300

 70
     1
 71
     1
340
B350
340
B348
340
B34E
340
B34A
  0
GROUP
  5
B353
102
{ACAD_REACTORS
330
D
102
}
330
D
100
AcDbGroup
300

 70
     1
 71
     1
  0
GROUP
  5
B362
102
{ACAD_REACTORS
330
D
102
}
330
D
100
AcDbGroup
300

 70
     1
 71
     1
340
B355
340
B356
340
B357
340
B358
340
B359
340
B354
  0
GROUP
  5
B368
102
{ACAD_REACTORS
330
D
102
}
330
D
100
AcDbGroup
300

 70
     1
 71
     1
340
B358
340
B354
340
B355
340
B356
340
B359
340
B357
  0
GROUP
  5
B37A
102
{ACAD_REACTORS
330
D
102
}
330
D
100
AcDbGroup
300

 70
     1
 71
     1
340
B371
340
B374
340
B377
340
B378
340
B376
340
B372
340
B375
340
B36D
  0
LAYOUT
  5
B727
102
{ACAD_XDICTIONARY
360
B831
102
}
102
{ACAD_REACTORS
330
1A
102
}
330
1A
100
AcDbPlotSettings
  1

  2
SII LP-1010 (C2 VR)2R
  4

  6

 40
0.0
 41
0.0
 42
0.0
 43
0.0
 44
0.0
 45
0.0
 46
0.0
 47
0.0
 48
0.0
 49
0.0
140
0.0
141
0.0
142
1.0
143
1.0
 70
  1712
 72
     0
 73
     0
 74
     0
  7
sei_cad.ctb
 75
     0
147
1.0
148
0.0
149
0.0
100
AcDbLayout
  1
Model
 70
     1
 71
     0
 10
0.0
 20
0.0
 11
12.0
 21
9.0
 12
0.0
 22
0.0
 32
0.0
 14
0.0
 24
0.0
 34
0.0
 15
0.0
 25
0.0
 35
0.0
146
0.0
 13
0.0
 23
0.0
 33
0.0
 16
1.0
 26
0.0
 36
0.0
 17
0.0
 27
1.0
 37
0.0
 76
     0
330
1F
  0
LAYOUT
  5
B728
102
{ACAD_XDICTIONARY
360
B833
102
}
102
{ACAD_REACTORS
330
1A
102
}
330
1A
100
AcDbPlotSettings
  1

  2
SII LP-1010 (C2 VR)2R
  4

  6

 40
0.0
 41
0.0
 42
0.0
 43
0.0
 44
0.0
 45
0.0
 46
0.0
 47
0.0
 48
0.0
 49
0.0
140
0.0
141
0.0
142
1.0
143
1.0
 70
   688
 72
     0
 73
     0
 74
     5
  7
sei_cad.ctb
 75
    16
147
1.0
148
0.0
149
0.0
100
AcDbLayout
  1
レイアウト1
 70
     1
 71
     1
 10
0.0
 20
0.0
 11
420.0
 21
297.0
 12
0.0
 22
0.0
 32
0.0
 14
1.000000000000000E+20
 24
1.000000000000000E+20
 34
1.000000000000000E+20
 15
-1.000000000000000E+20
 25
-1.000000000000000E+20
 35
-1.000000000000000E+20
146
0.0
 13
0.0
 23
0.0
 33
0.0
 16
1.0
 26
0.0
 36
0.0
 17
0.0
 27
1.0
 37
0.0
 76
     0
330
1B
  0
MLINESTYLE
  5
18
102
{ACAD_REACTORS
330
17
102
}
330
17
100
AcDbMlineStyle
  2
STANDARD
 70
     0
  3

 62
   256
 51
90.0
 52
90.0
 71
     2
 49
0.5
 62
   256
  6
BYLAYER
 49
-0.5
 62
   256
  6
BYLAYER
  0
ACDBPLACEHOLDER
  5
F
102
{ACAD_REACTORS
330
E
102
}
330
E
  0
TABLESTYLE
  5
B726
102
{ACAD_REACTORS
330
B725
102
}
330
B725
100
AcDbTableStyle
  3
Standard
 70
     0
 71
     0
 40
1.5
 41
1.5
280
     0
281
     0
  7
STANDARD
140
4.5
170
     2
 62
     0
 63
     7
283
     0
274
    -2
284
     1
 64
     0
275
    -2
285
     1
 65
     0
276
    -2
286
     1
 66
     0
277
    -2
287
     1
 67
     0
278
    -2
288
     1
 68
     0
279
    -2
289
     1
 69
     0
  7
STANDARD
140
6.0
170
     5
 62
     0
 63
     7
283
     0
274
    -2
284
     1
 64
     0
275
    -2
285
     1
 65
     0
276
    -2
286
     1
 66
     0
277
    -2
287
     1
 67
     0
278
    -2
288
     1
 68
     0
279
    -2
289
     1
 69
     0
  7
STANDARD
140
4.5
170
     5
 62
     0
 63
     7
283
     0
274
    -2
284
     1
 64
     0
275
    -2
285
     1
 65
     0
276
    -2
286
     1
 66
     0
277
    -2
287
     1
 67
     0
278
    -2
288
     1
 68
     0
279
    -2
289
     1
 69
     0
  0
DICTIONARYVAR
  5
B82B
102
{ACAD_REACTORS
330
30
102
}
330
30
100
DictionaryVariables
280
     0
  1
STANDARD
  0
DICTIONARYVAR
  5
B82C
102
{ACAD_REACTORS
330
30
102
}
330
30
100
DictionaryVariables
280
     0
  1
1
  0
DICTIONARYVAR
  5
31
102
{ACAD_REACTORS
330
30
102
}
330
30
100
DictionaryVariables
280
     0
  1
1
  0
DICTIONARYVAR
  5
B82D
102
{ACAD_REACTORS
330
30
102
}
330
30
100
DictionaryVariables
280
     0
  1

  0
DICTIONARYVAR
  5
42BE
102
{ACAD_REACTORS
330
30
102
}
330
30
100
DictionaryVariables
280
     0
  1
96
  0
DICTIONARY
  5
17E
102
{ACAD_REACTORS
330
4D
102
}
330
4D
100
AcDbDictionary
281
     1
  0
XRECORD
  5
21C7
102
{ACAD_REACTORS
330
21C6
102
}
330
21C6
100
AcDbXrecord
280
     1
  1
HOLD
  0
XRECORD
  5
21CA
102
{ACAD_REACTORS
330
21C9
102
}
330
21C9
100
AcDbXrecord
280
     1
  1
21000065__00___
  0
XRECORD
  5
21C5
102
{ACAD_REACTORS
330
21C4
102
}
330
21C4
100
AcDbXrecord
280
     1
  1
クランクシャフト加工用 ^M^J１コーナー型 ^M^J15.875 ^M^J20 ^M^Jクランプオン ^M^J９０° ^M^J1 ^M^J鋼 ^M^J ^M^J ^M^J ^M^J ^M^J
  0
XRECORD
  5
1C0D
102
{ACAD_REACTORS
330
1C0B
102
}
330
1C0B
100
AcDbXrecord
280
     1
  1
1,,,,,,,,,^M^J2,,,,,,,,,^M^J3,,,,,,,,,^M^J4,,,,,,,,,^M^J5,,,,,,,,,^M^J6,,,,,,,,,^M^J7,,,,,,,,,^M^J8,,,,,,,,,^M^J9,,,,,,,,,^M^J10,,,,,,,,,
  0
XRECORD
  5
1C0C
102
{ACAD_REACTORS
330
1C0B
102
}
330
1C0B
100
AcDbXrecord
280
     1
  1
10,10
  0
XRECORD
  5
21CC
102
{ACAD_REACTORS
330
21CB
102
}
330
21CB
100
AcDbXrecord
280
     1
  1
3
  0
LAYER_INDEX
  5
B6EA
102
{ACAD_REACTORS
330
B6E9
102
}
330
B6E9
100
AcDbIndex
 40
2455602.343467882
100
AcDbLayerIndex
  8
0
360
B6EB
 90
        0
  8
AM_5
360
B6EC
 90
       10
  8
DEFPOINTS
360
B6ED
 90
        0
  8
AM_0
360
B6EE
 90
       73
  8
AM_6
360
B6EF
 90
        1
  8
AM_7
360
B6F0
 90
        5
  0
DICTIONARY
  5
B831
330
B727
100
AcDbDictionary
280
     1
281
     1
  3
ACAD_XREC_ROUNDTRIP
360
B832
  0
DICTIONARY
  5
B833
330
B728
100
AcDbDictionary
280
     1
281
     1
  3
ACAD_XREC_ROUNDTRIP
360
B834
  0
IDBUFFER
  5
B6EB
330
0
100
AcDbIdBuffer
  0
IDBUFFER
  5
B6EC
330
0
100
AcDbIdBuffer
330
B3C4
330
B3D2
330
B3D4
330
B3FC
330
B416
330
B42C
330
B439
330
B456
330
B465
330
B62B
  0
IDBUFFER
  5
B6ED
330
0
100
AcDbIdBuffer
  0
IDBUFFER
  5
B6EE
330
0
100
AcDbIdBuffer
330
B30E
330
B30F
330
B310
330
B311
330
B312
330
B313
330
B315
330
B316
330
B317
330
B318
330
B319
330
B31C
330
B31D
330
B31E
330
B320
330
B324
330
B325
330
B326
330
B327
330
B328
330
B329
330
B32A
330
B32B
330
B32C
330
B32D
330
B32E
330
B32F
330
B33B
330
B33C
330
B344
330
B348
330
B34A
330
B34E
330
B350
330
B354
330
B355
330
B356
330
B357
330
B358
330
B359
330
B36D
330
B371
330
B372
330
B374
330
B377
330
B378
330
B399
330
B39D
330
B3AD
330
B3AF
330
B3B1
330
B3B2
330
B3B3
330
B3B8
330
B3BC
330
B3BE
330
B3BF
330
B3C1
330
B3C3
330
B5E4
330
B607
330
B60B
330
B60C
330
B60D
330
B612
330
B625
330
B626
330
B629
330
B64A
330
B64D
330
B64E
330
B668
330
B672
  0
IDBUFFER
  5
B6EF
330
0
100
AcDbIdBuffer
330
B190
  0
IDBUFFER
  5
B6F0
330
0
100
AcDbIdBuffer
330
B330
330
B338
330
B375
330
B376
330
B3C2
  0
XRECORD
  5
B832
102
{ACAD_REACTORS
330
B831
102
}
330
B831
100
AcDbXrecord
280
     1
102
SHADEPLOT
 70
     0
102
SHADEPLOTRESLEVEL
 70
     2
102
SHADEPLOTCUSTOMDPI
 70
   300
  0
XRECORD
  5
B834
102
{ACAD_REACTORS
330
B833
102
}
330
B833
100
AcDbXrecord
280
     1
102
SHADEPLOT
 70
     0
102
SHADEPLOTRESLEVEL
 70
     2
102
SHADEPLOTCUSTOMDPI
 70
   300
  0
ENDSEC
  0
EOF
