  0
SECTION
  2
HEADER
  9
$ACADVER
  1
AC1015
  9
$ACADMAINTVER
 70
    20
  9
$DWGCODEPAGE
  3
ANSI_932
  9
$INSBASE
 10
0.0
 20
0.0
 30
0.0
  9
$EXTMIN
 10
-94.72450759656874
 20
-102.8360631130283
 30
-0.0015258207003583
  9
$EXTMAX
 10
169.9329203239093
 20
24.99620142429092
 30
0.0000000349246037
  9
$LIMMIN
 10
-215.2732344171181
 20
-103.3026303667252
  9
$LIMMAX
 10
139.3493213600286
 20
126.5989968699659
  9
$ORTHOMODE
 70
     0
  9
$REGENMODE
 70
     1
  9
$FILLMODE
 70
     1
  9
$QTEXTMODE
 70
     0
  9
$MIRRTEXT
 70
     1
  9
$LTSCALE
 40
1.0
  9
$ATTMODE
 70
     1
  9
$TEXTSIZE
 40
2.5
  9
$TRACEWID
 40
1.0
  9
$TEXTSTYLE
  7
STANDARD
  9
$CLAYER
  8
AM_5
  9
$CELTYPE
  6
BYLAYER
  9
$CECOLOR
 62
   256
  9
$CELTSCALE
 40
1.0
  9
$DISPSILH
 70
     0
  9
$DIMSCALE
 40
1.0
  9
$DIMASZ
 40
2.5
  9
$DIMEXO
 40
0.0
  9
$DIMDLI
 40
10.0
  9
$DIMRND
 40
0.0
  9
$DIMDLE
 40
0.0
  9
$DIMEXE
 40
1.0
  9
$DIMTP
 40
0.1
  9
$DIMTM
 40
0.1000000001
  9
$DIMTXT
 40
3.799999999999998
  9
$DIMCEN
 40
0.0
  9
$DIMTSZ
 40
0.0
  9
$DIMTOL
 70
     0
  9
$DIMLIM
 70
     0
  9
$DIMTIH
 70
     0
  9
$DIMTOH
 70
     0
  9
$DIMSE1
 70
     0
  9
$DIMSE2
 70
     0
  9
$DIMTAD
 70
     3
  9
$DIMZIN
 70
     9
  9
$DIMBLK
  1
OPEN30
  9
$DIMASO
 70
     1
  9
$DIMSHO
 70
     1
  9
$DIMPOST
  1

  9
$DIMAPOST
  1
"
  9
$DIMALT
 70
     0
  9
$DIMALTD
 70
     2
  9
$DIMALTF
 40
0.0393701
  9
$DIMLFAC
 40
1.0
  9
$DIMTOFL
 70
     1
  9
$DIMTVP
 40
0.0
  9
$DIMTIX
 70
     0
  9
$DIMSOXD
 70
     0
  9
$DIMSAH
 70
     0
  9
$DIMBLK1
  1

  9
$DIMBLK2
  1

  9
$DIMSTYLE
  2
AM_JIS
  9
$DIMCLRD
 70
   256
  9
$DIMCLRE
 70
   256
  9
$DIMCLRT
 70
     2
  9
$DIMTFAC
 40
0.71
  9
$DIMGAP
 40
1.5
  9
$DIMJUST
 70
     0
  9
$DIMSD1
 70
     0
  9
$DIMSD2
 70
     0
  9
$DIMTOLJ
 70
     0
  9
$DIMTZIN
 70
     8
  9
$DIMALTZ
 70
     0
  9
$DIMALTTZ
 70
     0
  9
$DIMUPT
 70
     0
  9
$DIMDEC
 70
     2
  9
$DIMTDEC
 70
     2
  9
$DIMALTU
 70
     2
  9
$DIMALTTD
 70
     2
  9
$DIMTXSTY
  7
STANDARD
  9
$DIMAUNIT
 70
     1
  9
$DIMADEC
 70
     1
  9
$DIMALTRND
 40
0.0
  9
$DIMAZIN
 70
     2
  9
$DIMDSEP
 70
    46
  9
$DIMATFIT
 70
     3
  9
$DIMFRAC
 70
     0
  9
$DIMLDRBLK
  1
OPEN30
  9
$DIMLUNIT
 70
     2
  9
$DIMLWD
 70
    -1
  9
$DIMLWE
 70
    -1
  9
$DIMTMOVE
 70
     0
  9
$LUNITS
 70
     2
  9
$LUPREC
 70
     2
  9
$SKETCHINC
 40
1.0
  9
$FILLETRAD
 40
0.0
  9
$AUNITS
 70
     1
  9
$AUPREC
 70
     5
  9
$MENU
  1
.
  9
$ELEVATION
 40
0.0
  9
$PELEVATION
 40
0.0
  9
$THICKNESS
 40
0.0
  9
$LIMCHECK
 70
     0
  9
$CHAMFERA
 40
0.0
  9
$CHAMFERB
 40
0.0
  9
$CHAMFERC
 40
20.0
  9
$CHAMFERD
 40
0.0
  9
$SKPOLY
 70
     0
  9
$TDCREATE
 40
2451943.610431666
  9
$TDUCREATE
 40
2451943.235431667
  9
$TDUPDATE
 40
2455603.348615625
  9
$TDUUPDATE
 40
2455602.973615625
  9
$TDINDWG
 40
0.9621316435
  9
$TDUSRTIMER
 40
0.9621314699
  9
$USRTIMER
 70
     1
  9
$ANGBASE
 50
0.0
  9
$ANGDIR
 70
     0
  9
$PDMODE
 70
     0
  9
$PDSIZE
 40
0.0
  9
$PLINEWID
 40
0.0
  9
$SPLFRAME
 70
     0
  9
$SPLINETYPE
 70
     6
  9
$SPLINESEGS
 70
     8
  9
$HANDSEED
  5
AC13
  9
$SURFTAB1
 70
     6
  9
$SURFTAB2
 70
     6
  9
$SURFTYPE
 70
     6
  9
$SURFU
 70
     6
  9
$SURFV
 70
     6
  9
$UCSBASE
  2

  9
$UCSNAME
  2

  9
$UCSORG
 10
0.0
 20
0.0
 30
0.0
  9
$UCSXDIR
 10
1.0
 20
0.0
 30
0.0
  9
$UCSYDIR
 10
0.0
 20
1.0
 30
0.0
  9
$UCSORTHOREF
  2

  9
$UCSORTHOVIEW
 70
     0
  9
$UCSORGTOP
 10
0.0
 20
0.0
 30
0.0
  9
$UCSORGBOTTOM
 10
0.0
 20
0.0
 30
0.0
  9
$UCSORGLEFT
 10
0.0
 20
0.0
 30
0.0
  9
$UCSORGRIGHT
 10
0.0
 20
0.0
 30
0.0
  9
$UCSORGFRONT
 10
0.0
 20
0.0
 30
0.0
  9
$UCSORGBACK
 10
0.0
 20
0.0
 30
0.0
  9
$PUCSBASE
  2

  9
$PUCSNAME
  2

  9
$PUCSORG
 10
0.0
 20
0.0
 30
0.0
  9
$PUCSXDIR
 10
1.0
 20
0.0
 30
0.0
  9
$PUCSYDIR
 10
0.0
 20
1.0
 30
0.0
  9
$PUCSORTHOREF
  2

  9
$PUCSORTHOVIEW
 70
     0
  9
$PUCSORGTOP
 10
0.0
 20
0.0
 30
0.0
  9
$PUCSORGBOTTOM
 10
0.0
 20
0.0
 30
0.0
  9
$PUCSORGLEFT
 10
0.0
 20
0.0
 30
0.0
  9
$PUCSORGRIGHT
 10
0.0
 20
0.0
 30
0.0
  9
$PUCSORGFRONT
 10
0.0
 20
0.0
 30
0.0
  9
$PUCSORGBACK
 10
0.0
 20
0.0
 30
0.0
  9
$USERI1
 70
     0
  9
$USERI2
 70
     0
  9
$USERI3
 70
     0
  9
$USERI4
 70
     0
  9
$USERI5
 70
     0
  9
$USERR1
 40
0.0
  9
$USERR2
 40
0.0
  9
$USERR3
 40
0.0
  9
$USERR4
 40
0.0
  9
$USERR5
 40
0.0
  9
$WORLDVIEW
 70
     1
  9
$SHADEDGE
 70
     3
  9
$SHADEDIF
 70
    70
  9
$TILEMODE
 70
     1
  9
$MAXACTVP
 70
    64
  9
$PINSBASE
 10
0.0
 20
0.0
 30
0.0
  9
$PLIMCHECK
 70
     0
  9
$PEXTMIN
 10
1.000000000000000E+20
 20
1.000000000000000E+20
 30
1.000000000000000E+20
  9
$PEXTMAX
 10
-1.000000000000000E+20
 20
-1.000000000000000E+20
 30
-1.000000000000000E+20
  9
$PLIMMIN
 10
0.0
 20
0.0
  9
$PLIMMAX
 10
420.0
 20
297.0
  9
$UNITMODE
 70
     0
  9
$VISRETAIN
 70
     1
  9
$PLINEGEN
 70
     0
  9
$PSLTSCALE
 70
     1
  9
$TREEDEPTH
 70
  3020
  9
$CMLSTYLE
  2
STANDARD
  9
$CMLJUST
 70
     0
  9
$CMLSCALE
 40
20.0
  9
$PROXYGRAPHICS
 70
     1
  9
$MEASUREMENT
 70
     1
  9
$CELWEIGHT
370
    -1
  9
$ENDCAPS
280
     0
  9
$JOINSTYLE
280
     0
  9
$LWDISPLAY
290
     0
  9
$INSUNITS
 70
     4
  9
$HYPERLINKBASE
  1

  9
$STYLESHEET
  1
sei_cad.ctb
  9
$XEDIT
290
     1
  9
$CEPSNTYPE
380
     0
  9
$PSTYLEMODE
290
     1
  9
$FINGERPRINTGUID
  2
{C77AB3BE-9CA2-11D3-BAF3-006094EB760E}
  9
$VERSIONGUID
  2
{4C8FF027-BC2C-4FBB-A88C-74A2CFFF8C17}
  9
$EXTNAMES
290
     1
  9
$PSVPSCALE
 40
0.0
  9
$OLESTARTUP
290
     0
  0
ENDSEC
  0
SECTION
  2
CLASSES
  0
CLASS
  1
ACDBDICTIONARYWDFLT
  2
AcDbDictionaryWithDefault
  3
ObjectDBX Classes
 90
        0
280
     0
281
     0
  0
CLASS
  1
ACDBPLACEHOLDER
  2
AcDbPlaceHolder
  3
ObjectDBX Classes
 90
        0
280
     0
281
     0
  0
CLASS
  1
LAYOUT
  2
AcDbLayout
  3
ObjectDBX Classes
 90
        0
280
     0
281
     0
  0
CLASS
  1
ACME_DOCUMENT
  2
AcMeDbDoc
  3
AcMeServices
 90
        0
280
     0
281
     0
  0
CLASS
  1
ACMESCOPE
  2
AcMeScope
  3
AcMeServices
 90
        0
280
     0
281
     0
  0
CLASS
  1
ACMECOMMANDHISTORY
  2
AcMeCommandHistory
  3
AcMeServices
 90
        0
280
     0
281
     0
  0
CLASS
  1
DICTIONARYVAR
  2
AcDbDictionaryVar
  3
ObjectDBX Classes
 90
        0
280
     0
281
     0
  0
CLASS
  1
ACIMSYSVARMAN
  2
AcImSysVarManager
  3
AcMeServices
 90
        0
280
     0
281
     0
  0
CLASS
  1
ACIMREALSYSVAR
  2
AcImRealSysVar
  3
AcMeServices
 90
        0
280
     0
281
     0
  0
CLASS
  1
ACIMINTSYSVAR
  2
AcImIntSysVar
  3
AcMeServices
 90
        0
280
     0
281
     0
  0
CLASS
  1
ACMEDRAWINGMAN
  2
AcMeDrawingMan
  3
AcMeServices
 90
        0
280
     0
281
     0
  0
CLASS
  1
ACMEVIEW
  2
AcMeView
  3
AcMeServices
 90
        0
280
     0
281
     0
  0
CLASS
  1
ACDBENTITYCACHE
  2
AcMeEntityCache
  3
AcMeServices
 90
        0
280
     0
281
     0
  0
CLASS
  1
GSMANAGER
  2
AcMeGSManager
  3
AcMeServices
 90
        0
280
     0
281
     0
  0
CLASS
  1
AMDTINTERNALREACTOR
  2
AmdtInternalReactor
  3
AcMeServices
 90
        0
280
     0
281
     0
  0
CLASS
  1
ACMESTATEMGR
  2
AcMeStateMgr
  3
AcMeServices
 90
        0
280
     0
281
     0
  0
CLASS
  1
ACME_DATABASE
  2
AcMeDbDatabase
  3
AcMeServices
 90
        0
280
     0
281
     0
  0
CLASS
  1
ACRFINSADJUSTERMGR
  2
AcRfInsAdjusterMgr
  3
AcMeServices
 90
        0
280
     0
281
     0
  0
CLASS
  1
AMGSETTINGSOBJ
  2
AmgSettingsObj
  3
"AcadM|Product Description: AutoCAD Mechanical 2000|Company: Autodesk"
 90
        0
280
     0
281
     0
  0
CLASS
  1
AMGOBJPROPCFG
  2
AmgObjPropCfg
  3
"AmgLay|Product Description: AutoCAD Mechanical 2000|Company: Autodesk"
 90
        1
280
     0
281
     0
  0
CLASS
  1
ACMDATADICTIONARY
  2
AcmDataDictionary
  3
"AcmSymBB|Product Description: AutoCAD Mechanical 2004 DX|Company: Autodesk"
 90
        0
280
     0
281
     0
  0
CLASS
  1
ACMDATAENTRYBLOCK
  2
AcmDataEntryBlock
  3
"AcmSymBB|Product Description: AutoCAD Mechanical 2004 DX|Company: Autodesk"
 90
    32768
280
     0
281
     0
  0
CLASS
  1
ACIMSTRSYSVAR
  2
AcImStrSysVar
  3
AcMeServices
 90
        0
280
     0
281
     0
  0
CLASS
  1
ACAMGFILTERDAT
  2
AcAmgFilterDat
  3
"AcadM|Product Description: AutoCAD Mechanical 2000|Company: Autodesk"
 90
    32768
280
     0
281
     0
  0
CLASS
  1
LAYER_INDEX
  2
AcDbLayerIndex
  3
ObjectDBX Classes
 90
        0
280
     0
281
     0
  0
CLASS
  1
IDBUFFER
  2
AcDbIdBuffer
  3
ObjectDBX Classes
 90
        0
280
     0
281
     0
  0
CLASS
  1
ACMSTANDARDJIS
  2
AcmStandardJIS
  3
"Amdt_StdImp|Product Description: AutoCAD Mechanical 2004 DX|Company: Autodesk"
 90
    32768
280
     0
281
     0
  0
CLASS
  1
ACMSURFSTANDARDJIS
  2
AcmSurfTextStdJIS
  3
"Amdt_StdImp|Product Description: AutoCAD Mechanical 2004 DX|Company: Autodesk"
 90
    32768
280
     0
281
     0
  0
CLASS
  1
ACMFCFSTANDARDJIS
  2
AcmFCFStdJIS
  3
"Amdt_StdImp|Product Description: AutoCAD Mechanical 2004 DX|Company: Autodesk"
 90
    32768
280
     0
281
     0
  0
CLASS
  1
ACMWELDSTANDARDJIS
  2
AcmWeldingStdJIS
  3
"Amdt_StdImp|Product Description: AutoCAD Mechanical 2004 DX|Company: Autodesk"
 90
    32768
280
     0
281
     0
  0
CLASS
  1
ACMIDSTANDARDJIS
  2
AcmIdStdJIS
  3
"Amdt_StdImp|Product Description: AutoCAD Mechanical 2004 DX|Company: Autodesk"
 90
    32768
280
     0
281
     0
  0
CLASS
  1
ACMDATUMSTANDARDJIS
  2
AcmDatumStdJIS
  3
"Amdt_StdImp|Product Description: AutoCAD Mechanical 2004 DX|Company: Autodesk"
 90
    32768
280
     0
281
     0
  0
CLASS
  1
ACMBOMSTANDARDJIS
  2
AcmBOMStdJIS
  3
"Amdt_StdImp|Product Description: AutoCAD Mechanical 2004 DX|Company: Autodesk"
 90
    32768
280
     0
281
     0
  0
CLASS
  1
AMDTNOTE
  2
AmdtNote
  3
"AcmSymBB|Product Description: AutoCAD Mechanical 2004 DX|Company: Autodesk"
 90
    33791
280
     0
281
     1
  0
CLASS
  1
ACMDATAENTRYPART
  2
AcmDataEntryPart
  3
"AcmSymBB|Product Description: AutoCAD Mechanical 2004 DX|Company: Autodesk"
 90
    32768
280
     0
281
     0
  0
CLASS
  1
ACMPARTREF
  2
AcmPartRef
  3
"AcmSymBB|Product Description: AutoCAD Mechanical 2004 DX|Company: Autodesk"
 90
    33791
280
     0
281
     1
  0
CLASS
  1
ACDB_PROXY_ENTITY_DATA
  2
AcDbProxyEntityData
  3
ObjectDBX Classes
 90
    32768
280
     0
281
     0
  0
CLASS
  1
TABLESTYLE
  2
AcDbTableStyle
  3
ObjectDBX Classes
 90
     2047
280
     0
281
     0
  0
CLASS
  1
ACGREFMASTER
  2
AcGrefMaster
  3
AcAttribServices
 90
        0
280
     0
281
     0
  0
CLASS
  1
AM_DRAWING_MGR
  2
AcDmDwgMgr
  3
AcMechDwgViewMgmt
 90
        0
280
     0
281
     0
  0
CLASS
  1
AM_DWG_DOCUMENT
  2
AcDmDwgDocument
  3
AcMechDwgViewMgmt
 90
        0
280
     0
281
     0
  0
CLASS
  1
AM_DWG_SHEET
  2
AcDmSheet
  3
AcMechDwgViewMgmt
 90
        0
280
     0
281
     0
  0
CLASS
  1
AM_VIEWDIMPARMAP
  2
AcDmViewDimParMap
  3
AcMechDwgViewMgmt
 90
        0
280
     0
281
     0
  0
CLASS
  1
AM_DWGMGR_NAME
  2
AcDmDwgMgrName
  3
AcMechDwgViewMgmt
 90
        0
280
     0
281
     0
  0
CLASS
  1
ACGREFACADMASTER
  2
AcGrefacadMaster
  3
AcGrefServices
 90
        0
280
     0
281
     0
  0
CLASS
  1
AMDTMENUSTATEMGR
  2
AmdtMenuStateMgr
  3
McadcomServices
 90
        0
280
     0
281
     0
  0
CLASS
  1
AMDTMCOMMENUSTATE
  2
AmdtMcomMenuState
  3
McadcomServices
 90
        0
280
     0
281
     0
  0
CLASS
  1
AMIMASTER
  2
AmiMaster
  3
AmiServices
 90
        0
280
     0
281
     0
  0
CLASS
  1
MAPIAMMOUDLE
  2
MApiAmModule
  3
MApiAmServices
 90
        0
280
     0
281
     0
  0
CLASS
  1
AMDTADMENUSTATE
  2
AmdtAdMenuState
  3
DesignerServices
 90
        0
280
     0
281
     0
  0
CLASS
  1
ADAPPL
  2
AcAdAppl
  3
DesignerServices
 90
        0
280
     0
281
     0
  0
CLASS
  1
DEPMGR
  2
AcAdDepMgr
  3
DesignerServices
 90
        0
280
     0
281
     0
  0
CLASS
  1
PARAMMGR
  2
AcAdParamMgr
  3
DesignerServices
 90
        0
280
     0
281
     0
  0
CLASS
  1
PARAMSCOPE
  2
AcAdParamScope
  3
DesignerServices
 90
        0
280
     0
281
     0
  0
CLASS
  1
NAMEDAPPL
  2
AcAdNamedAppl
  3
DesignerServices
 90
        0
280
     0
281
     0
  0
CLASS
  1
AMDTDMMENUSTATE
  2
AmdtDmMenuState
  3
AcMechDwgViewMgmt
 90
        0
280
     0
281
     0
  0
CLASS
  1
AMDTAMMENUSTATE
  2
AmdtAmMenuState
  3
DesignerAssemblies
 90
        0
280
     0
281
     0
  0
CLASS
  1
ACAMPROJECT
  2
AcAmProject
  3
DesignerAssemblies
 90
        0
280
     0
281
     0
  0
CLASS
  1
ACAMGRCOMPDEF
  2
AcAmGrCompDef
  3
DesignerAssemblies
 90
        0
280
     0
281
     0
  0
CLASS
  1
ACCMCONTEXT
  2
AcCmContext
  3
DesignerAssemblies
 90
        0
280
     0
281
     0
  0
CLASS
  1
ACAMCOMPDEF
  2
AcAmCompDef
  3
DesignerAssemblies
 90
        0
280
     0
281
     0
  0
CLASS
  1
ACAMCOMPDEFMGR
  2
AcAmCompDefMgr
  3
DesignerAssemblies
 90
        0
280
     0
281
     0
  0
CLASS
  1
AMCONTEXTMGR
  2
AcAmContextMgr
  3
DesignerAssemblies
 90
        0
280
     0
281
     0
  0
CLASS
  1
ACAMCONTEXTMODELER
  2
AcAmContextModeler
  3
DesignerAssemblies
 90
        0
280
     0
281
     0
  0
CLASS
  1
CATALOGSTATE
  2
AcAmCatalogState
  3
DesignerAssemblies
 90
        0
280
     0
281
     0
  0
CLASS
  1
ACAMGRCOMPDEFSET
  2
AcAmGrCompDefSet
  3
DesignerAssemblies
 90
        0
280
     0
281
     0
  0
CLASS
  1
AMDTBROWSERDBTAB
  2
AmdtBrowserDbTab
  3
McadcomServices
 90
        0
280
     0
281
     0
  0
CLASS
  1
CBROWSERAPPOBJECT
  2
CBrowserAppObject
  3
McadcomServices
 90
        0
280
     0
281
     0
  0
CLASS
  1
DM_PLACEHOLDER
  2
AcDmSelsetPlaceholder
  3
AcMechDwgViewMgmt
 90
        0
280
     0
281
     0
  0
CLASS
  1
ACMSTANDARDISO
  2
AcmStandardISO
  3
"Amdt_StdImp|Product Description: AutoCAD Mechanical 2004 DX|Company: Autodesk"
 90
        0
280
     0
281
     0
  0
CLASS
  1
AMDTEDGESTANDARDISO13715
  2
AmdtEdgeStdISO13715
  3
"Amdt_StdImp|Product Description: AutoCAD Mechanical 2004 DX|Company: Autodesk"
 90
        0
280
     0
281
     0
  0
CLASS
  1
ACMSURFSTANDARDISO
  2
AcmSurfTextStdISO
  3
"Amdt_StdImp|Product Description: AutoCAD Mechanical 2004 DX|Company: Autodesk"
 90
        0
280
     0
281
     0
  0
CLASS
  1
ACMFCFSTANDARDISO
  2
AcmFCFStdISO
  3
"Amdt_StdImp|Product Description: AutoCAD Mechanical 2004 DX|Company: Autodesk"
 90
        0
280
     0
281
     0
  0
CLASS
  1
ACMWELDSTANDARDISO
  2
AcmWeldingStdISO
  3
"Amdt_StdImp|Product Description: AutoCAD Mechanical 2004 DX|Company: Autodesk"
 90
        0
280
     0
281
     0
  0
CLASS
  1
ACMIDSTANDARDISO
  2
AcmIdStdISO
  3
"Amdt_StdImp|Product Description: AutoCAD Mechanical 2004 DX|Company: Autodesk"
 90
        0
280
     0
281
     0
  0
CLASS
  1
ACMDATUMSTANDARDISO
  2
AcmDatumStdISO
  3
"Amdt_StdImp|Product Description: AutoCAD Mechanical 2004 DX|Company: Autodesk"
 90
        0
280
     0
281
     0
  0
CLASS
  1
ACMBOMSTANDARDISO
  2
AcmBOMStdISO
  3
"Amdt_StdImp|Product Description: AutoCAD Mechanical 2004 DX|Company: Autodesk"
 90
        0
280
     0
281
     0
  0
CLASS
  1
ACMDETAILSTANDARDISO
  2
AmdtDetailSymStdISO
  3
"Amdt_StdImp|Product Description: AutoCAD Mechanical 2004 DX|Company: Autodesk"
 90
        0
280
     0
281
     0
  0
CLASS
  1
ACMSECTIONSTANDARDISO
  2
AmdtSectionSymStdISO
  3
"Amdt_StdImp|Product Description: AutoCAD Mechanical 2004 DX|Company: Autodesk"
 90
        0
280
     0
281
     0
  0
CLASS
  1
ACMCENTERLINESTANDARDISO
  2
AmdtCenterLineStdISO
  3
"Amdt_StdImp|Product Description: AutoCAD Mechanical 2004 DX|Company: Autodesk"
 90
        0
280
     0
281
     0
  0
CLASS
  1
ACMTHREADLINESTANDARDISO
  2
AmdtThreadLineStdISO
  3
"Amdt_StdImp|Product Description: AutoCAD Mechanical 2004 DX|Company: Autodesk"
 90
        0
280
     0
281
     0
  0
CLASS
  1
ACMNOTESTANDARDISO
  2
AmdtNoteStdISO
  3
"Amdt_StdImp|Product Description: AutoCAD Mechanical 2004 DX|Company: Autodesk"
 90
        0
280
     0
281
     0
  0
CLASS
  1
AMDTNOTETEMPLATEDB
  2
AmdtNoteTemplateDB
  3
AMDT_STDIMP_MODULE_NAME
 90
        0
280
     0
281
     0
  0
CLASS
  1
ACAMGLAYSTD
  2
AcAmgLayStd
  3
"AcAmgLayStd|Product Description: AutoCAD Mechanical 2000|Company: Autodesk"
 90
        0
280
     0
281
     0
  0
CLASS
  1
ACAMGDIMSTD
  2
AcAmgDimStd
  3
"AcAmgDimStd|Product Description: AutoCAD Mechanical 2000|Company: Autodesk"
 90
        0
280
     0
281
     0
  0
CLASS
  1
ACAMGHOLECHARTSTDISO
  2
AcAmgHoleChartStdISO
  3
ACMSYMBB_MODULE_NAME
 90
        0
280
     0
281
     0
  0
CLASS
  1
ACAMGTITLESTD
  2
AcAmgTitleStd
  3
"TITLEAPP"
 90
        0
280
     0
281
     0
  0
ENDSEC
  0
SECTION
  2
TABLES
  0
TABLE
  2
VPORT
  5
8
330
0
100
AcDbSymbolTable
 70
     4
  0
VPORT
  5
AC0C
330
8
100
AcDbSymbolTableRecord
100
AcDbViewportTableRecord
  2
*Active
 70
     0
 10
0.0
 20
0.0
 11
1.0
 21
1.0
 12
37.6042063636703
 22
-38.91993084436868
 13
0.0
 23
0.0
 14
2.5
 24
2.5
 15
10.0
 25
10.0
 16
0.0
 26
0.0
 36
1.0
 17
0.0
 27
0.0
 37
0.0
 40
128.7453521411572
 41
2.176400476758045
 42
50.0
 43
0.0
 44
0.0
 50
0.0
 51
0.0
 71
     0
 72
  2000
 73
     1
 74
     3
 75
     0
 76
     0
 77
     0
 78
     0
281
     0
 65
     0
110
0.0
120
0.0
130
0.0
111
1.0
121
0.0
131
0.0
112
0.0
122
1.0
132
0.0
 79
     0
146
0.0
  0
ENDTAB
  0
TABLE
  2
LTYPE
  5
5
330
0
100
AcDbSymbolTable
 70
    17
  0
LTYPE
  5
14
330
5
100
AcDbSymbolTableRecord
100
AcDbLinetypeTableRecord
  2
BYBLOCK
 70
     0
  3

 72
    65
 73
     0
 40
0.0
  0
LTYPE
  5
15
330
5
100
AcDbSymbolTableRecord
100
AcDbLinetypeTableRecord
  2
BYLAYER
 70
     0
  3

 72
    65
 73
     0
 40
0.0
  0
LTYPE
  5
16
330
5
100
AcDbSymbolTableRecord
100
AcDbLinetypeTableRecord
  2
CONTINUOUS
 70
     0
  3
Solid line
 72
    65
 73
     0
 40
0.0
  0
LTYPE
  5
43
330
5
100
AcDbSymbolTableRecord
100
AcDbLinetypeTableRecord
  2
AM_ISO02W050
 70
     0
  3
__ __ __ __ __ __ __ __ __ __ __ __ __ __ __
 72
    65
 73
     2
 40
7.5
 49
6.0
 74
     0
 49
-1.5
 74
     0
  0
LTYPE
  5
44
330
5
100
AcDbSymbolTableRecord
100
AcDbLinetypeTableRecord
  2
AM_ISO08W050
 70
     0
  3
____ . ____ . ____ . ____ . ____ . ____ . ____
 72
    65
 73
     4
 40
18.0
 49
12.0
 74
     0
 49
-1.5
 74
     0
 49
3.0
 74
     0
 49
-1.5
 74
     0
  0
LTYPE
  5
45
330
5
100
AcDbSymbolTableRecord
100
AcDbLinetypeTableRecord
  2
AM_ISO09W050
 70
     0
  3
_____ . . _____ . . _____ . . ____ .. ____
 72
    65
 73
     6
 40
22.5
 49
12.0
 74
     0
 49
-1.5
 74
     0
 49
3.0
 74
     0
 49
-1.5
 74
     0
 49
3.0
 74
     0
 49
-1.5
 74
     0
  0
LTYPE
  5
46
330
5
100
AcDbSymbolTableRecord
100
AcDbLinetypeTableRecord
  2
AMCONSTR
 70
     0
  3
_______________________
 72
    65
 73
     2
 40
9999.0
 49
9999.0
 74
     0
 49
0.0
 74
     0
  0
LTYPE
  5
47
330
5
100
AcDbSymbolTableRecord
100
AcDbLinetypeTableRecord
  2
AM_ISO02W050X2
 70
     0
  3
 _ _ _ _ _ _ _ _ _ _ _ _
 72
    65
 73
     2
 40
3.75
 49
3.0
 74
     0
 49
-0.75
 74
     0
  0
LTYPE
  5
48
330
5
100
AcDbSymbolTableRecord
100
AcDbLinetypeTableRecord
  2
AM_ISO08W050X2
 70
     0
  3
__ . __ . __ . __ . __ . __
 72
    65
 73
     4
 40
9.0
 49
6.0
 74
     0
 49
-0.75
 74
     0
 49
1.5
 74
     0
 49
-0.75
 74
     0
  0
LTYPE
  5
4B
330
5
100
AcDbSymbolTableRecord
100
AcDbLinetypeTableRecord
  2
AMZIGZAG
 70
     0
  3
/\/-/\/-/\/-/\/-/\/-/\/
 72
    65
 73
     2
 40
11.00009999999999
 49
0.0001
 74
     4
 75
   135
340
4A
 46
0.04
 50
0.0
 44
0.0
 45
0.0
 49
-11.0
 74
     0
  0
LTYPE
  5
A2E3
330
5
100
AcDbSymbolTableRecord
100
AcDbLinetypeTableRecord
  2
PHANTOM
 70
     0
  3
Phantom ______  __  __  ______  __  __  ______
 72
    65
 73
     6
 40
63.5
 49
31.75
 74
     0
 49
-6.349999999999998
 74
     0
 49
6.349999999999998
 74
     0
 49
-6.349999999999998
 74
     0
 49
6.349999999999998
 74
     0
 49
-6.349999999999998
 74
     0
  0
LTYPE
  5
AB65
330
5
100
AcDbSymbolTableRecord
100
AcDbLinetypeTableRecord
  2
HIDDEN
 70
     0
  3
Hidden __ __ __ __ __ __ __ __ __ __ __ __ __ _
 72
    65
 73
     2
 40
9.524999999999998
 49
6.349999999999999
 74
     0
 49
-3.174999999999999
 74
     0
  0
LTYPE
  5
AB66
330
5
100
AcDbSymbolTableRecord
100
AcDbLinetypeTableRecord
  2
PHANTOM2
 70
     0
  3
Phantom (.5x) ___ _ _ ___ _ _ ___ _ _ ___ _ _
 72
    65
 73
     6
 40
31.75
 49
15.875
 74
     0
 49
-3.174999999999999
 74
     0
 49
3.174999999999999
 74
     0
 49
-3.174999999999999
 74
     0
 49
3.174999999999999
 74
     0
 49
-3.174999999999999
 74
     0
  0
LTYPE
  5
AB67
330
5
100
AcDbSymbolTableRecord
100
AcDbLinetypeTableRecord
  2
CENTER
 70
     0
  3
Center ____ _ ____ _ ____ _ ____ _ ____ _ ____
 72
    65
 73
     4
 40
50.8
 49
31.75
 74
     0
 49
-6.349999999999999
 74
     0
 49
6.349999999999999
 74
     0
 49
-6.349999999999999
 74
     0
  0
LTYPE
  5
ABA7
330
5
100
AcDbSymbolTableRecord
100
AcDbLinetypeTableRecord
  2
ACISOWELD
 70
     0
  3
_ _ _ _ _
 72
    65
 73
     2
 40
2.0
 49
2.0
 74
     0
 49
-1.0
 74
     0
  0
LTYPE
  5
ABA8
330
5
100
AcDbSymbolTableRecord
100
AcDbLinetypeTableRecord
  2
ACISOTGB
 70
     0
  3
__ . . __ . .
 72
    65
 73
     6
 40
9.0
 49
4.0
 74
     0
 49
-1.0
 74
     0
 49
1.0
 74
     0
 49
-1.0
 74
     0
 49
1.0
 74
     0
 49
-1.0
 74
     0
  0
LTYPE
  5
ABA9
330
5
100
AcDbSymbolTableRecord
100
AcDbLinetypeTableRecord
  2
ACISOTGL
 70
     0
  3
_ _ _ _ _
 72
    65
 73
     2
 40
3.0
 49
2.0
 74
     0
 49
-1.0
 74
     0
  0
ENDTAB
  0
TABLE
  2
LAYER
  5
2
330
0
100
AcDbSymbolTable
 70
    12
  0
LAYER
  5
10
330
2
100
AcDbSymbolTableRecord
100
AcDbLayerTableRecord
  2
0
 70
     0
 62
     7
  6
CONTINUOUS
370
    -3
390
F
  0
LAYER
  5
7D
330
2
100
AcDbSymbolTableRecord
100
AcDbLayerTableRecord
  2
AM_5
 70
     0
 62
     3
  6
CONTINUOUS
370
    -3
390
F
  0
LAYER
  5
7F
330
2
100
AcDbSymbolTableRecord
100
AcDbLayerTableRecord
  2
DEFPOINTS
 70
     0
 62
     7
  6
CONTINUOUS
290
     0
370
    -3
390
F
  0
LAYER
  5
12B1
330
2
100
AcDbSymbolTableRecord
100
AcDbLayerTableRecord
  2
AM_0
 70
     0
 62
     7
  6
CONTINUOUS
370
    -3
390
F
  0
LAYER
  5
2222
330
2
100
AcDbSymbolTableRecord
100
AcDbLayerTableRecord
  2
AM_6
 70
     0
 62
     2
  6
CONTINUOUS
370
    -3
390
F
  0
LAYER
  5
7DB1
330
2
100
AcDbSymbolTableRecord
100
AcDbLayerTableRecord
  2
AM_3
 70
     0
 62
     6
  6
AM_ISO02W050
370
    -3
390
F
  0
LAYER
  5
7DB2
330
2
100
AcDbSymbolTableRecord
100
AcDbLayerTableRecord
  2
AM_7
 70
     0
 62
     4
  6
AM_ISO08W050
370
    -3
390
F
  0
LAYER
  5
8B83
330
2
100
AcDbSymbolTableRecord
100
AcDbLayerTableRecord
  2
PV0001_1
 70
     0
 62
     7
  6
CONTINUOUS
370
    -3
390
F
  0
LAYER
  5
A2E4
330
2
100
AcDbSymbolTableRecord
100
AcDbLayerTableRecord
  2
AM_11
 70
     0
 62
     3
  6
PHANTOM
370
    -3
390
F
  0
ENDTAB
  0
TABLE
  2
STYLE
  5
3
330
0
100
AcDbSymbolTable
 70
     6
  0
STYLE
  5
11
330
3
100
AcDbSymbolTableRecord
100
AcDbTextStyleTableRecord
  2
STANDARD
 70
     0
 40
0.0
 41
1.0
 50
0.0
 71
     0
 42
2.5
  3
ISOCP.SHX
  4
EXTFONT.SHX
  0
STYLE
  5
4A
330
3
100
AcDbSymbolTableRecord
100
AcDbTextStyleTableRecord
  2

 70
     1
 40
0.0
 41
1.0
 50
0.0
 71
     0
 42
2.5
  3
ltypeshp.shx
  4

  0
STYLE
  5
AB99
330
3
100
AcDbSymbolTableRecord
100
AcDbTextStyleTableRecord
  2
ACISOTS
 70
     0
 40
1.0
 41
1.0
 50
0.0
 71
     0
 42
2.5
  3
isocp.shx
  4
extfont.shx
  0
STYLE
  5
ABA6
330
3
100
AcDbSymbolTableRecord
100
AcDbTextStyleTableRecord
  2
ACISOGDT
 70
     0
 40
0.0
 41
1.0
 50
0.0
 71
     0
 42
2.5
  3
amgdt.shx
  4

  0
ENDTAB
  0
TABLE
  2
VIEW
  5
6
330
0
100
AcDbSymbolTable
 70
     6
  0
VIEW
  5
A30
330
6
100
AcDbSymbolTableRecord
100
AcDbViewTableRecord
  2
AM_VIEW1
 70
     0
 40
148.5
 10
112.0719649561952
 20
222.75
 41
224.1439299123904
 11
0.0
 21
0.0
 31
1.0
 12
0.0
 22
0.0
 32
0.0
 42
50.0
 43
0.0
 44
0.0
 50
0.0
 71
     0
281
     0
 72
     0
  0
VIEW
  5
A31
330
6
100
AcDbSymbolTableRecord
100
AcDbViewTableRecord
  2
AM_VIEW2
 70
     0
 40
148.5
 10
307.9280350438047
 20
222.75
 41
224.1439299123904
 11
0.0
 21
0.0
 31
1.0
 12
0.0
 22
0.0
 32
0.0
 42
50.0
 43
0.0
 44
0.0
 50
0.0
 71
     0
281
     0
 72
     0
  0
VIEW
  5
A32
330
6
100
AcDbSymbolTableRecord
100
AcDbViewTableRecord
  2
AM_VIEW3
 70
     0
 40
148.5
 10
112.0719649561952
 20
74.25
 41
224.1439299123904
 11
0.0
 21
0.0
 31
1.0
 12
0.0
 22
0.0
 32
0.0
 42
50.0
 43
0.0
 44
0.0
 50
0.0
 71
     0
281
     0
 72
     0
  0
VIEW
  5
A33
330
6
100
AcDbSymbolTableRecord
100
AcDbViewTableRecord
  2
AM_VIEW4
 70
     0
 40
148.5
 10
307.9280350438047
 20
74.25
 41
224.1439299123904
 11
0.0
 21
0.0
 31
1.0
 12
0.0
 22
0.0
 32
0.0
 42
50.0
 43
0.0
 44
0.0
 50
0.0
 71
     0
281
     0
 72
     0
  0
VIEW
  5
A34
330
6
100
AcDbSymbolTableRecord
100
AcDbViewTableRecord
  2
AM_VIEW5
 70
     0
 40
148.5
 10
210.0
 20
148.5
 41
224.1439299123904
 11
0.0
 21
0.0
 31
1.0
 12
0.0
 22
0.0
 32
0.0
 42
50.0
 43
0.0
 44
0.0
 50
0.0
 71
     0
281
     0
 72
     0
  0
VIEW
  5
A35
330
6
100
AcDbSymbolTableRecord
100
AcDbViewTableRecord
  2
AM_VIEW6
 70
     0
 40
296.9970299999999
 10
210.0
 20
148.5
 41
448.2833769461826
 11
0.0
 21
0.0
 31
1.0
 12
0.0
 22
0.0
 32
0.0
 42
50.0
 43
0.0
 44
0.0
 50
0.0
 71
     0
281
     0
 72
     0
  0
ENDTAB
  0
TABLE
  2
UCS
  5
7
330
0
100
AcDbSymbolTable
 70
     0
  0
ENDTAB
  0
TABLE
  2
APPID
  5
9
330
0
100
AcDbSymbolTable
 70
    42
  0
APPID
  5
12
330
9
100
AcDbSymbolTableRecord
100
AcDbRegAppTableRecord
  2
ACAD
 70
     0
  0
APPID
  5
2C
330
9
100
AcDbSymbolTableRecord
100
AcDbRegAppTableRecord
  2
MCAD_NO_VIS
 70
     0
  0
APPID
  5
2D
330
9
100
AcDbSymbolTableRecord
100
AcDbRegAppTableRecord
  2
ACAD_TEMP_GRAPHIC
 70
     0
  0
APPID
  5
B9
330
9
100
AcDbSymbolTableRecord
100
AcDbRegAppTableRecord
  2
GENIUS_GENDTOL_13
 70
     0
  0
APPID
  5
359
330
9
100
AcDbSymbolTableRecord
100
AcDbRegAppTableRecord
  2
GENIUS_GENREC_14
 70
     0
  0
APPID
  5
35A
330
9
100
AcDbSymbolTableRecord
100
AcDbRegAppTableRecord
  2
GENIUS_GENODEF_13
 70
     0
  0
APPID
  5
35B
330
9
100
AcDbSymbolTableRecord
100
AcDbRegAppTableRecord
  2
GENIUS_GENOBJ-N-REC_13
 70
     0
  0
APPID
  5
667
330
9
100
AcDbSymbolTableRecord
100
AcDbRegAppTableRecord
  2
GENIUS_GENCFG_13
 70
     0
  0
APPID
  5
668
330
9
100
AcDbSymbolTableRecord
100
AcDbRegAppTableRecord
  2
GENIUS_GENCFG0_13
 70
     0
  0
APPID
  5
669
330
9
100
AcDbSymbolTableRecord
100
AcDbRegAppTableRecord
  2
GENIUS_GENCFG1_13
 70
     0
  0
APPID
  5
66A
330
9
100
AcDbSymbolTableRecord
100
AcDbRegAppTableRecord
  2
GENIUS_GENCFG2_13
 70
     0
  0
APPID
  5
66B
330
9
100
AcDbSymbolTableRecord
100
AcDbRegAppTableRecord
  2
GENIUS_GENCFG3_13
 70
     0
  0
APPID
  5
66C
330
9
100
AcDbSymbolTableRecord
100
AcDbRegAppTableRecord
  2
GENIUS_GENCFG4_13
 70
     0
  0
APPID
  5
A76
330
9
100
AcDbSymbolTableRecord
100
AcDbRegAppTableRecord
  2
GENIUS_GENBLLY_14
 70
     0
  0
APPID
  5
A77
330
9
100
AcDbSymbolTableRecord
100
AcDbRegAppTableRecord
  2
GENIUS_GENOBJ-N-CEN_13
 70
     0
  0
APPID
  5
A83
330
9
100
AcDbSymbolTableRecord
100
AcDbRegAppTableRecord
  2
GENIUS_GENTRA_14
 70
     0
  0
APPID
  5
A8D
330
9
100
AcDbSymbolTableRecord
100
AcDbRegAppTableRecord
  2
GENIUS_GENOBJ-N-TIT_13
 70
     0
  0
APPID
  5
A8E
330
9
100
AcDbSymbolTableRecord
100
AcDbRegAppTableRecord
  2
GENIUS_GENTITLE_13
 70
     0
  0
APPID
  5
A8F
330
9
100
AcDbSymbolTableRecord
100
AcDbRegAppTableRecord
  2
GENIUS_GENOENT_13
 70
     0
  0
APPID
  5
A90
330
9
100
AcDbSymbolTableRecord
100
AcDbRegAppTableRecord
  2
GENIUS_GENOREF_13
 70
     0
  0
APPID
  5
A91
330
9
100
AcDbSymbolTableRecord
100
AcDbRegAppTableRecord
  2
GENIUS_GENOLIS_13
 70
     0
  0
APPID
  5
A92
330
9
100
AcDbSymbolTableRecord
100
AcDbRegAppTableRecord
  2
GENIUS_GENZVEED_13
 70
     0
  0
APPID
  5
A93
330
9
100
AcDbSymbolTableRecord
100
AcDbRegAppTableRecord
  2
GENIUS_GENSCREG_15
 70
     0
  0
APPID
  5
A94
330
9
100
AcDbSymbolTableRecord
100
AcDbRegAppTableRecord
  2
GENIUS_GENOBJ-N-SDF_13
 70
     0
  0
APPID
  5
12B5
330
9
100
AcDbSymbolTableRecord
100
AcDbRegAppTableRecord
  2
GENIUS_GENOBJ-N-RSBK_13
 70
     0
  0
APPID
  5
12B6
330
9
100
AcDbSymbolTableRecord
100
AcDbRegAppTableRecord
  2
GENIUS_GENOBJ-N-LIB_13
 70
     0
  0
APPID
  5
12B7
330
9
100
AcDbSymbolTableRecord
100
AcDbRegAppTableRecord
  2
GENIUS_GENSCALE_13
 70
     0
  0
APPID
  5
12B8
330
9
100
AcDbSymbolTableRecord
100
AcDbRegAppTableRecord
  2
GENIUS_GENOBJ-N-HTC_13
 70
     0
  0
APPID
  5
12B9
330
9
100
AcDbSymbolTableRecord
100
AcDbRegAppTableRecord
  2
GENIUS_GENHATCH_13
 70
     0
  0
APPID
  5
1C0A
330
9
100
AcDbSymbolTableRecord
100
AcDbRegAppTableRecord
  2
BASE_TYPE
 70
     0
  0
APPID
  5
276B
330
9
100
AcDbSymbolTableRecord
100
AcDbRegAppTableRecord
  2
GENIUS_GENOBJ-N-FIL_13
 70
     0
  0
APPID
  5
3640
330
9
100
AcDbSymbolTableRecord
100
AcDbRegAppTableRecord
  2
GENIUS_GENBH_13
 70
     0
  0
APPID
  5
36D1
330
9
100
AcDbSymbolTableRecord
100
AcDbRegAppTableRecord
  2
GENIUS_GENOBJ-F-SPR_13
 70
     0
  0
APPID
  5
36DA
330
9
100
AcDbSymbolTableRecord
100
AcDbRegAppTableRecord
  2
GENIUS_GEFSPRING_13
 70
     0
  0
APPID
  5
36DB
330
9
100
AcDbSymbolTableRecord
100
AcDbRegAppTableRecord
  2
GENIUS_GEFSPRINGP_13
 70
     0
  0
APPID
  5
4D67
330
9
100
AcDbSymbolTableRecord
100
AcDbRegAppTableRecord
  2
GENIUS_GENFIL_13
 70
     0
  0
APPID
  5
4D68
330
9
100
AcDbSymbolTableRecord
100
AcDbRegAppTableRecord
  2
GENIUS_GENOBJ-N-CHA_13
 70
     0
  0
APPID
  5
AB69
330
9
100
AcDbSymbolTableRecord
100
AcDbRegAppTableRecord
  2
AD_DRAW
 70
     0
  0
APPID
  5
AB6C
330
9
100
AcDbSymbolTableRecord
100
AcDbRegAppTableRecord
  2
ACATTRIBSERVICES
 70
     0
  0
APPID
  5
AB8A
330
9
100
AcDbSymbolTableRecord
100
AcDbRegAppTableRecord
  2
DESIGNERASSEMBLIES
 70
     0
  0
APPID
  5
AB8F
330
9
100
AcDbSymbolTableRecord
100
AcDbRegAppTableRecord
  2
ACADM_DIM_EDIT
 70
     0
  0
APPID
  5
AB90
330
9
100
AcDbSymbolTableRecord
100
AcDbRegAppTableRecord
  2
AMDT_DM_ADJ
 70
     0
  0
ENDTAB
  0
TABLE
  2
DIMSTYLE
  5
A
330
0
100
AcDbSymbolTable
 70
    19
100
AcDbDimStyleTable
 71
     0
  0
DIMSTYLE
105
58
330
A
100
AcDbSymbolTableRecord
100
AcDbDimStyleTableRecord
  2
AM_JIS
 70
     0
  4
"
 41
2.5
 42
0.0
 43
10.0
 44
1.0
 47
0.1
 48
0.1000000001
 73
     0
 74
     0
 77
     3
 78
     9
140
3.799999999999998
141
0.0
143
0.0393701
146
0.71
147
1.5
172
     1
176
   256
177
   256
178
     2
271
     2
272
     2
275
     1
283
     0
284
     8
340
11
341
59
342
59
  0
DIMSTYLE
105
5F
102
{ACAD_REACTORS
330
AA72
102
}
330
A
100
AcDbSymbolTableRecord
100
AcDbDimStyleTableRecord
  2
AM_JIS$3
 70
     0
  4
"
 41
2.5
 42
0.0
 43
10.0
 44
1.0
 47
0.1
 48
0.1000000001
 73
     0
 77
     3
 78
     9
140
3.799999999999998
141
0.0
143
0.0393701
146
0.71
147
1.5
172
     1
176
   256
177
   256
178
     2
271
     2
272
     2
275
     1
283
     0
284
     8
288
     1
340
11
341
59
342
59
  0
DIMSTYLE
105
65F
330
A
100
AcDbSymbolTableRecord
100
AcDbDimStyleTableRecord
  2
STANDARD
 70
     0
340
11
  0
DIMSTYLE
105
1761
102
{ACAD_REACTORS
330
A6EA
330
A76C
330
A79F
330
A736
330
A969
330
A976
102
}
330
A
100
AcDbSymbolTableRecord
100
AcDbDimStyleTableRecord
  2
AM_JIS$0
 70
     0
  4
"
 41
2.5
 42
0.0
 43
10.0
 44
1.0
 47
0.1
 48
0.1000000001
 73
     0
 74
     0
 77
     3
 78
     9
140
3.799999999999998
141
0.0
143
0.0393701
146
0.71
147
1.5
172
     1
176
     3
177
     3
178
     2
271
     2
272
     2
275
     1
283
     0
284
     8
340
11
341
59
342
59
  0
DIMSTYLE
105
ABB2
330
A
100
AcDbSymbolTableRecord
100
AcDbDimStyleTableRecord
  2
AM_ISO
 70
     0
  4
"
 41
2.5
 42
1.0
 43
10.0
 44
1.0
 47
0.1
 48
0.1
 73
     0
 74
     0
 77
     1
 78
     8
 79
     2
140
3.5
141
0.0
143
0.0393701
146
0.71
147
1.5
172
     1
176
   256
177
   256
178
     2
271
     2
272
     3
274
     4
283
     0
284
     8
340
11
371
    -1
372
    -1
  0
DIMSTYLE
105
ABB3
330
A
100
AcDbSymbolTableRecord
100
AcDbDimStyleTableRecord
  2
AM_ISO$3
 70
     0
  4
"
 41
2.5
 42
1.0
 43
10.0
 44
1.0
 47
0.1
 48
0.1
 73
     0
 77
     1
 78
     8
 79
     2
140
3.5
141
0.0
143
0.0393701
146
0.71
147
1.5
176
   256
177
   256
178
     2
271
     2
272
     3
274
     4
283
     0
284
     8
288
     1
289
     0
340
11
371
    -1
372
    -1
  0
DIMSTYLE
105
ABB4
330
A
100
AcDbSymbolTableRecord
100
AcDbDimStyleTableRecord
  2
AM_ISO$4
 70
     0
  4
"
 41
2.5
 42
1.0
 43
10.0
 44
1.0
 47
0.1
 48
0.1
 73
     0
 77
     1
 78
     8
 79
     2
140
3.5
141
0.0
143
0.0393701
146
0.71
147
1.5
176
   256
177
   256
178
     2
271
     2
272
     3
274
     4
283
     0
284
     8
288
     1
289
     0
340
11
371
    -1
372
    -1
  0
DIMSTYLE
105
ABB5
330
A
100
AcDbSymbolTableRecord
100
AcDbDimStyleTableRecord
  2
AM_ISO$6
 70
     0
  4
"
 41
2.5
 42
1.0
 43
10.0
 44
1.0
 47
0.1
 48
0.1
 73
     0
 74
     0
 78
     8
 79
     2
140
3.5
141
0.0
143
0.0393701
146
0.71
147
1.5
172
     1
176
   256
177
   256
178
     2
271
     2
272
     3
274
     4
283
     0
284
     8
340
11
371
    -1
372
    -1
  0
DIMSTYLE
105
ABB6
330
A
100
AcDbSymbolTableRecord
100
AcDbDimStyleTableRecord
  2
AM_ISO$7
 70
     0
  4
"
 41
2.5
 42
1.0
 43
10.0
 44
1.0
 47
0.1
 48
0.1
 73
     0
 74
     0
 77
     1
 78
     8
 79
     2
140
5.0
141
0.0
143
0.0393701
146
0.71
147
1.5
172
     1
176
   256
177
   256
178
     2
271
     2
272
     3
274
     4
283
     0
284
     8
340
11
371
    -1
372
    -1
  0
DIMSTYLE
105
ABB7
330
A
100
AcDbSymbolTableRecord
100
AcDbDimStyleTableRecord
  2
AM_ISO$SF
 70
     0
  4
"
 41
2.5
 42
1.0
 43
10.0
 44
1.0
 47
0.1
 48
0.1
 73
     0
 74
     0
 75
     1
 76
     1
 77
     1
 78
     8
 79
     2
140
3.5
141
0.0
143
0.0393701
146
0.71
147
1.5
172
     1
176
   256
177
   256
178
     2
271
     2
272
     3
274
     4
283
     0
284
     8
340
11
371
    -1
372
    -1
  0
DIMSTYLE
105
ABB8
330
A
100
AcDbSymbolTableRecord
100
AcDbDimStyleTableRecord
  2
AM_ISO$SH
 70
     0
  4
"
 41
2.5
 42
1.0
 43
10.0
 44
1.0
 47
0.1
 48
0.1
 73
     0
 74
     0
 75
     1
 76
     1
 77
     1
 78
     8
 79
     2
140
3.5
141
0.0
143
0.0393701
144
2.0
146
0.71
147
1.5
172
     1
173
     1
176
   256
177
   256
178
     2
271
     2
272
     3
274
     4
283
     0
284
     8
340
11
343
64
371
    -1
372
    -1
  0
ENDTAB
  0
TABLE
  2
BLOCK_RECORD
  5
1
330
0
100
AcDbSymbolTable
 70
    13
  0
BLOCK_RECORD
  5
1F
102
{ACAD_XDICTIONARY
360
165
102
}
330
1
100
AcDbSymbolTableRecord
100
AcDbBlockTableRecord
  2
*MODEL_SPACE
340
AB31
  0
BLOCK_RECORD
  5
1B
102
{ACAD_XDICTIONARY
360
AB09
102
}
330
1
100
AcDbSymbolTableRecord
100
AcDbBlockTableRecord
  2
*PAPER_SPACE
340
AB32
  0
BLOCK_RECORD
  5
59
330
1
100
AcDbSymbolTableRecord
100
AcDbBlockTableRecord
  2
_OPEN30
340
0
102
{BLKREFS
331
ABBF
331
ABC0
331
ABD3
331
ABD4
331
ABDC
331
ABDD
331
ABE5
331
ABE6
331
ABEE
331
ABEF
331
ABF9
331
ABFA
331
AC03
331
AC04
102
}
  0
BLOCK_RECORD
  5
64
330
1
100
AcDbSymbolTableRecord
100
AcDbBlockTableRecord
  2
GENAXEH
340
0
  0
BLOCK_RECORD
  5
A7F5
330
1
100
AcDbSymbolTableRecord
100
AcDbBlockTableRecord
  2
*D5
340
0
  0
BLOCK_RECORD
  5
A80D
330
1
100
AcDbSymbolTableRecord
100
AcDbBlockTableRecord
  2
*D6
340
0
  0
BLOCK_RECORD
  5
A826
330
1
100
AcDbSymbolTableRecord
100
AcDbBlockTableRecord
  2
*D7
340
0
  0
BLOCK_RECORD
  5
A832
330
1
100
AcDbSymbolTableRecord
100
AcDbBlockTableRecord
  2
*D8
340
0
  0
BLOCK_RECORD
  5
A96A
330
1
100
AcDbSymbolTableRecord
100
AcDbBlockTableRecord
  2
*D9
340
0
  0
BLOCK_RECORD
  5
A977
330
1
100
AcDbSymbolTableRecord
100
AcDbBlockTableRecord
  2
*D10
340
0
  0
BLOCK_RECORD
  5
AA73
330
1
100
AcDbSymbolTableRecord
100
AcDbBlockTableRecord
  2
*D11
340
0
  0
ENDTAB
  0
ENDSEC
  0
SECTION
  2
BLOCKS
  0
BLOCK
  5
20
330
1F
100
AcDbEntity
  8
0
100
AcDbBlockBegin
  2
*MODEL_SPACE
 70
     0
 10
0.0
 20
0.0
 30
0.0
  3
*MODEL_SPACE
  1

  0
ENDBLK
  5
21
330
1F
100
AcDbEntity
  8
0
100
AcDbBlockEnd
  0
BLOCK
  5
1C
330
1B
100
AcDbEntity
 67
     1
  8
0
100
AcDbBlockBegin
  2
*PAPER_SPACE
 70
     0
 10
0.0
 20
0.0
 30
0.0
  3
*PAPER_SPACE
  1

  0
ENDBLK
  5
1D
330
1B
100
AcDbEntity
 67
     1
  8
0
100
AcDbBlockEnd
  0
BLOCK
  5
5D
330
59
100
AcDbEntity
  8
0
100
AcDbBlockBegin
  2
_OPEN30
 70
     0
 10
0.0
 20
0.0
 30
0.0
  3
_OPEN30
  1

  0
LINE
  5
5A
330
59
100
AcDbEntity
  8
0
 62
     0
100
AcDbLine
 10
-1.0
 20
0.26794919
 30
0.0
 11
0.0
 21
0.0
 31
0.0
  0
LINE
  5
5B
330
59
100
AcDbEntity
  8
0
 62
     0
100
AcDbLine
 10
0.0
 20
0.0
 30
0.0
 11
-1.0
 21
-0.26794919
 31
0.0
  0
LINE
  5
5C
330
59
100
AcDbEntity
  8
0
 62
     0
100
AcDbLine
 10
0.0
 20
0.0
 30
0.0
 11
-1.0
 21
0.0
 31
0.0
  0
ENDBLK
  5
5E
330
59
100
AcDbEntity
  8
0
100
AcDbBlockEnd
  0
BLOCK
  5
66
330
64
100
AcDbEntity
  8
0
100
AcDbBlockBegin
  2
GENAXEH
 70
     0
 10
0.0
 20
0.0
 30
0.0
  3
GENAXEH
  1

  0
LINE
  5
65
330
64
100
AcDbEntity
  8
0
100
AcDbLine
 10
-1.0
 20
0.0
 30
0.0
 11
1.0
 21
0.0
 31
0.0
  0
ENDBLK
  5
67
330
64
100
AcDbEntity
  8
0
100
AcDbBlockEnd
  0
BLOCK
  5
A7FF
330
A7F5
100
AcDbEntity
  8
0
100
AcDbBlockBegin
  2
*D5
 70
     1
 10
0.0
 20
0.0
 30
0.0
  3
*D5
  1

  0
LINE
  5
ABBC
330
A7F5
100
AcDbEntity
  8
PV0001_1
 62
     3
370
    -2
100
AcDbLine
 10
0.0000000000000001
 20
0.25
 30
0.0
 11
-0.0000000000000012
 21
-20.353767395019
 31
0.0
  0
LINE
  5
ABBD
330
A7F5
100
AcDbEntity
  8
PV0001_1
 62
     3
370
    -2
100
AcDbLine
 10
149.999999999999
 20
0.4828033447269706
 30
0.0
 11
149.999999999999
 21
-20.353767395019
 31
0.0
  0
LINE
  5
ABBE
330
A7F5
100
AcDbEntity
  8
PV0001_1
 62
     3
370
    -2
100
AcDbLine
 10
2.499999999999998
 20
-19.353767395019
 30
0.0
 11
147.499999999999
 21
-19.353767395019
 31
0.0
  0
INSERT
  5
ABBF
330
A7F5
100
AcDbEntity
  8
PV0001_1
 62
     3
370
    -2
100
AcDbBlockReference
  2
_OPEN30
 10
-0.0000000000000011
 20
-19.353767395019
 30
0.0
 41
2.5
 42
2.5
 43
2.5
 50
180.0
  0
INSERT
  5
ABC0
330
A7F5
100
AcDbEntity
  8
PV0001_1
 62
     3
370
    -2
100
AcDbBlockReference
  2
_OPEN30
 10
149.999999999999
 20
-19.353767395019
 30
0.0
 41
2.5
 42
2.5
 43
2.5
  0
MTEXT
  5
ABC1
330
A7F5
100
AcDbEntity
  8
PV0001_1
 62
     2
100
AcDbMText
 10
74.99999999999909
 20
-15.953767395019
 30
0.0
 40
3.799999999999998
 41
0.0
 71
     5
 72
     1
  1
150
 73
     1
 44
1.0
1001
ACAD
1000
MTEXTBEGIN
1070
    73
1070
     1
1070
    44
1040
1.0
1070
    74
1070
     0
1000
MTEXTEND
  0
POINT
  5
ABC2
330
A7F5
100
AcDbEntity
  8
DEFPOINTS
 62
     0
100
AcDbPoint
 10
0.0000000000000001
 20
0.25
 30
0.0
  0
POINT
  5
ABC3
330
A7F5
100
AcDbEntity
  8
DEFPOINTS
 62
     0
100
AcDbPoint
 10
149.999999999999
 20
0.4828033447269706
 30
0.0
  0
POINT
  5
ABC4
330
A7F5
100
AcDbEntity
  8
DEFPOINTS
 62
     0
100
AcDbPoint
 10
149.999999999999
 20
-19.353767395019
 30
0.0
  0
ENDBLK
  5
A800
330
A7F5
100
AcDbEntity
  8
0
100
AcDbBlockEnd
  0
BLOCK
  5
A818
330
A80D
100
AcDbEntity
  8
0
100
AcDbBlockBegin
  2
*D6
 70
     1
 10
0.0
 20
0.0
 30
0.0
  3
*D6
  1

  0
LINE
  5
ABFE
330
A80D
100
AcDbEntity
  8
PV0001_1
 62
     3
370
    -2
100
AcDbLine
 10
0.0000000000000004
 20
3.199999463864002
 30
0.0
 11
-13.94717407226596
 21
3.199999463864006
 31
0.0
  0
LINE
  5
ABFF
330
A80D
100
AcDbEntity
  8
PV0001_1
 62
     3
370
    -2
100
AcDbLine
 10
0.0
 20
0.0
 30
0.0
 11
-13.94717407226596
 21
0.000000000000004
 31
0.0
  0
LINE
  5
AC00
330
A80D
100
AcDbEntity
  8
PV0001_1
 62
     3
370
    -2
100
AcDbLine
 10
-12.94717407226596
 20
5.699999463864005
 30
0.0
 11
-12.94717407226596
 21
8.199999463864006
 31
0.0
  0
LINE
  5
AC01
330
A80D
100
AcDbEntity
  8
PV0001_1
 62
     3
370
    -2
100
AcDbLine
 10
-12.94717407226596
 20
-2.499999999999996
 30
0.0
 11
-12.94717407226596
 21
-19.86669672658423
 31
0.0
  0
LINE
  5
AC02
330
A80D
100
AcDbEntity
  8
PV0001_1
 62
     3
370
    -2
100
AcDbLine
 10
-12.94717407226596
 20
3.199999463864006
 30
0.0
 11
-12.94717407226596
 21
0.0000000000000037
 31
0.0
  0
INSERT
  5
AC03
330
A80D
100
AcDbEntity
  8
PV0001_1
 62
     3
370
    -2
100
AcDbBlockReference
  2
_OPEN30
 10
-12.94717407226596
 20
3.199999463864006
 30
0.0
 41
2.5
 42
2.5
 43
2.5
 50
270.0
  0
INSERT
  5
AC04
330
A80D
100
AcDbEntity
  8
PV0001_1
 62
     3
370
    -2
100
AcDbBlockReference
  2
_OPEN30
 10
-12.94717407226596
 20
0.0000000000000037
 30
0.0
 41
2.5
 42
2.5
 43
2.5
 50
90.0
  0
MTEXT
  5
AC05
330
A80D
100
AcDbEntity
  8
PV0001_1
 62
     2
100
AcDbMText
 10
-16.34754808801399
 20
-15.59258452185982
 30
0.0
 40
3.799999999999998
 41
0.0
 71
     5
 72
     1
  1
3.2
 11
0.0000000000000001
 21
1.0
 31
0.0
 73
     1
 44
1.0
1001
ACAD
1000
MTEXTBEGIN
1070
    73
1070
     1
1070
    44
1040
1.0
1070
    74
1070
     0
1000
MTEXTEND
  0
POINT
  5
AC06
330
A80D
100
AcDbEntity
  8
DEFPOINTS
 62
     0
100
AcDbPoint
 10
0.0000000000000004
 20
3.199999463864002
 30
0.0
  0
POINT
  5
AC07
330
A80D
100
AcDbEntity
  8
DEFPOINTS
 62
     0
100
AcDbPoint
 10
0.0
 20
0.0
 30
0.0
  0
POINT
  5
AC08
330
A80D
100
AcDbEntity
  8
DEFPOINTS
 62
     0
100
AcDbPoint
 10
-12.94717407226596
 20
0.0000000000000037
 30
0.0
  0
ENDBLK
  5
A819
330
A80D
100
AcDbEntity
  8
0
100
AcDbBlockEnd
  0
BLOCK
  5
A830
330
A826
100
AcDbEntity
  8
0
100
AcDbBlockBegin
  2
*D7
 70
     1
 10
0.0
 20
0.0
 30
0.0
  3
*D7
  1

  0
LINE
  5
ABD0
330
A826
100
AcDbEntity
  8
PV0001_1
 62
     3
370
    -2
100
AcDbLine
 10
43.48479270935103
 20
-55.53769308227522
 30
0.0
 11
43.48479270935103
 21
-35.95278567993243
 31
0.0
  0
LINE
  5
ABD1
330
A826
100
AcDbEntity
  8
PV0001_1
 62
     3
370
    -2
100
AcDbLine
 10
-0.0000000000000074
 20
-60.53081518310521
 30
0.0
 11
-0.0000000000000059
 21
-35.95278567993243
 31
0.0
  0
LINE
  5
ABD2
330
A826
100
AcDbEntity
  8
PV0001_1
 62
     3
370
    -2
100
AcDbLine
 10
40.98479270935103
 20
-36.95278567993243
 30
0.0
 11
2.499999999999994
 21
-36.95278567993243
 31
0.0
  0
INSERT
  5
ABD3
330
A826
100
AcDbEntity
  8
PV0001_1
 62
     3
370
    -2
100
AcDbBlockReference
  2
_OPEN30
 10
43.48479270935103
 20
-36.95278567993243
 30
0.0
 41
2.5
 42
2.5
 43
2.5
  0
INSERT
  5
ABD4
330
A826
100
AcDbEntity
  8
PV0001_1
 62
     3
370
    -2
100
AcDbBlockReference
  2
_OPEN30
 10
-0.0000000000000059
 20
-36.95278567993243
 30
0.0
 41
2.5
 42
2.5
 43
2.5
 50
180.0
  0
MTEXT
  5
ABD5
330
A826
100
AcDbEntity
  8
PV0001_1
 62
     2
100
AcDbMText
 10
22.66770172119105
 20
-33.55278567993243
 30
0.0
 40
3.799999999999998
 41
0.0
 71
     5
 72
     1
  1
43.5
 73
     1
 44
1.0
1001
ACAD
1000
MTEXTBEGIN
1070
    73
1070
     1
1070
    44
1040
1.0
1070
    74
1070
     0
1000
MTEXTEND
  0
POINT
  5
ABD6
330
A826
100
AcDbEntity
  8
DEFPOINTS
 62
     0
100
AcDbPoint
 10
43.48479270935103
 20
-55.53769308227522
 30
0.0
  0
POINT
  5
ABD7
330
A826
100
AcDbEntity
  8
DEFPOINTS
 62
     0
100
AcDbPoint
 10
-0.0000000000000074
 20
-60.53081518310521
 30
0.0
  0
POINT
  5
ABD8
330
A826
100
AcDbEntity
  8
DEFPOINTS
 62
     0
100
AcDbPoint
 10
-0.0000000000000059
 20
-36.95278567993243
 30
0.0
  0
ENDBLK
  5
A831
330
A826
100
AcDbEntity
  8
0
100
AcDbBlockEnd
  0
BLOCK
  5
A83C
330
A832
100
AcDbEntity
  8
0
100
AcDbBlockBegin
  2
*D8
 70
     1
 10
0.0
 20
0.0
 30
0.0
  3
*D8
  1

  0
LINE
  5
ABD9
330
A832
100
AcDbEntity
  8
PV0001_1
 62
     3
370
    -2
100
AcDbLine
 10
27.01954650878906
 20
24.98280334472402
 30
0.0
 11
-25.86740875244094
 21
24.98280334472404
 31
0.0
  0
LINE
  5
ABDA
330
A832
100
AcDbEntity
  8
PV0001_1
 62
     3
370
    -2
100
AcDbLine
 10
0.000000000000002
 20
0.0000000000000001
 30
0.0
 11
-25.86740875244095
 21
0.0000000000000074
 31
0.0
  0
LINE
  5
ABDB
330
A832
100
AcDbEntity
  8
PV0001_1
 62
     3
370
    -2
100
AcDbLine
 10
-24.86740875244095
 20
22.48280334472404
 30
0.0
 11
-24.86740875244095
 21
2.500000000000007
 31
0.0
  0
INSERT
  5
ABDC
330
A832
100
AcDbEntity
  8
PV0001_1
 62
     3
370
    -2
100
AcDbBlockReference
  2
_OPEN30
 10
-24.86740875244094
 20
24.98280334472404
 30
0.0
 41
2.5
 42
2.5
 43
2.5
 50
90.0
  0
INSERT
  5
ABDD
330
A832
100
AcDbEntity
  8
PV0001_1
 62
     3
370
    -2
100
AcDbBlockReference
  2
_OPEN30
 10
-24.86740875244095
 20
0.0000000000000071
 30
0.0
 41
2.5
 42
2.5
 43
2.5
 50
270.0
  0
MTEXT
  5
ABDE
330
A832
100
AcDbEntity
  8
PV0001_1
 62
     2
100
AcDbMText
 10
-28.26778276818898
 20
12.741401672354
 30
0.0
 40
3.799999999999998
 41
0.0
 71
     5
 72
     1
  1
25
 11
0.0000000000000001
 21
1.0
 31
0.0
 73
     1
 44
1.0
1001
ACAD
1000
MTEXTBEGIN
1070
    73
1070
     1
1070
    44
1040
1.0
1070
    74
1070
     0
1000
MTEXTEND
  0
POINT
  5
ABDF
330
A832
100
AcDbEntity
  8
DEFPOINTS
 62
     0
100
AcDbPoint
 10
27.01954650878906
 20
24.98280334472402
 30
0.0
  0
POINT
  5
ABE0
330
A832
100
AcDbEntity
  8
DEFPOINTS
 62
     0
100
AcDbPoint
 10
0.000000000000002
 20
0.0000000000000001
 30
0.0
  0
POINT
  5
ABE1
330
A832
100
AcDbEntity
  8
DEFPOINTS
 62
     0
100
AcDbPoint
 10
-24.86740875244095
 20
0.0000000000000071
 30
0.0
  0
ENDBLK
  5
A83D
330
A832
100
AcDbEntity
  8
0
100
AcDbBlockEnd
  0
BLOCK
  5
A974
330
A96A
100
AcDbEntity
  8
0
100
AcDbBlockBegin
  2
*D9
 70
     1
 10
0.0
 20
0.0
 30
0.0
  3
*D9
  1

  0
LINE
  5
ABE2
330
A96A
100
AcDbEntity
  8
AM_5
 62
     3
370
    -2
100
AcDbLine
 10
149.999999999999
 20
-85.53081709045425
 30
0.0
 11
169.9145714225142
 21
-85.53081709045427
 31
0.0
  0
LINE
  5
ABE3
330
A96A
100
AcDbEntity
  8
AM_5
 62
     3
370
    -2
100
AcDbLine
 10
149.999999999999
 20
-60.53081518310525
 30
0.0
 11
169.9145714225142
 21
-60.53081518310525
 31
0.0
  0
LINE
  5
ABE4
330
A96A
100
AcDbEntity
  8
AM_5
 62
     3
370
    -2
100
AcDbLine
 10
168.9145714225142
 20
-83.03081709045427
 30
0.0
 11
168.9145714225142
 21
-63.03081518310525
 31
0.0
  0
INSERT
  5
ABE5
330
A96A
100
AcDbEntity
  8
AM_5
 62
     3
370
    -2
100
AcDbBlockReference
  2
_OPEN30
 10
168.9145714225142
 20
-85.53081709045427
 30
0.0
 41
2.5
 42
2.5
 43
2.5
 50
270.0
  0
INSERT
  5
ABE6
330
A96A
100
AcDbEntity
  8
AM_5
 62
     3
370
    -2
100
AcDbBlockReference
  2
_OPEN30
 10
168.9145714225142
 20
-60.53081518310525
 30
0.0
 41
2.5
 42
2.5
 43
2.5
 50
90.0
  0
MTEXT
  5
ABE7
330
A96A
100
AcDbEntity
  8
AM_5
 62
     2
100
AcDbMText
 10
165.5141974067661
 20
-73.03081613677973
 30
0.0
 40
3.799999999999998
 41
0.0
 71
     5
 72
     1
  1
25
 11
0.0000000000000001
 21
1.0
 31
0.0
 73
     1
 44
1.0
1001
ACAD
1000
MTEXTBEGIN
1070
    73
1070
     1
1070
    44
1040
1.0
1070
    74
1070
     0
1000
MTEXTEND
  0
POINT
  5
ABE8
330
A96A
100
AcDbEntity
  8
DEFPOINTS
 62
     0
100
AcDbPoint
 10
149.999999999999
 20
-85.53081709045425
 30
0.0
  0
POINT
  5
ABE9
330
A96A
100
AcDbEntity
  8
DEFPOINTS
 62
     0
100
AcDbPoint
 10
149.999999999999
 20
-60.53081518310525
 30
0.0
  0
POINT
  5
ABEA
330
A96A
100
AcDbEntity
  8
DEFPOINTS
 62
     0
100
AcDbPoint
 10
168.9145714225142
 20
-60.53081518310525
 30
0.0
  0
ENDBLK
  5
A975
330
A96A
100
AcDbEntity
  8
0
100
AcDbBlockEnd
  0
BLOCK
  5
A981
330
A977
100
AcDbEntity
  8
0
100
AcDbBlockBegin
  2
*D10
 70
     1
 10
0.0
 20
0.0
 30
0.0
  3
*D10
  1

  0
LINE
  5
ABEB
330
A977
100
AcDbEntity
  8
AM_5
 62
     3
370
    -2
100
AcDbLine
 10
149.999999999999
 20
-0.0171966552730296
 30
0.0
 11
169.54108459959
 21
-0.0171966552730351
 31
0.0
  0
LINE
  5
ABEC
330
A977
100
AcDbEntity
  8
AM_5
 62
     3
370
    -2
100
AcDbLine
 10
149.999999999999
 20
24.98280334472397
 30
0.0
 11
169.54108459959
 21
24.98280334472396
 31
0.0
  0
LINE
  5
ABED
330
A977
100
AcDbEntity
  8
AM_5
 62
     3
370
    -2
100
AcDbLine
 10
168.54108459959
 20
2.482803344726965
 30
0.0
 11
168.54108459959
 21
22.48280334472396
 31
0.0
  0
INSERT
  5
ABEE
330
A977
100
AcDbEntity
  8
AM_5
 62
     3
370
    -2
100
AcDbBlockReference
  2
_OPEN30
 10
168.54108459959
 20
-0.0171966552730348
 30
0.0
 41
2.5
 42
2.5
 43
2.5
 50
270.0
  0
INSERT
  5
ABEF
330
A977
100
AcDbEntity
  8
AM_5
 62
     3
370
    -2
100
AcDbBlockReference
  2
_OPEN30
 10
168.54108459959
 20
24.98280334472396
 30
0.0
 41
2.5
 42
2.5
 43
2.5
 50
90.0
  0
MTEXT
  5
ABF0
330
A977
100
AcDbEntity
  8
AM_5
 62
     2
100
AcDbMText
 10
165.1407105838419
 20
12.48280334472549
 30
0.0
 40
3.799999999999998
 41
0.0
 71
     5
 72
     1
  1
25
 11
0.0000000000000001
 21
1.0
 31
0.0
 73
     1
 44
1.0
1001
ACAD
1000
MTEXTBEGIN
1070
    73
1070
     1
1070
    44
1040
1.0
1070
    74
1070
     0
1000
MTEXTEND
  0
POINT
  5
ABF1
330
A977
100
AcDbEntity
  8
DEFPOINTS
 62
     0
100
AcDbPoint
 10
149.999999999999
 20
-0.0171966552730296
 30
0.0
  0
POINT
  5
ABF2
330
A977
100
AcDbEntity
  8
DEFPOINTS
 62
     0
100
AcDbPoint
 10
149.999999999999
 20
24.98280334472397
 30
0.0
  0
POINT
  5
ABF3
330
A977
100
AcDbEntity
  8
DEFPOINTS
 62
     0
100
AcDbPoint
 10
168.54108459959
 20
24.98280334472396
 30
0.0
  0
ENDBLK
  5
A982
330
A977
100
AcDbEntity
  8
0
100
AcDbBlockEnd
  0
BLOCK
  5
AA7D
330
AA73
100
AcDbEntity
  8
0
100
AcDbBlockBegin
  2
*D11
 70
     1
 10
0.0
 20
0.0
 30
0.0
  3
*D11
  1

  0
LINE
  5
ABF4
330
AA73
100
AcDbEntity
  8
AM_11
370
    -2
100
AcDbLine
 10
-27.81900892433037
 20
-83.60795769244008
 30
0.0
 11
-36.91900892433037
 21
-83.60795769244008
 31
0.0
  0
LINE
  5
ABF5
330
AA73
100
AcDbEntity
  8
AM_11
370
    -2
100
AcDbLine
 10
-36.91900892433037
 20
-83.60795769244008
 30
0.0
 11
-41.00806027528409
 21
-77.95311080083684
 31
0.0
  0
LINE
  5
ABF6
330
AA73
100
AcDbEntity
  8
AM_11
370
    -2
100
AcDbLine
 10
-66.20437868955784
 20
-43.1085195653735
 30
0.0
 11
-67.66928092294584
 21
-41.08267123773027
 31
0.0
  0
MTEXT
  5
ABF7
330
AA73
100
AcDbEntity
  8
AM_11
 62
     2
100
AcDbMText
 10
-31.61900892433038
 20
-80.20795769244008
 30
0.0
 40
3.799999999999998
 41
0.0
 71
     5
 72
     1
  1
\U+220538
 73
     1
 44
1.0
1001
ACAD
1000
MTEXTBEGIN
1070
    73
1070
     1
1070
    44
1040
1.0
1070
    74
1070
     0
1000
MTEXTEND
  0
LINE
  5
ABF8
330
AA73
100
AcDbEntity
  8
AM_11
370
    -2
100
AcDbLine
 10
-64.73947645616982
 20
-45.13436789301671
 30
0.0
 11
-42.4729625086721
 21
-75.92726247319362
 31
0.0
  0
INSERT
  5
ABF9
330
AA73
100
AcDbEntity
  8
AM_11
370
    -2
100
AcDbBlockReference
  2
_OPEN30
 10
-64.73947645616982
 20
-45.13436789301671
 30
0.0
 41
2.5
 42
2.5
 43
2.5
 50
305.8709017631783
  0
INSERT
  5
ABFA
330
AA73
100
AcDbEntity
  8
AM_11
370
    -2
100
AcDbBlockReference
  2
_OPEN30
 10
-42.4729625086721
 20
-75.92726247319362
 30
0.0
 41
2.5
 42
2.5
 43
2.5
 50
125.8709017631783
  0
POINT
  5
ABFB
330
AA73
100
AcDbEntity
  8
DEFPOINTS
 62
     0
100
AcDbPoint
 10
-42.4729625086721
 20
-75.92726247319362
 30
0.0
  0
POINT
  5
ABFC
330
AA73
100
AcDbEntity
  8
DEFPOINTS
 62
     0
100
AcDbPoint
 10
-64.73947645616982
 20
-45.13436789301671
 30
0.0
  0
ENDBLK
  5
AA7E
330
AA73
100
AcDbEntity
  8
0
100
AcDbBlockEnd
  0
ENDSEC
  0
SECTION
  2
ENTITIES
  0
TEXT
  5
83BD
330
1F
100
AcDbEntity
  8
AM_6
100
AcDbText
 10
47.84465954871344
 20
-102.8174699141637
 30
0.0
 40
5.0
  1
GMFNR2525-32-38
 72
     4
 11
75.21521781047185
 21
-100.3174699141637
 31
0.0
100
AcDbText
  0
LINE
  5
A6E6
330
1F
100
AcDbEntity
  8
AM_0
100
AcDbLine
 10
19.68499374389704
 20
-85.5308170904542
 30
0.0
 11
149.999999999999
 21
-85.53081709045425
 31
0.0
  0
LINE
  5
A6E7
330
1F
100
AcDbEntity
  8
AM_0
100
AcDbLine
 10
43.48479270935103
 20
-60.53081518310522
 30
0.0
 11
149.999999999999
 21
-60.53081518310525
 31
0.0
  0
LINE
  5
A6E8
330
1F
100
AcDbEntity
  8
AM_0
100
AcDbLine
 10
26.78639263692741
 20
24.98280334472401
 30
0.0
 11
149.999999999999
 21
24.98280334472397
 31
0.0
  0
LINE
  5
A6E9
330
1F
100
AcDbEntity
  8
AM_0
100
AcDbLine
 10
43.48479270935103
 20
-0.0171966552730023
 30
0.0
 11
149.999999999999
 21
-0.0171966552730296
 31
0.0
  0
DIMENSION
  5
A6EA
330
1F
100
AcDbEntity
  8
PV0001_1
100
AcDbDimension
  2
*D5
 10
149.999999999999
 20
-19.353767395019
 30
0.0
 11
74.99999999999909
 21
-19.353767395019
 31
0.0
 70
   160
  1
<>
 71
     5
 42
149.999999999999
  3
AM_JIS$0
100
AcDbAlignedDimension
 13
0.0000000000000001
 23
0.25
 33
0.0
 14
149.999999999999
 24
0.4828033447269706
 34
0.0
100
AcDbRotatedDimension
1001
ACAD
1000
DSTYLE
1002
{
1070
   284
1070
     8
1070
   271
1070
     0
1070
    45
1040
0.1
1070
   173
1070
     1
1070
     6
1000
OPEN30
1070
     7
1000
OPEN30
1002
}
  0
ARC
  5
A6EE
330
1F
100
AcDbEntity
  8
AM_0
 48
0.5
100
AcDbCircle
 10
-47.236221313471
 20
-60.5308151831052
 30
0.0
 40
25.247600555419
100
AcDbArc
 50
187.7569053221012
 51
229.1618943329142
  0
LINE
  5
A6F1
330
1F
100
AcDbEntity
  8
AM_7
 48
0.5
100
AcDbLine
 10
-30.38829747145265
 20
-60.5308151831052
 30
0.0
 11
-71.78848571777097
 21
-60.5308151831052
 31
0.0
  0
LINE
  5
A6F2
330
1F
100
AcDbEntity
  8
AM_0
 48
0.5
100
AcDbLine
 10
-73.90621948242096
 20
-80.86149221557617
 30
0.0
 11
-63.74623107910101
 21
-80.86149221557617
 31
0.0
  0
LINE
  5
A6F3
330
1F
100
AcDbEntity
  8
AM_7
 48
0.5
100
AcDbLine
 10
-82.72012329101096
 20
-71.46349340576216
 30
0.0
 11
-67.22967529296103
 21
-71.46349340576216
 31
0.0
  0
LINE
  5
A6F5
330
1F
100
AcDbEntity
  8
AM_0
 48
0.5
100
AcDbLine
 10
-94.71522521972101
 20
-60.53081518310519
 30
0.0
 11
-94.71522521972101
 21
-85.5308170904542
 31
0.0
  0
LINE
  5
A6F6
330
1F
100
AcDbEntity
  8
AM_7
 48
0.5
100
AcDbLine
 10
-80.89122009277094
 20
-47.4962006201172
 30
0.0
 11
-80.89122009277096
 21
-68.96302801269517
 31
0.0
  0
LINE
  5
A6F7
330
1F
100
AcDbEntity
  8
AM_7
 48
0.5
100
AcDbLine
 10
-70.93441772460096
 20
-59.0074043859862
 30
0.0
 11
-70.93441772460096
 21
-80.58184820312517
 31
0.0
  0
LINE
  5
A6F8
330
1F
100
AcDbEntity
  8
AM_0
 48
0.5
100
AcDbLine
 10
-73.90621948242096
 20
-63.3354912390142
 30
0.0
 11
-73.90621948242096
 21
-68.4408913244632
 31
0.0
  0
LINE
  5
A6F9
330
1F
100
AcDbEntity
  8
AM_0
 48
0.5
100
AcDbLine
 10
-78.98622131347099
 20
-61.93849187988321
 30
0.0
 11
-78.98622131347099
 21
-85.5308170904542
 31
0.0
  0
LINE
  5
A6FA
330
1F
100
AcDbEntity
  8
AM_0
 48
0.5
100
AcDbLine
 10
-73.90621948242096
 20
-61.93849187988321
 30
0.0
 11
-73.90621948242096
 21
-68.2884903540042
 31
0.0
  0
LINE
  5
A6FB
330
1F
100
AcDbEntity
  8
AM_0
 48
0.5
100
AcDbLine
 10
-94.71522521972101
 20
-85.5308170904542
 30
0.0
 11
-69.71522521972101
 21
-85.5308170904542
 31
0.0
  0
LINE
  5
A6FC
330
1F
100
AcDbEntity
  8
AM_0
 48
0.5
100
AcDbLine
 10
-73.90621948242096
 20
-74.63849264282218
 30
0.0
 11
-73.90621948242096
 21
-80.86149221557617
 31
0.0
  0
LINE
  5
A6FD
330
1F
100
AcDbEntity
  8
AM_0
 48
0.5
100
AcDbLine
 10
-73.90621948242096
 20
-74.63849264282218
 30
0.0
 11
-73.90621948242096
 21
-85.5308170904542
 31
0.0
  0
LINE
  5
A6FE
330
1F
100
AcDbEntity
  8
AM_0
 48
0.5
100
AcDbLine
 10
-69.71522521972101
 20
-80.86149221557617
 30
0.0
 11
-69.71522521972101
 21
-85.5308170904542
 31
0.0
  0
LINE
  5
A6FF
330
1F
100
AcDbEntity
  8
AM_0
 48
0.5
100
AcDbLine
 10
-75.93821716308095
 20
-68.4408913244632
 30
0.0
 11
-73.90621948242096
 21
-68.4408913244632
 31
0.0
  0
LINE
  5
A700
330
1F
100
AcDbEntity
  8
AM_0
 48
0.5
100
AcDbLine
 10
-75.93821716308095
 20
-74.63849264282218
 30
0.0
 11
-73.90621948242096
 21
-74.63849264282218
 31
0.0
  0
LINE
  5
A701
330
1F
100
AcDbEntity
  8
AM_0
 48
0.5
100
AcDbLine
 10
-76.70022583007096
 20
-68.2884903540042
 30
0.0
 11
-73.90621948242096
 21
-68.2884903540042
 31
0.0
  0
LINE
  5
A702
330
1F
100
AcDbEntity
  8
AM_0
 48
0.5
100
AcDbLine
 10
-75.93821716308095
 20
-68.4408913244632
 30
0.0
 11
-75.93821716308095
 21
-74.63849264282218
 31
0.0
  0
LINE
  5
A703
330
1F
100
AcDbEntity
  8
AM_0
 48
0.5
100
AcDbLine
 10
-76.70022583007096
 20
-68.2884903540042
 30
0.0
 11
-76.70022583007096
 21
-74.63849264282218
 31
0.0
  0
LINE
  5
A706
330
1F
100
AcDbEntity
  8
AM_0
 48
0.5
100
AcDbLine
 10
-76.70022583007096
 20
-74.63849264282218
 30
0.0
 11
-75.93821716308095
 21
-74.63849264282218
 31
0.0
  0
LINE
  5
A709
330
1F
100
AcDbEntity
  8
AM_0
 48
0.5
100
AcDbLine
 10
-85.89122009277094
 20
-50.90129476684619
 30
0.0
 11
-75.89122009277094
 21
-50.90129476684619
 31
0.0
  0
LINE
  5
A70A
330
1F
100
AcDbEntity
  8
AM_0
 48
0.5
100
AcDbLine
 10
-85.39122009277093
 20
-50.40129476684619
 30
0.0
 11
-76.39122009277094
 21
-50.40129476684619
 31
0.0
  0
LINE
  5
A70B
330
1F
100
AcDbEntity
  8
AM_0
 48
0.5
100
AcDbLine
 10
-88.63821411132096
 20
-61.9384918798832
 30
0.0
 11
-72.234573364251
 21
-61.93849187988321
 31
0.0
  0
LINE
  5
A70C
330
1F
100
AcDbEntity
  8
AM_0
 48
0.5
100
AcDbLine
 10
-91.68621826171101
 20
-55.53769689697317
 30
0.0
 11
-71.41168212890102
 21
-55.5376968969732
 31
0.0
  0
LINE
  5
A70D
330
1F
100
AcDbEntity
  8
AM_0
 48
0.5
100
AcDbLine
 10
-88.63821411132096
 20
-60.9224930395512
 30
0.0
 11
-73.39820861816099
 21
-60.92249303955121
 31
0.0
  0
LINE
  5
A70E
330
1F
100
AcDbEntity
  8
AM_0
 48
0.5
100
AcDbLine
 10
-90.16221618652094
 20
-54.01369482177718
 30
0.0
 11
-70.04541015624091
 21
-54.01369482177719
 31
0.0
  0
LINE
  5
A70F
330
1F
100
AcDbEntity
  8
AM_0
 48
0.5
100
AcDbLine
 10
-85.89122009277094
 20
-50.90129476684619
 30
0.0
 11
-85.89122009277094
 21
-54.01369482177719
 31
0.0
  0
LINE
  5
A710
330
1F
100
AcDbEntity
  8
AM_0
 48
0.5
100
AcDbLine
 10
-94.71522521972101
 20
-60.53081518310519
 30
0.0
 11
-91.68621826171102
 21
-60.53081518310519
 31
0.0
  0
LINE
  5
A711
330
1F
100
AcDbEntity
  8
AM_0
 48
0.5
100
AcDbLine
 10
-94.71522521972101
 20
-61.9384918798832
 30
0.0
 11
-91.68621826171102
 21
-61.9384918798832
 31
0.0
  0
LINE
  5
A712
330
1F
100
AcDbEntity
  8
AM_0
 48
0.5
100
AcDbLine
 10
-91.68621826171101
 20
-55.53769689697317
 30
0.0
 11
-91.68621826171102
 21
-63.58949285644519
 31
0.0
  0
LINE
  5
A713
330
1F
100
AcDbEntity
  8
AM_0
 48
0.5
100
AcDbLine
 10
-91.68621826171102
 20
-63.58949285644519
 30
0.0
 11
-88.63821411132096
 21
-63.58949285644519
 31
0.0
  0
LINE
  5
A714
330
1F
100
AcDbEntity
  8
AM_0
 48
0.5
100
AcDbLine
 10
-91.68621826171102
 20
-63.23389440673818
 30
0.0
 11
-88.63821411132096
 21
-63.23389440673818
 31
0.0
  0
LINE
  5
A715
330
1F
100
AcDbEntity
  8
AM_0
 48
0.5
100
AcDbLine
 10
-88.63821411132096
 20
-60.9224930395512
 30
0.0
 11
-88.63821411132096
 21
-63.58949285644519
 31
0.0
  0
LINE
  5
A716
330
1F
100
AcDbEntity
  8
AM_0
 48
0.5
100
AcDbLine
 10
-91.68621826171102
 20
-63.71649175781219
 30
0.0
 11
-88.56201171874092
 21
-63.71649175781219
 31
0.0
  0
LINE
  5
A717
330
1F
100
AcDbEntity
  8
AM_0
 48
0.5
100
AcDbLine
 10
-88.56201171874092
 20
-61.9384918798832
 30
0.0
 11
-88.56201171874092
 21
-63.71649175781219
 31
0.0
  0
LINE
  5
A718
330
1F
100
AcDbEntity
  8
PV0001_1
  6
Continuous
 48
0.5
100
AcDbLine
 10
-91.68621826171102
 20
-61.9384918798832
 30
0.0
 11
-91.68621826171102
 21
-63.71649175781219
 31
0.0
  0
LINE
  5
A719
330
1F
100
AcDbEntity
  8
AM_0
 48
0.5
100
AcDbLine
 10
-91.68621826171101
 20
-55.53768926757819
 30
0.0
 11
-90.16221618652094
 21
-54.01369100708016
 31
0.0
  0
LINE
  5
A71A
330
1F
100
AcDbEntity
  8
AM_0
 48
0.5
100
AcDbLine
 10
-85.39122009277093
 20
-50.40129476684619
 30
0.0
 11
-85.89122009277094
 21
-50.90129476684619
 31
0.0
  0
LINE
  5
A71B
330
1F
100
AcDbEntity
  8
AM_0
 48
0.5
100
AcDbLine
 10
-75.89122009277094
 20
-50.90129476684619
 30
0.0
 11
-75.89122009277094
 21
-54.01369482177719
 31
0.0
  0
LINE
  5
A71C
330
1F
100
AcDbEntity
  8
AM_0
 48
0.5
100
AcDbLine
 10
-78.98622131347098
 20
-55.53769689697318
 30
0.0
 11
-78.98622131347099
 21
-60.92249303955121
 31
0.0
  0
LINE
  5
A71D
330
1F
100
AcDbEntity
  8
AM_0
 48
0.5
100
AcDbLine
 10
-79.53779602050099
 20
-54.01369863647419
 30
0.0
 11
-78.98622131347098
 21
-55.53770071167019
 31
0.0
  0
LINE
  5
A71E
330
1F
100
AcDbEntity
  8
AM_0
 48
0.5
100
AcDbLine
 10
-71.41169738769097
 20
-55.5376892675782
 30
0.0
 11
-72.204421997061
 21
-60.0334892858892
 31
0.0
  0
LINE
  5
A71F
330
1F
100
AcDbEntity
  8
AM_0
 48
0.5
100
AcDbLine
 10
-70.04541015624091
 20
-54.01369482177719
 30
0.0
 11
-70.04541015624091
 21
-60.5308151831052
 31
0.0
  0
LINE
  5
A720
330
1F
100
AcDbEntity
  8
AM_0
 48
0.5
100
AcDbLine
 10
-72.407424926751
 20
-60.5308151831052
 30
0.0
 11
-69.23240661621093
 21
-60.5308151831052
 31
0.0
  0
LINE
  5
A721
330
1F
100
AcDbEntity
  8
AM_0
 48
0.5
100
AcDbLine
 10
-72.12821960449095
 20
-61.03881460327118
 30
0.0
 11
-69.48661804199095
 21
-61.03881460327118
 31
0.0
  0
LINE
  5
A722
330
1F
100
AcDbEntity
  8
AM_0
 48
0.5
100
AcDbLine
 10
-72.14669775827137
 20
-63.9384926428222
 30
0.0
 11
-71.042190551751
 21
-65.0430069555662
 31
0.0
  0
LINE
  5
A724
330
1F
100
AcDbEntity
  8
AM_0
 48
0.5
100
AcDbLine
 10
-72.12821960449095
 20
-61.03881460327118
 30
0.0
 11
-72.12821960449095
 21
-62.8046913732912
 31
0.0
  0
LINE
  5
A725
330
1F
100
AcDbEntity
  8
AM_0
 48
0.5
100
AcDbLine
 10
-72.407424926751
 20
-60.5308151831052
 30
0.0
 11
-71.96693420410099
 21
-64.11826330322317
 31
0.0
  0
LINE
  5
A726
330
1F
100
AcDbEntity
  8
AM_0
 48
0.5
100
AcDbLine
 10
-72.20440673828102
 20
-60.0334931005862
 30
0.0
 11
-72.20440673828102
 21
-60.5308151831052
 31
0.0
  0
LINE
  5
A727
330
1F
100
AcDbEntity
  8
AM_0
 48
0.5
100
AcDbLine
 10
-73.39820861816099
 20
-60.92249303955121
 30
0.0
 11
-73.39820861816099
 21
-61.93849187988321
 31
0.0
  0
ARC
  5
A72A
330
1F
100
AcDbEntity
  8
PV0001_1
  6
Continuous
 62
     3
 48
0.5
100
AcDbCircle
 10
-70.93441772460096
 20
-64.93525320190419
 30
0.0
 40
0.1524000018835
100
AcDbArc
 50
224.9999996583768
 51
314.9999987477648
  0
LINE
  5
A72C
330
1F
100
AcDbEntity
  8
AM_0
 48
0.5
100
AcDbLine
 10
-69.48661804199095
 20
-61.03881460327118
 30
0.0
 11
-69.48661804199095
 21
-62.60120397705119
 31
0.0
  0
LINE
  5
A72D
330
1F
100
AcDbEntity
  8
AM_0
 48
0.5
100
AcDbLine
 10
-69.23240661621093
 20
-60.5308189978032
 30
0.0
 11
-69.640823364251
 21
-63.85718542236321
 31
0.0
  0
LINE
  5
A72E
330
1F
100
AcDbEntity
  8
AM_0
 48
0.5
100
AcDbLine
 10
-71.10937499999092
 20
-64.97581487793017
 30
0.0
 11
-70.75946044921103
 21
-64.97581487793017
 31
0.0
  0
LINE
  5
A72F
330
1F
100
AcDbEntity
  8
AM_0
 48
0.5
100
AcDbLine
 10
-70.82666015624091
 20
-65.04301839965816
 30
0.0
 11
-69.640823364251
 21
-63.85718160766621
 31
0.0
  0
LINE
  5
A730
330
1F
100
AcDbEntity
  8
AM_0
 48
0.5
100
AcDbLine
 10
-76.39122009277094
 20
-50.40129476684619
 30
0.0
 11
-75.89122009277094
 21
-50.90129476684619
 31
0.0
  0
LINE
  5
A733
330
1F
100
AcDbEntity
  8
AM_7
 48
0.5
100
AcDbLine
 10
24.43479156494106
 20
7.706794738764
 30
0.0
 11
24.43479156494106
 21
-5.035614232393756
 31
0.0
  0
LINE
  5
A734
330
1F
100
AcDbEntity
  8
AM_7
 48
0.5
100
AcDbLine
 10
37.76979255676303
 20
7.706794738763998
 30
0.0
 11
37.76979255676303
 21
-5.171149760302117
 31
0.0
  0
LINE
  5
A735
330
1F
100
AcDbEntity
  8
AM_0
 48
0.5
100
AcDbLine
 10
0.6095924377440271
 20
0.0124053955080114
 30
0.0
 11
0.6095924377440264
 21
-5.486198425292997
 31
0.0
  0
DIMENSION
  5
A736
330
1F
100
AcDbEntity
  8
PV0001_1
100
AcDbDimension
  2
*D6
 10
-12.94717407226596
 20
0.0000000000000037
 30
0.0
 11
-12.94717407226596
 21
-15.59258452185983
 31
0.0
 70
   160
  1
<>
 71
     5
 42
3.199999463864002
  3
AM_JIS$0
100
AcDbAlignedDimension
 13
0.0000000000000004
 23
3.199999463864002
 33
0.0
 14
0.0
 24
0.0
 34
0.0
 50
89.99999999999998
100
AcDbRotatedDimension
1001
ACAD
1000
DSTYLE
1002
{
1070
   271
1070
     1
1002
}
  0
LINE
  5
A738
330
1F
100
AcDbEntity
  8
AM_7
 48
0.5
100
AcDbLine
 10
-53.60621948242098
 20
-40.2016831030272
 30
0.0
 11
-53.60621948242098
 21
-81.91027441547952
 31
0.0
  0
LINE
  5
A739
330
1F
100
AcDbEntity
  8
AM_0
 48
0.5
100
AcDbLine
 10
-63.74623107910101
 20
-75.93665981598379
 30
0.0
 11
-63.74623107910101
 21
-80.86149221557617
 31
0.0
  0
ARC
  5
A73B
330
1F
100
AcDbEntity
  8
AM_0
 48
0.5
100
AcDbCircle
 10
37.26180076599097
 20
-52.41349035400421
 30
0.0
 40
12.699999809265
100
AcDbArc
 50
239.3165815927233
 51
269.9999974955182
  0
LINE
  5
A73C
330
1F
100
AcDbEntity
  8
AM_7
 48
0.5
100
AcDbLine
 10
29.99739837646507
 20
-49.35683828491222
 30
0.0
 11
29.99739837646507
 21
-68.08742147583021
 31
0.0
  0
LINE
  5
A73F
330
1F
100
AcDbEntity
  8
AM_0
 48
0.5
100
AcDbLine
 10
43.48479270935103
 20
-65.11349111694321
 30
0.0
 11
43.48479270935103
 21
-80.86149221557622
 31
0.0
  0
LINE
  5
A740
330
1F
100
AcDbEntity
  8
AM_0
 48
0.5
100
AcDbLine
 10
0.6095962524410574
 20
-63.71649175781222
 30
0.0
 11
0.6095962524410559
 21
-76.45272218014319
 31
0.0
  0
LINE
  5
A741
330
1F
100
AcDbEntity
  8
PV0001_1
  6
Continuous
 48
0.5
100
AcDbLine
 10
43.48479270935103
 20
-61.93849187988322
 30
0.0
 11
43.48479270935103
 21
-68.28849035400421
 31
0.0
  0
LINE
  5
A742
330
1F
100
AcDbEntity
  8
AM_7
 48
0.5
100
AcDbLine
 10
42.39260673523006
 20
-71.33649068969724
 30
0.0
 11
18.71980285644507
 21
-71.3364906896972
 31
0.0
  0
LINE
  5
A744
330
1F
100
AcDbEntity
  8
AM_0
 48
0.5
100
AcDbLine
 10
14.02079010009798
 20
-80.86149221557622
 30
0.0
 11
43.48479270935103
 21
-80.86149221557622
 31
0.0
  0
LINE
  5
A747
330
1F
100
AcDbEntity
  8
AM_0
 48
0.5
100
AcDbLine
 10
14.02079010009798
 20
-77.21471709631956
 30
0.0
 11
14.02079010009798
 21
-80.86149221557622
 31
0.0
  0
ARC
  5
A749
330
1F
100
AcDbEntity
  8
AM_0
 48
0.5
100
AcDbCircle
 10
13.25879669189497
 20
-77.2147232177402
 30
0.0
 40
0.7620000243187
100
AcDbArc
 50
0.0
 51
90.00000250448174
  0
LINE
  5
A74A
330
1F
100
AcDbEntity
  8
AM_0
 48
0.5
100
AcDbLine
 10
19.68499374389704
 20
-80.86149221557622
 30
0.0
 11
19.68499374389704
 21
-85.5308170904542
 31
0.0
  0
CIRCLE
  5
A74B
330
1F
100
AcDbEntity
  8
AM_0
 48
0.5
100
AcDbCircle
 10
24.43479919433605
 20
-71.33649068969724
 30
0.0
 40
2.903599977493298
  0
CIRCLE
  5
A74C
330
1F
100
AcDbEntity
  8
AM_0
 48
0.5
100
AcDbCircle
 10
24.43479919433605
 20
-71.33649068969724
 30
0.0
 40
3.2035999298096
  0
CIRCLE
  5
A74D
330
1F
100
AcDbEntity
  8
AM_0
 48
0.5
100
AcDbCircle
 10
24.43479919433605
 20
-71.33649068969724
 30
0.0
 40
3.403599977493298
  0
LINE
  5
A750
330
1F
100
AcDbEntity
  8
AM_7
 48
0.5
100
AcDbLine
 10
24.43479919433605
 20
-67.16976171630822
 30
0.0
 11
24.43479919433604
 21
-76.4329567541502
 31
0.0
  0
ARC
  5
A755
330
1F
100
AcDbEntity
  8
AM_0
 48
0.5
100
AcDbCircle
 10
45.08499336242708
 20
-71.46349340576222
 30
0.0
 40
3.174999952316299
100
AcDbArc
 50
269.9999974955182
 51
90.00000250448174
  0
LINE
  5
A756
330
1F
100
AcDbEntity
  8
AM_0
 48
0.5
100
AcDbLine
 10
43.48479270935103
 20
-74.63849264282224
 30
0.0
 11
43.48479270935103
 21
-85.5308170904542
 31
0.0
  0
CIRCLE
  5
A757
330
1F
100
AcDbEntity
  8
AM_0
 48
0.5
100
AcDbCircle
 10
37.76979637146006
 20
-71.33649068969724
 30
0.0
 40
3.2035999298096
  0
CIRCLE
  5
A758
330
1F
100
AcDbEntity
  8
AM_0
 48
0.5
100
AcDbCircle
 10
37.76979637146006
 20
-71.33649068969724
 30
0.0
 40
2.903599977493298
  0
CIRCLE
  5
A759
330
1F
100
AcDbEntity
  8
AM_0
 48
0.5
100
AcDbCircle
 10
37.76980400085506
 20
-71.33649068969724
 30
0.0
 40
3.403599977493298
  0
LINE
  5
A75D
330
1F
100
AcDbEntity
  8
AM_7
 48
0.5
100
AcDbLine
 10
37.76979637146006
 20
-66.78776174682622
 30
0.0
 11
37.76979637146006
 21
-75.81514364379922
 31
0.0
  0
LINE
  5
A761
330
1F
100
AcDbEntity
  8
AM_0
 48
0.5
100
AcDbLine
 10
43.48479270935103
 20
-74.63849264282224
 30
0.0
 11
45.08499336242708
 21
-74.63849264282224
 31
0.0
  0
LINE
  5
A762
330
1F
100
AcDbEntity
  8
AM_0
 48
0.5
100
AcDbLine
 10
43.48479270935103
 20
-68.28849035400421
 30
0.0
 11
45.08499336242708
 21
-68.28849035400421
 31
0.0
  0
LINE
  5
A763
330
1F
100
AcDbEntity
  8
PV0001_1
  6
Continuous
 48
0.5
100
AcDbLine
 10
24.99739456176803
 20
-50.90129095214821
 30
0.0
 11
34.99739456176803
 21
-50.90129095214821
 31
0.0
  0
LINE
  5
A764
330
1F
100
AcDbEntity
  8
PV0001_1
  6
Continuous
 48
0.5
100
AcDbLine
 10
25.49739456176803
 20
-50.40129095214822
 30
0.0
 11
34.49739456176803
 21
-50.40129095214822
 31
0.0
  0
LINE
  5
A767
330
1F
100
AcDbEntity
  8
AM_0
 48
0.5
100
AcDbLine
 10
19.49660491943403
 20
-61.81149297851622
 30
0.0
 11
38.73499107360803
 21
-61.81149297851622
 31
0.0
  0
LINE
  5
A768
330
1F
100
AcDbEntity
  8
AM_0
 48
0.5
100
AcDbLine
 10
22.43231677664483
 20
-54.01369100708024
 30
0.0
 11
41.96079063415503
 21
-54.01369100708023
 31
0.0
  0
LINE
  5
A769
330
1F
100
AcDbEntity
  8
AM_0
 48
0.5
100
AcDbLine
 10
19.80062103271506
 20
-63.33549123901422
 30
0.0
 11
30.78105926513705
 21
-63.33549123901422
 31
0.0
  0
LINE
  5
A76B
330
1F
100
AcDbEntity
  8
AM_0
100
AcDbLine
 10
0.6095924377440264
 20
-5.486198425292997
 30
0.0
 11
22.48479270935104
 21
-5.486198425292999
 31
0.0
  0
DIMENSION
  5
A76C
330
1F
100
AcDbEntity
  8
PV0001_1
100
AcDbDimension
  2
*D7
 10
-0.0000000000000059
 20
-36.95278567993243
 30
0.0
 11
22.66770172119105
 21
-36.95278567993243
 31
0.0
 70
   160
  1
<>
 71
     5
 42
43.48479270935103
  3
AM_JIS$0
100
AcDbAlignedDimension
 13
43.48479270935103
 23
-55.53769308227522
 33
0.0
 14
-0.0000000000000074
 24
-60.53081518310521
 34
0.0
100
AcDbRotatedDimension
1001
ACAD
1000
DSTYLE
1002
{
1070
   284
1070
     8
1070
   271
1070
     1
1070
    45
1040
0.01
1070
   173
1070
     1
1070
     6
1000
OPEN30
1070
     7
1000
OPEN30
1002
}
  0
ARC
  5
A76D
330
1F
100
AcDbEntity
  8
AM_0
 48
0.5
100
AcDbCircle
 10
13.96999359130904
 20
-61.67381459373451
 30
0.0
 40
0.6349999904633
100
AcDbArc
 50
0.0
 51
90.00000250448174
  0
LINE
  5
A76E
330
1F
100
AcDbEntity
  8
AM_0
 48
0.5
100
AcDbLine
 10
14.60500335693404
 20
-61.60081487793021
 30
0.0
 11
14.305000305176
 21
-61.60081487793021
 31
0.0
  0
LINE
  5
A771
330
1F
100
AcDbEntity
  8
AM_0
 48
0.5
100
AcDbLine
 10
7.366878509522045
 20
-61.03881841796821
 30
0.0
 11
22.43231677664483
 21
-54.01369100708024
 31
0.0
  0
LINE
  5
A772
330
1F
100
AcDbEntity
  8
AM_0
 48
0.5
100
AcDbLine
 10
0.6095962524410574
 20
-63.71649175781222
 30
0.0
 11
16.71318817138705
 21
-63.71649175781222
 31
0.0
  0
LINE
  5
A774
330
1F
100
AcDbEntity
  8
AM_0
 48
0.5
100
AcDbLine
 10
13.33159637451205
 20
-61.0388146032712
 30
0.0
 11
5.629882812499992
 21
-61.0388146032712
 31
0.0
  0
ARC
  5
A775
330
1F
100
AcDbEntity
  8
AM_0
 48
0.5
100
AcDbCircle
 10
1.999999999999993
 20
-52.65581518310521
 30
0.0
 40
8.125
100
AcDbArc
 50
255.7499689244494
 51
284.2500328967826
  0
LINE
  5
A776
330
1F
100
AcDbEntity
  8
PV0001_1
  6
Continuous
 62
   220
 48
0.5
100
AcDbLine
 10
0.6095962524410572
 20
-64.97581487793022
 30
0.0
 11
0.5457763671880606
 21
-64.97581487793022
 31
0.0
  0
LINE
  5
A777
330
1F
100
AcDbEntity
  8
AM_0
 48
0.5
100
AcDbLine
 10
0.0000038146970309
 20
-60.53081518310521
 30
0.0
 11
0.545780181884985
 21
-64.97581487793022
 31
0.0
  0
LINE
  5
A778
330
1F
100
AcDbEntity
  8
AM_0
 48
0.5
100
AcDbLine
 10
4.749999999999992
 20
-60.53081518310521
 30
0.0
 11
3.999999999999992
 21
-60.53081518310521
 31
0.0
  0
LINE
  5
A779
330
1F
100
AcDbEntity
  8
AM_0
 48
0.5
100
AcDbLine
 10
4.749999999999992
 20
-60.53081518310521
 30
0.0
 11
4.749999999999992
 21
-63.71649557251021
 31
0.0
  0
LINE
  5
A77A
330
1F
100
AcDbEntity
  8
AM_0
 48
0.5
100
AcDbLine
 10
5.629882812499992
 20
-61.0388146032712
 30
0.0
 11
4.749999999999992
 21
-60.53081518310521
 31
0.0
  0
LINE
  5
A77B
330
1F
100
AcDbEntity
  8
AM_0
 48
0.5
100
AcDbLine
 10
7.366874694823984
 20
-61.0388146032712
 30
0.0
 11
13.96999359130903
 21
-61.0388146032712
 31
0.0
  0
LINE
  5
A77C
330
1F
100
AcDbEntity
  8
AM_0
 48
0.5
100
AcDbLine
 10
14.305000305176
 20
-61.60081487793021
 30
0.0
 11
13.33158874511706
 21
-61.0388146032712
 31
0.0
  0
LINE
  5
A77D
330
1F
100
AcDbEntity
  8
PV0001_1
  6
Continuous
 48
0.5
100
AcDbLine
 10
24.99739456176803
 20
-50.90129095214821
 30
0.0
 11
24.99739456176803
 21
-54.01369100708022
 31
0.0
  0
ARC
  5
A780
330
1F
100
AcDbEntity
  8
AM_0
 48
0.5
100
AcDbCircle
 10
16.71318817138705
 20
-51.01649099487321
 30
0.0
 40
12.699999809265
100
AcDbArc
 50
269.9999974955182
 51
284.069866166855
  0
LINE
  5
A781
330
1F
100
AcDbEntity
  8
AM_0
 48
0.5
100
AcDbLine
 10
16.63698577880904
 20
-63.46249014038122
 30
0.0
 11
19.49660491943403
 21
-61.81148916381822
 31
0.0
  0
LINE
  5
A782
330
1F
100
AcDbEntity
  8
AM_0
 48
0.5
100
AcDbLine
 10
14.60500335693404
 20
-61.67381459373451
 30
0.0
 11
14.60500335693404
 21
-63.46249395507821
 31
0.0
  0
LINE
  5
A783
330
1F
100
AcDbEntity
  8
AM_0
 48
0.5
100
AcDbLine
 10
14.60500335693404
 20
-62.70049291748021
 30
0.0
 11
17.95682525634798
 21
-62.70049291748021
 31
0.0
  0
LINE
  5
A784
330
1F
100
AcDbEntity
  8
AM_0
 48
0.5
100
AcDbLine
 10
14.60500335693404
 20
-63.46249395507821
 30
0.0
 11
16.63700103759798
 21
-63.46249395507821
 31
0.0
  0
LINE
  5
A785
330
1F
100
AcDbEntity
  8
AM_0
 48
0.5
100
AcDbLine
 10
19.68499374389704
 20
-61.93849187988321
 30
0.0
 11
19.86280059814497
 21
-61.93849187988321
 31
0.0
  0
LINE
  5
A787
330
1F
100
AcDbEntity
  8
AM_0
 48
0.5
100
AcDbLine
 10
19.68499374389704
 20
-61.93849187988321
 30
0.0
 11
19.68499374389704
 21
-63.36389547485321
 31
0.0
  0
LINE
  5
A78A
330
1F
100
AcDbEntity
  8
AM_3
 48
0.5
100
AcDbLine
 10
27.63520050048805
 20
-63.23389059204121
 30
0.0
 11
27.63520050048805
 21
-63.33549123901422
 31
0.0
  0
LINE
  5
A78D
330
1F
100
AcDbEntity
  8
PV0001_1
  6
Continuous
 48
0.5
100
AcDbLine
 10
25.49739456176803
 20
-50.40129095214822
 30
0.0
 11
24.99739456176803
 21
-50.90129095214821
 31
0.0
  0
LINE
  5
A78F
330
1F
100
AcDbEntity
  8
PV0001_1
  6
Continuous
 48
0.5
100
AcDbLine
 10
34.99739456176803
 20
-50.90129095214821
 30
0.0
 11
34.99739456176803
 21
-54.01369100708023
 31
0.0
  0
LINE
  5
A790
330
1F
100
AcDbEntity
  8
AM_0
 48
0.5
100
AcDbLine
 10
38.73499107360803
 20
-65.11349111694321
 30
0.0
 11
43.48479270935103
 21
-65.11349111694321
 31
0.0
  0
LINE
  5
A791
330
1F
100
AcDbEntity
  8
AM_0
 48
0.5
100
AcDbLine
 10
37.26180076599097
 20
-65.11349111694321
 30
0.0
 11
43.48479270935103
 21
-65.11349111694321
 31
0.0
  0
LINE
  5
A798
330
1F
100
AcDbEntity
  8
AM_0
 48
0.5
100
AcDbLine
 10
38.73499107360803
 20
-61.81149297851622
 30
0.0
 11
38.73499107360803
 21
-65.11349111694321
 31
0.0
  0
LINE
  5
A79C
330
1F
100
AcDbEntity
  8
AM_0
 48
0.5
100
AcDbLine
 10
43.48479270935103
 20
-55.53769308227522
 30
0.0
 11
43.48479270935103
 21
-65.11349111694321
 31
0.0
  0
LINE
  5
A79D
330
1F
100
AcDbEntity
  8
AM_0
 48
0.5
100
AcDbLine
 10
41.96079444885298
 20
-54.01369100708023
 30
0.0
 11
43.48479843139704
 21
-55.53769308227522
 31
0.0
  0
LINE
  5
A79E
330
1F
100
AcDbEntity
  8
PV0001_1
  6
Continuous
 48
0.5
100
AcDbLine
 10
34.49739646911598
 20
-50.40129095214822
 30
0.0
 11
34.99739646911598
 21
-50.90129095214821
 31
0.0
  0
DIMENSION
  5
A79F
330
1F
100
AcDbEntity
  8
PV0001_1
100
AcDbDimension
  2
*D8
 10
-24.86740875244095
 20
0.0000000000000071
 30
0.0
 11
-24.86740875244095
 21
12.741401672354
 31
0.0
 70
   160
  1
<>
 71
     5
 42
24.98280334472403
  3
AM_JIS$0
100
AcDbAlignedDimension
 13
27.01954650878906
 23
24.98280334472402
 33
0.0
 14
0.000000000000002
 24
0.0000000000000001
 34
0.0
 50
89.99999999999998
100
AcDbRotatedDimension
1001
ACAD
1000
DSTYLE
1002
{
1070
    45
1040
0.1
1070
   173
1070
     1
1070
   271
1070
     6
1070
     6
1000
OPEN30
1070
     7
1000
OPEN30
1002
}
  0
CIRCLE
  5
A7A0
330
1F
100
AcDbEntity
  8
AM_0
 48
0.5
100
AcDbCircle
 10
29.99739456176803
 20
11.658798217774
 30
0.0
 40
4.5
  0
CIRCLE
  5
A7A1
330
1F
100
AcDbEntity
  8
AM_0
100
AcDbCircle
 10
29.99739456176803
 20
11.658798217774
 30
0.0
 40
5.0
  0
CIRCLE
  5
A7A2
330
1F
100
AcDbEntity
  8
AM_0
100
AcDbCircle
 10
29.99739456176803
 20
11.658798217774
 30
0.0
 40
5.1561999320984
  0
LINE
  5
A7A5
330
1F
100
AcDbEntity
  8
AM_0
 48
0.5
100
AcDbLine
 10
25.60709762573208
 20
22.45380401610399
 30
0.0
 11
49.48888683319303
 21
22.45380401610398
 31
0.0
  0
LINE
  5
A7A8
330
1F
100
AcDbEntity
  8
AM_0
 48
0.5
100
AcDbLine
 10
26.75579452514706
 20
20.92980194091398
 30
0.0
 11
35.61079406738304
 21
20.92980194091398
 31
0.0
  0
LINE
  5
A7A9
330
1F
100
AcDbEntity
  8
AM_0
 48
0.5
100
AcDbLine
 10
25.78490066528309
 20
22.45380401610399
 30
0.0
 11
37.13479232788108
 21
22.45380401610399
 31
0.0
  0
LINE
  5
A7AA
330
1F
100
AcDbEntity
  8
AM_0
100
AcDbLine
 10
7.366874694823991
 20
0.8130035400390045
 30
0.0
 11
43.48479270935103
 21
0.8130035400390001
 31
0.0
  0
LINE
  5
A7AC
330
1F
100
AcDbEntity
  8
AM_0
 48
0.5
100
AcDbLine
 10
16.71319580078102
 20
0.4744873046880096
 30
0.0
 11
30.78105926513706
 21
0.4744873046880079
 31
0.0
  0
LINE
  5
A7AE
330
1F
100
AcDbEntity
  8
AM_7
 48
0.5
100
AcDbLine
 10
24.26502227783203
 20
11.658798217774
 30
0.0
 11
37.75524520874
 21
11.65879821777399
 31
0.0
  0
LINE
  5
A7AF
330
1F
100
AcDbEntity
  8
AM_0
 48
0.5
100
AcDbLine
 10
26.75579833984409
 20
20.92980957030398
 30
0.0
 11
21.80155181884799
 21
10.30538940429399
 31
0.0
  0
LINE
  5
A7B0
330
1F
100
AcDbEntity
  8
AM_0
 48
0.5
100
AcDbLine
 10
25.78490066528309
 20
22.45380401610399
 30
0.0
 11
19.86279296875
 21
9.753807067864
 31
0.0
  0
LINE
  5
A7B1
330
1F
100
AcDbEntity
  8
AM_0
 48
0.5
100
AcDbLine
 10
26.78639263692741
 20
24.98280334472401
 30
0.0
 11
19.68499374389705
 21
9.753807067864
 31
0.0
  0
LINE
  5
A7B3
330
1F
100
AcDbEntity
  8
AM_0
 48
0.5
100
AcDbLine
 10
4.75
 20
0.2792205810549995
 30
0.0
 11
14.60500335693405
 21
0.2792205810549983
 31
0.0
  0
LINE
  5
A7B4
330
1F
100
AcDbEntity
  8
AM_0
 48
0.5
100
AcDbLine
 10
8.892047882080078
 20
2.972007751464004
 30
0.0
 11
19.86279678344703
 21
2.179275512694996
 31
0.0
  0
LINE
  5
A7B5
330
1F
100
AcDbEntity
  8
AM_0
 48
0.5
100
AcDbLine
 10
7.366874694823991
 20
2.972000122064001
 30
0.0
 11
19.86279296875
 21
2.972000122063999
 31
0.0
  0
LINE
  5
A7B6
330
1F
100
AcDbEntity
  8
AM_0
 48
0.5
100
AcDbLine
 10
14.02079391479503
 20
3.188720703124003
 30
0.0
 11
19.04999542236305
 21
3.188720703124002
 31
0.0
  0
LINE
  5
A7B8
330
1F
100
AcDbEntity
  8
AM_0
 48
0.5
100
AcDbLine
 10
4.75
 20
2.919219970694
 30
0.0
 11
7.366874694823991
 21
2.919219970694
 31
0.0
  0
LINE
  5
A7B9
330
1F
100
AcDbEntity
  8
AM_0
 48
0.5
100
AcDbLine
 10
4.75
 20
3.019981384274003
 30
0.0
 11
14.02079391479503
 21
3.019981384274002
 31
0.0
  0
LINE
  5
A7BA
330
1F
100
AcDbEntity
  8
AM_0
 48
0.5
100
AcDbLine
 10
4.75
 20
3.008989092505017
 30
0.0
 11
4.75
 21
0.1658615664955499
 31
0.0
  0
LINE
  5
A7BB
330
1F
100
AcDbEntity
  8
AM_0
 48
0.5
100
AcDbLine
 10
0.0000000000000004
 20
3.199999463864002
 30
0.0
 11
0.0
 21
0.0
 31
0.0
  0
LINE
  5
A7BC
330
1F
100
AcDbEntity
  8
AM_0
 48
0.5
100
AcDbLine
 10
0.0
 20
0.0
 30
0.0
 11
4.749941124462907
 21
0.1658703195210543
 31
0.0
  0
LINE
  5
A7BE
330
1F
100
AcDbEntity
  8
AM_0
 48
0.5
100
AcDbLine
 10
0.0000000000000004
 20
3.199999463864002
 30
0.0
 11
4.749684880620519
 21
3.034138092505023
 31
0.0
  0
LINE
  5
A7C0
330
1F
100
AcDbEntity
  8
AM_0
 48
0.5
100
AcDbLine
 10
7.366874694823991
 20
2.972000122064001
 30
0.0
 11
7.366874694823991
 21
0.8130035400390045
 31
0.0
  0
LINE
  5
A7C1
330
1F
100
AcDbEntity
  8
PV0001_1
  6
Continuous
 62
     3
 48
0.5
100
AcDbLine
 10
14.02079391479503
 20
3.188720703124003
 30
0.0
 11
14.02079391479503
 21
3.019981384274002
 31
0.0
  0
LINE
  5
A7C2
330
1F
100
AcDbEntity
  8
AM_0
 48
0.5
100
AcDbLine
 10
21.80154800415004
 20
10.30538940429399
 30
0.0
 11
21.80154800415004
 21
0.8130035400390028
 31
0.0
  0
LINE
  5
A7C3
330
1F
100
AcDbEntity
  8
AM_0
 48
0.5
100
AcDbLine
 10
19.86279296875
 20
9.753799438474002
 30
0.0
 11
19.86279296875
 21
2.179275512694996
 31
0.0
  0
LINE
  5
A7C4
330
1F
100
AcDbEntity
  8
AM_7
 48
0.5
100
AcDbLine
 10
29.99739456176804
 20
18.31120300292398
 30
0.0
 11
29.99739456176803
 21
4.673805236814001
 31
0.0
  0
LINE
  5
A7C5
330
1F
100
AcDbEntity
  8
AM_0
 48
0.5
100
AcDbLine
 10
19.68499374389705
 20
9.753799438474002
 30
0.0
 11
19.68499374389705
 21
4.673805236814001
 31
0.0
  0
LINE
  5
A7C7
330
1F
100
AcDbEntity
  8
AM_0
 48
0.5
100
AcDbLine
 10
14.60499572753906
 20
2.972000122064
 30
0.0
 11
14.60499572753906
 21
0.8130035400390037
 31
0.0
  0
LINE
  5
A7C9
330
1F
100
AcDbEntity
  8
AM_0
 48
0.5
100
AcDbLine
 10
14.60500335693405
 20
0.8130035400390037
 30
0.0
 11
14.60500335693405
 21
0.2792205810549983
 31
0.0
  0
LINE
  5
A7CA
330
1F
100
AcDbEntity
  8
PV0001_1
  6
Continuous
 48
0.5
100
AcDbLine
 10
16.71319580078102
 20
0.4744873046880096
 30
0.0
 11
16.71319580078102
 21
0.4377288818360066
 31
0.0
  0
LINE
  5
A7CB
330
1F
100
AcDbEntity
  8
AM_0
 48
0.5
100
AcDbLine
 10
14.60500335693405
 20
0.4377288818360069
 30
0.0
 11
16.71319580078102
 21
0.4377288818360066
 31
0.0
  0
ARC
  5
A7CC
330
1F
100
AcDbEntity
  8
AM_0
 48
0.5
100
AcDbCircle
 10
19.04999542236305
 20
3.950721740713999
 30
0.0
 40
0.7620000243187
100
AcDbArc
 50
269.9999974955182
 51
0.0
  0
LINE
  5
A7CD
330
1F
100
AcDbEntity
  8
AM_0
 48
0.5
100
AcDbLine
 10
19.81199264526401
 20
4.673805236814001
 30
0.0
 11
19.81199264526401
 21
3.950721740713999
 31
0.0
  0
LINE
  5
A7CE
330
1F
100
AcDbEntity
  8
AM_0
 48
0.5
100
AcDbLine
 10
19.81199264526401
 20
6.705802917474
 30
0.0
 11
19.81199264526401
 21
4.673805236814001
 31
0.0
  0
LINE
  5
A7CF
330
1F
100
AcDbEntity
  8
AM_0
 48
0.5
100
AcDbLine
 10
19.68499374389705
 20
4.673805236814001
 30
0.0
 11
19.86279296875
 21
4.673805236814001
 31
0.0
  0
LINE
  5
A7D1
330
1F
100
AcDbEntity
  8
AM_0
 48
0.5
100
AcDbLine
 10
19.86279296875
 20
9.753807067864
 30
0.0
 11
21.80154800415004
 21
10.30538940429399
 31
0.0
  0
LINE
  5
A7D5
330
1F
100
AcDbEntity
  8
AM_0
 48
0.5
100
AcDbLine
 10
25.78490066528309
 20
22.45380401610399
 30
0.0
 11
26.75579452514706
 21
20.92980194091398
 31
0.0
  0
LINE
  5
A7D6
330
1F
100
AcDbEntity
  8
PV0001_1
  6
Continuous
 48
0.5
100
AcDbLine
 10
24.15026092529308
 20
19.32960510253398
 30
0.0
 11
24.32806015014706
 21
19.32960510253398
 31
0.0
  0
LINE
  5
A7D8
330
1F
100
AcDbEntity
  8
AM_0
 48
0.5
100
AcDbLine
 10
43.48479270935103
 20
19.32960510253398
 30
0.0
 11
43.48479270935103
 21
4.673805236813999
 31
0.0
  0
LINE
  5
A7D9
330
1F
100
AcDbEntity
  8
AM_0
 48
0.5
100
AcDbLine
 10
35.61079406738304
 20
20.92980194091398
 30
0.0
 11
35.61079406738304
 21
4.165802001943997
 31
0.0
  0
LINE
  5
A7DA
330
1F
100
AcDbEntity
  8
AM_0
 48
0.5
100
AcDbLine
 10
37.13479232788108
 20
22.45380401610399
 30
0.0
 11
37.13479232788108
 21
4.165802001943997
 31
0.0
  0
LINE
  5
A7DB
330
1F
100
AcDbEntity
  8
AM_0
 48
0.5
100
AcDbLine
 10
37.13479232788108
 20
4.673805236814
 30
0.0
 11
43.48479270935103
 21
4.673805236813999
 31
0.0
  0
LINE
  5
A7DC
330
1F
100
AcDbEntity
  8
AM_0
 48
0.5
100
AcDbLine
 10
35.61079406738304
 20
4.165802001943997
 30
0.0
 11
43.48479270935103
 21
4.165802001943996
 31
0.0
  0
LINE
  5
A7DE
330
1F
100
AcDbEntity
  8
AM_0
 48
0.5
100
AcDbLine
 10
30.78105926513706
 20
0.2259216308590017
 30
0.0
 11
43.48479270935103
 21
0.2259216308590001
 31
0.0
  0
LINE
  5
A7DF
330
1F
100
AcDbEntity
  8
AM_0
 48
0.5
100
AcDbLine
 10
38.73499298095703
 20
4.165802001943997
 30
0.0
 11
38.73499298095703
 21
0.8130035400390006
 31
0.0
  0
LINE
  5
A7E1
330
1F
100
AcDbEntity
  8
AM_0
 48
0.5
100
AcDbLine
 10
30.78105926513706
 20
0.8130035400390017
 30
0.0
 11
30.78105926513706
 21
0.2259216308590017
 31
0.0
  0
LINE
  5
A7E2
330
1F
100
AcDbEntity
  8
AM_0
 48
0.5
100
AcDbLine
 10
41.96079254150403
 20
4.165802001943996
 30
0.0
 11
41.96079254150403
 21
0.8130035400390005
 31
0.0
  0
LINE
  5
A7E3
330
1F
100
AcDbEntity
  8
AM_0
 48
0.5
100
AcDbLine
 10
43.48479270935103
 20
4.165802001943996
 30
0.0
 11
43.48479270935103
 21
0.8130035400390001
 31
0.0
  0
LINE
  5
A7E4
330
1F
100
AcDbEntity
  8
AM_0
 48
0.5
100
AcDbLine
 10
43.48479270935103
 20
4.673805236813999
 30
0.0
 11
43.48479270935103
 21
0.4828033447269978
 31
0.0
  0
LINE
  5
A7E9
330
1F
100
AcDbEntity
  8
AM_0
 48
0.5
100
AcDbLine
 10
37.13479232788108
 20
19.32960510253398
 30
0.0
 11
49.48888683319303
 21
19.32960510253398
 31
0.0
  0
LINE
  5
A7EB
330
1F
100
AcDbEntity
  8
AM_0
 48
0.5
100
AcDbLine
 10
37.134790420532
 20
22.45380401610399
 30
0.0
 11
35.610790252686
 21
20.92980194091398
 31
0.0
  0
LINE
  5
A7EC
330
1F
100
AcDbEntity
  8
AM_0
 48
0.5
100
AcDbLine
 10
43.48479270935103
 20
24.98280334472402
 30
0.0
 11
43.48479270935103
 21
22.45380401610399
 31
0.0
  0
LINE
  5
A7F1
330
1F
100
AcDbEntity
  8
AM_0
 48
0.5
100
AcDbLine
 10
149.999999999999
 20
-60.53081518310525
 30
0.0
 11
149.999999999999
 21
-85.53081709045425
 31
0.0
  0
LINE
  5
A7F4
330
1F
100
AcDbEntity
  8
AM_0
 48
0.5
100
AcDbLine
 10
149.999999999999
 20
24.98280334472397
 30
0.0
 11
149.999999999999
 21
-0.0171966552730296
 31
0.0
  0
DIMENSION
  5
A969
330
1F
100
AcDbEntity
  8
AM_5
100
AcDbDimension
  2
*D9
 10
168.9145714225142
 20
-60.53081518310525
 30
0.0
 11
165.5141974067661
 21
-73.03081613677973
 31
0.0
 70
    32
 71
     5
 42
25.000001907349
  3
AM_JIS$0
100
AcDbAlignedDimension
 13
149.999999999999
 23
-85.53081709045425
 33
0.0
 14
149.999999999999
 24
-60.53081518310525
 34
0.0
 50
89.99999999999998
100
AcDbRotatedDimension
  0
DIMENSION
  5
A976
330
1F
100
AcDbEntity
  8
AM_5
100
AcDbDimension
  2
*D10
 10
168.54108459959
 20
24.98280334472396
 30
0.0
 11
165.1407105838419
 21
12.48280334472549
 31
0.0
 70
    32
 71
     5
 42
24.999999999997
  3
AM_JIS$0
100
AcDbAlignedDimension
 13
149.999999999999
 23
-0.0171966552730296
 33
0.0
 14
149.999999999999
 24
24.98280334472397
 34
0.0
 50
89.99999999999998
100
AcDbRotatedDimension
1001
ACAD
1000
DSTYLE
1002
{
1070
   271
1070
     6
1002
}
  0
ARC
  5
AA70
330
1F
100
AcDbEntity
  8
AM_0
 48
0.2
100
AcDbCircle
 10
-53.37835388183094
 20
-60.5308151831052
 30
0.0
 40
19.0
100
AcDbArc
 50
190.6195352769615
 51
236.9290093199997
  0
DIMENSION
  5
AA72
330
1F
100
AcDbEntity
  8
AM_11
100
AcDbDimension
  2
*D11
 10
-64.73947645616982
 20
-45.13436789301671
 30
0.0
 11
-31.61900892433038
 21
-83.6079576924401
 31
0.0
 70
   163
 71
     5
 42
37.99999999999999
  3
AM_JIS$3
100
AcDbDiametricDimension
 15
-42.4729625086721
 25
-75.92726247319362
 35
0.0
 40
0.0
  0
LINE
  5
AA8D
330
1F
100
AcDbEntity
  8
AM_0
 48
0.5
100
AcDbLine
 10
22.10959625244105
 20
-73.82203370598064
 30
0.0
 11
22.10959625244105
 21
-80.86149221557622
 31
0.0
  0
LINE
  5
AA8E
330
1F
100
AcDbEntity
  8
AM_0
 48
0.5
100
AcDbLine
 10
22.10959625244105
 20
-63.23389059204121
 30
0.0
 11
22.10959625244105
 21
-68.8509476734138
 31
0.0
  0
LINE
  5
AA8F
330
1F
100
AcDbEntity
  8
AM_0
 48
0.5
100
AcDbLine
 10
-72.14669775827139
 20
-63.93849264282219
 30
0.0
 11
-73.90621948242096
 21
-63.93849264282219
 31
0.0
  0
CIRCLE
  5
AA92
330
1F
100
AcDbEntity
  8
AM_5
100
AcDbCircle
 10
-53.60621948242098
 20
-60.5308151831052
 30
0.0
 40
18.8
  0
ARC
  5
AA9D
330
1F
100
AcDbEntity
  8
AM_0
 48
0.5
100
AcDbCircle
 10
-48.60621948242098
 20
-60.5308151831052
 30
0.0
 40
21.6
100
AcDbArc
 50
189.5702464215923
 51
225.4986184184259
  0
LINE
  5
AAA0
330
1F
100
AcDbEntity
  8
AM_0
100
AcDbLine
 10
14.02079010009798
 20
-79.6321478943271
 30
0.0
 11
19.81198883056604
 21
-79.6321478943271
 31
0.0
  0
LINE
  5
AAA1
330
1F
100
AcDbEntity
  8
AM_0
100
AcDbLine
 10
13.25879665858684
 20
-76.45272218014319
 30
0.0
 11
0.6095962524410578
 21
-76.45272218014319
 31
0.0
  0
LINE
  5
AAA2
330
1F
100
AcDbEntity
  8
AM_0
100
AcDbLine
 10
0.6095962524410559
 20
-75.9366598159838
 30
0.0
 11
22.10959625244105
 21
-75.9366598159838
 31
0.0
  0
LINE
  5
AAA3
330
1F
100
AcDbEntity
  8
AM_0
100
AcDbLine
 10
19.81198883056604
 20
-79.6321478943271
 30
0.0
 11
19.81198883056604
 21
-80.86149221557622
 31
0.0
  0
LINE
  5
AABA
330
1F
100
AcDbEntity
  8
AM_0
100
AcDbLine
 10
22.48479270935104
 20
-3.017196655272999
 30
0.0
 11
23.48479270935104
 21
-2.017196655272999
 31
0.0
  0
LINE
  5
AABB
330
1F
100
AcDbEntity
  8
AM_0
 48
0.5
100
AcDbLine
 10
22.48479270935104
 20
-3.017196655272999
 30
0.0
 11
22.48479270935104
 21
-5.486198425292999
 31
0.0
  0
LINE
  5
AABC
330
1F
100
AcDbEntity
  8
AM_0
100
AcDbLine
 10
23.48479270935104
 20
-2.017196655272999
 30
0.0
 11
43.48479270935103
 21
-2.017196655273
 31
0.0
  0
LINE
  5
AABD
330
1F
100
AcDbEntity
  8
AM_0
 48
0.5
100
AcDbLine
 10
43.48479270935103
 20
0.4828033447269978
 30
0.0
 11
43.48479270935103
 21
-2.017196655273
 31
0.0
  0
LINE
  5
AABF
330
1F
100
AcDbEntity
  8
AM_5
100
AcDbLine
 10
149.999999999999
 20
0.4828033447269706
 30
0.0
 11
149.999999999999
 21
-60.53081518310523
 31
0.0
  0
LINE
  5
AAC0
330
1F
100
AcDbEntity
  8
AM_5
100
AcDbLine
 10
0.0
 20
0.0000000000000001
 30
0.0
 11
-0.0000000000000074
 21
-60.53081518310521
 31
0.0
  0
ARC
  5
AAC7
330
1F
100
AcDbEntity
  8
AM_0
100
AcDbCircle
 10
49.48888683319303
 20
20.89170455931899
 30
0.0
 40
1.562099456785005
100
AcDbArc
 50
270.0
 51
90.0
  0
ENDSEC
  0
SECTION
  2
OBJECTS
  0
DICTIONARY
  5
C
330
0
100
AcDbDictionary
281
     1
  3
ACAD_COLOR
350
AB2E
  3
ACAD_GROUP
350
D
  3
ACAD_LAYOUT
350
1A
  3
ACAD_MATERIAL
350
AB2D
  3
ACAD_MLINESTYLE
350
17
  3
ACAD_PLOTSETTINGS
350
19
  3
ACAD_PLOTSTYLENAME
350
E
  3
ACAD_TABLESTYLE
350
AB2F
  3
ACDBHEADERROUNDTRIPXREC
350
AC0E
  3
ACDBVARIABLEDICTIONARY
350
30
  3
ACMDICTIONARY
350
4D
  3
AMG
350
3F
  3
AMGSNAPSETTINGS
350
73
  3
DWGPROPS
350
AC0D
  3
ENG_DATA
350
21C6
  3
FILENAME
350
21C9
  3
HOLD_DIC_DATA
350
21C4
  3
TABLE_DIC_DATA
350
1C0B
  3
ZWKSIZE
350
21CB
  0
DICTIONARY
  5
165
330
1F
100
AcDbDictionary
280
     1
281
     1
  3
ACAD_INDEX
360
AAD9
  3
ACAD_LAYOUTSELFREF
360
AB0B
  0
DICTIONARY
  5
AB09
330
1B
100
AcDbDictionary
280
     1
281
     1
  3
ACAD_LAYOUTSELFREF
360
AB0A
  0
DICTIONARY
  5
AB2E
102
{ACAD_REACTORS
330
C
102
}
330
C
100
AcDbDictionary
281
     1
  0
DICTIONARY
  5
D
102
{ACAD_REACTORS
330
C
102
}
330
C
100
AcDbDictionary
281
     1
  3
*A1
350
7C0D
  3
*A2
350
7C0E
  3
*A3
350
7FE3
  3
*A4
350
8E0E
  0
DICTIONARY
  5
1A
102
{ACAD_REACTORS
330
C
102
}
330
C
100
AcDbDictionary
281
     1
  3
Model
350
AB31
  3
レイアウト1
350
AB32
  0
DICTIONARY
  5
AB2D
102
{ACAD_REACTORS
330
C
102
}
330
C
100
AcDbDictionary
281
     1
  0
DICTIONARY
  5
17
102
{ACAD_REACTORS
330
C
102
}
330
C
100
AcDbDictionary
281
     1
  3
STANDARD
350
18
  0
DICTIONARY
  5
19
102
{ACAD_REACTORS
330
C
102
}
330
C
100
AcDbDictionary
281
     1
  0
ACDBDICTIONARYWDFLT
  5
E
102
{ACAD_REACTORS
330
C
102
}
330
C
100
AcDbDictionary
281
     1
  3
Normal
350
F
100
AcDbDictionaryWithDefault
340
F
  0
DICTIONARY
  5
AB2F
102
{ACAD_REACTORS
330
C
102
}
330
C
100
AcDbDictionary
281
     1
  3
Standard
350
AB30
  0
DICTIONARY
  5
AC0E
102
{ACAD_REACTORS
330
C
102
}
330
C
100
AcDbDictionary
281
     1
  0
DICTIONARY
  5
30
102
{ACAD_REACTORS
330
C
102
}
330
C
100
AcDbDictionary
281
     1
  3
CTABLESTYLE
350
AC09
  3
DIMASSOC
350
AC0A
  3
INDEXCTL
350
31
  3
PROJECTNAME
350
AC0B
  3
SORTENTS
350
42BE
  0
DICTIONARY
  5
4D
102
{ACAD_REACTORS
330
C
102
}
330
C
100
AcDbDictionary
281
     1
  3
ACMSTDDICTIONARY
350
17E
  3
AMDTSECTSYM_ARROWCOLOR
350
ABAA
  0
DICTIONARY
  5
3F
102
{ACAD_REACTORS
330
C
102
}
330
C
100
AcDbDictionary
281
     1
  0
DICTIONARY
  5
73
102
{ACAD_REACTORS
330
C
102
}
330
C
100
AcDbDictionary
281
     1
  0
XRECORD
  5
AC0D
102
{ACAD_REACTORS
330
C
102
}
330
C
100
AcDbXrecord
280
     1
  1
DWGPROPS COOKIE
  2

  3

  4

  6

  7

  8

  9

300
AmdtFileType=82
301
=
302
=
303
=
304
=
305
=
306
=
307
=
308
=
309
=
 40
0.962131099537037
 41
2451943.610431666
 42
2455603.348615625
  1

 90
        1
  0
DICTIONARY
  5
21C6
102
{ACAD_REACTORS
330
C
102
}
330
C
100
AcDbDictionary
281
     1
  3
ENG_ID
350
21C7
  0
DICTIONARY
  5
21C9
102
{ACAD_REACTORS
330
C
102
}
330
C
100
AcDbDictionary
281
     1
  3
FILENAME
350
21CA
  0
DICTIONARY
  5
21C4
102
{ACAD_REACTORS
330
C
102
}
330
C
100
AcDbDictionary
281
     1
  3
HOLD_DATA
350
21C5
  0
DICTIONARY
  5
1C0B
102
{ACAD_REACTORS
330
C
102
}
330
C
100
AcDbDictionary
281
     1
  3
INPUT_DATA
350
1C0D
  3
TABLE_DATA
350
1C0C
  0
DICTIONARY
  5
21CB
102
{ACAD_REACTORS
330
C
102
}
330
C
100
AcDbDictionary
281
     1
  3
ZWKSIZE
350
21CC
  0
DICTIONARY
  5
AAD9
102
{ACAD_REACTORS
330
165
102
}
330
165
100
AcDbDictionary
281
     1
  3
*A1
350
AADA
  0
XRECORD
  5
AB0B
102
{ACAD_REACTORS
330
165
102
}
330
165
100
AcDbXrecord
280
     1
340
1F
  0
XRECORD
  5
AB0A
102
{ACAD_REACTORS
330
AB09
102
}
330
AB09
100
AcDbXrecord
280
     1
340
1B
  0
GROUP
  5
7C0D
102
{ACAD_REACTORS
330
D
102
}
330
D
100
AcDbGroup
300

 70
     1
 71
     1
  0
GROUP
  5
7C0E
102
{ACAD_REACTORS
330
D
102
}
330
D
100
AcDbGroup
300

 70
     1
 71
     1
  0
GROUP
  5
7FE3
102
{ACAD_REACTORS
330
D
102
}
330
D
100
AcDbGroup
300

 70
     1
 71
     1
  0
GROUP
  5
8E0E
102
{ACAD_REACTORS
330
D
102
}
330
D
100
AcDbGroup
300

 70
     1
 71
     1
  0
LAYOUT
  5
AB31
102
{ACAD_XDICTIONARY
360
AC0F
102
}
102
{ACAD_REACTORS
330
1A
102
}
330
1A
100
AcDbPlotSettings
  1

  2
SII LP-1010 (C2 VR)2R
  4

  6

 40
0.0
 41
0.0
 42
0.0
 43
0.0
 44
0.0
 45
0.0
 46
0.0
 47
0.0
 48
0.0
 49
0.0
140
0.0
141
0.0
142
1.0
143
1.0
 70
  1712
 72
     0
 73
     0
 74
     0
  7
sei_cad.ctb
 75
     0
147
1.0
148
0.0
149
0.0
100
AcDbLayout
  1
Model
 70
     1
 71
     0
 10
0.0
 20
0.0
 11
12.0
 21
9.0
 12
0.0
 22
0.0
 32
0.0
 14
0.0
 24
0.0
 34
0.0
 15
0.0
 25
0.0
 35
0.0
146
0.0
 13
0.0
 23
0.0
 33
0.0
 16
1.0
 26
0.0
 36
0.0
 17
0.0
 27
1.0
 37
0.0
 76
     0
330
1F
  0
LAYOUT
  5
AB32
102
{ACAD_XDICTIONARY
360
AC11
102
}
102
{ACAD_REACTORS
330
1A
102
}
330
1A
100
AcDbPlotSettings
  1

  2
SII LP-1010 (C2 VR)2R
  4

  6

 40
0.0
 41
0.0
 42
0.0
 43
0.0
 44
0.0
 45
0.0
 46
0.0
 47
0.0
 48
0.0
 49
0.0
140
0.0
141
0.0
142
1.0
143
1.0
 70
   688
 72
     0
 73
     0
 74
     5
  7
sei_cad.ctb
 75
    16
147
1.0
148
0.0
149
0.0
100
AcDbLayout
  1
レイアウト1
 70
     1
 71
     1
 10
0.0
 20
0.0
 11
420.0
 21
297.0
 12
0.0
 22
0.0
 32
0.0
 14
1.000000000000000E+20
 24
1.000000000000000E+20
 34
1.000000000000000E+20
 15
-1.000000000000000E+20
 25
-1.000000000000000E+20
 35
-1.000000000000000E+20
146
0.0
 13
0.0
 23
0.0
 33
0.0
 16
1.0
 26
0.0
 36
0.0
 17
0.0
 27
1.0
 37
0.0
 76
     0
330
1B
  0
MLINESTYLE
  5
18
102
{ACAD_REACTORS
330
17
102
}
330
17
100
AcDbMlineStyle
  2
STANDARD
 70
     0
  3

 62
   256
 51
90.0
 52
90.0
 71
     2
 49
0.5
 62
   256
  6
BYLAYER
 49
-0.5
 62
   256
  6
BYLAYER
  0
ACDBPLACEHOLDER
  5
F
102
{ACAD_REACTORS
330
E
102
}
330
E
  0
TABLESTYLE
  5
AB30
102
{ACAD_REACTORS
330
AB2F
102
}
330
AB2F
100
AcDbTableStyle
  3
Standard
 70
     0
 71
     0
 40
1.5
 41
1.5
280
     0
281
     0
  7
STANDARD
140
4.5
170
     2
 62
     0
 63
     7
283
     0
274
    -2
284
     1
 64
     0
275
    -2
285
     1
 65
     0
276
    -2
286
     1
 66
     0
277
    -2
287
     1
 67
     0
278
    -2
288
     1
 68
     0
279
    -2
289
     1
 69
     0
  7
STANDARD
140
6.0
170
     5
 62
     0
 63
     7
283
     0
274
    -2
284
     1
 64
     0
275
    -2
285
     1
 65
     0
276
    -2
286
     1
 66
     0
277
    -2
287
     1
 67
     0
278
    -2
288
     1
 68
     0
279
    -2
289
     1
 69
     0
  7
STANDARD
140
4.5
170
     5
 62
     0
 63
     7
283
     0
274
    -2
284
     1
 64
     0
275
    -2
285
     1
 65
     0
276
    -2
286
     1
 66
     0
277
    -2
287
     1
 67
     0
278
    -2
288
     1
 68
     0
279
    -2
289
     1
 69
     0
  0
DICTIONARYVAR
  5
AC09
102
{ACAD_REACTORS
330
30
102
}
330
30
100
DictionaryVariables
280
     0
  1
STANDARD
  0
DICTIONARYVAR
  5
AC0A
102
{ACAD_REACTORS
330
30
102
}
330
30
100
DictionaryVariables
280
     0
  1
1
  0
DICTIONARYVAR
  5
31
102
{ACAD_REACTORS
330
30
102
}
330
30
100
DictionaryVariables
280
     0
  1
1
  0
DICTIONARYVAR
  5
AC0B
102
{ACAD_REACTORS
330
30
102
}
330
30
100
DictionaryVariables
280
     0
  1

  0
DICTIONARYVAR
  5
42BE
102
{ACAD_REACTORS
330
30
102
}
330
30
100
DictionaryVariables
280
     0
  1
96
  0
DICTIONARY
  5
17E
102
{ACAD_REACTORS
330
4D
102
}
330
4D
100
AcDbDictionary
281
     1
  0
XRECORD
  5
ABAA
102
{ACAD_REACTORS
330
4D
102
}
330
4D
100
AcDbXrecord
280
     1
 90
-1023410169
  0
XRECORD
  5
21C7
102
{ACAD_REACTORS
330
21C6
102
}
330
21C6
100
AcDbXrecord
280
     1
  1
HOLD
  0
XRECORD
  5
21CA
102
{ACAD_REACTORS
330
21C9
102
}
330
21C9
100
AcDbXrecord
280
     1
  1
21000065__00___
  0
XRECORD
  5
21C5
102
{ACAD_REACTORS
330
21C4
102
}
330
21C4
100
AcDbXrecord
280
     1
  1
クランクシャフト加工用 ^M^J１コーナー型 ^M^J15.875 ^M^J20 ^M^Jクランプオン ^M^J９０° ^M^J1 ^M^J鋼 ^M^J ^M^J ^M^J ^M^J ^M^J
  0
XRECORD
  5
1C0D
102
{ACAD_REACTORS
330
1C0B
102
}
330
1C0B
100
AcDbXrecord
280
     1
  1
1,,,,,,,,,^M^J2,,,,,,,,,^M^J3,,,,,,,,,^M^J4,,,,,,,,,^M^J5,,,,,,,,,^M^J6,,,,,,,,,^M^J7,,,,,,,,,^M^J8,,,,,,,,,^M^J9,,,,,,,,,^M^J10,,,,,,,,,
  0
XRECORD
  5
1C0C
102
{ACAD_REACTORS
330
1C0B
102
}
330
1C0B
100
AcDbXrecord
280
     1
  1
10,10
  0
XRECORD
  5
21CC
102
{ACAD_REACTORS
330
21CB
102
}
330
21CB
100
AcDbXrecord
280
     1
  1
3
  0
LAYER_INDEX
  5
AADA
102
{ACAD_REACTORS
330
AAD9
102
}
330
AAD9
100
AcDbIndex
 40
2455603.348615625
100
AcDbLayerIndex
  8
0
360
AADB
 90
        0
  8
AM_5
360
AADC
 90
        5
  8
DEFPOINTS
360
AADD
 90
        0
  8
AM_0
360
AADE
 90
      165
  8
AM_6
360
AADF
 90
        1
  8
AM_3
360
AAE0
 90
        1
  8
AM_7
360
AAE1
 90
       13
  8
PV0001_1
360
AAE2
 90
       17
  8
AM_11
360
AAE3
 90
        1
  0
DICTIONARY
  5
AC0F
330
AB31
100
AcDbDictionary
280
     1
281
     1
  3
ACAD_XREC_ROUNDTRIP
360
AC10
  0
DICTIONARY
  5
AC11
330
AB32
100
AcDbDictionary
280
     1
281
     1
  3
ACAD_XREC_ROUNDTRIP
360
AC12
  0
IDBUFFER
  5
AADB
330
0
100
AcDbIdBuffer
  0
IDBUFFER
  5
AADC
330
0
100
AcDbIdBuffer
330
A969
330
A976
330
AA92
330
AABF
330
AAC0
  0
IDBUFFER
  5
AADD
330
0
100
AcDbIdBuffer
  0
IDBUFFER
  5
AADE
330
0
100
AcDbIdBuffer
330
A6E6
330
A6E7
330
A6E8
330
A6E9
330
A6EE
330
A6F2
330
A6F5
330
A6F8
330
A6F9
330
A6FA
330
A6FB
330
A6FC
330
A6FD
330
A6FE
330
A6FF
330
A700
330
A701
330
A702
330
A703
330
A706
330
A709
330
A70A
330
A70B
330
A70C
330
A70D
330
A70E
330
A70F
330
A710
330
A711
330
A712
330
A713
330
A714
330
A715
330
A716
330
A717
330
A719
330
A71A
330
A71B
330
A71C
330
A71D
330
A71E
330
A71F
330
A720
330
A721
330
A722
330
A724
330
A725
330
A726
330
A727
330
A72C
330
A72D
330
A72E
330
A72F
330
A730
330
A735
330
A739
330
A73B
330
A73F
330
A740
330
A744
330
A747
330
A749
330
A74A
330
A74B
330
A74C
330
A74D
330
A755
330
A756
330
A757
330
A758
330
A759
330
A761
330
A762
330
A767
330
A768
330
A769
330
A76B
330
A76D
330
A76E
330
A771
330
A772
330
A774
330
A775
330
A777
330
A778
330
A779
330
A77A
330
A77B
330
A77C
330
A780
330
A781
330
A782
330
A783
330
A784
330
A785
330
A787
330
A790
330
A791
330
A798
330
A79C
330
A79D
330
A7A0
330
A7A1
330
A7A2
330
A7A5
330
A7A8
330
A7A9
330
A7AA
330
A7AC
330
A7AF
330
A7B0
330
A7B1
330
A7B3
330
A7B4
330
A7B5
330
A7B6
330
A7B8
330
A7B9
330
A7BA
330
A7BB
330
A7BC
330
A7BE
330
A7C0
330
A7C2
330
A7C3
330
A7C5
330
A7C7
330
A7C9
330
A7CB
330
A7CC
330
A7CD
330
A7CE
330
A7CF
330
A7D1
330
A7D5
330
A7D8
330
A7D9
330
A7DA
330
A7DB
330
A7DC
330
A7DE
330
A7DF
330
A7E1
330
A7E2
330
A7E3
330
A7E4
330
A7E9
330
A7EB
330
A7EC
330
A7F1
330
A7F4
330
AA70
330
AA8D
330
AA8E
330
AA8F
330
AA9D
330
AAA0
330
AAA1
330
AAA2
330
AAA3
330
AABA
330
AABB
330
AABC
330
AABD
330
AAC7
  0
IDBUFFER
  5
AADF
330
0
100
AcDbIdBuffer
330
83BD
  0
IDBUFFER
  5
AAE0
330
0
100
AcDbIdBuffer
330
A78A
  0
IDBUFFER
  5
AAE1
330
0
100
AcDbIdBuffer
330
A6F1
330
A6F3
330
A6F6
330
A6F7
330
A733
330
A734
330
A738
330
A73C
330
A742
330
A750
330
A75D
330
A7AE
330
A7C4
  0
IDBUFFER
  5
AAE2
330
0
100
AcDbIdBuffer
330
A7CA
330
A7D6
330
A6EA
330
A718
330
A72A
330
A736
330
A741
330
A763
330
A764
330
A76C
330
A776
330
A77D
330
A78D
330
A78F
330
A79E
330
A79F
330
A7C1
  0
IDBUFFER
  5
AAE3
330
0
100
AcDbIdBuffer
330
AA72
  0
XRECORD
  5
AC10
102
{ACAD_REACTORS
330
AC0F
102
}
330
AC0F
100
AcDbXrecord
280
     1
102
SHADEPLOT
 70
     0
102
SHADEPLOTRESLEVEL
 70
     2
102
SHADEPLOTCUSTOMDPI
 70
   300
  0
XRECORD
  5
AC12
102
{ACAD_REACTORS
330
AC11
102
}
330
AC11
100
AcDbXrecord
280
     1
102
SHADEPLOT
 70
     0
102
SHADEPLOTRESLEVEL
 70
     2
102
SHADEPLOTCUSTOMDPI
 70
   300
  0
ENDSEC
  0
EOF
