  0
SECTION
  2
HEADER
  9
$ACADVER
  1
AC1015
  9
$ACADMAINTVER
 70
    20
  9
$DWGCODEPAGE
  3
ANSI_932
  9
$INSBASE
 10
0.0
 20
0.0
 30
0.0
  9
$EXTMIN
 10
-67.03683207059214
 20
-104.5169102766539
 30
-0.0000000000112498
  9
$EXTMAX
 10
169.5856733146871
 20
67.97915949050502
 30
0.0000000000002956
  9
$LIMMIN
 10
-224.9336675723706
 20
-124.3689437256741
  9
$LIMMAX
 10
84.60152238439922
 20
124.2499793899679
  9
$ORTHOMODE
 70
     0
  9
$REGENMODE
 70
     1
  9
$FILLMODE
 70
     1
  9
$QTEXTMODE
 70
     0
  9
$MIRRTEXT
 70
     1
  9
$LTSCALE
 40
1.0
  9
$ATTMODE
 70
     1
  9
$TEXTSIZE
 40
2.5
  9
$TRACEWID
 40
1.0
  9
$TEXTSTYLE
  7
STANDARD
  9
$CLAYER
  8
AM_5
  9
$CELTYPE
  6
BYLAYER
  9
$CECOLOR
 62
   256
  9
$CELTSCALE
 40
1.0
  9
$DISPSILH
 70
     0
  9
$DIMSCALE
 40
1.0
  9
$DIMASZ
 40
2.5
  9
$DIMEXO
 40
0.0
  9
$DIMDLI
 40
10.0
  9
$DIMRND
 40
0.0
  9
$DIMDLE
 40
0.0
  9
$DIMEXE
 40
1.0
  9
$DIMTP
 40
0.1
  9
$DIMTM
 40
0.1000000001
  9
$DIMTXT
 40
3.799999999999998
  9
$DIMCEN
 40
0.0
  9
$DIMTSZ
 40
0.0
  9
$DIMTOL
 70
     0
  9
$DIMLIM
 70
     0
  9
$DIMTIH
 70
     0
  9
$DIMTOH
 70
     0
  9
$DIMSE1
 70
     0
  9
$DIMSE2
 70
     0
  9
$DIMTAD
 70
     3
  9
$DIMZIN
 70
     9
  9
$DIMBLK
  1
Open30
  9
$DIMASO
 70
     1
  9
$DIMSHO
 70
     1
  9
$DIMPOST
  1

  9
$DIMAPOST
  1
"
  9
$DIMALT
 70
     0
  9
$DIMALTD
 70
     2
  9
$DIMALTF
 40
0.0393701
  9
$DIMLFAC
 40
1.0
  9
$DIMTOFL
 70
     1
  9
$DIMTVP
 40
0.0
  9
$DIMTIX
 70
     0
  9
$DIMSOXD
 70
     0
  9
$DIMSAH
 70
     0
  9
$DIMBLK1
  1

  9
$DIMBLK2
  1

  9
$DIMSTYLE
  2
AM_JIS
  9
$DIMCLRD
 70
   256
  9
$DIMCLRE
 70
   256
  9
$DIMCLRT
 70
     2
  9
$DIMTFAC
 40
0.71
  9
$DIMGAP
 40
1.5
  9
$DIMJUST
 70
     0
  9
$DIMSD1
 70
     0
  9
$DIMSD2
 70
     0
  9
$DIMTOLJ
 70
     0
  9
$DIMTZIN
 70
     8
  9
$DIMALTZ
 70
     0
  9
$DIMALTTZ
 70
     0
  9
$DIMUPT
 70
     0
  9
$DIMDEC
 70
     2
  9
$DIMTDEC
 70
     2
  9
$DIMALTU
 70
     2
  9
$DIMALTTD
 70
     2
  9
$DIMTXSTY
  7
STANDARD
  9
$DIMAUNIT
 70
     1
  9
$DIMADEC
 70
     1
  9
$DIMALTRND
 40
0.0
  9
$DIMAZIN
 70
     2
  9
$DIMDSEP
 70
    46
  9
$DIMATFIT
 70
     3
  9
$DIMFRAC
 70
     0
  9
$DIMLDRBLK
  1
Open30
  9
$DIMLUNIT
 70
     2
  9
$DIMLWD
 70
    -1
  9
$DIMLWE
 70
    -1
  9
$DIMTMOVE
 70
     0
  9
$LUNITS
 70
     2
  9
$LUPREC
 70
     2
  9
$SKETCHINC
 40
1.0
  9
$FILLETRAD
 40
0.0
  9
$AUNITS
 70
     1
  9
$AUPREC
 70
     5
  9
$MENU
  1
.
  9
$ELEVATION
 40
0.0
  9
$PELEVATION
 40
0.0
  9
$THICKNESS
 40
0.0
  9
$LIMCHECK
 70
     0
  9
$CHAMFERA
 40
0.0
  9
$CHAMFERB
 40
0.0
  9
$CHAMFERC
 40
20.0
  9
$CHAMFERD
 40
0.0
  9
$SKPOLY
 70
     0
  9
$TDCREATE
 40
2451943.610431666
  9
$TDUCREATE
 40
2451943.235431667
  9
$TDUPDATE
 40
2455603.337589155
  9
$TDUUPDATE
 40
2455602.962589155
  9
$TDINDWG
 40
0.8969080324
  9
$TDUSRTIMER
 40
0.8969076852
  9
$USRTIMER
 70
     1
  9
$ANGBASE
 50
0.0
  9
$ANGDIR
 70
     0
  9
$PDMODE
 70
     0
  9
$PDSIZE
 40
0.0
  9
$PLINEWID
 40
0.0
  9
$SPLFRAME
 70
     0
  9
$SPLINETYPE
 70
     6
  9
$SPLINESEGS
 70
     8
  9
$HANDSEED
  5
B4BE
  9
$SURFTAB1
 70
     6
  9
$SURFTAB2
 70
     6
  9
$SURFTYPE
 70
     6
  9
$SURFU
 70
     6
  9
$SURFV
 70
     6
  9
$UCSBASE
  2

  9
$UCSNAME
  2

  9
$UCSORG
 10
0.0
 20
0.0
 30
0.0
  9
$UCSXDIR
 10
1.0
 20
0.0
 30
0.0
  9
$UCSYDIR
 10
0.0
 20
1.0
 30
0.0
  9
$UCSORTHOREF
  2

  9
$UCSORTHOVIEW
 70
     0
  9
$UCSORGTOP
 10
0.0
 20
0.0
 30
0.0
  9
$UCSORGBOTTOM
 10
0.0
 20
0.0
 30
0.0
  9
$UCSORGLEFT
 10
0.0
 20
0.0
 30
0.0
  9
$UCSORGRIGHT
 10
0.0
 20
0.0
 30
0.0
  9
$UCSORGFRONT
 10
0.0
 20
0.0
 30
0.0
  9
$UCSORGBACK
 10
0.0
 20
0.0
 30
0.0
  9
$PUCSBASE
  2

  9
$PUCSNAME
  2

  9
$PUCSORG
 10
0.0
 20
0.0
 30
0.0
  9
$PUCSXDIR
 10
1.0
 20
0.0
 30
0.0
  9
$PUCSYDIR
 10
0.0
 20
1.0
 30
0.0
  9
$PUCSORTHOREF
  2

  9
$PUCSORTHOVIEW
 70
     0
  9
$PUCSORGTOP
 10
0.0
 20
0.0
 30
0.0
  9
$PUCSORGBOTTOM
 10
0.0
 20
0.0
 30
0.0
  9
$PUCSORGLEFT
 10
0.0
 20
0.0
 30
0.0
  9
$PUCSORGRIGHT
 10
0.0
 20
0.0
 30
0.0
  9
$PUCSORGFRONT
 10
0.0
 20
0.0
 30
0.0
  9
$PUCSORGBACK
 10
0.0
 20
0.0
 30
0.0
  9
$USERI1
 70
     0
  9
$USERI2
 70
     0
  9
$USERI3
 70
     0
  9
$USERI4
 70
     0
  9
$USERI5
 70
     0
  9
$USERR1
 40
0.0
  9
$USERR2
 40
0.0
  9
$USERR3
 40
0.0
  9
$USERR4
 40
0.0
  9
$USERR5
 40
0.0
  9
$WORLDVIEW
 70
     1
  9
$SHADEDGE
 70
     3
  9
$SHADEDIF
 70
    70
  9
$TILEMODE
 70
     1
  9
$MAXACTVP
 70
    64
  9
$PINSBASE
 10
0.0
 20
0.0
 30
0.0
  9
$PLIMCHECK
 70
     0
  9
$PEXTMIN
 10
1.000000000000000E+20
 20
1.000000000000000E+20
 30
1.000000000000000E+20
  9
$PEXTMAX
 10
-1.000000000000000E+20
 20
-1.000000000000000E+20
 30
-1.000000000000000E+20
  9
$PLIMMIN
 10
0.0
 20
0.0
  9
$PLIMMAX
 10
420.0
 20
297.0
  9
$UNITMODE
 70
     0
  9
$VISRETAIN
 70
     1
  9
$PLINEGEN
 70
     0
  9
$PSLTSCALE
 70
     1
  9
$TREEDEPTH
 70
  3020
  9
$CMLSTYLE
  2
STANDARD
  9
$CMLJUST
 70
     0
  9
$CMLSCALE
 40
20.0
  9
$PROXYGRAPHICS
 70
     1
  9
$MEASUREMENT
 70
     1
  9
$CELWEIGHT
370
    -1
  9
$ENDCAPS
280
     0
  9
$JOINSTYLE
280
     0
  9
$LWDISPLAY
290
     0
  9
$INSUNITS
 70
     4
  9
$HYPERLINKBASE
  1

  9
$STYLESHEET
  1
SEI_CAD.CTB
  9
$XEDIT
290
     1
  9
$CEPSNTYPE
380
     0
  9
$PSTYLEMODE
290
     1
  9
$FINGERPRINTGUID
  2
{C77AB3BE-9CA2-11D3-BAF3-006094EB760E}
  9
$VERSIONGUID
  2
{F50B0A15-28F0-4CAF-A81B-71B904F9AFD2}
  9
$EXTNAMES
290
     1
  9
$PSVPSCALE
 40
0.0
  9
$OLESTARTUP
290
     0
  0
ENDSEC
  0
SECTION
  2
CLASSES
  0
CLASS
  1
ACDBDICTIONARYWDFLT
  2
AcDbDictionaryWithDefault
  3
ObjectDBX Classes
 90
        0
280
     0
281
     0
  0
CLASS
  1
ACDBPLACEHOLDER
  2
AcDbPlaceHolder
  3
ObjectDBX Classes
 90
        0
280
     0
281
     0
  0
CLASS
  1
LAYOUT
  2
AcDbLayout
  3
ObjectDBX Classes
 90
        0
280
     0
281
     0
  0
CLASS
  1
ACME_DOCUMENT
  2
AcMeDbDoc
  3
AcMeServices
 90
        0
280
     0
281
     0
  0
CLASS
  1
ACMESCOPE
  2
AcMeScope
  3
AcMeServices
 90
        0
280
     0
281
     0
  0
CLASS
  1
ACMECOMMANDHISTORY
  2
AcMeCommandHistory
  3
AcMeServices
 90
        0
280
     0
281
     0
  0
CLASS
  1
DICTIONARYVAR
  2
AcDbDictionaryVar
  3
ObjectDBX Classes
 90
        0
280
     0
281
     0
  0
CLASS
  1
ACIMSYSVARMAN
  2
AcImSysVarManager
  3
AcMeServices
 90
        0
280
     0
281
     0
  0
CLASS
  1
ACIMREALSYSVAR
  2
AcImRealSysVar
  3
AcMeServices
 90
        0
280
     0
281
     0
  0
CLASS
  1
ACIMINTSYSVAR
  2
AcImIntSysVar
  3
AcMeServices
 90
        0
280
     0
281
     0
  0
CLASS
  1
ACMEDRAWINGMAN
  2
AcMeDrawingMan
  3
AcMeServices
 90
        0
280
     0
281
     0
  0
CLASS
  1
ACMEVIEW
  2
AcMeView
  3
AcMeServices
 90
        0
280
     0
281
     0
  0
CLASS
  1
ACDBENTITYCACHE
  2
AcMeEntityCache
  3
AcMeServices
 90
        0
280
     0
281
     0
  0
CLASS
  1
GSMANAGER
  2
AcMeGSManager
  3
AcMeServices
 90
        0
280
     0
281
     0
  0
CLASS
  1
AMDTINTERNALREACTOR
  2
AmdtInternalReactor
  3
AcMeServices
 90
        0
280
     0
281
     0
  0
CLASS
  1
ACMESTATEMGR
  2
AcMeStateMgr
  3
AcMeServices
 90
        0
280
     0
281
     0
  0
CLASS
  1
ACME_DATABASE
  2
AcMeDbDatabase
  3
AcMeServices
 90
        0
280
     0
281
     0
  0
CLASS
  1
ACRFINSADJUSTERMGR
  2
AcRfInsAdjusterMgr
  3
AcMeServices
 90
        0
280
     0
281
     0
  0
CLASS
  1
AMGSETTINGSOBJ
  2
AmgSettingsObj
  3
"AcadM|Product Description: AutoCAD Mechanical 2000|Company: Autodesk"
 90
        0
280
     0
281
     0
  0
CLASS
  1
AMGOBJPROPCFG
  2
AmgObjPropCfg
  3
"AmgLay|Product Description: AutoCAD Mechanical 2000|Company: Autodesk"
 90
        1
280
     0
281
     0
  0
CLASS
  1
ACMDATADICTIONARY
  2
AcmDataDictionary
  3
"AcmSymBB|Product Description: AutoCAD Mechanical 2004 DX|Company: Autodesk"
 90
        0
280
     0
281
     0
  0
CLASS
  1
ACMDATAENTRYBLOCK
  2
AcmDataEntryBlock
  3
"AcmSymBB|Product Description: AutoCAD Mechanical 2004 DX|Company: Autodesk"
 90
    32768
280
     0
281
     0
  0
CLASS
  1
ACIMSTRSYSVAR
  2
AcImStrSysVar
  3
AcMeServices
 90
        0
280
     0
281
     0
  0
CLASS
  1
ACAMGFILTERDAT
  2
AcAmgFilterDat
  3
"AcadM|Product Description: AutoCAD Mechanical 2000|Company: Autodesk"
 90
    32768
280
     0
281
     0
  0
CLASS
  1
LAYER_INDEX
  2
AcDbLayerIndex
  3
ObjectDBX Classes
 90
        0
280
     0
281
     0
  0
CLASS
  1
IDBUFFER
  2
AcDbIdBuffer
  3
ObjectDBX Classes
 90
        0
280
     0
281
     0
  0
CLASS
  1
ACMSTANDARDJIS
  2
AcmStandardJIS
  3
"Amdt_StdImp|Product Description: AutoCAD Mechanical 2004 DX|Company: Autodesk"
 90
    32768
280
     0
281
     0
  0
CLASS
  1
ACMSURFSTANDARDJIS
  2
AcmSurfTextStdJIS
  3
"Amdt_StdImp|Product Description: AutoCAD Mechanical 2004 DX|Company: Autodesk"
 90
    32768
280
     0
281
     0
  0
CLASS
  1
ACMFCFSTANDARDJIS
  2
AcmFCFStdJIS
  3
"Amdt_StdImp|Product Description: AutoCAD Mechanical 2004 DX|Company: Autodesk"
 90
    32768
280
     0
281
     0
  0
CLASS
  1
ACMWELDSTANDARDJIS
  2
AcmWeldingStdJIS
  3
"Amdt_StdImp|Product Description: AutoCAD Mechanical 2004 DX|Company: Autodesk"
 90
    32768
280
     0
281
     0
  0
CLASS
  1
ACMIDSTANDARDJIS
  2
AcmIdStdJIS
  3
"Amdt_StdImp|Product Description: AutoCAD Mechanical 2004 DX|Company: Autodesk"
 90
    32768
280
     0
281
     0
  0
CLASS
  1
ACMDATUMSTANDARDJIS
  2
AcmDatumStdJIS
  3
"Amdt_StdImp|Product Description: AutoCAD Mechanical 2004 DX|Company: Autodesk"
 90
    32768
280
     0
281
     0
  0
CLASS
  1
ACMBOMSTANDARDJIS
  2
AcmBOMStdJIS
  3
"Amdt_StdImp|Product Description: AutoCAD Mechanical 2004 DX|Company: Autodesk"
 90
    32768
280
     0
281
     0
  0
CLASS
  1
AMDTNOTE
  2
AmdtNote
  3
"AcmSymBB|Product Description: AutoCAD Mechanical 2004 DX|Company: Autodesk"
 90
    33791
280
     0
281
     1
  0
CLASS
  1
ACMDATAENTRYPART
  2
AcmDataEntryPart
  3
"AcmSymBB|Product Description: AutoCAD Mechanical 2004 DX|Company: Autodesk"
 90
    32768
280
     0
281
     0
  0
CLASS
  1
ACMPARTREF
  2
AcmPartRef
  3
"AcmSymBB|Product Description: AutoCAD Mechanical 2004 DX|Company: Autodesk"
 90
    33791
280
     0
281
     1
  0
CLASS
  1
ACDB_PROXY_ENTITY_DATA
  2
AcDbProxyEntityData
  3
ObjectDBX Classes
 90
    32768
280
     0
281
     0
  0
CLASS
  1
TABLESTYLE
  2
AcDbTableStyle
  3
ObjectDBX Classes
 90
     2047
280
     0
281
     0
  0
CLASS
  1
ACGREFMASTER
  2
AcGrefMaster
  3
AcAttribServices
 90
        0
280
     0
281
     0
  0
CLASS
  1
AM_DRAWING_MGR
  2
AcDmDwgMgr
  3
AcMechDwgViewMgmt
 90
        0
280
     0
281
     0
  0
CLASS
  1
AM_DWG_DOCUMENT
  2
AcDmDwgDocument
  3
AcMechDwgViewMgmt
 90
        0
280
     0
281
     0
  0
CLASS
  1
AM_DWG_SHEET
  2
AcDmSheet
  3
AcMechDwgViewMgmt
 90
        0
280
     0
281
     0
  0
CLASS
  1
AM_VIEWDIMPARMAP
  2
AcDmViewDimParMap
  3
AcMechDwgViewMgmt
 90
        0
280
     0
281
     0
  0
CLASS
  1
AM_DWGMGR_NAME
  2
AcDmDwgMgrName
  3
AcMechDwgViewMgmt
 90
        0
280
     0
281
     0
  0
CLASS
  1
ACGREFACADMASTER
  2
AcGrefacadMaster
  3
AcGrefServices
 90
        0
280
     0
281
     0
  0
CLASS
  1
AMDTMENUSTATEMGR
  2
AmdtMenuStateMgr
  3
McadcomServices
 90
        0
280
     0
281
     0
  0
CLASS
  1
AMDTMCOMMENUSTATE
  2
AmdtMcomMenuState
  3
McadcomServices
 90
        0
280
     0
281
     0
  0
CLASS
  1
AMIMASTER
  2
AmiMaster
  3
AmiServices
 90
        0
280
     0
281
     0
  0
CLASS
  1
MAPIAMMOUDLE
  2
MApiAmModule
  3
MApiAmServices
 90
        0
280
     0
281
     0
  0
CLASS
  1
AMDTADMENUSTATE
  2
AmdtAdMenuState
  3
DesignerServices
 90
        0
280
     0
281
     0
  0
CLASS
  1
ADAPPL
  2
AcAdAppl
  3
DesignerServices
 90
        0
280
     0
281
     0
  0
CLASS
  1
DEPMGR
  2
AcAdDepMgr
  3
DesignerServices
 90
        0
280
     0
281
     0
  0
CLASS
  1
PARAMMGR
  2
AcAdParamMgr
  3
DesignerServices
 90
        0
280
     0
281
     0
  0
CLASS
  1
PARAMSCOPE
  2
AcAdParamScope
  3
DesignerServices
 90
        0
280
     0
281
     0
  0
CLASS
  1
NAMEDAPPL
  2
AcAdNamedAppl
  3
DesignerServices
 90
        0
280
     0
281
     0
  0
CLASS
  1
AMDTDMMENUSTATE
  2
AmdtDmMenuState
  3
AcMechDwgViewMgmt
 90
        0
280
     0
281
     0
  0
CLASS
  1
AMDTAMMENUSTATE
  2
AmdtAmMenuState
  3
DesignerAssemblies
 90
        0
280
     0
281
     0
  0
CLASS
  1
ACAMPROJECT
  2
AcAmProject
  3
DesignerAssemblies
 90
        0
280
     0
281
     0
  0
CLASS
  1
ACAMGRCOMPDEF
  2
AcAmGrCompDef
  3
DesignerAssemblies
 90
        0
280
     0
281
     0
  0
CLASS
  1
ACCMCONTEXT
  2
AcCmContext
  3
DesignerAssemblies
 90
        0
280
     0
281
     0
  0
CLASS
  1
ACAMCOMPDEF
  2
AcAmCompDef
  3
DesignerAssemblies
 90
        0
280
     0
281
     0
  0
CLASS
  1
ACAMCOMPDEFMGR
  2
AcAmCompDefMgr
  3
DesignerAssemblies
 90
        0
280
     0
281
     0
  0
CLASS
  1
AMCONTEXTMGR
  2
AcAmContextMgr
  3
DesignerAssemblies
 90
        0
280
     0
281
     0
  0
CLASS
  1
ACAMCONTEXTMODELER
  2
AcAmContextModeler
  3
DesignerAssemblies
 90
        0
280
     0
281
     0
  0
CLASS
  1
CATALOGSTATE
  2
AcAmCatalogState
  3
DesignerAssemblies
 90
        0
280
     0
281
     0
  0
CLASS
  1
ACAMGRCOMPDEFSET
  2
AcAmGrCompDefSet
  3
DesignerAssemblies
 90
        0
280
     0
281
     0
  0
CLASS
  1
AMDTBROWSERDBTAB
  2
AmdtBrowserDbTab
  3
McadcomServices
 90
        0
280
     0
281
     0
  0
CLASS
  1
CBROWSERAPPOBJECT
  2
CBrowserAppObject
  3
McadcomServices
 90
        0
280
     0
281
     0
  0
CLASS
  1
DM_PLACEHOLDER
  2
AcDmSelsetPlaceholder
  3
AcMechDwgViewMgmt
 90
        0
280
     0
281
     0
  0
CLASS
  1
ACAMGTITLESTD
  2
AcAmgTitleStd
  3
"TITLEAPP"
 90
        0
280
     0
281
     0
  0
CLASS
  1
ACMDETAILSTANDARDJIS
  2
AmdtDetailSymStdJIS
  3
"Amdt_StdImp|Product Description: AutoCAD Mechanical 2004 DX|Company: Autodesk"
 90
    32768
280
     0
281
     0
  0
CLASS
  1
ACMSECTIONSTANDARDJIS
  2
AmdtSectionSymStdJIS
  3
"Amdt_StdImp|Product Description: AutoCAD Mechanical 2004 DX|Company: Autodesk"
 90
    32768
280
     0
281
     0
  0
CLASS
  1
ACMCENTERLINESTANDARDJIS
  2
AmdtCenterLineStdJIS
  3
"Amdt_StdImp|Product Description: AutoCAD Mechanical 2004 DX|Company: Autodesk"
 90
    32768
280
     0
281
     0
  0
CLASS
  1
ACMTHREADLINESTANDARDJIS
  2
AmdtThreadLineStdJIS
  3
"Amdt_StdImp|Product Description: AutoCAD Mechanical 2004 DX|Company: Autodesk"
 90
    32768
280
     0
281
     0
  0
CLASS
  1
ACMNOTESTANDARDJIS
  2
AmdtNoteStdJIS
  3
"Amdt_StdImp|Product Description: AutoCAD Mechanical 2004 DX|Company: Autodesk"
 90
    32768
280
     0
281
     0
  0
CLASS
  1
AMDTNOTETEMPLATEDB
  2
AmdtNoteTemplateDB
  3
AMDT_STDIMP_MODULE_NAME
 90
        0
280
     0
281
     0
  0
CLASS
  1
ACAMGLAYSTD
  2
AcAmgLayStd
  3
"AcAmgLayStd|Product Description: AutoCAD Mechanical 2000|Company: Autodesk"
 90
        0
280
     0
281
     0
  0
CLASS
  1
ACAMGDIMSTD
  2
AcAmgDimStd
  3
"AcAmgDimStd|Product Description: AutoCAD Mechanical 2000|Company: Autodesk"
 90
        0
280
     0
281
     0
  0
CLASS
  1
ACAMGHOLECHARTSTDJIS
  2
AcAmgHoleChartStdJIS
  3
ACMSYMBB_MODULE_NAME
 90
    32768
280
     0
281
     0
  0
CLASS
  1
ACRFATTGENMGR
  2
AcRfAttGeneralMgr
  3
AcAttribServices
 90
    32768
280
     0
281
     0
  0
CLASS
  1
ACMSTANDARDISO
  2
AcmStandardISO
  3
"Amdt_StdImp|Product Description: AutoCAD Mechanical 2004 DX|Company: Autodesk"
 90
        0
280
     0
281
     0
  0
CLASS
  1
AMDTEDGESTANDARDISO13715
  2
AmdtEdgeStdISO13715
  3
"Amdt_StdImp|Product Description: AutoCAD Mechanical 2004 DX|Company: Autodesk"
 90
        0
280
     0
281
     0
  0
CLASS
  1
ACMSURFSTANDARDISO
  2
AcmSurfTextStdISO
  3
"Amdt_StdImp|Product Description: AutoCAD Mechanical 2004 DX|Company: Autodesk"
 90
        0
280
     0
281
     0
  0
CLASS
  1
ACMFCFSTANDARDISO
  2
AcmFCFStdISO
  3
"Amdt_StdImp|Product Description: AutoCAD Mechanical 2004 DX|Company: Autodesk"
 90
        0
280
     0
281
     0
  0
CLASS
  1
ACMWELDSTANDARDISO
  2
AcmWeldingStdISO
  3
"Amdt_StdImp|Product Description: AutoCAD Mechanical 2004 DX|Company: Autodesk"
 90
        0
280
     0
281
     0
  0
CLASS
  1
ACMIDSTANDARDISO
  2
AcmIdStdISO
  3
"Amdt_StdImp|Product Description: AutoCAD Mechanical 2004 DX|Company: Autodesk"
 90
        0
280
     0
281
     0
  0
CLASS
  1
ACMDATUMSTANDARDISO
  2
AcmDatumStdISO
  3
"Amdt_StdImp|Product Description: AutoCAD Mechanical 2004 DX|Company: Autodesk"
 90
        0
280
     0
281
     0
  0
CLASS
  1
ACMBOMSTANDARDISO
  2
AcmBOMStdISO
  3
"Amdt_StdImp|Product Description: AutoCAD Mechanical 2004 DX|Company: Autodesk"
 90
        0
280
     0
281
     0
  0
CLASS
  1
ACMDETAILSTANDARDISO
  2
AmdtDetailSymStdISO
  3
"Amdt_StdImp|Product Description: AutoCAD Mechanical 2004 DX|Company: Autodesk"
 90
        0
280
     0
281
     0
  0
CLASS
  1
ACMSECTIONSTANDARDISO
  2
AmdtSectionSymStdISO
  3
"Amdt_StdImp|Product Description: AutoCAD Mechanical 2004 DX|Company: Autodesk"
 90
        0
280
     0
281
     0
  0
CLASS
  1
ACMCENTERLINESTANDARDISO
  2
AmdtCenterLineStdISO
  3
"Amdt_StdImp|Product Description: AutoCAD Mechanical 2004 DX|Company: Autodesk"
 90
        0
280
     0
281
     0
  0
CLASS
  1
ACMTHREADLINESTANDARDISO
  2
AmdtThreadLineStdISO
  3
"Amdt_StdImp|Product Description: AutoCAD Mechanical 2004 DX|Company: Autodesk"
 90
        0
280
     0
281
     0
  0
CLASS
  1
ACMNOTESTANDARDISO
  2
AmdtNoteStdISO
  3
"Amdt_StdImp|Product Description: AutoCAD Mechanical 2004 DX|Company: Autodesk"
 90
        0
280
     0
281
     0
  0
CLASS
  1
ACAMGHOLECHARTSTDISO
  2
AcAmgHoleChartStdISO
  3
ACMSYMBB_MODULE_NAME
 90
        0
280
     0
281
     0
  0
ENDSEC
  0
SECTION
  2
TABLES
  0
TABLE
  2
VPORT
  5
8
330
0
100
AcDbSymbolTable
 70
    21
  0
VPORT
  5
B4B7
330
8
100
AcDbSymbolTableRecord
100
AcDbViewportTableRecord
  2
*Active
 70
     0
 10
0.0
 20
0.0
 11
1.0
 21
1.0
 12
51.27442062204751
 22
-18.26887539307444
 13
0.0
 23
0.0
 14
2.5
 24
2.5
 15
10.0
 25
10.0
 16
0.0
 26
0.0
 36
1.0
 17
0.0
 27
0.0
 37
0.0
 40
173.72818455121
 41
2.176400476758045
 42
50.0
 43
0.0
 44
0.0
 50
0.0
 51
0.0
 71
     0
 72
  2000
 73
     1
 74
     3
 75
     0
 76
     0
 77
     0
 78
     0
281
     0
 65
     0
110
0.0
120
0.0
130
0.0
111
1.0
121
0.0
131
0.0
112
0.0
122
1.0
132
0.0
 79
     0
146
0.0
  0
ENDTAB
  0
TABLE
  2
LTYPE
  5
5
330
0
100
AcDbSymbolTable
 70
    15
  0
LTYPE
  5
14
330
5
100
AcDbSymbolTableRecord
100
AcDbLinetypeTableRecord
  2
BYBLOCK
 70
     0
  3

 72
    65
 73
     0
 40
0.0
  0
LTYPE
  5
15
330
5
100
AcDbSymbolTableRecord
100
AcDbLinetypeTableRecord
  2
BYLAYER
 70
     0
  3

 72
    65
 73
     0
 40
0.0
  0
LTYPE
  5
16
330
5
100
AcDbSymbolTableRecord
100
AcDbLinetypeTableRecord
  2
CONTINUOUS
 70
     0
  3
Solid line
 72
    65
 73
     0
 40
0.0
  0
LTYPE
  5
43
330
5
100
AcDbSymbolTableRecord
100
AcDbLinetypeTableRecord
  2
AM_ISO02W050
 70
     0
  3
__ __ __ __ __ __ __ __ __ __ __ __ __ __ __
 72
    65
 73
     2
 40
7.5
 49
6.0
 74
     0
 49
-1.5
 74
     0
  0
LTYPE
  5
44
330
5
100
AcDbSymbolTableRecord
100
AcDbLinetypeTableRecord
  2
AM_ISO08W050
 70
     0
  3
____ . ____ . ____ . ____ . ____ . ____ . ____
 72
    65
 73
     4
 40
18.0
 49
12.0
 74
     0
 49
-1.5
 74
     0
 49
3.0
 74
     0
 49
-1.5
 74
     0
  0
LTYPE
  5
45
330
5
100
AcDbSymbolTableRecord
100
AcDbLinetypeTableRecord
  2
AM_ISO09W050
 70
     0
  3
_____ . . _____ . . _____ . . ____ .. ____
 72
    65
 73
     6
 40
22.5
 49
12.0
 74
     0
 49
-1.5
 74
     0
 49
3.0
 74
     0
 49
-1.5
 74
     0
 49
3.0
 74
     0
 49
-1.5
 74
     0
  0
LTYPE
  5
46
330
5
100
AcDbSymbolTableRecord
100
AcDbLinetypeTableRecord
  2
Amconstr
 70
     0
  3
_______________________
 72
    65
 73
     2
 40
9999.0
 49
9999.0
 74
     0
 49
0.0
 74
     0
  0
LTYPE
  5
47
330
5
100
AcDbSymbolTableRecord
100
AcDbLinetypeTableRecord
  2
AM_ISO02W050x2
 70
     0
  3
 _ _ _ _ _ _ _ _ _ _ _ _
 72
    65
 73
     2
 40
3.75
 49
3.0
 74
     0
 49
-0.75
 74
     0
  0
LTYPE
  5
48
330
5
100
AcDbSymbolTableRecord
100
AcDbLinetypeTableRecord
  2
AM_ISO08W050x2
 70
     0
  3
__ . __ . __ . __ . __ . __
 72
    65
 73
     4
 40
9.0
 49
6.0
 74
     0
 49
-0.75
 74
     0
 49
1.5
 74
     0
 49
-0.75
 74
     0
  0
LTYPE
  5
4B
330
5
100
AcDbSymbolTableRecord
100
AcDbLinetypeTableRecord
  2
Amzigzag
 70
     0
  3
/\/-/\/-/\/-/\/-/\/-/\/
 72
    65
 73
     2
 40
11.0001
 49
0.0001
 74
     4
 75
   135
340
4A
 46
0.04
 50
0.0
 44
0.0
 45
0.0
 49
-11.0
 74
     0
  0
LTYPE
  5
A2E3
330
5
100
AcDbSymbolTableRecord
100
AcDbLinetypeTableRecord
  2
PHANTOM
 70
     0
  3
Phantom ______  __  __  ______  __  __  ______
 72
    65
 73
     6
 40
63.5
 49
31.75
 74
     0
 49
-6.349999999999997
 74
     0
 49
6.349999999999997
 74
     0
 49
-6.349999999999997
 74
     0
 49
6.349999999999997
 74
     0
 49
-6.349999999999997
 74
     0
  0
LTYPE
  5
B266
330
5
100
AcDbSymbolTableRecord
100
AcDbLinetypeTableRecord
  2
HIDDEN
 70
     0
  3
Hidden __ __ __ __ __ __ __ __ __ __ __ __ __ _
 72
    65
 73
     2
 40
9.524999999999996
 49
6.349999999999997
 74
     0
 49
-3.174999999999998
 74
     0
  0
LTYPE
  5
B267
330
5
100
AcDbSymbolTableRecord
100
AcDbLinetypeTableRecord
  2
PHANTOM2
 70
     0
  3
Phantom (.5x) ___ _ _ ___ _ _ ___ _ _ ___ _ _
 72
    65
 73
     6
 40
31.75
 49
15.875
 74
     0
 49
-3.174999999999998
 74
     0
 49
3.174999999999998
 74
     0
 49
-3.174999999999998
 74
     0
 49
3.174999999999998
 74
     0
 49
-3.174999999999998
 74
     0
  0
LTYPE
  5
B268
330
5
100
AcDbSymbolTableRecord
100
AcDbLinetypeTableRecord
  2
CENTER
 70
     0
  3
____ _ ____ _ ____ _ ____ _ ____ _ ____ _ ____
 72
    65
 73
     4
 40
17.5
 49
13.0
 74
     0
 49
-1.5
 74
     0
 49
1.5
 74
     0
 49
-1.5
 74
     0
  0
LTYPE
  5
B35C
330
5
100
AcDbSymbolTableRecord
100
AcDbLinetypeTableRecord
  2
ACISOWELD
 70
     0
  3
_ _ _ _ _
 72
    65
 73
     2
 40
2.0
 49
2.0
 74
     0
 49
-1.0
 74
     0
  0
LTYPE
  5
B35D
330
5
100
AcDbSymbolTableRecord
100
AcDbLinetypeTableRecord
  2
ACISOTGB
 70
     0
  3
__ . . __ . .
 72
    65
 73
     6
 40
9.0
 49
4.0
 74
     0
 49
-1.0
 74
     0
 49
1.0
 74
     0
 49
-1.0
 74
     0
 49
1.0
 74
     0
 49
-1.0
 74
     0
  0
LTYPE
  5
B35E
330
5
100
AcDbSymbolTableRecord
100
AcDbLinetypeTableRecord
  2
ACISOTGL
 70
     0
  3
_ _ _ _ _
 72
    65
 73
     2
 40
3.0
 49
2.0
 74
     0
 49
-1.0
 74
     0
  0
ENDTAB
  0
TABLE
  2
LAYER
  5
2
330
0
100
AcDbSymbolTable
 70
     8
  0
LAYER
  5
10
330
2
100
AcDbSymbolTableRecord
100
AcDbLayerTableRecord
  2
0
 70
     0
 62
     7
  6
CONTINUOUS
370
    -3
390
F
  0
LAYER
  5
7D
330
2
100
AcDbSymbolTableRecord
100
AcDbLayerTableRecord
  2
AM_5
 70
     0
 62
     3
  6
CONTINUOUS
370
    -3
390
F
  0
LAYER
  5
7F
330
2
100
AcDbSymbolTableRecord
100
AcDbLayerTableRecord
  2
DEFPOINTS
 70
     0
 62
     7
  6
CONTINUOUS
290
     0
370
    -3
390
F
  0
LAYER
  5
12B1
330
2
100
AcDbSymbolTableRecord
100
AcDbLayerTableRecord
  2
AM_0
 70
     0
 62
     7
  6
CONTINUOUS
370
    -3
390
F
  0
LAYER
  5
2222
330
2
100
AcDbSymbolTableRecord
100
AcDbLayerTableRecord
  2
AM_6
 70
     0
 62
     2
  6
CONTINUOUS
370
    -3
390
F
  0
LAYER
  5
7DB2
330
2
100
AcDbSymbolTableRecord
100
AcDbLayerTableRecord
  2
AM_7
 70
     0
 62
     4
  6
AM_ISO08W050
370
    -3
390
F
  0
LAYER
  5
8B83
330
2
100
AcDbSymbolTableRecord
100
AcDbLayerTableRecord
  2
PV0001_1
 70
     0
 62
     7
  6
CONTINUOUS
370
    -3
390
F
  0
LAYER
  5
A2E4
330
2
100
AcDbSymbolTableRecord
100
AcDbLayerTableRecord
  2
AM_11
 70
     0
 62
     3
  6
PHANTOM
370
    -3
390
F
  0
ENDTAB
  0
TABLE
  2
STYLE
  5
3
330
0
100
AcDbSymbolTable
 70
     4
  0
STYLE
  5
11
330
3
100
AcDbSymbolTableRecord
100
AcDbTextStyleTableRecord
  2
STANDARD
 70
     0
 40
0.0
 41
1.0
 50
0.0
 71
     0
 42
2.5
  3
ISOCP.SHX
  4
EXTFONT.SHX
  0
STYLE
  5
4A
330
3
100
AcDbSymbolTableRecord
100
AcDbTextStyleTableRecord
  2

 70
     1
 40
0.0
 41
1.0
 50
0.0
 71
     0
 42
2.5
  3
ltypeshp.shx
  4

  0
STYLE
  5
B34E
330
3
100
AcDbSymbolTableRecord
100
AcDbTextStyleTableRecord
  2
ACISOTS
 70
     0
 40
1.0
 41
1.0
 50
0.0
 71
     0
 42
2.5
  3
isocp.shx
  4
extfont.shx
  0
STYLE
  5
B35B
330
3
100
AcDbSymbolTableRecord
100
AcDbTextStyleTableRecord
  2
ACISOGDT
 70
     0
 40
0.0
 41
1.0
 50
0.0
 71
     0
 42
2.5
  3
amgdt.shx
  4

  0
ENDTAB
  0
TABLE
  2
VIEW
  5
6
330
0
100
AcDbSymbolTable
 70
     6
  0
VIEW
  5
A30
330
6
100
AcDbSymbolTableRecord
100
AcDbViewTableRecord
  2
AM_VIEW1
 70
     0
 40
148.5
 10
112.0719649561952
 20
222.75
 41
224.1439299123904
 11
0.0
 21
0.0
 31
1.0
 12
0.0
 22
0.0
 32
0.0
 42
50.0
 43
0.0
 44
0.0
 50
0.0
 71
     0
281
     0
 72
     0
  0
VIEW
  5
A31
330
6
100
AcDbSymbolTableRecord
100
AcDbViewTableRecord
  2
AM_VIEW2
 70
     0
 40
148.5
 10
307.9280350438047
 20
222.75
 41
224.1439299123904
 11
0.0
 21
0.0
 31
1.0
 12
0.0
 22
0.0
 32
0.0
 42
50.0
 43
0.0
 44
0.0
 50
0.0
 71
     0
281
     0
 72
     0
  0
VIEW
  5
A32
330
6
100
AcDbSymbolTableRecord
100
AcDbViewTableRecord
  2
AM_VIEW3
 70
     0
 40
148.5
 10
112.0719649561952
 20
74.25
 41
224.1439299123904
 11
0.0
 21
0.0
 31
1.0
 12
0.0
 22
0.0
 32
0.0
 42
50.0
 43
0.0
 44
0.0
 50
0.0
 71
     0
281
     0
 72
     0
  0
VIEW
  5
A33
330
6
100
AcDbSymbolTableRecord
100
AcDbViewTableRecord
  2
AM_VIEW4
 70
     0
 40
148.5
 10
307.9280350438047
 20
74.25
 41
224.1439299123904
 11
0.0
 21
0.0
 31
1.0
 12
0.0
 22
0.0
 32
0.0
 42
50.0
 43
0.0
 44
0.0
 50
0.0
 71
     0
281
     0
 72
     0
  0
VIEW
  5
A34
330
6
100
AcDbSymbolTableRecord
100
AcDbViewTableRecord
  2
AM_VIEW5
 70
     0
 40
148.5
 10
210.0
 20
148.5
 41
224.1439299123904
 11
0.0
 21
0.0
 31
1.0
 12
0.0
 22
0.0
 32
0.0
 42
50.0
 43
0.0
 44
0.0
 50
0.0
 71
     0
281
     0
 72
     0
  0
VIEW
  5
A35
330
6
100
AcDbSymbolTableRecord
100
AcDbViewTableRecord
  2
AM_VIEW6
 70
     0
 40
296.9970299999999
 10
210.0
 20
148.5
 41
448.2833769461826
 11
0.0
 21
0.0
 31
1.0
 12
0.0
 22
0.0
 32
0.0
 42
50.0
 43
0.0
 44
0.0
 50
0.0
 71
     0
281
     0
 72
     0
  0
ENDTAB
  0
TABLE
  2
UCS
  5
7
330
0
100
AcDbSymbolTable
 70
     0
  0
ENDTAB
  0
TABLE
  2
APPID
  5
9
330
0
100
AcDbSymbolTable
 70
    44
  0
APPID
  5
12
330
9
100
AcDbSymbolTableRecord
100
AcDbRegAppTableRecord
  2
ACAD
 70
     0
  0
APPID
  5
2C
330
9
100
AcDbSymbolTableRecord
100
AcDbRegAppTableRecord
  2
MCAD_NO_VIS
 70
     0
  0
APPID
  5
2D
330
9
100
AcDbSymbolTableRecord
100
AcDbRegAppTableRecord
  2
ACAD_TEMP_GRAPHIC
 70
     0
  0
APPID
  5
B9
330
9
100
AcDbSymbolTableRecord
100
AcDbRegAppTableRecord
  2
GENIUS_GENDTOL_13
 70
     0
  0
APPID
  5
359
330
9
100
AcDbSymbolTableRecord
100
AcDbRegAppTableRecord
  2
GENIUS_GENREC_14
 70
     0
  0
APPID
  5
35A
330
9
100
AcDbSymbolTableRecord
100
AcDbRegAppTableRecord
  2
GENIUS_GENODEF_13
 70
     0
  0
APPID
  5
35B
330
9
100
AcDbSymbolTableRecord
100
AcDbRegAppTableRecord
  2
GENIUS_GENOBJ-N-REC_13
 70
     0
  0
APPID
  5
667
330
9
100
AcDbSymbolTableRecord
100
AcDbRegAppTableRecord
  2
GENIUS_GENCFG_13
 70
     0
  0
APPID
  5
668
330
9
100
AcDbSymbolTableRecord
100
AcDbRegAppTableRecord
  2
GENIUS_GENCFG0_13
 70
     0
  0
APPID
  5
669
330
9
100
AcDbSymbolTableRecord
100
AcDbRegAppTableRecord
  2
GENIUS_GENCFG1_13
 70
     0
  0
APPID
  5
66A
330
9
100
AcDbSymbolTableRecord
100
AcDbRegAppTableRecord
  2
GENIUS_GENCFG2_13
 70
     0
  0
APPID
  5
66B
330
9
100
AcDbSymbolTableRecord
100
AcDbRegAppTableRecord
  2
GENIUS_GENCFG3_13
 70
     0
  0
APPID
  5
66C
330
9
100
AcDbSymbolTableRecord
100
AcDbRegAppTableRecord
  2
GENIUS_GENCFG4_13
 70
     0
  0
APPID
  5
A76
330
9
100
AcDbSymbolTableRecord
100
AcDbRegAppTableRecord
  2
GENIUS_GENBLLY_14
 70
     0
  0
APPID
  5
A77
330
9
100
AcDbSymbolTableRecord
100
AcDbRegAppTableRecord
  2
GENIUS_GENOBJ-N-CEN_13
 70
     0
  0
APPID
  5
A83
330
9
100
AcDbSymbolTableRecord
100
AcDbRegAppTableRecord
  2
GENIUS_GENTRA_14
 70
     0
  0
APPID
  5
A8D
330
9
100
AcDbSymbolTableRecord
100
AcDbRegAppTableRecord
  2
GENIUS_GENOBJ-N-TIT_13
 70
     0
  0
APPID
  5
A8E
330
9
100
AcDbSymbolTableRecord
100
AcDbRegAppTableRecord
  2
GENIUS_GENTITLE_13
 70
     0
  0
APPID
  5
A8F
330
9
100
AcDbSymbolTableRecord
100
AcDbRegAppTableRecord
  2
GENIUS_GENOENT_13
 70
     0
  0
APPID
  5
A90
330
9
100
AcDbSymbolTableRecord
100
AcDbRegAppTableRecord
  2
GENIUS_GENOREF_13
 70
     0
  0
APPID
  5
A91
330
9
100
AcDbSymbolTableRecord
100
AcDbRegAppTableRecord
  2
GENIUS_GENOLIS_13
 70
     0
  0
APPID
  5
A92
330
9
100
AcDbSymbolTableRecord
100
AcDbRegAppTableRecord
  2
GENIUS_GENZVEED_13
 70
     0
  0
APPID
  5
A93
330
9
100
AcDbSymbolTableRecord
100
AcDbRegAppTableRecord
  2
GENIUS_GENSCREG_15
 70
     0
  0
APPID
  5
A94
330
9
100
AcDbSymbolTableRecord
100
AcDbRegAppTableRecord
  2
GENIUS_GENOBJ-N-SDF_13
 70
     0
  0
APPID
  5
12B5
330
9
100
AcDbSymbolTableRecord
100
AcDbRegAppTableRecord
  2
GENIUS_GENOBJ-N-RSBK_13
 70
     0
  0
APPID
  5
12B6
330
9
100
AcDbSymbolTableRecord
100
AcDbRegAppTableRecord
  2
GENIUS_GENOBJ-N-LIB_13
 70
     0
  0
APPID
  5
12B7
330
9
100
AcDbSymbolTableRecord
100
AcDbRegAppTableRecord
  2
GENIUS_GENSCALE_13
 70
     0
  0
APPID
  5
12B8
330
9
100
AcDbSymbolTableRecord
100
AcDbRegAppTableRecord
  2
GENIUS_GENOBJ-N-HTC_13
 70
     0
  0
APPID
  5
12B9
330
9
100
AcDbSymbolTableRecord
100
AcDbRegAppTableRecord
  2
GENIUS_GENHATCH_13
 70
     0
  0
APPID
  5
1C0A
330
9
100
AcDbSymbolTableRecord
100
AcDbRegAppTableRecord
  2
BASE_TYPE
 70
     0
  0
APPID
  5
276B
330
9
100
AcDbSymbolTableRecord
100
AcDbRegAppTableRecord
  2
GENIUS_GENOBJ-N-FIL_13
 70
     0
  0
APPID
  5
3640
330
9
100
AcDbSymbolTableRecord
100
AcDbRegAppTableRecord
  2
GENIUS_GENBH_13
 70
     0
  0
APPID
  5
36D1
330
9
100
AcDbSymbolTableRecord
100
AcDbRegAppTableRecord
  2
GENIUS_GENOBJ-F-SPR_13
 70
     0
  0
APPID
  5
36DA
330
9
100
AcDbSymbolTableRecord
100
AcDbRegAppTableRecord
  2
GENIUS_GEFSPRING_13
 70
     0
  0
APPID
  5
36DB
330
9
100
AcDbSymbolTableRecord
100
AcDbRegAppTableRecord
  2
GENIUS_GEFSPRINGP_13
 70
     0
  0
APPID
  5
4D67
330
9
100
AcDbSymbolTableRecord
100
AcDbRegAppTableRecord
  2
GENIUS_GENFIL_13
 70
     0
  0
APPID
  5
4D68
330
9
100
AcDbSymbolTableRecord
100
AcDbRegAppTableRecord
  2
GENIUS_GENOBJ-N-CHA_13
 70
     0
  0
APPID
  5
B22F
330
9
100
AcDbSymbolTableRecord
100
AcDbRegAppTableRecord
  2
GENIUS_GENOBJ-N-CRS_13
 70
     0
  0
APPID
  5
B230
330
9
100
AcDbSymbolTableRecord
100
AcDbRegAppTableRecord
  2
AD_DRAW
 70
     0
  0
APPID
  5
B231
330
9
100
AcDbSymbolTableRecord
100
AcDbRegAppTableRecord
  2
ACATTRIBSERVICES
 70
     0
  0
APPID
  5
B232
330
9
100
AcDbSymbolTableRecord
100
AcDbRegAppTableRecord
  2
DESIGNERASSEMBLIES
 70
     0
  0
APPID
  5
B233
330
9
100
AcDbSymbolTableRecord
100
AcDbRegAppTableRecord
  2
ACADM_DIM_EDIT
 70
     0
  0
APPID
  5
B234
330
9
100
AcDbSymbolTableRecord
100
AcDbRegAppTableRecord
  2
AMDT_DM_ADJ
 70
     0
  0
APPID
  5
B235
330
9
100
AcDbSymbolTableRecord
100
AcDbRegAppTableRecord
  2
ACAD_PSEXT
 70
     0
  0
ENDTAB
  0
TABLE
  2
DIMSTYLE
  5
A
330
0
100
AcDbSymbolTable
 70
    11
100
AcDbDimStyleTable
 71
     1
340
58
  0
DIMSTYLE
105
58
330
A
100
AcDbSymbolTableRecord
100
AcDbDimStyleTableRecord
  2
AM_JIS
 70
     0
  4
"
 41
2.5
 42
0.0
 43
8.0
 44
0.4
 47
0.1
 48
0.1000000001
 73
     0
 74
     0
 77
     3
 78
     1
 79
     2
140
3.399999999999999
141
0.0
143
0.0393701
146
0.71
147
1.0
172
     1
176
     3
177
     3
178
     2
179
     2
271
     2
272
     2
275
     1
283
     0
284
     1
340
11
341
59
342
59
371
    -1
372
    -1
  0
DIMSTYLE
105
5F
102
{ACAD_REACTORS
330
B15D
102
}
330
A
100
AcDbSymbolTableRecord
100
AcDbDimStyleTableRecord
  2
AM_JIS$3
 70
     0
  4
"
 41
2.5
 42
0.0
 43
10.0
 44
1.0
 47
0.1
 48
0.1
 73
     0
 77
     3
 78
     1
 79
     2
140
3.399999999999999
141
0.0
143
0.0393701
146
0.71
147
1.0
172
     1
176
     3
177
     3
178
     2
179
     1
271
     2
272
     2
275
     1
283
     0
284
     1
288
     1
289
     0
340
11
341
59
342
59
371
    -1
372
    -1
  0
DIMSTYLE
105
65F
330
A
100
AcDbSymbolTableRecord
100
AcDbDimStyleTableRecord
  2
STANDARD
 70
     0
340
11
  0
DIMSTYLE
105
1761
102
{ACAD_REACTORS
330
A6EA
330
A76C
330
A79F
330
A969
330
A976
330
AE3A
330
B18F
330
B48F
102
}
330
A
100
AcDbSymbolTableRecord
100
AcDbDimStyleTableRecord
  2
AM_JIS$0
 70
     0
  4
"
 41
2.5
 42
0.1
 43
8.0
 44
0.5
 47
0.1
 48
0.1
 73
     0
 74
     0
 77
     3
 78
     1
 79
     2
140
3.399999999999999
141
0.0
143
0.0393701
146
0.71
147
0.9999999999999996
172
     1
176
     3
177
     3
178
     2
179
     1
271
     2
272
     2
275
     1
283
     0
284
     1
340
11
341
59
342
59
371
    -1
372
    -1
  0
DIMSTYLE
105
B367
330
A
100
AcDbSymbolTableRecord
100
AcDbDimStyleTableRecord
  2
AM_ISO
 70
     0
  4
"
 41
2.5
 42
1.0
 43
10.0
 44
1.0
 47
0.1
 48
0.1
 73
     0
 74
     0
 77
     1
 78
     8
 79
     2
140
3.5
141
0.0
143
0.0393701
146
0.71
147
1.5
172
     1
176
   256
177
   256
178
     2
271
     2
272
     3
274
     4
283
     0
284
     8
340
11
371
    -1
372
    -1
  0
DIMSTYLE
105
B368
330
A
100
AcDbSymbolTableRecord
100
AcDbDimStyleTableRecord
  2
AM_ISO$3
 70
     0
  4
"
 41
2.5
 42
1.0
 43
10.0
 44
1.0
 47
0.1
 48
0.1
 73
     0
 77
     1
 78
     8
 79
     2
140
3.5
141
0.0
143
0.0393701
146
0.71
147
1.5
176
   256
177
   256
178
     2
271
     2
272
     3
274
     4
283
     0
284
     8
288
     1
289
     0
340
11
371
    -1
372
    -1
  0
DIMSTYLE
105
B369
330
A
100
AcDbSymbolTableRecord
100
AcDbDimStyleTableRecord
  2
AM_ISO$4
 70
     0
  4
"
 41
2.5
 42
1.0
 43
10.0
 44
1.0
 47
0.1
 48
0.1
 73
     0
 77
     1
 78
     8
 79
     2
140
3.5
141
0.0
143
0.0393701
146
0.71
147
1.5
176
   256
177
   256
178
     2
271
     2
272
     3
274
     4
283
     0
284
     8
288
     1
289
     0
340
11
371
    -1
372
    -1
  0
DIMSTYLE
105
B36A
330
A
100
AcDbSymbolTableRecord
100
AcDbDimStyleTableRecord
  2
AM_ISO$6
 70
     0
  4
"
 41
2.5
 42
1.0
 43
10.0
 44
1.0
 47
0.1
 48
0.1
 73
     0
 74
     0
 78
     8
 79
     2
140
3.5
141
0.0
143
0.0393701
146
0.71
147
1.5
172
     1
176
   256
177
   256
178
     2
271
     2
272
     3
274
     4
283
     0
284
     8
340
11
371
    -1
372
    -1
  0
DIMSTYLE
105
B36B
330
A
100
AcDbSymbolTableRecord
100
AcDbDimStyleTableRecord
  2
AM_ISO$7
 70
     0
  4
"
 41
2.5
 42
1.0
 43
10.0
 44
1.0
 47
0.1
 48
0.1
 73
     0
 74
     0
 77
     1
 78
     8
 79
     2
140
5.0
141
0.0
143
0.0393701
146
0.71
147
1.5
172
     1
176
   256
177
   256
178
     2
271
     2
272
     3
274
     4
283
     0
284
     8
340
11
371
    -1
372
    -1
  0
DIMSTYLE
105
B36C
330
A
100
AcDbSymbolTableRecord
100
AcDbDimStyleTableRecord
  2
AM_ISO$SF
 70
     0
  4
"
 41
2.5
 42
1.0
 43
10.0
 44
1.0
 47
0.1
 48
0.1
 73
     0
 74
     0
 75
     1
 76
     1
 77
     1
 78
     8
 79
     2
140
3.5
141
0.0
143
0.0393701
146
0.71
147
1.5
172
     1
176
   256
177
   256
178
     2
271
     2
272
     3
274
     4
283
     0
284
     8
340
11
371
    -1
372
    -1
  0
DIMSTYLE
105
B36D
330
A
100
AcDbSymbolTableRecord
100
AcDbDimStyleTableRecord
  2
AM_ISO$SH
 70
     0
  4
"
 41
2.5
 42
1.0
 43
10.0
 44
1.0
 47
0.1
 48
0.1
 73
     0
 74
     0
 75
     1
 76
     1
 77
     1
 78
     8
 79
     2
140
3.5
141
0.0
143
0.0393701
144
2.0
146
0.71
147
1.5
172
     1
173
     1
176
   256
177
   256
178
     2
271
     2
272
     3
274
     4
283
     0
284
     8
340
11
343
64
371
    -1
372
    -1
  0
ENDTAB
  0
TABLE
  2
BLOCK_RECORD
  5
1
330
0
100
AcDbSymbolTable
 70
    12
  0
BLOCK_RECORD
  5
1F
102
{ACAD_XDICTIONARY
360
165
102
}
330
1
100
AcDbSymbolTableRecord
100
AcDbBlockTableRecord
  2
*MODEL_SPACE
340
B229
  0
BLOCK_RECORD
  5
1B
102
{ACAD_XDICTIONARY
360
B201
102
}
330
1
100
AcDbSymbolTableRecord
100
AcDbBlockTableRecord
  2
*PAPER_SPACE
340
B22A
  0
BLOCK_RECORD
  5
59
330
1
100
AcDbSymbolTableRecord
100
AcDbBlockTableRecord
  2
_Open30
340
0
102
{BLKREFS
331
B374
331
B375
331
B37D
331
B37E
331
B3A1
331
B3A2
331
B3BF
331
B3C0
331
B3CA
331
B3CB
331
B3D5
331
B3D6
331
B3F2
331
B3F3
331
B3FB
331
B3FC
331
B4B1
331
B4B2
102
}
  0
BLOCK_RECORD
  5
64
330
1
100
AcDbSymbolTableRecord
100
AcDbBlockTableRecord
  2
GENAXEH
340
0
  0
BLOCK_RECORD
  5
A7F5
330
1
100
AcDbSymbolTableRecord
100
AcDbBlockTableRecord
  2
*D2
340
0
  0
BLOCK_RECORD
  5
A826
330
1
100
AcDbSymbolTableRecord
100
AcDbBlockTableRecord
  2
*D3
340
0
  0
BLOCK_RECORD
  5
A832
330
1
100
AcDbSymbolTableRecord
100
AcDbBlockTableRecord
  2
*D4
340
0
  0
BLOCK_RECORD
  5
A96A
330
1
100
AcDbSymbolTableRecord
100
AcDbBlockTableRecord
  2
*D5
340
0
  0
BLOCK_RECORD
  5
A977
330
1
100
AcDbSymbolTableRecord
100
AcDbBlockTableRecord
  2
*D6
340
0
  0
BLOCK_RECORD
  5
AE3B
330
1
100
AcDbSymbolTableRecord
100
AcDbBlockTableRecord
  2
*D7
340
0
  0
BLOCK_RECORD
  5
B163
330
1
100
AcDbSymbolTableRecord
100
AcDbBlockTableRecord
  2
*D8
340
0
  0
BLOCK_RECORD
  5
B190
330
1
100
AcDbSymbolTableRecord
100
AcDbBlockTableRecord
  2
*D9
340
0
  0
BLOCK_RECORD
  5
B490
330
1
100
AcDbSymbolTableRecord
100
AcDbBlockTableRecord
  2
*D11
340
0
  0
ENDTAB
  0
ENDSEC
  0
SECTION
  2
BLOCKS
  0
BLOCK
  5
20
330
1F
100
AcDbEntity
  8
0
100
AcDbBlockBegin
  2
*MODEL_SPACE
 70
     0
 10
0.0
 20
0.0
 30
0.0
  3
*MODEL_SPACE
  1

  0
ENDBLK
  5
21
330
1F
100
AcDbEntity
  8
0
100
AcDbBlockEnd
  0
BLOCK
  5
1C
330
1B
100
AcDbEntity
 67
     1
  8
0
100
AcDbBlockBegin
  2
*PAPER_SPACE
 70
     0
 10
0.0
 20
0.0
 30
0.0
  3
*PAPER_SPACE
  1

  0
ENDBLK
  5
1D
330
1B
100
AcDbEntity
 67
     1
  8
0
100
AcDbBlockEnd
  0
BLOCK
  5
B2B5
330
59
100
AcDbEntity
  8
0
100
AcDbBlockBegin
  2
_Open30
 70
     0
 10
0.0
 20
0.0
 30
0.0
  3
_Open30
  1

  0
LINE
  5
B2B6
330
59
100
AcDbEntity
  8
0
 62
     0
370
    -2
100
AcDbLine
 10
-1.0
 20
0.26794919
 30
0.0
 11
0.0
 21
0.0
 31
0.0
  0
LINE
  5
B2B7
330
59
100
AcDbEntity
  8
0
 62
     0
370
    -2
100
AcDbLine
 10
0.0
 20
0.0
 30
0.0
 11
-1.0
 21
-0.26794919
 31
0.0
  0
LINE
  5
B2B8
330
59
100
AcDbEntity
  8
0
 62
     0
370
    -2
100
AcDbLine
 10
0.0
 20
0.0
 30
0.0
 11
-1.0
 21
0.0
 31
0.0
  0
ENDBLK
  5
B2B9
330
59
100
AcDbEntity
  8
0
100
AcDbBlockEnd
  0
BLOCK
  5
B2C3
330
64
100
AcDbEntity
  8
0
100
AcDbBlockBegin
  2
GENAXEH
 70
     0
 10
0.0
 20
0.0
 30
0.0
  3
GENAXEH
  1

  0
LINE
  5
B2C4
330
64
100
AcDbEntity
  8
0
100
AcDbLine
 10
-1.0
 20
0.0
 30
0.0
 11
1.0
 21
0.0
 31
0.0
  0
ENDBLK
  5
B2C5
330
64
100
AcDbEntity
  8
0
100
AcDbBlockEnd
  0
BLOCK
  5
A7FF
330
A7F5
100
AcDbEntity
  8
0
100
AcDbBlockBegin
  2
*D2
 70
     1
 10
0.0
 20
0.0
 30
0.0
  3
*D2
  1

  0
LINE
  5
B371
330
A7F5
100
AcDbEntity
  8
PV0001_1
 62
     3
100
AcDbLine
 10
-0.0000000000000075
 20
-0.1000000000001833
 30
0.0
 11
-0.0000000000000088
 21
-21.36149201378472
 31
0.0
  0
LINE
  5
B372
330
A7F5
100
AcDbEntity
  8
PV0001_1
 62
     3
100
AcDbLine
 10
149.999999999999
 20
19.90000000000276
 30
0.0
 11
149.999999999999
 21
-21.36149201378472
 31
0.0
  0
LINE
  5
B373
330
A7F5
100
AcDbEntity
  8
PV0001_1
 62
     3
100
AcDbLine
 10
2.49999999999999
 20
-20.86149201378471
 30
0.0
 11
147.499999999999
 21
-20.86149201378471
 31
0.0
  0
INSERT
  5
B374
330
A7F5
100
AcDbEntity
  8
PV0001_1
 62
     3
100
AcDbBlockReference
  2
_Open30
 10
-0.0000000000000088
 20
-20.86149201378471
 30
0.0
 41
2.5
 42
2.5
 43
2.5
 50
180.0
  0
INSERT
  5
B375
330
A7F5
100
AcDbEntity
  8
PV0001_1
 62
     3
100
AcDbBlockReference
  2
_Open30
 10
149.999999999999
 20
-20.86149201378471
 30
0.0
 41
2.5
 42
2.5
 43
2.5
  0
MTEXT
  5
B376
330
A7F5
100
AcDbEntity
  8
PV0001_1
 62
     2
100
AcDbMText
 10
74.99999999999909
 20
-18.16149201378472
 30
0.0
 40
3.399999999999999
 41
0.0
 71
     5
 72
     1
  1
150
 73
     1
 44
1.0
1001
ACAD
1000
MTEXTBEGIN
1070
    73
1070
     1
1070
    44
1040
1.0
1070
    74
1070
     0
1000
MTEXTEND
  0
POINT
  5
B377
330
A7F5
100
AcDbEntity
  8
DEFPOINTS
 62
     0
100
AcDbPoint
 10
-0.0000000000000075
 20
-0.0000000000001833
 30
0.0
  0
POINT
  5
B378
330
A7F5
100
AcDbEntity
  8
DEFPOINTS
 62
     0
100
AcDbPoint
 10
149.999999999999
 20
20.00000000000277
 30
0.0
  0
POINT
  5
B379
330
A7F5
100
AcDbEntity
  8
DEFPOINTS
 62
     0
100
AcDbPoint
 10
149.999999999999
 20
-20.86149201378471
 30
0.0
  0
ENDBLK
  5
A800
330
A7F5
100
AcDbEntity
  8
0
100
AcDbBlockEnd
  0
BLOCK
  5
A830
330
A826
100
AcDbEntity
  8
0
100
AcDbBlockBegin
  2
*D3
 70
     1
 10
0.0
 20
0.0
 30
0.0
  3
*D3
  1

  0
LINE
  5
B37A
330
A826
100
AcDbEntity
  8
PV0001_1
 62
     3
100
AcDbLine
 10
22.14999999999908
 20
-51.0388828008463
 30
0.0
 11
22.14999999999908
 21
-32.05397158380556
 31
0.0
  0
LINE
  5
B37B
330
A826
100
AcDbEntity
  8
PV0001_1
 62
     3
100
AcDbLine
 10
-0.0000000000000089
 20
-56.03200108697834
 30
0.0
 11
-0.0000000000000074
 21
-32.05397158380556
 31
0.0
  0
LINE
  5
B37C
330
A826
100
AcDbEntity
  8
PV0001_1
 62
     3
100
AcDbLine
 10
19.64999999999908
 20
-32.55397158380556
 30
0.0
 11
2.499999999999991
 21
-32.55397158380556
 31
0.0
  0
INSERT
  5
B37D
330
A826
100
AcDbEntity
  8
PV0001_1
 62
     3
100
AcDbBlockReference
  2
_Open30
 10
22.14999999999908
 20
-32.55397158380556
 30
0.0
 41
2.5
 42
2.5
 43
2.5
  0
INSERT
  5
B37E
330
A826
100
AcDbEntity
  8
PV0001_1
 62
     3
100
AcDbBlockReference
  2
_Open30
 10
-0.0000000000000074
 20
-32.55397158380556
 30
0.0
 41
2.5
 42
2.5
 43
2.5
 50
180.0
  0
MTEXT
  5
B37F
330
A826
100
AcDbEntity
  8
PV0001_1
 62
     2
100
AcDbMText
 10
11.07499999999953
 20
-29.85363693813626
 30
0.0
 40
3.399999999999999
 41
0.0
 71
     5
 72
     1
  1
22
 73
     1
 44
1.0
1001
ACAD
1000
MTEXTBEGIN
1070
    73
1070
     1
1070
    44
1040
1.0
1070
    74
1070
     0
1000
MTEXTEND
  0
POINT
  5
B380
330
A826
100
AcDbEntity
  8
DEFPOINTS
 62
     0
100
AcDbPoint
 10
22.14999999999908
 20
-51.1388828008463
 30
0.0
  0
POINT
  5
B381
330
A826
100
AcDbEntity
  8
DEFPOINTS
 62
     0
100
AcDbPoint
 10
-0.0000000000000089
 20
-56.13200108697832
 30
0.0
  0
POINT
  5
B382
330
A826
100
AcDbEntity
  8
DEFPOINTS
 62
     0
100
AcDbPoint
 10
-0.0000000000000074
 20
-32.55397158380556
 30
0.0
  0
ENDBLK
  5
A831
330
A826
100
AcDbEntity
  8
0
100
AcDbBlockEnd
  0
BLOCK
  5
A83C
330
A832
100
AcDbEntity
  8
0
100
AcDbBlockBegin
  2
*D4
 70
     1
 10
0.0
 20
0.0
 30
0.0
  3
*D4
  1

  0
LINE
  5
B3F8
330
A832
100
AcDbEntity
  8
PV0001_1
 62
     3
100
AcDbLine
 10
23.19999999999909
 20
44.49999999999981
 30
0.0
 11
-25.36740875244094
 21
44.49999999999985
 31
0.0
  0
LINE
  5
B3F9
330
A832
100
AcDbEntity
  8
PV0001_1
 62
     3
100
AcDbLine
 10
-0.1
 20
-0.0000000000001832
 30
0.0
 11
-25.36740875244094
 21
-0.0000000000001761
 31
0.0
  0
LINE
  5
B3FA
330
A832
100
AcDbEntity
  8
PV0001_1
 62
     3
100
AcDbLine
 10
-24.86740875244093
 20
41.99999999999984
 30
0.0
 11
-24.86740875244095
 21
2.499999999999823
 31
0.0
  0
INSERT
  5
B3FB
330
A832
100
AcDbEntity
  8
PV0001_1
 62
     3
100
AcDbBlockReference
  2
_Open30
 10
-24.86740875244093
 20
44.49999999999985
 30
0.0
 41
2.5
 42
2.5
 43
2.5
 50
90.0
  0
INSERT
  5
B3FC
330
A832
100
AcDbEntity
  8
PV0001_1
 62
     3
100
AcDbBlockReference
  2
_Open30
 10
-24.86740875244095
 20
-0.0000000000001762
 30
0.0
 41
2.5
 42
2.5
 43
2.5
 50
270.0
  0
MTEXT
  5
B3FD
330
A832
100
AcDbEntity
  8
PV0001_1
 62
     2
100
AcDbMText
 10
-27.56740875244095
 20
22.24999999999983
 30
0.0
 40
3.399999999999999
 41
0.0
 71
     5
 72
     1
  1
44.5
 11
0.0000000000000001
 21
1.0
 31
0.0
 73
     1
 44
1.0
1001
ACAD
1000
MTEXTBEGIN
1070
    73
1070
     1
1070
    44
1040
1.0
1070
    74
1070
     0
1000
MTEXTEND
  0
POINT
  5
B3FE
330
A832
100
AcDbEntity
  8
DEFPOINTS
 62
     0
100
AcDbPoint
 10
23.29999999999909
 20
44.49999999999981
 30
0.0
  0
POINT
  5
B3FF
330
A832
100
AcDbEntity
  8
DEFPOINTS
 62
     0
100
AcDbPoint
 10
0.0
 20
-0.0000000000001833
 30
0.0
  0
POINT
  5
B400
330
A832
100
AcDbEntity
  8
DEFPOINTS
 62
     0
100
AcDbPoint
 10
-24.86740875244095
 20
-0.0000000000001762
 30
0.0
  0
ENDBLK
  5
A83D
330
A832
100
AcDbEntity
  8
0
100
AcDbBlockEnd
  0
BLOCK
  5
A974
330
A96A
100
AcDbEntity
  8
0
100
AcDbBlockBegin
  2
*D5
 70
     1
 10
0.0
 20
0.0
 30
0.0
  3
*D5
  1

  0
LINE
  5
B3BC
330
A96A
100
AcDbEntity
  8
AM_5
 62
     3
100
AcDbLine
 10
150.099999999999
 20
-81.13200299432739
 30
0.0
 11
169.4145714225141
 21
-81.13200299432739
 31
0.0
  0
LINE
  5
B3BD
330
A96A
100
AcDbEntity
  8
AM_5
 62
     3
100
AcDbLine
 10
150.099999999999
 20
-56.13200108697838
 30
0.0
 11
169.4145714225142
 21
-56.13200108697838
 31
0.0
  0
LINE
  5
B3BE
330
A96A
100
AcDbEntity
  8
AM_5
 62
     3
100
AcDbLine
 10
168.9145714225142
 20
-78.63200299432738
 30
0.0
 11
168.9145714225142
 21
-58.63200108697838
 31
0.0
  0
INSERT
  5
B3BF
330
A96A
100
AcDbEntity
  8
AM_5
 62
     3
100
AcDbBlockReference
  2
_Open30
 10
168.9145714225142
 20
-81.13200299432739
 30
0.0
 41
2.5
 42
2.5
 43
2.5
 50
270.0
  0
INSERT
  5
B3C0
330
A96A
100
AcDbEntity
  8
AM_5
 62
     3
100
AcDbBlockReference
  2
_Open30
 10
168.9145714225142
 20
-56.13200108697838
 30
0.0
 41
2.5
 42
2.5
 43
2.5
 50
90.0
  0
MTEXT
  5
B3C1
330
A96A
100
AcDbEntity
  8
AM_5
 62
     2
100
AcDbMText
 10
166.2142367768449
 20
-68.63200204065285
 30
0.0
 40
3.399999999999999
 41
0.0
 71
     5
 72
     1
  1
25
 11
0.0000000000000001
 21
1.0
 31
0.0
 73
     1
 44
1.0
1001
ACAD
1000
MTEXTBEGIN
1070
    73
1070
     1
1070
    44
1040
1.0
1070
    74
1070
     0
1000
MTEXTEND
  0
POINT
  5
B3C2
330
A96A
100
AcDbEntity
  8
DEFPOINTS
 62
     0
100
AcDbPoint
 10
149.999999999999
 20
-81.13200299432739
 30
0.0
  0
POINT
  5
B3C3
330
A96A
100
AcDbEntity
  8
DEFPOINTS
 62
     0
100
AcDbPoint
 10
149.999999999999
 20
-56.13200108697838
 30
0.0
  0
POINT
  5
B3C4
330
A96A
100
AcDbEntity
  8
DEFPOINTS
 62
     0
100
AcDbPoint
 10
168.9145714225142
 20
-56.13200108697838
 30
0.0
  0
ENDBLK
  5
A975
330
A96A
100
AcDbEntity
  8
0
100
AcDbBlockEnd
  0
BLOCK
  5
A981
330
A977
100
AcDbEntity
  8
0
100
AcDbBlockBegin
  2
*D6
 70
     1
 10
0.0
 20
0.0
 30
0.0
  3
*D6
  1

  0
LINE
  5
B3EF
330
A977
100
AcDbEntity
  8
AM_5
 62
     3
100
AcDbLine
 10
150.099999999999
 20
19.50000000000277
 30
0.0
 11
169.04108459959
 21
19.50000000000276
 31
0.0
  0
LINE
  5
B3F0
330
A977
100
AcDbEntity
  8
AM_5
 62
     3
100
AcDbLine
 10
150.099999999999
 20
44.49999999999976
 30
0.0
 11
169.04108459959
 21
44.49999999999976
 31
0.0
  0
LINE
  5
B3F1
330
A977
100
AcDbEntity
  8
AM_5
 62
     3
100
AcDbLine
 10
168.54108459959
 20
22.00000000000276
 30
0.0
 11
168.54108459959
 21
41.99999999999976
 31
0.0
  0
INSERT
  5
B3F2
330
A977
100
AcDbEntity
  8
AM_5
 62
     3
100
AcDbBlockReference
  2
_Open30
 10
168.54108459959
 20
19.50000000000276
 30
0.0
 41
2.5
 42
2.5
 43
2.5
 50
270.0
  0
INSERT
  5
B3F3
330
A977
100
AcDbEntity
  8
AM_5
 62
     3
100
AcDbBlockReference
  2
_Open30
 10
168.54108459959
 20
44.49999999999976
 30
0.0
 41
2.5
 42
2.5
 43
2.5
 50
90.0
  0
MTEXT
  5
B3F4
330
A977
100
AcDbEntity
  8
AM_5
 62
     2
100
AcDbMText
 10
165.8407499539207
 20
32.00000000000129
 30
0.0
 40
3.399999999999999
 41
0.0
 71
     5
 72
     1
  1
25
 11
0.0000000000000001
 21
1.0
 31
0.0
 73
     1
 44
1.0
1001
ACAD
1000
MTEXTBEGIN
1070
    73
1070
     1
1070
    44
1040
1.0
1070
    74
1070
     0
1000
MTEXTEND
  0
POINT
  5
B3F5
330
A977
100
AcDbEntity
  8
DEFPOINTS
 62
     0
100
AcDbPoint
 10
149.999999999999
 20
19.50000000000277
 30
0.0
  0
POINT
  5
B3F6
330
A977
100
AcDbEntity
  8
DEFPOINTS
 62
     0
100
AcDbPoint
 10
149.999999999999
 20
44.49999999999976
 30
0.0
  0
POINT
  5
B3F7
330
A977
100
AcDbEntity
  8
DEFPOINTS
 62
     0
100
AcDbPoint
 10
168.54108459959
 20
44.49999999999976
 30
0.0
  0
ENDBLK
  5
A982
330
A977
100
AcDbEntity
  8
0
100
AcDbBlockEnd
  0
BLOCK
  5
AE45
330
AE3B
100
AcDbEntity
  8
0
100
AcDbBlockBegin
  2
*D7
 70
     1
 10
0.0
 20
0.0
 30
0.0
  3
*D7
  1

  0
LINE
  5
B39E
330
AE3B
100
AcDbEntity
  8
AM_5
 62
     3
100
AcDbLine
 10
23.29999999999909
 20
50.5999999999998
 30
0.0
 11
23.29999999999909
 21
64.06389274308001
 31
0.0
  0
LINE
  5
B39F
330
AE3B
100
AcDbEntity
  8
AM_5
 62
     3
100
AcDbLine
 10
0.0
 20
0.0999999999998168
 30
0.0
 11
0.0000000000000039
 21
64.06389274308001
 31
0.0
  0
LINE
  5
B3A0
330
AE3B
100
AcDbEntity
  8
AM_5
 62
     3
100
AcDbLine
 10
20.79999999999909
 20
63.56389274308
 30
0.0
 11
2.500000000000003
 21
63.56389274308
 31
0.0
  0
INSERT
  5
B3A1
330
AE3B
100
AcDbEntity
  8
AM_5
 62
     3
100
AcDbBlockReference
  2
_Open30
 10
23.29999999999909
 20
63.56389274308
 30
0.0
 41
2.5
 42
2.5
 43
2.5
  0
INSERT
  5
B3A2
330
AE3B
100
AcDbEntity
  8
AM_5
 62
     3
100
AcDbBlockReference
  2
_Open30
 10
0.0000000000000039
 20
63.56389274308
 30
0.0
 41
2.5
 42
2.5
 43
2.5
 50
180.0
  0
MTEXT
  5
B3A3
330
AE3B
100
AcDbEntity
  8
AM_5
 62
     2
100
AcDbMText
 10
11.64999999999954
 20
66.26422738874929
 30
0.0
 40
3.399999999999999
 41
0.0
 71
     5
 72
     1
  1
23
 73
     1
 44
1.0
1001
ACAD
1000
MTEXTBEGIN
1070
    73
1070
     1
1070
    44
1040
1.0
1070
    74
1070
     0
1000
MTEXTEND
  0
POINT
  5
B3A4
330
AE3B
100
AcDbEntity
  8
DEFPOINTS
 62
     0
100
AcDbPoint
 10
23.29999999999909
 20
50.49999999999981
 30
0.0
  0
POINT
  5
B3A5
330
AE3B
100
AcDbEntity
  8
DEFPOINTS
 62
     0
100
AcDbPoint
 10
0.0
 20
-0.0000000000001833
 30
0.0
  0
POINT
  5
B3A6
330
AE3B
100
AcDbEntity
  8
DEFPOINTS
 62
     0
100
AcDbPoint
 10
0.0000000000000039
 20
63.56389274308
 30
0.0
  0
ENDBLK
  5
AE46
330
AE3B
100
AcDbEntity
  8
0
100
AcDbBlockEnd
  0
BLOCK
  5
B16D
330
B163
100
AcDbEntity
  8
0
100
AcDbBlockBegin
  2
*D8
 70
     1
 10
0.0
 20
0.0
 30
0.0
  3
*D8
  1

  0
LINE
  5
B3C6
330
B163
100
AcDbEntity
  8
AM_5
 62
     3
100
AcDbLine
 10
-12.18218152822678
 20
-25.91279762628771
 30
0.0
 11
-10.97603578405118
 21
-23.72300027406375
 31
0.0
  0
LINE
  5
B3C7
330
B163
100
AcDbEntity
  8
AM_5
 62
     3
100
AcDbLine
 10
-45.47180406747322
 20
-86.35120454766912
 30
0.0
 11
-48.4930537787245
 21
-91.83638297660555
 31
0.0
  0
LINE
  5
B3C8
330
B163
100
AcDbEntity
  8
AM_5
 62
     3
100
AcDbLine
 10
-48.4930537787245
 20
-91.83638297660555
 30
0.0
 11
-56.6330537787245
 21
-91.83638297660555
 31
0.0
  0
LINE
  5
B3C9
330
B163
100
AcDbEntity
  8
AM_5
 62
     3
100
AcDbLine
 10
-13.38832727240238
 20
-28.10259497851168
 30
0.0
 11
-44.2656583232976
 21
-84.16140719544515
 31
0.0
  0
INSERT
  5
B3CA
330
B163
100
AcDbEntity
  8
AM_5
 62
     3
100
AcDbBlockReference
  2
_Open30
 10
-13.38832727240238
 20
-28.10259497851168
 30
0.0
 41
2.5
 42
2.5
 43
2.5
 50
241.1539192282508
  0
INSERT
  5
B3CB
330
B163
100
AcDbEntity
  8
AM_5
 62
     3
100
AcDbBlockReference
  2
_Open30
 10
-44.2656583232976
 20
-84.16140719544515
 30
0.0
 41
2.5
 42
2.5
 43
2.5
 50
61.15391922825079
  0
MTEXT
  5
B3CC
330
B163
100
AcDbEntity
  8
AM_5
 62
     2
100
AcDbMText
 10
-53.06305377872448
 20
-89.13638297660559
 30
0.0
 40
3.399999999999999
 41
0.0
 71
     5
 72
     1
  1
\U+220564
 73
     1
 44
1.0
1001
ACAD
1000
MTEXTBEGIN
1070
    73
1070
     1
1070
    44
1040
1.0
1070
    74
1070
     0
1000
MTEXTEND
  0
POINT
  5
B3CD
330
B163
100
AcDbEntity
  8
DEFPOINTS
 62
     0
100
AcDbPoint
 10
-44.2656583232976
 20
-84.16140719544515
 30
0.0
  0
POINT
  5
B3CE
330
B163
100
AcDbEntity
  8
DEFPOINTS
 62
     0
100
AcDbPoint
 10
-13.38832727240238
 20
-28.10259497851168
 30
0.0
  0
ENDBLK
  5
B16E
330
B163
100
AcDbEntity
  8
0
100
AcDbBlockEnd
  0
BLOCK
  5
B19C
330
B190
100
AcDbEntity
  8
0
100
AcDbBlockBegin
  2
*D9
 70
     1
 10
0.0
 20
0.0
 30
0.0
  3
*D9
  1

  0
LINE
  5
B3D0
330
B190
100
AcDbEntity
  8
AM_5
 62
     3
100
AcDbLine
 10
3.199999463863997
 20
-0.1000000000000907
 30
0.0
 11
3.199999463863997
 21
-9.957317295345159
 31
0.0
  0
LINE
  5
B3D1
330
B190
100
AcDbEntity
  8
AM_5
 62
     3
100
AcDbLine
 10
-0.0000000000000075
 20
-0.1000000000002108
 30
0.0
 11
-0.0000000000000081
 21
-9.957317295345159
 31
0.0
  0
LINE
  5
B3D2
330
B190
100
AcDbEntity
  8
AM_5
 62
     3
100
AcDbLine
 10
-2.500000000000006
 20
-9.457317295345159
 30
0.0
 11
-5.000000000000006
 21
-9.457317295345159
 31
0.0
  0
LINE
  5
B3D3
330
B190
100
AcDbEntity
  8
AM_5
 62
     3
100
AcDbLine
 10
5.699999463863997
 20
-9.457317295345159
 30
0.0
 11
18.45621206228919
 21
-9.457317295345159
 31
0.0
  0
LINE
  5
B3D4
330
B190
100
AcDbEntity
  8
AM_5
 62
     3
100
AcDbLine
 10
-0.0000000000000081
 20
-9.457317295345159
 30
0.0
 11
3.199999463863997
 21
-9.457317295345159
 31
0.0
  0
INSERT
  5
B3D5
330
B190
100
AcDbEntity
  8
AM_5
 62
     3
100
AcDbBlockReference
  2
_Open30
 10
-0.0000000000000081
 20
-9.457317295345159
 30
0.0
 41
2.5
 42
2.5
 43
2.5
  0
INSERT
  5
B3D6
330
B190
100
AcDbEntity
  8
AM_5
 62
     3
100
AcDbBlockReference
  2
_Open30
 10
3.199999463863997
 20
-9.457317295345159
 30
0.0
 41
2.5
 42
2.5
 43
2.5
 50
180.0
  0
MTEXT
  5
B3D7
330
B190
100
AcDbEntity
  8
AM_5
 62
     2
100
AcDbMText
 10
14.97411166858841
 20
-6.756982649675868
 30
0.0
 40
3.399999999999999
 41
0.0
 71
     5
 72
     1
  1
3.2
 73
     1
 44
1.0
1001
ACAD
1000
MTEXTBEGIN
1070
    73
1070
     1
1070
    44
1040
1.0
1070
    74
1070
     0
1000
MTEXTEND
  0
POINT
  5
B3D8
330
B190
100
AcDbEntity
  8
DEFPOINTS
 62
     0
100
AcDbPoint
 10
3.199999463863997
 20
-0.0000000000000907
 30
0.0
  0
POINT
  5
B3D9
330
B190
100
AcDbEntity
  8
DEFPOINTS
 62
     0
100
AcDbPoint
 10
-0.0000000000000075
 20
-0.0000000000002108
 30
0.0
  0
POINT
  5
B3DA
330
B190
100
AcDbEntity
  8
DEFPOINTS
 62
     0
100
AcDbPoint
 10
-0.0000000000000081
 20
-9.457317295345159
 30
0.0
  0
ENDBLK
  5
B19D
330
B190
100
AcDbEntity
  8
0
100
AcDbBlockEnd
  0
BLOCK
  5
B4AA
330
B490
100
AcDbEntity
  8
0
100
AcDbBlockBegin
  2
*D11
 70
     1
 10
0.0
 20
0.0
 30
0.0
  3
*D11
  1

  0
LINE
  5
B4AC
330
B490
100
AcDbEntity
  8
AM_5
100
AcDbLine
 10
23.39999999999909
 20
50.49999999999981
 30
0.0
 11
43.25165635163933
 21
50.49999999999981
 31
0.0
  0
LINE
  5
B4AD
330
B490
100
AcDbEntity
  8
AM_5
100
AcDbLine
 10
23.29999999999909
 20
44.49999999999981
 30
0.0
 11
43.25165635163933
 21
44.49999999999981
 31
0.0
  0
LINE
  5
B4AE
330
B490
100
AcDbEntity
  8
AM_5
100
AcDbLine
 10
42.25165635163933
 20
52.99999999999981
 30
0.0
 11
42.25165635163933
 21
55.49999999999981
 31
0.0
  0
LINE
  5
B4AF
330
B490
100
AcDbEntity
  8
AM_5
100
AcDbLine
 10
42.25165635163932
 20
41.99999999999981
 30
0.0
 11
42.25165635163932
 21
39.49999999999981
 31
0.0
  0
LINE
  5
B4B0
330
B490
100
AcDbEntity
  8
AM_5
100
AcDbLine
 10
42.25165635163933
 20
50.49999999999981
 30
0.0
 11
42.25165635163932
 21
44.49999999999981
 31
0.0
  0
INSERT
  5
B4B1
330
B490
100
AcDbEntity
  8
AM_5
100
AcDbBlockReference
  2
_Open30
 10
42.25165635163933
 20
50.49999999999981
 30
0.0
 41
2.5
 42
2.5
 43
2.5
 50
270.0
  0
INSERT
  5
B4B2
330
B490
100
AcDbEntity
  8
AM_5
100
AcDbBlockReference
  2
_Open30
 10
42.25165635163932
 20
44.49999999999981
 30
0.0
 41
2.5
 42
2.5
 43
2.5
 50
90.0
  0
MTEXT
  5
B4B3
330
B490
100
AcDbEntity
  8
AM_5
 62
     2
100
AcDbMText
 10
38.85165635163932
 20
47.49999999999981
 30
0.0
 40
3.799999999999998
 41
0.0
 71
     5
 72
     1
  1
6
 11
0.0000000000000001
 21
1.0
 31
0.0
 73
     1
 44
1.0
1001
ACAD
1000
MTEXTBEGIN
1070
    73
1070
     1
1070
    44
1040
1.0
1070
    74
1070
     0
1000
MTEXTEND
  0
POINT
  5
B4B4
330
B490
100
AcDbEntity
  8
DEFPOINTS
 62
     0
100
AcDbPoint
 10
23.29999999999909
 20
50.49999999999981
 30
0.0
  0
POINT
  5
B4B5
330
B490
100
AcDbEntity
  8
DEFPOINTS
 62
     0
100
AcDbPoint
 10
23.19999999999909
 20
44.49999999999981
 30
0.0
  0
POINT
  5
B4B6
330
B490
100
AcDbEntity
  8
DEFPOINTS
 62
     0
100
AcDbPoint
 10
42.25165635163932
 20
44.49999999999981
 30
0.0
  0
ENDBLK
  5
B4AB
330
B490
100
AcDbEntity
  8
0
100
AcDbBlockEnd
  0
ENDSEC
  0
SECTION
  2
ENTITIES
  0
TEXT
  5
83BD
330
1F
100
AcDbEntity
  8
AM_6
100
AcDbText
 10
50.39791368711298
 20
-104.4998816514005
 30
0.0
 40
5.0
  1
GMFNSR2525-32-64
 72
     4
 11
80.01847194887139
 21
-101.9998816514005
 31
0.0
100
AcDbText
  0
LINE
  5
A6E6
330
1F
100
AcDbEntity
  8
AM_0
100
AcDbLine
 10
19.68499374389702
 20
-81.13200299432731
 30
0.0
 11
149.999999999999
 21
-81.13200299432739
 31
0.0
  0
LINE
  5
A6E7
330
1F
100
AcDbEntity
  8
AM_0
100
AcDbLine
 10
23.29999999999907
 20
-56.13200108697832
 30
0.0
 11
149.999999999999
 21
-56.13200108697838
 31
0.0
  0
LINE
  5
A6E8
330
1F
100
AcDbEntity
  8
AM_0
100
AcDbLine
 10
23.29999999999909
 20
44.4999999999998
 30
0.0
 11
149.999999999999
 21
44.49999999999976
 31
0.0
  0
LINE
  5
A6E9
330
1F
100
AcDbEntity
  8
AM_0
100
AcDbLine
 10
4.469999999999088
 20
19.50000000000279
 30
0.0
 11
149.999999999999
 21
19.50000000000277
 31
0.0
  0
DIMENSION
  5
A6EA
330
1F
100
AcDbEntity
  8
PV0001_1
100
AcDbDimension
  2
*D2
 10
149.999999999999
 20
-20.86149201378471
 30
0.0
 11
74.99999999999909
 21
-20.86149201378471
 31
0.0
 70
   160
  1
<>
 71
     5
 42
149.999999999999
  3
AM_JIS$0
100
AcDbAlignedDimension
 13
-0.0000000000000075
 23
-0.0000000000001833
 33
0.0
 14
149.999999999999
 24
20.00000000000277
 34
0.0
100
AcDbRotatedDimension
1001
ACAD
1000
DSTYLE
1002
{
1070
   284
1070
     8
1070
   271
1070
     0
1070
    45
1040
0.1
1070
   173
1070
     1
1070
     6
1000
OPEN30
1070
     7
1000
OPEN30
1002
}
  0
LINE
  5
A6F2
330
1F
100
AcDbEntity
  8
AM_0
 48
0.5
100
AcDbLine
 10
4.473007202150016
 20
-76.46267811944921
 30
0.0
 11
-3.79499511719002
 21
-76.46267811944921
 31
0.0
  0
LINE
  5
A6F3
330
1F
100
AcDbEntity
  8
AM_7
 48
0.5
100
AcDbLine
 10
13.28691101074001
 20
-67.06467930963524
 30
0.0
 11
-2.203536987309924
 21
-67.06467930963524
 31
0.0
  0
LINE
  5
A6F5
330
1F
100
AcDbEntity
  8
AM_0
 48
0.5
100
AcDbLine
 10
23.29999999999907
 20
-56.13200108697832
 30
0.0
 11
23.29999999999907
 21
-57.53967778375632
 31
0.0
  0
LINE
  5
A6F6
330
1F
100
AcDbEntity
  8
AM_7
 48
0.5
100
AcDbLine
 10
11.355001831059
 20
-43.09738652399031
 30
0.0
 11
11.355001831059
 21
-64.56421391656832
 31
0.0
  0
LINE
  5
A6F7
330
1F
100
AcDbEntity
  8
AM_7
 48
0.5
100
AcDbLine
 10
1.473007202150019
 20
-54.60859028985924
 30
0.0
 11
1.473007202150018
 21
-61.98883335747854
 31
0.0
  0
LINE
  5
A6F8
330
1F
100
AcDbEntity
  8
AM_0
 48
0.5
100
AcDbLine
 10
4.473007202150019
 20
-58.93667714288724
 30
0.0
 11
4.473007202150018
 21
-64.04207722833624
 31
0.0
  0
LINE
  5
A6FA
330
1F
100
AcDbEntity
  8
AM_0
 48
0.5
100
AcDbLine
 10
4.473007202150019
 20
-57.53967778375624
 30
0.0
 11
4.473007202150018
 21
-63.88967625787725
 31
0.0
  0
LINE
  5
A6FB
330
1F
100
AcDbEntity
  8
AM_0
 48
0.5
100
AcDbLine
 10
25.17900695800905
 20
-81.13200299432731
 30
0.0
 11
0.5110168456900324
 21
-81.13200299432731
 31
0.0
  0
LINE
  5
A6FC
330
1F
100
AcDbEntity
  8
AM_0
 48
0.5
100
AcDbLine
 10
4.473007202150018
 20
-70.23967854669525
 30
0.0
 11
4.473007202150016
 21
-76.46267811944921
 31
0.0
  0
LINE
  5
A6FD
330
1F
100
AcDbEntity
  8
AM_0
 48
0.5
100
AcDbLine
 10
4.473007202150018
 20
-70.23967854669525
 30
0.0
 11
4.473007202150016
 21
-81.13200299432724
 31
0.0
  0
LINE
  5
A6FE
330
1F
100
AcDbEntity
  8
AM_0
 48
0.5
100
AcDbLine
 10
0.5110168456900338
 20
-76.4626781194493
 30
0.0
 11
0.5110168456900333
 21
-81.13200299432731
 31
0.0
  0
LINE
  5
A6FF
330
1F
100
AcDbEntity
  8
AM_0
 48
0.5
100
AcDbLine
 10
6.505004882809987
 20
-64.04207722833624
 30
0.0
 11
4.473007202150018
 21
-64.04207722833624
 31
0.0
  0
LINE
  5
A700
330
1F
100
AcDbEntity
  8
AM_0
 48
0.5
100
AcDbLine
 10
6.505004882809987
 20
-70.23967854669525
 30
0.0
 11
4.473007202150018
 21
-70.23967854669525
 31
0.0
  0
LINE
  5
A701
330
1F
100
AcDbEntity
  8
AM_0
 48
0.5
100
AcDbLine
 10
7.267013549800013
 20
-63.88967625787725
 30
0.0
 11
4.473007202150018
 21
-63.88967625787725
 31
0.0
  0
LINE
  5
A702
330
1F
100
AcDbEntity
  8
AM_0
 48
0.5
100
AcDbLine
 10
6.505004882809987
 20
-64.04207722833624
 30
0.0
 11
6.505004882809987
 21
-70.23967854669525
 31
0.0
  0
LINE
  5
A703
330
1F
100
AcDbEntity
  8
AM_0
 48
0.5
100
AcDbLine
 10
7.267013549800013
 20
-63.88967625787725
 30
0.0
 11
7.267013549800012
 21
-70.23967854669525
 31
0.0
  0
LINE
  5
A706
330
1F
100
AcDbEntity
  8
AM_0
 48
0.5
100
AcDbLine
 10
7.267013549800012
 20
-70.23967854669525
 30
0.0
 11
6.505004882809987
 21
-70.23967854669525
 31
0.0
  0
LINE
  5
A709
330
1F
100
AcDbEntity
  8
AM_0
 48
0.5
100
AcDbLine
 10
16.355001831059
 20
-46.50248067071931
 30
0.0
 11
6.355001831059006
 21
-46.50248067071931
 31
0.0
  0
LINE
  5
A70A
330
1F
100
AcDbEntity
  8
AM_0
 48
0.5
100
AcDbLine
 10
15.855001831059
 20
-46.00248067071931
 30
0.0
 11
6.855001831059006
 21
-46.00248067071931
 31
0.0
  0
LINE
  5
A70B
330
1F
100
AcDbEntity
  8
AM_0
 48
0.5
100
AcDbLine
 10
19.10199584960902
 20
-57.53967778375632
 30
0.0
 11
3.01495131121001
 21
-57.53967778375632
 31
0.0
  0
LINE
  5
A70C
330
1F
100
AcDbEntity
  8
AM_0
 48
0.5
100
AcDbLine
 10
22.14999999999908
 20
-51.1388828008463
 30
0.0
 11
1.875463867189088
 21
-51.13888280084633
 31
0.0
  0
LINE
  5
A70D
330
1F
100
AcDbEntity
  8
AM_0
 48
0.5
100
AcDbLine
 10
19.10199584960902
 20
-56.52367894342432
 30
0.0
 11
3.137844663952109
 21
-56.52367894342432
 31
0.0
  0
LINE
  5
A70E
330
1F
100
AcDbEntity
  8
AM_0
 48
0.5
100
AcDbLine
 10
20.62599792480899
 20
-49.61488072565032
 30
0.0
 11
0.509191894528974
 21
-49.61488072565032
 31
0.0
  0
LINE
  5
A70F
330
1F
100
AcDbEntity
  8
AM_0
 48
0.5
100
AcDbLine
 10
16.355001831059
 20
-46.50248067071931
 30
0.0
 11
16.355001831059
 21
-49.61488072565032
 31
0.0
  0
LINE
  5
A711
330
1F
100
AcDbEntity
  8
AM_0
 48
0.5
100
AcDbLine
 10
23.29999999999907
 20
-57.53967778375632
 30
0.0
 11
22.14999999999908
 21
-57.53967778375632
 31
0.0
  0
LINE
  5
A712
330
1F
100
AcDbEntity
  8
AM_0
 48
0.5
100
AcDbLine
 10
22.14999999999908
 20
-51.1388828008463
 30
0.0
 11
22.14999999999908
 21
-59.19067876031832
 31
0.0
  0
LINE
  5
A713
330
1F
100
AcDbEntity
  8
AM_0
 48
0.5
100
AcDbLine
 10
22.14999999999908
 20
-59.19067876031832
 30
0.0
 11
19.10199584960902
 21
-59.19067876031832
 31
0.0
  0
LINE
  5
A714
330
1F
100
AcDbEntity
  8
AM_0
 48
0.5
100
AcDbLine
 10
22.14999999999908
 20
-58.83508031061133
 30
0.0
 11
19.10199584960902
 21
-58.83508031061133
 31
0.0
  0
LINE
  5
A715
330
1F
100
AcDbEntity
  8
AM_0
 48
0.5
100
AcDbLine
 10
19.10199584960902
 20
-56.52367894342432
 30
0.0
 11
19.10199584960902
 21
-59.19067876031832
 31
0.0
  0
LINE
  5
A716
330
1F
100
AcDbEntity
  8
AM_0
 48
0.5
100
AcDbLine
 10
22.14999999999908
 20
-59.31767766168532
 30
0.0
 11
19.02579345702895
 21
-59.31767766168532
 31
0.0
  0
LINE
  5
A717
330
1F
100
AcDbEntity
  8
AM_0
 48
0.5
100
AcDbLine
 10
19.02579345702895
 20
-57.53967778375632
 30
0.0
 11
19.02579345702895
 21
-59.31767766168532
 31
0.0
  0
LINE
  5
A718
330
1F
100
AcDbEntity
  8
PV0001_1
  6
Continuous
 48
0.5
100
AcDbLine
 10
22.14999999999908
 20
-57.53967778375632
 30
0.0
 11
22.14999999999908
 21
-59.31767766168532
 31
0.0
  0
LINE
  5
A719
330
1F
100
AcDbEntity
  8
AM_0
 48
0.5
100
AcDbLine
 10
22.14999999999908
 20
-51.13887517145133
 30
0.0
 11
20.62599792480899
 21
-49.61487691095332
 31
0.0
  0
LINE
  5
A71A
330
1F
100
AcDbEntity
  8
AM_0
 48
0.5
100
AcDbLine
 10
15.855001831059
 20
-46.00248067071931
 30
0.0
 11
16.355001831059
 21
-46.50248067071931
 31
0.0
  0
LINE
  5
A71B
330
1F
100
AcDbEntity
  8
AM_0
 48
0.5
100
AcDbLine
 10
6.355001831059006
 20
-46.50248067071931
 30
0.0
 11
6.355001831059005
 21
-49.61488072565032
 31
0.0
  0
LINE
  5
A71C
330
1F
100
AcDbEntity
  8
AM_0
 48
0.5
100
AcDbLine
 10
9.450003051759059
 20
-51.1388828008463
 30
0.0
 11
9.450003051759059
 21
-56.52367894342432
 31
0.0
  0
LINE
  5
A71D
330
1F
100
AcDbEntity
  8
AM_0
 48
0.5
100
AcDbLine
 10
10.00157775878905
 20
-49.61488454034732
 30
0.0
 11
9.450003051759059
 21
-51.13888661554332
 31
0.0
  0
LINE
  5
A71E
330
1F
100
AcDbEntity
  8
AM_0
 48
0.5
100
AcDbLine
 10
1.875479125979058
 20
-51.13887517145133
 30
0.0
 11
2.668203735349055
 21
-55.63467518976231
 31
0.0
  0
LINE
  5
A71F
330
1F
100
AcDbEntity
  8
AM_0
 48
0.5
100
AcDbLine
 10
0.509191894528974
 20
-49.61488072565032
 30
0.0
 11
0.5091918945289731
 21
-56.13200108697832
 31
0.0
  0
LINE
  5
A720
330
1F
100
AcDbEntity
  8
AM_0
 48
0.5
100
AcDbLine
 10
-0.0000000000000089
 20
-56.13200108697825
 30
0.0
 11
3.175018310540043
 21
-56.13200108697825
 31
0.0
  0
LINE
  5
A722
330
1F
100
AcDbEntity
  8
AM_0
 48
0.5
100
AcDbLine
 10
0.3914971153626395
 20
-59.67044933493132
 30
0.0
 11
1.365234374999989
 21
-60.64419285943923
 31
0.0
  0
LINE
  5
A725
330
1F
100
AcDbEntity
  8
AM_0
 48
0.5
100
AcDbLine
 10
-0.0000000000000089
 20
-56.13200108697825
 30
0.0
 11
0.440490722649988
 21
-59.71944920709621
 31
0.0
  0
LINE
  5
A726
330
1F
100
AcDbEntity
  8
AM_0
 48
0.5
100
AcDbLine
 10
2.668203735349055
 20
-55.63467518976231
 30
0.0
 11
2.668203735349055
 21
-56.13199727228131
 31
0.0
  0
LINE
  5
A727
330
1F
100
AcDbEntity
  8
AM_0
 48
0.5
100
AcDbLine
 10
3.861990356449059
 20
-56.52367894342432
 30
0.0
 11
3.861990356449059
 21
-57.53967778375632
 31
0.0
  0
ARC
  5
A72A
330
1F
100
AcDbEntity
  8
PV0001_1
  6
Continuous
 62
     3
 48
0.5
100
AcDbCircle
 10
1.473007202150018
 20
-60.53643910577726
 30
0.0
 40
0.1524000018835
100
AcDbArc
 50
224.9999996583768
 51
314.9999987477648
  0
LINE
  5
A72D
330
1F
100
AcDbEntity
  8
AM_0
 48
0.5
100
AcDbLine
 10
3.175018310540043
 20
-56.13200490167624
 30
0.0
 11
2.766601562499988
 21
-59.45837132623626
 31
0.0
  0
LINE
  5
A72E
330
1F
100
AcDbEntity
  8
AM_0
 48
0.5
100
AcDbLine
 10
1.298049926760076
 20
-60.57700078180321
 30
0.0
 11
1.647964477539962
 21
-60.57700078180321
 31
0.0
  0
LINE
  5
A72F
330
1F
100
AcDbEntity
  8
AM_0
 48
0.5
100
AcDbLine
 10
1.580764770510076
 20
-60.64420430353124
 30
0.0
 11
2.766601562499988
 21
-59.45836751153923
 31
0.0
  0
LINE
  5
A730
330
1F
100
AcDbEntity
  8
AM_0
 48
0.5
100
AcDbLine
 10
6.855001831059006
 20
-46.00248067071931
 30
0.0
 11
6.355001831059006
 21
-46.50248067071931
 31
0.0
  0
LINE
  5
A733
102
{ACAD_REACTORS
330
AD80
102
}
330
1F
100
AcDbEntity
  8
AM_7
 48
0.5
100
AcDbLine
 10
7.506011962887036
 20
24.43739700317286
 30
0.0
 11
-5.583494471449053
 21
24.43739700317286
 31
0.0
  0
LINE
  5
A734
102
{ACAD_REACTORS
330
AD80
102
}
330
1F
100
AcDbEntity
  8
AM_7
 48
0.5
100
AcDbLine
 10
7.50601196288704
 20
37.77239799499481
 30
0.0
 11
-5.297264398853023
 21
37.77239799499481
 31
0.0
  0
LINE
  5
A735
102
{ACAD_REACTORS
330
AD80
102
}
330
1F
100
AcDbEntity
  8
AM_0
 48
0.5
100
AcDbLine
 10
0.0124053955080367
 20
0.6121978759758108
 30
0.0
 11
-3.794995117190011
 21
0.6121978759758112
 31
0.0
  0
LINE
  5
A76B
102
{ACAD_REACTORS
330
AD80
102
}
330
1F
100
AcDbEntity
  8
AM_0
100
AcDbLine
 10
-3.794995117190011
 20
0.6121978759758149
 30
0.0
 11
-3.794995117190008
 21
22.4999999999998
 31
0.0
  0
DIMENSION
  5
A76C
330
1F
100
AcDbEntity
  8
PV0001_1
100
AcDbDimension
  2
*D3
 10
-0.0000000000000074
 20
-32.55397158380556
 30
0.0
 11
11.07499999999953
 21
-32.55397158380556
 31
0.0
 70
   160
  1
<>
 71
     5
 42
22.14999999999909
  3
AM_JIS$0
100
AcDbAlignedDimension
 13
22.14999999999908
 23
-51.1388828008463
 33
0.0
 14
-0.0000000000000089
 24
-56.13200108697832
 34
0.0
100
AcDbRotatedDimension
1001
ACAD
1000
DSTYLE
1002
{
1070
    45
1040
0.01
1070
   173
1070
     1
1070
   271
1070
     0
1070
     6
1000
OPEN30
1070
     7
1000
OPEN30
1002
}
  0
DIMENSION
  5
A79F
330
1F
100
AcDbEntity
  8
PV0001_1
100
AcDbDimension
  2
*D4
 10
-24.86740875244095
 20
-0.0000000000001762
 30
0.0
 11
-24.86740875244095
 21
22.24999999999983
 31
0.0
 70
   160
  1
<>
 71
     5
 42
44.50000000000001
  3
AM_JIS$0
100
AcDbAlignedDimension
 13
23.29999999999909
 23
44.49999999999981
 33
0.0
 14
0.0
 24
-0.0000000000001833
 34
0.0
 50
89.99999999999998
100
AcDbRotatedDimension
1001
ACAD
1000
DSTYLE
1002
{
1070
    45
1040
0.1
1070
   173
1070
     1
1070
   271
1070
     1
1070
   343
1005
59
1070
   344
1005
59
1002
}
  0
CIRCLE
  5
A7A0
102
{ACAD_REACTORS
330
AD80
102
}
330
1F
100
AcDbEntity
  8
AM_0
 48
0.5
100
AcDbCircle
 10
11.34999999999908
 20
29.99999999999982
 30
0.0
 40
4.5
  0
CIRCLE
  5
A7A1
102
{ACAD_REACTORS
330
AD80
102
}
330
1F
100
AcDbEntity
  8
AM_0
100
AcDbCircle
 10
11.34999999999908
 20
29.99999999999982
 30
0.0
 40
5.0
  0
CIRCLE
  5
A7A2
102
{ACAD_REACTORS
330
AD80
102
}
330
1F
100
AcDbEntity
  8
AM_0
100
AcDbCircle
 10
11.34999999999908
 20
29.99999999999982
 30
0.0
 40
5.1561999320984
  0
LINE
  5
A7A5
102
{ACAD_REACTORS
330
AD80
102
}
330
1F
100
AcDbEntity
  8
AM_0
 48
0.5
100
AcDbLine
 10
22.14500579832908
 20
25.60970306396385
 30
0.0
 11
22.14500579832908
 21
37.13739585876377
 31
0.0
  0
LINE
  5
A7A8
102
{ACAD_REACTORS
330
AD80
102
}
330
1F
100
AcDbEntity
  8
AM_0
 48
0.5
100
AcDbLine
 10
20.62100372313908
 20
26.75839996337883
 30
0.0
 11
20.62100372313908
 21
35.61339950561482
 31
0.0
  0
LINE
  5
A7A9
102
{ACAD_REACTORS
330
AD80
102
}
330
1F
100
AcDbEntity
  8
AM_0
 48
0.5
100
AcDbLine
 10
22.14500579832908
 20
25.78750610351487
 30
0.0
 11
22.14500579832908
 21
37.13739776611286
 31
0.0
  0
LINE
  5
A7AA
102
{ACAD_REACTORS
330
AD80
102
}
330
1F
100
AcDbEntity
  8
AM_0
100
AcDbLine
 10
0.5042053222640836
 20
7.369480133055773
 30
0.0
 11
0.504205322264088
 21
43.48739814758281
 31
0.0
  0
LINE
  5
A7AE
102
{ACAD_REACTORS
330
AD80
102
}
330
1F
100
AcDbEntity
  8
AM_7
 48
0.5
100
AcDbLine
 10
11.34999999999908
 20
24.26762771606381
 30
0.0
 11
11.34999999999908
 21
37.75785064697178
 31
0.0
  0
LINE
  5
A7AF
102
{ACAD_REACTORS
330
AD80
102
}
330
1F
100
AcDbEntity
  8
AM_0
 48
0.5
100
AcDbLine
 10
20.62101135252907
 20
26.75840377807587
 30
0.0
 11
9.996591186519083
 21
21.80415725707977
 31
0.0
  0
LINE
  5
A7B0
102
{ACAD_REACTORS
330
AD80
102
}
330
1F
100
AcDbEntity
  8
AM_0
 48
0.5
100
AcDbLine
 10
22.14500579832908
 20
25.78750610351487
 30
0.0
 11
9.445008850089079
 21
19.86539840698177
 31
0.0
  0
LINE
  5
A7B3
102
{ACAD_REACTORS
330
AD80
102
}
330
1F
100
AcDbEntity
  8
AM_0
 48
0.5
100
AcDbLine
 10
0.2792205810549975
 20
4.752605438231784
 30
0.0
 11
0.2792205810549987
 21
14.60760879516582
 31
0.0
  0
LINE
  5
A7B4
102
{ACAD_REACTORS
330
AD80
102
}
330
1F
100
AcDbEntity
  8
AM_0
 48
0.5
100
AcDbLine
 10
2.663209533689081
 20
8.894653320311864
 30
0.0
 11
1.870477294920076
 21
19.86540222167882
 31
0.0
  0
LINE
  5
A7B5
102
{ACAD_REACTORS
330
AD80
102
}
330
1F
100
AcDbEntity
  8
AM_0
 48
0.5
100
AcDbLine
 10
2.663201904289079
 20
7.369480133055773
 30
0.0
 11
2.66320190428908
 21
19.86539840698177
 31
0.0
  0
LINE
  5
A7B6
102
{ACAD_REACTORS
330
AD80
102
}
330
1F
100
AcDbEntity
  8
AM_0
 48
0.5
100
AcDbLine
 10
3.188720703124003
 20
14.02339935302682
 30
0.0
 11
3.188720703124003
 21
19.05260086059483
 31
0.0
  0
LINE
  5
A7B8
102
{ACAD_REACTORS
330
AD80
102
}
330
1F
100
AcDbEntity
  8
AM_0
 48
0.5
100
AcDbLine
 10
2.919219970693998
 20
4.752605438231784
 30
0.0
 11
2.919219970694
 21
14.60760116577084
 31
0.0
  0
LINE
  5
A7B9
102
{ACAD_REACTORS
330
AD80
102
}
330
1F
100
AcDbEntity
  8
AM_0
 48
0.5
100
AcDbLine
 10
3.019981384274013
 20
4.752605438231784
 30
0.0
 11
3.019981384273999
 21
14.02339935302682
 31
0.0
  0
LINE
  5
A7BA
102
{ACAD_REACTORS
330
AD80
102
}
330
1F
100
AcDbEntity
  8
AM_0
 48
0.5
100
AcDbLine
 10
3.008989092505028
 20
4.749999999999816
 30
0.0
 11
0.1658615664955479
 21
4.749999999999816
 31
0.0
  0
LINE
  5
A7BB
102
{ACAD_REACTORS
330
AD80
102
}
330
1F
100
AcDbEntity
  8
AM_0
 48
0.5
100
AcDbLine
 10
3.199999463863997
 20
-0.0000000000001837
 30
0.0
 11
-0.0000000000000032
 21
-0.0000000000001833
 31
0.0
  0
LINE
  5
A7BC
102
{ACAD_REACTORS
330
AD80
102
}
330
1F
100
AcDbEntity
  8
AM_0
 48
0.5
100
AcDbLine
 10
-0.0000000000000032
 20
-0.0000000000001833
 30
0.0
 11
0.1658703195210452
 21
4.749941124462723
 31
0.0
  0
LINE
  5
A7BE
102
{ACAD_REACTORS
330
AD80
102
}
330
1F
100
AcDbEntity
  8
AM_0
 48
0.5
100
AcDbLine
 10
3.199999463863997
 20
-0.0000000000001837
 30
0.0
 11
3.034138092505028
 21
4.749684880620335
 31
0.0
  0
LINE
  5
A7C0
102
{ACAD_REACTORS
330
AD80
102
}
330
1F
100
AcDbEntity
  8
AM_0
 48
0.5
100
AcDbLine
 10
2.663201904289079
 20
7.369480133055773
 30
0.0
 11
0.5042053222640836
 21
7.369480133055773
 31
0.0
  0
LINE
  5
A7C1
102
{ACAD_REACTORS
330
AD80
102
}
330
1F
100
AcDbEntity
  8
AM_0
 48
0.5
100
AcDbLine
 10
3.188720703124003
 20
14.02339935302682
 30
0.0
 11
3.019981384273999
 21
14.02339935302682
 31
0.0
  0
LINE
  5
A7C2
102
{ACAD_REACTORS
330
AD80
102
}
330
1F
100
AcDbEntity
  8
AM_0
 48
0.5
100
AcDbLine
 10
9.996591186519083
 20
21.80415344238183
 30
0.0
 11
0.5042053222640854
 21
21.80415344238183
 31
0.0
  0
LINE
  5
A7C3
102
{ACAD_REACTORS
330
AD80
102
}
330
1F
100
AcDbEntity
  8
AM_0
 48
0.5
100
AcDbLine
 10
9.445001220699079
 20
19.86539840698177
 30
0.0
 11
1.870477294920076
 21
19.86539840698177
 31
0.0
  0
LINE
  5
A7C4
102
{ACAD_REACTORS
330
AD80
102
}
330
1F
100
AcDbEntity
  8
AM_7
 48
0.5
100
AcDbLine
 10
18.00240478514908
 20
29.99999999999981
 30
0.0
 11
4.365007019039085
 21
29.99999999999982
 31
0.0
  0
LINE
  5
A7C7
102
{ACAD_REACTORS
330
AD80
102
}
330
1F
100
AcDbEntity
  8
AM_0
 48
0.5
100
AcDbLine
 10
2.919219970694
 20
14.60760116577084
 30
0.0
 11
2.663201904289079
 21
14.60760116577084
 31
0.0
  0
LINE
  5
A7C9
102
{ACAD_REACTORS
330
AD80
102
}
330
1F
100
AcDbEntity
  8
AM_0
 48
0.5
100
AcDbLine
 10
0.5042053222640845
 20
14.60760879516582
 30
0.0
 11
0.2792205810549987
 21
14.60760879516582
 31
0.0
  0
ARC
  5
A7CC
102
{ACAD_REACTORS
330
AD80
102
}
330
1F
100
AcDbEntity
  8
AM_0
 48
0.5
100
AcDbCircle
 10
3.950721740714
 20
19.05260086059483
 30
0.0
 40
0.7620000243187
100
AcDbArc
 50
90.0
 51
180.0000025044817
  0
LINE
  5
A7CD
102
{ACAD_REACTORS
330
AD80
102
}
330
1F
100
AcDbEntity
  8
AM_0
 48
0.5
100
AcDbLine
 10
4.469999999999088
 20
19.81459808349579
 30
0.0
 11
3.950721740714
 21
19.81459808349579
 31
0.0
  0
LINE
  5
A7D1
102
{ACAD_REACTORS
330
AD80
102
}
330
1F
100
AcDbEntity
  8
AM_0
 48
0.5
100
AcDbLine
 10
9.445008850089079
 20
19.86539840698177
 30
0.0
 11
9.996591186519083
 21
21.80415344238183
 31
0.0
  0
LINE
  5
A7D5
102
{ACAD_REACTORS
330
AD80
102
}
330
1F
100
AcDbEntity
  8
AM_0
 48
0.5
100
AcDbLine
 10
22.14500579832908
 20
25.78750610351487
 30
0.0
 11
20.62100372313908
 21
26.75839996337883
 31
0.0
  0
LINE
  5
A7D6
102
{ACAD_REACTORS
330
AD80
102
}
330
1F
100
AcDbEntity
  8
PV0001_1
  6
Continuous
 48
0.5
100
AcDbLine
 10
19.02080688475908
 20
24.15286636352485
 30
0.0
 11
19.02080688475908
 21
24.33066558837883
 31
0.0
  0
LINE
  5
A7D9
102
{ACAD_REACTORS
330
AD80
102
}
330
1F
100
AcDbEntity
  8
AM_0
 48
0.5
100
AcDbLine
 10
20.62100372313908
 20
35.61339950561482
 30
0.0
 11
3.85700378416908
 21
35.61339950561482
 31
0.0
  0
LINE
  5
A7DA
102
{ACAD_REACTORS
330
AD80
102
}
330
1F
100
AcDbEntity
  8
AM_0
 48
0.5
100
AcDbLine
 10
22.14500579832908
 20
37.13739776611286
 30
0.0
 11
3.85700378416908
 21
37.13739776611286
 31
0.0
  0
LINE
  5
A7DC
102
{ACAD_REACTORS
330
AD80
102
}
330
1F
100
AcDbEntity
  8
AM_0
 48
0.5
100
AcDbLine
 10
3.85700378416908
 20
35.61339950561482
 30
0.0
 11
3.85700378416908
 21
43.48739814758281
 31
0.0
  0
LINE
  5
A7DF
102
{ACAD_REACTORS
330
AD80
102
}
330
1F
100
AcDbEntity
  8
AM_0
 48
0.5
100
AcDbLine
 10
3.85700378416908
 20
38.73759841918881
 30
0.0
 11
0.5042053222640873
 21
38.73759841918881
 31
0.0
  0
LINE
  5
A7E2
102
{ACAD_REACTORS
330
AD80
102
}
330
1F
100
AcDbEntity
  8
AM_0
 48
0.5
100
AcDbLine
 10
3.85700378416908
 20
41.96339797973581
 30
0.0
 11
0.5042053222640877
 21
41.96339797973581
 31
0.0
  0
LINE
  5
A7E3
102
{ACAD_REACTORS
330
AD80
102
}
330
1F
100
AcDbEntity
  8
AM_0
 48
0.5
100
AcDbLine
 10
3.85700378416908
 20
43.48739814758281
 30
0.0
 11
0.504205322264088
 21
43.48739814758281
 31
0.0
  0
LINE
  5
A7E4
102
{ACAD_REACTORS
330
AD80
102
}
330
1F
100
AcDbEntity
  8
AM_0
 48
0.5
100
AcDbLine
 10
4.365007019039087
 20
43.48739814758281
 30
0.0
 11
0.2259216308590073
 21
43.48739814758281
 31
0.0
  0
LINE
  5
A7EB
102
{ACAD_REACTORS
330
AD80
102
}
330
1F
100
AcDbEntity
  8
AM_0
 48
0.5
100
AcDbLine
 10
22.14500579832908
 20
37.13739585876377
 30
0.0
 11
20.62100372313908
 21
35.61339569091778
 31
0.0
  0
LINE
  5
A7F1
330
1F
100
AcDbEntity
  8
AM_0
 48
0.5
100
AcDbLine
 10
149.999999999999
 20
-56.13200108697838
 30
0.0
 11
149.999999999999
 21
-81.13200299432739
 31
0.0
  0
LINE
  5
A7F4
330
1F
100
AcDbEntity
  8
AM_0
 48
0.5
100
AcDbLine
 10
149.999999999999
 20
44.49999999999976
 30
0.0
 11
149.999999999999
 21
19.50000000000277
 31
0.0
  0
DIMENSION
  5
A969
330
1F
100
AcDbEntity
  8
AM_5
100
AcDbDimension
  2
*D5
 10
168.9145714225142
 20
-56.13200108697838
 30
0.0
 11
166.2142367768449
 21
-68.63200204065285
 31
0.0
 70
    32
 71
     5
 42
25.000001907349
  3
AM_JIS$0
100
AcDbAlignedDimension
 13
149.999999999999
 23
-81.13200299432739
 33
0.0
 14
149.999999999999
 24
-56.13200108697838
 34
0.0
 50
89.99999999999998
100
AcDbRotatedDimension
1001
ACAD
1000
DSTYLE
1002
{
1070
   271
1070
     0
1002
}
  0
DIMENSION
  5
A976
330
1F
100
AcDbEntity
  8
AM_5
100
AcDbDimension
  2
*D6
 10
168.54108459959
 20
44.49999999999976
 30
0.0
 11
165.8407499539207
 21
32.00000000000129
 31
0.0
 70
    32
 71
     5
 42
24.999999999997
  3
AM_JIS$0
100
AcDbAlignedDimension
 13
149.999999999999
 23
19.50000000000277
 33
0.0
 14
149.999999999999
 24
44.49999999999976
 34
0.0
 50
89.99999999999998
100
AcDbRotatedDimension
1001
ACAD
1000
DSTYLE
1002
{
1070
   271
1070
     0
1002
}
  0
LINE
  5
AD73
330
1F
100
AcDbEntity
  8
AM_0
 48
0.5
100
AcDbLine
 10
23.29999999999909
 20
19.50000000000279
 30
0.0
 11
23.29999999999909
 21
50.49999999999981
 31
0.0
  0
LINE
  5
AD74
330
1F
100
AcDbEntity
  8
AM_0
 48
0.5
100
AcDbLine
 10
0.4999999999990949
 20
50.49999999999982
 30
0.0
 11
0.499999999999094
 21
43.4999999999998
 31
0.0
  0
LINE
  5
AD75
330
1F
100
AcDbEntity
  8
AM_0
100
AcDbLine
 10
0.4999999999990949
 20
50.49999999999982
 30
0.0
 11
23.29999999999909
 21
50.49999999999981
 31
0.0
  0
LINE
  5
AD76
330
1F
100
AcDbEntity
  8
AM_0
 48
0.5
100
AcDbLine
 10
22.14999999999909
 20
40.90000000000281
 30
0.0
 11
22.14999999999909
 21
19.50000000000278
 31
0.0
  0
LINE
  5
AD77
330
1F
100
AcDbEntity
  8
AM_0
 48
0.5
100
AcDbLine
 10
4.469999999999091
 20
43.4999999999998
 30
0.0
 11
4.46999999999909
 21
37.13739776611286
 31
0.0
  0
LINE
  5
AD79
330
1F
100
AcDbEntity
  8
AM_0
 48
0.5
100
AcDbLine
 10
18.94999999999909
 20
40.90000000000281
 30
0.0
 11
18.94999999999909
 21
37.13739776611286
 31
0.0
  0
ARC
  5
AD7A
330
1F
100
AcDbEntity
  8
AM_0
100
AcDbCircle
 10
20.54999999999909
 20
40.90000000000281
 30
0.0
 40
1.6
100
AcDbArc
 50
0.0
 51
180.0
  0
LINE
  5
AD7C
330
1F
100
AcDbEntity
  8
AM_0
100
AcDbLine
 10
0.4999999999990916
 20
43.4999999999998
 30
0.0
 11
4.469999999999091
 21
43.4999999999998
 31
0.0
  0
LINE
  5
AD7D
330
1F
100
AcDbEntity
  8
AM_7
 48
0.5
100
AcDbLine
 10
11.34999999999909
 20
33.27068362887926
 30
0.0
 11
11.34999999999909
 21
26.87981781885773
 31
0.0
  0
LINE
  5
AD7E
330
1F
100
AcDbEntity
  8
AM_7
100
AcDbLine
 10
8.350592420505792
 20
29.99999999999982
 30
0.0
 11
14.98857496399841
 21
29.99999999999981
 31
0.0
  0
LINE
  5
ADB1
330
1F
100
AcDbEntity
  8
AM_0
 48
0.5
100
AcDbLine
 10
4.469999999999088
 20
19.86539840698177
 30
0.0
 11
4.469999999999088
 21
19.50000000000278
 31
0.0
  0
LINE
  5
ADB2
330
1F
100
AcDbEntity
  8
AM_0
 48
0.5
100
AcDbLine
 10
18.94999999999909
 20
24.29764996371635
 30
0.0
 11
18.94999999999909
 21
19.50000000000278
 31
0.0
  0
DIMENSION
  5
AE3A
330
1F
100
AcDbEntity
  8
AM_5
100
AcDbDimension
  2
*D7
 10
0.0000000000000039
 20
63.56389274308
 30
0.0
 11
11.64999999999954
 21
66.26422738874929
 31
0.0
 70
    32
 71
     5
 42
23.29999999999909
  3
AM_JIS$0
100
AcDbAlignedDimension
 13
23.29999999999909
 23
50.49999999999981
 33
0.0
 14
0.0
 24
-0.0000000000001833
 34
0.0
 50
180.0
100
AcDbRotatedDimension
1001
ACAD
1000
DSTYLE
1002
{
1070
   271
1070
     0
1002
}
  0
LINE
  5
AFD2
330
1F
100
AcDbEntity
  8
AM_0
100
AcDbLine
 10
-1.500000000000903
 20
23.4999999999998
 30
0.0
 11
-1.500000000000899
 21
43.4999999999998
 31
0.0
  0
LINE
  5
AFD3
330
1F
100
AcDbEntity
  8
AM_0
 48
0.5
100
AcDbLine
 10
0.9999999999990979
 20
43.4999999999998
 30
0.0
 11
-1.500000000000899
 21
43.4999999999998
 31
0.0
  0
LINE
  5
AFD4
330
1F
100
AcDbEntity
  8
AM_0
100
AcDbLine
 10
-2.500000000000901
 20
22.4999999999998
 30
0.0
 11
-1.500000000000903
 21
23.4999999999998
 31
0.0
  0
LINE
  5
AFD5
330
1F
100
AcDbEntity
  8
AM_0
 48
0.5
100
AcDbLine
 10
-2.500000000000901
 20
22.4999999999998
 30
0.0
 11
-3.794995117190008
 21
22.4999999999998
 31
0.0
  0
LINE
  5
B14F
330
1F
100
AcDbEntity
  8
AM_5
100
AcDbLine
 10
149.999999999999
 20
20.00000000000277
 30
0.0
 11
149.999999999999
 21
-56.13200108697838
 31
0.0
  0
LINE
  5
B150
330
1F
100
AcDbEntity
  8
AM_5
100
AcDbLine
 10
-0.0000000000000075
 20
-0.0000000000001833
 30
0.0
 11
-0.0000000000000089
 21
-56.13200108697832
 31
0.0
  0
CIRCLE
  5
B15B
330
1F
100
AcDbEntity
  8
AM_11
 48
0.2
100
AcDbCircle
 10
-28.82699279785002
 20
-56.13200108697834
 30
0.0
 40
32.0
  0
LINE
  5
B15C
330
1F
100
AcDbEntity
  8
AM_7
 48
0.5
100
AcDbLine
 10
-67.00973750605847
 20
-56.13200108697835
 30
0.0
 11
0.0945427054136234
 21
-56.13200108697834
 31
0.0
  0
DIMENSION
  5
B15D
330
1F
100
AcDbEntity
  8
AM_5
100
AcDbDimension
  2
*D8
 10
-13.38832727240238
 20
-28.10259497851168
 30
0.0
 11
-53.06305377872448
 21
-91.83638297660555
 31
0.0
 70
   163
 71
     5
 42
63.99999999999994
  3
AM_JIS$3
100
AcDbDiametricDimension
 15
-44.2656583232976
 25
-84.16140719544515
 35
0.0
 40
0.0
1001
ACAD
1000
DSTYLE
1002
{
1070
   271
1070
     0
1002
}
  0
LINE
  5
B15E
330
1F
100
AcDbEntity
  8
AM_7
 48
0.5
100
AcDbLine
 10
-28.82699279784998
 20
-14.00634893937448
 30
0.0
 11
-28.82699279784999
 21
-94.18749367690528
 31
0.0
  0
ARC
  5
B15F
330
1F
100
AcDbEntity
  8
AM_0
 48
0.5
100
AcDbCircle
 10
-28.82699279784999
 20
-56.13200108697825
 30
0.0
 40
31.69999999999999
100
AcDbArc
 50
322.1530884958834
 51
353.6470816583844
  0
LINE
  5
B160
330
1F
100
AcDbEntity
  8
AM_0
 48
0.5
100
AcDbLine
 10
-3.79499511719002
 20
-74.53279319218217
 30
0.0
 11
-3.79499511719002
 21
-76.46267811944921
 31
0.0
  0
ARC
  5
B161
330
1F
100
AcDbEntity
  8
AM_0
 48
0.5
100
AcDbCircle
 10
-41.32699279784996
 20
-56.13200108697824
 30
0.0
 40
41.79999999999997
100
AcDbArc
 50
333.8826977384798
 51
355.1863220651583
  0
LINE
  5
B162
330
1F
100
AcDbEntity
  8
AM_0
 48
0.5
100
AcDbLine
 10
4.473007202150021
 20
-59.63967854669524
 30
0.0
 11
2.585290527344278
 21
-59.63967854669526
 31
0.0
  0
DIMENSION
  5
B18F
330
1F
100
AcDbEntity
  8
AM_5
100
AcDbDimension
  2
*D9
 10
-0.0000000000000081
 20
-9.457317295345159
 30
0.0
 11
14.97411166858841
 21
-9.457317295345159
 31
0.0
 70
   160
 71
     5
 42
3.199999463864004
  3
AM_JIS$0
100
AcDbAlignedDimension
 13
3.199999463863997
 23
-0.0000000000000907
 33
0.0
 14
-0.0000000000000075
 24
-0.0000000000002108
 34
0.0
 50
180.0
100
AcDbRotatedDimension
1001
ACAD
1000
DSTYLE
1002
{
1070
   271
1070
     1
1002
}
  0
DIMENSION
  5
B48F
330
1F
100
AcDbEntity
  8
AM_5
100
AcDbDimension
  2
*D11
 10
42.25165635163932
 20
44.49999999999981
 30
0.0
 11
38.85165635163932
 21
47.49999999999981
 31
0.0
 70
    32
 71
     5
 42
5.999999999999992
  3
AM_JIS$0
100
AcDbAlignedDimension
 13
23.29999999999909
 23
50.49999999999981
 33
0.0
 14
23.19999999999909
 24
44.49999999999981
 34
0.0
 50
90.0
100
AcDbRotatedDimension
1001
ACAD
1000
DSTYLE
1002
{
1070
    43
1040
10.0
1070
    44
1040
1.0
1070
    78
1070
     9
1070
   140
1040
3.799999999999998
1070
   147
1040
1.5
1070
   176
1070
   256
1070
   177
1070
   256
1070
   179
1070
     1
1070
   284
1070
     8
1002
}
  0
ENDSEC
  0
SECTION
  2
OBJECTS
  0
DICTIONARY
  5
C
330
0
100
AcDbDictionary
281
     1
  3
ACAD_COLOR
350
B226
  3
ACAD_GROUP
350
D
  3
ACAD_LAYOUT
350
1A
  3
ACAD_MATERIAL
350
B225
  3
ACAD_MLINESTYLE
350
17
  3
ACAD_PLOTSETTINGS
350
19
  3
ACAD_PLOTSTYLENAME
350
E
  3
ACAD_TABLESTYLE
350
B227
  3
ACDBHEADERROUNDTRIPXREC
350
B4B9
  3
ACDBVARIABLEDICTIONARY
350
30
  3
ACMDICTIONARY
350
4D
  3
AMG
350
3F
  3
AMGSNAPSETTINGS
350
73
  3
DWGPROPS
350
B4B8
  3
ENG_DATA
350
21C6
  3
FILENAME
350
21C9
  3
HOLD_DIC_DATA
350
21C4
  3
TABLE_DIC_DATA
350
1C0B
  3
ZWKSIZE
350
21CB
  0
DICTIONARY
  5
165
330
1F
100
AcDbDictionary
280
     1
281
     1
  3
ACAD_INDEX
360
B1D1
  3
ACAD_LAYOUTSELFREF
360
B203
  0
DICTIONARY
  5
B201
330
1B
100
AcDbDictionary
280
     1
281
     1
  3
ACAD_LAYOUTSELFREF
360
B202
  0
DICTIONARY
  5
B226
102
{ACAD_REACTORS
330
C
102
}
330
C
100
AcDbDictionary
281
     1
  0
DICTIONARY
  5
D
102
{ACAD_REACTORS
330
C
102
}
330
C
100
AcDbDictionary
281
     1
  3
*A1
350
7C0D
  3
*A2
350
7C0E
  3
*A3
350
7FE3
  3
*A4
350
8E0E
  3
*A5
350
AD80
  0
DICTIONARY
  5
1A
102
{ACAD_REACTORS
330
C
102
}
330
C
100
AcDbDictionary
281
     1
  3
Model
350
B229
  3
レイアウト1
350
B22A
  0
DICTIONARY
  5
B225
102
{ACAD_REACTORS
330
C
102
}
330
C
100
AcDbDictionary
281
     1
  0
DICTIONARY
  5
17
102
{ACAD_REACTORS
330
C
102
}
330
C
100
AcDbDictionary
281
     1
  3
STANDARD
350
18
  0
DICTIONARY
  5
19
102
{ACAD_REACTORS
330
C
102
}
330
C
100
AcDbDictionary
281
     1
  0
ACDBDICTIONARYWDFLT
  5
E
102
{ACAD_REACTORS
330
C
102
}
330
C
100
AcDbDictionary
281
     1
  3
Normal
350
F
100
AcDbDictionaryWithDefault
340
F
  0
DICTIONARY
  5
B227
102
{ACAD_REACTORS
330
C
102
}
330
C
100
AcDbDictionary
281
     1
  3
Standard
350
B228
  0
DICTIONARY
  5
B4B9
102
{ACAD_REACTORS
330
C
102
}
330
C
100
AcDbDictionary
281
     1
  0
DICTIONARY
  5
30
102
{ACAD_REACTORS
330
C
102
}
330
C
100
AcDbDictionary
281
     1
  3
CTABLESTYLE
350
B2E1
  3
DIMASSOC
350
B2E2
  3
INDEXCTL
350
31
  3
PROJECTNAME
350
B2E3
  3
SORTENTS
350
42BE
  0
DICTIONARY
  5
4D
102
{ACAD_REACTORS
330
C
102
}
330
C
100
AcDbDictionary
281
     1
  3
ACMSTDDICTIONARY
350
17E
  3
AMDTSECTSYM_ARROWCOLOR
350
B35F
  0
DICTIONARY
  5
3F
102
{ACAD_REACTORS
330
C
102
}
330
C
100
AcDbDictionary
281
     1
  0
DICTIONARY
  5
73
102
{ACAD_REACTORS
330
C
102
}
330
C
100
AcDbDictionary
281
     1
  0
XRECORD
  5
B4B8
102
{ACAD_REACTORS
330
C
102
}
330
C
100
AcDbXrecord
280
     1
  1
DWGPROPS COOKIE
  2

  3

  4

  6

  7

  8
津田
  9

300
AmdtFileType=82
301
=
302
=
303
=
304
=
305
=
306
=
307
=
308
=
309
=
 40
0.8969075
 41
2451943.610431666
 42
2455603.337589155
  1

 90
        1
  0
DICTIONARY
  5
21C6
102
{ACAD_REACTORS
330
C
102
}
330
C
100
AcDbDictionary
281
     1
  3
ENG_ID
350
21C7
  0
DICTIONARY
  5
21C9
102
{ACAD_REACTORS
330
C
102
}
330
C
100
AcDbDictionary
281
     1
  3
FILENAME
350
21CA
  0
DICTIONARY
  5
21C4
102
{ACAD_REACTORS
330
C
102
}
330
C
100
AcDbDictionary
281
     1
  3
HOLD_DATA
350
21C5
  0
DICTIONARY
  5
1C0B
102
{ACAD_REACTORS
330
C
102
}
330
C
100
AcDbDictionary
281
     1
  3
INPUT_DATA
350
1C0D
  3
TABLE_DATA
350
1C0C
  0
DICTIONARY
  5
21CB
102
{ACAD_REACTORS
330
C
102
}
330
C
100
AcDbDictionary
281
     1
  3
ZWKSIZE
350
21CC
  0
DICTIONARY
  5
B1D1
102
{ACAD_REACTORS
330
165
102
}
330
165
100
AcDbDictionary
281
     1
  3
*A1
350
B1D2
  0
XRECORD
  5
B203
102
{ACAD_REACTORS
330
165
102
}
330
165
100
AcDbXrecord
280
     1
340
1F
  0
XRECORD
  5
B202
102
{ACAD_REACTORS
330
B201
102
}
330
B201
100
AcDbXrecord
280
     1
340
1B
  0
GROUP
  5
7C0D
102
{ACAD_REACTORS
330
D
102
}
330
D
100
AcDbGroup
300

 70
     1
 71
     1
  0
GROUP
  5
7C0E
102
{ACAD_REACTORS
330
D
102
}
330
D
100
AcDbGroup
300

 70
     1
 71
     1
  0
GROUP
  5
7FE3
102
{ACAD_REACTORS
330
D
102
}
330
D
100
AcDbGroup
300

 70
     1
 71
     1
  0
GROUP
  5
8E0E
102
{ACAD_REACTORS
330
D
102
}
330
D
100
AcDbGroup
300

 70
     1
 71
     1
  0
GROUP
  5
AD80
102
{ACAD_REACTORS
330
D
102
}
330
D
100
AcDbGroup
300

 70
     1
 71
     1
340
A7BB
340
A7C0
340
A7BA
340
A7C7
340
A7C2
340
A733
340
A7E2
340
A7DF
340
A7E3
340
A7E4
340
A734
340
A7A5
340
A7AE
340
A7A8
340
A7A9
340
A7A0
340
A7A1
340
A7A2
340
A7D9
340
A7DA
340
A7EB
340
A7DC
340
A7B6
340
A7B4
340
A7B5
340
A7C4
340
A7AF
340
A7B0
340
A7D5
340
A7D6
340
A7C3
340
A7D1
340
A7CD
340
A7CC
340
A7B9
340
A7C1
340
A7BE
340
A7B8
340
A76B
340
A7AA
340
A7B3
340
A7C9
340
A735
340
A7BC
  0
LAYOUT
  5
B229
102
{ACAD_XDICTIONARY
360
B4BA
102
}
102
{ACAD_REACTORS
330
1A
102
}
330
1A
100
AcDbPlotSettings
  1

  2
SII LP-2150 (D-SCAN C2)
  4

  6

 40
0.0
 41
0.0
 42
0.0
 43
0.0
 44
0.0
 45
0.0
 46
0.0
 47
0.0
 48
0.0
 49
0.0
140
0.0
141
0.0
142
1.0
143
1.0
 70
  1712
 72
     0
 73
     0
 74
     0
  7
sei_cad.ctb
 75
     0
147
1.0
148
0.0
149
0.0
100
AcDbLayout
  1
Model
 70
     1
 71
     0
 10
0.0
 20
0.0
 11
12.0
 21
9.0
 12
0.0
 22
0.0
 32
0.0
 14
0.0
 24
0.0
 34
0.0
 15
0.0
 25
0.0
 35
0.0
146
0.0
 13
0.0
 23
0.0
 33
0.0
 16
1.0
 26
0.0
 36
0.0
 17
0.0
 27
1.0
 37
0.0
 76
     0
330
1F
  0
LAYOUT
  5
B22A
102
{ACAD_XDICTIONARY
360
B4BC
102
}
102
{ACAD_REACTORS
330
1A
102
}
330
1A
100
AcDbPlotSettings
  1

  2
SII LP-2150 (D-SCAN C2)
  4

  6

 40
0.0
 41
0.0
 42
0.0
 43
0.0
 44
0.0
 45
0.0
 46
0.0
 47
0.0
 48
0.0
 49
0.0
140
0.0
141
0.0
142
1.0
143
1.0
 70
   688
 72
     0
 73
     0
 74
     5
  7
sei_cad.ctb
 75
    16
147
1.0
148
0.0
149
0.0
100
AcDbLayout
  1
レイアウト1
 70
     1
 71
     1
 10
0.0
 20
0.0
 11
420.0
 21
297.0
 12
0.0
 22
0.0
 32
0.0
 14
1.000000000000000E+20
 24
1.000000000000000E+20
 34
1.000000000000000E+20
 15
-1.000000000000000E+20
 25
-1.000000000000000E+20
 35
-1.000000000000000E+20
146
0.0
 13
0.0
 23
0.0
 33
0.0
 16
1.0
 26
0.0
 36
0.0
 17
0.0
 27
1.0
 37
0.0
 76
     0
330
1B
  0
MLINESTYLE
  5
18
102
{ACAD_REACTORS
330
17
102
}
330
17
100
AcDbMlineStyle
  2
STANDARD
 70
     0
  3

 62
   256
 51
90.0
 52
90.0
 71
     2
 49
0.5
 62
   256
  6
BYLAYER
 49
-0.5
 62
   256
  6
BYLAYER
  0
ACDBPLACEHOLDER
  5
F
102
{ACAD_REACTORS
330
E
102
}
330
E
  0
TABLESTYLE
  5
B228
102
{ACAD_REACTORS
330
B227
102
}
330
B227
100
AcDbTableStyle
  3
Standard
 70
     0
 71
     0
 40
1.5
 41
1.5
280
     0
281
     0
  7
STANDARD
140
4.5
170
     2
 62
     0
 63
     7
283
     0
274
    -2
284
     1
 64
     0
275
    -2
285
     1
 65
     0
276
    -2
286
     1
 66
     0
277
    -2
287
     1
 67
     0
278
    -2
288
     1
 68
     0
279
    -2
289
     1
 69
     0
  7
STANDARD
140
6.0
170
     5
 62
     0
 63
     7
283
     0
274
    -2
284
     1
 64
     0
275
    -2
285
     1
 65
     0
276
    -2
286
     1
 66
     0
277
    -2
287
     1
 67
     0
278
    -2
288
     1
 68
     0
279
    -2
289
     1
 69
     0
  7
STANDARD
140
4.5
170
     5
 62
     0
 63
     7
283
     0
274
    -2
284
     1
 64
     0
275
    -2
285
     1
 65
     0
276
    -2
286
     1
 66
     0
277
    -2
287
     1
 67
     0
278
    -2
288
     1
 68
     0
279
    -2
289
     1
 69
     0
  0
DICTIONARYVAR
  5
B2E1
102
{ACAD_REACTORS
330
30
102
}
330
30
100
DictionaryVariables
280
     0
  1
STANDARD
  0
DICTIONARYVAR
  5
B2E2
102
{ACAD_REACTORS
330
30
102
}
330
30
100
DictionaryVariables
280
     0
  1
1
  0
DICTIONARYVAR
  5
31
102
{ACAD_REACTORS
330
30
102
}
330
30
100
DictionaryVariables
280
     0
  1
1
  0
DICTIONARYVAR
  5
B2E3
102
{ACAD_REACTORS
330
30
102
}
330
30
100
DictionaryVariables
280
     0
  1

  0
DICTIONARYVAR
  5
42BE
102
{ACAD_REACTORS
330
30
102
}
330
30
100
DictionaryVariables
280
     0
  1
96
  0
DICTIONARY
  5
17E
102
{ACAD_REACTORS
330
4D
102
}
330
4D
100
AcDbDictionary
281
     1
  0
XRECORD
  5
B35F
102
{ACAD_REACTORS
330
4D
102
}
330
4D
100
AcDbXrecord
280
     1
 90
-1023410169
  0
XRECORD
  5
21C7
102
{ACAD_REACTORS
330
21C6
102
}
330
21C6
100
AcDbXrecord
280
     1
  1
HOLD
  0
XRECORD
  5
21CA
102
{ACAD_REACTORS
330
21C9
102
}
330
21C9
100
AcDbXrecord
280
     1
  1
21000065__00___
  0
XRECORD
  5
21C5
102
{ACAD_REACTORS
330
21C4
102
}
330
21C4
100
AcDbXrecord
280
     1
  1
クランクシャフト加工用 ^M^J１コーナー型 ^M^J15.875 ^M^J20 ^M^Jクランプオン ^M^J９０° ^M^J1 ^M^J鋼 ^M^J ^M^J ^M^J ^M^J ^M^J
  0
XRECORD
  5
1C0D
102
{ACAD_REACTORS
330
1C0B
102
}
330
1C0B
100
AcDbXrecord
280
     1
  1
1,,,,,,,,,^M^J2,,,,,,,,,^M^J3,,,,,,,,,^M^J4,,,,,,,,,^M^J5,,,,,,,,,^M^J6,,,,,,,,,^M^J7,,,,,,,,,^M^J8,,,,,,,,,^M^J9,,,,,,,,,^M^J10,,,,,,,,,
  0
XRECORD
  5
1C0C
102
{ACAD_REACTORS
330
1C0B
102
}
330
1C0B
100
AcDbXrecord
280
     1
  1
10,10
  0
XRECORD
  5
21CC
102
{ACAD_REACTORS
330
21CB
102
}
330
21CB
100
AcDbXrecord
280
     1
  1
3
  0
LAYER_INDEX
  5
B1D2
102
{ACAD_REACTORS
330
B1D1
102
}
330
B1D1
100
AcDbIndex
 40
2455603.337589155
100
AcDbLayerIndex
  8
0
360
B2D5
 90
        0
  8
AM_5
360
B2D6
 90
        8
  8
DEFPOINTS
360
B2D7
 90
        0
  8
AM_0
360
B2D8
 90
      107
  8
AM_6
360
B2D9
 90
        1
  8
AM_7
360
B2DA
 90
       11
  8
PV0001_1
360
B2DB
 90
        6
  8
AM_11
360
B2DC
 90
        1
  0
DICTIONARY
  5
B4BA
330
B229
100
AcDbDictionary
280
     1
281
     1
  3
ACAD_XREC_ROUNDTRIP
360
B4BB
  0
DICTIONARY
  5
B4BC
330
B22A
100
AcDbDictionary
280
     1
281
     1
  3
ACAD_XREC_ROUNDTRIP
360
B4BD
  0
IDBUFFER
  5
B2D5
330
0
100
AcDbIdBuffer
  0
IDBUFFER
  5
B2D6
330
0
100
AcDbIdBuffer
330
B48F
330
A969
330
A976
330
AE3A
330
B14F
330
B150
330
B15D
330
B18F
  0
IDBUFFER
  5
B2D7
330
0
100
AcDbIdBuffer
  0
IDBUFFER
  5
B2D8
330
0
100
AcDbIdBuffer
330
A6E6
330
A6E7
330
A6E8
330
A6E9
330
A6F2
330
A6F5
330
A6F8
330
A6FA
330
A6FB
330
A6FC
330
A6FD
330
A6FE
330
A6FF
330
A700
330
A701
330
A702
330
A703
330
A706
330
A709
330
A70A
330
A70B
330
A70C
330
A70D
330
A70E
330
A70F
330
A711
330
A712
330
A713
330
A714
330
A715
330
A716
330
A717
330
A719
330
A71A
330
A71B
330
A71C
330
A71D
330
A71E
330
A71F
330
A720
330
A722
330
A725
330
A726
330
A727
330
A72D
330
A72E
330
A72F
330
A730
330
A735
330
A76B
330
A7A0
330
A7A1
330
A7A2
330
A7A5
330
A7A8
330
A7A9
330
A7AA
330
A7AF
330
A7B0
330
A7B3
330
A7B4
330
A7B5
330
A7B6
330
A7B8
330
A7B9
330
A7BA
330
A7BB
330
A7BC
330
A7BE
330
A7C0
330
A7C1
330
A7C2
330
A7C3
330
A7C7
330
A7C9
330
A7CC
330
A7CD
330
A7D1
330
A7D5
330
A7D9
330
A7DA
330
A7DC
330
A7DF
330
A7E2
330
A7E3
330
A7E4
330
A7EB
330
A7F1
330
A7F4
330
AD73
330
AD74
330
AD75
330
AD76
330
AD77
330
AD79
330
AD7A
330
AD7C
330
ADB1
330
ADB2
330
AFD2
330
AFD3
330
AFD4
330
AFD5
330
B15F
330
B160
330
B161
330
B162
  0
IDBUFFER
  5
B2D9
330
0
100
AcDbIdBuffer
330
83BD
  0
IDBUFFER
  5
B2DA
330
0
100
AcDbIdBuffer
330
A6F3
330
A6F6
330
A6F7
330
A733
330
A734
330
A7AE
330
A7C4
330
AD7D
330
AD7E
330
B15C
330
B15E
  0
IDBUFFER
  5
B2DB
330
0
100
AcDbIdBuffer
330
A6EA
330
A718
330
A72A
330
A76C
330
A79F
330
A7D6
  0
IDBUFFER
  5
B2DC
330
0
100
AcDbIdBuffer
330
B15B
  0
XRECORD
  5
B4BB
102
{ACAD_REACTORS
330
B4BA
102
}
330
B4BA
100
AcDbXrecord
280
     1
102
SHADEPLOT
 70
     0
102
SHADEPLOTRESLEVEL
 70
     2
102
SHADEPLOTCUSTOMDPI
 70
   300
  0
XRECORD
  5
B4BD
102
{ACAD_REACTORS
330
B4BC
102
}
330
B4BC
100
AcDbXrecord
280
     1
102
SHADEPLOT
 70
     0
102
SHADEPLOTRESLEVEL
 70
     2
102
SHADEPLOTCUSTOMDPI
 70
   300
  0
ENDSEC
  0
EOF
