  0
SECTION
  2
HEADER
  9
$ACADVER
  1
AC1015
  9
$ACADMAINTVER
 70
    20
  9
$DWGCODEPAGE
  3
ANSI_932
  9
$INSBASE
 10
0.0
 20
0.0
 30
0.0
  9
$EXTMIN
 10
-90.36923462308038
 20
-44.3072904518267
 30
-0.0015258207003583
  9
$EXTMAX
 10
167.9843797237349
 20
103.4694156272584
 30
0.0000000349246037
  9
$LIMMIN
 10
-218.3078195770922
 20
-140.9632443203974
  9
$LIMMAX
 10
147.2246173402218
 20
79.41892009280718
  9
$ORTHOMODE
 70
     0
  9
$REGENMODE
 70
     1
  9
$FILLMODE
 70
     1
  9
$QTEXTMODE
 70
     0
  9
$MIRRTEXT
 70
     1
  9
$LTSCALE
 40
0.5
  9
$ATTMODE
 70
     1
  9
$TEXTSIZE
 40
2.5
  9
$TRACEWID
 40
1.0
  9
$TEXTSTYLE
  7
STANDARD
  9
$CLAYER
  8
AM_5
  9
$CELTYPE
  6
BYLAYER
  9
$CECOLOR
 62
   256
  9
$CELTSCALE
 40
1.0
  9
$DISPSILH
 70
     0
  9
$DIMSCALE
 40
1.0
  9
$DIMASZ
 40
2.5
  9
$DIMEXO
 40
0.0
  9
$DIMDLI
 40
10.0
  9
$DIMRND
 40
0.0
  9
$DIMDLE
 40
0.0
  9
$DIMEXE
 40
1.0
  9
$DIMTP
 40
0.1
  9
$DIMTM
 40
0.1000000001
  9
$DIMTXT
 40
3.799999999999998
  9
$DIMCEN
 40
0.0
  9
$DIMTSZ
 40
0.0
  9
$DIMTOL
 70
     0
  9
$DIMLIM
 70
     0
  9
$DIMTIH
 70
     0
  9
$DIMTOH
 70
     0
  9
$DIMSE1
 70
     0
  9
$DIMSE2
 70
     0
  9
$DIMTAD
 70
     3
  9
$DIMZIN
 70
     9
  9
$DIMBLK
  1
OPEN30
  9
$DIMASO
 70
     1
  9
$DIMSHO
 70
     1
  9
$DIMPOST
  1

  9
$DIMAPOST
  1
"
  9
$DIMALT
 70
     0
  9
$DIMALTD
 70
     2
  9
$DIMALTF
 40
0.0393701
  9
$DIMLFAC
 40
1.0
  9
$DIMTOFL
 70
     1
  9
$DIMTVP
 40
0.0
  9
$DIMTIX
 70
     0
  9
$DIMSOXD
 70
     0
  9
$DIMSAH
 70
     0
  9
$DIMBLK1
  1

  9
$DIMBLK2
  1

  9
$DIMSTYLE
  2
AM_JIS
  9
$DIMCLRD
 70
   256
  9
$DIMCLRE
 70
   256
  9
$DIMCLRT
 70
     2
  9
$DIMTFAC
 40
0.71
  9
$DIMGAP
 40
1.5
  9
$DIMJUST
 70
     0
  9
$DIMSD1
 70
     0
  9
$DIMSD2
 70
     0
  9
$DIMTOLJ
 70
     0
  9
$DIMTZIN
 70
     8
  9
$DIMALTZ
 70
     0
  9
$DIMALTTZ
 70
     0
  9
$DIMUPT
 70
     0
  9
$DIMDEC
 70
     2
  9
$DIMTDEC
 70
     2
  9
$DIMALTU
 70
     2
  9
$DIMALTTD
 70
     2
  9
$DIMTXSTY
  7
STANDARD
  9
$DIMAUNIT
 70
     1
  9
$DIMADEC
 70
     1
  9
$DIMALTRND
 40
0.0
  9
$DIMAZIN
 70
     2
  9
$DIMDSEP
 70
    46
  9
$DIMATFIT
 70
     3
  9
$DIMFRAC
 70
     0
  9
$DIMLDRBLK
  1
OPEN30
  9
$DIMLUNIT
 70
     2
  9
$DIMLWD
 70
    -1
  9
$DIMLWE
 70
    -1
  9
$DIMTMOVE
 70
     0
  9
$LUNITS
 70
     2
  9
$LUPREC
 70
     2
  9
$SKETCHINC
 40
1.0
  9
$FILLETRAD
 40
0.76
  9
$AUNITS
 70
     1
  9
$AUPREC
 70
     5
  9
$MENU
  1
.
  9
$ELEVATION
 40
0.0
  9
$PELEVATION
 40
0.0
  9
$THICKNESS
 40
0.0
  9
$LIMCHECK
 70
     0
  9
$CHAMFERA
 40
0.9
  9
$CHAMFERB
 40
0.9
  9
$CHAMFERC
 40
20.0
  9
$CHAMFERD
 40
0.0
  9
$SKPOLY
 70
     0
  9
$TDCREATE
 40
2451943.610431666
  9
$TDUCREATE
 40
2451943.235431667
  9
$TDUPDATE
 40
2455603.353634977
  9
$TDUUPDATE
 40
2455602.978634977
  9
$TDINDWG
 40
1.5214450000
  9
$TDUSRTIMER
 40
1.5214446412
  9
$USRTIMER
 70
     1
  9
$ANGBASE
 50
0.0
  9
$ANGDIR
 70
     0
  9
$PDMODE
 70
     0
  9
$PDSIZE
 40
0.0
  9
$PLINEWID
 40
0.0
  9
$SPLFRAME
 70
     0
  9
$SPLINETYPE
 70
     6
  9
$SPLINESEGS
 70
     8
  9
$HANDSEED
  5
B517
  9
$SURFTAB1
 70
     6
  9
$SURFTAB2
 70
     6
  9
$SURFTYPE
 70
     6
  9
$SURFU
 70
     6
  9
$SURFV
 70
     6
  9
$UCSBASE
  2

  9
$UCSNAME
  2

  9
$UCSORG
 10
0.0
 20
0.0
 30
0.0
  9
$UCSXDIR
 10
1.0
 20
0.0
 30
0.0
  9
$UCSYDIR
 10
0.0
 20
1.0
 30
0.0
  9
$UCSORTHOREF
  2

  9
$UCSORTHOVIEW
 70
     0
  9
$UCSORGTOP
 10
0.0
 20
0.0
 30
0.0
  9
$UCSORGBOTTOM
 10
0.0
 20
0.0
 30
0.0
  9
$UCSORGLEFT
 10
0.0
 20
0.0
 30
0.0
  9
$UCSORGRIGHT
 10
0.0
 20
0.0
 30
0.0
  9
$UCSORGFRONT
 10
0.0
 20
0.0
 30
0.0
  9
$UCSORGBACK
 10
0.0
 20
0.0
 30
0.0
  9
$PUCSBASE
  2

  9
$PUCSNAME
  2

  9
$PUCSORG
 10
0.0
 20
0.0
 30
0.0
  9
$PUCSXDIR
 10
1.0
 20
0.0
 30
0.0
  9
$PUCSYDIR
 10
0.0
 20
1.0
 30
0.0
  9
$PUCSORTHOREF
  2

  9
$PUCSORTHOVIEW
 70
     0
  9
$PUCSORGTOP
 10
0.0
 20
0.0
 30
0.0
  9
$PUCSORGBOTTOM
 10
0.0
 20
0.0
 30
0.0
  9
$PUCSORGLEFT
 10
0.0
 20
0.0
 30
0.0
  9
$PUCSORGRIGHT
 10
0.0
 20
0.0
 30
0.0
  9
$PUCSORGFRONT
 10
0.0
 20
0.0
 30
0.0
  9
$PUCSORGBACK
 10
0.0
 20
0.0
 30
0.0
  9
$USERI1
 70
     0
  9
$USERI2
 70
     0
  9
$USERI3
 70
     0
  9
$USERI4
 70
     0
  9
$USERI5
 70
     0
  9
$USERR1
 40
0.0
  9
$USERR2
 40
0.0
  9
$USERR3
 40
0.0
  9
$USERR4
 40
0.0
  9
$USERR5
 40
0.0
  9
$WORLDVIEW
 70
     1
  9
$SHADEDGE
 70
     3
  9
$SHADEDIF
 70
    70
  9
$TILEMODE
 70
     1
  9
$MAXACTVP
 70
    64
  9
$PINSBASE
 10
0.0
 20
0.0
 30
0.0
  9
$PLIMCHECK
 70
     0
  9
$PEXTMIN
 10
1.000000000000000E+20
 20
1.000000000000000E+20
 30
1.000000000000000E+20
  9
$PEXTMAX
 10
-1.000000000000000E+20
 20
-1.000000000000000E+20
 30
-1.000000000000000E+20
  9
$PLIMMIN
 10
0.0
 20
0.0
  9
$PLIMMAX
 10
420.0
 20
297.0
  9
$UNITMODE
 70
     0
  9
$VISRETAIN
 70
     1
  9
$PLINEGEN
 70
     0
  9
$PSLTSCALE
 70
     1
  9
$TREEDEPTH
 70
  3020
  9
$CMLSTYLE
  2
STANDARD
  9
$CMLJUST
 70
     0
  9
$CMLSCALE
 40
20.0
  9
$PROXYGRAPHICS
 70
     1
  9
$MEASUREMENT
 70
     1
  9
$CELWEIGHT
370
    -1
  9
$ENDCAPS
280
     0
  9
$JOINSTYLE
280
     0
  9
$LWDISPLAY
290
     0
  9
$INSUNITS
 70
     4
  9
$HYPERLINKBASE
  1

  9
$STYLESHEET
  1
sei_cad.ctb
  9
$XEDIT
290
     1
  9
$CEPSNTYPE
380
     0
  9
$PSTYLEMODE
290
     1
  9
$FINGERPRINTGUID
  2
{C77AB3BE-9CA2-11D3-BAF3-006094EB760E}
  9
$VERSIONGUID
  2
{38A75983-7B14-4C00-846F-B9E001383267}
  9
$EXTNAMES
290
     1
  9
$PSVPSCALE
 40
0.0
  9
$OLESTARTUP
290
     0
  0
ENDSEC
  0
SECTION
  2
CLASSES
  0
CLASS
  1
ACDBDICTIONARYWDFLT
  2
AcDbDictionaryWithDefault
  3
ObjectDBX Classes
 90
        0
280
     0
281
     0
  0
CLASS
  1
ACDBPLACEHOLDER
  2
AcDbPlaceHolder
  3
ObjectDBX Classes
 90
        0
280
     0
281
     0
  0
CLASS
  1
LAYOUT
  2
AcDbLayout
  3
ObjectDBX Classes
 90
        0
280
     0
281
     0
  0
CLASS
  1
ACME_DOCUMENT
  2
AcMeDbDoc
  3
AcMeServices
 90
        0
280
     0
281
     0
  0
CLASS
  1
ACMESCOPE
  2
AcMeScope
  3
AcMeServices
 90
        0
280
     0
281
     0
  0
CLASS
  1
ACMECOMMANDHISTORY
  2
AcMeCommandHistory
  3
AcMeServices
 90
        0
280
     0
281
     0
  0
CLASS
  1
DICTIONARYVAR
  2
AcDbDictionaryVar
  3
ObjectDBX Classes
 90
        0
280
     0
281
     0
  0
CLASS
  1
ACIMSYSVARMAN
  2
AcImSysVarManager
  3
AcMeServices
 90
        0
280
     0
281
     0
  0
CLASS
  1
ACIMREALSYSVAR
  2
AcImRealSysVar
  3
AcMeServices
 90
        0
280
     0
281
     0
  0
CLASS
  1
ACIMINTSYSVAR
  2
AcImIntSysVar
  3
AcMeServices
 90
        0
280
     0
281
     0
  0
CLASS
  1
ACMEDRAWINGMAN
  2
AcMeDrawingMan
  3
AcMeServices
 90
        0
280
     0
281
     0
  0
CLASS
  1
ACMEVIEW
  2
AcMeView
  3
AcMeServices
 90
        0
280
     0
281
     0
  0
CLASS
  1
ACDBENTITYCACHE
  2
AcMeEntityCache
  3
AcMeServices
 90
        0
280
     0
281
     0
  0
CLASS
  1
GSMANAGER
  2
AcMeGSManager
  3
AcMeServices
 90
        0
280
     0
281
     0
  0
CLASS
  1
AMDTINTERNALREACTOR
  2
AmdtInternalReactor
  3
AcMeServices
 90
        0
280
     0
281
     0
  0
CLASS
  1
ACMESTATEMGR
  2
AcMeStateMgr
  3
AcMeServices
 90
        0
280
     0
281
     0
  0
CLASS
  1
ACME_DATABASE
  2
AcMeDbDatabase
  3
AcMeServices
 90
        0
280
     0
281
     0
  0
CLASS
  1
ACRFINSADJUSTERMGR
  2
AcRfInsAdjusterMgr
  3
AcMeServices
 90
        0
280
     0
281
     0
  0
CLASS
  1
AMGSETTINGSOBJ
  2
AmgSettingsObj
  3
"AcadM|Product Description: AutoCAD Mechanical 2000|Company: Autodesk"
 90
        0
280
     0
281
     0
  0
CLASS
  1
AMGOBJPROPCFG
  2
AmgObjPropCfg
  3
"AmgLay|Product Description: AutoCAD Mechanical 2000|Company: Autodesk"
 90
        1
280
     0
281
     0
  0
CLASS
  1
ACMDATADICTIONARY
  2
AcmDataDictionary
  3
"AcmSymBB|Product Description: AutoCAD Mechanical 2004 DX|Company: Autodesk"
 90
        0
280
     0
281
     0
  0
CLASS
  1
ACMDATAENTRYBLOCK
  2
AcmDataEntryBlock
  3
"AcmSymBB|Product Description: AutoCAD Mechanical 2004 DX|Company: Autodesk"
 90
    32768
280
     0
281
     0
  0
CLASS
  1
ACIMSTRSYSVAR
  2
AcImStrSysVar
  3
AcMeServices
 90
        0
280
     0
281
     0
  0
CLASS
  1
ACAMGFILTERDAT
  2
AcAmgFilterDat
  3
"AcadM|Product Description: AutoCAD Mechanical 2000|Company: Autodesk"
 90
    32768
280
     0
281
     0
  0
CLASS
  1
LAYER_INDEX
  2
AcDbLayerIndex
  3
ObjectDBX Classes
 90
        0
280
     0
281
     0
  0
CLASS
  1
IDBUFFER
  2
AcDbIdBuffer
  3
ObjectDBX Classes
 90
        0
280
     0
281
     0
  0
CLASS
  1
ACMSTANDARDJIS
  2
AcmStandardJIS
  3
"Amdt_StdImp|Product Description: AutoCAD Mechanical 2004 DX|Company: Autodesk"
 90
    32768
280
     0
281
     0
  0
CLASS
  1
ACMSURFSTANDARDJIS
  2
AcmSurfTextStdJIS
  3
"Amdt_StdImp|Product Description: AutoCAD Mechanical 2004 DX|Company: Autodesk"
 90
    32768
280
     0
281
     0
  0
CLASS
  1
ACMFCFSTANDARDJIS
  2
AcmFCFStdJIS
  3
"Amdt_StdImp|Product Description: AutoCAD Mechanical 2004 DX|Company: Autodesk"
 90
    32768
280
     0
281
     0
  0
CLASS
  1
ACMWELDSTANDARDJIS
  2
AcmWeldingStdJIS
  3
"Amdt_StdImp|Product Description: AutoCAD Mechanical 2004 DX|Company: Autodesk"
 90
    32768
280
     0
281
     0
  0
CLASS
  1
ACMIDSTANDARDJIS
  2
AcmIdStdJIS
  3
"Amdt_StdImp|Product Description: AutoCAD Mechanical 2004 DX|Company: Autodesk"
 90
    32768
280
     0
281
     0
  0
CLASS
  1
ACMDATUMSTANDARDJIS
  2
AcmDatumStdJIS
  3
"Amdt_StdImp|Product Description: AutoCAD Mechanical 2004 DX|Company: Autodesk"
 90
    32768
280
     0
281
     0
  0
CLASS
  1
ACMBOMSTANDARDJIS
  2
AcmBOMStdJIS
  3
"Amdt_StdImp|Product Description: AutoCAD Mechanical 2004 DX|Company: Autodesk"
 90
    32768
280
     0
281
     0
  0
CLASS
  1
AMDTNOTE
  2
AmdtNote
  3
"AcmSymBB|Product Description: AutoCAD Mechanical 2004 DX|Company: Autodesk"
 90
    33791
280
     0
281
     1
  0
CLASS
  1
ACMDATAENTRYPART
  2
AcmDataEntryPart
  3
"AcmSymBB|Product Description: AutoCAD Mechanical 2004 DX|Company: Autodesk"
 90
    32768
280
     0
281
     0
  0
CLASS
  1
ACMPARTREF
  2
AcmPartRef
  3
"AcmSymBB|Product Description: AutoCAD Mechanical 2004 DX|Company: Autodesk"
 90
    33791
280
     0
281
     1
  0
CLASS
  1
ACDB_PROXY_ENTITY_DATA
  2
AcDbProxyEntityData
  3
ObjectDBX Classes
 90
    32768
280
     0
281
     0
  0
CLASS
  1
TABLESTYLE
  2
AcDbTableStyle
  3
ObjectDBX Classes
 90
     2047
280
     0
281
     0
  0
CLASS
  1
ACGREFMASTER
  2
AcGrefMaster
  3
AcAttribServices
 90
        0
280
     0
281
     0
  0
CLASS
  1
AM_DRAWING_MGR
  2
AcDmDwgMgr
  3
AcMechDwgViewMgmt
 90
        0
280
     0
281
     0
  0
CLASS
  1
AM_DWG_DOCUMENT
  2
AcDmDwgDocument
  3
AcMechDwgViewMgmt
 90
        0
280
     0
281
     0
  0
CLASS
  1
AM_DWG_SHEET
  2
AcDmSheet
  3
AcMechDwgViewMgmt
 90
        0
280
     0
281
     0
  0
CLASS
  1
AM_VIEWDIMPARMAP
  2
AcDmViewDimParMap
  3
AcMechDwgViewMgmt
 90
        0
280
     0
281
     0
  0
CLASS
  1
AM_DWGMGR_NAME
  2
AcDmDwgMgrName
  3
AcMechDwgViewMgmt
 90
        0
280
     0
281
     0
  0
CLASS
  1
ACGREFACADMASTER
  2
AcGrefacadMaster
  3
AcGrefServices
 90
        0
280
     0
281
     0
  0
CLASS
  1
AMDTMENUSTATEMGR
  2
AmdtMenuStateMgr
  3
McadcomServices
 90
        0
280
     0
281
     0
  0
CLASS
  1
AMDTMCOMMENUSTATE
  2
AmdtMcomMenuState
  3
McadcomServices
 90
        0
280
     0
281
     0
  0
CLASS
  1
AMIMASTER
  2
AmiMaster
  3
AmiServices
 90
        0
280
     0
281
     0
  0
CLASS
  1
MAPIAMMOUDLE
  2
MApiAmModule
  3
MApiAmServices
 90
        0
280
     0
281
     0
  0
CLASS
  1
AMDTADMENUSTATE
  2
AmdtAdMenuState
  3
DesignerServices
 90
        0
280
     0
281
     0
  0
CLASS
  1
ADAPPL
  2
AcAdAppl
  3
DesignerServices
 90
        0
280
     0
281
     0
  0
CLASS
  1
DEPMGR
  2
AcAdDepMgr
  3
DesignerServices
 90
        0
280
     0
281
     0
  0
CLASS
  1
PARAMMGR
  2
AcAdParamMgr
  3
DesignerServices
 90
        0
280
     0
281
     0
  0
CLASS
  1
PARAMSCOPE
  2
AcAdParamScope
  3
DesignerServices
 90
        0
280
     0
281
     0
  0
CLASS
  1
NAMEDAPPL
  2
AcAdNamedAppl
  3
DesignerServices
 90
        0
280
     0
281
     0
  0
CLASS
  1
AMDTDMMENUSTATE
  2
AmdtDmMenuState
  3
AcMechDwgViewMgmt
 90
        0
280
     0
281
     0
  0
CLASS
  1
AMDTAMMENUSTATE
  2
AmdtAmMenuState
  3
DesignerAssemblies
 90
        0
280
     0
281
     0
  0
CLASS
  1
ACAMPROJECT
  2
AcAmProject
  3
DesignerAssemblies
 90
        0
280
     0
281
     0
  0
CLASS
  1
ACAMGRCOMPDEF
  2
AcAmGrCompDef
  3
DesignerAssemblies
 90
        0
280
     0
281
     0
  0
CLASS
  1
ACCMCONTEXT
  2
AcCmContext
  3
DesignerAssemblies
 90
        0
280
     0
281
     0
  0
CLASS
  1
ACAMCOMPDEF
  2
AcAmCompDef
  3
DesignerAssemblies
 90
        0
280
     0
281
     0
  0
CLASS
  1
ACAMCOMPDEFMGR
  2
AcAmCompDefMgr
  3
DesignerAssemblies
 90
        0
280
     0
281
     0
  0
CLASS
  1
AMCONTEXTMGR
  2
AcAmContextMgr
  3
DesignerAssemblies
 90
        0
280
     0
281
     0
  0
CLASS
  1
ACAMCONTEXTMODELER
  2
AcAmContextModeler
  3
DesignerAssemblies
 90
        0
280
     0
281
     0
  0
CLASS
  1
CATALOGSTATE
  2
AcAmCatalogState
  3
DesignerAssemblies
 90
        0
280
     0
281
     0
  0
CLASS
  1
ACAMGRCOMPDEFSET
  2
AcAmGrCompDefSet
  3
DesignerAssemblies
 90
        0
280
     0
281
     0
  0
CLASS
  1
AMDTBROWSERDBTAB
  2
AmdtBrowserDbTab
  3
McadcomServices
 90
        0
280
     0
281
     0
  0
CLASS
  1
CBROWSERAPPOBJECT
  2
CBrowserAppObject
  3
McadcomServices
 90
        0
280
     0
281
     0
  0
CLASS
  1
DM_PLACEHOLDER
  2
AcDmSelsetPlaceholder
  3
AcMechDwgViewMgmt
 90
        0
280
     0
281
     0
  0
CLASS
  1
ACMSTANDARDISO
  2
AcmStandardISO
  3
"Amdt_StdImp|Product Description: AutoCAD Mechanical 2004 DX|Company: Autodesk"
 90
        0
280
     0
281
     0
  0
CLASS
  1
AMDTEDGESTANDARDISO13715
  2
AmdtEdgeStdISO13715
  3
"Amdt_StdImp|Product Description: AutoCAD Mechanical 2004 DX|Company: Autodesk"
 90
        0
280
     0
281
     0
  0
CLASS
  1
ACMSURFSTANDARDISO
  2
AcmSurfTextStdISO
  3
"Amdt_StdImp|Product Description: AutoCAD Mechanical 2004 DX|Company: Autodesk"
 90
        0
280
     0
281
     0
  0
CLASS
  1
ACMFCFSTANDARDISO
  2
AcmFCFStdISO
  3
"Amdt_StdImp|Product Description: AutoCAD Mechanical 2004 DX|Company: Autodesk"
 90
        0
280
     0
281
     0
  0
CLASS
  1
ACMWELDSTANDARDISO
  2
AcmWeldingStdISO
  3
"Amdt_StdImp|Product Description: AutoCAD Mechanical 2004 DX|Company: Autodesk"
 90
        0
280
     0
281
     0
  0
CLASS
  1
ACMIDSTANDARDISO
  2
AcmIdStdISO
  3
"Amdt_StdImp|Product Description: AutoCAD Mechanical 2004 DX|Company: Autodesk"
 90
        0
280
     0
281
     0
  0
CLASS
  1
ACMDATUMSTANDARDISO
  2
AcmDatumStdISO
  3
"Amdt_StdImp|Product Description: AutoCAD Mechanical 2004 DX|Company: Autodesk"
 90
        0
280
     0
281
     0
  0
CLASS
  1
ACMBOMSTANDARDISO
  2
AcmBOMStdISO
  3
"Amdt_StdImp|Product Description: AutoCAD Mechanical 2004 DX|Company: Autodesk"
 90
        0
280
     0
281
     0
  0
CLASS
  1
ACMDETAILSTANDARDISO
  2
AmdtDetailSymStdISO
  3
"Amdt_StdImp|Product Description: AutoCAD Mechanical 2004 DX|Company: Autodesk"
 90
        0
280
     0
281
     0
  0
CLASS
  1
ACMSECTIONSTANDARDISO
  2
AmdtSectionSymStdISO
  3
"Amdt_StdImp|Product Description: AutoCAD Mechanical 2004 DX|Company: Autodesk"
 90
        0
280
     0
281
     0
  0
CLASS
  1
ACMCENTERLINESTANDARDISO
  2
AmdtCenterLineStdISO
  3
"Amdt_StdImp|Product Description: AutoCAD Mechanical 2004 DX|Company: Autodesk"
 90
        0
280
     0
281
     0
  0
CLASS
  1
ACMTHREADLINESTANDARDISO
  2
AmdtThreadLineStdISO
  3
"Amdt_StdImp|Product Description: AutoCAD Mechanical 2004 DX|Company: Autodesk"
 90
        0
280
     0
281
     0
  0
CLASS
  1
ACMNOTESTANDARDISO
  2
AmdtNoteStdISO
  3
"Amdt_StdImp|Product Description: AutoCAD Mechanical 2004 DX|Company: Autodesk"
 90
        0
280
     0
281
     0
  0
CLASS
  1
AMDTNOTETEMPLATEDB
  2
AmdtNoteTemplateDB
  3
AMDT_STDIMP_MODULE_NAME
 90
        0
280
     0
281
     0
  0
CLASS
  1
ACAMGLAYSTD
  2
AcAmgLayStd
  3
"AcAmgLayStd|Product Description: AutoCAD Mechanical 2000|Company: Autodesk"
 90
        0
280
     0
281
     0
  0
CLASS
  1
ACAMGDIMSTD
  2
AcAmgDimStd
  3
"AcAmgDimStd|Product Description: AutoCAD Mechanical 2000|Company: Autodesk"
 90
        0
280
     0
281
     0
  0
CLASS
  1
ACAMGHOLECHARTSTDISO
  2
AcAmgHoleChartStdISO
  3
ACMSYMBB_MODULE_NAME
 90
        0
280
     0
281
     0
  0
CLASS
  1
ACAMGTITLESTD
  2
AcAmgTitleStd
  3
"TITLEAPP"
 90
        0
280
     0
281
     0
  0
ENDSEC
  0
SECTION
  2
TABLES
  0
TABLE
  2
VPORT
  5
8
330
0
100
AcDbSymbolTable
 70
    15
  0
VPORT
  5
B510
330
8
100
AcDbSymbolTableRecord
100
AcDbViewportTableRecord
  2
*Active
 70
     0
 10
0.0
 20
0.0
 11
1.0
 21
1.0
 12
38.80757255032725
 22
29.58106258771586
 13
0.0
 23
0.0
 14
2.5
 24
2.5
 15
10.0
 25
10.0
 16
0.0
 26
0.0
 36
1.0
 17
0.0
 27
0.0
 37
0.0
 40
148.83225397965
 41
2.176400476758045
 42
50.0
 43
0.0
 44
0.0
 50
0.0
 51
0.0
 71
     0
 72
  2000
 73
     1
 74
     3
 75
     0
 76
     0
 77
     0
 78
     0
281
     0
 65
     0
110
0.0
120
0.0
130
0.0
111
1.0
121
0.0
131
0.0
112
0.0
122
1.0
132
0.0
 79
     0
146
0.0
  0
ENDTAB
  0
TABLE
  2
LTYPE
  5
5
330
0
100
AcDbSymbolTable
 70
    17
  0
LTYPE
  5
14
330
5
100
AcDbSymbolTableRecord
100
AcDbLinetypeTableRecord
  2
BYBLOCK
 70
     0
  3

 72
    65
 73
     0
 40
0.0
  0
LTYPE
  5
15
330
5
100
AcDbSymbolTableRecord
100
AcDbLinetypeTableRecord
  2
BYLAYER
 70
     0
  3

 72
    65
 73
     0
 40
0.0
  0
LTYPE
  5
16
330
5
100
AcDbSymbolTableRecord
100
AcDbLinetypeTableRecord
  2
CONTINUOUS
 70
     0
  3
Solid line
 72
    65
 73
     0
 40
0.0
  0
LTYPE
  5
43
330
5
100
AcDbSymbolTableRecord
100
AcDbLinetypeTableRecord
  2
AM_ISO02W050
 70
     0
  3
__ __ __ __ __ __ __ __ __ __ __ __ __ __ __
 72
    65
 73
     2
 40
7.5
 49
6.0
 74
     0
 49
-1.5
 74
     0
  0
LTYPE
  5
44
330
5
100
AcDbSymbolTableRecord
100
AcDbLinetypeTableRecord
  2
AM_ISO08W050
 70
     0
  3
____ . ____ . ____ . ____ . ____ . ____ . ____
 72
    65
 73
     4
 40
18.0
 49
12.0
 74
     0
 49
-1.5
 74
     0
 49
3.0
 74
     0
 49
-1.5
 74
     0
  0
LTYPE
  5
45
330
5
100
AcDbSymbolTableRecord
100
AcDbLinetypeTableRecord
  2
AM_ISO09W050
 70
     0
  3
_____ . . _____ . . _____ . . ____ .. ____
 72
    65
 73
     6
 40
22.5
 49
12.0
 74
     0
 49
-1.5
 74
     0
 49
3.0
 74
     0
 49
-1.5
 74
     0
 49
3.0
 74
     0
 49
-1.5
 74
     0
  0
LTYPE
  5
46
330
5
100
AcDbSymbolTableRecord
100
AcDbLinetypeTableRecord
  2
AMCONSTR
 70
     0
  3
_______________________
 72
    65
 73
     2
 40
9999.0
 49
9999.0
 74
     0
 49
0.0
 74
     0
  0
LTYPE
  5
47
330
5
100
AcDbSymbolTableRecord
100
AcDbLinetypeTableRecord
  2
AM_ISO02W050X2
 70
     0
  3
 _ _ _ _ _ _ _ _ _ _ _ _
 72
    65
 73
     2
 40
3.75
 49
3.0
 74
     0
 49
-0.75
 74
     0
  0
LTYPE
  5
48
330
5
100
AcDbSymbolTableRecord
100
AcDbLinetypeTableRecord
  2
AM_ISO08W050X2
 70
     0
  3
__ . __ . __ . __ . __ . __
 72
    65
 73
     4
 40
9.0
 49
6.0
 74
     0
 49
-0.75
 74
     0
 49
1.5
 74
     0
 49
-0.75
 74
     0
  0
LTYPE
  5
4B
330
5
100
AcDbSymbolTableRecord
100
AcDbLinetypeTableRecord
  2
AMZIGZAG
 70
     0
  3
/\/-/\/-/\/-/\/-/\/-/\/
 72
    65
 73
     2
 40
11.00009999999999
 49
0.0001
 74
     4
 75
   135
340
4A
 46
0.04
 50
0.0
 44
0.0
 45
0.0
 49
-11.0
 74
     0
  0
LTYPE
  5
A2E3
330
5
100
AcDbSymbolTableRecord
100
AcDbLinetypeTableRecord
  2
PHANTOM
 70
     0
  3
Phantom ______  __  __  ______  __  __  ______
 72
    65
 73
     6
 40
63.5
 49
31.75
 74
     0
 49
-6.349999999999998
 74
     0
 49
6.349999999999998
 74
     0
 49
-6.349999999999998
 74
     0
 49
6.349999999999998
 74
     0
 49
-6.349999999999998
 74
     0
  0
LTYPE
  5
B449
330
5
100
AcDbSymbolTableRecord
100
AcDbLinetypeTableRecord
  2
HIDDEN
 70
     0
  3
Hidden __ __ __ __ __ __ __ __ __ __ __ __ __ _
 72
    65
 73
     2
 40
9.524999999999998
 49
6.349999999999999
 74
     0
 49
-3.174999999999999
 74
     0
  0
LTYPE
  5
B44A
330
5
100
AcDbSymbolTableRecord
100
AcDbLinetypeTableRecord
  2
PHANTOM2
 70
     0
  3
Phantom (.5x) ___ _ _ ___ _ _ ___ _ _ ___ _ _
 72
    65
 73
     6
 40
31.75
 49
15.875
 74
     0
 49
-3.174999999999999
 74
     0
 49
3.174999999999999
 74
     0
 49
-3.174999999999999
 74
     0
 49
3.174999999999999
 74
     0
 49
-3.174999999999999
 74
     0
  0
LTYPE
  5
B44B
330
5
100
AcDbSymbolTableRecord
100
AcDbLinetypeTableRecord
  2
CENTER
 70
     0
  3
Center ____ _ ____ _ ____ _ ____ _ ____ _ ____
 72
    65
 73
     4
 40
50.8
 49
31.75
 74
     0
 49
-6.349999999999999
 74
     0
 49
6.349999999999999
 74
     0
 49
-6.349999999999999
 74
     0
  0
LTYPE
  5
B48B
330
5
100
AcDbSymbolTableRecord
100
AcDbLinetypeTableRecord
  2
ACISOWELD
 70
     0
  3
_ _ _ _ _
 72
    65
 73
     2
 40
2.0
 49
2.0
 74
     0
 49
-1.0
 74
     0
  0
LTYPE
  5
B48C
330
5
100
AcDbSymbolTableRecord
100
AcDbLinetypeTableRecord
  2
ACISOTGB
 70
     0
  3
__ . . __ . .
 72
    65
 73
     6
 40
9.0
 49
4.0
 74
     0
 49
-1.0
 74
     0
 49
1.0
 74
     0
 49
-1.0
 74
     0
 49
1.0
 74
     0
 49
-1.0
 74
     0
  0
LTYPE
  5
B48D
330
5
100
AcDbSymbolTableRecord
100
AcDbLinetypeTableRecord
  2
ACISOTGL
 70
     0
  3
_ _ _ _ _
 72
    65
 73
     2
 40
3.0
 49
2.0
 74
     0
 49
-1.0
 74
     0
  0
ENDTAB
  0
TABLE
  2
LAYER
  5
2
330
0
100
AcDbSymbolTable
 70
    13
  0
LAYER
  5
10
330
2
100
AcDbSymbolTableRecord
100
AcDbLayerTableRecord
  2
0
 70
     0
 62
     7
  6
CONTINUOUS
370
    -3
390
F
  0
LAYER
  5
7D
330
2
100
AcDbSymbolTableRecord
100
AcDbLayerTableRecord
  2
AM_5
 70
     0
 62
     3
  6
CONTINUOUS
370
    -3
390
F
  0
LAYER
  5
7F
330
2
100
AcDbSymbolTableRecord
100
AcDbLayerTableRecord
  2
DEFPOINTS
 70
     0
 62
     7
  6
CONTINUOUS
290
     0
370
    -3
390
F
  0
LAYER
  5
12B1
330
2
100
AcDbSymbolTableRecord
100
AcDbLayerTableRecord
  2
AM_0
 70
     0
 62
     7
  6
CONTINUOUS
370
    -3
390
F
  0
LAYER
  5
2222
330
2
100
AcDbSymbolTableRecord
100
AcDbLayerTableRecord
  2
AM_6
 70
     0
 62
     2
  6
CONTINUOUS
370
    -3
390
F
  0
LAYER
  5
4379
330
2
100
AcDbSymbolTableRecord
100
AcDbLayerTableRecord
  2
AM_1
 70
     0
 62
     3
  6
CONTINUOUS
370
    -3
390
F
  0
LAYER
  5
7DB2
330
2
100
AcDbSymbolTableRecord
100
AcDbLayerTableRecord
  2
AM_7
 70
     0
 62
     4
  6
AM_ISO08W050
370
    -3
390
F
  0
LAYER
  5
A2E4
330
2
100
AcDbSymbolTableRecord
100
AcDbLayerTableRecord
  2
AM_11
 70
     0
 62
     3
  6
PHANTOM
370
    -3
390
F
  0
ENDTAB
  0
TABLE
  2
STYLE
  5
3
330
0
100
AcDbSymbolTable
 70
     6
  0
STYLE
  5
11
330
3
100
AcDbSymbolTableRecord
100
AcDbTextStyleTableRecord
  2
STANDARD
 70
     0
 40
0.0
 41
1.0
 50
0.0
 71
     0
 42
2.5
  3
ISOCP.SHX
  4
EXTFONT.SHX
  0
STYLE
  5
4A
330
3
100
AcDbSymbolTableRecord
100
AcDbTextStyleTableRecord
  2

 70
     1
 40
0.0
 41
1.0
 50
0.0
 71
     0
 42
2.5
  3
ltypeshp.shx
  4

  0
STYLE
  5
B47D
330
3
100
AcDbSymbolTableRecord
100
AcDbTextStyleTableRecord
  2
ACISOTS
 70
     0
 40
1.0
 41
1.0
 50
0.0
 71
     0
 42
2.5
  3
isocp.shx
  4
extfont.shx
  0
STYLE
  5
B48A
330
3
100
AcDbSymbolTableRecord
100
AcDbTextStyleTableRecord
  2
ACISOGDT
 70
     0
 40
0.0
 41
1.0
 50
0.0
 71
     0
 42
2.5
  3
amgdt.shx
  4

  0
ENDTAB
  0
TABLE
  2
VIEW
  5
6
330
0
100
AcDbSymbolTable
 70
     6
  0
VIEW
  5
A30
330
6
100
AcDbSymbolTableRecord
100
AcDbViewTableRecord
  2
AM_VIEW1
 70
     0
 40
148.5
 10
112.0719649561952
 20
222.75
 41
224.1439299123904
 11
0.0
 21
0.0
 31
1.0
 12
0.0
 22
0.0
 32
0.0
 42
50.0
 43
0.0
 44
0.0
 50
0.0
 71
     0
281
     0
 72
     0
  0
VIEW
  5
A31
330
6
100
AcDbSymbolTableRecord
100
AcDbViewTableRecord
  2
AM_VIEW2
 70
     0
 40
148.5
 10
307.9280350438047
 20
222.75
 41
224.1439299123904
 11
0.0
 21
0.0
 31
1.0
 12
0.0
 22
0.0
 32
0.0
 42
50.0
 43
0.0
 44
0.0
 50
0.0
 71
     0
281
     0
 72
     0
  0
VIEW
  5
A32
330
6
100
AcDbSymbolTableRecord
100
AcDbViewTableRecord
  2
AM_VIEW3
 70
     0
 40
148.5
 10
112.0719649561952
 20
74.25
 41
224.1439299123904
 11
0.0
 21
0.0
 31
1.0
 12
0.0
 22
0.0
 32
0.0
 42
50.0
 43
0.0
 44
0.0
 50
0.0
 71
     0
281
     0
 72
     0
  0
VIEW
  5
A33
330
6
100
AcDbSymbolTableRecord
100
AcDbViewTableRecord
  2
AM_VIEW4
 70
     0
 40
148.5
 10
307.9280350438047
 20
74.25
 41
224.1439299123904
 11
0.0
 21
0.0
 31
1.0
 12
0.0
 22
0.0
 32
0.0
 42
50.0
 43
0.0
 44
0.0
 50
0.0
 71
     0
281
     0
 72
     0
  0
VIEW
  5
A34
330
6
100
AcDbSymbolTableRecord
100
AcDbViewTableRecord
  2
AM_VIEW5
 70
     0
 40
148.5
 10
210.0
 20
148.5
 41
224.1439299123904
 11
0.0
 21
0.0
 31
1.0
 12
0.0
 22
0.0
 32
0.0
 42
50.0
 43
0.0
 44
0.0
 50
0.0
 71
     0
281
     0
 72
     0
  0
VIEW
  5
A35
330
6
100
AcDbSymbolTableRecord
100
AcDbViewTableRecord
  2
AM_VIEW6
 70
     0
 40
296.9970299999999
 10
210.0
 20
148.5
 41
448.2833769461826
 11
0.0
 21
0.0
 31
1.0
 12
0.0
 22
0.0
 32
0.0
 42
50.0
 43
0.0
 44
0.0
 50
0.0
 71
     0
281
     0
 72
     0
  0
ENDTAB
  0
TABLE
  2
UCS
  5
7
330
0
100
AcDbSymbolTable
 70
     0
  0
ENDTAB
  0
TABLE
  2
APPID
  5
9
330
0
100
AcDbSymbolTable
 70
    42
  0
APPID
  5
12
330
9
100
AcDbSymbolTableRecord
100
AcDbRegAppTableRecord
  2
ACAD
 70
     0
  0
APPID
  5
2C
330
9
100
AcDbSymbolTableRecord
100
AcDbRegAppTableRecord
  2
MCAD_NO_VIS
 70
     0
  0
APPID
  5
2D
330
9
100
AcDbSymbolTableRecord
100
AcDbRegAppTableRecord
  2
ACAD_TEMP_GRAPHIC
 70
     0
  0
APPID
  5
B9
330
9
100
AcDbSymbolTableRecord
100
AcDbRegAppTableRecord
  2
GENIUS_GENDTOL_13
 70
     0
  0
APPID
  5
359
330
9
100
AcDbSymbolTableRecord
100
AcDbRegAppTableRecord
  2
GENIUS_GENREC_14
 70
     0
  0
APPID
  5
35A
330
9
100
AcDbSymbolTableRecord
100
AcDbRegAppTableRecord
  2
GENIUS_GENODEF_13
 70
     0
  0
APPID
  5
35B
330
9
100
AcDbSymbolTableRecord
100
AcDbRegAppTableRecord
  2
GENIUS_GENOBJ-N-REC_13
 70
     0
  0
APPID
  5
667
330
9
100
AcDbSymbolTableRecord
100
AcDbRegAppTableRecord
  2
GENIUS_GENCFG_13
 70
     0
  0
APPID
  5
668
330
9
100
AcDbSymbolTableRecord
100
AcDbRegAppTableRecord
  2
GENIUS_GENCFG0_13
 70
     0
  0
APPID
  5
669
330
9
100
AcDbSymbolTableRecord
100
AcDbRegAppTableRecord
  2
GENIUS_GENCFG1_13
 70
     0
  0
APPID
  5
66A
330
9
100
AcDbSymbolTableRecord
100
AcDbRegAppTableRecord
  2
GENIUS_GENCFG2_13
 70
     0
  0
APPID
  5
66B
330
9
100
AcDbSymbolTableRecord
100
AcDbRegAppTableRecord
  2
GENIUS_GENCFG3_13
 70
     0
  0
APPID
  5
66C
330
9
100
AcDbSymbolTableRecord
100
AcDbRegAppTableRecord
  2
GENIUS_GENCFG4_13
 70
     0
  0
APPID
  5
A76
330
9
100
AcDbSymbolTableRecord
100
AcDbRegAppTableRecord
  2
GENIUS_GENBLLY_14
 70
     0
  0
APPID
  5
A77
330
9
100
AcDbSymbolTableRecord
100
AcDbRegAppTableRecord
  2
GENIUS_GENOBJ-N-CEN_13
 70
     0
  0
APPID
  5
A83
330
9
100
AcDbSymbolTableRecord
100
AcDbRegAppTableRecord
  2
GENIUS_GENTRA_14
 70
     0
  0
APPID
  5
A8D
330
9
100
AcDbSymbolTableRecord
100
AcDbRegAppTableRecord
  2
GENIUS_GENOBJ-N-TIT_13
 70
     0
  0
APPID
  5
A8E
330
9
100
AcDbSymbolTableRecord
100
AcDbRegAppTableRecord
  2
GENIUS_GENTITLE_13
 70
     0
  0
APPID
  5
A8F
330
9
100
AcDbSymbolTableRecord
100
AcDbRegAppTableRecord
  2
GENIUS_GENOENT_13
 70
     0
  0
APPID
  5
A90
330
9
100
AcDbSymbolTableRecord
100
AcDbRegAppTableRecord
  2
GENIUS_GENOREF_13
 70
     0
  0
APPID
  5
A91
330
9
100
AcDbSymbolTableRecord
100
AcDbRegAppTableRecord
  2
GENIUS_GENOLIS_13
 70
     0
  0
APPID
  5
A92
330
9
100
AcDbSymbolTableRecord
100
AcDbRegAppTableRecord
  2
GENIUS_GENZVEED_13
 70
     0
  0
APPID
  5
A93
330
9
100
AcDbSymbolTableRecord
100
AcDbRegAppTableRecord
  2
GENIUS_GENSCREG_15
 70
     0
  0
APPID
  5
A94
330
9
100
AcDbSymbolTableRecord
100
AcDbRegAppTableRecord
  2
GENIUS_GENOBJ-N-SDF_13
 70
     0
  0
APPID
  5
12B5
330
9
100
AcDbSymbolTableRecord
100
AcDbRegAppTableRecord
  2
GENIUS_GENOBJ-N-RSBK_13
 70
     0
  0
APPID
  5
12B6
330
9
100
AcDbSymbolTableRecord
100
AcDbRegAppTableRecord
  2
GENIUS_GENOBJ-N-LIB_13
 70
     0
  0
APPID
  5
12B7
330
9
100
AcDbSymbolTableRecord
100
AcDbRegAppTableRecord
  2
GENIUS_GENSCALE_13
 70
     0
  0
APPID
  5
12B8
330
9
100
AcDbSymbolTableRecord
100
AcDbRegAppTableRecord
  2
GENIUS_GENOBJ-N-HTC_13
 70
     0
  0
APPID
  5
12B9
330
9
100
AcDbSymbolTableRecord
100
AcDbRegAppTableRecord
  2
GENIUS_GENHATCH_13
 70
     0
  0
APPID
  5
1C0A
330
9
100
AcDbSymbolTableRecord
100
AcDbRegAppTableRecord
  2
BASE_TYPE
 70
     0
  0
APPID
  5
276B
330
9
100
AcDbSymbolTableRecord
100
AcDbRegAppTableRecord
  2
GENIUS_GENOBJ-N-FIL_13
 70
     0
  0
APPID
  5
3640
330
9
100
AcDbSymbolTableRecord
100
AcDbRegAppTableRecord
  2
GENIUS_GENBH_13
 70
     0
  0
APPID
  5
36D1
330
9
100
AcDbSymbolTableRecord
100
AcDbRegAppTableRecord
  2
GENIUS_GENOBJ-F-SPR_13
 70
     0
  0
APPID
  5
36DA
330
9
100
AcDbSymbolTableRecord
100
AcDbRegAppTableRecord
  2
GENIUS_GEFSPRING_13
 70
     0
  0
APPID
  5
36DB
330
9
100
AcDbSymbolTableRecord
100
AcDbRegAppTableRecord
  2
GENIUS_GEFSPRINGP_13
 70
     0
  0
APPID
  5
4D67
330
9
100
AcDbSymbolTableRecord
100
AcDbRegAppTableRecord
  2
GENIUS_GENFIL_13
 70
     0
  0
APPID
  5
4D68
330
9
100
AcDbSymbolTableRecord
100
AcDbRegAppTableRecord
  2
GENIUS_GENOBJ-N-CHA_13
 70
     0
  0
APPID
  5
B44D
330
9
100
AcDbSymbolTableRecord
100
AcDbRegAppTableRecord
  2
AD_DRAW
 70
     0
  0
APPID
  5
B450
330
9
100
AcDbSymbolTableRecord
100
AcDbRegAppTableRecord
  2
ACATTRIBSERVICES
 70
     0
  0
APPID
  5
B46E
330
9
100
AcDbSymbolTableRecord
100
AcDbRegAppTableRecord
  2
DESIGNERASSEMBLIES
 70
     0
  0
APPID
  5
B473
330
9
100
AcDbSymbolTableRecord
100
AcDbRegAppTableRecord
  2
ACADM_DIM_EDIT
 70
     0
  0
APPID
  5
B474
330
9
100
AcDbSymbolTableRecord
100
AcDbRegAppTableRecord
  2
AMDT_DM_ADJ
 70
     0
  0
ENDTAB
  0
TABLE
  2
DIMSTYLE
  5
A
330
0
100
AcDbSymbolTable
 70
    20
100
AcDbDimStyleTable
 71
     0
  0
DIMSTYLE
105
58
330
A
100
AcDbSymbolTableRecord
100
AcDbDimStyleTableRecord
  2
AM_JIS
 70
     0
  4
"
 41
2.5
 42
0.0
 43
10.0
 44
1.0
 47
0.1
 48
0.1000000001
 73
     0
 74
     0
 77
     3
 78
     9
140
3.799999999999998
141
0.0
143
0.0393701
146
0.71
147
1.5
172
     1
176
   256
177
   256
178
     2
271
     2
272
     2
275
     1
283
     0
284
     8
340
11
341
59
342
59
  0
DIMSTYLE
105
5F
102
{ACAD_REACTORS
330
B27B
102
}
330
A
100
AcDbSymbolTableRecord
100
AcDbDimStyleTableRecord
  2
AM_JIS$3
 70
     0
  4
"
 41
2.5
 42
0.0
 43
10.0
 44
1.0
 47
0.1
 48
0.1000000001
 73
     0
 74
     0
 77
     3
 78
     9
140
3.799999999999998
141
0.0
143
0.0393701
146
0.71
147
1.5
172
     1
176
   256
177
   256
178
     2
271
     2
272
     2
275
     1
281
     1
283
     0
284
     8
288
     1
340
11
341
59
342
59
  0
DIMSTYLE
105
65F
330
A
100
AcDbSymbolTableRecord
100
AcDbDimStyleTableRecord
  2
STANDARD
 70
     0
340
11
  0
DIMSTYLE
105
1761
102
{ACAD_REACTORS
330
B256
330
B2C7
330
B2D4
330
B2E1
330
B2EE
330
B2FD
330
B30B
102
}
330
A
100
AcDbSymbolTableRecord
100
AcDbDimStyleTableRecord
  2
AM_JIS$0
 70
     0
  4
"
 41
2.5
 42
0.0
 43
10.0
 44
1.0
 47
0.1
 48
0.1000000001
 73
     0
 74
     0
 77
     3
 78
     9
140
3.799999999999998
141
0.0
143
0.0393701
146
0.71
147
1.5
172
     1
176
     3
177
     3
178
     2
271
     2
272
     2
275
     1
283
     0
284
     8
340
11
341
59
342
59
  0
DIMSTYLE
105
B496
330
A
100
AcDbSymbolTableRecord
100
AcDbDimStyleTableRecord
  2
AM_ISO
 70
     0
  4
"
 41
2.5
 42
1.0
 43
10.0
 44
1.0
 47
0.1
 48
0.1
 73
     0
 74
     0
 77
     1
 78
     8
 79
     2
140
3.5
141
0.0
143
0.0393701
146
0.71
147
1.5
172
     1
176
   256
177
   256
178
     2
271
     2
272
     3
274
     4
283
     0
284
     8
340
11
371
    -1
372
    -1
  0
DIMSTYLE
105
B497
330
A
100
AcDbSymbolTableRecord
100
AcDbDimStyleTableRecord
  2
AM_ISO$3
 70
     0
  4
"
 41
2.5
 42
1.0
 43
10.0
 44
1.0
 47
0.1
 48
0.1
 73
     0
 77
     1
 78
     8
 79
     2
140
3.5
141
0.0
143
0.0393701
146
0.71
147
1.5
176
   256
177
   256
178
     2
271
     2
272
     3
274
     4
283
     0
284
     8
288
     1
289
     0
340
11
371
    -1
372
    -1
  0
DIMSTYLE
105
B498
330
A
100
AcDbSymbolTableRecord
100
AcDbDimStyleTableRecord
  2
AM_ISO$4
 70
     0
  4
"
 41
2.5
 42
1.0
 43
10.0
 44
1.0
 47
0.1
 48
0.1
 73
     0
 77
     1
 78
     8
 79
     2
140
3.5
141
0.0
143
0.0393701
146
0.71
147
1.5
176
   256
177
   256
178
     2
271
     2
272
     3
274
     4
283
     0
284
     8
288
     1
289
     0
340
11
371
    -1
372
    -1
  0
DIMSTYLE
105
B499
330
A
100
AcDbSymbolTableRecord
100
AcDbDimStyleTableRecord
  2
AM_ISO$6
 70
     0
  4
"
 41
2.5
 42
1.0
 43
10.0
 44
1.0
 47
0.1
 48
0.1
 73
     0
 74
     0
 78
     8
 79
     2
140
3.5
141
0.0
143
0.0393701
146
0.71
147
1.5
172
     1
176
   256
177
   256
178
     2
271
     2
272
     3
274
     4
283
     0
284
     8
340
11
371
    -1
372
    -1
  0
DIMSTYLE
105
B49A
330
A
100
AcDbSymbolTableRecord
100
AcDbDimStyleTableRecord
  2
AM_ISO$7
 70
     0
  4
"
 41
2.5
 42
1.0
 43
10.0
 44
1.0
 47
0.1
 48
0.1
 73
     0
 74
     0
 77
     1
 78
     8
 79
     2
140
5.0
141
0.0
143
0.0393701
146
0.71
147
1.5
172
     1
176
   256
177
   256
178
     2
271
     2
272
     3
274
     4
283
     0
284
     8
340
11
371
    -1
372
    -1
  0
DIMSTYLE
105
B49B
330
A
100
AcDbSymbolTableRecord
100
AcDbDimStyleTableRecord
  2
AM_ISO$SF
 70
     0
  4
"
 41
2.5
 42
1.0
 43
10.0
 44
1.0
 47
0.1
 48
0.1
 73
     0
 74
     0
 75
     1
 76
     1
 77
     1
 78
     8
 79
     2
140
3.5
141
0.0
143
0.0393701
146
0.71
147
1.5
172
     1
176
   256
177
   256
178
     2
271
     2
272
     3
274
     4
283
     0
284
     8
340
11
371
    -1
372
    -1
  0
DIMSTYLE
105
B49C
330
A
100
AcDbSymbolTableRecord
100
AcDbDimStyleTableRecord
  2
AM_ISO$SH
 70
     0
  4
"
 41
2.5
 42
1.0
 43
10.0
 44
1.0
 47
0.1
 48
0.1
 73
     0
 74
     0
 75
     1
 76
     1
 77
     1
 78
     8
 79
     2
140
3.5
141
0.0
143
0.0393701
144
2.0
146
0.71
147
1.5
172
     1
173
     1
176
   256
177
   256
178
     2
271
     2
272
     3
274
     4
283
     0
284
     8
340
11
343
64
371
    -1
372
    -1
  0
ENDTAB
  0
TABLE
  2
BLOCK_RECORD
  5
1
330
0
100
AcDbSymbolTable
 70
    20
  0
BLOCK_RECORD
  5
1F
102
{ACAD_XDICTIONARY
360
165
102
}
330
1
100
AcDbSymbolTableRecord
100
AcDbBlockTableRecord
  2
*MODEL_SPACE
340
B415
  0
BLOCK_RECORD
  5
1B
102
{ACAD_XDICTIONARY
360
B403
102
}
330
1
100
AcDbSymbolTableRecord
100
AcDbBlockTableRecord
  2
*PAPER_SPACE
340
B416
  0
BLOCK_RECORD
  5
59
330
1
100
AcDbSymbolTableRecord
100
AcDbBlockTableRecord
  2
_OPEN30
340
0
102
{BLKREFS
331
B4CA
331
B4CB
331
B4D2
331
B4D8
331
B4D9
331
B4E1
331
B4E2
331
B4EA
331
B4EB
331
B4F3
331
B4F4
331
B4FC
331
B4FD
331
B507
331
B508
102
}
  0
BLOCK_RECORD
  5
64
330
1
100
AcDbSymbolTableRecord
100
AcDbBlockTableRecord
  2
GENAXEH
340
0
  0
BLOCK_RECORD
  5
80B7
330
1
100
AcDbSymbolTableRecord
100
AcDbBlockTableRecord
  2
_NONE
340
0
  0
BLOCK_RECORD
  5
AB1E
330
1
100
AcDbSymbolTableRecord
100
AcDbBlockTableRecord
  2
CBF06
340
0
102
{BLKREFS
331
B1C8
102
}
  0
BLOCK_RECORD
  5
B0A8
330
1
100
AcDbSymbolTableRecord
100
AcDbBlockTableRecord
  2
TAPF04N
340
0
102
{BLKREFS
331
B0AD
331
B0AE
331
B0AF
102
}
  0
BLOCK_RECORD
  5
B257
330
1
100
AcDbSymbolTableRecord
100
AcDbBlockTableRecord
  2
*D11
340
0
  0
BLOCK_RECORD
  5
B27C
330
1
100
AcDbSymbolTableRecord
100
AcDbBlockTableRecord
  2
*D12
340
0
  0
BLOCK_RECORD
  5
B2C8
330
1
100
AcDbSymbolTableRecord
100
AcDbBlockTableRecord
  2
*D13
340
0
  0
BLOCK_RECORD
  5
B2D5
330
1
100
AcDbSymbolTableRecord
100
AcDbBlockTableRecord
  2
*D14
340
0
  0
BLOCK_RECORD
  5
B2E2
330
1
100
AcDbSymbolTableRecord
100
AcDbBlockTableRecord
  2
*D15
340
0
  0
BLOCK_RECORD
  5
B2EF
330
1
100
AcDbSymbolTableRecord
100
AcDbBlockTableRecord
  2
*D16
340
0
  0
BLOCK_RECORD
  5
B2FE
330
1
100
AcDbSymbolTableRecord
100
AcDbBlockTableRecord
  2
*D17
340
0
  0
BLOCK_RECORD
  5
B30C
330
1
100
AcDbSymbolTableRecord
100
AcDbBlockTableRecord
  2
*D18
340
0
  0
ENDTAB
  0
ENDSEC
  0
SECTION
  2
BLOCKS
  0
BLOCK
  5
20
330
1F
100
AcDbEntity
  8
0
100
AcDbBlockBegin
  2
*MODEL_SPACE
 70
     0
 10
0.0
 20
0.0
 30
0.0
  3
*MODEL_SPACE
  1

  0
ENDBLK
  5
21
330
1F
100
AcDbEntity
  8
0
100
AcDbBlockEnd
  0
BLOCK
  5
1C
330
1B
100
AcDbEntity
 67
     1
  8
0
100
AcDbBlockBegin
  2
*PAPER_SPACE
 70
     0
 10
0.0
 20
0.0
 30
0.0
  3
*PAPER_SPACE
  1

  0
ENDBLK
  5
1D
330
1B
100
AcDbEntity
 67
     1
  8
0
100
AcDbBlockEnd
  0
BLOCK
  5
5D
330
59
100
AcDbEntity
  8
0
100
AcDbBlockBegin
  2
_OPEN30
 70
     0
 10
0.0
 20
0.0
 30
0.0
  3
_OPEN30
  1

  0
LINE
  5
5A
330
59
100
AcDbEntity
  8
0
 62
     0
100
AcDbLine
 10
-1.0
 20
0.26794919
 30
0.0
 11
0.0
 21
0.0
 31
0.0
  0
LINE
  5
5B
330
59
100
AcDbEntity
  8
0
 62
     0
100
AcDbLine
 10
0.0
 20
0.0
 30
0.0
 11
-1.0
 21
-0.26794919
 31
0.0
  0
LINE
  5
5C
330
59
100
AcDbEntity
  8
0
 62
     0
100
AcDbLine
 10
0.0
 20
0.0
 30
0.0
 11
-1.0
 21
0.0
 31
0.0
  0
ENDBLK
  5
5E
330
59
100
AcDbEntity
  8
0
100
AcDbBlockEnd
  0
BLOCK
  5
66
330
64
100
AcDbEntity
  8
0
100
AcDbBlockBegin
  2
GENAXEH
 70
     0
 10
0.0
 20
0.0
 30
0.0
  3
GENAXEH
  1

  0
LINE
  5
65
330
64
100
AcDbEntity
  8
0
100
AcDbLine
 10
-1.0
 20
0.0
 30
0.0
 11
1.0
 21
0.0
 31
0.0
  0
ENDBLK
  5
67
330
64
100
AcDbEntity
  8
0
100
AcDbBlockEnd
  0
BLOCK
  5
80B8
330
80B7
100
AcDbEntity
  8
0
100
AcDbBlockBegin
  2
_NONE
 70
     0
 10
0.0
 20
0.0
 30
0.0
  3
_NONE
  1

  0
ENDBLK
  5
80B9
330
80B7
100
AcDbEntity
  8
0
100
AcDbBlockEnd
  0
BLOCK
  5
AB27
330
AB1E
100
AcDbEntity
  8
0
100
AcDbBlockBegin
  2
CBF06
 70
     0
 10
0.0
 20
0.0
 30
0.0
  3
CBF06
  1

  0
CIRCLE
  5
AB1F
330
AB1E
100
AcDbEntity
  8
0
  6
Continuous
100
AcDbCircle
 10
0.0000187875812969
 20
0.0000034482758053
 30
0.0
 40
4.307179353944746
  0
CIRCLE
  5
AB20
330
AB1E
100
AcDbEntity
  8
0
  6
Continuous
100
AcDbCircle
 10
0.0000187875812969
 20
0.0000034482758053
 30
0.0
 40
5.0
  0
LINE
  5
AB21
330
AB1E
100
AcDbEntity
  8
0
  6
Continuous
100
AcDbLine
 10
-1.443356212418706
 20
-2.499995386098901
 30
0.0
 11
1.443393787581185
 21
-2.499995386098901
 31
0.0
  0
LINE
  5
AB22
330
AB1E
100
AcDbEntity
  8
0
  6
Continuous
100
AcDbLine
 10
1.4433937875813
 20
2.500002282650598
 30
0.0
 11
-1.443356212418706
 21
2.500002282650598
 31
0.0
  0
LINE
  5
AB23
330
AB1E
100
AcDbEntity
  8
0
  6
Continuous
100
AcDbLine
 10
-2.886731212418651
 20
0.0000034482758053
 30
0.0
 11
-1.443356212418706
 21
-2.499995386098901
 31
0.0
  0
LINE
  5
AB24
330
AB1E
100
AcDbEntity
  8
0
  6
Continuous
100
AcDbLine
 10
-1.443356212418706
 20
2.500002282650598
 30
0.0
 11
-2.886731212418651
 21
0.0000034482758053
 31
0.0
  0
LINE
  5
AB25
330
AB1E
100
AcDbEntity
  8
0
  6
Continuous
100
AcDbLine
 10
1.443393787581185
 20
-2.499995386098901
 30
0.0
 11
2.886768787581303
 21
0.0000034482758053
 31
0.0
  0
LINE
  5
AB26
330
AB1E
100
AcDbEntity
  8
0
  6
Continuous
100
AcDbLine
 10
2.886768787581303
 20
0.0000034482758053
 30
0.0
 11
1.4433937875813
 21
2.500002282650598
 31
0.0
  0
ENDBLK
  5
AB28
330
AB1E
100
AcDbEntity
  8
0
100
AcDbBlockEnd
  0
BLOCK
  5
B0AB
330
B0A8
100
AcDbEntity
  8
0
100
AcDbBlockBegin
  2
TAPF04N
 70
     0
 10
0.0
 20
0.0
 30
0.0
  3
TAPF04N
  1

  0
CIRCLE
  5
B0A9
330
B0A8
100
AcDbEntity
  8
0
 62
     7
100
AcDbCircle
 10
0.0000341022967518
 20
0.0000034482757485
 30
0.0
 40
2.0
  0
CIRCLE
  5
B0AA
330
B0A8
100
AcDbEntity
  8
0
100
AcDbCircle
 10
0.0000341022967518
 20
0.0000034482757485
 30
0.0
 40
1.649999999999999
  0
ENDBLK
  5
B0AC
330
B0A8
100
AcDbEntity
  8
0
100
AcDbBlockEnd
  0
BLOCK
  5
B261
330
B257
100
AcDbEntity
  8
0
100
AcDbBlockBegin
  2
*D11
 70
     1
 10
0.0
 20
0.0
 30
0.0
  3
*D11
  1

  0
LINE
  5
B4C7
330
B257
100
AcDbEntity
  8
AM_5
 62
     3
370
    -2
100
AcDbLine
 10
0.0000000000000074
 20
60.83338678851145
 30
0.0
 11
-14.44963697866727
 21
60.83338678851145
 31
0.0
  0
LINE
  5
B4C8
330
B257
100
AcDbEntity
  8
AM_5
 62
     3
370
    -2
100
AcDbLine
 10
12.69999999999999
 20
85.83338678851148
 30
0.0
 11
-14.44963697866727
 21
85.83338678851148
 31
0.0
  0
LINE
  5
B4C9
330
B257
100
AcDbEntity
  8
AM_5
 62
     3
370
    -2
100
AcDbLine
 10
-13.44963697866727
 20
63.33338678851145
 30
0.0
 11
-13.44963697866727
 21
83.33338678851148
 31
0.0
  0
INSERT
  5
B4CA
330
B257
100
AcDbEntity
  8
AM_5
 62
     3
370
    -2
100
AcDbBlockReference
  2
_OPEN30
 10
-13.44963697866727
 20
60.83338678851145
 30
0.0
 41
2.5
 42
2.5
 43
2.5
 50
270.0
  0
INSERT
  5
B4CB
330
B257
100
AcDbEntity
  8
AM_5
 62
     3
370
    -2
100
AcDbBlockReference
  2
_OPEN30
 10
-13.44963697866727
 20
85.83338678851148
 30
0.0
 41
2.5
 42
2.5
 43
2.5
 50
90.0
  0
MTEXT
  5
B4CC
330
B257
100
AcDbEntity
  8
AM_5
 62
     2
100
AcDbMText
 10
-16.85001099441531
 20
73.33338678851148
 30
0.0
 40
3.799999999999998
 41
0.0
 71
     5
 72
     1
  1
25
 11
0.0000000000000001
 21
1.0
 31
0.0
 73
     1
 44
1.0
1001
ACAD
1000
MTEXTBEGIN
1070
    73
1070
     1
1070
    44
1040
1.0
1070
    74
1070
     0
1000
MTEXTEND
  0
POINT
  5
B4CD
330
B257
100
AcDbEntity
  8
DEFPOINTS
 62
     0
100
AcDbPoint
 10
0.0000000000000074
 20
60.83338678851145
 30
0.0
  0
POINT
  5
B4CE
330
B257
100
AcDbEntity
  8
DEFPOINTS
 62
     0
100
AcDbPoint
 10
12.69999999999999
 20
85.83338678851148
 30
0.0
  0
POINT
  5
B4CF
330
B257
100
AcDbEntity
  8
DEFPOINTS
 62
     0
100
AcDbPoint
 10
-13.44963697866727
 20
85.83338678851148
 30
0.0
  0
ENDBLK
  5
B262
330
B257
100
AcDbEntity
  8
0
100
AcDbBlockEnd
  0
BLOCK
  5
B283
330
B27C
100
AcDbEntity
  8
0
100
AcDbBlockBegin
  2
*D12
 70
     1
 10
0.0
 20
0.0
 30
0.0
  3
*D12
  1

  0
LINE
  5
B4D0
330
B27C
100
AcDbEntity
  8
AM_5
370
    -2
100
AcDbLine
 10
-33.52010489262554
 20
52.44746369543289
 30
0.0
 11
-47.95218079513696
 21
32.45489965780323
 31
0.0
  0
MTEXT
  5
B4D1
330
B27C
100
AcDbEntity
  8
AM_5
 62
     2
100
AcDbMText
 10
-39.425047258706
 20
50.07637205893205
 30
0.0
 40
3.799999999999998
 41
0.0
 71
     5
 72
     1
  1
\U+220575
 11
0.5853040153156919
 21
0.8108139180202375
 31
0.0
 73
     1
 44
1.0
1001
ACAD
1000
MTEXTBEGIN
1070
    73
1070
     1
1070
    44
1040
1.0
1070
    74
1070
     0
1000
MTEXTEND
  0
INSERT
  5
B4D2
330
B27C
100
AcDbEntity
  8
AM_5
370
    -2
100
AcDbBlockReference
  2
_OPEN30
 10
-49.41544083342619
 20
30.42786486275264
 30
0.0
 41
2.5
 42
2.5
 43
2.5
 50
234.1755297969231
  0
POINT
  5
B4D3
330
B27C
100
AcDbEntity
  8
DEFPOINTS
 62
     0
100
AcDbPoint
 10
-49.41544083342619
 20
30.42786486275264
 30
0.0
  0
POINT
  5
B4D4
330
B27C
100
AcDbEntity
  8
DEFPOINTS
 62
     0
100
AcDbPoint
 10
-5.517639684749383
 20
91.2389087142704
 30
0.0
  0
ENDBLK
  5
B284
330
B27C
100
AcDbEntity
  8
0
100
AcDbBlockEnd
  0
BLOCK
  5
B2D2
330
B2C8
100
AcDbEntity
  8
0
100
AcDbBlockBegin
  2
*D13
 70
     1
 10
0.0
 20
0.0
 30
0.0
  3
*D13
  1

  0
LINE
  5
B4D5
330
B2C8
100
AcDbEntity
  8
AM_5
 62
     3
370
    -2
100
AcDbLine
 10
150.0
 20
60.83338678851145
 30
0.0
 11
167.9565282760544
 21
60.83338678851145
 31
0.0
  0
LINE
  5
B4D6
330
B2C8
100
AcDbEntity
  8
AM_5
 62
     3
370
    -2
100
AcDbLine
 10
150.0
 20
85.83338678851147
 30
0.0
 11
167.9565282760545
 21
85.83338678851147
 31
0.0
  0
LINE
  5
B4D7
330
B2C8
100
AcDbEntity
  8
AM_5
 62
     3
370
    -2
100
AcDbLine
 10
166.9565282760544
 20
63.33338678851145
 30
0.0
 11
166.9565282760545
 21
83.33338678851147
 31
0.0
  0
INSERT
  5
B4D8
330
B2C8
100
AcDbEntity
  8
AM_5
 62
     3
370
    -2
100
AcDbBlockReference
  2
_OPEN30
 10
166.9565282760544
 20
60.83338678851145
 30
0.0
 41
2.5
 42
2.5
 43
2.5
 50
270.0
  0
INSERT
  5
B4D9
330
B2C8
100
AcDbEntity
  8
AM_5
 62
     3
370
    -2
100
AcDbBlockReference
  2
_OPEN30
 10
166.9565282760545
 20
85.83338678851147
 30
0.0
 41
2.5
 42
2.5
 43
2.5
 50
90.0
  0
MTEXT
  5
B4DA
330
B2C8
100
AcDbEntity
  8
AM_5
 62
     2
100
AcDbMText
 10
163.5561542603064
 20
73.33338678851148
 30
0.0
 40
3.799999999999998
 41
0.0
 71
     5
 72
     1
  1
25
 11
0.0000000000000001
 21
1.0
 31
0.0
 73
     1
 44
1.0
1001
ACAD
1000
MTEXTBEGIN
1070
    73
1070
     1
1070
    44
1040
1.0
1070
    74
1070
     0
1000
MTEXTEND
  0
POINT
  5
B4DB
330
B2C8
100
AcDbEntity
  8
DEFPOINTS
 62
     0
100
AcDbPoint
 10
150.0
 20
60.83338678851145
 30
0.0
  0
POINT
  5
B4DC
330
B2C8
100
AcDbEntity
  8
DEFPOINTS
 62
     0
100
AcDbPoint
 10
150.0
 20
85.83338678851147
 30
0.0
  0
POINT
  5
B4DD
330
B2C8
100
AcDbEntity
  8
DEFPOINTS
 62
     0
100
AcDbPoint
 10
166.9565282760545
 20
85.83338678851147
 30
0.0
  0
ENDBLK
  5
B2D3
330
B2C8
100
AcDbEntity
  8
0
100
AcDbBlockEnd
  0
BLOCK
  5
B2DF
330
B2D5
100
AcDbEntity
  8
0
100
AcDbBlockBegin
  2
*D14
 70
     1
 10
0.0
 20
0.0
 30
0.0
  3
*D14
  1

  0
LINE
  5
B4DE
330
B2D5
100
AcDbEntity
  8
AM_5
 62
     3
370
    -2
100
AcDbLine
 10
150.0
 20
-3.899988060436828
 30
0.0
 11
167.9565282760545
 21
-3.899988060436833
 31
0.0
  0
LINE
  5
B4DF
330
B2D5
100
AcDbEntity
  8
AM_5
 62
     3
370
    -2
100
AcDbLine
 10
150.0
 20
-28.89998806043683
 30
0.0
 11
167.9565282760545
 21
-28.89998806043683
 31
0.0
  0
LINE
  5
B4E0
330
B2D5
100
AcDbEntity
  8
AM_5
 62
     3
370
    -2
100
AcDbLine
 10
166.9565282760545
 20
-6.399988060436833
 30
0.0
 11
166.9565282760545
 21
-26.39998806043683
 31
0.0
  0
INSERT
  5
B4E1
330
B2D5
100
AcDbEntity
  8
AM_5
 62
     3
370
    -2
100
AcDbBlockReference
  2
_OPEN30
 10
166.9565282760545
 20
-3.899988060436833
 30
0.0
 41
2.5
 42
2.5
 43
2.5
 50
90.0
  0
INSERT
  5
B4E2
330
B2D5
100
AcDbEntity
  8
AM_5
 62
     3
370
    -2
100
AcDbBlockReference
  2
_OPEN30
 10
166.9565282760545
 20
-28.89998806043683
 30
0.0
 41
2.5
 42
2.5
 43
2.5
 50
270.0
  0
MTEXT
  5
B4E3
330
B2D5
100
AcDbEntity
  8
AM_5
 62
     2
100
AcDbMText
 10
163.5561542603064
 20
-16.3999880604368
 30
0.0
 40
3.799999999999998
 41
0.0
 71
     5
 72
     1
  1
25
 11
0.0000000000000001
 21
1.0
 31
0.0
 73
     1
 44
1.0
1001
ACAD
1000
MTEXTBEGIN
1070
    73
1070
     1
1070
    44
1040
1.0
1070
    74
1070
     0
1000
MTEXTEND
  0
POINT
  5
B4E4
330
B2D5
100
AcDbEntity
  8
DEFPOINTS
 62
     0
100
AcDbPoint
 10
150.0
 20
-3.899988060436828
 30
0.0
  0
POINT
  5
B4E5
330
B2D5
100
AcDbEntity
  8
DEFPOINTS
 62
     0
100
AcDbPoint
 10
150.0
 20
-28.89998806043683
 30
0.0
  0
POINT
  5
B4E6
330
B2D5
100
AcDbEntity
  8
DEFPOINTS
 62
     0
100
AcDbPoint
 10
166.9565282760545
 20
-28.89998806043683
 30
0.0
  0
ENDBLK
  5
B2E0
330
B2D5
100
AcDbEntity
  8
0
100
AcDbBlockEnd
  0
BLOCK
  5
B2EC
330
B2E2
100
AcDbEntity
  8
0
100
AcDbBlockBegin
  2
*D15
 70
     1
 10
0.0
 20
0.0
 30
0.0
  3
*D15
  1

  0
LINE
  5
B4E7
330
B2E2
100
AcDbEntity
  8
AM_5
 62
     3
370
    -2
100
AcDbLine
 10
150.0
 20
60.83338678851145
 30
0.0
 11
150.0
 21
19.22906904762274
 31
0.0
  0
LINE
  5
B4E8
330
B2E2
100
AcDbEntity
  8
AM_5
 62
     3
370
    -2
100
AcDbLine
 10
0.0000000000000074
 20
60.83338678851145
 30
0.0
 11
0.0000000000000049
 21
19.22906904762274
 31
0.0
  0
LINE
  5
B4E9
330
B2E2
100
AcDbEntity
  8
AM_5
 62
     3
370
    -2
100
AcDbLine
 10
147.5
 20
20.22906904762274
 30
0.0
 11
2.500000000000004
 21
20.22906904762274
 31
0.0
  0
INSERT
  5
B4EA
330
B2E2
100
AcDbEntity
  8
AM_5
 62
     3
370
    -2
100
AcDbBlockReference
  2
_OPEN30
 10
150.0
 20
20.22906904762274
 30
0.0
 41
2.5
 42
2.5
 43
2.5
  0
INSERT
  5
B4EB
330
B2E2
100
AcDbEntity
  8
AM_5
 62
     3
370
    -2
100
AcDbBlockReference
  2
_OPEN30
 10
0.000000000000005
 20
20.22906904762274
 30
0.0
 41
2.5
 42
2.5
 43
2.5
 50
180.0
  0
MTEXT
  5
B4EC
330
B2E2
100
AcDbEntity
  8
AM_5
 62
     2
100
AcDbMText
 10
75.0
 20
23.62906904762274
 30
0.0
 40
3.799999999999998
 41
0.0
 71
     5
 72
     1
  1
150
 73
     1
 44
1.0
1001
ACAD
1000
MTEXTBEGIN
1070
    73
1070
     1
1070
    44
1040
1.0
1070
    74
1070
     0
1000
MTEXTEND
  0
POINT
  5
B4ED
330
B2E2
100
AcDbEntity
  8
DEFPOINTS
 62
     0
100
AcDbPoint
 10
150.0
 20
60.83338678851145
 30
0.0
  0
POINT
  5
B4EE
330
B2E2
100
AcDbEntity
  8
DEFPOINTS
 62
     0
100
AcDbPoint
 10
0.0000000000000074
 20
60.83338678851145
 30
0.0
  0
POINT
  5
B4EF
330
B2E2
100
AcDbEntity
  8
DEFPOINTS
 62
     0
100
AcDbPoint
 10
0.000000000000005
 20
20.22906904762274
 30
0.0
  0
ENDBLK
  5
B2ED
330
B2E2
100
AcDbEntity
  8
0
100
AcDbBlockEnd
  0
BLOCK
  5
B2F9
330
B2EF
100
AcDbEntity
  8
0
100
AcDbBlockBegin
  2
*D16
 70
     1
 10
0.0
 20
0.0
 30
0.0
  3
*D16
  1

  0
LINE
  5
B4F0
330
B2EF
100
AcDbEntity
  8
AM_5
 62
     3
370
    -2
100
AcDbLine
 10
0.0000000000000074
 20
60.83338678851145
 30
0.0
 11
0.0000000000000058
 21
33.99107175563012
 31
0.0
  0
LINE
  5
B4F1
330
B2EF
100
AcDbEntity
  8
AM_5
 62
     3
370
    -2
100
AcDbLine
 10
41.30000000000001
 20
51.45211729126685
 30
0.0
 11
41.30000000000001
 21
33.99107175563012
 31
0.0
  0
LINE
  5
B4F2
330
B2EF
100
AcDbEntity
  8
AM_5
 62
     3
370
    -2
100
AcDbLine
 10
2.500000000000005
 20
34.99107175563012
 30
0.0
 11
38.80000000000002
 21
34.99107175563012
 31
0.0
  0
INSERT
  5
B4F3
330
B2EF
100
AcDbEntity
  8
AM_5
 62
     3
370
    -2
100
AcDbBlockReference
  2
_OPEN30
 10
0.0000000000000059
 20
34.99107175563012
 30
0.0
 41
2.5
 42
2.5
 43
2.5
 50
180.0
  0
INSERT
  5
B4F4
330
B2EF
100
AcDbEntity
  8
AM_5
 62
     3
370
    -2
100
AcDbBlockReference
  2
_OPEN30
 10
41.30000000000001
 20
34.99107175563012
 30
0.0
 41
2.5
 42
2.5
 43
2.5
  0
MTEXT
  5
B4F5
330
B2EF
100
AcDbEntity
  8
AM_5
 62
     2
100
AcDbMText
 10
20.65000000000001
 20
38.39107175563012
 30
0.0
 40
3.799999999999998
 41
0.0
 71
     5
 72
     1
  1
41.3
 73
     1
 44
1.0
1001
ACAD
1000
MTEXTBEGIN
1070
    73
1070
     1
1070
    44
1040
1.0
1070
    74
1070
     0
1000
MTEXTEND
  0
POINT
  5
B4F6
330
B2EF
100
AcDbEntity
  8
DEFPOINTS
 62
     0
100
AcDbPoint
 10
0.0000000000000074
 20
60.83338678851145
 30
0.0
  0
POINT
  5
B4F7
330
B2EF
100
AcDbEntity
  8
DEFPOINTS
 62
     0
100
AcDbPoint
 10
41.30000000000001
 20
51.45211729126685
 30
0.0
  0
POINT
  5
B4F8
330
B2EF
100
AcDbEntity
  8
DEFPOINTS
 62
     0
100
AcDbPoint
 10
41.30000000000001
 20
34.99107175563012
 30
0.0
  0
ENDBLK
  5
B2FA
330
B2EF
100
AcDbEntity
  8
0
100
AcDbBlockEnd
  0
BLOCK
  5
B308
330
B2FE
100
AcDbEntity
  8
0
100
AcDbBlockBegin
  2
*D17
 70
     1
 10
0.0
 20
0.0
 30
0.0
  3
*D17
  1

  0
LINE
  5
B4F9
330
B2FE
100
AcDbEntity
  8
AM_5
 62
     3
370
    -2
100
AcDbLine
 10
0.2034904812874458
 20
0.0
 30
0.0
 11
-27.56459631918119
 21
0.0000000000000078
 31
0.0
  0
LINE
  5
B4FA
330
B2FE
100
AcDbEntity
  8
AM_5
 62
     3
370
    -2
100
AcDbLine
 10
12.69999999999998
 20
-28.89998806043681
 30
0.0
 11
-27.56459631918119
 21
-28.8999880604368
 31
0.0
  0
LINE
  5
B4FB
330
B2FE
100
AcDbEntity
  8
AM_5
 62
     3
370
    -2
100
AcDbLine
 10
-26.56459631918119
 20
-2.499999999999992
 30
0.0
 11
-26.56459631918119
 21
-26.3999880604368
 31
0.0
  0
INSERT
  5
B4FC
330
B2FE
100
AcDbEntity
  8
AM_5
 62
     3
370
    -2
100
AcDbBlockReference
  2
_OPEN30
 10
-26.56459631918119
 20
0.0000000000000076
 30
0.0
 41
2.5
 42
2.5
 43
2.5
 50
90.0
  0
INSERT
  5
B4FD
330
B2FE
100
AcDbEntity
  8
AM_5
 62
     3
370
    -2
100
AcDbBlockReference
  2
_OPEN30
 10
-26.56459631918119
 20
-28.8999880604368
 30
0.0
 41
2.5
 42
2.5
 43
2.5
 50
270.0
  0
MTEXT
  5
B4FE
330
B2FE
100
AcDbEntity
  8
AM_5
 62
     2
100
AcDbMText
 10
-29.96497033492922
 20
-14.4499940302184
 30
0.0
 40
3.799999999999998
 41
0.0
 71
     5
 72
     1
  1
28.9
 11
0.0000000000000001
 21
1.0
 31
0.0
 73
     1
 44
1.0
1001
ACAD
1000
MTEXTBEGIN
1070
    73
1070
     1
1070
    44
1040
1.0
1070
    74
1070
     0
1000
MTEXTEND
  0
POINT
  5
B4FF
330
B2FE
100
AcDbEntity
  8
DEFPOINTS
 62
     0
100
AcDbPoint
 10
0.2034904812874458
 20
0.0
 30
0.0
  0
POINT
  5
B500
330
B2FE
100
AcDbEntity
  8
DEFPOINTS
 62
     0
100
AcDbPoint
 10
12.69999999999998
 20
-28.89998806043681
 30
0.0
  0
POINT
  5
B501
330
B2FE
100
AcDbEntity
  8
DEFPOINTS
 62
     0
100
AcDbPoint
 10
-26.56459631918119
 20
-28.8999880604368
 30
0.0
  0
ENDBLK
  5
B309
330
B2FE
100
AcDbEntity
  8
0
100
AcDbBlockEnd
  0
BLOCK
  5
B318
330
B30C
100
AcDbEntity
  8
0
100
AcDbBlockBegin
  2
*D18
 70
     1
 10
0.0
 20
0.0
 30
0.0
  3
*D18
  1

  0
LINE
  5
B502
330
B30C
100
AcDbEntity
  8
AM_5
 62
     3
370
    -2
100
AcDbLine
 10
0.1965095187130146
 20
0.0
 30
0.0
 11
-14.95666949171959
 21
0.0000000000000043
 31
0.0
  0
LINE
  5
B503
330
B30C
100
AcDbEntity
  8
AM_5
 62
     3
370
    -2
100
AcDbLine
 10
0.2000000000000166
 20
-3.500006581842356
 30
0.0
 11
-14.95666949171959
 21
-3.500006581842352
 31
0.0
  0
LINE
  5
B504
330
B30C
100
AcDbEntity
  8
AM_5
 62
     3
370
    -2
100
AcDbLine
 10
-13.95666949171959
 20
2.500000000000003
 30
0.0
 11
-13.95666949171959
 21
5.000000000000003
 31
0.0
  0
LINE
  5
B505
330
B30C
100
AcDbEntity
  8
AM_5
 62
     3
370
    -2
100
AcDbLine
 10
-13.95666949171959
 20
-6.000006581842352
 30
0.0
 11
-13.95666949171959
 21
-16.97740773554412
 31
0.0
  0
LINE
  5
B506
330
B30C
100
AcDbEntity
  8
AM_5
 62
     3
370
    -2
100
AcDbLine
 10
-13.95666949171959
 20
0.000000000000004
 30
0.0
 11
-13.95666949171959
 21
-3.500006581842352
 31
0.0
  0
INSERT
  5
B507
330
B30C
100
AcDbEntity
  8
AM_5
 62
     3
370
    -2
100
AcDbBlockReference
  2
_OPEN30
 10
-13.95666949171959
 20
0.000000000000004
 30
0.0
 41
2.5
 42
2.5
 43
2.5
 50
270.0
  0
INSERT
  5
B508
330
B30C
100
AcDbEntity
  8
AM_5
 62
     3
370
    -2
100
AcDbBlockReference
  2
_OPEN30
 10
-13.95666949171959
 20
-3.500006581842352
 30
0.0
 41
2.5
 42
2.5
 43
2.5
 50
90.0
  0
MTEXT
  5
B509
330
B30C
100
AcDbEntity
  8
AM_5
 62
     2
100
AcDbMText
 10
-17.35666949171959
 20
-12.73870715869324
 30
0.0
 40
3.799999999999998
 41
0.0
 71
     5
 72
     1
  1
3.5
 11
0.0000000000000001
 21
1.0
 31
0.0
 73
     1
 44
1.0
1001
ACAD
1000
MTEXTBEGIN
1070
    73
1070
     1
1070
    44
1040
1.0
1070
    74
1070
     0
1000
MTEXTEND
  0
POINT
  5
B50A
330
B30C
100
AcDbEntity
  8
DEFPOINTS
 62
     0
100
AcDbPoint
 10
0.1965095187130146
 20
0.0
 30
0.0
  0
POINT
  5
B50B
330
B30C
100
AcDbEntity
  8
DEFPOINTS
 62
     0
100
AcDbPoint
 10
0.2000000000000166
 20
-3.500006581842356
 30
0.0
  0
POINT
  5
B50C
330
B30C
100
AcDbEntity
  8
DEFPOINTS
 62
     0
100
AcDbPoint
 10
-13.95666949171959
 20
-3.500006581842352
 30
0.0
  0
ENDBLK
  5
B319
330
B30C
100
AcDbEntity
  8
0
100
AcDbBlockEnd
  0
ENDSEC
  0
SECTION
  2
ENTITIES
  0
TEXT
  5
83BD
330
1F
100
AcDbEntity
  8
AM_6
100
AcDbText
 10
28.66621053072159
 20
-44.29627615708727
 30
0.0
 40
5.0
  1
GMFR2525-35-75
 72
     4
 11
54.14032218307328
 21
-41.79627615708727
 31
0.0
100
AcDbText
  0
LINE
  5
B082
330
1F
100
AcDbEntity
  8
AM_0
100
AcDbLine
 10
150.0
 20
-28.89998806043683
 30
0.0
 11
12.69999999999998
 21
-28.89998806043681
 31
0.0
  0
LINE
  5
B083
330
1F
100
AcDbEntity
  8
AM_0
100
AcDbLine
 10
150.0
 20
-3.899988060436828
 30
0.0
 11
41.29999999999998
 21
-3.899988060436815
 31
0.0
  0
LINE
  5
B084
330
1F
100
AcDbEntity
  8
AM_0
100
AcDbLine
 10
150.0
 20
-28.89998806043683
 30
0.0
 11
150.0
 21
-3.899988060436828
 31
0.0
  0
LINE
  5
B085
330
1F
100
AcDbEntity
  8
AM_0
100
AcDbLine
 10
12.69999999999998
 20
-28.89998806043681
 30
0.0
 11
12.69999999999998
 21
-5.999988060436821
 31
0.0
  0
LINE
  5
B087
330
1F
100
AcDbEntity
  8
AM_0
100
AcDbLine
 10
41.29999999999998
 20
-7.999988060436809
 30
0.0
 11
35.29999999999998
 21
-7.999988060436808
 31
0.0
  0
LINE
  5
B088
330
1F
100
AcDbEntity
  8
AM_0
100
AcDbLine
 10
41.29999999999998
 20
-7.999988060436809
 30
0.0
 11
41.30000000000001
 21
-3.899988060436815
 31
0.0
  0
LINE
  5
B08A
330
1F
100
AcDbEntity
  8
AM_0
100
AcDbLine
 10
32.95000000000001
 20
-27.43998806043681
 30
0.0
 11
12.69999999999998
 21
-27.43998806043681
 31
0.0
  0
LINE
  5
B08F
330
1F
100
AcDbEntity
  8
AM_7
100
AcDbLine
 10
32.9097991502158
 20
-14.69998806043681
 30
0.0
 11
18.29027392209764
 21
-14.69998806043681
 31
0.0
  0
LINE
  5
B090
330
1F
100
AcDbEntity
  8
AM_7
100
AcDbLine
 10
25.59999999999999
 20
-21.60331089010534
 30
0.0
 11
25.59999999999999
 21
-7.999988060436807
 31
0.0
  0
LINE
  5
B091
330
1F
100
AcDbEntity
  8
AM_0
100
AcDbLine
 10
150.0
 20
85.83338678851147
 30
0.0
 11
12.69999999999999
 21
85.83338678851148
 31
0.0
  0
LINE
  5
B092
330
1F
100
AcDbEntity
  8
AM_0
100
AcDbLine
 10
150.0
 20
60.83338678851145
 30
0.0
 11
41.30000000000001
 21
60.83338678851147
 31
0.0
  0
LINE
  5
B093
330
1F
100
AcDbEntity
  8
AM_0
100
AcDbLine
 10
150.0
 20
60.83338678851145
 30
0.0
 11
150.0
 21
85.83338678851147
 31
0.0
  0
LINE
  5
B095
330
1F
100
AcDbEntity
  8
AM_7
100
AcDbLine
 10
25.6
 20
41.1323381366009
 30
0.0
 11
25.6
 21
70.31285897554429
 31
0.0
  0
LINE
  5
B096
330
1F
100
AcDbEntity
  8
AM_0
100
AcDbLine
 10
41.30000000000001
 20
85.83338678851148
 30
0.0
 11
41.30000000000001
 21
60.83338678851147
 31
0.0
  0
LINE
  5
B098
330
1F
100
AcDbEntity
  8
AM_0
100
AcDbLine
 10
46.0
 20
74.15338678851148
 30
0.0
 11
46.0
 21
76.09338678851148
 31
0.0
  0
LINE
  5
B099
330
1F
100
AcDbEntity
  8
AM_0
100
AcDbLine
 10
43.0
 20
79.09338678851148
 30
0.0
 11
41.30000000000001
 21
79.09338678851148
 31
0.0
  0
LINE
  5
B09A
330
1F
100
AcDbEntity
  8
AM_0
100
AcDbLine
 10
43.0
 20
71.15338678851149
 30
0.0
 11
41.30000000000001
 21
71.15338678851149
 31
0.0
  0
ARC
  5
B09B
330
1F
100
AcDbEntity
  8
AM_0
100
AcDbCircle
 10
43.0
 20
74.15338678851148
 30
0.0
 40
3.0
100
AcDbArc
 50
270.0
 51
0.0
  0
ARC
  5
B09C
330
1F
100
AcDbEntity
  8
AM_0
100
AcDbCircle
 10
43.0
 20
76.09338678851148
 30
0.0
 40
3.0
100
AcDbArc
 50
0.0
 51
90.0
  0
LINE
  5
B0A2
330
1F
100
AcDbEntity
  8
AM_7
100
AcDbLine
 10
32.30000000000002
 20
80.17784115896144
 30
0.0
 11
32.30000000000002
 21
71.15338678851149
 31
0.0
  0
LINE
  5
B0A3
330
1F
100
AcDbEntity
  8
AM_7
100
AcDbLine
 10
17.69999999999999
 20
80.29174863705502
 30
0.0
 11
17.69999999999999
 21
71.15338678851149
 31
0.0
  0
LINE
  5
B0A4
330
1F
100
AcDbEntity
  8
AM_7
100
AcDbLine
 10
37.61967663641054
 20
75.13338678851148
 30
0.0
 11
12.69999999999999
 21
75.13338678851148
 31
0.0
  0
LINE
  5
B0A5
330
1F
100
AcDbEntity
  8
AM_7
100
AcDbLine
 10
37.09999999999999
 20
71.15338678851149
 30
0.0
 11
37.09999999999999
 21
62.63613516920409
 31
0.0
  0
LINE
  5
B0A6
330
1F
100
AcDbEntity
  8
AM_7
100
AcDbLine
 10
41.29999999999998
 20
66.83338678851149
 30
0.0
 11
32.8312828588189
 21
66.83338678851149
 31
0.0
  0
INSERT
  5
B0AD
330
1F
100
AcDbEntity
  8
AM_1
100
AcDbBlockReference
  2
TAPF04N
 10
32.30000000000002
 20
75.13338678851148
 30
0.0
 50
180.0
  0
INSERT
  5
B0AE
330
1F
100
AcDbEntity
  8
AM_1
100
AcDbBlockReference
  2
TAPF04N
 10
17.69999999999999
 20
75.13338678851148
 30
0.0
 50
180.0
  0
INSERT
  5
B0AF
330
1F
100
AcDbEntity
  8
AM_1
100
AcDbBlockReference
  2
TAPF04N
 10
37.06564142940943
 20
66.83338678851149
 30
0.0
 50
180.0
  0
LINE
  5
B0B0
330
1F
100
AcDbEntity
  8
AM_0
100
AcDbLine
 10
-65.36654025908773
 20
60.83338678851148
 30
0.0
 11
-90.36654025908772
 21
60.83338678851148
 31
0.0
  0
LINE
  5
B0B1
330
1F
100
AcDbEntity
  8
AM_0
100
AcDbLine
 10
-65.36654025908773
 20
60.83338678851148
 30
0.0
 11
-65.36654025908773
 21
65.07338678851148
 31
0.0
  0
LINE
  5
B0B2
330
1F
100
AcDbEntity
  8
AM_0
100
AcDbLine
 10
-65.36654025908773
 20
85.8333867885115
 30
0.0
 11
-90.36654025908772
 21
85.8333867885115
 31
0.0
  0
LINE
  5
B0B3
330
1F
100
AcDbEntity
  8
AM_0
100
AcDbLine
 10
-90.36654025908772
 20
60.83338678851148
 30
0.0
 11
-90.36654025908772
 21
85.8333867885115
 31
0.0
  0
LINE
  5
B0B5
330
1F
100
AcDbEntity
  8
AM_0
100
AcDbLine
 10
-69.46654025908774
 20
60.83338678851148
 30
0.0
 11
-69.46654025908774
 21
65.63338678851152
 31
0.0
  0
LINE
  5
B0B6
330
1F
100
AcDbEntity
  8
AM_0
100
AcDbLine
 10
-67.46654025908774
 20
65.07338678851148
 30
0.0
 11
-67.46654025908774
 21
71.15338678851149
 31
0.0
  0
LINE
  5
B0B7
330
1F
100
AcDbEntity
  8
AM_0
100
AcDbLine
 10
-71.06654025908771
 20
71.15338678851149
 30
0.0
 11
-71.06654025908771
 21
79.09338678851149
 31
0.0
  0
LINE
  5
B0B8
330
1F
100
AcDbEntity
  8
AM_0
100
AcDbLine
 10
-67.46654025908774
 20
71.15338678851149
 30
0.0
 11
-71.06654025908771
 21
71.15338678851149
 31
0.0
  0
LINE
  5
B0B9
330
1F
100
AcDbEntity
  8
AM_0
100
AcDbLine
 10
-67.46654025908774
 20
79.09338678851149
 30
0.0
 11
-71.06654025908771
 21
79.09338678851149
 31
0.0
  0
LINE
  5
B0BB
330
1F
100
AcDbEntity
  8
AM_0
100
AcDbLine
 10
-67.46654025908774
 20
65.63338678851152
 30
0.0
 11
-69.46654025908774
 21
65.63338678851152
 31
0.0
  0
LINE
  5
B0BC
330
1F
100
AcDbEntity
  8
AM_0
100
AcDbLine
 10
-67.46654025908774
 20
79.09338678851149
 30
0.0
 11
-67.46654025908774
 21
85.8333867885115
 31
0.0
  0
LINE
  5
B0BE
102
{ACAD_REACTORS
330
B1AF
330
B1CF
102
}
330
1F
100
AcDbEntity
  8
AM_0
100
AcDbLine
 10
0.2034904812874458
 20
0.0
 30
0.0
 11
4.5
 21
-0.074995852613825
 31
0.0
  0
LINE
  5
B0BF
102
{ACAD_REACTORS
330
B1AF
330
B1CF
102
}
330
1F
100
AcDbEntity
  8
AM_0
100
AcDbLine
 10
-0.0000000000000004
 20
-3.300006581842352
 30
0.0
 11
0.0
 21
-0.1999695390312865
 31
0.0
  0
LINE
  5
B0C2
102
{ACAD_REACTORS
330
B1AF
330
B1CF
102
}
330
1F
100
AcDbEntity
  8
AM_0
100
AcDbLine
 10
4.5
 20
-3.424980268259844
 30
0.0
 11
4.5
 21
-0.074995852613825
 31
0.0
  0
LINE
  5
B0C3
102
{ACAD_REACTORS
330
B1AF
330
B1CF
102
}
330
1F
100
AcDbEntity
  8
AM_0
100
AcDbLine
 10
4.5
 20
-3.424980268259844
 30
0.0
 11
0.2034904812874739
 21
-3.49997612087364
 31
0.0
  0
ARC
  5
B0C5
102
{ACAD_REACTORS
330
B1AF
330
B1CF
102
}
330
1F
100
AcDbEntity
  8
AM_0
100
AcDbCircle
 10
0.2000000000000166
 20
-3.300006581842352
 30
0.0
 40
0.2
100
AcDbArc
 50
180.0
 51
270.9999999999999
  0
ARC
  5
B0C6
102
{ACAD_REACTORS
330
B1AF
330
B1CF
102
}
330
1F
100
AcDbEntity
  8
AM_0
100
AcDbCircle
 10
0.1999999999999886
 20
-0.1999695390312865
 30
0.0
 40
0.2
100
AcDbArc
 50
89.0
 51
180.0000000000002
  0
LINE
  5
B188
102
{ACAD_REACTORS
330
B1AF
330
B1CF
102
}
330
1F
100
AcDbEntity
  8
AM_0
100
AcDbLine
 10
24.68650951871254
 20
0.8000185214055163
 30
0.0
 11
20.38999999999998
 21
0.7250226687916925
 31
0.0
  0
ARC
  5
B18D
102
{ACAD_REACTORS
330
B1AF
330
B1CF
102
}
330
1F
100
AcDbEntity
  8
AM_0
100
AcDbCircle
 10
24.68999999999999
 20
0.6000489823742298
 30
0.0
 40
0.2
100
AcDbArc
 50
359.9999999999997
 51
90.99999999999992
  0
LINE
  5
B18F
102
{ACAD_REACTORS
330
B1AF
330
B1CF
102
}
330
1F
100
AcDbEntity
  8
AM_0
100
AcDbLine
 10
10.31
 20
0.2750119395631701
 30
0.0
 11
20.38999999999998
 21
0.2750119395631689
 31
0.0
  0
LINE
  5
B192
102
{ACAD_REACTORS
330
B1AF
330
B1CF
102
}
330
1F
100
AcDbEntity
  8
AM_0
100
AcDbLine
 10
10.31
 20
0.2750119395631701
 30
0.0
 11
10.31
 21
0.2250041473861857
 31
0.0
  0
LINE
  5
B194
102
{ACAD_REACTORS
330
B1AF
330
B1CF
102
}
330
1F
100
AcDbEntity
  8
AM_0
100
AcDbLine
 10
10.00999999999999
 20
-0.0749958526138256
 30
0.0
 11
4.5
 21
-0.074995852613825
 31
0.0
  0
ARC
  5
B198
102
{ACAD_REACTORS
330
B1AF
330
B1CF
102
}
330
1F
100
AcDbEntity
  8
AM_0
100
AcDbCircle
 10
10.00999999999999
 20
0.2250041473861573
 30
0.0
 40
0.3
100
AcDbArc
 50
269.9999999999973
 51
0.0000000000054357
  0
LINE
  5
B199
102
{ACAD_REACTORS
330
B1B0
102
}
330
1F
100
AcDbEntity
  8
AM_0
100
AcDbLine
 10
24.88999999999994
 20
60.83338678851148
 30
0.0
 11
23.90076058898356
 21
68.89009525203428
 31
0.0
  0
LINE
  5
B19B
102
{ACAD_REACTORS
330
B1B0
102
}
330
1F
100
AcDbEntity
  8
AM_0
100
AcDbLine
 10
20.38999999999999
 20
61.62685820169958
 30
0.0
 11
24.88999999999995
 21
60.83338678851148
 31
0.0
  0
LINE
  5
B19C
102
{ACAD_REACTORS
330
B1B0
102
}
330
1F
100
AcDbEntity
  8
AM_0
100
AcDbLine
 10
20.38999999999999
 20
61.62685820169958
 30
0.0
 11
20.38999999999999
 21
65.07338678851147
 31
0.0
  0
LINE
  5
B19D
102
{ACAD_REACTORS
330
B1B0
102
}
330
1F
100
AcDbEntity
  8
AM_0
100
AcDbLine
 10
24.13871436193592
 20
66.95211729126686
 30
0.0
 11
22.25000000000001
 21
66.95211729126686
 31
0.0
  0
LINE
  5
B1A1
102
{ACAD_REACTORS
330
B1B0
102
}
330
1F
100
AcDbEntity
  8
AM_0
100
AcDbLine
 10
4.500000000000007
 20
61.62685820169958
 30
0.0
 11
0.0000000000000074
 21
60.83338678851148
 31
0.0
  0
LINE
  5
B1A2
102
{ACAD_REACTORS
330
B1B0
102
}
330
1F
100
AcDbEntity
  8
AM_0
100
AcDbLine
 10
0.0000000000000074
 20
60.83338678851145
 30
0.0
 11
0.7512856380640271
 21
66.95211729126686
 31
0.0
  0
LINE
  5
B1A3
102
{ACAD_REACTORS
330
B1B0
102
}
330
1F
100
AcDbEntity
  8
AM_0
100
AcDbLine
 10
4.500000000000007
 20
61.62685820169958
 30
0.0
 11
4.500000000000007
 21
61.69211729126686
 31
0.0
  0
LINE
  5
B1A4
102
{ACAD_REACTORS
330
B1B0
102
}
330
1F
100
AcDbEntity
  8
AM_0
100
AcDbLine
 10
19.62999999999997
 20
62.45211729126686
 30
0.0
 11
5.259999999999998
 21
62.45211729126686
 31
0.0
  0
ARC
  5
B1A5
102
{ACAD_REACTORS
330
B1B0
102
}
330
1F
100
AcDbEntity
  8
AM_0
100
AcDbCircle
 10
19.62999999999997
 20
61.69211729126686
 30
0.0
 40
0.76
100
AcDbArc
 50
0.0
 51
90.0
  0
ARC
  5
B1A6
102
{ACAD_REACTORS
330
B1B0
102
}
330
1F
100
AcDbEntity
  8
AM_0
100
AcDbCircle
 10
5.259999999999998
 20
61.69211729126686
 30
0.0
 40
0.76
100
AcDbArc
 50
90.0
 51
180.0
  0
LINE
  5
B1A7
102
{ACAD_REACTORS
330
B1B0
102
}
330
1F
100
AcDbEntity
  8
AM_0
100
AcDbLine
 10
10.30999999999997
 20
62.45211729126686
 30
0.0
 11
10.30999999999997
 21
64.34595479710947
 31
0.0
  0
LINE
  5
B1A8
102
{ACAD_REACTORS
330
B1B0
102
}
330
1F
100
AcDbEntity
  8
AM_0
100
AcDbLine
 10
10.30999999999998
 20
65.95211729126686
 30
0.0
 11
0.6285010771611241
 21
65.95211729126686
 31
0.0
  0
LINE
  5
B1A9
102
{ACAD_REACTORS
330
B1B0
102
}
330
1F
100
AcDbEntity
  8
AM_0
100
AcDbLine
 10
24.13871436193592
 20
65.70211729126686
 30
0.0
 11
22.25000000000001
 21
65.70211729126686
 31
0.0
  0
LINE
  5
B1B3
330
1F
100
AcDbEntity
  8
AM_0
100
AcDbLine
 10
38.09999999999999
 20
-7.999988060436781
 30
0.0
 11
38.09999999999999
 21
-5.999988060436808
 31
0.0
  0
LINE
  5
B1B4
330
1F
100
AcDbEntity
  8
AM_0
100
AcDbLine
 10
41.30000000000001
 20
-5.999988060436809
 30
0.0
 11
35.29999999999998
 21
-5.999988060436808
 31
0.0
  0
LINE
  5
B1B9
330
1F
100
AcDbEntity
  8
AM_0
100
AcDbLine
 10
13.29999999999998
 20
-27.43998806043681
 30
0.0
 11
13.29999999999998
 21
-2.779988060436822
 31
0.0
  0
LINE
  5
B1BA
330
1F
100
AcDbEntity
  8
AM_0
100
AcDbLine
 10
35.29999999999998
 20
-27.43998806043681
 30
0.0
 11
13.29999999999998
 21
-27.43998806043681
 31
0.0
  0
LINE
  5
B1BB
330
1F
100
AcDbEntity
  8
AM_0
100
AcDbLine
 10
35.29999999999998
 20
-27.43998806043681
 30
0.0
 11
35.29999999999998
 21
-5.839988060436813
 31
0.0
  0
LINE
  5
B1BC
330
1F
100
AcDbEntity
  8
AM_0
100
AcDbLine
 10
35.29999999999998
 20
-5.839988060436813
 30
0.0
 11
41.09999999999998
 21
-5.839988060436814
 31
0.0
  0
LINE
  5
B1BD
330
1F
100
AcDbEntity
  8
AM_0
100
AcDbLine
 10
41.09999999999998
 20
-5.839988060436814
 30
0.0
 11
41.09999999999998
 21
-0.3399880604368286
 31
0.0
  0
LINE
  5
B1BE
330
1F
100
AcDbEntity
  8
AM_0
100
AcDbLine
 10
41.09999999999998
 20
-0.3399880604368286
 30
0.0
 11
6.120000000000003
 21
-0.3399880604368243
 31
0.0
  0
LINE
  5
B1BF
330
1F
100
AcDbEntity
  8
AM_0
100
AcDbLine
 10
6.120000000000003
 20
-2.779988060436821
 30
0.0
 11
6.120000000000003
 21
-0.3399880604368243
 31
0.0
  0
LINE
  5
B1C2
330
1F
100
AcDbEntity
  8
AM_0
100
AcDbLine
 10
18.75999999999999
 20
-9.881729879954692
 30
0.0
 11
18.75999999999999
 21
-0.3399880604368258
 31
0.0
  0
LINE
  5
B1C3
330
1F
100
AcDbEntity
  8
AM_0
100
AcDbLine
 10
13.29999999999998
 20
-5.999988060436805
 30
0.0
 11
11.21
 21
-5.999988060436805
 31
0.0
  0
LINE
  5
B1C6
330
1F
100
AcDbEntity
  8
AM_0
100
AcDbLine
 10
13.29999999999998
 20
-7.999988060436805
 30
0.0
 11
12.69999999999998
 21
-7.999988060436805
 31
0.0
  0
CIRCLE
  5
B1C7
330
1F
100
AcDbEntity
  8
AM_0
100
AcDbCircle
 10
25.59999999999996
 20
-14.69998806043681
 30
0.0
 40
5.5
  0
INSERT
  5
B1C8
330
1F
100
AcDbEntity
  8
AM_0
100
AcDbBlockReference
  2
CBF06
 10
25.57579586670604
 20
-14.69998806043681
 30
0.0
  0
LINE
  5
B1C9
330
1F
100
AcDbEntity
  8
AM_0
100
AcDbLine
 10
18.75999999999999
 20
-9.881729879954692
 30
0.0
 11
13.29999999999998
 21
-9.881729879954692
 31
0.0
  0
LINE
  5
B1CA
330
1F
100
AcDbEntity
  8
AM_0
100
AcDbLine
 10
18.75999999999999
 20
-9.881729879954692
 30
0.0
 11
13.29999999999998
 21
-15.34172987995479
 31
0.0
  0
LINE
  5
B1CC
102
{ACAD_REACTORS
330
B1CF
102
}
330
1F
100
AcDbEntity
  8
AM_0
100
AcDbLine
 10
24.88999999999998
 20
-0.2099880604368026
 30
0.0
 11
24.88999999999998
 21
0.6000489823742298
 31
0.0
  0
LINE
  5
B1CD
102
{ACAD_REACTORS
330
B1CF
102
}
330
1F
100
AcDbEntity
  8
AM_0
100
AcDbLine
 10
20.38999999999998
 20
-0.2099880604368021
 30
0.0
 11
20.38999999999998
 21
0.7250226687916925
 31
0.0
  0
LINE
  5
B1CE
102
{ACAD_REACTORS
330
B1CF
102
}
330
1F
100
AcDbEntity
  8
AM_0
100
AcDbLine
 10
13.29999999999998
 20
-2.97498806043683
 30
0.0
 11
4.5
 21
-2.974988060436828
 31
0.0
  0
LINE
  5
B1D1
330
1F
100
AcDbEntity
  8
AM_0
100
AcDbLine
 10
41.30000000000001
 20
5.890011939563182
 30
0.0
 11
11.21
 21
5.890011939563185
 31
0.0
  0
LINE
  5
B1D2
330
1F
100
AcDbEntity
  8
AM_0
100
AcDbLine
 10
41.30000000000001
 20
5.890011939563182
 30
0.0
 11
41.30000000000001
 21
-5.999988060436809
 31
0.0
  0
LINE
  5
B1D3
330
1F
100
AcDbEntity
  8
AM_0
100
AcDbLine
 10
11.21
 20
5.890011939563185
 30
0.0
 11
11.21
 21
0.27501193956317
 31
0.0
  0
LINE
  5
B1D4
330
1F
100
AcDbEntity
  8
AM_0
100
AcDbLine
 10
11.21
 20
-3.039988060436798
 30
0.0
 11
11.21
 21
-5.999988060436805
 31
0.0
  0
LINE
  5
B1D6
330
1F
100
AcDbEntity
  8
AM_0
100
AcDbLine
 10
13.29999999999998
 20
-24.33998806043682
 30
0.0
 11
12.69999999999998
 21
-24.33998806043682
 31
0.0
  0
LINE
  5
B1F2
330
1F
100
AcDbEntity
  8
AM_0
100
AcDbLine
 10
41.29999999999998
 20
69.78338678851149
 30
0.0
 11
22.25000000000001
 21
69.78338678851149
 31
0.0
  0
LINE
  5
B1F4
330
1F
100
AcDbEntity
  8
AM_0
100
AcDbLine
 10
24.69107817991893
 20
69.78338678851149
 30
0.0
 11
23.90076058898356
 21
68.89009525203428
 31
0.0
  0
LINE
  5
B1F7
330
1F
100
AcDbEntity
  8
AM_0
100
AcDbLine
 10
41.30000000000001
 20
85.53338678851146
 30
0.0
 11
11.21000000000001
 21
85.53338678851146
 31
0.0
  0
LINE
  5
B1F8
330
1F
100
AcDbEntity
  8
AM_0
100
AcDbLine
 10
11.21000000000001
 20
85.53338678851146
 30
0.0
 11
11.21000000000001
 21
65.07338678851147
 31
0.0
  0
LINE
  5
B1F9
330
1F
100
AcDbEntity
  8
AM_0
100
AcDbLine
 10
0.8900000000000245
 20
80.58018146511662
 30
0.0
 11
0.8900000000000227
 21
66.05347115677374
 31
0.0
  0
LINE
  5
B1FA
330
1F
100
AcDbEntity
  8
AM_0
100
AcDbLine
 10
22.25000000000001
 20
65.07338678851147
 30
0.0
 11
11.21000000000001
 21
65.07338678851147
 31
0.0
  0
LINE
  5
B1FB
330
1F
100
AcDbEntity
  8
AM_0
100
AcDbLine
 10
22.25000000000001
 20
69.78338678851149
 30
0.0
 11
22.25000000000001
 21
65.07338678851147
 31
0.0
  0
LINE
  5
B1FD
330
1F
100
AcDbEntity
  8
AM_0
100
AcDbLine
 10
12.69999999999999
 20
85.53338678851146
 30
0.0
 11
12.69999999999999
 21
85.83338678851148
 31
0.0
  0
LINE
  5
B201
330
1F
100
AcDbEntity
  8
AM_0
100
AcDbLine
 10
17.29
 20
62.45211729126686
 30
0.0
 11
7.759999999999998
 21
62.45211729126686
 31
0.0
  0
LINE
  5
B205
330
1F
100
AcDbEntity
  8
AM_0
100
AcDbLine
 10
0.8900000000000229
 20
66.95211729126686
 30
0.0
 11
0.7512856380640271
 21
66.95211729126686
 31
0.0
  0
LINE
  5
B206
330
1F
100
AcDbEntity
  8
AM_0
100
AcDbLine
 10
0.8900000000000227
 20
65.95211729126686
 30
0.0
 11
0.7512856380640269
 21
65.95211729126686
 31
0.0
  0
LINE
  5
B207
330
1F
100
AcDbEntity
  8
AM_0
100
AcDbLine
 10
10.30999999999997
 20
63.64338678851147
 30
0.0
 11
10.30999999999998
 21
65.95211729126686
 31
0.0
  0
LINE
  5
B208
330
1F
100
AcDbEntity
  8
AM_7
100
AcDbLine
 10
-62.81654025908771
 20
59.92770419093973
 30
0.0
 11
-62.81654025908771
 21
68.1638244943861
 31
0.0
  0
LINE
  5
B209
102
{ACAD_REACTORS
330
B21A
102
}
330
1F
100
AcDbEntity
  8
AM_0
100
AcDbLine
 10
-62.43654025908774
 20
66.95338678851148
 30
0.0
 11
-63.19654025908771
 21
66.95338678851148
 31
0.0
  0
LINE
  5
B20A
102
{ACAD_REACTORS
330
B21A
102
}
330
1F
100
AcDbEntity
  8
AM_0
100
AcDbLine
 10
-61.75136748477289
 20
66.26821401419661
 30
0.0
 11
-62.43654025908774
 21
66.95338678851148
 31
0.0
  0
LINE
  5
B20B
102
{ACAD_REACTORS
330
B21A
102
}
330
1F
100
AcDbEntity
  8
AM_0
100
AcDbLine
 10
-64.44154025908772
 20
65.70838678851147
 30
0.0
 11
-63.19654025908771
 21
66.95338678851148
 31
0.0
  0
LINE
  5
B20E
102
{ACAD_REACTORS
330
B21A
102
}
330
1F
100
AcDbEntity
  8
AM_0
100
AcDbLine
 10
-64.96654025908774
 20
60.83338678851146
 30
0.0
 11
-61.46654025908771
 21
60.83338678851146
 31
0.0
  0
LINE
  5
B210
102
{ACAD_REACTORS
330
B21A
102
}
330
1F
100
AcDbEntity
  8
AM_0
100
AcDbLine
 10
-61.46654025908771
 20
60.83338678851148
 30
0.0
 11
-61.75136748477289
 21
66.26821401419661
 31
0.0
  0
LINE
  5
B211
102
{ACAD_REACTORS
330
B21A
102
}
330
1F
100
AcDbEntity
  8
AM_0
100
AcDbLine
 10
-64.96654025908774
 20
60.83338678851146
 30
0.0
 11
-64.35766720906777
 21
65.79225983853142
 31
0.0
  0
LINE
  5
B216
102
{ACAD_REACTORS
330
B21A
102
}
330
1F
100
AcDbEntity
  8
AM_0
100
AcDbLine
 10
-64.44154025908772
 20
65.70838678851147
 30
0.0
 11
-64.44154025908772
 21
65.10916866319814
 31
0.0
  0
LINE
  5
B21E
330
1F
100
AcDbEntity
  8
AM_0
100
AcDbLine
 10
-69.56654025908772
 20
71.15338678851149
 30
0.0
 11
-69.56654025908772
 21
79.09338678851149
 31
0.0
  0
LINE
  5
B224
330
1F
100
AcDbEntity
  8
AM_0
100
AcDbLine
 10
-58.75654025908771
 20
85.4933867885115
 30
0.0
 11
-67.46654025908774
 21
85.4933867885115
 31
0.0
  0
LINE
  5
B228
330
1F
100
AcDbEntity
  8
AM_0
100
AcDbLine
 10
41.09999999999999
 20
51.45211729126685
 30
0.0
 11
41.09999999999999
 21
62.28338678851148
 31
0.0
  0
LINE
  5
B229
330
1F
100
AcDbEntity
  8
AM_0
100
AcDbLine
 10
17.11999999999998
 20
51.45211729126685
 30
0.0
 11
6.120000000000011
 21
62.45211729126686
 31
0.0
  0
LINE
  5
B22C
330
1F
100
AcDbEntity
  8
AM_0
100
AcDbLine
 10
41.09999999999999
 20
51.45211729126685
 30
0.0
 11
13.29999999999999
 21
51.45211729126685
 31
0.0
  0
LINE
  5
B22D
330
1F
100
AcDbEntity
  8
AM_0
100
AcDbLine
 10
13.29999999999999
 20
51.45211729126685
 30
0.0
 11
13.29999999999995
 21
55.27211729126688
 31
0.0
  0
LINE
  5
B22E
330
1F
100
AcDbEntity
  8
AM_0
100
AcDbLine
 10
14.75
 20
60.05338678851149
 30
0.0
 11
14.75
 21
62.45211729126686
 31
0.0
  0
LINE
  5
B230
330
1F
100
AcDbEntity
  8
AM_0
100
AcDbLine
 10
37.90000000000001
 20
60.05338678851149
 30
0.0
 11
14.75
 21
60.05338678851149
 31
0.0
  0
LINE
  5
B235
330
1F
100
AcDbEntity
  8
AM_0
100
AcDbLine
 10
37.90000000000001
 20
60.05338678851149
 30
0.0
 11
37.90000000000001
 21
62.28338678851148
 31
0.0
  0
LINE
  5
B236
330
1F
100
AcDbEntity
  8
AM_0
 48
0.3
100
AcDbLine
 10
30.6
 20
47.55211729126686
 30
0.0
 11
29.90717967697246
 21
47.15211729126685
 31
0.0
  0
LINE
  5
B237
330
1F
100
AcDbEntity
  8
AM_0
 48
0.3
100
AcDbLine
 10
30.6
 20
47.55211729126686
 30
0.0
 11
25.6
 21
47.55211729126687
 31
0.0
  0
LINE
  5
B238
330
1F
100
AcDbEntity
  8
AM_0
 48
0.3
100
AcDbLine
 10
30.6
 20
47.55211729126686
 30
0.0
 11
30.6
 21
51.45211729126685
 31
0.0
  0
LINE
  5
B239
330
1F
100
AcDbEntity
  8
AM_0
 48
0.3
100
AcDbLine
 10
25.6
 20
47.55211729126687
 30
0.0
 11
20.6
 21
47.55211729126687
 31
0.0
  0
LINE
  5
B23A
330
1F
100
AcDbEntity
  8
AM_0
 48
0.3
100
AcDbLine
 10
29.90717967697246
 20
47.15211729126685
 30
0.0
 11
21.29282032302755
 21
47.15211729126686
 31
0.0
  0
LINE
  5
B23B
330
1F
100
AcDbEntity
  8
AM_0
 48
0.3
100
AcDbLine
 10
20.6
 20
47.55211729126688
 30
0.0
 11
20.6
 21
51.45211729126685
 31
0.0
  0
LINE
  5
B23C
330
1F
100
AcDbEntity
  8
AM_0
 48
0.3
100
AcDbLine
 10
20.6
 20
47.55211729126687
 30
0.0
 11
21.29282032302755
 21
47.15211729126686
 31
0.0
  0
LINE
  5
B245
330
1F
100
AcDbEntity
  8
AM_0
100
AcDbLine
 10
-60.5565402590878
 20
65.07338678851148
 30
0.0
 11
-62.81654025908771
 21
67.33338678851144
 31
0.0
  0
LINE
  5
B246
330
1F
100
AcDbEntity
  8
AM_0
100
AcDbLine
 10
-65.07654025908769
 20
65.07338678851148
 30
0.0
 11
-62.81654025908771
 21
67.33338678851147
 31
0.0
  0
LINE
  5
B247
330
1F
100
AcDbEntity
  8
AM_0
100
AcDbLine
 10
0.8900000000000227
 20
66.05347115677374
 30
0.0
 11
11.21000000000001
 21
66.05347115677374
 31
0.0
  0
LINE
  5
B248
330
1F
100
AcDbEntity
  8
AM_0
100
AcDbLine
 10
0.8900000000000227
 20
66.39185566054378
 30
0.0
 11
11.21000000000001
 21
66.39185566054378
 31
0.0
  0
LINE
  5
B249
330
1F
100
AcDbEntity
  8
AM_0
100
AcDbLine
 10
0.8900000000000245
 20
80.58018146511662
 30
0.0
 11
11.21000000000001
 21
80.58018146511662
 31
0.0
  0
LINE
  5
B24A
330
1F
100
AcDbEntity
  8
AM_0
100
AcDbLine
 10
0.8900000000000243
 20
78.63678033298686
 30
0.0
 11
11.21000000000001
 21
78.63678033298686
 31
0.0
  0
LINE
  5
B24D
330
1F
100
AcDbEntity
  8
AM_0
100
AcDbLine
 10
13.29999999999998
 20
-2.779988060436822
 30
0.0
 11
6.120000000000003
 21
-2.779988060436821
 31
0.0
  0
LINE
  5
B253
330
1F
100
AcDbEntity
  8
AM_0
100
AcDbLine
 10
41.29999999999998
 20
62.28338678851148
 30
0.0
 11
24.71196238669072
 21
62.28338678851149
 31
0.0
  0
DIMENSION
  5
B256
330
1F
100
AcDbEntity
  8
AM_5
100
AcDbDimension
  2
*D11
 10
-13.44963697866727
 20
85.83338678851148
 30
0.0
 11
-16.85001099441531
 21
73.33338678851148
 31
0.0
 70
    32
 71
     5
 42
25.00000000000003
  3
AM_JIS$0
100
AcDbAlignedDimension
 13
0.0000000000000074
 23
60.83338678851145
 33
0.0
 14
12.69999999999999
 24
85.83338678851148
 34
0.0
 50
270.0
100
AcDbRotatedDimension
  0
LINE
  5
B26C
330
1F
100
AcDbEntity
  8
AM_7
100
AcDbLine
 10
-24.49911915967185
 20
60.83338678851148
 30
0.0
 11
-62.81654025908771
 21
60.83338678851148
 31
0.0
  0
LINE
  5
B270
330
1F
100
AcDbEntity
  8
AM_0
100
AcDbLine
 10
-58.75654025908771
 20
65.07338678851148
 30
0.0
 11
-61.68874924324783
 21
65.07338678851148
 31
0.0
  0
LINE
  5
B271
330
1F
100
AcDbEntity
  8
AM_0
100
AcDbLine
 10
-58.75654025908771
 20
65.07338678851148
 30
0.0
 11
-58.75654025908771
 21
85.4933867885115
 31
0.0
  0
LINE
  5
B272
330
1F
100
AcDbEntity
  8
AM_0
100
AcDbLine
 10
-65.36654025908773
 20
85.4933867885115
 30
0.0
 11
-65.36654025908773
 21
85.8333867885115
 31
0.0
  0
ARC
  5
B276
330
1F
100
AcDbEntity
  8
AM_0
100
AcDbCircle
 10
-27.46654025908772
 20
60.83338678851148
 30
0.0
 40
37.0
100
AcDbArc
 50
147.7444013591844
 51
171.8894594632842
  0
ARC
  5
B277
330
1F
100
AcDbEntity
  8
AM_0
100
AcDbCircle
 10
-14.44963697866727
 20
60.83338678851145
 30
0.0
 40
47.75
100
AcDbArc
 50
158.1087589160848
 51
173.315172865916
  0
LINE
  5
B279
330
1F
100
AcDbEntity
  8
AM_0
100
AcDbLine
 10
-64.44154025908772
 20
65.07338678851148
 30
0.0
 11
-67.46654025908774
 21
65.07338678851148
 31
0.0
  0
ARC
  5
B27A
330
1F
100
AcDbEntity
  8
AM_11
 48
0.5
100
AcDbCircle
 10
-27.46654025908772
 20
60.83338678851148
 30
0.0
 40
37.5
100
AcDbArc
 50
83.40098118681133
 51
279.2525349899525
  0
DIMENSION
  5
B27B
330
1F
100
AcDbEntity
  8
AM_5
100
AcDbDimension
  2
*D12
 10
-5.517639684749383
 20
91.2389087142704
 30
0.0
 11
-36.6682799374372
 21
48.0863384068587
 31
0.0
 70
   163
  1
<>
 71
     5
 42
74.99999999999992
  3
AM_JIS$3
100
AcDbDiametricDimension
 15
-49.41544083342619
 25
30.42786486275264
 35
0.0
 40
0.0
1001
ACAD
1000
DSTYLE
1002
{
1070
   172
1070
     1
1070
   282
1070
     0
1070
   281
1070
     1
1070
     7
1000
OPEN30
1070
     5
1000

1070
   173
1070
     1
1070
     6
1000
NONE
1002
}
  0
LINE
  5
B2C6
330
1F
100
AcDbEntity
  8
AM_7
100
AcDbLine
 10
-27.46654025908776
 20
20.62299699281129
 30
0.0
 11
-27.46654025908771
 21
103.4621207709173
 31
0.0
  0
DIMENSION
  5
B2C7
330
1F
100
AcDbEntity
  8
AM_5
100
AcDbDimension
  2
*D13
 10
166.9565282760545
 20
85.83338678851147
 30
0.0
 11
163.5561542603064
 21
73.33338678851148
 31
0.0
 70
    32
 71
     5
 42
25.00000000000002
  3
AM_JIS$0
100
AcDbAlignedDimension
 13
150.0
 23
60.83338678851145
 33
0.0
 14
150.0
 24
85.83338678851147
 34
0.0
 50
270.0
100
AcDbRotatedDimension
  0
DIMENSION
  5
B2D4
330
1F
100
AcDbEntity
  8
AM_5
100
AcDbDimension
  2
*D14
 10
166.9565282760545
 20
-28.89998806043683
 30
0.0
 11
163.5561542603064
 21
-16.3999880604368
 31
0.0
 70
    32
 71
     5
 42
25.0
  3
AM_JIS$0
100
AcDbAlignedDimension
 13
150.0
 23
-3.899988060436828
 33
0.0
 14
150.0
 24
-28.89998806043683
 34
0.0
 50
270.0
100
AcDbRotatedDimension
  0
DIMENSION
  5
B2E1
330
1F
100
AcDbEntity
  8
AM_5
100
AcDbDimension
  2
*D15
 10
0.000000000000005
 20
20.22906904762274
 30
0.0
 11
75.0
 21
23.62906904762274
 31
0.0
 70
    32
 71
     5
 42
150.0
  3
AM_JIS$0
100
AcDbAlignedDimension
 13
150.0
 23
60.83338678851145
 33
0.0
 14
0.0000000000000074
 24
60.83338678851145
 34
0.0
 50
180.0
100
AcDbRotatedDimension
  0
DIMENSION
  5
B2EE
330
1F
100
AcDbEntity
  8
AM_5
100
AcDbDimension
  2
*D16
 10
41.30000000000001
 20
34.99107175563012
 30
0.0
 11
20.65000000000001
 21
38.39107175563012
 31
0.0
 70
    32
 71
     5
 42
41.30000000000001
  3
AM_JIS$0
100
AcDbAlignedDimension
 13
0.0000000000000074
 23
60.83338678851145
 33
0.0
 14
41.30000000000001
 24
51.45211729126685
 34
0.0
 50
180.0
100
AcDbRotatedDimension
  0
LINE
  5
B2FB
330
1F
100
AcDbEntity
  8
AM_1
100
AcDbLine
 10
150.0
 20
-3.899988060436828
 30
0.0
 11
150.0
 21
60.83338678851145
 31
0.0
  0
LINE
  5
B2FC
330
1F
100
AcDbEntity
  8
AM_1
100
AcDbLine
 10
0.0000000000000074
 20
60.83338678851145
 30
0.0
 11
0.0
 21
-0.1999695390312865
 31
0.0
  0
DIMENSION
  5
B2FD
330
1F
100
AcDbEntity
  8
AM_5
100
AcDbDimension
  2
*D17
 10
-26.56459631918119
 20
-28.8999880604368
 30
0.0
 11
-29.96497033492922
 21
-14.4499940302184
 31
0.0
 70
    32
 71
     5
 42
28.8999880604368
  3
AM_JIS$0
100
AcDbAlignedDimension
 13
0.2034904812874458
 23
0.0
 33
0.0
 14
12.69999999999998
 24
-28.89998806043681
 34
0.0
 50
270.0
100
AcDbRotatedDimension
  0
DIMENSION
  5
B30B
330
1F
100
AcDbEntity
  8
AM_5
100
AcDbDimension
  2
*D18
 10
-13.95666949171959
 20
-3.500006581842352
 30
0.0
 11
-17.35666949171959
 21
-12.73870715869324
 31
0.0
 70
    32
 71
     5
 42
3.500006581842356
  3
AM_JIS$0
100
AcDbAlignedDimension
 13
0.1965095187130146
 23
0.0
 33
0.0
 14
0.2000000000000166
 24
-3.500006581842356
 34
0.0
 50
270.0
100
AcDbRotatedDimension
  0
LINE
  5
B393
330
1F
100
AcDbEntity
  8
AM_0
100
AcDbLine
 10
11.21000000000001
 20
65.60239215190924
 30
0.0
 11
10.30999999999998
 21
65.60239215190924
 31
0.0
  0
LINE
  5
B3AC
330
1F
100
AcDbEntity
  8
AM_0
100
AcDbLine
 10
-88.90654025908773
 20
60.83338678851148
 30
0.0
 11
-88.90654025908775
 21
51.45211729126686
 31
0.0
  0
LINE
  5
B3AD
330
1F
100
AcDbEntity
  8
AM_0
100
AcDbLine
 10
-61.80654025908774
 20
51.45211729126685
 30
0.0
 11
-88.90654025908775
 21
51.45211729126686
 31
0.0
  0
LINE
  5
B3AE
330
1F
100
AcDbEntity
  8
AM_0
100
AcDbLine
 10
-64.24654025908774
 20
55.27211729126689
 30
0.0
 11
-69.70654025908776
 21
55.27211729126689
 31
0.0
  0
LINE
  5
B3AF
330
1F
100
AcDbEntity
  8
AM_0
100
AcDbLine
 10
-73.52654025908776
 20
51.45211729126685
 30
0.0
 11
-69.70654025908776
 21
55.27211729126689
 31
0.0
  0
LINE
  5
B3B0
330
1F
100
AcDbEntity
  8
AM_0
100
AcDbLine
 10
-69.70654025908776
 20
51.45211729126685
 30
0.0
 11
-69.70654025908776
 21
55.27211729126689
 31
0.0
  0
LINE
  5
B3B1
330
1F
100
AcDbEntity
  8
AM_0
100
AcDbLine
 10
-61.80654025908774
 20
60.83338678851148
 30
0.0
 11
-61.80654025908774
 21
51.45211729126685
 31
0.0
  0
LINE
  5
B3B2
330
1F
100
AcDbEntity
  8
AM_0
100
AcDbLine
 10
-64.24654025908772
 20
60.83338678851148
 30
0.0
 11
-64.24654025908774
 21
55.27211729126689
 31
0.0
  0
LINE
  5
B3B3
330
1F
100
AcDbEntity
  8
AM_0
100
AcDbLine
 10
-64.24654025908772
 20
60.0333867885115
 30
0.0
 11
-85.80654025908776
 21
60.0333867885115
 31
0.0
  0
LINE
  5
B3B4
330
1F
100
AcDbEntity
  8
AM_0
100
AcDbLine
 10
-85.80654025908776
 20
60.83338678851148
 30
0.0
 11
-85.80654025908776
 21
60.0333867885115
 31
0.0
  0
ENDSEC
  0
SECTION
  2
OBJECTS
  0
DICTIONARY
  5
C
330
0
100
AcDbDictionary
281
     1
  3
ACAD_COLOR
350
B412
  3
ACAD_GROUP
350
D
  3
ACAD_LAYOUT
350
1A
  3
ACAD_MATERIAL
350
B411
  3
ACAD_MLINESTYLE
350
17
  3
ACAD_PLOTSETTINGS
350
19
  3
ACAD_PLOTSTYLENAME
350
E
  3
ACAD_TABLESTYLE
350
B413
  3
ACDBHEADERROUNDTRIPXREC
350
B512
  3
ACDBVARIABLEDICTIONARY
350
30
  3
ACMDICTIONARY
350
4D
  3
AMG
350
3F
  3
AMGSNAPSETTINGS
350
73
  3
DWGPROPS
350
B511
  3
ENG_DATA
350
21C6
  3
FILENAME
350
21C9
  3
HOLD_DIC_DATA
350
21C4
  3
TABLE_DIC_DATA
350
1C0B
  3
ZWKSIZE
350
21CB
  0
DICTIONARY
  5
165
330
1F
100
AcDbDictionary
280
     1
281
     1
  3
ACAD_INDEX
360
B3D2
  3
ACAD_LAYOUTSELFREF
360
B405
  0
DICTIONARY
  5
B403
330
1B
100
AcDbDictionary
280
     1
281
     1
  3
ACAD_LAYOUTSELFREF
360
B404
  0
DICTIONARY
  5
B412
102
{ACAD_REACTORS
330
C
102
}
330
C
100
AcDbDictionary
281
     1
  0
DICTIONARY
  5
D
102
{ACAD_REACTORS
330
C
102
}
330
C
100
AcDbDictionary
281
     1
  3
*A1
350
7C0D
  3
*A2
350
7C0E
  3
*A3
350
7FE3
  3
*A4
350
8E0E
  3
*A5
350
B1AF
  3
*A6
350
B1B0
  3
*A7
350
B1CF
  3
*A8
350
B21A
  0
DICTIONARY
  5
1A
102
{ACAD_REACTORS
330
C
102
}
330
C
100
AcDbDictionary
281
     1
  3
Model
350
B415
  3
レイアウト1
350
B416
  0
DICTIONARY
  5
B411
102
{ACAD_REACTORS
330
C
102
}
330
C
100
AcDbDictionary
281
     1
  0
DICTIONARY
  5
17
102
{ACAD_REACTORS
330
C
102
}
330
C
100
AcDbDictionary
281
     1
  3
STANDARD
350
18
  0
DICTIONARY
  5
19
102
{ACAD_REACTORS
330
C
102
}
330
C
100
AcDbDictionary
281
     1
  0
ACDBDICTIONARYWDFLT
  5
E
102
{ACAD_REACTORS
330
C
102
}
330
C
100
AcDbDictionary
281
     1
  3
Normal
350
F
100
AcDbDictionaryWithDefault
340
F
  0
DICTIONARY
  5
B413
102
{ACAD_REACTORS
330
C
102
}
330
C
100
AcDbDictionary
281
     1
  3
Standard
350
B414
  0
DICTIONARY
  5
B512
102
{ACAD_REACTORS
330
C
102
}
330
C
100
AcDbDictionary
281
     1
  0
DICTIONARY
  5
30
102
{ACAD_REACTORS
330
C
102
}
330
C
100
AcDbDictionary
281
     1
  3
CTABLESTYLE
350
B50D
  3
DIMASSOC
350
B50E
  3
INDEXCTL
350
31
  3
PROJECTNAME
350
B50F
  3
SORTENTS
350
42BE
  0
DICTIONARY
  5
4D
102
{ACAD_REACTORS
330
C
102
}
330
C
100
AcDbDictionary
281
     1
  3
ACMSTDDICTIONARY
350
17E
  3
AMDTSECTSYM_ARROWCOLOR
350
B48E
  0
DICTIONARY
  5
3F
102
{ACAD_REACTORS
330
C
102
}
330
C
100
AcDbDictionary
281
     1
  0
DICTIONARY
  5
73
102
{ACAD_REACTORS
330
C
102
}
330
C
100
AcDbDictionary
281
     1
  0
XRECORD
  5
B511
102
{ACAD_REACTORS
330
C
102
}
330
C
100
AcDbXrecord
280
     1
  1
DWGPROPS COOKIE
  2

  3

  4

  6

  7

  8

  9

300
AmdtFileType=82
301
=
302
=
303
=
304
=
305
=
306
=
307
=
308
=
309
=
 40
1.521444456018518
 41
2451943.610431666
 42
2455603.353634977
  1

 90
        1
  0
DICTIONARY
  5
21C6
102
{ACAD_REACTORS
330
C
102
}
330
C
100
AcDbDictionary
281
     1
  3
ENG_ID
350
21C7
  0
DICTIONARY
  5
21C9
102
{ACAD_REACTORS
330
C
102
}
330
C
100
AcDbDictionary
281
     1
  3
FILENAME
350
21CA
  0
DICTIONARY
  5
21C4
102
{ACAD_REACTORS
330
C
102
}
330
C
100
AcDbDictionary
281
     1
  3
HOLD_DATA
350
21C5
  0
DICTIONARY
  5
1C0B
102
{ACAD_REACTORS
330
C
102
}
330
C
100
AcDbDictionary
281
     1
  3
INPUT_DATA
350
1C0D
  3
TABLE_DATA
350
1C0C
  0
DICTIONARY
  5
21CB
102
{ACAD_REACTORS
330
C
102
}
330
C
100
AcDbDictionary
281
     1
  3
ZWKSIZE
350
21CC
  0
DICTIONARY
  5
B3D2
102
{ACAD_REACTORS
330
165
102
}
330
165
100
AcDbDictionary
281
     1
  3
*A1
350
B3D3
  0
XRECORD
  5
B405
102
{ACAD_REACTORS
330
165
102
}
330
165
100
AcDbXrecord
280
     1
340
1F
  0
XRECORD
  5
B404
102
{ACAD_REACTORS
330
B403
102
}
330
B403
100
AcDbXrecord
280
     1
340
1B
  0
GROUP
  5
7C0D
102
{ACAD_REACTORS
330
D
102
}
330
D
100
AcDbGroup
300

 70
     1
 71
     1
  0
GROUP
  5
7C0E
102
{ACAD_REACTORS
330
D
102
}
330
D
100
AcDbGroup
300

 70
     1
 71
     1
  0
GROUP
  5
7FE3
102
{ACAD_REACTORS
330
D
102
}
330
D
100
AcDbGroup
300

 70
     1
 71
     1
  0
GROUP
  5
8E0E
102
{ACAD_REACTORS
330
D
102
}
330
D
100
AcDbGroup
300

 70
     1
 71
     1
  0
GROUP
  5
B1AF
102
{ACAD_REACTORS
330
D
102
}
330
D
100
AcDbGroup
300

 70
     1
 71
     1
340
B0BE
340
B0C3
340
B188
340
B18D
340
B18F
340
B194
340
B192
340
B198
340
B0C2
340
B0C5
340
B0BF
340
B0C6
  0
GROUP
  5
B1B0
102
{ACAD_REACTORS
330
D
102
}
330
D
100
AcDbGroup
300

 70
     1
 71
     1
340
B1A8
340
B19D
340
B1A1
340
B1A9
340
B19B
340
B199
340
B1A4
340
B19C
340
B1A5
340
B1A7
340
B1A3
340
B1A6
340
B1A2
  0
GROUP
  5
B1CF
102
{ACAD_REACTORS
330
D
102
}
330
D
100
AcDbGroup
300

 70
     1
 71
     1
340
B18F
340
B188
340
B1CC
340
B18D
340
B1CD
340
B194
340
B198
340
B192
340
B0BE
340
B0C6
340
B0BF
340
B0C2
340
B0C3
340
B0C5
340
B1CE
  0
GROUP
  5
B21A
102
{ACAD_REACTORS
330
D
102
}
330
D
100
AcDbGroup
300

 70
     1
 71
     1
340
B211
340
B20E
340
B210
340
B20A
340
B216
340
B20B
340
B209
  0
LAYOUT
  5
B415
102
{ACAD_XDICTIONARY
360
B513
102
}
102
{ACAD_REACTORS
330
1A
102
}
330
1A
100
AcDbPlotSettings
  1

  2
SII LP-1010 (C2 VR)2R
  4

  6

 40
0.0
 41
0.0
 42
0.0
 43
0.0
 44
0.0
 45
0.0
 46
0.0
 47
0.0
 48
0.0
 49
0.0
140
0.0
141
0.0
142
1.0
143
1.0
 70
  1712
 72
     0
 73
     0
 74
     0
  7
sei_cad.ctb
 75
     0
147
1.0
148
0.0
149
0.0
100
AcDbLayout
  1
Model
 70
     1
 71
     0
 10
0.0
 20
0.0
 11
12.0
 21
9.0
 12
0.0
 22
0.0
 32
0.0
 14
0.0
 24
0.0
 34
0.0
 15
0.0
 25
0.0
 35
0.0
146
0.0
 13
0.0
 23
0.0
 33
0.0
 16
1.0
 26
0.0
 36
0.0
 17
0.0
 27
1.0
 37
0.0
 76
     0
330
1F
  0
LAYOUT
  5
B416
102
{ACAD_XDICTIONARY
360
B515
102
}
102
{ACAD_REACTORS
330
1A
102
}
330
1A
100
AcDbPlotSettings
  1

  2
SII LP-1010 (C2 VR)2R
  4

  6

 40
0.0
 41
0.0
 42
0.0
 43
0.0
 44
0.0
 45
0.0
 46
0.0
 47
0.0
 48
0.0
 49
0.0
140
0.0
141
0.0
142
1.0
143
1.0
 70
   688
 72
     0
 73
     0
 74
     5
  7
sei_cad.ctb
 75
    16
147
1.0
148
0.0
149
0.0
100
AcDbLayout
  1
レイアウト1
 70
     1
 71
     1
 10
0.0
 20
0.0
 11
420.0
 21
297.0
 12
0.0
 22
0.0
 32
0.0
 14
1.000000000000000E+20
 24
1.000000000000000E+20
 34
1.000000000000000E+20
 15
-1.000000000000000E+20
 25
-1.000000000000000E+20
 35
-1.000000000000000E+20
146
0.0
 13
0.0
 23
0.0
 33
0.0
 16
1.0
 26
0.0
 36
0.0
 17
0.0
 27
1.0
 37
0.0
 76
     0
330
1B
  0
MLINESTYLE
  5
18
102
{ACAD_REACTORS
330
17
102
}
330
17
100
AcDbMlineStyle
  2
STANDARD
 70
     0
  3

 62
   256
 51
90.0
 52
90.0
 71
     2
 49
0.5
 62
   256
  6
BYLAYER
 49
-0.5
 62
   256
  6
BYLAYER
  0
ACDBPLACEHOLDER
  5
F
102
{ACAD_REACTORS
330
E
102
}
330
E
  0
TABLESTYLE
  5
B414
102
{ACAD_REACTORS
330
B413
102
}
330
B413
100
AcDbTableStyle
  3
Standard
 70
     0
 71
     0
 40
1.5
 41
1.5
280
     0
281
     0
  7
STANDARD
140
4.5
170
     2
 62
     0
 63
     7
283
     0
274
    -2
284
     1
 64
     0
275
    -2
285
     1
 65
     0
276
    -2
286
     1
 66
     0
277
    -2
287
     1
 67
     0
278
    -2
288
     1
 68
     0
279
    -2
289
     1
 69
     0
  7
STANDARD
140
6.0
170
     5
 62
     0
 63
     7
283
     0
274
    -2
284
     1
 64
     0
275
    -2
285
     1
 65
     0
276
    -2
286
     1
 66
     0
277
    -2
287
     1
 67
     0
278
    -2
288
     1
 68
     0
279
    -2
289
     1
 69
     0
  7
STANDARD
140
4.5
170
     5
 62
     0
 63
     7
283
     0
274
    -2
284
     1
 64
     0
275
    -2
285
     1
 65
     0
276
    -2
286
     1
 66
     0
277
    -2
287
     1
 67
     0
278
    -2
288
     1
 68
     0
279
    -2
289
     1
 69
     0
  0
DICTIONARYVAR
  5
B50D
102
{ACAD_REACTORS
330
30
102
}
330
30
100
DictionaryVariables
280
     0
  1
STANDARD
  0
DICTIONARYVAR
  5
B50E
102
{ACAD_REACTORS
330
30
102
}
330
30
100
DictionaryVariables
280
     0
  1
1
  0
DICTIONARYVAR
  5
31
102
{ACAD_REACTORS
330
30
102
}
330
30
100
DictionaryVariables
280
     0
  1
1
  0
DICTIONARYVAR
  5
B50F
102
{ACAD_REACTORS
330
30
102
}
330
30
100
DictionaryVariables
280
     0
  1

  0
DICTIONARYVAR
  5
42BE
102
{ACAD_REACTORS
330
30
102
}
330
30
100
DictionaryVariables
280
     0
  1
96
  0
DICTIONARY
  5
17E
102
{ACAD_REACTORS
330
4D
102
}
330
4D
100
AcDbDictionary
281
     1
  0
XRECORD
  5
B48E
102
{ACAD_REACTORS
330
4D
102
}
330
4D
100
AcDbXrecord
280
     1
 90
-1023410169
  0
XRECORD
  5
21C7
102
{ACAD_REACTORS
330
21C6
102
}
330
21C6
100
AcDbXrecord
280
     1
  1
HOLD
  0
XRECORD
  5
21CA
102
{ACAD_REACTORS
330
21C9
102
}
330
21C9
100
AcDbXrecord
280
     1
  1
21000065__00___
  0
XRECORD
  5
21C5
102
{ACAD_REACTORS
330
21C4
102
}
330
21C4
100
AcDbXrecord
280
     1
  1
クランクシャフト加工用 ^M^J１コーナー型 ^M^J15.875 ^M^J20 ^M^Jクランプオン ^M^J９０° ^M^J1 ^M^J鋼 ^M^J ^M^J ^M^J ^M^J ^M^J
  0
XRECORD
  5
1C0D
102
{ACAD_REACTORS
330
1C0B
102
}
330
1C0B
100
AcDbXrecord
280
     1
  1
1,,,,,,,,,^M^J2,,,,,,,,,^M^J3,,,,,,,,,^M^J4,,,,,,,,,^M^J5,,,,,,,,,^M^J6,,,,,,,,,^M^J7,,,,,,,,,^M^J8,,,,,,,,,^M^J9,,,,,,,,,^M^J10,,,,,,,,,
  0
XRECORD
  5
1C0C
102
{ACAD_REACTORS
330
1C0B
102
}
330
1C0B
100
AcDbXrecord
280
     1
  1
10,10
  0
XRECORD
  5
21CC
102
{ACAD_REACTORS
330
21CB
102
}
330
21CB
100
AcDbXrecord
280
     1
  1
3
  0
LAYER_INDEX
  5
B3D3
102
{ACAD_REACTORS
330
B3D2
102
}
330
B3D2
100
AcDbIndex
 40
2455603.353634977
100
AcDbLayerIndex
  8
0
360
B3D4
 90
        0
  8
AM_5
360
B3D5
 90
        8
  8
DEFPOINTS
360
B3D6
 90
        0
  8
AM_0
360
B3D7
 90
      135
  8
AM_6
360
B3D8
 90
        1
  8
AM_1
360
B3D9
 90
        5
  8
AM_7
360
B3DA
 90
       11
  8
AM_11
360
B3DB
 90
        1
  0
DICTIONARY
  5
B513
330
B415
100
AcDbDictionary
280
     1
281
     1
  3
ACAD_XREC_ROUNDTRIP
360
B514
  0
DICTIONARY
  5
B515
330
B416
100
AcDbDictionary
280
     1
281
     1
  3
ACAD_XREC_ROUNDTRIP
360
B516
  0
IDBUFFER
  5
B3D4
330
0
100
AcDbIdBuffer
  0
IDBUFFER
  5
B3D5
330
0
100
AcDbIdBuffer
330
B256
330
B27B
330
B2C7
330
B2D4
330
B2E1
330
B2EE
330
B2FD
330
B30B
  0
IDBUFFER
  5
B3D6
330
0
100
AcDbIdBuffer
  0
IDBUFFER
  5
B3D7
330
0
100
AcDbIdBuffer
330
B082
330
B083
330
B084
330
B085
330
B087
330
B088
330
B08A
330
B091
330
B092
330
B093
330
B096
330
B098
330
B099
330
B09A
330
B09B
330
B09C
330
B0B0
330
B0B1
330
B0B2
330
B0B3
330
B0B5
330
B0B6
330
B0B7
330
B0B8
330
B0B9
330
B0BB
330
B0BC
330
B0BE
330
B0BF
330
B0C2
330
B0C3
330
B0C5
330
B0C6
330
B188
330
B18D
330
B18F
330
B192
330
B194
330
B198
330
B199
330
B19B
330
B19C
330
B19D
330
B1A1
330
B1A2
330
B1A3
330
B1A4
330
B1A5
330
B1A6
330
B1A7
330
B1A8
330
B1A9
330
B1B3
330
B1B4
330
B1B9
330
B1BA
330
B1BB
330
B1BC
330
B1BD
330
B1BE
330
B1BF
330
B1C2
330
B1C3
330
B1C6
330
B1C7
330
B1C8
330
B1C9
330
B1CA
330
B1CC
330
B1CD
330
B1CE
330
B1D1
330
B1D2
330
B1D3
330
B1D4
330
B1D6
330
B1F2
330
B1F4
330
B1F7
330
B1F8
330
B1F9
330
B1FA
330
B1FB
330
B1FD
330
B201
330
B205
330
B206
330
B207
330
B209
330
B20A
330
B20B
330
B20E
330
B210
330
B211
330
B216
330
B21E
330
B224
330
B228
330
B229
330
B22C
330
B22D
330
B22E
330
B230
330
B235
330
B236
330
B237
330
B238
330
B239
330
B23A
330
B23B
330
B23C
330
B245
330
B246
330
B247
330
B248
330
B249
330
B24A
330
B24D
330
B253
330
B270
330
B271
330
B272
330
B276
330
B277
330
B279
330
B393
330
B3AC
330
B3AD
330
B3AE
330
B3AF
330
B3B0
330
B3B1
330
B3B2
330
B3B3
330
B3B4
  0
IDBUFFER
  5
B3D8
330
0
100
AcDbIdBuffer
330
83BD
  0
IDBUFFER
  5
B3D9
330
0
100
AcDbIdBuffer
330
B0AD
330
B0AE
330
B0AF
330
B2FB
330
B2FC
  0
IDBUFFER
  5
B3DA
330
0
100
AcDbIdBuffer
330
B08F
330
B090
330
B095
330
B0A2
330
B0A3
330
B0A4
330
B0A5
330
B0A6
330
B208
330
B26C
330
B2C6
  0
IDBUFFER
  5
B3DB
330
0
100
AcDbIdBuffer
330
B27A
  0
XRECORD
  5
B514
102
{ACAD_REACTORS
330
B513
102
}
330
B513
100
AcDbXrecord
280
     1
102
SHADEPLOT
 70
     0
102
SHADEPLOTRESLEVEL
 70
     2
102
SHADEPLOTCUSTOMDPI
 70
   300
  0
XRECORD
  5
B516
102
{ACAD_REACTORS
330
B515
102
}
330
B515
100
AcDbXrecord
280
     1
102
SHADEPLOT
 70
     0
102
SHADEPLOTRESLEVEL
 70
     2
102
SHADEPLOTCUSTOMDPI
 70
   300
  0
ENDSEC
  0
EOF
