  0
SECTION
  2
HEADER
  9
$ACADVER
  1
AC1015
  9
$ACADMAINTVER
 70
     6
  9
$DWGCODEPAGE
  3
ANSI_932
  9
$INSBASE
 10
0.0
 20
0.0
 30
0.0
  9
$EXTMIN
 10
22.67395119959724
 20
30.92088390621461
 30
-0.0000000000000058
  9
$EXTMAX
 10
298.1835945860757
 20
173.8557592151404
 30
0.0000000000000104
  9
$LIMMIN
 10
0.0
 20
0.0
  9
$LIMMAX
 10
420.0
 20
297.0
  9
$ORTHOMODE
 70
     0
  9
$REGENMODE
 70
     1
  9
$FILLMODE
 70
     1
  9
$QTEXTMODE
 70
     0
  9
$MIRRTEXT
 70
     1
  9
$LTSCALE
 40
1.0
  9
$ATTMODE
 70
     1
  9
$TEXTSIZE
 40
3.8
  9
$TRACEWID
 40
1.0
  9
$TEXTSTYLE
  7
ACISOTS
  9
$CLAYER
  8
AM_0
  9
$CELTYPE
  6
ByLayer
  9
$CECOLOR
 62
   256
  9
$CELTSCALE
 40
1.0
  9
$DISPSILH
 70
     0
  9
$DIMSCALE
 40
1.0
  9
$DIMASZ
 40
2.5
  9
$DIMEXO
 40
1.0
  9
$DIMDLI
 40
10.0
  9
$DIMRND
 40
0.0
  9
$DIMDLE
 40
0.0
  9
$DIMEXE
 40
1.0
  9
$DIMTP
 40
0.1
  9
$DIMTM
 40
0.1000000001
  9
$DIMTXT
 40
3.8
  9
$DIMCEN
 40
0.0
  9
$DIMTSZ
 40
0.0
  9
$DIMTOL
 70
     0
  9
$DIMLIM
 70
     0
  9
$DIMTIH
 70
     0
  9
$DIMTOH
 70
     0
  9
$DIMSE1
 70
     0
  9
$DIMSE2
 70
     0
  9
$DIMTAD
 70
     3
  9
$DIMZIN
 70
     8
  9
$DIMBLK
  1
Open30
  9
$DIMASO
 70
     1
  9
$DIMSHO
 70
     1
  9
$DIMPOST
  1

  9
$DIMAPOST
  1
"
  9
$DIMALT
 70
     0
  9
$DIMALTD
 70
     2
  9
$DIMALTF
 40
0.0393701
  9
$DIMLFAC
 40
1.0
  9
$DIMTOFL
 70
     1
  9
$DIMTVP
 40
0.0
  9
$DIMTIX
 70
     0
  9
$DIMSOXD
 70
     0
  9
$DIMSAH
 70
     0
  9
$DIMBLK1
  1

  9
$DIMBLK2
  1

  9
$DIMSTYLE
  2
AM_JIS
  9
$DIMCLRD
 70
   256
  9
$DIMCLRE
 70
   256
  9
$DIMCLRT
 70
     2
  9
$DIMTFAC
 40
0.71
  9
$DIMGAP
 40
1.5
  9
$DIMJUST
 70
     0
  9
$DIMSD1
 70
     0
  9
$DIMSD2
 70
     0
  9
$DIMTOLJ
 70
     0
  9
$DIMTZIN
 70
     8
  9
$DIMALTZ
 70
     0
  9
$DIMALTTZ
 70
     0
  9
$DIMUPT
 70
     0
  9
$DIMDEC
 70
     2
  9
$DIMTDEC
 70
     2
  9
$DIMALTU
 70
     2
  9
$DIMALTTD
 70
     2
  9
$DIMTXSTY
  7
STANDARD
  9
$DIMAUNIT
 70
     1
  9
$DIMADEC
 70
     0
  9
$DIMALTRND
 40
0.0
  9
$DIMAZIN
 70
     2
  9
$DIMDSEP
 70
    46
  9
$DIMATFIT
 70
     3
  9
$DIMFRAC
 70
     0
  9
$DIMLDRBLK
  1
Open30
  9
$DIMLUNIT
 70
     2
  9
$DIMLWD
 70
    -1
  9
$DIMLWE
 70
    -1
  9
$DIMTMOVE
 70
     0
  9
$LUNITS
 70
     2
  9
$LUPREC
 70
     2
  9
$SKETCHINC
 40
1.0
  9
$FILLETRAD
 40
2.5
  9
$AUNITS
 70
     0
  9
$AUPREC
 70
     0
  9
$MENU
  1
.
  9
$ELEVATION
 40
0.0
  9
$PELEVATION
 40
0.0
  9
$THICKNESS
 40
0.0
  9
$LIMCHECK
 70
     0
  9
$CHAMFERA
 40
2.5
  9
$CHAMFERB
 40
2.5
  9
$CHAMFERC
 40
20.0
  9
$CHAMFERD
 40
0.0
  9
$SKPOLY
 70
     0
  9
$TDCREATE
 40
2454819.71236382
  9
$TDUCREATE
 40
2454819.33736382
  9
$TDUPDATE
 40
2455505.711938831
  9
$TDUUPDATE
 40
2455505.336938831
  9
$TDINDWG
 40
2.5941220139
  9
$TDUSRTIMER
 40
2.593954375
  9
$USRTIMER
 70
     1
  9
$ANGBASE
 50
0.0
  9
$ANGDIR
 70
     0
  9
$PDMODE
 70
     0
  9
$PDSIZE
 40
0.0
  9
$PLINEWID
 40
0.0
  9
$SPLFRAME
 70
     0
  9
$SPLINETYPE
 70
     6
  9
$SPLINESEGS
 70
   232
  9
$HANDSEED
  5
1217C
  9
$SURFTAB1
 70
     6
  9
$SURFTAB2
 70
     6
  9
$SURFTYPE
 70
     6
  9
$SURFU
 70
     6
  9
$SURFV
 70
     6
  9
$UCSBASE
  2

  9
$UCSNAME
  2

  9
$UCSORG
 10
0.0
 20
0.0
 30
0.0
  9
$UCSXDIR
 10
1.0
 20
0.0
 30
0.0
  9
$UCSYDIR
 10
0.0
 20
1.0
 30
0.0
  9
$UCSORTHOREF
  2

  9
$UCSORTHOVIEW
 70
     0
  9
$UCSORGTOP
 10
0.0
 20
0.0
 30
0.0
  9
$UCSORGBOTTOM
 10
0.0
 20
0.0
 30
0.0
  9
$UCSORGLEFT
 10
0.0
 20
0.0
 30
0.0
  9
$UCSORGRIGHT
 10
0.0
 20
0.0
 30
0.0
  9
$UCSORGFRONT
 10
0.0
 20
0.0
 30
0.0
  9
$UCSORGBACK
 10
0.0
 20
0.0
 30
0.0
  9
$PUCSBASE
  2

  9
$PUCSNAME
  2

  9
$PUCSORG
 10
0.0
 20
0.0
 30
0.0
  9
$PUCSXDIR
 10
1.0
 20
0.0
 30
0.0
  9
$PUCSYDIR
 10
0.0
 20
1.0
 30
0.0
  9
$PUCSORTHOREF
  2

  9
$PUCSORTHOVIEW
 70
     0
  9
$PUCSORGTOP
 10
0.0
 20
0.0
 30
0.0
  9
$PUCSORGBOTTOM
 10
0.0
 20
0.0
 30
0.0
  9
$PUCSORGLEFT
 10
0.0
 20
0.0
 30
0.0
  9
$PUCSORGRIGHT
 10
0.0
 20
0.0
 30
0.0
  9
$PUCSORGFRONT
 10
0.0
 20
0.0
 30
0.0
  9
$PUCSORGBACK
 10
0.0
 20
0.0
 30
0.0
  9
$USERI1
 70
     0
  9
$USERI2
 70
     0
  9
$USERI3
 70
     0
  9
$USERI4
 70
     0
  9
$USERI5
 70
     0
  9
$USERR1
 40
0.0
  9
$USERR2
 40
0.0
  9
$USERR3
 40
0.0
  9
$USERR4
 40
0.0
  9
$USERR5
 40
0.0
  9
$WORLDVIEW
 70
     1
  9
$SHADEDGE
 70
     3
  9
$SHADEDIF
 70
    70
  9
$TILEMODE
 70
     1
  9
$MAXACTVP
 70
    64
  9
$PINSBASE
 10
0.0
 20
0.0
 30
0.0
  9
$PLIMCHECK
 70
     0
  9
$PEXTMIN
 10
1.000000000000000E+20
 20
1.000000000000000E+20
 30
1.000000000000000E+20
  9
$PEXTMAX
 10
-1.000000000000000E+20
 20
-1.000000000000000E+20
 30
-1.000000000000000E+20
  9
$PLIMMIN
 10
0.0
 20
0.0
  9
$PLIMMAX
 10
420.0
 20
297.0
  9
$UNITMODE
 70
     0
  9
$VISRETAIN
 70
     1
  9
$PLINEGEN
 70
     0
  9
$PSLTSCALE
 70
     1
  9
$TREEDEPTH
 70
  3020
  9
$CMLSTYLE
  2
Standard
  9
$CMLJUST
 70
     0
  9
$CMLSCALE
 40
20.0
  9
$PROXYGRAPHICS
 70
     1
  9
$MEASUREMENT
 70
     1
  9
$CELWEIGHT
370
    -1
  9
$ENDCAPS
280
     0
  9
$JOINSTYLE
280
     0
  9
$LWDISPLAY
290
     0
  9
$INSUNITS
 70
     4
  9
$HYPERLINKBASE
  1

  9
$STYLESHEET
  1
sei_cad.ctb
  9
$XEDIT
290
     1
  9
$CEPSNTYPE
380
     0
  9
$PSTYLEMODE
290
     1
  9
$FINGERPRINTGUID
  2
{1C6A6FB3-FF5E-4852-A146-9626304D620C}
  9
$VERSIONGUID
  2
{345F97BC-9C13-42AE-BFD1-AC156888B0B1}
  9
$EXTNAMES
290
     1
  9
$PSVPSCALE
 40
0.0
  9
$OLESTARTUP
290
     0
  0
ENDSEC
  0
SECTION
  2
CLASSES
  0
CLASS
  1
ACDBDICTIONARYWDFLT
  2
AcDbDictionaryWithDefault
  3
ObjectDBX Classes
 90
        0
280
     0
281
     0
  0
CLASS
  1
ACDBPLACEHOLDER
  2
AcDbPlaceHolder
  3
ObjectDBX Classes
 90
        0
280
     0
281
     0
  0
CLASS
  1
LAYOUT
  2
AcDbLayout
  3
ObjectDBX Classes
 90
        0
280
     0
281
     0
  0
CLASS
  1
ACME_DOCUMENT
  2
AcMeDbDoc
  3
AcMeServices
 90
        0
280
     1
281
     0
  0
CLASS
  1
AMGSETTINGSOBJ
  2
AmgSettingsObj
  3
"AcadM|Product Description: AutoCAD Mechanical 2000|Company: Autodesk"
 90
        0
280
     1
281
     0
  0
CLASS
  1
ACMESCOPE
  2
AcMeScope
  3
AcMeServices
 90
        0
280
     1
281
     0
  0
CLASS
  1
ACMECOMMANDHISTORY
  2
AcMeCommandHistory
  3
AcMeServices
 90
        0
280
     1
281
     0
  0
CLASS
  1
ACIMSYSVARMAN
  2
AcImSysVarManager
  3
AcMeServices
 90
        0
280
     1
281
     0
  0
CLASS
  1
ACIMREALSYSVAR
  2
AcImRealSysVar
  3
AcMeServices
 90
        0
280
     1
281
     0
  0
CLASS
  1
ACIMINTSYSVAR
  2
AcImIntSysVar
  3
AcMeServices
 90
        0
280
     1
281
     0
  0
CLASS
  1
ACMEDRAWINGMAN
  2
AcMeDrawingMan
  3
AcMeServices
 90
        0
280
     1
281
     0
  0
CLASS
  1
ACMEVIEW
  2
AcMeView
  3
AcMeServices
 90
        0
280
     1
281
     0
  0
CLASS
  1
ACDBENTITYCACHE
  2
AcMeEntityCache
  3
AcMeServices
 90
        0
280
     1
281
     0
  0
CLASS
  1
GSMANAGER
  2
AcMeGSManager
  3
AcMeServices
 90
        0
280
     1
281
     0
  0
CLASS
  1
AMDTINTERNALREACTOR
  2
AmdtInternalReactor
  3
AcMeServices
 90
        0
280
     1
281
     0
  0
CLASS
  1
ACMESTATEMGR
  2
AcMeStateMgr
  3
AcMeServices
 90
        0
280
     1
281
     0
  0
CLASS
  1
ACGREFMASTER
  2
AcGrefMaster
  3
AcAttribServices
 90
        0
280
     1
281
     0
  0
CLASS
  1
ACME_DATABASE
  2
AcMeDbDatabase
  3
AcMeServices
 90
        0
280
     1
281
     0
  0
CLASS
  1
ACRFINSADJUSTERMGR
  2
AcRfInsAdjusterMgr
  3
AcMeServices
 90
        0
280
     1
281
     0
  0
CLASS
  1
ACGREFACADMASTER
  2
AcGrefacadMaster
  3
AcGrefServices
 90
        0
280
     1
281
     0
  0
CLASS
  1
AMIMASTER
  2
AmiMaster
  3
AmiServices
 90
        0
280
     1
281
     0
  0
CLASS
  1
ACMDATADICTIONARY
  2
AcmDataDictionary
  3
"AcmSymBB|Product Description: AutoCAD Mechanical 2004 DX|Company: Autodesk"
 90
        0
280
     1
281
     0
  0
CLASS
  1
ACMDATAENTRYBLOCK
  2
AcmDataEntryBlock
  3
"AcmSymBB|Product Description: AutoCAD Mechanical 2004 DX|Company: Autodesk"
 90
        0
280
     1
281
     0
  0
CLASS
  1
ACIMSTRSYSVAR
  2
AcImStrSysVar
  3
AcMeServices
 90
        0
280
     1
281
     0
  0
CLASS
  1
ACMSTANDARDISO
  2
AcmStandardISO
  3
"Amdt_StdImp|Product Description: AutoCAD Mechanical 2004 DX|Company: Autodesk"
 90
        0
280
     1
281
     0
  0
CLASS
  1
AMGOBJPROPCFG
  2
AmgObjPropCfg
  3
"AmgLay|Product Description: AutoCAD Mechanical 2000|Company: Autodesk"
 90
        1
280
     1
281
     0
  0
CLASS
  1
AMDTEDGESTANDARDISO
  2
AmdtEdgeStdISO
  3
"Amdt_StdImp|Product Description: AutoCAD Mechanical 2004 DX|Company: Autodesk"
 90
        0
280
     1
281
     0
  0
CLASS
  1
ACMSURFSTANDARDISO
  2
AcmSurfTextStdISO
  3
"Amdt_StdImp|Product Description: AutoCAD Mechanical 2004 DX|Company: Autodesk"
 90
        0
280
     1
281
     0
  0
CLASS
  1
ACMFCFSTANDARDISO
  2
AcmFCFStdISO
  3
"Amdt_StdImp|Product Description: AutoCAD Mechanical 2004 DX|Company: Autodesk"
 90
        0
280
     1
281
     0
  0
CLASS
  1
ACMWELDSTANDARDISO
  2
AcmWeldingStdISO
  3
"Amdt_StdImp|Product Description: AutoCAD Mechanical 2004 DX|Company: Autodesk"
 90
        0
280
     1
281
     0
  0
CLASS
  1
ACMIDSTANDARDISO
  2
AcmIdStdISO
  3
"Amdt_StdImp|Product Description: AutoCAD Mechanical 2004 DX|Company: Autodesk"
 90
        0
280
     1
281
     0
  0
CLASS
  1
ACMDATUMSTANDARDISO
  2
AcmDatumStdISO
  3
"Amdt_StdImp|Product Description: AutoCAD Mechanical 2004 DX|Company: Autodesk"
 90
        0
280
     1
281
     0
  0
CLASS
  1
ACMBOMSTANDARDISO
  2
AcmBOMStdISO
  3
"Amdt_StdImp|Product Description: AutoCAD Mechanical 2004 DX|Company: Autodesk"
 90
        0
280
     1
281
     0
  0
CLASS
  1
ACMDETAILSTANDARDISO
  2
AmdtDetailSymStdISO
  3
"Amdt_StdImp|Product Description: AutoCAD Mechanical 2004 DX|Company: Autodesk"
 90
        0
280
     1
281
     0
  0
CLASS
  1
ACMSECTIONSTANDARDISO
  2
AmdtSectionSymStdISO
  3
"Amdt_StdImp|Product Description: AutoCAD Mechanical 2004 DX|Company: Autodesk"
 90
        0
280
     1
281
     0
  0
CLASS
  1
ACMCENTERLINESTANDARDISO
  2
AmdtCenterLineStdISO
  3
"Amdt_StdImp|Product Description: AutoCAD Mechanical 2004 DX|Company: Autodesk"
 90
        0
280
     1
281
     0
  0
CLASS
  1
ACMNOTESTANDARDISO
  2
AmdtNoteStdISO
  3
"Amdt_StdImp|Product Description: AutoCAD Mechanical 2004 DX|Company: Autodesk"
 90
        0
280
     1
281
     0
  0
CLASS
  1
ACAMGLAYSTD
  2
AcAmgLayStd
  3
"AcAmgLayStd|Product Description: AutoCAD Mechanical 2000|Company: Autodesk"
 90
        0
280
     1
281
     0
  0
CLASS
  1
ACAMGDIMSTD
  2
AcAmgDimStd
  3
"AcAmgDimStd|Product Description: AutoCAD Mechanical 2000|Company: Autodesk"
 90
        0
280
     1
281
     0
  0
CLASS
  1
ACAMGHOLECHARTSTDISO
  2
AcAmgHoleChartStdISO
  3
ACMSYMBB_MODULE_NAME
 90
        0
280
     1
281
     0
  0
CLASS
  1
ACAMGTITLESTD
  2
AcAmgTitleStd
  3
"TITLEAPP"
 90
        0
280
     1
281
     0
  0
CLASS
  1
LAYER_INDEX
  2
AcDbLayerIndex
  3
ObjectDBX Classes
 90
        0
280
     0
281
     0
  0
CLASS
  1
IDBUFFER
  2
AcDbIdBuffer
  3
ObjectDBX Classes
 90
        0
280
     0
281
     0
  0
CLASS
  1
DICTIONARYVAR
  2
AcDbDictionaryVar
  3
ObjectDBX Classes
 90
        0
280
     0
281
     0
  0
CLASS
  1
AM_DRAWING_MGR
  2
AcDmDwgMgr
  3
AcMechDwgViewMgmt
 90
        0
280
     1
281
     0
  0
CLASS
  1
AM_DWG_DOCUMENT
  2
AcDmDwgDocument
  3
AcMechDwgViewMgmt
 90
        0
280
     1
281
     0
  0
CLASS
  1
AM_DWG_SHEET
  2
AcDmSheet
  3
AcMechDwgViewMgmt
 90
        0
280
     1
281
     0
  0
CLASS
  1
AM_VIEWDIMPARMAP
  2
AcDmViewDimParMap
  3
AcMechDwgViewMgmt
 90
        0
280
     1
281
     0
  0
CLASS
  1
AM_DWGMGR_NAME
  2
AcDmDwgMgrName
  3
AcMechDwgViewMgmt
 90
        0
280
     1
281
     0
  0
CLASS
  1
AMDTMENUSTATEMGR
  2
AmdtMenuStateMgr
  3
McadcomServices
 90
        0
280
     1
281
     0
  0
CLASS
  1
AMDTMCOMMENUSTATE
  2
AmdtMcomMenuState
  3
McadcomServices
 90
        0
280
     1
281
     0
  0
CLASS
  1
MAPIAMMOUDLE
  2
MApiAmModule
  3
MApiAmServices
 90
        0
280
     1
281
     0
  0
CLASS
  1
AMDTADMENUSTATE
  2
AmdtAdMenuState
  3
DesignerServices
 90
        0
280
     1
281
     0
  0
CLASS
  1
ADAPPL
  2
AcAdAppl
  3
DesignerServices
 90
        0
280
     1
281
     0
  0
CLASS
  1
DEPMGR
  2
AcAdDepMgr
  3
DesignerServices
 90
        0
280
     1
281
     0
  0
CLASS
  1
PARAMMGR
  2
AcAdParamMgr
  3
DesignerServices
 90
        0
280
     1
281
     0
  0
CLASS
  1
PARAMSCOPE
  2
AcAdParamScope
  3
DesignerServices
 90
        0
280
     1
281
     0
  0
CLASS
  1
NAMEDAPPL
  2
AcAdNamedAppl
  3
DesignerServices
 90
        0
280
     1
281
     0
  0
CLASS
  1
AMDTDMMENUSTATE
  2
AmdtDmMenuState
  3
AcMechDwgViewMgmt
 90
        0
280
     1
281
     0
  0
CLASS
  1
AMDTAMMENUSTATE
  2
AmdtAmMenuState
  3
DesignerAssemblies
 90
        0
280
     1
281
     0
  0
CLASS
  1
ACAMPROJECT
  2
AcAmProject
  3
DesignerAssemblies
 90
        0
280
     1
281
     0
  0
CLASS
  1
ACAMGRCOMPDEF
  2
AcAmGrCompDef
  3
DesignerAssemblies
 90
        0
280
     1
281
     0
  0
CLASS
  1
ACCMCONTEXT
  2
AcCmContext
  3
DesignerAssemblies
 90
        0
280
     1
281
     0
  0
CLASS
  1
ACAMCOMPDEF
  2
AcAmCompDef
  3
DesignerAssemblies
 90
        0
280
     1
281
     0
  0
CLASS
  1
ACAMCOMPDEFMGR
  2
AcAmCompDefMgr
  3
DesignerAssemblies
 90
        0
280
     1
281
     0
  0
CLASS
  1
AMCONTEXTMGR
  2
AcAmContextMgr
  3
DesignerAssemblies
 90
        0
280
     1
281
     0
  0
CLASS
  1
ACAMCONTEXTMODELER
  2
AcAmContextModeler
  3
DesignerAssemblies
 90
        0
280
     1
281
     0
  0
CLASS
  1
ACMTHREADLINESTANDARDISO
  2
AmdtThreadLineStdISO
  3
"Amdt_StdImp|Product Description: AutoCAD Mechanical 2004 DX|Company: Autodesk"
 90
        0
280
     1
281
     0
  0
CLASS
  1
CATALOGSTATE
  2
AcAmCatalogState
  3
DesignerAssemblies
 90
        0
280
     1
281
     0
  0
CLASS
  1
ACAMGRCOMPDEFSET
  2
AcAmGrCompDefSet
  3
DesignerAssemblies
 90
        0
280
     1
281
     0
  0
CLASS
  1
AMDTBROWSERDBTAB
  2
AmdtBrowserDbTab
  3
McadcomServices
 90
        0
280
     1
281
     0
  0
CLASS
  1
CBROWSERAPPOBJECT
  2
CBrowserAppObject
  3
McadcomServices
 90
        0
280
     1
281
     0
  0
CLASS
  1
DM_PLACEHOLDER
  2
AcDmSelsetPlaceholder
  3
AcMechDwgViewMgmt
 90
        0
280
     1
281
     0
  0
CLASS
  1
TABLESTYLE
  2
AcDbTableStyle
  3
ObjectDBX Classes
 90
     2047
280
     0
281
     0
  0
CLASS
  1
VAACXREFPANELOBJECT
  2
VaAcXREFPanelObject
  3
VAAC_ADDIN
 90
        0
280
     1
281
     0
  0
CLASS
  1
VAACIMAGEINVENTORY
  2
VaAcImageInventory
  3
VAAC_ADDIN
 90
        0
280
     1
281
     0
  0
CLASS
  1
AMDTNOTETEMPLATEDB
  2
AmdtNoteTemplateDB
  3
AMDT_STDIMP_MODULE_NAME
 90
        0
280
     1
281
     0
  0
CLASS
  1
ACMBOM
  2
AcmBom
  3
"AcmSymBB|Product Description: AutoCAD Mechanical 2004 DX|Company: Autodesk"
 90
        0
280
     1
281
     0
  0
CLASS
  1
AMDTFORMULAUPDATEDISPATCHER
  2
AmdtFormulaUpdateDispatcher
  3
AcMeServices
 90
        0
280
     1
281
     0
  0
CLASS
  1
ACMPARTLIST
  2
AcmPartList
  3
"AcmSymBB|Product Description: AutoCAD Mechanical 2004 DX|Company: Autodesk"
 90
     1023
280
     1
281
     1
  0
CLASS
  1
ACAMGFILTERDAT
  2
AcAmgFilterDat
  3
"AcadM|Product Description: AutoCAD Mechanical 2000|Company: Autodesk"
 90
        0
280
     1
281
     0
  0
CLASS
  1
ACMSTANDARDJIS
  2
AcmStandardJIS
  3
"Amdt_StdImp|Product Description: AutoCAD Mechanical 2004 DX|Company: Autodesk"
 90
        0
280
     1
281
     0
  0
CLASS
  1
ACMSURFSTANDARDJIS
  2
AcmSurfTextStdJIS
  3
"Amdt_StdImp|Product Description: AutoCAD Mechanical 2004 DX|Company: Autodesk"
 90
        0
280
     1
281
     0
  0
CLASS
  1
ACMFCFSTANDARDJIS98
  2
AcmFCFStdJIS98
  3
"Amdt_StdImp|Product Description: AutoCAD Mechanical 2004 DX|Company: Autodesk"
 90
        0
280
     1
281
     0
  0
CLASS
  1
ACMWELDSTANDARDJIS
  2
AcmWeldingStdJIS
  3
"Amdt_StdImp|Product Description: AutoCAD Mechanical 2004 DX|Company: Autodesk"
 90
        0
280
     1
281
     0
  0
CLASS
  1
ACMIDSTANDARDJIS
  2
AcmIdStdJIS
  3
"Amdt_StdImp|Product Description: AutoCAD Mechanical 2004 DX|Company: Autodesk"
 90
        0
280
     1
281
     0
  0
CLASS
  1
ACMDATUMSTANDARDJIS
  2
AcmDatumStdJIS
  3
"Amdt_StdImp|Product Description: AutoCAD Mechanical 2004 DX|Company: Autodesk"
 90
        0
280
     1
281
     0
  0
CLASS
  1
ACMBOMSTANDARDJIS
  2
AcmBOMStdJIS
  3
"Amdt_StdImp|Product Description: AutoCAD Mechanical 2004 DX|Company: Autodesk"
 90
        0
280
     1
281
     0
  0
CLASS
  1
ACMDETAILSTANDARDJIS
  2
AmdtDetailSymStdJIS
  3
"Amdt_StdImp|Product Description: AutoCAD Mechanical 2004 DX|Company: Autodesk"
 90
        0
280
     1
281
     0
  0
CLASS
  1
ACMSECTIONSTANDARDJIS
  2
AmdtSectionSymStdJIS
  3
"Amdt_StdImp|Product Description: AutoCAD Mechanical 2004 DX|Company: Autodesk"
 90
        0
280
     1
281
     0
  0
CLASS
  1
ACMCENTERLINESTANDARDJIS
  2
AmdtCenterLineStdJIS
  3
"Amdt_StdImp|Product Description: AutoCAD Mechanical 2004 DX|Company: Autodesk"
 90
        0
280
     1
281
     0
  0
CLASS
  1
ACMTHREADLINESTANDARDJIS
  2
AmdtThreadLineStdJIS
  3
"Amdt_StdImp|Product Description: AutoCAD Mechanical 2004 DX|Company: Autodesk"
 90
        0
280
     1
281
     0
  0
CLASS
  1
ACMNOTESTANDARDJIS
  2
AmdtNoteStdJIS
  3
"Amdt_StdImp|Product Description: AutoCAD Mechanical 2004 DX|Company: Autodesk"
 90
        0
280
     1
281
     0
  0
CLASS
  1
ACAMGHOLECHARTSTDJIS
  2
AcAmgHoleChartStdJIS
  3
ACMSYMBB_MODULE_NAME
 90
        0
280
     1
281
     0
  0
CLASS
  1
SORTENTSTABLE
  2
AcDbSortentsTable
  3
ObjectDBX Classes
 90
        0
280
     0
281
     0
  0
CLASS
  1
DIMASSOC
  2
AcDbDimAssoc
  3
"AcDbDimAssoc|Product Desc:     AcDim ARX App For Dimension|Company:          Autodesk, Inc.|WEB Address:      www.autodesk.com"
 90
        0
280
     0
281
     0
  0
CLASS
  1
ACDBCIRCARCRES
  2
AcDbCircArcRes
  3
AcGrefServices
 90
        0
280
     1
281
     0
  0
CLASS
  1
AMDTNOTE
  2
AmdtNote
  3
"AcmSymBB|Product Description: AutoCAD Mechanical 2004 DX|Company: Autodesk"
 90
     1023
280
     1
281
     1
  0
CLASS
  1
ACMSTANDARDANSI
  2
AcmStandardANSI
  3
"Amdt_StdImp|Product Description: AutoCAD Mechanical 2004 DX|Company: Autodesk"
 90
        0
280
     1
281
     0
  0
CLASS
  1
ACMSURFSTANDARDANSI
  2
AcmSurfTextStdANSI
  3
"Amdt_StdImp|Product Description: AutoCAD Mechanical 2004 DX|Company: Autodesk"
 90
        0
280
     1
281
     0
  0
CLASS
  1
ACMFCFSTANDARDANSI
  2
AcmFCFStdANSI
  3
"Amdt_StdImp|Product Description: AutoCAD Mechanical 2004 DX|Company: Autodesk"
 90
        0
280
     1
281
     0
  0
CLASS
  1
ACMWELDSTANDARDANSI
  2
AcmWeldingStdANSI
  3
"Amdt_StdImp|Product Description: AutoCAD Mechanical 2004 DX|Company: Autodesk"
 90
        0
280
     1
281
     0
  0
CLASS
  1
ACMIDSTANDARDANSI
  2
AcmIdStdANSI
  3
"Amdt_StdImp|Product Description: AutoCAD Mechanical 2004 DX|Company: Autodesk"
 90
        0
280
     1
281
     0
  0
CLASS
  1
ACMDATUMSTANDARDANSI
  2
AcmDatumStdANSI
  3
"Amdt_StdImp|Product Description: AutoCAD Mechanical 2004 DX|Company: Autodesk"
 90
        0
280
     1
281
     0
  0
CLASS
  1
ACMBOMSTANDARDANSI
  2
AcmBOMStdANSI
  3
"Amdt_StdImp|Product Description: AutoCAD Mechanical 2004 DX|Company: Autodesk"
 90
        0
280
     1
281
     0
  0
CLASS
  1
ACMDETAILSTANDARDANSI
  2
AmdtDetailSymStdANSI
  3
"Amdt_StdImp|Product Description: AutoCAD Mechanical 2004 DX|Company: Autodesk"
 90
        0
280
     1
281
     0
  0
CLASS
  1
ACMSECTIONSTANDARDANSI
  2
AmdtSectionSymStdANSI
  3
"Amdt_StdImp|Product Description: AutoCAD Mechanical 2004 DX|Company: Autodesk"
 90
        0
280
     1
281
     0
  0
CLASS
  1
ACMCENTERLINESTANDARDANSI
  2
AmdtCenterLineStdANSI
  3
"Amdt_StdImp|Product Description: AutoCAD Mechanical 2004 DX|Company: Autodesk"
 90
        0
280
     1
281
     0
  0
CLASS
  1
ACMTHREADLINESTANDARDANSI
  2
AmdtThreadLineStdANSI
  3
"Amdt_StdImp|Product Description: AutoCAD Mechanical 2004 DX|Company: Autodesk"
 90
        0
280
     1
281
     0
  0
CLASS
  1
ACMNOTESTANDARDANSI
  2
AmdtNoteStdANSI
  3
"Amdt_StdImp|Product Description: AutoCAD Mechanical 2004 DX|Company: Autodesk"
 90
        0
280
     1
281
     0
  0
CLASS
  1
ACAMGHOLECHARTSTDANSI
  2
AcAmgHoleChartStdANSI
  3
ACMSYMBB_MODULE_NAME
 90
        0
280
     1
281
     0
  0
CLASS
  1
ACDBLINERES
  2
AcDbLineRes
  3
AcGrefServices
 90
        0
280
     1
281
     0
  0
ENDSEC
  0
SECTION
  2
TABLES
  0
TABLE
  2
VPORT
  5
8
330
0
100
AcDbSymbolTable
 70
    91
  0
VPORT
  5
12176
330
8
100
AcDbSymbolTableRecord
100
AcDbViewportTableRecord
  2
*Active
 70
     0
 10
0.0
 20
0.0
 11
1.0
 21
1.0
 12
160.4287728928365
 22
102.3883215606775
 13
0.0
 23
0.0
 14
2.5
 24
2.5
 15
10.0
 25
10.0
 16
0.0
 26
0.0
 36
1.0
 17
0.0
 27
0.0
 37
0.0
 40
175.9523659567172
 41
1.573435504469987
 42
50.0
 43
0.0
 44
0.0
 50
0.0
 51
0.0
 71
    16
 72
 20000
 73
     1
 74
     3
 75
     0
 76
     0
 77
     0
 78
     0
281
     0
 65
     1
110
0.0
120
0.0
130
0.0
111
1.0
121
0.0
131
0.0
112
0.0
122
1.0
132
0.0
 79
     0
146
0.0
  0
ENDTAB
  0
TABLE
  2
LTYPE
  5
5
330
0
100
AcDbSymbolTable
 70
    19
  0
LTYPE
  5
14
330
5
100
AcDbSymbolTableRecord
100
AcDbLinetypeTableRecord
  2
ByBlock
 70
     0
  3

 72
    65
 73
     0
 40
0.0
  0
LTYPE
  5
15
330
5
100
AcDbSymbolTableRecord
100
AcDbLinetypeTableRecord
  2
ByLayer
 70
     0
  3

 72
    65
 73
     0
 40
0.0
  0
LTYPE
  5
16
330
5
100
AcDbSymbolTableRecord
100
AcDbLinetypeTableRecord
  2
Continuous
 70
     0
  3
Solid line
 72
    65
 73
     0
 40
0.0
  0
LTYPE
  5
64
330
5
100
AcDbSymbolTableRecord
100
AcDbLinetypeTableRecord
  2
AM_ISO02W050
 70
     0
  3
__ __ __ __ __ __ __ __ __ __ __ __ __ __ __
 72
    65
 73
     2
 40
7.5
 49
6.0
 74
     0
 49
-1.5
 74
     0
  0
LTYPE
  5
65
330
5
100
AcDbSymbolTableRecord
100
AcDbLinetypeTableRecord
  2
AM_ISO08W050
 70
     0
  3
____ . ____ . ____ . ____ . ____ . ____ . ____
 72
    65
 73
     4
 40
18.0
 49
12.0
 74
     0
 49
-1.5
 74
     0
 49
3.0
 74
     0
 49
-1.5
 74
     0
  0
LTYPE
  5
66
330
5
100
AcDbSymbolTableRecord
100
AcDbLinetypeTableRecord
  2
AM_ISO09W050
 70
     0
  3
_____ . . _____ . . _____ . . ____ .. ____
 72
    65
 73
     6
 40
22.5
 49
12.0
 74
     0
 49
-1.5
 74
     0
 49
3.0
 74
     0
 49
-1.5
 74
     0
 49
3.0
 74
     0
 49
-1.5
 74
     0
  0
LTYPE
  5
67
330
5
100
AcDbSymbolTableRecord
100
AcDbLinetypeTableRecord
  2
Amconstr
 70
     0
  3
_______________________
 72
    65
 73
     2
 40
9999.0
 49
9999.0
 74
     0
 49
0.0
 74
     0
  0
LTYPE
  5
68
330
5
100
AcDbSymbolTableRecord
100
AcDbLinetypeTableRecord
  2
AM_ISO08W050x2
 70
     0
  3
__ . __ . __ . __ . __ . __
 72
    65
 73
     4
 40
9.0
 49
6.0
 74
     0
 49
-0.75
 74
     0
 49
1.5
 74
     0
 49
-0.75
 74
     0
  0
LTYPE
  5
69
330
5
100
AcDbSymbolTableRecord
100
AcDbLinetypeTableRecord
  2
AM_ISO02W050x2
 70
     0
  3
 _ _ _ _ _ _ _ _ _ _ _ _
 72
    65
 73
     2
 40
3.75
 49
3.0
 74
     0
 49
-0.75
 74
     0
  0
LTYPE
  5
6C
330
5
100
AcDbSymbolTableRecord
100
AcDbLinetypeTableRecord
  2
Amzigzag
 70
     0
  3
/\/-/\/-/\/-/\/-/\/-/\/
 72
    65
 73
     2
 40
11.0001
 49
0.0001
 74
     4
 75
   135
340
6B
 46
0.04
 50
0.0
 44
0.0
 45
0.0
 49
-11.0
 74
     0
  0
LTYPE
  5
7A
330
5
100
AcDbSymbolTableRecord
100
AcDbLinetypeTableRecord
  2
ACISOWELD
 70
     0
  3
_ _ _ _ _
 72
    65
 73
     2
 40
2.0
 49
2.0
 74
     0
 49
-1.0
 74
     0
  0
LTYPE
  5
7B
330
5
100
AcDbSymbolTableRecord
100
AcDbLinetypeTableRecord
  2
ACISOTGB
 70
     0
  3
__ . . __ . .
 72
    65
 73
     6
 40
9.0
 49
4.0
 74
     0
 49
-1.0
 74
     0
 49
1.0
 74
     0
 49
-1.0
 74
     0
 49
1.0
 74
     0
 49
-1.0
 74
     0
  0
LTYPE
  5
7C
330
5
100
AcDbSymbolTableRecord
100
AcDbLinetypeTableRecord
  2
ACISOTGL
 70
     0
  3
_ _ _ _ _
 72
    65
 73
     2
 40
3.0
 49
2.0
 74
     0
 49
-1.0
 74
     0
  0
LTYPE
  5
7E
330
5
100
AcDbSymbolTableRecord
100
AcDbLinetypeTableRecord
  2
CENTER
 70
     0
  3
__ . __
 72
    65
 73
     4
 40
7.0
 49
4.0
 74
     0
 49
-1.0
 74
     0
 49
1.0
 74
     0
 49
-1.0
 74
     0
  0
LTYPE
  5
D8
330
5
100
AcDbSymbolTableRecord
100
AcDbLinetypeTableRecord
  2
HIDDEN
 70
     0
  3
Hidden __ __ __ __ __ __ __ __ __ __ __ __ __ _
 72
    65
 73
     2
 40
9.524999999999999
 49
6.35
 74
     0
 49
-3.175
 74
     0
  0
LTYPE
  5
D9
330
5
100
AcDbSymbolTableRecord
100
AcDbLinetypeTableRecord
  2
PHANTOM2
 70
     0
  3
Phantom (.5x) ___ _ _ ___ _ _ ___ _ _ ___ _ _
 72
    65
 73
     6
 40
31.75
 49
15.875
 74
     0
 49
-3.175
 74
     0
 49
3.175
 74
     0
 49
-3.175
 74
     0
 49
3.175
 74
     0
 49
-3.175
 74
     0
  0
LTYPE
  5
20C
330
5
100
AcDbSymbolTableRecord
100
AcDbLinetypeTableRecord
  2
ACJISWELD
 70
     0
  3
_ _ _ _ _
 72
    65
 73
     2
 40
2.0
 49
2.0
 74
     0
 49
-1.0
 74
     0
  0
LTYPE
  5
20D
330
5
100
AcDbSymbolTableRecord
100
AcDbLinetypeTableRecord
  2
ACJISTGB
 70
     0
  3
__ . . __ . .
 72
    65
 73
     6
 40
9.0
 49
4.0
 74
     0
 49
-1.0
 74
     0
 49
1.0
 74
     0
 49
-1.0
 74
     0
 49
1.0
 74
     0
 49
-1.0
 74
     0
  0
LTYPE
  5
20E
330
5
100
AcDbSymbolTableRecord
100
AcDbLinetypeTableRecord
  2
ACJISTGL
 70
     0
  3
_ _ _ _ _
 72
    65
 73
     2
 40
3.0
 49
2.0
 74
     0
 49
-1.0
 74
     0
  0
LTYPE
  5
2E14
330
5
100
AcDbSymbolTableRecord
100
AcDbLinetypeTableRecord
  2
ACANSTGB
 70
     0
  3
__ . . __ . .
 72
    65
 73
     6
 40
0.35433070866
 49
0.15748031496
 74
     0
 49
-0.03937007874
 74
     0
 49
0.03937007874
 74
     0
 49
-0.03937007874
 74
     0
 49
0.03937007874
 74
     0
 49
-0.03937007874
 74
     0
  0
LTYPE
  5
2E15
330
5
100
AcDbSymbolTableRecord
100
AcDbLinetypeTableRecord
  2
ACANSTGL
 70
     0
  3
_ _ _ _ _
 72
    65
 73
     2
 40
0.11811023622
 49
0.07874015748
 74
     0
 49
-0.03937007874
 74
     0
  0
ENDTAB
  0
TABLE
  2
LAYER
  5
2
102
{ACAD_XDICTIONARY
360
34B
102
}
330
0
100
AcDbSymbolTable
 70
     7
  0
LAYER
  5
10
330
2
100
AcDbSymbolTableRecord
100
AcDbLayerTableRecord
  2
0
 70
     0
 62
     7
  6
Continuous
370
    -3
390
F
  0
LAYER
  5
34A
330
2
100
AcDbSymbolTableRecord
100
AcDbLayerTableRecord
  2
AM_0
 70
     0
 62
     7
  6
Continuous
370
    30
390
F
  0
LAYER
  5
3AD
330
2
100
AcDbSymbolTableRecord
100
AcDbLayerTableRecord
  2
AM_5
 70
     0
 62
     3
  6
Continuous
370
    13
390
F
  0
LAYER
  5
3B0
330
2
100
AcDbSymbolTableRecord
100
AcDbLayerTableRecord
  2
AM_6
 70
     0
 62
     2
  6
Continuous
370
    30
390
F
  0
LAYER
  5
818
330
2
100
AcDbSymbolTableRecord
100
AcDbLayerTableRecord
  2
AM_4
 70
     0
 62
     3
  6
Continuous
370
    13
390
F
  0
LAYER
  5
9A3
330
2
100
AcDbSymbolTableRecord
100
AcDbLayerTableRecord
  2
AM_7
 70
     0
 62
     4
  6
AM_ISO08W050
370
    13
390
F
  0
LAYER
  5
1159
330
2
100
AcDbSymbolTableRecord
100
AcDbLayerTableRecord
  2
Defpoints
 70
     0
 62
     7
  6
Continuous
290
     0
370
    -3
390
F
  0
ENDTAB
  0
TABLE
  2
STYLE
  5
3
330
0
100
AcDbSymbolTable
 70
     8
  0
STYLE
  5
11
330
3
100
AcDbSymbolTableRecord
100
AcDbTextStyleTableRecord
  2
STANDARD
 70
     0
 40
0.0
 41
1.0
 50
0.0
 71
     0
 42
3.8
  3
ISOCP.SHX
  4
EXTFONT.SHX
  0
STYLE
  5
6B
330
3
100
AcDbSymbolTableRecord
100
AcDbTextStyleTableRecord
  2

 70
     1
 40
0.0
 41
1.0
 50
0.0
 71
     0
 42
2.5
  3
ltypeshp.shx
  4

  0
STYLE
  5
6D
330
3
100
AcDbSymbolTableRecord
100
AcDbTextStyleTableRecord
  2
ACISOTS
 70
     0
 40
3.8
 41
1.0
 50
0.0
 71
     0
 42
3.8
  3
isocp.shx
  4
extfont.shx
  0
STYLE
  5
79
330
3
100
AcDbSymbolTableRecord
100
AcDbTextStyleTableRecord
  2
ACISOGDT
 70
     0
 40
0.0
 41
1.0
 50
0.0
 71
     0
 42
2.5
  3
amgdt.shx
  4
extfont.shx
  0
STYLE
  5
1FF
330
3
100
AcDbSymbolTableRecord
100
AcDbTextStyleTableRecord
  2
ACJISTS
 70
     0
 40
1.0
 41
1.0
 50
0.0
 71
     0
 42
1.0
  3
isocp.shx
  4
extfont.shx
  0
STYLE
  5
20B
330
3
100
AcDbSymbolTableRecord
100
AcDbTextStyleTableRecord
  2
ACJISGDT
 70
     0
 40
0.0
 41
1.0
 50
0.0
 71
     0
 42
1.0
  3
amgdt.shx
  4

  0
STYLE
  5
2E16
330
3
100
AcDbSymbolTableRecord
100
AcDbTextStyleTableRecord
  2
ACANSTS
 70
     0
 40
1.0
 41
1.0
 50
0.0
 71
     0
 42
0.2
  3
romans.shx
  4
extfont.shx
  0
STYLE
  5
2E17
330
3
100
AcDbSymbolTableRecord
100
AcDbTextStyleTableRecord
  2
ACANSGDT
 70
     0
 40
0.0
 41
1.0
 50
0.0
 71
     0
 42
0.2
  3
amgdtans.shx
  4

  0
ENDTAB
  0
TABLE
  2
VIEW
  5
6
330
0
100
AcDbSymbolTable
 70
     6
  0
VIEW
  5
8A8
330
6
100
AcDbSymbolTableRecord
100
AcDbViewTableRecord
  2
AM_VIEW1
 70
     0
 40
155.9090909090909
 10
105.0
 20
219.0454545454546
 41
210.0
 11
0.0
 21
0.0
 31
1.0
 12
0.0
 22
0.0
 32
0.0
 42
50.0
 43
0.0
 44
0.0
 50
0.0
 71
    16
281
     0
 72
     0
  0
VIEW
  5
8A9
330
6
100
AcDbSymbolTableRecord
100
AcDbViewTableRecord
  2
AM_VIEW2
 70
     0
 40
155.9090909090909
 10
315.0
 20
219.0454545454546
 41
210.0
 11
0.0
 21
0.0
 31
1.0
 12
0.0
 22
0.0
 32
0.0
 42
50.0
 43
0.0
 44
0.0
 50
0.0
 71
    16
281
     0
 72
     0
  0
VIEW
  5
8AA
330
6
100
AcDbSymbolTableRecord
100
AcDbViewTableRecord
  2
AM_VIEW3
 70
     0
 40
155.9090909090909
 10
105.0
 20
77.95454545454545
 41
210.0
 11
0.0
 21
0.0
 31
1.0
 12
0.0
 22
0.0
 32
0.0
 42
50.0
 43
0.0
 44
0.0
 50
0.0
 71
    16
281
     0
 72
     0
  0
VIEW
  5
8AB
330
6
100
AcDbSymbolTableRecord
100
AcDbViewTableRecord
  2
AM_VIEW4
 70
     0
 40
155.9090909090909
 10
315.0
 20
77.95454545454545
 41
210.0
 11
0.0
 21
0.0
 31
1.0
 12
0.0
 22
0.0
 32
0.0
 42
50.0
 43
0.0
 44
0.0
 50
0.0
 71
    16
281
     0
 72
     0
  0
VIEW
  5
8AC
330
6
100
AcDbSymbolTableRecord
100
AcDbViewTableRecord
  2
AM_VIEW5
 70
     0
 40
155.9090909090909
 10
210.0
 20
148.5
 41
210.0
 11
0.0
 21
0.0
 31
1.0
 12
0.0
 22
0.0
 32
0.0
 42
50.0
 43
0.0
 44
0.0
 50
0.0
 71
    16
281
     0
 72
     0
  0
VIEW
  5
8AD
330
6
100
AcDbSymbolTableRecord
100
AcDbViewTableRecord
  2
AM_VIEW6
 70
     0
 40
311.8150636363637
 10
210.0
 20
148.5
 41
419.9958
 11
0.0
 21
0.0
 31
1.0
 12
0.0
 22
0.0
 32
0.0
 42
50.0
 43
0.0
 44
0.0
 50
0.0
 71
    16
281
     0
 72
     0
  0
ENDTAB
  0
TABLE
  2
UCS
  5
7
330
0
100
AcDbSymbolTable
 70
     0
  0
ENDTAB
  0
TABLE
  2
APPID
  5
9
330
0
100
AcDbSymbolTable
 70
    42
  0
APPID
  5
12
330
9
100
AcDbSymbolTableRecord
100
AcDbRegAppTableRecord
  2
ACAD
 70
     0
  0
APPID
  5
46
330
9
100
AcDbSymbolTableRecord
100
AcDbRegAppTableRecord
  2
MCAD_NO_VIS
 70
     0
  0
APPID
  5
47
330
9
100
AcDbSymbolTableRecord
100
AcDbRegAppTableRecord
  2
ACAD_TEMP_GRAPHIC
 70
     0
  0
APPID
  5
58
330
9
100
AcDbSymbolTableRecord
100
AcDbRegAppTableRecord
  2
ACATTRIBSERVICES
 70
     0
  0
APPID
  5
EE
330
9
100
AcDbSymbolTableRecord
100
AcDbRegAppTableRecord
  2
AD_DRAW
 70
     0
  0
APPID
  5
10C
330
9
100
AcDbSymbolTableRecord
100
AcDbRegAppTableRecord
  2
DESIGNERASSEMBLIES
 70
     0
  0
APPID
  5
111
330
9
100
AcDbSymbolTableRecord
100
AcDbRegAppTableRecord
  2
ACADM_DIM_EDIT
 70
     0
  0
APPID
  5
112
330
9
100
AcDbSymbolTableRecord
100
AcDbRegAppTableRecord
  2
AMDT_DM_ADJ
 70
     0
  0
APPID
  5
243
330
9
100
AcDbSymbolTableRecord
100
AcDbRegAppTableRecord
  2
ACAD_DSTYLE_DIMTEXT_FILL
 70
     0
  0
APPID
  5
81A
330
9
100
AcDbSymbolTableRecord
100
AcDbRegAppTableRecord
  2
GENIUS_GENREC_14
 70
     0
  0
APPID
  5
81B
330
9
100
AcDbSymbolTableRecord
100
AcDbRegAppTableRecord
  2
GENIUS_GENODEF_13
 70
     0
  0
APPID
  5
81C
330
9
100
AcDbSymbolTableRecord
100
AcDbRegAppTableRecord
  2
GENIUS_GENOBJ-N-REC_13
 70
     0
  0
APPID
  5
81D
330
9
100
AcDbSymbolTableRecord
100
AcDbRegAppTableRecord
  2
GENIUS_GENOBJ-N-HTC_13
 70
     0
  0
APPID
  5
81E
330
9
100
AcDbSymbolTableRecord
100
AcDbRegAppTableRecord
  2
GENIUS_GENHATCH_13
 70
     0
  0
APPID
  5
884
330
9
100
AcDbSymbolTableRecord
100
AcDbRegAppTableRecord
  2
GENIUS_GENCFG_13
 70
     0
  0
APPID
  5
885
330
9
100
AcDbSymbolTableRecord
100
AcDbRegAppTableRecord
  2
GENIUS_GENCFG0_13
 70
     0
  0
APPID
  5
886
330
9
100
AcDbSymbolTableRecord
100
AcDbRegAppTableRecord
  2
GENIUS_GENCFG1_13
 70
     0
  0
APPID
  5
887
330
9
100
AcDbSymbolTableRecord
100
AcDbRegAppTableRecord
  2
GENIUS_GENCFG2_13
 70
     0
  0
APPID
  5
888
330
9
100
AcDbSymbolTableRecord
100
AcDbRegAppTableRecord
  2
GENIUS_GENCFG3_13
 70
     0
  0
APPID
  5
889
330
9
100
AcDbSymbolTableRecord
100
AcDbRegAppTableRecord
  2
GENIUS_GENCFG4_13
 70
     0
  0
APPID
  5
88A
330
9
100
AcDbSymbolTableRecord
100
AcDbRegAppTableRecord
  2
GENIUS_GENBLLY_14
 70
     0
  0
APPID
  5
88B
330
9
100
AcDbSymbolTableRecord
100
AcDbRegAppTableRecord
  2
GENIUS_GENOBJ-N-CEN_13
 70
     0
  0
APPID
  5
899
330
9
100
AcDbSymbolTableRecord
100
AcDbRegAppTableRecord
  2
GENIUS_GENTRA_14
 70
     0
  0
APPID
  5
8A3
330
9
100
AcDbSymbolTableRecord
100
AcDbRegAppTableRecord
  2
GENIUS_GENOLIS_13
 70
     0
  0
APPID
  5
8A4
330
9
100
AcDbSymbolTableRecord
100
AcDbRegAppTableRecord
  2
GENIUS_GENOENT_13
 70
     0
  0
APPID
  5
8A5
330
9
100
AcDbSymbolTableRecord
100
AcDbRegAppTableRecord
  2
GENIUS_GENOBJ-N-TIT_13
 70
     0
  0
APPID
  5
8A6
330
9
100
AcDbSymbolTableRecord
100
AcDbRegAppTableRecord
  2
GENIUS_GENTITLE_13
 70
     0
  0
APPID
  5
8A7
330
9
100
AcDbSymbolTableRecord
100
AcDbRegAppTableRecord
  2
GENIUS_GENOREF_13
 70
     0
  0
APPID
  5
8AE
330
9
100
AcDbSymbolTableRecord
100
AcDbRegAppTableRecord
  2
GENIUS_GENSCREG_15
 70
     0
  0
APPID
  5
8AF
330
9
100
AcDbSymbolTableRecord
100
AcDbRegAppTableRecord
  2
GENIUS_GENOBJ-N-SDF_13
 70
     0
  0
APPID
  5
8E9
330
9
100
AcDbSymbolTableRecord
100
AcDbRegAppTableRecord
  2
BASE_TYPE
 70
     0
  0
APPID
  5
9A5
330
9
100
AcDbSymbolTableRecord
100
AcDbRegAppTableRecord
  2
GENIUS_GENCEN_19
 70
     0
  0
APPID
  5
B4A
330
9
100
AcDbSymbolTableRecord
100
AcDbRegAppTableRecord
  2
GENIUS_GENOBJ-N-CRS_13
 70
     0
  0
APPID
  5
134E
330
9
100
AcDbSymbolTableRecord
100
AcDbRegAppTableRecord
  2
ACAD_DIMASSOC_DIMLFAC
 70
     0
  0
APPID
  5
134F
330
9
100
AcDbSymbolTableRecord
100
AcDbRegAppTableRecord
  2
ACAD_DIMASSOC_CALC_DIMLFAC
 70
     0
  0
APPID
  5
1350
330
9
100
AcDbSymbolTableRecord
100
AcDbRegAppTableRecord
  2
ACAD_DIMASSOC_OVERRIDDEN_DIMLFAC
 70
     0
  0
APPID
  5
15CB
330
9
100
AcDbSymbolTableRecord
100
AcDbRegAppTableRecord
  2
GENIUS_GENOBJ-N-RSBK_13
 70
     0
  0
APPID
  5
15CC
330
9
100
AcDbSymbolTableRecord
100
AcDbRegAppTableRecord
  2
GENIUS_GENOBJ-N-LIB_13
 70
     0
  0
APPID
  5
15CD
330
9
100
AcDbSymbolTableRecord
100
AcDbRegAppTableRecord
  2
GENIUS_GENSCALE_13
 70
     0
  0
APPID
  5
1717
330
9
100
AcDbSymbolTableRecord
100
AcDbRegAppTableRecord
  2
GENIUS_GENDIMSH_14
 70
     0
  0
APPID
  5
4511
330
9
100
AcDbSymbolTableRecord
100
AcDbRegAppTableRecord
  2
ACAD_PSEXT
 70
     0
  0
APPID
  5
5DE2
330
9
100
AcDbSymbolTableRecord
100
AcDbRegAppTableRecord
  2
GENIUS_GENDTOL_13
 70
     0
  0
ENDTAB
  0
TABLE
  2
DIMSTYLE
  5
A
330
0
100
AcDbSymbolTable
 70
    23
100
AcDbDimStyleTable
  0
DIMSTYLE
105
81
330
A
100
AcDbSymbolTableRecord
100
AcDbDimStyleTableRecord
  2
AM_ISO
 70
     0
  4
"
 41
2.5
 42
1.0
 43
10.0
 44
1.0
 47
0.1
 48
0.1
 73
     0
 74
     0
 77
     1
 78
     8
 79
     2
140
3.5
141
0.0
143
0.0393701
146
0.71
147
1.5
172
     1
176
   256
177
   256
178
     2
271
     2
272
     3
274
     4
283
     0
284
     8
340
11
371
    -1
372
    -1
  0
DIMSTYLE
105
82
330
A
100
AcDbSymbolTableRecord
100
AcDbDimStyleTableRecord
  2
AM_ISO$3
 70
     0
  4
"
 41
2.5
 42
1.0
 43
10.0
 44
1.0
 47
0.1
 48
0.1
 73
     0
 77
     1
 78
     8
 79
     2
140
3.5
141
0.0
143
0.0393701
146
0.71
147
1.5
176
   256
177
   256
178
     2
271
     2
272
     3
274
     4
283
     0
284
     8
288
     1
289
     0
340
11
371
    -1
372
    -1
  0
DIMSTYLE
105
83
330
A
100
AcDbSymbolTableRecord
100
AcDbDimStyleTableRecord
  2
AM_ISO$4
 70
     0
  4
"
 41
2.5
 42
1.0
 43
10.0
 44
1.0
 47
0.1
 48
0.1
 73
     0
 77
     1
 78
     8
 79
     2
140
3.5
141
0.0
143
0.0393701
146
0.71
147
1.5
176
   256
177
   256
178
     2
271
     2
272
     3
274
     4
283
     0
284
     8
288
     1
289
     0
340
11
371
    -1
372
    -1
  0
DIMSTYLE
105
84
330
A
100
AcDbSymbolTableRecord
100
AcDbDimStyleTableRecord
  2
AM_ISO$6
 70
     0
  4
"
 41
2.5
 42
1.0
 43
10.0
 44
1.0
 47
0.1
 48
0.1
 73
     0
 74
     0
 78
     8
 79
     2
140
3.5
141
0.0
143
0.0393701
146
0.71
147
1.5
172
     1
176
   256
177
   256
178
     2
271
     2
272
     3
274
     4
283
     0
284
     8
340
11
371
    -1
372
    -1
  0
DIMSTYLE
105
85
330
A
100
AcDbSymbolTableRecord
100
AcDbDimStyleTableRecord
  2
AM_ISO$7
 70
     0
  4
"
 41
2.5
 42
1.0
 43
10.0
 44
1.0
 47
0.1
 48
0.1
 73
     0
 74
     0
 77
     1
 78
     8
 79
     2
140
5.0
141
0.0
143
0.0393701
146
0.71
147
1.5
172
     1
176
   256
177
   256
178
     2
271
     2
272
     3
274
     4
283
     0
284
     8
340
11
371
    -1
372
    -1
  0
DIMSTYLE
105
86
330
A
100
AcDbSymbolTableRecord
100
AcDbDimStyleTableRecord
  2
AM_ISO$SF
 70
     0
  4
"
 41
2.5
 42
1.0
 43
10.0
 44
1.0
 47
0.1
 48
0.1
 73
     0
 74
     0
 75
     1
 76
     1
 77
     1
 78
     8
 79
     2
140
3.5
141
0.0
143
0.0393701
146
0.71
147
1.5
172
     1
176
   256
177
   256
178
     2
271
     2
272
     3
274
     4
283
     0
284
     8
340
11
371
    -1
372
    -1
  0
DIMSTYLE
105
8B
330
A
100
AcDbSymbolTableRecord
100
AcDbDimStyleTableRecord
  2
AM_ISO$SH
 70
     0
  4
"
 41
2.5
 42
1.0
 43
10.0
 44
1.0
 47
0.1
 48
0.1
 73
     0
 74
     0
 75
     1
 76
     1
 77
     1
 78
     8
 79
     2
140
3.5
141
0.0
143
0.0393701
144
2.0
146
0.71
147
1.5
172
     1
173
     1
176
   256
177
   256
178
     2
271
     2
272
     3
274
     4
283
     0
284
     8
340
11
343
87
371
    -1
372
    -1
  0
DIMSTYLE
105
216
330
A
100
AcDbSymbolTableRecord
100
AcDbDimStyleTableRecord
  2
AM_JIS
 70
     0
  4
"
 41
2.5
 42
1.0
 43
10.0
 44
1.0
 47
0.1
 48
0.1000000001
 73
     0
 74
     0
 77
     3
 78
     8
 79
     2
140
3.8
141
0.0
143
0.0393701
146
0.71
147
1.5
172
     1
176
   256
177
   256
178
     2
271
     2
272
     2
275
     1
283
     0
284
     8
340
11
341
217
342
217
371
    -1
372
    -1
  0
DIMSTYLE
105
21D
330
A
100
AcDbSymbolTableRecord
100
AcDbDimStyleTableRecord
  2
AM_JIS$3
 70
     0
  4
"
 41
2.5
 42
1.0
 43
10.0
 44
1.0
 47
0.1
 48
0.1000000001
 73
     0
 77
     3
 78
     8
 79
     2
140
3.8
141
0.0
143
0.0393701
146
0.71
147
1.5
176
   256
177
   256
178
     2
271
     2
272
     2
275
     1
283
     0
284
     8
288
     1
289
     0
340
11
341
217
342
217
371
    -1
372
    -1
  0
DIMSTYLE
105
21E
102
{ACAD_REACTORS
330
12131
102
}
330
A
100
AcDbSymbolTableRecord
100
AcDbDimStyleTableRecord
  2
AM_JIS$4
 70
     0
  4
"
 41
2.5
 42
1.0
 43
10.0
 44
1.0
 47
0.1
 48
0.1000000001
 73
     0
 77
     3
 78
     8
 79
     2
140
3.8
141
0.0
143
0.0393701
146
0.71
147
1.5
176
   256
177
   256
178
     2
271
     2
272
     2
275
     1
283
     0
284
     8
288
     1
289
     0
340
11
341
217
342
217
371
    -1
372
    -1
  0
DIMSTYLE
105
21F
330
A
100
AcDbSymbolTableRecord
100
AcDbDimStyleTableRecord
  2
AM_JIS$6
 70
     0
  4
"
 41
2.5
 42
1.0
 43
10.0
 44
1.0
 47
0.1
 48
0.1000000001
 73
     0
 74
     0
 78
     8
 79
     2
140
3.8
141
0.0
143
0.0393701
146
0.71
147
1.5
172
     1
176
   256
177
   256
178
     2
271
     2
272
     2
275
     1
283
     0
284
     8
340
11
341
217
342
217
371
    -1
372
    -1
  0
DIMSTYLE
105
220
330
A
100
AcDbSymbolTableRecord
100
AcDbDimStyleTableRecord
  2
AM_JIS$7
 70
     0
  4
"
 41
2.5
 42
1.0
 43
10.0
 44
1.0
 47
0.1
 48
0.1000000001
 73
     0
 74
     0
 77
     3
 78
     8
 79
     2
140
5.0
141
0.0
143
0.0393701
146
0.71
147
1.5
172
     1
176
   256
177
   256
178
     2
271
     2
272
     2
275
     1
283
     0
284
     8
340
11
341
217
342
217
371
    -1
372
    -1
  0
DIMSTYLE
105
221
330
A
100
AcDbSymbolTableRecord
100
AcDbDimStyleTableRecord
  2
AM_JIS$SF
 70
     0
  4
"
 41
2.5
 42
1.0
 43
10.0
 44
1.0
 47
0.1
 48
0.1
 73
     0
 74
     0
 75
     1
 76
     1
 77
     3
 78
     8
 79
     2
140
3.5
141
0.0
143
0.0393701
146
0.71
147
1.5
172
     1
176
   256
177
   256
178
     2
271
     2
272
     3
274
     4
283
     0
284
     8
340
11
341
217
342
217
343
217
344
217
371
    -1
372
    -1
  0
DIMSTYLE
105
222
330
A
100
AcDbSymbolTableRecord
100
AcDbDimStyleTableRecord
  2
AM_JIS$SH
 70
     0
  4
"
 41
2.5
 42
1.0
 43
10.0
 44
1.0
 47
0.1
 48
0.1
 73
     0
 74
     0
 75
     1
 76
     1
 77
     3
 78
     8
 79
     2
140
3.5
141
0.0
143
0.0393701
144
2.0
146
0.71
147
1.5
172
     1
173
     1
176
   256
177
   256
178
     2
271
     2
272
     3
274
     4
283
     0
284
     8
340
11
341
217
342
217
343
87
344
217
371
    -1
372
    -1
  0
DIMSTYLE
105
819
102
{ACAD_REACTORS
330
F9BC
330
F9F2
330
FA67
330
FB72
330
FC10
330
FE00
330
10A9F
102
}
330
A
100
AcDbSymbolTableRecord
100
AcDbDimStyleTableRecord
  2
AM_JIS$0
 70
     0
  4
"
 41
2.5
 42
0.0
 43
10.0
 44
1.0
 48
0.000000001
 73
     0
 74
     0
 77
     3
 78
     1
 79
     2
140
3.8
141
0.0
143
0.0393701
146
0.71
147
1.5
172
     1
176
   256
177
   256
178
     2
179
     1
271
     3
272
     3
275
     1
283
     0
284
     8
340
11
341
217
342
217
371
    -1
372
    -1
  0
DIMSTYLE
105
87C
330
A
100
AcDbSymbolTableRecord
100
AcDbDimStyleTableRecord
  2
STANDARD
 70
     0
340
11
  0
DIMSTYLE
105
131D
330
A
100
AcDbSymbolTableRecord
100
AcDbDimStyleTableRecord
  2
AM_JIS$2
 70
     0
  4
"
 41
2.5
 42
1.0
 43
10.0
 44
1.0
 47
0.1
 48
0.1000000001
 73
     0
 74
     0
 77
     3
 78
     8
 79
     2
140
3.8
141
0.0
143
0.0393701
146
0.71
147
1.5
172
     1
176
   256
177
   256
178
     2
271
     2
272
     2
275
     1
283
     0
284
     8
340
11
341
217
342
217
371
    -1
372
    -1
  0
DIMSTYLE
105
2E18
330
A
100
AcDbSymbolTableRecord
100
AcDbDimStyleTableRecord
  2
AM_ANSI
 70
     0
  4
mm
 41
0.1
 42
0.05
 43
0.5
 44
0.1
 47
0.1
 48
0.1
 78
     7
 79
     2
140
0.12
141
0.0
146
0.71
147
0.06
176
   256
177
   256
178
     2
274
     4
284
     7
340
11
371
    -1
372
    -1
  0
DIMSTYLE
105
2E19
330
A
100
AcDbSymbolTableRecord
100
AcDbDimStyleTableRecord
  2
AM_ANSI$3
 70
     0
  4
mm
 41
0.1
 42
0.05
 43
0.5
 44
0.1
 47
0.1
 48
0.1
 78
     7
 79
     2
140
0.12
141
0.0
146
0.71
147
0.06
176
   256
177
   256
178
     2
274
     4
284
     7
288
     1
289
     0
340
11
371
    -1
372
    -1
  0
DIMSTYLE
105
2E1A
330
A
100
AcDbSymbolTableRecord
100
AcDbDimStyleTableRecord
  2
AM_ANSI$4
 70
     0
  4
mm
 41
0.1
 42
0.05
 43
0.5
 44
0.1
 47
0.1
 48
0.1
 78
     7
 79
     2
140
0.12
141
0.0
146
0.71
147
0.06
176
   256
177
   256
178
     2
274
     4
284
     7
288
     1
289
     0
340
11
371
    -1
372
    -1
  0
DIMSTYLE
105
2E1B
330
A
100
AcDbSymbolTableRecord
100
AcDbDimStyleTableRecord
  2
AM_ANSI$7
 70
     0
  4
mm
 41
0.1
 42
0.05
 43
0.5
 44
0.1
 47
0.1
 48
0.1
 78
     7
 79
     2
140
0.24
141
0.0
146
0.71
147
0.06
176
   256
177
   256
178
     2
274
     4
284
     7
340
11
371
    -1
372
    -1
  0
DIMSTYLE
105
2E1C
330
A
100
AcDbSymbolTableRecord
100
AcDbDimStyleTableRecord
  2
AM_ANSI$SF
 70
     0
  4
mm
 41
0.1
 42
0.05
 43
0.5
 44
0.1
 47
0.1
 48
0.1
 75
     1
 76
     1
 78
     7
 79
     2
140
0.12
141
0.0
146
0.71
147
0.06
176
   256
177
   256
178
     2
274
     4
284
     7
340
11
371
    -1
372
    -1
  0
DIMSTYLE
105
2E1D
330
A
100
AcDbSymbolTableRecord
100
AcDbDimStyleTableRecord
  2
AM_ANSI$SH
 70
     0
  4
mm
 41
0.1
 42
0.05
 43
0.5
 44
0.1
 47
0.1
 48
0.1
 75
     1
 76
     1
 78
     7
 79
     2
140
0.12
141
0.0
146
0.71
147
0.06
173
     1
176
   256
177
   256
178
     2
274
     4
284
     7
340
11
343
87
371
    -1
372
    -1
  0
ENDTAB
  0
TABLE
  2
BLOCK_RECORD
  5
1
330
0
100
AcDbSymbolTable
 70
    13
  0
BLOCK_RECORD
  5
1F
102
{ACAD_XDICTIONARY
360
8F
102
}
330
1
100
AcDbSymbolTableRecord
100
AcDbBlockTableRecord
  2
*Model_Space
340
22
  0
BLOCK_RECORD
  5
1B
330
1
100
AcDbSymbolTableRecord
100
AcDbBlockTableRecord
  2
*Paper_Space
340
1E
  0
BLOCK_RECORD
  5
23
330
1
100
AcDbSymbolTableRecord
100
AcDbBlockTableRecord
  2
*Paper_Space0
340
26
  0
BLOCK_RECORD
  5
87
330
1
100
AcDbSymbolTableRecord
100
AcDbBlockTableRecord
  2
GENAXEH
340
0
  0
BLOCK_RECORD
  5
103
330
1
100
AcDbSymbolTableRecord
100
AcDbBlockTableRecord
  2
*U2
340
0
  0
BLOCK_RECORD
  5
217
330
1
100
AcDbSymbolTableRecord
100
AcDbBlockTableRecord
  2
_Open30
340
0
102
{BLKREFS
331
11FAB
331
11FAC
331
11FB5
331
11FB6
331
120BE
331
120BF
331
11FD6
331
11FD7
331
11FE0
331
11FE1
331
120B5
331
120B6
331
120AC
331
120AD
331
12171
102
}
  0
BLOCK_RECORD
  5
F9BD
330
1
100
AcDbSymbolTableRecord
100
AcDbBlockTableRecord
  2
*D4
340
0
  0
BLOCK_RECORD
  5
F9F3
330
1
100
AcDbSymbolTableRecord
100
AcDbBlockTableRecord
  2
*D5
340
0
  0
BLOCK_RECORD
  5
FA68
330
1
100
AcDbSymbolTableRecord
100
AcDbBlockTableRecord
  2
*D6
340
0
  0
BLOCK_RECORD
  5
FB73
330
1
100
AcDbSymbolTableRecord
100
AcDbBlockTableRecord
  2
*D7
340
0
  0
BLOCK_RECORD
  5
FC11
330
1
100
AcDbSymbolTableRecord
100
AcDbBlockTableRecord
  2
*D8
340
0
  0
BLOCK_RECORD
  5
FE01
330
1
100
AcDbSymbolTableRecord
100
AcDbBlockTableRecord
  2
*D10
340
0
  0
BLOCK_RECORD
  5
10AA0
330
1
100
AcDbSymbolTableRecord
100
AcDbBlockTableRecord
  2
*D11
340
0
  0
BLOCK_RECORD
  5
12132
330
1
100
AcDbSymbolTableRecord
100
AcDbBlockTableRecord
  2
*D12
340
0
  0
ENDTAB
  0
ENDSEC
  0
SECTION
  2
BLOCKS
  0
BLOCK
  5
20
330
1F
100
AcDbEntity
  8
0
100
AcDbBlockBegin
  2
*Model_Space
 70
     0
 71
     0
 10
0.0
 20
0.0
 30
0.0
  3
*Model_Space
  1

  0
ENDBLK
  5
21
330
1F
100
AcDbEntity
  8
0
100
AcDbBlockEnd
  0
BLOCK
  5
1C
330
1B
100
AcDbEntity
 67
     1
  8
0
100
AcDbBlockBegin
  2
*Paper_Space
 70
     0
 71
     0
 10
0.0
 20
0.0
 30
0.0
  3
*Paper_Space
  1

  0
ENDBLK
  5
1D
330
1B
100
AcDbEntity
 67
     1
  8
0
100
AcDbBlockEnd
  0
BLOCK
  5
24
330
23
100
AcDbEntity
  8
0
100
AcDbBlockBegin
  2
*Paper_Space0
 70
     0
 71
     0
 10
0.0
 20
0.0
 30
0.0
  3
*Paper_Space0
  1

  0
ENDBLK
  5
25
330
23
100
AcDbEntity
  8
0
100
AcDbBlockEnd
  0
BLOCK
  5
89
330
87
100
AcDbEntity
  8
0
100
AcDbBlockBegin
  2
GENAXEH
 70
     0
 71
     0
 10
0.0
 20
0.0
 30
0.0
  3
GENAXEH
  1

  0
LINE
  5
88
330
87
100
AcDbEntity
  8
0
100
AcDbLine
 10
-1.0
 20
0.0
 30
0.0
 11
1.0
 21
0.0
 31
0.0
  0
ENDBLK
  5
8A
330
87
100
AcDbEntity
  8
0
100
AcDbBlockEnd
  0
BLOCK
  5
104
330
103
100
AcDbEntity
  8
0
100
AcDbBlockBegin
  2
*U2
 70
     1
 71
     0
 10
0.0
 20
0.0
 30
0.0
  3
*U2
  1

  0
ENDBLK
  5
105
330
103
100
AcDbEntity
  8
0
100
AcDbBlockEnd
  0
BLOCK
  5
21B
330
217
100
AcDbEntity
  8
0
100
AcDbBlockBegin
  2
_Open30
 70
     0
 71
     0
 10
0.0
 20
0.0
 30
0.0
  3
_Open30
  1

  0
LINE
  5
218
330
217
100
AcDbEntity
  8
0
  6
ByBlock
 62
     0
370
    -2
100
AcDbLine
 10
-1.0
 20
0.26794919
 30
0.0
 11
0.0
 21
0.0
 31
0.0
  0
LINE
  5
219
330
217
100
AcDbEntity
  8
0
  6
ByBlock
 62
     0
370
    -2
100
AcDbLine
 10
0.0
 20
0.0
 30
0.0
 11
-1.0
 21
-0.26794919
 31
0.0
  0
LINE
  5
21A
330
217
100
AcDbEntity
  8
0
  6
ByBlock
 62
     0
370
    -2
100
AcDbLine
 10
0.0
 20
0.0
 30
0.0
 11
-1.0
 21
0.0
 31
0.0
  0
ENDBLK
  5
21C
330
217
100
AcDbEntity
  8
0
100
AcDbBlockEnd
  0
BLOCK
  5
FA14
330
F9BD
100
AcDbEntity
  8
0
100
AcDbBlockBegin
  2
*D4
 70
     1
 71
     0
 10
0.0
 20
0.0
 30
0.0
  3
*D4
  1

  0
LINE
  5
11FA8
330
F9BD
100
AcDbEntity
  8
AM_5
100
AcDbLine
 10
50.34912524074758
 20
173.8430331847749
 30
0.0
 11
27.58235700487217
 21
173.8430331847749
 31
0.0
  0
LINE
  5
11FA9
330
F9BD
100
AcDbEntity
  8
AM_5
100
AcDbLine
 10
50.34912524074758
 20
148.8430331847749
 30
0.0
 11
27.58235700487217
 21
148.8430331847749
 31
0.0
  0
LINE
  5
11FAA
330
F9BD
100
AcDbEntity
  8
AM_5
100
AcDbLine
 10
28.58235700487217
 20
171.3430331847749
 30
0.0
 11
28.58235700487217
 21
151.3430331847749
 31
0.0
  0
INSERT
  5
11FAB
330
F9BD
100
AcDbEntity
  8
AM_5
100
AcDbBlockReference
  2
_Open30
 10
28.58235700487217
 20
173.8430331847749
 30
0.0
 41
2.5
 42
2.5
 43
2.5
 50
90.0
  0
INSERT
  5
11FAC
330
F9BD
100
AcDbEntity
  8
AM_5
100
AcDbBlockReference
  2
_Open30
 10
28.58235700487217
 20
148.8430331847749
 30
0.0
 41
2.5
 42
2.5
 43
2.5
 50
270.0
  0
MTEXT
  5
11FAD
330
F9BD
100
AcDbEntity
  8
AM_5
 62
     2
100
AcDbMText
 10
25.18198298912411
 20
161.3430331847749
 30
0.0
 40
3.8
 41
0.0
 71
     5
 72
     1
  1
25
 11
6.123031769111886E-17
 21
1.0
 31
0.0
 73
     1
 44
1.0
  0
POINT
  5
11FAE
330
F9BD
100
AcDbEntity
  8
Defpoints
 62
     0
100
AcDbPoint
 10
50.34912524074758
 20
173.8430331847749
 30
0.0
  0
POINT
  5
11FAF
330
F9BD
100
AcDbEntity
  8
Defpoints
 62
     0
100
AcDbPoint
 10
50.34912524074758
 20
148.8430331847749
 30
0.0
  0
POINT
  5
11FB0
330
F9BD
100
AcDbEntity
  8
Defpoints
 62
     0
100
AcDbPoint
 10
28.58235700487217
 20
148.8430331847749
 30
0.0
  0
ENDBLK
  5
FA15
330
F9BD
100
AcDbEntity
  8
0
100
AcDbBlockEnd
  0
BLOCK
  5
FA16
330
F9F3
100
AcDbEntity
  8
0
100
AcDbBlockBegin
  2
*D5
 70
     1
 71
     0
 10
0.0
 20
0.0
 30
0.0
  3
*D5
  1

  0
LINE
  5
11FB2
330
F9F3
100
AcDbEntity
  8
AM_5
100
AcDbLine
 10
50.34912524074758
 20
81.74984218772352
 30
0.0
 11
26.99619672826475
 21
81.74984218772353
 31
0.0
  0
LINE
  5
11FB3
330
F9F3
100
AcDbEntity
  8
AM_5
100
AcDbLine
 10
50.34912524074758
 20
56.74984218772352
 30
0.0
 11
26.99619672826475
 21
56.74984218772352
 31
0.0
  0
LINE
  5
11FB4
330
F9F3
100
AcDbEntity
  8
AM_5
100
AcDbLine
 10
27.99619672826475
 20
79.24984218772353
 30
0.0
 11
27.99619672826475
 21
59.24984218772352
 31
0.0
  0
INSERT
  5
11FB5
330
F9F3
100
AcDbEntity
  8
AM_5
100
AcDbBlockReference
  2
_Open30
 10
27.99619672826475
 20
81.74984218772353
 30
0.0
 41
2.5
 42
2.5
 43
2.5
 50
90.0
  0
INSERT
  5
11FB6
330
F9F3
100
AcDbEntity
  8
AM_5
100
AcDbBlockReference
  2
_Open30
 10
27.99619672826475
 20
56.74984218772352
 30
0.0
 41
2.5
 42
2.5
 43
2.5
 50
270.0
  0
MTEXT
  5
11FB7
330
F9F3
100
AcDbEntity
  8
AM_5
 62
     2
100
AcDbMText
 10
24.59582271251671
 20
69.24984218772353
 30
0.0
 40
3.8
 41
0.0
 71
     5
 72
     1
  1
25
 11
6.123031769111886E-17
 21
1.0
 31
0.0
 73
     1
 44
1.0
  0
POINT
  5
11FB8
330
F9F3
100
AcDbEntity
  8
Defpoints
 62
     0
100
AcDbPoint
 10
50.34912524074758
 20
81.74984218772352
 30
0.0
  0
POINT
  5
11FB9
330
F9F3
100
AcDbEntity
  8
Defpoints
 62
     0
100
AcDbPoint
 10
50.34912524074758
 20
56.74984218772352
 30
0.0
  0
POINT
  5
11FBA
330
F9F3
100
AcDbEntity
  8
Defpoints
 62
     0
100
AcDbPoint
 10
27.99619672826475
 20
56.74984218772352
 30
0.0
  0
ENDBLK
  5
FA17
330
F9F3
100
AcDbEntity
  8
0
100
AcDbBlockEnd
  0
BLOCK
  5
FA8B
330
FA68
100
AcDbEntity
  8
0
100
AcDbBlockBegin
  2
*D6
 70
     1
 71
     0
 10
0.0
 20
0.0
 30
0.0
  3
*D6
  1

  0
LINE
  5
120BB
330
FA68
100
AcDbEntity
  8
AM_5
100
AcDbLine
 10
50.34912524074758
 20
148.8430331847749
 30
0.0
 11
50.34912524074758
 21
118.2251059469695
 31
0.0
  0
LINE
  5
120BC
330
FA68
100
AcDbEntity
  8
AM_5
100
AcDbLine
 10
200.3491252407476
 20
81.77408623440584
 30
0.0
 11
200.3491252407476
 21
120.2251059469695
 31
0.0
  0
LINE
  5
120BD
330
FA68
100
AcDbEntity
  8
AM_5
100
AcDbLine
 10
52.84912524074758
 20
119.2251059469695
 30
0.0
 11
197.8491252407476
 21
119.2251059469695
 31
0.0
  0
INSERT
  5
120BE
330
FA68
100
AcDbEntity
  8
AM_5
100
AcDbBlockReference
  2
_Open30
 10
50.34912524074758
 20
119.2251059469695
 30
0.0
 41
2.5
 42
2.5
 43
2.5
 50
180.0
  0
INSERT
  5
120BF
330
FA68
100
AcDbEntity
  8
AM_5
100
AcDbBlockReference
  2
_Open30
 10
200.3491252407476
 20
119.2251059469695
 30
0.0
 41
2.5
 42
2.5
 43
2.5
  0
MTEXT
  5
120C0
330
FA68
100
AcDbEntity
  8
AM_5
 62
     2
100
AcDbMText
 10
122.2105883153623
 20
122.6251059469695
 30
0.0
 40
3.8
 41
0.0
 71
     5
 72
     1
  1
150
 73
     1
 44
1.0
  0
POINT
  5
120C1
330
FA68
100
AcDbEntity
  8
Defpoints
 62
     0
100
AcDbPoint
 10
50.34912524074758
 20
148.8430331847749
 30
0.0
  0
POINT
  5
120C2
330
FA68
100
AcDbEntity
  8
Defpoints
 62
     0
100
AcDbPoint
 10
200.3491252407476
 20
81.77408623440584
 30
0.0
  0
POINT
  5
120C3
330
FA68
100
AcDbEntity
  8
Defpoints
 62
     0
100
AcDbPoint
 10
200.3491252407476
 20
119.2251059469695
 30
0.0
  0
ENDBLK
  5
FA8C
330
FA68
100
AcDbEntity
  8
0
100
AcDbBlockEnd
  0
BLOCK
  5
FBA5
330
FB73
100
AcDbEntity
  8
0
100
AcDbBlockBegin
  2
*D7
 70
     1
 71
     0
 10
0.0
 20
0.0
 30
0.0
  3
*D7
  1

  0
LINE
  5
11FD1
330
FB73
100
AcDbEntity
  8
AM_5
100
AcDbLine
 10
200.3485163950213
 20
150.543155019371
 30
0.0
 11
210.2690834588418
 21
150.543155019371
 31
0.0
  0
LINE
  5
11FD2
330
FB73
100
AcDbEntity
  8
AM_5
100
AcDbLine
 10
200.3491252407476
 20
145.0430941020729
 30
0.0
 11
210.2690834588418
 21
145.0430941020729
 31
0.0
  0
LINE
  5
11FD3
330
FB73
100
AcDbEntity
  8
AM_5
100
AcDbLine
 10
209.2690834588418
 20
142.5430941020729
 30
0.0
 11
209.2690834588418
 21
140.0430941020729
 31
0.0
  0
LINE
  5
11FD4
330
FB73
100
AcDbEntity
  8
AM_5
100
AcDbLine
 10
209.2690834588418
 20
153.043155019371
 30
0.0
 11
209.2690834588418
 21
164.0205561730728
 31
0.0
  0
LINE
  5
11FD5
330
FB73
100
AcDbEntity
  8
AM_5
100
AcDbLine
 10
209.2690834588418
 20
145.0430941020729
 30
0.0
 11
209.2690834588418
 21
150.543155019371
 31
0.0
  0
INSERT
  5
11FD6
330
FB73
100
AcDbEntity
  8
AM_5
100
AcDbBlockReference
  2
_Open30
 10
209.2690834588418
 20
145.0430941020729
 30
0.0
 41
2.5
 42
2.5
 43
2.5
 50
90.0
  0
INSERT
  5
11FD7
330
FB73
100
AcDbEntity
  8
AM_5
100
AcDbBlockReference
  2
_Open30
 10
209.2690834588418
 20
150.543155019371
 30
0.0
 41
2.5
 42
2.5
 43
2.5
 50
270.0
  0
MTEXT
  5
11FD8
330
FB73
100
AcDbEntity
  8
AM_5
 62
     2
100
AcDbMText
 10
205.8690834588417
 20
159.7818555962219
 30
0.0
 40
3.8
 41
0.0
 71
     5
 72
     1
  1
5.5
 11
6.123031769111886E-17
 21
1.0
 31
0.0
 73
     1
 44
1.0
  0
POINT
  5
11FD9
330
FB73
100
AcDbEntity
  8
Defpoints
 62
     0
100
AcDbPoint
 10
200.3485163950213
 20
150.543155019371
 30
0.0
  0
POINT
  5
11FDA
330
FB73
100
AcDbEntity
  8
Defpoints
 62
     0
100
AcDbPoint
 10
200.3491252407476
 20
145.0430941020729
 30
0.0
  0
POINT
  5
11FDB
330
FB73
100
AcDbEntity
  8
Defpoints
 62
     0
100
AcDbPoint
 10
209.2690834588418
 20
145.0430941020729
 30
0.0
  0
ENDBLK
  5
FBA6
330
FB73
100
AcDbEntity
  8
0
100
AcDbBlockEnd
  0
BLOCK
  5
FC32
330
FC11
100
AcDbEntity
  8
0
100
AcDbBlockBegin
  2
*D8
 70
     1
 71
     0
 10
0.0
 20
0.0
 30
0.0
  3
*D8
  1

  0
LINE
  5
11FDD
330
FC11
100
AcDbEntity
  8
AM_5
100
AcDbLine
 10
200.1421453414071
 20
145.0429722674768
 30
0.0
 11
222.756661687042
 21
145.0429722674768
 31
0.0
  0
LINE
  5
11FDE
330
FC11
100
AcDbEntity
  8
AM_5
100
AcDbLine
 10
187.6491252407476
 20
173.8430331847749
 30
0.0
 11
222.756661687042
 21
173.8430331847748
 31
0.0
  0
LINE
  5
11FDF
330
FC11
100
AcDbEntity
  8
AM_5
100
AcDbLine
 10
221.756661687042
 20
147.5429722674768
 30
0.0
 11
221.756661687042
 21
171.3430331847748
 31
0.0
  0
INSERT
  5
11FE0
330
FC11
100
AcDbEntity
  8
AM_5
100
AcDbBlockReference
  2
_Open30
 10
221.756661687042
 20
145.0429722674768
 30
0.0
 41
2.5
 42
2.5
 43
2.5
 50
270.0
  0
INSERT
  5
11FE1
330
FC11
100
AcDbEntity
  8
AM_5
100
AcDbBlockReference
  2
_Open30
 10
221.756661687042
 20
173.8430331847748
 30
0.0
 41
2.5
 42
2.5
 43
2.5
 50
90.0
  0
MTEXT
  5
11FE2
330
FC11
100
AcDbEntity
  8
AM_5
 62
     2
100
AcDbMText
 10
218.3562876712939
 20
159.4430027261259
 30
0.0
 40
3.8
 41
0.0
 71
     5
 72
     1
  1
28.8
 11
6.123031769111886E-17
 21
1.0
 31
0.0
 73
     1
 44
1.0
  0
POINT
  5
11FE3
330
FC11
100
AcDbEntity
  8
Defpoints
 62
     0
100
AcDbPoint
 10
200.1421453414071
 20
145.0429722674768
 30
0.0
  0
POINT
  5
11FE4
330
FC11
100
AcDbEntity
  8
Defpoints
 62
     0
100
AcDbPoint
 10
187.6491252407476
 20
173.8430331847749
 30
0.0
  0
POINT
  5
11FE5
330
FC11
100
AcDbEntity
  8
Defpoints
 62
     0
100
AcDbPoint
 10
221.756661687042
 20
173.8430331847748
 30
0.0
  0
ENDBLK
  5
FC33
330
FC11
100
AcDbEntity
  8
0
100
AcDbBlockEnd
  0
BLOCK
  5
FE2B
330
FE01
100
AcDbEntity
  8
0
100
AcDbBlockBegin
  2
*D10
 70
     1
 71
     0
 10
0.0
 20
0.0
 30
0.0
  3
*D10
  1

  0
LINE
  5
120B2
330
FE01
100
AcDbEntity
  8
AM_5
100
AcDbLine
 10
187.6491252407476
 20
56.74984218772352
 30
0.0
 11
223.2168085813753
 21
56.74984218772351
 31
0.0
  0
LINE
  5
120B3
330
FE01
100
AcDbEntity
  8
AM_5
100
AcDbLine
 10
200.3491252407476
 20
81.77408623440584
 30
0.0
 11
223.2168085813753
 21
81.77408623440584
 31
0.0
  0
LINE
  5
120B4
330
FE01
100
AcDbEntity
  8
AM_5
100
AcDbLine
 10
222.2168085813753
 20
59.24984218772351
 30
0.0
 11
222.2168085813753
 21
79.27408623440584
 31
0.0
  0
INSERT
  5
120B5
330
FE01
100
AcDbEntity
  8
AM_5
100
AcDbBlockReference
  2
_Open30
 10
222.2168085813753
 20
56.74984218772351
 30
0.0
 41
2.5
 42
2.5
 43
2.5
 50
270.0
  0
INSERT
  5
120B6
330
FE01
100
AcDbEntity
  8
AM_5
100
AcDbBlockReference
  2
_Open30
 10
222.2168085813753
 20
81.77408623440584
 30
0.0
 41
2.5
 42
2.5
 43
2.5
 50
90.0
  0
MTEXT
  5
120B7
330
FE01
100
AcDbEntity
  8
AM_5
 62
     2
100
AcDbMText
 10
218.8164345656272
 20
69.26196421106471
 30
0.0
 40
3.8
 41
0.0
 71
     5
 72
     1
  1
25
 11
6.123031769111886E-17
 21
1.0
 31
0.0
 73
     1
 44
1.0
  0
POINT
  5
120B8
330
FE01
100
AcDbEntity
  8
Defpoints
 62
     0
100
AcDbPoint
 10
187.6491252407476
 20
56.74984218772352
 30
0.0
  0
POINT
  5
120B9
330
FE01
100
AcDbEntity
  8
Defpoints
 62
     0
100
AcDbPoint
 10
200.3491252407476
 20
81.77408623440584
 30
0.0
  0
POINT
  5
120BA
330
FE01
100
AcDbEntity
  8
Defpoints
 62
     0
100
AcDbPoint
 10
222.2168085813753
 20
81.77408623440584
 30
0.0
  0
ENDBLK
  5
FE2C
330
FE01
100
AcDbEntity
  8
0
100
AcDbBlockEnd
  0
BLOCK
  5
10ACA
330
10AA0
100
AcDbEntity
  8
0
100
AcDbBlockBegin
  2
*D11
 70
     1
 71
     0
 10
0.0
 20
0.0
 30
0.0
  3
*D11
  1

  0
LINE
  5
120A9
330
10AA0
100
AcDbEntity
  8
AM_5
100
AcDbLine
 10
159.0491252407476
 20
81.92984218772352
 30
0.0
 11
159.0491252407476
 21
110.5118801473942
 31
0.0
  0
LINE
  5
120AA
330
10AA0
100
AcDbEntity
  8
AM_5
100
AcDbLine
 10
200.3491252407476
 20
81.77408623440584
 30
0.0
 11
200.3491252407476
 21
110.5118801473942
 31
0.0
  0
LINE
  5
120AB
330
10AA0
100
AcDbEntity
  8
AM_5
100
AcDbLine
 10
161.5491252407476
 20
109.5118801473942
 30
0.0
 11
197.8491252407476
 21
109.5118801473942
 31
0.0
  0
INSERT
  5
120AC
330
10AA0
100
AcDbEntity
  8
AM_5
100
AcDbBlockReference
  2
_Open30
 10
159.0491252407476
 20
109.5118801473942
 30
0.0
 41
2.5
 42
2.5
 43
2.5
 50
180.0
  0
INSERT
  5
120AD
330
10AA0
100
AcDbEntity
  8
AM_5
100
AcDbBlockReference
  2
_Open30
 10
200.3491252407476
 20
109.5118801473942
 30
0.0
 41
2.5
 42
2.5
 43
2.5
  0
MTEXT
  5
120AE
330
10AA0
100
AcDbEntity
  8
AM_5
 62
     2
100
AcDbMText
 10
179.6991252407476
 20
112.9118801473942
 30
0.0
 40
3.8
 41
0.0
 71
     5
 72
     1
  1
41.3
 73
     1
 44
1.0
  0
POINT
  5
120AF
330
10AA0
100
AcDbEntity
  8
Defpoints
 62
     0
100
AcDbPoint
 10
159.0491252407476
 20
81.92984218772352
 30
0.0
  0
POINT
  5
120B0
330
10AA0
100
AcDbEntity
  8
Defpoints
 62
     0
100
AcDbPoint
 10
200.3491252407476
 20
81.77408623440584
 30
0.0
  0
POINT
  5
120B1
330
10AA0
100
AcDbEntity
  8
Defpoints
 62
     0
100
AcDbPoint
 10
200.3491252407476
 20
109.5118801473942
 30
0.0
  0
ENDBLK
  5
10ACB
330
10AA0
100
AcDbEntity
  8
0
100
AcDbBlockEnd
  0
BLOCK
  5
12163
330
12132
100
AcDbEntity
  8
0
100
AcDbBlockBegin
  2
*D12
 70
     1
 71
     0
 10
0.0
 20
0.0
 30
0.0
  3
*D12
  1

  0
LINE
  5
12170
330
12132
100
AcDbEntity
  8
AM_5
100
AcDbLine
 10
244.7916486139019
 20
81.7740862344059
 30
0.0
 11
269.484396129037
 21
69.66961515328129
 31
0.0
  0
INSERT
  5
12171
330
12132
100
AcDbEntity
  8
AM_5
100
AcDbBlockReference
  2
_Open30
 10
271.7291913576856
 20
68.56920869136083
 30
0.0
 41
2.5
 42
2.5
 43
2.5
 50
333.8857448566288
  0
MTEXT
  5
12172
330
12132
100
AcDbEntity
  8
AM_5
 62
     2
100
AcDbMText
 10
259.3731060719923
 20
77.82805592480261
 30
0.0
 40
2.5
 41
0.0
 71
     5
 72
     1
  1
%%c60(加工径)
 11
0.8979180914594619
 21
-0.4401625847681712
 31
0.0
 73
     1
 44
1.0
  0
POINT
  5
12173
330
12132
100
AcDbEntity
  8
Defpoints
 62
     0
100
AcDbPoint
 10
271.7291913576856
 20
68.56920869136083
 30
0.0
  0
POINT
  5
12174
330
12132
100
AcDbEntity
  8
Defpoints
 62
     0
100
AcDbPoint
 10
244.7916486139019
 20
81.7740862344059
 30
0.0
  0
ENDBLK
  5
12164
330
12132
100
AcDbEntity
  8
0
100
AcDbBlockEnd
  0
ENDSEC
  0
SECTION
  2
ENTITIES
  0
CIRCLE
  5
DAD4
330
1F
100
AcDbEntity
  8
AM_0
100
AcDbCircle
 10
174.7491252407476
 20
159.6430331847749
 30
0.0
 40
7.15
  0
LINE
  5
DADA
330
1F
100
AcDbEntity
  8
AM_0
100
AcDbLine
 10
165.0491252407477
 20
150.7430331847748
 30
0.0
 11
159.2491252407476
 21
150.7430331847748
 31
0.0
  0
LINE
  5
DADB
330
1F
100
AcDbEntity
  8
AM_0
100
AcDbLine
 10
165.0491252407477
 20
150.7430331847748
 30
0.0
 11
165.0491252407477
 21
172.3430331847749
 31
0.0
  0
LINE
  5
DADC
330
1F
100
AcDbEntity
  8
AM_0
100
AcDbLine
 10
165.0491252407477
 20
172.3430331847749
 30
0.0
 11
187.0491252407477
 21
172.3430331847749
 31
0.0
  0
LINE
  5
DADD
330
1F
100
AcDbEntity
  8
AM_0
100
AcDbLine
 10
187.0491252407477
 20
172.3430331847749
 30
0.0
 11
187.0491252407477
 21
149.5530331847749
 31
0.0
  0
LINE
  5
DAE0
330
1F
100
AcDbEntity
  8
AM_0
100
AcDbLine
 10
175.4625250587027
 20
145.4230331847749
 30
0.0
 11
159.2491252407476
 21
145.4230331847749
 31
0.0
  0
LINE
  5
DAE1
330
1F
100
AcDbEntity
  8
AM_0
100
AcDbLine
 10
159.2491252407476
 20
145.4230331847749
 30
0.0
 11
159.2491252407476
 21
150.7430331847748
 31
0.0
  0
LINE
  5
DB1B
330
1F
100
AcDbEntity
  8
AM_0
100
AcDbLine
 10
180.7191252407476
 20
153.2030331847749
 30
0.0
 11
187.0491252407477
 21
159.5330331847749
 31
0.0
  0
LINE
  5
DB1D
330
1F
100
AcDbEntity
  8
AM_0
100
AcDbLine
 10
180.7191252407476
 20
149.5665747242655
 30
0.0
 11
180.7191252407476
 21
153.2030331847749
 31
0.0
  0
LINE
  5
DB1E
330
1F
100
AcDbEntity
  8
AM_0
100
AcDbLine
 10
180.7191252407476
 20
153.2030331847749
 30
0.0
 11
187.0491252407477
 21
153.2030331847749
 31
0.0
  0
LINE
  5
E17A
330
1F
100
AcDbEntity
  8
AM_0
100
AcDbLine
 10
159.0491252407476
 20
152.9430331847749
 30
0.0
 11
159.0491252407476
 21
137.8530331847749
 31
0.0
  0
LINE
  5
E17B
330
1F
100
AcDbEntity
  8
AM_0
100
AcDbLine
 10
159.0491252407476
 20
137.8530331847749
 30
0.0
 11
189.1391252407476
 21
137.8530331847749
 31
0.0
  0
LINE
  5
E17C
330
1F
100
AcDbEntity
  8
AM_0
100
AcDbLine
 10
189.1391252407476
 20
137.8530331847749
 30
0.0
 11
199.4591252407475
 21
137.8530331847749
 31
0.0
  0
LINE
  5
E17D
330
1F
100
AcDbEntity
  8
AM_0
100
AcDbLine
 10
187.0491252407477
 20
149.7430331847748
 30
0.0
 11
189.1391252407476
 21
149.7430331847749
 31
0.0
  0
LINE
  5
E17E
330
1F
100
AcDbEntity
  8
AM_0
100
AcDbLine
 10
178.0991252407475
 20
137.8530331847749
 30
0.0
 11
178.0991252407475
 21
144.3279992292158
 31
0.0
  0
LINE
  5
E180
330
1F
100
AcDbEntity
  8
AM_0
100
AcDbLine
 10
189.1391252407476
 20
152.9430331847749
 30
0.0
 11
189.1391252407476
 21
149.7430331847749
 31
0.0
  0
LINE
  5
E181
330
1F
100
AcDbEntity
  8
AM_0
100
AcDbLine
 10
189.1391252407476
 20
149.7430331847749
 30
0.0
 11
189.1391252407476
 21
149.5530331847749
 31
0.0
  0
LINE
  5
E183
330
1F
100
AcDbEntity
  8
AM_0
100
AcDbLine
 10
178.0991252407475
 20
143.3204691545076
 30
0.0
 11
189.1391252407476
 21
143.3204691545076
 31
0.0
  0
LINE
  5
E184
330
1F
100
AcDbEntity
  8
AM_0
100
AcDbLine
 10
189.1391252407476
 20
143.3204691545076
 30
0.0
 11
189.1391252407476
 21
137.8530331847749
 31
0.0
  0
LINE
  5
E186
330
1F
100
AcDbEntity
  8
AM_0
100
AcDbLine
 10
199.4591252407475
 20
137.8530331847749
 30
0.0
 11
199.4591252407475
 21
145.0671253311235
 31
0.0
  0
LINE
  5
E188
330
1F
100
AcDbEntity
  8
AM_0
100
AcDbLine
 10
189.1391252407476
 20
143.3204691545076
 30
0.0
 11
189.1391252407476
 21
143.6758284546677
 31
0.0
  0
LINE
  5
E189
330
1F
100
AcDbEntity
  8
AM_0
100
AcDbLine
 10
189.6391252407476
 20
144.1758284546677
 30
0.0
 11
199.4591252407475
 21
144.1758284546677
 31
0.0
  0
ARC
  5
E18B
330
1F
100
AcDbEntity
  8
AM_0
100
AcDbCircle
 10
189.6391252407476
 20
143.6758284546677
 30
0.0
 40
0.5
100
AcDbArc
 50
90.0
 51
180.0000000000016
  0
LINE
  5
E484
330
1F
100
AcDbEntity
  8
AM_0
100
AcDbLine
 10
50.34912524074758
 20
173.8430331847749
 30
0.0
 11
187.6491252407476
 21
173.8430331847749
 31
0.0
  0
LINE
  5
E485
102
{ACAD_REACTORS
330
FC1C
102
}
330
1F
100
AcDbEntity
  8
AM_0
100
AcDbLine
 10
187.6491252407476
 20
173.8430331847749
 30
0.0
 11
187.6491252407476
 21
152.9430331847749
 31
0.0
  0
LINE
  5
E486
330
1F
100
AcDbEntity
  8
AM_0
100
AcDbLine
 10
159.0491252407476
 20
148.8430331847749
 30
0.0
 11
50.34912524074758
 21
148.8430331847749
 31
0.0
  0
LINE
  5
E487
102
{ACAD_REACTORS
330
F9C8
330
FA73
102
}
330
1F
100
AcDbEntity
  8
AM_0
100
AcDbLine
 10
50.34912524074758
 20
148.8430331847749
 30
0.0
 11
50.34912524074758
 21
173.8430331847749
 31
0.0
  0
LINE
  5
E48D
330
1F
100
AcDbEntity
  8
AM_0
100
AcDbLine
 10
159.0491252407476
 20
148.8430331847749
 30
0.0
 11
159.0491252407476
 21
152.9430331847749
 31
0.0
  0
LINE
  5
E48E
330
1F
100
AcDbEntity
  8
AM_0
100
AcDbLine
 10
187.0491252407477
 20
152.9430331847749
 30
0.0
 11
187.6491252407476
 21
152.9430331847749
 31
0.0
  0
LINE
  5
E711
330
1F
100
AcDbEntity
  8
AM_0
100
AcDbLine
 10
175.4591252407476
 20
81.77408623440584
 30
0.0
 11
200.3491252407476
 21
81.77408623440584
 31
0.0
  0
LINE
  5
E712
102
{ACAD_REACTORS
330
FA73
330
10AAB
102
}
330
1F
100
AcDbEntity
  8
AM_0
100
AcDbLine
 10
200.3491252407476
 20
81.77408623440584
 30
0.0
 11
199.7965947166846
 21
77.27408623440584
 31
0.0
  0
LINE
  5
E713
330
1F
100
AcDbEntity
  8
AM_0
100
AcDbLine
 10
178.0991252407476
 20
77.27408623440584
 30
0.0
 11
176.0116557648107
 21
77.27408623440584
 31
0.0
  0
LINE
  5
E714
330
1F
100
AcDbEntity
  8
AM_0
100
AcDbLine
 10
176.0116557648107
 20
77.27408623440584
 30
0.0
 11
175.4591252407476
 21
81.77408623440584
 31
0.0
  0
ARC
  5
E716
330
1F
100
AcDbEntity
  8
AM_0
100
AcDbCircle
 10
200.1491252407476
 20
145.2430331847748
 30
0.0
 40
0.2
100
AcDbArc
 50
267.999999999998
 51
0.0
  0
LINE
  5
E717
330
1F
100
AcDbEntity
  8
AM_0
100
AcDbLine
 10
175.4591252407476
 20
145.4230331847749
 30
0.0
 11
175.4591252407476
 21
144.4430331847748
 31
0.0
  0
LINE
  5
E718
330
1F
100
AcDbEntity
  8
AM_0
100
AcDbLine
 10
200.3455605718439
 20
150.3806252144766
 30
0.0
 11
200.3491252407475
 21
145.2430331847748
 31
0.0
  0
LINE
  5
E73C
330
1F
100
AcDbEntity
  8
AM_0
100
AcDbLine
 10
200.1421453414071
 20
145.043155019371
 30
0.0
 11
190.4137957533121
 21
145.382876472872
 31
0.0
  0
ARC
  5
E73D
330
1F
100
AcDbEntity
  8
AM_0
100
AcDbCircle
 10
190.3963460049608
 20
144.8831810593625
 30
0.0
 40
0.5
100
AcDbArc
 50
87.99999999999965
 51
135.5967191833025
  0
ARC
  5
E73E
330
1F
100
AcDbEntity
  8
AM_0
100
AcDbCircle
 10
181.9497691628922
 20
142.6930331847748
 30
0.0
 40
2.54
100
AcDbArc
 50
90.0
 51
137.8731135074891
  0
LINE
  5
E73F
330
1F
100
AcDbEntity
  8
AM_0
100
AcDbLine
 10
181.9497691628922
 20
145.2330331847749
 30
0.0
 11
190.0391296974601
 21
145.2330331847749
 31
0.0
  0
ARC
  5
E740
330
1F
100
AcDbEntity
  8
AM_0
100
AcDbCircle
 10
175.6591252407476
 20
144.4430331847748
 30
0.0
 40
0.2
100
AcDbArc
 50
180.0
 51
272.000000000002
  0
LINE
  5
E741
330
1F
100
AcDbEntity
  8
AM_0
100
AcDbLine
 10
175.6661051400881
 20
144.243155019371
 30
0.0
 11
180.0659498257332
 21
144.3968009814379
 31
0.0
  0
LINE
  5
E745
330
1F
100
AcDbEntity
  8
AM_0
100
AcDbLine
 10
193.858481318603
 20
149.5530331847749
 30
0.0
 11
187.0491252407477
 21
149.5530331847748
 31
0.0
  0
LINE
  5
E746
330
1F
100
AcDbEntity
  8
AM_0
100
AcDbLine
 10
200.1421453414071
 20
150.5429113501787
 30
0.0
 11
195.7423006557619
 21
150.3892653881118
 31
0.0
  0
ARC
  5
E747
330
1F
100
AcDbEntity
  8
AM_0
100
AcDbCircle
 10
200.1521123648204
 20
150.3466779331831
 30
0.0
 40
0.1964040302008778
100
AcDbArc
 50
9.952857146493267
 51
92.3883622460334
  0
ARC
  5
E748
330
1F
100
AcDbEntity
  8
AM_0
100
AcDbCircle
 10
193.858481318603
 20
152.0930331847749
 30
0.0
 40
2.54
100
AcDbArc
 50
270.0
 51
317.8731135074886
  0
CIRCLE
  5
E9A0
330
1F
100
AcDbEntity
  8
AM_4
100
AcDbCircle
 10
163.2491252407476
 20
75.74984218772352
 30
0.0
 40
2.0
  0
CIRCLE
  5
E9A1
330
1F
100
AcDbEntity
  8
AM_0
100
AcDbCircle
 10
163.2491252407476
 20
75.74984218772352
 30
0.0
 40
1.625
  0
LINE
  5
E9A6
102
{ACAD_REACTORS
330
10AAB
102
}
330
1F
100
AcDbEntity
  8
AM_0
100
AcDbLine
 10
159.0491252407476
 20
72.79984218772353
 30
0.0
 11
159.0491252407476
 21
81.92984218772352
 31
0.0
  0
LINE
  5
E9A7
330
1F
100
AcDbEntity
  8
AM_0
100
AcDbLine
 10
175.4954143935426
 20
81.16984218772353
 30
0.0
 11
176.424699700228
 21
73.60142071965151
 31
0.0
  0
LINE
  5
E9A8
330
1F
100
AcDbEntity
  8
AM_0
100
AcDbLine
 10
175.6231211682999
 20
72.79984218772353
 30
0.0
 11
159.0491252407476
 21
72.79984218772353
 31
0.0
  0
LINE
  5
E9A9
330
1F
100
AcDbEntity
  8
AM_0
100
AcDbLine
 10
159.6491252407476
 20
72.79984218772353
 30
0.0
 11
159.6491252407476
 21
81.92984218772352
 31
0.0
  0
LINE
  5
E9AA
330
1F
100
AcDbEntity
  8
AM_0
100
AcDbLine
 10
176.424699700228
 20
73.60142071965154
 30
0.0
 11
175.6231211682999
 21
72.79984218772353
 31
0.0
  0
LINE
  5
E9AC
330
1F
100
AcDbEntity
  8
AM_0
100
AcDbLine
 10
175.4954143935426
 20
81.16984218772353
 30
0.0
 11
172.6590557797902
 21
81.92984218772352
 31
0.0
  0
LINE
  5
EA20
330
1F
100
AcDbEntity
  8
AM_0
100
AcDbLine
 10
199.7965947166846
 20
77.27408623440584
 30
0.0
 11
199.4591252407476
 21
77.27408623440584
 31
0.0
  0
LINE
  5
EAFC
330
1F
100
AcDbEntity
  8
AM_0
100
AcDbLine
 10
187.6491252407476
 20
56.74984218772352
 30
0.0
 11
50.34912524074758
 21
56.74984218772352
 31
0.0
  0
LINE
  5
EAFD
102
{ACAD_REACTORS
330
F9FE
102
}
330
1F
100
AcDbEntity
  8
AM_0
100
AcDbLine
 10
50.34912524074758
 20
56.74984218772352
 30
0.0
 11
50.34912524074758
 21
81.74984218772352
 31
0.0
  0
LINE
  5
EAFE
102
{ACAD_REACTORS
330
F9FE
102
}
330
1F
100
AcDbEntity
  8
AM_0
100
AcDbLine
 10
50.34912524074758
 20
81.74984218772352
 30
0.0
 11
159.0491252407476
 21
81.74984218772352
 31
0.0
  0
LINE
  5
EAFF
102
{ACAD_REACTORS
330
FE0C
102
}
330
1F
100
AcDbEntity
  8
AM_0
100
AcDbLine
 10
187.6491252407476
 20
57.05984218772352
 30
0.0
 11
187.6491252407476
 21
56.74984218772352
 31
0.0
  0
LINE
  5
EB00
330
1F
100
AcDbEntity
  8
AM_0
100
AcDbLine
 10
159.0491252407475
 20
63.48984218772353
 30
0.0
 11
157.3491252407476
 21
63.48984218772353
 31
0.0
  0
LINE
  5
EB01
330
1F
100
AcDbEntity
  8
AM_0
100
AcDbLine
 10
154.3491252407476
 20
66.48984218772353
 30
0.0
 11
154.3491252407476
 21
68.42984218772352
 31
0.0
  0
LINE
  5
EB02
330
1F
100
AcDbEntity
  8
AM_0
100
AcDbLine
 10
157.3491252407476
 20
71.42984218772355
 30
0.0
 11
159.0491252407475
 21
71.42984218772352
 31
0.0
  0
ARC
  5
EB03
330
1F
100
AcDbEntity
  8
AM_0
100
AcDbCircle
 10
157.3491252407476
 20
68.42984218772352
 30
0.0
 40
3.0
100
AcDbArc
 50
90.0
 51
180.0
  0
ARC
  5
EB04
330
1F
100
AcDbEntity
  8
AM_0
100
AcDbCircle
 10
157.3491252407476
 20
66.48984218772353
 30
0.0
 40
3.0
100
AcDbArc
 50
180.0
 51
270.0
  0
LINE
  5
EB0A
330
1F
100
AcDbEntity
  8
AM_0
100
AcDbLine
 10
159.0491252407476
 20
71.42984218772355
 30
0.0
 11
159.0491252407476
 21
81.74984218772352
 31
0.0
  0
LINE
  5
EB0B
330
1F
100
AcDbEntity
  8
AM_0
100
AcDbLine
 10
159.0491252407476
 20
56.74984218772352
 30
0.0
 11
159.0491252407476
 21
63.48984218772353
 31
0.0
  0
LINE
  5
EBFB
330
1F
100
AcDbEntity
  8
AM_0
100
AcDbLine
 10
159.0491252407476
 20
72.79984218772353
 30
0.0
 11
159.0491252407476
 21
57.05984218772352
 31
0.0
  0
LINE
  5
EBFC
330
1F
100
AcDbEntity
  8
AM_0
100
AcDbLine
 10
159.0491252407476
 20
57.05984218772352
 30
0.0
 11
189.1391252407476
 21
57.05984218772352
 31
0.0
  0
LINE
  5
EBFD
330
1F
100
AcDbEntity
  8
AM_0
100
AcDbLine
 10
189.1391252407476
 20
57.05984218772352
 30
0.0
 11
189.1391252407476
 21
79.71984218772352
 31
0.0
  0
LINE
  5
EBFE
330
1F
100
AcDbEntity
  8
AM_0
100
AcDbLine
 10
189.1391252407476
 20
79.71984218772352
 30
0.0
 11
178.0991252407476
 21
79.71984218772352
 31
0.0
  0
LINE
  5
EBFF
330
1F
100
AcDbEntity
  8
AM_0
100
AcDbLine
 10
178.0991252407476
 20
79.71984218772352
 30
0.0
 11
178.0991252407476
 21
72.79984218772353
 31
0.0
  0
LINE
  5
EC00
330
1F
100
AcDbEntity
  8
AM_0
100
AcDbLine
 10
178.0991252407476
 20
72.79984218772353
 30
0.0
 11
159.0491252407476
 21
72.79984218772353
 31
0.0
  0
CIRCLE
  5
EC09
330
1F
100
AcDbEntity
  8
AM_4
100
AcDbCircle
 10
182.6491252407476
 20
67.45984218772352
 30
0.0
 40
2.0
  0
CIRCLE
  5
EC0A
330
1F
100
AcDbEntity
  8
AM_4
100
AcDbCircle
 10
168.0491252407476
 20
67.45984218772352
 30
0.0
 40
2.0
  0
CIRCLE
  5
EC0B
330
1F
100
AcDbEntity
  8
AM_0
100
AcDbCircle
 10
168.0491252407476
 20
67.45984218772352
 30
0.0
 40
1.625
  0
CIRCLE
  5
EC0C
330
1F
100
AcDbEntity
  8
AM_0
100
AcDbCircle
 10
182.6491252407476
 20
67.45984218772352
 30
0.0
 40
1.625
  0
LINE
  5
EC0D
330
1F
100
AcDbEntity
  8
AM_0
100
AcDbLine
 10
189.1391252407476
 20
79.71984218772352
 30
0.0
 11
199.4591252407475
 21
79.71984218772352
 31
0.0
  0
LINE
  5
EC0E
330
1F
100
AcDbEntity
  8
AM_0
100
AcDbLine
 10
199.4591252407475
 20
79.71984218772352
 30
0.0
 11
199.4591252407475
 21
61.68666969807526
 31
0.0
  0
LINE
  5
EC0F
330
1F
100
AcDbEntity
  8
AM_0
100
AcDbLine
 10
199.4591252407475
 20
61.68666969807526
 30
0.0
 11
189.1391252407476
 21
61.68666969807526
 31
0.0
  0
LINE
  5
EC10
330
1F
100
AcDbEntity
  8
AM_0
100
AcDbLine
 10
189.1391252407476
 20
64.54139056948975
 30
0.0
 11
199.4591252407475
 21
64.54139056948975
 31
0.0
  0
LINE
  5
EC12
330
1F
100
AcDbEntity
  8
AM_0
100
AcDbLine
 10
189.1391252407476
 20
79.34987796518661
 30
0.0
 11
199.4591252407475
 21
79.34987796518661
 31
0.0
  0
LINE
  5
EC13
330
1F
100
AcDbEntity
  8
AM_0
100
AcDbLine
 10
189.1391252407476
 20
78.8644828875635
 30
0.0
 11
199.4591252407475
 21
78.8644828875635
 31
0.0
  0
LINE
  5
ED82
330
1F
100
AcDbEntity
  8
AM_0
100
AcDbLine
 10
165.0491252407477
 20
152.9430331847749
 30
0.0
 11
159.0491252407476
 21
152.9430331847749
 31
0.0
  0
LINE
  5
ED83
330
1F
100
AcDbEntity
  8
AM_0
100
AcDbLine
 10
159.0491252407476
 20
152.3430331847749
 30
0.0
 11
159.0491252407476
 21
145.4430331847749
 31
0.0
  0
LINE
  5
ED84
330
1F
100
AcDbEntity
  8
AM_0
100
AcDbLine
 10
159.6491252407475
 20
144.8430331847749
 30
0.0
 11
175.4625250587027
 21
144.8430331847749
 31
0.0
  0
LINE
  5
ED86
330
1F
100
AcDbEntity
  8
AM_0
100
AcDbLine
 10
159.6491252407476
 20
144.8430331847749
 30
0.0
 11
159.0491252407476
 21
145.4430331847749
 31
0.0
  0
LINE
  5
ED87
330
1F
100
AcDbEntity
  8
AM_0
100
AcDbLine
 10
159.6491252407476
 20
152.9430331847749
 30
0.0
 11
159.0491252407476
 21
152.3430331847749
 31
0.0
  0
LINE
  5
ED8D
330
1F
100
AcDbEntity
  8
AM_0
100
AcDbLine
 10
172.6105558782336
 20
144.8430331847749
 30
0.0
 11
172.6105558782336
 21
145.4230331847749
 31
0.0
  0
LINE
  5
EE96
330
1F
100
AcDbEntity
  8
AM_0
100
AcDbLine
 10
159.0491252407476
 20
81.92984218772352
 30
0.0
 11
172.6590557797921
 21
81.92984218772301
 31
0.0
  0
LINE
  5
F401
330
1F
100
AcDbEntity
  8
AM_0
100
AcDbLine
 10
275.2716486139019
 20
79.74984218772352
 30
0.0
 11
274.4403117292708
 21
79.74984218772352
 31
0.0
  0
LINE
  5
F402
330
1F
100
AcDbEntity
  8
AM_0
100
AcDbLine
 10
268.842985498533
 20
79.74984218772352
 30
0.0
 11
263.3816486139019
 21
79.74984218772352
 31
0.0
  0
LINE
  5
F403
330
1F
100
AcDbEntity
  8
AM_0
100
AcDbLine
 10
263.3816486139019
 20
79.74984218772352
 30
0.0
 11
263.3816486139019
 21
57.08984218772352
 31
0.0
  0
LINE
  5
F404
330
1F
100
AcDbEntity
  8
AM_0
100
AcDbLine
 10
263.3816486139019
 20
57.08984218772352
 30
0.0
 11
275.2716486139019
 21
57.08984218772352
 31
0.0
  0
LINE
  5
F405
330
1F
100
AcDbEntity
  8
AM_0
100
AcDbLine
 10
275.2716486139019
 20
57.08984218772352
 30
0.0
 11
275.2716486139018
 21
63.48984218772353
 31
0.0
  0
LINE
  5
F406
330
1F
100
AcDbEntity
  8
AM_6
100
AcDbLine
 10
275.2716486139019
 20
63.48984218772353
 30
0.0
 11
278.4716486139019
 21
63.48984218772353
 31
0.0
  0
LINE
  5
F407
330
1F
100
AcDbEntity
  8
AM_6
100
AcDbLine
 10
275.2716486139019
 20
71.42984218772352
 30
0.0
 11
278.4716486139019
 21
71.42984218772352
 31
0.0
  0
LINE
  5
F408
330
1F
100
AcDbEntity
  8
AM_0
100
AcDbLine
 10
275.2716486139019
 20
71.42984218772352
 30
0.0
 11
275.2716486139019
 21
79.74984218772352
 31
0.0
  0
LINE
  5
F40E
330
1F
100
AcDbEntity
  8
AM_0
100
AcDbLine
 10
278.4716486139019
 20
71.42984218772352
 30
0.0
 11
278.4716486139019
 21
63.48984218772353
 31
0.0
  0
LINE
  5
F40F
330
1F
100
AcDbEntity
  8
AM_0
100
AcDbLine
 10
277.2716486139019
 20
81.74984218772352
 30
0.0
 11
293.6116486139019
 21
81.74984218772352
 31
0.0
  0
LINE
  5
F410
330
1F
100
AcDbEntity
  8
AM_0
100
AcDbLine
 10
298.1716486139019
 20
81.74984218772352
 30
0.0
 11
298.1716486139019
 21
56.74984218772352
 31
0.0
  0
LINE
  5
F411
330
1F
100
AcDbEntity
  8
AM_0
100
AcDbLine
 10
298.1716486139019
 20
56.74984218772352
 30
0.0
 11
275.2716486139019
 21
56.74984218772352
 31
0.0
  0
LINE
  5
F413
330
1F
100
AcDbEntity
  8
AM_0
100
AcDbLine
 10
275.2716486139018
 20
71.42984218772352
 30
0.0
 11
278.8716486139019
 21
71.42984218772352
 31
0.0
  0
LINE
  5
F414
330
1F
100
AcDbEntity
  8
AM_0
100
AcDbLine
 10
278.8716486139019
 20
71.42984218772352
 30
0.0
 11
278.8716486139019
 21
63.48984218772353
 31
0.0
  0
LINE
  5
F415
330
1F
100
AcDbEntity
  8
AM_0
100
AcDbLine
 10
278.8716486139019
 20
63.48984218772353
 30
0.0
 11
275.2716486139018
 21
63.48984218772353
 31
0.0
  0
LINE
  5
F416
330
1F
100
AcDbEntity
  8
AM_0
100
AcDbLine
 10
277.2716486139019
 20
81.74984218772352
 30
0.0
 11
277.2716486139019
 21
76.94984218772351
 31
0.0
  0
LINE
  5
F417
330
1F
100
AcDbEntity
  8
AM_0
100
AcDbLine
 10
277.2716486139019
 20
76.94984218772351
 30
0.0
 11
275.2716486139019
 21
76.94984218772351
 31
0.0
  0
LINE
  5
F418
330
1F
100
AcDbEntity
  8
AM_0
100
AcDbLine
 10
275.2716486139019
 20
76.94984218772351
 30
0.0
 11
275.2716486139019
 21
71.42984218772352
 31
0.0
  0
LINE
  5
F419
330
1F
100
AcDbEntity
  8
AM_0
100
AcDbLine
 10
275.2716486139019
 20
63.48984218772353
 30
0.0
 11
275.2716486139019
 21
56.74984218772352
 31
0.0
  0
LINE
  5
F41A
330
1F
100
AcDbEntity
  8
AM_0
100
AcDbLine
 10
293.6116486139019
 20
81.74984218772352
 30
0.0
 11
293.6116486139019
 21
80.24984218772352
 31
0.0
  0
LINE
  5
F41B
330
1F
100
AcDbEntity
  8
AM_0
100
AcDbLine
 10
296.7116486139018
 20
80.24984218772352
 30
0.0
 11
296.7116486139018
 21
81.74984218772352
 31
0.0
  0
LINE
  5
F423
330
1F
100
AcDbEntity
  8
AM_0
100
AcDbLine
 10
293.6116486139019
 20
80.24984218772352
 30
0.0
 11
296.7116486139018
 21
80.24984218772352
 31
0.0
  0
LINE
  5
F427
330
1F
100
AcDbEntity
  8
0
100
AcDbLine
 10
274.7916486139018
 20
81.77408623440584
 30
0.0
 11
269.2916486139018
 21
81.77408623440581
 31
0.0
  0
LINE
  5
F428
330
1F
100
AcDbEntity
  8
AM_0
100
AcDbLine
 10
269.2916486139018
 20
81.77408623440584
 30
0.0
 11
268.4916486139019
 21
81.77408623440584
 31
0.0
  0
LINE
  5
F429
330
1F
100
AcDbEntity
  8
AM_0
100
AcDbLine
 10
274.7916486139018
 20
81.77408623440584
 30
0.0
 11
274.5574547003142
 21
79.86672987082406
 31
0.0
  0
LINE
  5
F42A
330
1F
100
AcDbEntity
  8
AM_0
100
AcDbLine
 10
274.5574547003142
 20
79.86672987082406
 30
0.0
 11
271.6416486139018
 21
76.95727815745619
 31
0.0
  0
LINE
  5
F42B
330
1F
100
AcDbEntity
  8
AM_0
100
AcDbLine
 10
268.4916486139019
 20
81.77408623440584
 30
0.0
 11
268.7258425274895
 21
79.86672987082409
 31
0.0
  0
LINE
  5
F42D
330
1F
100
AcDbEntity
  8
AM_0
100
AcDbLine
 10
269.428345301659
 20
79.16575805055194
 30
0.0
 11
271.6416486139018
 21
76.95727815745622
 31
0.0
  0
LINE
  5
F42E
330
1F
100
AcDbEntity
  8
AM_0
100
AcDbLine
 10
269.428345301659
 20
79.16575805055194
 30
0.0
 11
268.7258425274895
 21
79.86672987082409
 31
0.0
  0
LINE
  5
F54C
330
1F
100
AcDbEntity
  8
AM_0
100
AcDbLine
 10
277.2716486139019
 20
81.74984218772352
 30
0.0
 11
274.7886718192755
 21
81.74984218772352
 31
0.0
  0
LINE
  5
F720
330
1F
100
AcDbEntity
  8
AM_0
100
AcDbLine
 10
278.0949106152422
 20
100.9685899481101
 30
0.0
 11
289.8449106152422
 21
100.9685899481101
 31
0.0
  0
LINE
  5
F84D
330
1F
100
AcDbEntity
  8
AM_0
100
AcDbLine
 10
296.7116486139018
 20
81.74984218772352
 30
0.0
 11
298.1716486139019
 21
81.74984218772352
 31
0.0
  0
LINE
  5
F874
330
1F
100
AcDbEntity
  8
AM_0
100
AcDbLine
 10
171.7491252407476
 20
161.375083992344
 30
0.0
 11
171.7491252407476
 21
157.910982377206
 31
0.0
  0
LINE
  5
F875
330
1F
100
AcDbEntity
  8
AM_0
100
AcDbLine
 10
177.7491252407476
 20
157.9109823772059
 30
0.0
 11
177.7491252407476
 21
161.3750839923437
 31
0.0
  0
LINE
  5
F876
330
1F
100
AcDbEntity
  8
AM_0
100
AcDbLine
 10
171.7491252407475
 20
161.3750839923439
 30
0.0
 11
174.7491252407476
 21
163.1071347999126
 31
0.0
  0
LINE
  5
F877
330
1F
100
AcDbEntity
  8
AM_0
100
AcDbLine
 10
174.7491252407476
 20
163.1071347999126
 30
0.0
 11
177.7491252407476
 21
161.3750839923438
 31
0.0
  0
LINE
  5
F878
330
1F
100
AcDbEntity
  8
AM_0
100
AcDbLine
 10
171.7491252407476
 20
157.910982377206
 30
0.0
 11
174.7491252407476
 21
156.1789315696372
 31
0.0
  0
LINE
  5
F879
330
1F
100
AcDbEntity
  8
AM_0
100
AcDbLine
 10
174.7491252407476
 20
156.1789315696372
 30
0.0
 11
177.7491252407476
 21
157.9109823772059
 31
0.0
  0
LINE
  5
F88E
330
1F
100
AcDbEntity
  8
AM_0
100
AcDbLine
 10
187.6491252407476
 20
152.9430331847749
 30
0.0
 11
189.1391252407476
 21
152.9430331847749
 31
0.0
  0
DIMENSION
  5
F9BC
102
{ACAD_REACTORS
330
F9C8
102
}
102
{ACAD_XDICTIONARY
360
F9C7
102
}
330
1F
100
AcDbEntity
  8
AM_5
100
AcDbDimension
  2
*D4
 10
28.58235700487217
 20
148.8430331847749
 30
0.0
 11
25.18198298912411
 21
161.3430331847749
 31
0.0
 70
    32
  1
25
 71
     5
 42
25.0
  3
AM_JIS$0
100
AcDbAlignedDimension
 13
50.34912524074758
 23
173.8430331847749
 33
0.0
 14
50.34912524074758
 24
148.8430331847749
 34
0.0
 50
90.0
100
AcDbRotatedDimension
1001
ACAD
1000
DSTYLE
1002
{
1070
   179
1070
     0
1070
   271
1070
     2
1002
}
  0
DIMENSION
  5
F9F2
102
{ACAD_REACTORS
330
F9FE
102
}
102
{ACAD_XDICTIONARY
360
F9FD
102
}
330
1F
100
AcDbEntity
  8
AM_5
100
AcDbDimension
  2
*D5
 10
27.99619672826475
 20
56.74984218772352
 30
0.0
 11
24.59582271251671
 21
69.24984218772353
 31
0.0
 70
    32
  1
25
 71
     5
 42
25.0
  3
AM_JIS$0
100
AcDbAlignedDimension
 13
50.34912524074758
 23
81.74984218772352
 33
0.0
 14
50.34912524074758
 24
56.74984218772352
 34
0.0
 50
90.0
100
AcDbRotatedDimension
1001
ACAD
1000
DSTYLE
1002
{
1070
   179
1070
     0
1070
   271
1070
     2
1002
}
  0
DIMENSION
  5
FA67
102
{ACAD_REACTORS
330
FA73
102
}
102
{ACAD_XDICTIONARY
360
FA72
102
}
330
1F
100
AcDbEntity
  8
AM_5
100
AcDbDimension
  2
*D6
 10
200.3491252407476
 20
119.2251059469695
 30
0.0
 11
122.2105883153623
 21
119.2251059469695
 31
0.0
 70
   160
  1
150
 71
     5
 42
150.0
  3
AM_JIS$0
100
AcDbAlignedDimension
 13
50.34912524074758
 23
148.8430331847749
 33
0.0
 14
200.3491252407476
 24
81.77408623440584
 34
0.0
100
AcDbRotatedDimension
1001
ACAD
1000
DSTYLE
1002
{
1070
   179
1070
     0
1070
   271
1070
     2
1002
}
  0
LINE
  5
FAAA
330
1F
100
AcDbEntity
  8
AM_4
100
AcDbLine
 10
50.34912524074758
 20
124.5879453075651
 30
0.0
 11
50.34912524074758
 21
81.74984218772352
 31
0.0
  0
LINE
  5
FADA
102
{ACAD_REACTORS
330
FB80
102
}
330
1F
100
AcDbEntity
  8
AM_4
100
AcDbLine
 10
200.1564893788143
 20
150.543155019371
 30
0.0
 11
200.3485163950213
 21
150.543155019371
 31
0.0
  0
LINE
  5
FB20
102
{ACAD_REACTORS
330
FB80
330
FC1C
102
}
330
1F
100
AcDbEntity
  8
AM_4
100
AcDbLine
 10
200.1421453414071
 20
145.0429722674768
 30
0.0
 11
200.3491252407476
 21
145.0430941020729
 31
0.0
  0
DIMENSION
  5
FB72
102
{ACAD_REACTORS
330
FB80
102
}
102
{ACAD_XDICTIONARY
360
FB7F
102
}
330
1F
100
AcDbEntity
  8
AM_5
100
AcDbDimension
  2
*D7
 10
209.2690834588418
 20
145.0430941020729
 30
0.0
 11
209.2690834588418
 21
159.7818555962219
 31
0.0
 70
   160
  1
5.5
 71
     5
 42
5.500060917298072
  3
AM_JIS$0
100
AcDbAlignedDimension
 13
200.3485163950213
 23
150.543155019371
 33
0.0
 14
200.3491252407476
 24
145.0430941020729
 34
0.0
 50
90.0
100
AcDbRotatedDimension
1001
ACAD
1000
DSTYLE
1002
{
1070
   179
1070
     0
1070
   271
1070
     2
1002
}
  0
DIMENSION
  5
FC10
102
{ACAD_REACTORS
330
FC1C
102
}
102
{ACAD_XDICTIONARY
360
FC1B
102
}
330
1F
100
AcDbEntity
  8
AM_5
100
AcDbDimension
  2
*D8
 10
221.756661687042
 20
173.8430331847748
 30
0.0
 11
218.3562876712939
 21
159.4430027261259
 31
0.0
 70
    32
  1
28.8
 71
     5
 42
28.80006091729806
  3
AM_JIS$0
100
AcDbAlignedDimension
 13
200.1421453414071
 23
145.0429722674768
 33
0.0
 14
187.6491252407476
 24
173.8430331847749
 34
0.0
 50
90.0
100
AcDbRotatedDimension
1001
ACAD
1000
DSTYLE
1002
{
1070
   179
1070
     0
1070
   271
1070
     2
1002
}
  0
LINE
  5
FCFF
102
{ACAD_REACTORS
330
FE0C
102
}
330
1F
100
AcDbEntity
  8
AM_4
100
AcDbLine
 10
200.3491252407476
 20
81.77408623440584
 30
0.0
 11
200.3491252407476
 21
145.2430331847748
 31
0.0
  0
LINE
  5
FD88
330
1F
100
AcDbEntity
  8
AM_7
  6
AM_ISO08W050x2
100
AcDbLine
 10
244.7916486139018
 20
81.77408623440584
 30
0.0
 11
246.641410588923
 21
81.77408623440584
 31
0.0
1001
GENIUS_GENOREF_13
1005
FD8C
  0
LINE
  5
FD89
330
1F
100
AcDbEntity
  8
AM_7
  6
AM_ISO08W050x2
100
AcDbLine
 10
244.7916486139018
 20
81.77408623440584
 30
0.0
 11
244.7916486139018
 21
83.07478120119663
 31
0.0
1001
GENIUS_GENOREF_13
1005
FD8C
  0
LINE
  5
FD8A
330
1F
100
AcDbEntity
  8
AM_7
  6
AM_ISO08W050x2
100
AcDbLine
 10
244.7916486139018
 20
81.77408623440584
 30
0.0
 11
242.9418866388807
 21
81.77408623440584
 31
0.0
1001
GENIUS_GENOREF_13
1005
FD8C
  0
LINE
  5
FD8B
330
1F
100
AcDbEntity
  8
AM_7
  6
AM_ISO08W050x2
100
AcDbLine
 10
244.7916486139018
 20
81.77408623440584
 30
0.0
 11
244.7916486139018
 21
79.92432425938469
 31
0.0
1001
GENIUS_GENOREF_13
1005
FD8C
  0
POINT
  5
FD8C
330
1F
100
AcDbEntity
  8
0
 60
     1
100
AcDbPoint
 10
0.0
 20
0.0
 30
0.0
1001
GENIUS_GENOBJ-N-CRS_13
1002
{
1000
OWNER
1000
GEN
1002
}
1001
GENIUS_GENOENT_13
1002
{
1000
MYREF
1005
FD8C
1002
}
1002
{
1000
GRP
1005
0
1002
}
1001
GENIUS_GENOLIS_13
1002
{
1000
ENT
1005
FD8B
1005
FD8A
1005
FD89
1005
FD88
1002
}
1001
GENIUS_GENODEF_13
1002
{
1000
HIER
1070
    10
1002
}
1002
{
1000
MANEDIT
1070
     0
1002
}
1002
{
1000
NOSEL
1070
     0
1002
}
1002
{
1000
BEHIND
1070
     0
1002
}
1002
{
1000
OTHER
1070
     0
1002
}
1002
{
1000
REACTOR
1002
}
  0
DIMENSION
  5
FE00
102
{ACAD_REACTORS
330
FE0C
102
}
102
{ACAD_XDICTIONARY
360
FE0B
102
}
330
1F
100
AcDbEntity
  8
AM_5
100
AcDbDimension
  2
*D10
 10
222.2168085813753
 20
81.77408623440584
 30
0.0
 11
218.8164345656272
 21
69.26196421106471
 31
0.0
 70
    32
  1
25
 71
     5
 42
25.02424404668233
  3
AM_JIS$0
100
AcDbAlignedDimension
 13
187.6491252407476
 23
56.74984218772352
 33
0.0
 14
200.3491252407476
 24
81.77408623440584
 34
0.0
 50
90.0
100
AcDbRotatedDimension
1001
ACAD
1000
DSTYLE
1002
{
1070
   179
1070
     0
1070
   271
1070
     2
1002
}
  0
DIMENSION
  5
10A9F
102
{ACAD_REACTORS
330
10AAB
102
}
102
{ACAD_XDICTIONARY
360
10AAA
102
}
330
1F
100
AcDbEntity
  8
AM_5
100
AcDbDimension
  2
*D11
 10
200.3491252407476
 20
109.5118801473942
 30
0.0
 11
179.6991252407476
 21
112.9118801473942
 31
0.0
 70
    32
  1
41.3
 71
     5
 42
41.30000000000001
  3
AM_JIS$0
100
AcDbAlignedDimension
 13
159.0491252407476
 23
81.92984218772352
 33
0.0
 14
200.3491252407476
 24
81.77408623440584
 34
0.0
 50
359.9999999999968
100
AcDbRotatedDimension
1001
ACAD
1000
DSTYLE
1002
{
1070
   179
1070
     0
1070
   271
1070
     2
1002
}
  0
LINE
  5
10BF2
330
1F
100
AcDbEntity
  8
AM_0
100
AcDbLine
 10
187.0491252407477
 20
172.3430331847749
 30
0.0
 11
187.0491252407477
 21
149.2330331847749
 31
0.0
  0
LINE
  5
10BF3
330
1F
100
AcDbEntity
  8
AM_0
100
AcDbLine
 10
187.0491252407477
 20
149.2330331847749
 30
0.0
 11
191.7891252407477
 21
149.2330331847749
 31
0.0
  0
LINE
  5
10BF4
330
1F
100
AcDbEntity
  8
AM_0
100
AcDbLine
 10
191.7891252407477
 20
149.2330331847749
 30
0.0
 11
191.7891252407477
 21
145.4230331847749
 31
0.0
  0
LINE
  5
10BF5
330
1F
100
AcDbEntity
  8
AM_0
100
AcDbLine
 10
191.7891252407477
 20
145.4230331847749
 30
0.0
 11
159.2491252407477
 21
145.4230331847749
 31
0.0
  0
LINE
  5
10BF6
330
1F
100
AcDbEntity
  8
AM_0
100
AcDbLine
 10
180.7191252407478
 20
153.2030331847749
 30
0.0
 11
187.0491252407477
 21
159.5330331847749
 31
0.0
  0
LINE
  5
10BF8
330
1F
100
AcDbEntity
  8
AM_0
100
AcDbLine
 10
180.7191252407478
 20
145.4230331847749
 30
0.0
 11
180.7191252407478
 21
153.2030331847749
 31
0.0
  0
LINE
  5
10BF9
330
1F
100
AcDbEntity
  8
AM_0
100
AcDbLine
 10
180.7191252407478
 20
153.2030331847749
 30
0.0
 11
187.0491252407477
 21
153.2030331847749
 31
0.0
  0
LINE
  5
10D54
330
1F
100
AcDbEntity
  8
AM_0
100
AcDbLine
 10
271.3241486139018
 20
77.27408623440584
 30
0.0
 11
271.9591486139019
 21
77.27408623440584
 31
0.0
  0
LINE
  5
1102C
330
1F
100
AcDbEntity
  8
AM_0
100
AcDbLine
 10
168.2491252407476
 20
92.99984218772352
 30
0.0
 11
168.2491252407476
 21
100.3435899481101
 31
0.0
  0
LINE
  5
1102D
330
1F
100
AcDbEntity
  8
AM_0
100
AcDbLine
 10
168.2491252407476
 20
100.3435899481101
 30
0.0
 11
168.8741252407476
 21
100.9685899481101
 31
0.0
  0
LINE
  5
1102E
330
1F
100
AcDbEntity
  8
AM_0
100
AcDbLine
 10
168.8741252407476
 20
100.9685899481101
 30
0.0
 11
180.6241252407476
 21
100.9685899481101
 31
0.0
  0
LINE
  5
1102F
330
1F
100
AcDbEntity
  8
AM_0
100
AcDbLine
 10
180.6241252407476
 20
100.9685899481101
 30
0.0
 11
181.2491252407476
 21
100.3435899481101
 31
0.0
  0
LINE
  5
11030
330
1F
100
AcDbEntity
  8
AM_0
100
AcDbLine
 10
181.2491252407476
 20
100.3435899481101
 30
0.0
 11
181.2491252407476
 21
92.99984218772354
 31
0.0
  0
LINE
  5
11031
330
1F
100
AcDbEntity
  8
AM_0
100
AcDbLine
 10
168.2491252407476
 20
100.3435899481101
 30
0.0
 11
181.2491252407476
 21
100.3435899481101
 31
0.0
  0
LINE
  5
110B0
330
1F
100
AcDbEntity
  8
AM_0
100
AcDbLine
 10
277.4699106152422
 20
92.94984218772351
 30
0.0
 11
277.4699106152422
 21
100.3435899481101
 31
0.0
  0
LINE
  5
110B1
330
1F
100
AcDbEntity
  8
AM_0
100
AcDbLine
 10
277.4699106152422
 20
100.3435899481101
 30
0.0
 11
278.0949106152422
 21
100.9685899481101
 31
0.0
  0
LINE
  5
110B2
330
1F
100
AcDbEntity
  8
AM_0
100
AcDbLine
 10
289.8449106152422
 20
100.9685899481101
 30
0.0
 11
290.4699106152422
 21
100.3435899481101
 31
0.0
  0
LINE
  5
110B3
330
1F
100
AcDbEntity
  8
AM_0
100
AcDbLine
 10
290.4699106152422
 20
100.3435899481101
 30
0.0
 11
290.4699106152421
 21
92.94984218772351
 31
0.0
  0
LINE
  5
110B4
330
1F
100
AcDbEntity
  8
AM_0
100
AcDbLine
 10
290.4699106152422
 20
100.3435899481101
 30
0.0
 11
277.4699106152422
 21
100.3435899481101
 31
0.0
  0
CIRCLE
  5
11128
330
1F
100
AcDbEntity
  8
AM_0
100
AcDbCircle
 10
174.7491252407476
 20
159.6430331847749
 30
0.0
 40
6.5
  0
CIRCLE
  5
11129
330
1F
100
AcDbEntity
  8
AM_0
100
AcDbCircle
 10
174.7491252407476
 20
159.6430331847749
 30
0.0
 40
5.875
  0
LINE
  5
115B1
330
1F
100
AcDbEntity
  8
AM_0
100
AcDbLine
 10
179.0891252407493
 20
92.99984218772354
 30
0.0
 11
159.2491252407493
 21
92.99984218772354
 31
0.0
  0
LINE
  5
115B2
330
1F
100
AcDbEntity
  8
AM_0
100
AcDbLine
 10
159.2491252407493
 20
92.99984218772354
 30
0.0
 11
159.2491252407493
 21
81.92984218772355
 31
0.0
  0
LINE
  5
115B3
330
1F
100
AcDbEntity
  8
AM_0
100
AcDbLine
 10
179.0891252407493
 20
92.99984218772354
 30
0.0
 11
187.0491252407493
 21
92.99984218772354
 31
0.0
  0
LINE
  5
115B4
330
1F
100
AcDbEntity
  8
AM_0
100
AcDbLine
 10
187.0491252407493
 20
92.99984218772354
 30
0.0
 11
187.0491252407493
 21
86.66984218772356
 31
0.0
  0
LINE
  5
115B5
330
1F
100
AcDbEntity
  8
AM_0
100
AcDbLine
 10
180.7191252407494
 20
92.99984218772354
 30
0.0
 11
191.7891252407493
 21
81.92984218772355
 31
0.0
  0
LINE
  5
115B6
330
1F
100
AcDbEntity
  8
AM_0
100
AcDbLine
 10
191.7891252407493
 20
81.92984218772355
 30
0.0
 11
182.1491252407493
 21
81.92984218772355
 31
0.0
  0
LINE
  5
115B7
330
1F
100
AcDbEntity
  8
AM_0
100
AcDbLine
 10
182.1491252407493
 20
81.92984218772355
 30
0.0
 11
182.1491252407493
 21
82.19984218772353
 31
0.0
  0
LINE
  5
115B8
330
1F
100
AcDbEntity
  8
AM_0
100
AcDbLine
 10
181.6491252407493
 20
82.69984218772353
 30
0.0
 11
162.9491252407493
 21
82.69984218772353
 31
0.0
  0
LINE
  5
115B9
330
1F
100
AcDbEntity
  8
AM_0
100
AcDbLine
 10
162.4491252407493
 20
82.19984218772353
 30
0.0
 11
162.4491252407493
 21
81.92984218772355
 31
0.0
  0
LINE
  5
115BA
330
1F
100
AcDbEntity
  8
AM_0
100
AcDbLine
 10
162.4491252407493
 20
81.92984218772355
 30
0.0
 11
159.2491252407493
 21
81.92984218772355
 31
0.0
  0
LINE
  5
115BB
330
1F
100
AcDbEntity
  8
AM_0
100
AcDbLine
 10
167.9491252407493
 20
82.69984218772353
 30
0.0
 11
167.9491252407493
 21
81.92984218772321
 31
0.0
  0
ARC
  5
115CE
330
1F
100
AcDbEntity
  8
AM_0
100
AcDbCircle
 10
181.6491252407493
 20
82.19984218772353
 30
0.0
 40
0.5
100
AcDbArc
 50
0.0
 51
90.0
  0
ARC
  5
115CF
330
1F
100
AcDbEntity
  8
AM_0
100
AcDbCircle
 10
162.9491252407493
 20
82.19984218772353
 30
0.0
 40
0.5
100
AcDbArc
 50
90.0
 51
180.0
  0
LINE
  5
115F5
330
1F
100
AcDbEntity
  8
AM_0
100
AcDbLine
 10
273.5616486139019
 20
81.87984218772351
 30
0.0
 11
269.7516486139019
 21
81.87984218772351
 31
0.0
  0
LINE
  5
115F6
330
1F
100
AcDbEntity
  8
AM_0
100
AcDbLine
 10
269.7516486139019
 20
81.87984218772351
 30
0.0
 11
269.7516486139019
 21
92.94984218772351
 31
0.0
  0
LINE
  5
115F7
330
1F
100
AcDbEntity
  8
AM_0
100
AcDbLine
 10
269.7516486139019
 20
92.94984218772351
 30
0.0
 11
296.6716486139019
 21
92.94984218772351
 31
0.0
  0
LINE
  5
115F8
330
1F
100
AcDbEntity
  8
AM_0
100
AcDbLine
 10
296.6716486139019
 20
92.94984218772351
 30
0.0
 11
296.6716486139019
 21
80.24984218772352
 31
0.0
  0
LINE
  5
115F9
330
1F
100
AcDbEntity
  8
AM_0
100
AcDbLine
 10
296.6716486139019
 20
80.24984218772352
 30
0.0
 11
293.5716486139019
 21
80.24984218772352
 31
0.0
  0
LINE
  5
115FA
330
1F
100
AcDbEntity
  8
AM_0
100
AcDbLine
 10
293.6216486139019
 20
80.24984218772352
 30
0.0
 11
293.6216486139019
 21
82.14984218772349
 31
0.0
  0
LINE
  5
115FB
330
1F
100
AcDbEntity
  8
AM_0
100
AcDbLine
 10
293.1216486139019
 20
82.64984218772349
 30
0.0
 11
274.1116486139019
 21
82.64984218772349
 31
0.0
  0
LINE
  5
115FC
330
1F
100
AcDbEntity
  8
AM_0
100
AcDbLine
 10
273.5616486139019
 20
81.87984218772351
 30
0.0
 11
273.5616486139019
 21
86.61984218772352
 31
0.0
  0
LINE
  5
115FD
330
1F
100
AcDbEntity
  8
AM_0
100
AcDbLine
 10
273.5616486139019
 20
86.61984218772352
 30
0.0
 11
277.5316486139019
 21
86.61984218772352
 31
0.0
  0
LINE
  5
115FE
330
1F
100
AcDbEntity
  8
AM_0
100
AcDbLine
 10
277.5316486139019
 20
86.61984218772352
 30
0.0
 11
283.8616486139019
 21
92.94984218772351
 31
0.0
  0
LINE
  5
115FF
330
1F
100
AcDbEntity
  8
AM_0
100
AcDbLine
 10
277.5316486139019
 20
92.94984218772351
 30
0.0
 11
277.5316486139019
 21
86.61984218772352
 31
0.0
  0
LINE
  5
11601
330
1F
100
AcDbEntity
  8
AM_0
100
AcDbLine
 10
293.6216486139019
 20
81.24984218772352
 30
0.0
 11
296.6716486139019
 21
81.24984218772352
 31
0.0
  0
ARC
  5
11618
330
1F
100
AcDbEntity
  8
AM_0
100
AcDbCircle
 10
293.1216486139019
 20
82.14984218772349
 30
0.0
 40
0.5
100
AcDbArc
 50
0.0
 51
90.0
  0
ARC
  5
11619
330
1F
100
AcDbEntity
  8
AM_0
100
AcDbCircle
 10
274.0616486139019
 20
82.14984218772349
 30
0.0
 40
0.5
100
AcDbArc
 50
90.0
 51
180.0
  0
LINE
  5
11EAC
330
1F
100
AcDbEntity
  8
AM_7
100
AcDbLine
 10
283.9699106152422
 20
103.1375899481101
 30
0.0
 11
283.9699106152422
 21
68.84143094055263
 31
0.0
  0
TEXT
  5
11FA3
330
1F
100
AcDbEntity
  8
AM_0
370
    -3
100
AcDbText
 10
67.64604574082364
 20
30.93703928655708
 30
0.0
 40
3.8
  1
GMFR2525-55-60
  7
ACISOTS
100
AcDbText
  0
ARC
  5
120EB
330
1F
100
AcDbEntity
  8
AM_0
100
AcDbCircle
 10
245.4516486139019
 20
81.77408623440584
 30
0.0
 40
28.73
100
AcDbArc
 50
308.6151572173505
 51
355.2462428917513
  0
ARC
  5
120ED
330
1F
100
AcDbEntity
  8
AM_0
100
AcDbCircle
 10
235.9316486139018
 20
81.77408623440584
 30
0.0
 40
33.93
100
AcDbArc
 50
324.0001533580007
 51
355.0707210716553
  0
ARC
  5
1210F
330
1F
100
AcDbEntity
  8
AM_4
100
AcDbCircle
 10
244.7916486139018
 20
81.77408623440584
 30
0.0
 40
30.0
100
AcDbArc
 50
308.291796792142
 51
0.0
  0
LINE
  5
12127
330
1F
100
AcDbEntity
  8
AM_7
  6
AM_ISO08W050x2
100
AcDbLine
 10
244.7916486139018
 20
81.77408623440584
 30
0.0
 11
249.435410588923
 21
81.77408623440584
 31
0.0
1001
GENIUS_GENOREF_13
1005
1212B
  0
LINE
  5
12128
330
1F
100
AcDbEntity
  8
AM_7
  6
AM_ISO08W050x2
100
AcDbLine
 10
244.7916486139018
 20
81.77408623440584
 30
0.0
 11
244.7916486139018
 21
86.41784820942699
 31
0.0
1001
GENIUS_GENOREF_13
1005
1212B
  0
LINE
  5
12129
330
1F
100
AcDbEntity
  8
AM_7
  6
AM_ISO08W050x2
100
AcDbLine
 10
244.7916486139018
 20
81.77408623440584
 30
0.0
 11
240.1478866388807
 21
81.77408623440584
 31
0.0
1001
GENIUS_GENOREF_13
1005
1212B
  0
LINE
  5
1212A
330
1F
100
AcDbEntity
  8
AM_7
  6
AM_ISO08W050x2
100
AcDbLine
 10
244.7916486139018
 20
81.77408623440584
 30
0.0
 11
244.7916486139018
 21
77.13032425938469
 31
0.0
1001
GENIUS_GENOREF_13
1005
1212B
  0
POINT
  5
1212B
330
1F
100
AcDbEntity
  8
0
 60
     1
100
AcDbPoint
 10
0.0
 20
0.0
 30
0.0
1001
GENIUS_GENODEF_13
1002
{
1000
HIER
1070
    10
1002
}
1002
{
1000
MANEDIT
1070
     0
1002
}
1002
{
1000
NOSEL
1070
     0
1002
}
1002
{
1000
BEHIND
1070
     0
1002
}
1002
{
1000
OTHER
1070
     0
1002
}
1002
{
1000
REACTOR
1002
}
1001
GENIUS_GENOENT_13
1002
{
1000
MYREF
1005
1212B
1002
}
1002
{
1000
GRP
1005
0
1002
}
1001
GENIUS_GENOBJ-N-CRS_13
1002
{
1000
OWNER
1000
GEN
1002
}
1001
GENIUS_GENOLIS_13
1002
{
1000
ENT
1005
1212A
1005
12129
1005
12128
1005
12127
1002
}
  0
DIMENSION
  5
12131
330
1F
100
AcDbEntity
  8
AM_5
100
AcDbDimension
  2
*D12
 10
244.7916486139019
 20
81.7740862344059
 30
0.0
 11
258.1076386407838
 21
75.24654141185667
 31
0.0
 70
   164
  1
%%c60(加工径)
 71
     5
 42
29.9999999999998
  3
AM_JIS$4
100
AcDbRadialDimension
 15
271.7291913576856
 25
68.56920869136083
 35
0.0
 40
0.0
1001
ACAD
1000
DSTYLE
1002
{
1070
   140
1040
2.5
1002
}
  0
ENDSEC
  0
SECTION
  2
OBJECTS
  0
DICTIONARY
  5
C
330
0
100
AcDbDictionary
281
     1
  3
ACAD_COLOR
350
BE
  3
ACAD_GROUP
350
D
  3
ACAD_LAYOUT
350
1A
  3
ACAD_MATERIAL
350
BD
  3
ACAD_MLINESTYLE
350
17
  3
ACAD_PLOTSETTINGS
350
19
  3
ACAD_PLOTSTYLENAME
350
E
  3
ACAD_TABLESTYLE
350
11A
  3
AcAmCatalogState
350
10E
  3
ACDBHEADERROUNDTRIPXREC
350
12178
  3
AcDbVariableDictionary
350
94
  3
ACDMSYSVARMGR
350
D0
  3
ACGREF_MASTER
350
55
  3
ACGREFACAD_MASTER
350
59
  3
AcmDictionary
350
5B
  3
ACME_BOM_MANAGER_NAME
350
4E
  3
ACME_COMMAND_HISTORY
350
49
  3
ACME_SCOPE_NAME
350
48
  3
ACMESTATEMGR
350
53
  3
AcmeSysVarManager
350
4A
  3
AcmSystemVariableManager
350
5F
  3
AD_APPL
350
FA
  3
ADSYSVARMGR
350
F9
  3
AmdtNamedDwgMgr
350
ED
  3
AMG
350
41
  3
AMGSNAPSETTINGS
350
1B8
  3
AMI_MASTER
350
5A
  3
AUTOCAD_ASSEMBLIES_PROJECT
350
102
  3
Designer_Assemblies_SysVars
350
FD
  3
DWGPROPS
350
1217B
  3
GREFAM_MODULE
350
F3
  3
table_dic_data
350
8EA
  0
DICTIONARY
  5
34B
330
2
100
AcDbDictionary
280
     1
281
     1
  3
ACAD_LAYERSTATES
360
6FFE
  3
AMLAYER_GROUPCOLORS
360
34C
  0
DICTIONARY
  5
8F
330
1F
100
AcDbDictionary
280
     1
281
     1
  3
ACAD_SORTENTS
360
237B
  0
DICTIONARY
  5
F9C7
330
F9BC
100
AcDbDictionary
280
     1
281
     1
  3
ACAD_DIMASSOC
360
F9C8
  0
DICTIONARY
  5
F9FD
330
F9F2
100
AcDbDictionary
280
     1
281
     1
  3
ACAD_DIMASSOC
360
F9FE
  0
DICTIONARY
  5
FA72
330
FA67
100
AcDbDictionary
280
     1
281
     1
  3
ACAD_DIMASSOC
360
FA73
  0
DICTIONARY
  5
FB7F
330
FB72
100
AcDbDictionary
280
     1
281
     1
  3
ACAD_DIMASSOC
360
FB80
  0
DICTIONARY
  5
FC1B
330
FC10
100
AcDbDictionary
280
     1
281
     1
  3
ACAD_DIMASSOC
360
FC1C
  0
DICTIONARY
  5
FE0B
330
FE00
100
AcDbDictionary
280
     1
281
     1
  3
ACAD_DIMASSOC
360
FE0C
  0
DICTIONARY
  5
10AAA
330
10A9F
100
AcDbDictionary
280
     1
281
     1
  3
ACAD_DIMASSOC
360
10AAB
  0
DICTIONARY
  5
BE
102
{ACAD_REACTORS
330
C
102
}
330
C
100
AcDbDictionary
281
     1
  0
DICTIONARY
  5
D
102
{ACAD_REACTORS
330
C
102
}
330
C
100
AcDbDictionary
281
     1
  0
DICTIONARY
  5
1A
102
{ACAD_REACTORS
330
C
102
}
330
C
100
AcDbDictionary
281
     1
  3
Model
350
22
  3
レイアウト1
350
1E
  3
レイアウト2
350
26
  0
DICTIONARY
  5
BD
102
{ACAD_REACTORS
330
C
102
}
330
C
100
AcDbDictionary
281
     1
  0
DICTIONARY
  5
17
102
{ACAD_REACTORS
330
C
102
}
330
C
100
AcDbDictionary
281
     1
  3
Standard
350
18
  0
DICTIONARY
  5
19
102
{ACAD_REACTORS
330
C
102
}
330
C
100
AcDbDictionary
281
     1
  0
ACDBDICTIONARYWDFLT
  5
E
102
{ACAD_REACTORS
330
C
102
}
330
C
100
AcDbDictionary
281
     1
  3
Normal
350
F
100
AcDbDictionaryWithDefault
340
F
  0
DICTIONARY
  5
11A
102
{ACAD_REACTORS
330
C
102
}
330
C
100
AcDbDictionary
281
     1
  3
Standard
350
11B
  0
ACAD_PROXY_OBJECT
  5
10E
102
{ACAD_REACTORS
330
C
102
}
330
C
100
AcDbProxyObject
 90
      499
 91
      568
 95
       25
 70
     0
 93
      632
310
3FFFFFFFE00A02814029B219D2E283937B3B930B6902334B632B9AE20BABA37B232B9B5AE20B1B0B2369B971817199C971C2E20B1B0B236AE2A32B6B83630BA32C0081014020800BEC04A408FEFD08
  0
DICTIONARY
  5
12178
102
{ACAD_REACTORS
330
C
102
}
330
C
100
AcDbDictionary
281
     1
  3
COLORDICT
350
12179
  3
MATERIALDICT
350
1217A
  0
DICTIONARY
  5
94
102
{ACAD_REACTORS
330
C
102
}
330
C
100
AcDbDictionary
281
     1
  3
CTABLESTYLE
350
138
  3
DIMASSOC
350
96
  3
HIDETEXT
350
12177
  3
INDEXCTL
350
95
  0
ACAD_PROXY_OBJECT
  5
D0
102
{ACAD_REACTORS
330
C
102
}
330
C
100
AcDbProxyObject
 90
      499
 91
      507
 95
       25
 70
     0
 93
      240
310
4C51A47A0000000000000000000000000000000000000000000000000000
330
D1
330
D2
330
D3
330
D4
330
D5
330
D6
330
D7
330
DA
330
DB
330
DC
330
DD
330
DE
330
DF
330
E0
330
E1
330
E2
330
E3
330
E4
330
E5
330
E6
330
E7
330
E8
330
E9
330
EA
330
EB
330
EC
 94
        0
  0
ACAD_PROXY_OBJECT
  5
55
102
{ACAD_REACTORS
330
C
102
}
330
C
100
AcDbProxyObject
 90
      499
 91
      516
 95
       25
 70
     0
 93
       34
310
0400004280
  0
ACAD_PROXY_OBJECT
  5
59
102
{ACAD_REACTORS
330
C
102
}
330
C
100
AcDbProxyObject
 90
      499
 91
      519
 95
       25
 70
     0
 93
      114
310
04000041C080000000000000000000
  0
DICTIONARY
  5
5B
102
{ACAD_REACTORS
330
C
102
}
330
C
100
AcDbDictionary
281
     1
  3
AcmBOM
350
1B5
  3
AcmBOMDATA
350
5C
  3
AcmStdDictionary
350
61
  3
AMDTSECTSYM_ARROWCOLOR
350
123
  0
ACAD_PROXY_OBJECT
  5
4E
102
{ACAD_REACTORS
330
C
102
}
330
C
100
AcDbProxyObject
 90
      499
 91
      510
 95
       25
 70
     0
 93
       50
310
00010040400000
330
0
330
0
330
4F
 94
        0
  0
ACAD_PROXY_OBJECT
  5
49
102
{ACAD_REACTORS
330
C
102
}
330
C
100
AcDbProxyObject
 90
      499
 91
      506
 95
       25
 70
     0
 93
     4078
310
47805054552415345805045452494D404052D4D5347202D205050413A2020206465736B746F702E6172782046696C6556657273696F6E3A20392E322E302E34014194D1531150D52014115539113E014151549054D1601411693D3D36014115539113E014156131253916014115539113E014156131253916014115539113E
310
01415613125391501014B5354D1C80B481414104E88080819195CDADD1BDC0B985C9E08119A5B1955995C9CDA5BDB8E880E4B8C8B8C0B8D00504554E444F80506434952434C45805054552415345805044D4F56458050C475249505F53545245544348805054552415345805045452494D40405184D5347202D20436F6D6D6
310
16E642043414E43454C4C45442E014115539113E014151549054D16014290535413D5D154911253501014B5354D1C80B481414104E88080819195CDADD1BDC0B985C9E08119A5B1955995C9CDA5BDB8E880E4B8C8B8C0B8D0050A50524F504552544945538050C475249505F535452455443488050653454C454354805045A
310
4F4F4D805055055524745805045A4F4F4D805055153415645404052D4D5347202D205050413A2020206465736B746F702E6172782046696C6556657273696F6E3A20392E322E302E3401415454D05591501014B5354D1C80B481414104E88080819195CDADD1BDC0B985C9E08119A5B1955995C9CDA5BDB8E880E4B8C8B8C0
310
B8D0
  0
ACAD_PROXY_OBJECT
  5
48
102
{ACAD_REACTORS
330
C
102
}
330
C
100
AcDbProxyObject
 90
      499
 91
      505
 95
       25
 70
     0
 93
      874
310
090000464080000000000000000015857200000000000000000000000000000000000000000000000000000000000000000000000000000000000000000000000000000000000000000000000000000000000000000000000000000000000000000000000000000000AAA406AA80
360
4B
360
4C
360
4D
360
4F
360
60
360
C9
360
CA
360
CB
360
CC
360
CD
360
CE
360
D1
360
D2
360
D3
360
D4
360
D5
360
D6
360
D7
360
DA
360
DB
360
DC
360
DD
360
DE
360
DF
360
E0
360
E1
360
E2
360
E3
360
E4
360
E5
360
E6
360
E7
360
E8
360
E9
360
EA
360
EB
360
EC
360
F5
360
F6
360
F7
360
F8
360
FE
360
FF
360
100
360
101
360
106
360
107
360
108
360
109
360
10A
360
10B
360
34D
360
A3EF
360
A3FE
360
A6B9
360
A6D2
360
A6DA
360
A6DC
360
A9E2
360
A9E4
360
B271
360
B273
360
B275
360
C0EC
360
C0F0
360
C374
360
C738
360
CA63
360
CCD4
360
D843
360
D848
360
DAA5
360
DAB3
360
DAB4
360
E116
360
E11E
360
E12C
360
E12E
360
E425
360
E427
360
EADD
360
EADF
360
EBEF
360
102A7
360
102AB
360
11579
360
11587
360
11588
 94
        0
  0
ACAD_PROXY_OBJECT
  5
53
102
{ACAD_REACTORS
330
C
102
}
330
C
100
AcDbProxyObject
 90
      499
 91
      515
 95
       25
 70
     0
 93
       50
310
09000042641280
  0
ACAD_PROXY_OBJECT
  5
4A
102
{ACAD_REACTORS
330
C
102
}
330
C
100
AcDbProxyObject
 90
      499
 91
      507
 95
       25
 70
     0
 93
       48
310
903412000000
330
4B
330
4C
330
4D
 94
        0
  0
ACAD_PROXY_OBJECT
  5
5F
102
{ACAD_REACTORS
330
C
102
}
330
C
100
AcDbProxyObject
 90
      499
 91
      507
 95
       25
 70
     0
 93
       40
310
90240E0000
330
60
330
34D
 94
        0
  0
ACAD_PROXY_OBJECT
  5
FA
102
{ACAD_REACTORS
330
C
102
}
330
C
100
AcDbProxyObject
 90
      499
 91
      557
 95
       25
 70
     0
 93
       42
310
000900004040
330
F5
 94
        0
  0
ACAD_PROXY_OBJECT
  5
F9
102
{ACAD_REACTORS
330
C
102
}
330
C
100
AcDbProxyObject
 90
      499
 91
      507
 95
       25
 70
     0
 93
        8
310
AA
  0
ACAD_PROXY_OBJECT
  5
ED
102
{ACAD_REACTORS
330
C
102
}
330
C
100
AcDbProxyObject
 90
      499
 91
      548
 95
       25
 70
     0
 93
       42
310
000100005E80
330
C9
 94
        0
  0
DICTIONARY
  5
41
102
{ACAD_REACTORS
330
C
102
}
330
C
100
AcDbDictionary
281
     1
  3
AcMgSettings
350
42
  3
AMGLAYCFG
350
63
  0
DICTIONARY
  5
1B8
102
{ACAD_REACTORS
330
C
102
}
330
C
100
AcDbDictionary
281
     1
  3
DIMENSION
350
1BD
  3
FEA
350
1BC
  3
HATCH (1)
350
1B9
  3
HATCH (2)
350
1BA
  3
SIMPLE WELD
350
1BE
  3
SYMBOLS
350
1BB
  0
ACAD_PROXY_OBJECT
  5
5A
102
{ACAD_REACTORS
330
C
102
}
330
C
100
AcDbProxyObject
 90
      499
 91
      520
 95
       25
 70
     0
 93
       34
310
0500004280
  0
ACAD_PROXY_OBJECT
  5
102
102
{ACAD_REACTORS
330
C
102
}
330
C
100
AcDbProxyObject
 90
      499
 91
      560
 95
       25
 70
     0
 93
       98
310
0900004E400000000000000000
330
109
330
0
330
10A
330
0
330
0
330
0
330
0
330
0
 94
        0
  0
ACAD_PROXY_OBJECT
  5
FD
102
{ACAD_REACTORS
330
C
102
}
330
C
100
AcDbProxyObject
 90
      499
 91
      507
 95
       25
 70
     0
 93
       56
310
90441600000000
330
FE
330
FF
330
100
330
101
 94
        0
  0
XRECORD
  5
1217B
102
{ACAD_REACTORS
330
C
102
}
330
C
100
AcDbXrecord
280
     1
  1
DWGPROPS COOKIE
  2

  3

  4

  6

  7

  8

  9

300
AmdtFileType=84
301
=
302
=
303
=
304
=
305
=
306
=
307
=
308
=
309
=
 40
0.0
 41
2454819.33736382
 42
2455505.336938831
  1

 90
        1
  0
ACAD_PROXY_OBJECT
  5
F3
102
{ACAD_REACTORS
330
C
102
}
330
C
100
AcDbProxyObject
 90
      499
 91
      551
 95
       25
 70
     0
 93
        8
310
05
  0
DICTIONARY
  5
8EA
102
{ACAD_REACTORS
330
C
102
}
330
C
100
AcDbDictionary
281
     1
  3
input_data
350
8EC
  3
table_data
350
8EB
  0
DICTIONARY
  5
6FFE
102
{ACAD_REACTORS
330
34B
102
}
330
34B
100
AcDbDictionary
281
     1
  0
DICTIONARY
  5
34C
102
{ACAD_REACTORS
330
34B
102
}
330
34B
100
AcDbDictionary
280
     1
281
     1
  0
SORTENTSTABLE
  5
237B
102
{ACAD_REACTORS
330
8F
102
}
330
8F
100
AcDbSortentsTable
330
1F
331
0
  5
11A0B
331
DAD4
  5
DAD4
331
DADA
  5
DADA
331
DADB
  5
DADB
331
DADC
  5
DADC
331
DADD
  5
DADD
331
DAE0
  5
DAE0
331
DAE1
  5
DAE1
331
DB1B
  5
DB1B
331
DB1D
  5
DB1D
331
DB1E
  5
DB1E
331
E17A
  5
E179
331
E17B
  5
E17A
331
E17C
  5
E17B
331
E17D
  5
E17C
331
E17E
  5
E17D
331
E180
  5
E17F
331
E181
  5
E180
331
E183
  5
E182
331
E184
  5
E183
331
E186
  5
E185
331
E188
  5
E187
331
E189
  5
E188
331
E18B
  5
E18A
331
E484
  5
E482
331
E485
  5
E483
331
E486
  5
E484
331
E487
  5
E485
331
E48D
  5
E48B
331
E48E
  5
E48C
331
E711
  5
E4DC
331
E712
  5
E710
331
E713
  5
E711
331
E714
  5
E712
331
E716
  5
E714
331
E717
  5
E715
331
E718
  5
E716
331
E73C
  5
E71F
331
E73D
  5
E72A
331
E73E
  5
E73C
331
E73F
  5
E73D
331
E740
  5
E73E
331
E741
  5
E73F
331
E745
  5
E743
331
E746
  5
E744
331
E747
  5
E745
331
E748
  5
E746
331
E9A0
  5
E75D
331
E9A1
  5
E8D0
331
E9A6
  5
E9A0
331
E9A7
  5
E9A1
331
E9A8
  5
E9A5
331
E9A9
  5
E9A6
331
E9AA
  5
E9A7
331
E9AC
  5
E9A9
331
EA20
  5
E9AB
331
EAFC
  5
EAFC
331
EAFD
  5
EAFD
331
EAFE
  5
EAFE
331
EAFF
  5
EAFF
331
EB00
  5
EB00
331
EB01
  5
EB01
331
EB02
  5
EB02
331
EB03
  5
EB03
331
EB04
  5
EB04
331
EB0A
  5
EB0A
331
EB0B
  5
EB0B
331
EBFB
  5
EBFB
331
EBFC
  5
EBFC
331
EBFD
  5
EBFD
331
EBFE
  5
EBFE
331
EBFF
  5
EBFF
331
EC00
  5
EC00
331
EC09
  5
EC09
331
EC0A
  5
EC0A
331
EC0B
  5
EC0B
331
EC0C
  5
EC0C
331
EC0D
  5
EC0D
331
EC0E
  5
EC0E
331
EC0F
  5
EC0F
331
EC10
  5
EC10
331
EC12
  5
EC12
331
EC13
  5
EC13
331
ED82
  5
ED82
331
ED83
  5
ED83
331
ED84
  5
ED84
331
ED86
  5
ED86
331
ED87
  5
ED87
331
ED8D
  5
ED8D
331
EE96
  5
EE96
331
F401
  5
F401
331
F402
  5
F402
331
F403
  5
F403
331
F404
  5
F404
331
F405
  5
F405
331
F406
  5
F406
331
F407
  5
F407
331
F408
  5
F408
331
F40E
  5
F40E
331
F40F
  5
F40F
331
F410
  5
F411
331
F411
  5
F413
331
F413
  5
F414
331
F414
  5
F415
331
F415
  5
F416
331
F416
  5
F417
331
F417
  5
F418
331
F418
  5
F419
331
F419
  5
F41A
331
F41A
  5
F41B
331
F41B
  5
F423
331
F423
  5
F424
331
F427
  5
F428
331
F428
  5
F429
331
F429
  5
F42A
331
F42A
  5
F42B
331
F42B
  5
F42C
331
F42D
  5
F42E
331
F42E
  5
F54C
331
F54C
  5
F71E
331
F720
  5
F721
331
F84D
  5
F410
331
F874
  5
F874
331
F875
  5
F875
331
F876
  5
F876
331
F877
  5
F877
331
F878
  5
F878
331
F879
  5
F879
331
F88E
  5
F88E
331
F9BC
  5
F9BC
331
F9F2
  5
F9F2
331
FA67
  5
FA67
331
FAAA
  5
FAAA
331
FADA
  5
FADA
331
FB20
  5
FB20
331
FB72
  5
FB72
331
FC10
  5
FC10
331
FCFF
  5
FCFF
331
FD88
  5
FD88
331
FD89
  5
FD89
331
FD8A
  5
FD8A
331
FD8B
  5
FD8B
331
FE00
  5
FE00
331
10A9F
  5
10A9F
331
10BF2
  5
10BF2
331
10BF3
  5
10BF3
331
10BF4
  5
10BF4
331
10BF5
  5
10BF5
331
10BF6
  5
10BF6
331
10BF8
  5
10BF8
331
10BF9
  5
10BF9
331
10D54
  5
10D54
331
1102C
  5
1102C
331
1102D
  5
1102D
331
1102E
  5
1102E
331
1102F
  5
1102F
331
11030
  5
11030
331
11031
  5
11031
331
110B0
  5
110B0
331
110B1
  5
110B1
331
110B2
  5
110B2
331
110B3
  5
110B3
331
110B4
  5
110B4
331
11128
  5
11128
331
11129
  5
11129
331
115B1
  5
115B1
331
115B2
  5
115B2
331
115B3
  5
115B3
331
115B4
  5
115B4
331
115B5
  5
115B5
331
115B6
  5
115B6
331
115B7
  5
115B7
331
115B8
  5
115B8
331
115B9
  5
115B9
331
115BA
  5
115BA
331
115BB
  5
115BB
331
115CE
  5
115CE
331
115CF
  5
115CF
331
115F5
  5
115F5
331
115F6
  5
115F6
331
115F7
  5
115F7
331
115F8
  5
115F8
331
115F9
  5
115F9
331
115FA
  5
115FA
331
115FB
  5
115FB
331
115FC
  5
115FC
331
115FD
  5
115FD
331
115FE
  5
115FE
331
115FF
  5
115FF
331
11601
  5
11601
331
11618
  5
11618
331
11619
  5
11619
  0
DIMASSOC
  5
F9C8
102
{ACAD_REACTORS
330
F9C7
102
}
330
F9C7
100
AcDbDimAssoc
330
F9BC
 90
        3
 70
     0
 71
     0
  1
AcDbOsnapPointRef
 72
     1
331
E487
 73
     0
 91
        0
 40
0.0
 10
0.0
 20
0.0
 30
2.000000000000000E+50
 75
     0
  1
AcDbOsnapPointRef
 72
    13
331
E487
 73
     0
 91
        0
 40
0.0
 10
0.0
 20
0.0
 30
2.000000000000000E+50
 75
     0
  0
DIMASSOC
  5
F9FE
102
{ACAD_REACTORS
330
F9FD
102
}
330
F9FD
100
AcDbDimAssoc
330
F9F2
 90
        3
 70
     0
 71
     0
  1
AcDbOsnapPointRef
 72
    13
331
EAFE
 73
     0
 91
        0
 40
0.0
 10
0.0
 20
0.0
 30
2.000000000000000E+50
 75
     0
  1
AcDbOsnapPointRef
 72
    13
331
EAFD
 73
     0
 91
        0
 40
0.0
 10
0.0
 20
0.0
 30
2.000000000000000E+50
 75
     0
  0
DIMASSOC
  5
FA73
102
{ACAD_REACTORS
330
FA72
102
}
330
FA72
100
AcDbDimAssoc
330
FA67
 90
        3
 70
     0
 71
     0
  1
AcDbOsnapPointRef
 72
    13
331
E487
 73
     0
 91
        0
 40
0.0
 10
0.0
 20
0.0
 30
2.000000000000000E+50
 75
     0
  1
AcDbOsnapPointRef
 72
    13
331
E712
 73
     0
 91
        0
 40
0.0
 10
0.0
 20
0.0
 30
2.000000000000000E+50
 75
     0
  0
DIMASSOC
  5
FB80
102
{ACAD_REACTORS
330
FB7F
102
}
330
FB7F
100
AcDbDimAssoc
330
FB72
 90
        3
 70
     0
 71
     0
  1
AcDbOsnapPointRef
 72
     1
331
FADA
 73
     0
 91
        0
 40
0.0
 10
0.0
 20
0.0
 30
2.000000000000000E+50
 75
     0
  1
AcDbOsnapPointRef
 72
     1
331
FB20
 73
     0
 91
        0
 40
0.0
 10
0.0
 20
0.0
 30
2.000000000000000E+50
 75
     0
  0
DIMASSOC
  5
FC1C
102
{ACAD_REACTORS
330
FC1B
102
}
330
FC1B
100
AcDbDimAssoc
330
FC10
 90
        3
 70
     0
 71
     0
  1
AcDbOsnapPointRef
 72
    13
331
FB20
 73
     0
 91
        0
 40
0.0
 10
0.0
 20
0.0
 30
2.000000000000000E+50
 75
     0
  1
AcDbOsnapPointRef
 72
    13
331
E485
 73
     0
 91
        0
 40
0.0
 10
0.0
 20
0.0
 30
2.000000000000000E+50
 75
     0
  0
DIMASSOC
  5
FE0C
102
{ACAD_REACTORS
330
FE0B
102
}
330
FE0B
100
AcDbDimAssoc
330
FE00
 90
        3
 70
     0
 71
     0
  1
AcDbOsnapPointRef
 72
     1
331
EAFF
 73
     0
 91
        0
 40
0.0
 10
0.0
 20
0.0
 30
2.000000000000000E+50
 75
     0
  1
AcDbOsnapPointRef
 72
    13
331
FCFF
 73
     0
 91
        0
 40
0.0
 10
0.0
 20
0.0
 30
2.000000000000000E+50
 75
     0
  0
DIMASSOC
  5
10AAB
102
{ACAD_REACTORS
330
10AAA
102
}
330
10AAA
100
AcDbDimAssoc
330
10A9F
 90
        3
 70
     0
 71
     0
  1
AcDbOsnapPointRef
 72
     1
331
E9A6
 73
     0
 91
        0
 40
0.0
 10
0.0
 20
0.0
 30
2.000000000000000E+50
 75
     0
  1
AcDbOsnapPointRef
 72
    13
331
E712
 73
     0
 91
        0
 40
0.0
 10
0.0
 20
0.0
 30
2.000000000000000E+50
 75
     0
  0
LAYOUT
  5
22
102
{ACAD_REACTORS
330
1A
102
}
330
1A
100
AcDbPlotSettings
  1

  2
\\P-SERVER2\Canon LASER SHOT LBP-1420
  4
A4
  6

 40
5.873749732971191
 41
5.873747825622559
 42
5.873748779296875
 43
5.873748779296875
 44
209.9733276367188
 45
296.9259948730469
 46
0.0
 47
0.0
 48
0.0
 49
0.0
140
420.0
141
297.0
142
1.0
143
1.498291122361943
 70
 11952
 72
     1
 73
     1
 74
     4
  7
sei_cad.ctb
 75
     0
147
0.6674270340890596
148
0.0
149
0.0
100
AcDbLayout
  1
Model
 70
     1
 71
     0
 10
0.0
 20
0.0
 11
12.0
 21
9.0
 12
0.0
 22
0.0
 32
0.0
 14
0.0
 24
0.0
 34
0.0
 15
0.0
 25
0.0
 35
0.0
146
0.0
 13
0.0
 23
0.0
 33
0.0
 16
1.0
 26
0.0
 36
0.0
 17
0.0
 27
1.0
 37
0.0
 76
     0
330
1F
1001
ACAD_PSEXT
1000
\\P-SERVER2\Canon LASER SHOT LBP-1420
1000
Canon LASER SHOT LBP-1420
1000
\\P-SERVER2
1000

1070
     0
  0
LAYOUT
  5
1E
102
{ACAD_REACTORS
330
1A
102
}
330
1A
100
AcDbPlotSettings
  1

  2

  4

  6

 40
0.0
 41
0.0
 42
0.0
 43
0.0
 44
0.0
 45
0.0
 46
0.0
 47
0.0
 48
0.0
 49
0.0
140
0.0
141
0.0
142
1.0
143
1.0
 70
   688
 72
     0
 73
     0
 74
     5
  7
sei_cad.ctb
 75
    16
147
1.0
148
0.0
149
0.0
100
AcDbLayout
  1
レイアウト1
 70
     1
 71
     1
 10
0.0
 20
0.0
 11
420.0
 21
297.0
 12
0.0
 22
0.0
 32
0.0
 14
1.000000000000000E+20
 24
1.000000000000000E+20
 34
1.000000000000000E+20
 15
-1.000000000000000E+20
 25
-1.000000000000000E+20
 35
-1.000000000000000E+20
146
0.0
 13
0.0
 23
0.0
 33
0.0
 16
1.0
 26
0.0
 36
0.0
 17
0.0
 27
1.0
 37
0.0
 76
     0
330
1B
  0
LAYOUT
  5
26
102
{ACAD_REACTORS
330
1A
102
}
330
1A
100
AcDbPlotSettings
  1

  2

  4

  6

 40
0.0
 41
0.0
 42
0.0
 43
0.0
 44
0.0
 45
0.0
 46
0.0
 47
0.0
 48
0.0
 49
0.0
140
0.0
141
0.0
142
1.0
143
1.0
 70
   688
 72
     0
 73
     0
 74
     5
  7
sei_cad.ctb
 75
    16
147
1.0
148
0.0
149
0.0
100
AcDbLayout
  1
レイアウト2
 70
     1
 71
     2
 10
0.0
 20
0.0
 11
12.0
 21
9.0
 12
0.0
 22
0.0
 32
0.0
 14
0.0
 24
0.0
 34
0.0
 15
0.0
 25
0.0
 35
0.0
146
0.0
 13
0.0
 23
0.0
 33
0.0
 16
1.0
 26
0.0
 36
0.0
 17
0.0
 27
1.0
 37
0.0
 76
     0
330
23
  0
MLINESTYLE
  5
18
102
{ACAD_REACTORS
330
17
102
}
330
17
100
AcDbMlineStyle
  2
STANDARD
 70
     0
  3

 62
   256
 51
90.0
 52
90.0
 71
     2
 49
0.5
 62
   256
  6
BYLAYER
 49
-0.5
 62
   256
  6
BYLAYER
  0
ACDBPLACEHOLDER
  5
F
102
{ACAD_REACTORS
330
E
102
}
330
E
  0
TABLESTYLE
  5
11B
102
{ACAD_REACTORS
330
11A
102
}
330
11A
100
AcDbTableStyle
  3
Standard
 70
     0
 71
     0
 40
1.5
 41
1.5
280
     0
281
     0
  7
STANDARD
140
4.5
170
     2
 62
     0
 63
     7
283
     0
274
    -2
284
     1
 64
     0
275
    -2
285
     1
 65
     0
276
    -2
286
     1
 66
     0
277
    -2
287
     1
 67
     0
278
    -2
288
     1
 68
     0
279
    -2
289
     1
 69
     0
  7
STANDARD
140
6.0
170
     5
 62
     0
 63
     7
283
     0
274
    -2
284
     1
 64
     0
275
    -2
285
     1
 65
     0
276
    -2
286
     1
 66
     0
277
    -2
287
     1
 67
     0
278
    -2
288
     1
 68
     0
279
    -2
289
     1
 69
     0
  7
STANDARD
140
4.5
170
     5
 62
     0
 63
     7
283
     0
274
    -2
284
     1
 64
     0
275
    -2
285
     1
 65
     0
276
    -2
286
     1
 66
     0
277
    -2
287
     1
 67
     0
278
    -2
288
     1
 68
     0
279
    -2
289
     1
 69
     0
  0
XRECORD
  5
12179
102
{ACAD_REACTORS
330
12178
102
}
330
12178
100
AcDbXrecord
280
     1
340
BE
  0
XRECORD
  5
1217A
102
{ACAD_REACTORS
330
12178
102
}
330
12178
100
AcDbXrecord
280
     1
340
BD
  0
DICTIONARYVAR
  5
138
102
{ACAD_REACTORS
330
94
102
}
330
94
100
DictionaryVariables
280
     0
  1
STANDARD
  0
DICTIONARYVAR
  5
96
102
{ACAD_REACTORS
330
94
102
}
330
94
100
DictionaryVariables
280
     0
  1
2
  0
DICTIONARYVAR
  5
12177
102
{ACAD_REACTORS
330
94
102
}
330
94
100
DictionaryVariables
280
     0
  1
0
  0
DICTIONARYVAR
  5
95
102
{ACAD_REACTORS
330
94
102
}
330
94
100
DictionaryVariables
280
     0
  1
1
  0
DICTIONARY
  5
1B5
102
{ACAD_REACTORS
330
5B
102
}
330
5B
100
AcDbDictionary
281
     1
  0
ACAD_PROXY_OBJECT
  5
5C
102
{ACAD_REACTORS
330
5B
102
}
330
5B
100
AcDbProxyObject
 90
      499
 91
      521
 95
       25
 70
     0
 93
      118
310
405010040CA904C415CD5B075DD488
350
5D
 94
        0
  0
DICTIONARY
  5
61
102
{ACAD_REACTORS
330
5B
102
}
330
5B
100
AcDbDictionary
281
     1
  3
ANSI
350
2E42
  3
ISO
350
62
  3
JIS
350
1FE
  0
XRECORD
  5
123
102
{ACAD_REACTORS
330
5B
102
}
330
5B
100
AcDbXrecord
280
     1
 90
-1023410169
  0
ACAD_PROXY_OBJECT
  5
4B
330
48
100
AcDbProxyObject
 90
      499
 91
      508
 95
       25
 70
     0
 93
      156
310
00010143D050D351505391D5531054925390D490
330
48
 94
        0
  0
ACAD_PROXY_OBJECT
  5
4C
330
48
100
AcDbProxyObject
 90
      499
 91
      508
 95
       25
 70
     0
 93
      148
310
000101439050D351531253915054925390D490
330
48
 94
        0
  0
ACAD_PROXY_OBJECT
  5
4D
330
48
100
AcDbProxyObject
 90
      499
 91
      509
 95
       25
 70
     0
 93
      156
310
000101439050D35154D6535093D314D256915080
330
48
 94
        0
  0
ACAD_PROXY_OBJECT
  5
4F
330
48
100
AcDbProxyObject
 90
      499
 91
      511
 95
       25
 70
     0
 93
       88
310
000101411093D34C402B00
330
48
330
0
330
0
 94
        0
  0
ACAD_PROXY_OBJECT
  5
60
330
48
100
AcDbProxyObject
 90
      499
 91
      523
 95
       25
 70
     0
 93
      140
310
00010142105350D55494D511005034A49530
330
48
 94
        0
  0
ACAD_PROXY_OBJECT
  5
C9
330
48
100
AcDbProxyObject
 90
      499
 91
      544
 95
       25
 70
     0
 93
      374
310
0001014119185D1940508372E302E33392E38014124FEA55D00507392E322E302E3240501000041905394D24CCC658
330
48
330
CA
330
D0
 94
        0
  0
ACAD_PROXY_OBJECT
  5
CA
330
48
100
AcDbProxyObject
 90
      499
 91
      545
 95
       25
 70
     0
 93
       56
310
000190240E0000
330
48
330
CB
330
CD
 94
        0
  0
ACAD_PROXY_OBJECT
  5
CB
330
48
100
AcDbProxyObject
 90
      499
 91
      546
 95
       25
 70
     0
 93
       48
310
0001AA000000
330
48
330
1E
330
CC
330
0
 94
        0
  0
ACAD_PROXY_OBJECT
  5
CC
330
48
100
AcDbProxyObject
 90
      499
 91
      547
 95
       25
 70
     0
 93
       28
310
0001AAA0
330
48
 94
        0
  0
ACAD_PROXY_OBJECT
  5
CD
330
48
100
AcDbProxyObject
 90
      499
 91
      546
 95
       25
 70
     0
 93
       48
310
0001AA000000
330
48
330
26
330
CE
330
0
 94
        0
  0
ACAD_PROXY_OBJECT
  5
CE
330
48
100
AcDbProxyObject
 90
      499
 91
      547
 95
       25
 70
     0
 93
       28
310
0001AAA0
330
48
 94
        0
  0
ACAD_PROXY_OBJECT
  5
D1
330
48
100
AcDbProxyObject
 90
      499
 91
      509
 95
       25
 70
     0
 93
      108
310
000101421053521310D05310D010
330
48
 94
        0
  0
ACAD_PROXY_OBJECT
  5
D2
330
48
100
AcDbProxyObject
 90
      499
 91
      509
 95
       25
 70
     0
 93
      124
310
00010142905354915554D15112535010
330
48
 94
        0
  0
ACAD_PROXY_OBJECT
  5
D3
330
48
100
AcDbProxyObject
 90
      499
 91
      509
 95
       25
 70
     0
 93
      132
310
00010143105354D150D51253D391125360
330
48
 94
        0
  0
ACAD_PROXY_OBJECT
  5
D4
330
48
100
AcDbProxyObject
 90
      499
 91
      509
 95
       25
 70
     0
 93
      124
310
00010142905355941093D49111549010
330
48
 94
        0
  0
ACAD_PROXY_OBJECT
  5
D5
330
48
100
AcDbProxyObject
 90
      499
 91
      509
 95
       25
 70
     0
 93
      116
310
0001014290535115D1D0D3D313D4A0
330
48
 94
        0
  0
ACAD_PROXY_OBJECT
  5
D6
330
48
100
AcDbProxyObject
 90
      499
 91
      509
 95
       25
 70
     0
 93
      148
310
00010143505355925155D49151949154D21010
330
48
 94
        0
  0
ACAD_PROXY_OBJECT
  5
D7
330
48
100
AcDbProxyObject
 90
      499
 91
      509
 95
       25
 70
     0
 93
      172
310
00010144105350539393D51154149154D15495915010
330
48
 94
        0
  0
ACAD_PROXY_OBJECT
  5
DA
330
48
100
AcDbProxyObject
 90
      499
 91
      509
 95
       25
 70
     0
 93
      172
310
00010144105350555513D11253505494905391D15010
330
48
 94
        0
  0
ACAD_PROXY_OBJECT
  5
DB
330
48
100
AcDbProxyObject
 90
      499
 91
      509
 95
       25
 70
     0
 93
      124
310
00010142D05351561514915191125360
330
48
 94
        0
  0
ACAD_PROXY_OBJECT
  5
DC
330
48
100
AcDbProxyObject
 90
      499
 91
      509
 95
       25
 70
     0
 93
      132
310
00010142D05355105410539393D5115010
330
48
 94
        0
  0
ACAD_PROXY_OBJECT
  5
DD
330
48
100
AcDbProxyObject
 90
      499
 91
      509
 95
       25
 70
     0
 93
      108
310
00010142105350555513D0D31010
330
48
 94
        0
  0
ACAD_PROXY_OBJECT
  5
DE
330
48
100
AcDbProxyObject
 90
      499
 91
      509
 95
       25
 70
     0
 93
      108
310
00010142105350D3119150551050
330
48
 94
        0
  0
ACAD_PROXY_OBJECT
  5
DF
330
48
100
AcDbProxyObject
 90
      499
 91
      509
 95
       25
 70
     0
 93
      108
310
00010142105350D315925155D3F0
330
48
 94
        0
  0
ACAD_PROXY_OBJECT
  5
E0
330
48
100
AcDbProxyObject
 90
      499
 91
      509
 95
       25
 70
     0
 93
      148
310
0001014350535212511156915493D112535010
330
48
 94
        0
  0
ACAD_PROXY_OBJECT
  5
E1
330
48
100
AcDbProxyObject
 90
      499
 91
      509
 95
       25
 70
     0
 93
      124
310
00010142905352105510D21254D3D010
330
48
 94
        0
  0
ACAD_PROXY_OBJECT
  5
E2
330
48
100
AcDbProxyObject
 90
      499
 91
      509
 95
       25
 70
     0
 93
      148
310
00010143905354D25391D31152105513105660
330
48
 94
        0
  0
ACAD_PROXY_OBJECT
  5
E3
330
48
100
AcDbProxyObject
 90
      499
 91
      509
 95
       25
 70
     0
 93
      124
310
00010142D0535115D1D193111254D420
330
48
 94
        0
  0
ACAD_PROXY_OBJECT
  5
E4
330
48
100
AcDbProxyObject
 90
      499
 91
      509
 95
       25
 70
     0
 93
      100
310
00010142105350555513D213A0
330
48
 94
        0
  0
ACAD_PROXY_OBJECT
  5
E5
330
48
100
AcDbProxyObject
 90
      499
 91
      509
 95
       25
 70
     0
 93
      116
310
000101425053521390D3D553951010
330
48
 94
        0
  0
ACAD_PROXY_OBJECT
  5
E6
330
48
100
AcDbProxyObject
 90
      499
 91
      509
 95
       25
 70
     0
 93
      108
310
0001014210535213941493D29010
330
48
 94
        0
  0
ACAD_PROXY_OBJECT
  5
E7
330
48
100
AcDbProxyObject
 90
      499
 91
      509
 95
       25
 70
     0
 93
      108
310
0001014210535213951654115070
330
48
 94
        0
  0
ACAD_PROXY_OBJECT
  5
E8
330
48
100
AcDbProxyObject
 90
      499
 91
      509
 95
       25
 70
     0
 93
      108
310
000101421053521395925155D0F0
330
48
 94
        0
  0
ACAD_PROXY_OBJECT
  5
E9
330
48
100
AcDbProxyObject
 90
      499
 91
      509
 95
       25
 70
     0
 93
      140
310
00010143505354D150D51253D390D3D41660
330
48
 94
        0
  0
ACAD_PROXY_OBJECT
  5
EA
330
48
100
AcDbProxyObject
 90
      499
 91
      509
 95
       25
 70
     0
 93
      108
310
00010142105350D3141493D29030
330
48
 94
        0
  0
ACAD_PROXY_OBJECT
  5
EB
330
48
100
AcDbProxyObject
 90
      499
 91
      508
 95
       25
 70
     0
 93
      212
310
00010143905350555513D2105510D21493D500000000000002E400
330
48
 94
        0
  0
ACAD_PROXY_OBJECT
  5
EC
330
48
100
AcDbProxyObject
 90
      499
 91
      509
 95
       25
 70
     0
 93
      156
310
00010143905350555513D2105510D21111551010
330
48
 94
        0
  0
ACAD_PROXY_OBJECT
  5
F5
330
48
100
AcDbProxyObject
 90
      499
 91
      553
 95
       25
 70
     0
 93
      706
310
0001000000009AA6A9AA4051E576564204665622031392032313A35383A3234203230303320285554432901420DCB8C0B8CCE4B8E00518546875204E6F762030342031373A30353A313120323031300141CE4B8C8B8C0B8C80
330
48
330
F6
330
F7
330
F9
330
0
 94
        0
  0
ACAD_PROXY_OBJECT
  5
F6
330
48
100
AcDbProxyObject
 90
      499
 91
      554
 95
       25
 70
     0
 93
       70
310
0001AAA80820000000
330
48
330
F6
330
F6
 94
        0
  0
ACAD_PROXY_OBJECT
  5
F7
330
48
100
AcDbProxyObject
 90
      499
 91
      555
 95
       25
 70
     0
 93
       48
310
000100000000
330
48
330
0
330
F8
330
0
330
0
 94
        0
  0
ACAD_PROXY_OBJECT
  5
F8
330
48
100
AcDbProxyObject
 90
      499
 91
      556
 95
       25
 70
     0
 93
       40
310
000100AAAA
330
48
330
0
 94
        0
  0
ACAD_PROXY_OBJECT
  5
FE
330
48
100
AcDbProxyObject
 90
      499
 91
      523
 95
       25
 70
     0
 93
      180
310
00010143105050D3D35411119390535140504434F4D500
330
48
 94
        0
  0
ACAD_PROXY_OBJECT
  5
FF
330
48
100
AcDbProxyObject
 90
      499
 91
      523
 95
       25
 70
     0
 93
      212
310
0001014390505193D311115491119390535140506466F6C6465720
330
48
 94
        0
  0
ACAD_PROXY_OBJECT
  5
100
330
48
100
AcDbProxyObject
 90
      499
 91
      523
 95
       25
 70
     0
 93
      180
310
00010143105050539393D1119390535140504284156290
330
48
 94
        0
  0
ACAD_PROXY_OBJECT
  5
101
330
48
100
AcDbProxyObject
 90
      499
 91
      523
 95
       25
 70
     0
 93
      436
310
00010143905050D3D35415925155D31254D50052295BD96CA0A90B396CA0A894591A496CA0A8DB691A496CA0A89BA96CA0A95E28F95310
330
48
 94
        0
  0
ACAD_PROXY_OBJECT
  5
106
330
48
100
AcDbProxyObject
 90
      499
 91
      561
 95
       25
 70
     0
 93
       32
310
00010000
330
48
340
103
330
108
330
103
 94
        0
  0
ACAD_PROXY_OBJECT
  5
107
330
48
100
AcDbProxyObject
 90
      499
 91
      562
 95
       25
 70
     0
 93
       18
310
000180
330
48
 94
        0
  0
ACAD_PROXY_OBJECT
  5
108
330
48
100
AcDbProxyObject
 90
      499
 91
      563
 95
       25
 70
     0
 93
      202
310
0001014391D351948C8D4C8D4B4D4D4B4D8C1050055401550000
330
48
330
106
330
107
 94
        0
  0
ACAD_PROXY_OBJECT
  5
109
330
48
100
AcDbProxyObject
 90
      499
 91
      564
 95
       25
 70
     0
 93
      178
310
000100AAAAAAB4570414E6890A50AB29DAF15A390F8700
330
48
330
108
 94
        0
  0
ACAD_PROXY_OBJECT
  5
10A
330
48
100
AcDbProxyObject
 90
      499
 91
      565
 95
       25
 70
     0
 93
      108
310
000190140A000000000000AAAAA0
330
48
330
10B
330
10B
330
10B
330
10B
330
10B
330
0
 94
        0
  0
ACAD_PROXY_OBJECT
  5
10B
330
48
100
AcDbProxyObject
 90
      499
 91
      566
 95
       25
 70
     0
 93
       51
310
00010000AAAA80
330
48
330
10A
330
108
 94
        0
  0
ACAD_PROXY_OBJECT
  5
34D
330
48
100
AcDbProxyObject
 90
      499
 91
      509
 95
       25
 70
     0
 93
      148
310
0001014350535311D0D3D313D49353D1115010
330
48
 94
        0
  0
ACAD_PROXY_OBJECT
  5
A3EF
330
48
100
AcDbProxyObject
 90
      499
 91
      611
 95
       25
 70
     0
 93
      415
310
0011435058D499931A5B9954DD185D196727130BDBF77A120148B9582E54BE90811615E5C90967886803814BCF27B55A42040000
330
48
330
0
330
0
 94
        0
  0
ACAD_PROXY_OBJECT
  5
A3FE
330
48
100
AcDbProxyObject
 90
      499
 91
      596
 95
       25
 70
     0
 93
      451
310
0011441058D49990DA5C98D05C98D4DD185D1960C0B4AD7589120A0171845280BD666E8152D000000000000000810305A88A9F642328000000
330
48
330
0
330
0
 94
        0
  0
ACAD_PROXY_OBJECT
  5
A6B9
330
48
100
AcDbProxyObject
 90
      499
 91
      596
 95
       25
 70
     0
 93
      451
310
0011441058D49990DA5C98D05C98D4DD185D1963C667FCA4CCC9BA007183BAF7748E768152D000000000000000810305A88A9F642328000000
330
48
330
0
330
0
 94
        0
  0
ACAD_PROXY_OBJECT
  5
A6D2
330
48
100
AcDbProxyObject
 90
      499
 91
      611
 95
       25
 70
     0
 93
      415
310
0011435058D499931A5B9954DD185D1960A47DA2AA4B32D20180CBB51F2AC4868106926360D77CEB480482E8617D92FA12040000
330
48
330
0
330
0
 94
        0
  0
ACAD_PROXY_OBJECT
  5
A6DA
330
48
100
AcDbProxyObject
 90
      499
 91
      611
 95
       25
 70
     0
 93
      415
310
0011435058D499931A5B9954DD185D19662165ACFAA78ADA007183BAF7748E6E81121F302D843BCB8801C60EEBDDD239BA040000
330
48
330
0
330
0
 94
        0
  0
ACAD_PROXY_OBJECT
  5
A6DC
330
48
100
AcDbProxyObject
 90
      499
 91
      611
 95
       25
 70
     0
 93
      415
310
0011435058D499931A5B9954DD185D19662165ACFAA78ADA0151FDCEA4BC707E81188596B3EA9E2B6802A7FB994978E202040000
330
48
330
0
330
0
 94
        0
  0
ACAD_PROXY_OBJECT
  5
A9E2
330
48
100
AcDbProxyObject
 90
      499
 91
      611
 95
       25
 70
     0
 93
      415
310
0011435058D499931A5B9954DD185D196383E1F42A02F9CA007125BEA6284060811415EE370E6247A801C496FA98A10182040000
330
48
330
0
330
0
 94
        0
  0
ACAD_PROXY_OBJECT
  5
A9E4
330
48
100
AcDbProxyObject
 90
      499
 91
      611
 95
       25
 70
     0
 93
      415
310
0011435058D499931A5B9954DD185D196383E1F42A02F9CA01519FD255702070810E0F87D0A80BE72805467F4955C081CA040000
330
48
330
0
330
0
 94
        0
  0
ACAD_PROXY_OBJECT
  5
B271
330
48
100
AcDbProxyObject
 90
      499
 91
      611
 95
       25
 70
     0
 93
      415
310
0011435058D499931A5B9954DD185D1962C0EA985BC8D24A0180CBB51F2AC486811304A42D8B83A9480482E8617D92FA12040000
330
48
330
0
330
0
 94
        0
  0
ACAD_PROXY_OBJECT
  5
B273
330
48
100
AcDbProxyObject
 90
      499
 91
      611
 95
       25
 70
     0
 93
      415
310
0011435058D499931A5B9954DD185D1965C2C2A4FC798262007183BAF7748E6E810A1E5DA7052149C801C60EEBDDD239BA040000
330
48
330
0
330
0
 94
        0
  0
ACAD_PROXY_OBJECT
  5
B275
330
48
100
AcDbProxyObject
 90
      499
 91
      611
 95
       25
 70
     0
 93
      415
310
0011435058D499931A5B9954DD185D1965C2C2A4FC7982620151FDCEA4BC707E81170B0A93F1E6098802A7FB994978E202040000
330
48
330
0
330
0
 94
        0
  0
ACAD_PROXY_OBJECT
  5
C0EC
330
48
100
AcDbProxyObject
 90
      499
 91
      596
 95
       25
 70
     0
 93
      451
310
0011441058D49990DA5C98D05C98D4DD185D196782BE430EDAFA0A0041D034B7284A708152D000000000000000810305A88A9F642328000000
330
48
330
0
330
0
 94
        0
  0
ACAD_PROXY_OBJECT
  5
C0F0
330
48
100
AcDbProxyObject
 90
      499
 91
      596
 95
       25
 70
     0
 93
      451
310
0011441058D49990DA5C98D05C98D4DD185D196401B276215A99B201C169CE4EC2646A8152D1EA5DE4F9A14004810305A88A9F642328000000
330
48
330
0
330
0
 94
        0
  0
ACAD_PROXY_OBJECT
  5
C374
330
48
100
AcDbProxyObject
 90
      499
 91
      596
 95
       25
 70
     0
 93
      451
310
0011441058D49990DA5C98D05C98D4DD185D1966001EEF392CD212004DEEC4C322EC6A8152D000000000000000810305A88A9F642328000000
330
48
330
0
330
0
 94
        0
  0
ACAD_PROXY_OBJECT
  5
C738
330
48
100
AcDbProxyObject
 90
      499
 91
      611
 95
       25
 70
     0
 93
      415
310
0011435058D499931A5B9954DD185D1966F5ADBE37D86A4200005FD65A198C9A811E13D4580549E68800017F596866326A040000
330
48
330
0
330
0
 94
        0
  0
ACAD_PROXY_OBJECT
  5
CA63
330
48
100
AcDbProxyObject
 90
      499
 91
      611
 95
       25
 70
     0
 93
      415
310
0011435058D499931A5B9954DD185D1966F5ADBE37D86A4200005FD65A198C9A811E13D4580549E68800017F596866326A040000
330
48
330
0
330
0
 94
        0
  0
ACAD_PROXY_OBJECT
  5
CCD4
330
48
100
AcDbProxyObject
 90
      499
 91
      596
 95
       25
 70
     0
 93
      451
310
0011441058D49990DA5C98D05C98D4DD185D196782BE430EDAFA0A0041D034B7284A708152D000000000000000810305A88A9F642328000000
330
48
330
0
330
0
 94
        0
  0
ACAD_PROXY_OBJECT
  5
D843
330
48
100
AcDbProxyObject
 90
      499
 91
      596
 95
       25
 70
     0
 93
      451
310
0011441058D49990DA5C98D05C98D4DD185D196384ECAA3E62D1DA00E0CD282E1294588152D000000000000000810305A88A9F642328000000
330
48
330
0
330
0
 94
        0
  0
ACAD_PROXY_OBJECT
  5
D848
330
48
100
AcDbProxyObject
 90
      499
 91
      596
 95
       25
 70
     0
 93
      451
310
0011441058D49990DA5C98D05C98D4DD185D19600098A75739416A01099CB3E3AC604E8152D119DD4B03039E08810305A88A9F642328000000
330
48
330
0
330
0
 94
        0
  0
ACAD_PROXY_OBJECT
  5
DAA5
330
48
100
AcDbProxyObject
 90
      499
 91
      611
 95
       25
 70
     0
 93
      415
310
0011435058D499931A5B9954DD185D19672D6332A5F7EB3A015C45F556C1A8E08100864A54CEDD8C68057117D55B06A382040000
330
48
330
0
330
0
 94
        0
  0
ACAD_PROXY_OBJECT
  5
DAB3
330
48
100
AcDbProxyObject
 90
      499
 91
      596
 95
       25
 70
     0
 93
      451
310
0011441058D49990DA5C98D05C98D4DD185D19660475AE99CBBB8201BD06B186B026DA8152D0000000000001C07F0305A88A9F643F27E00000
330
48
330
0
330
0
 94
        0
  0
ACAD_PROXY_OBJECT
  5
DAB4
330
48
100
AcDbProxyObject
 90
      499
 91
      596
 95
       25
 70
     0
 93
      515
310
0011441058D49990DA5C98D05C98D4DD185D19664FF72DD90C737201BD06B186B026DA8152D0000000000001C07E0C16A22A7D90FC9F8305A88A9F642128000000
330
48
330
0
330
0
 94
        0
  0
ACAD_PROXY_OBJECT
  5
E116
330
48
100
AcDbProxyObject
 90
      499
 91
      596
 95
       25
 70
     0
 93
      515
310
0011441058D49990DA5C98D05C98D4DD185D196660BDD641EB2A4201AE491B3892FCAE8152D0000000000001C07E0C16A22A7D9084A01A44266FEF9B2248000000
330
48
330
0
330
0
 94
        0
  0
ACAD_PROXY_OBJECT
  5
E11E
330
48
100
AcDbProxyObject
 90
      499
 91
      596
 95
       25
 70
     0
 93
      451
310
0011441058D49990DA5C98D05C98D4DD185D1965649673B42F322201E80531B8D7DA848152D000000000000000810305A88A9F642328000000
330
48
330
0
330
0
 94
        0
  0
ACAD_PROXY_OBJECT
  5
E12C
330
48
100
AcDbProxyObject
 90
      499
 91
      611
 95
       25
 70
     0
 93
      415
310
0011435058D499931A5B9954DD185D1962875762F1DF82DA0158423B917BCA88810A1D5D8BC77E0B68056108EE45EB2A2A040000
330
48
330
0
330
0
 94
        0
  0
ACAD_PROXY_OBJECT
  5
E12E
330
48
100
AcDbProxyObject
 90
      499
 91
      611
 95
       25
 70
     0
 93
      415
310
0011435058D499931A5B9954DD185D1962875762F1DF82DA01E60531B8D7DA80810A1D5D8BC77E0B68079814C6E35B6A02040000
330
48
330
0
330
0
 94
        0
  0
ACAD_PROXY_OBJECT
  5
E425
330
48
100
AcDbProxyObject
 90
      499
 91
      596
 95
       25
 70
     0
 93
      515
310
0011441058D49990DA5C98D05C98D4DD185D1963210E38080602D201C0654F5EE17A6C8152D000000000000010800C16A22A7D9084A01A44266FEF9B2248000000
330
48
330
0
330
0
 94
        0
  0
ACAD_PROXY_OBJECT
  5
E427
330
48
100
AcDbProxyObject
 90
      499
 91
      596
 95
       25
 70
     0
 93
      515
310
0011441058D49990DA5C98D05C98D4DD185D1967F5D304DCCFCAFA00E1EB39B199987E8152D00000000000001080691099BFBE6C89200305A88A9F642328000000
330
48
330
0
330
0
 94
        0
  0
ACAD_PROXY_OBJECT
  5
EADD
330
48
100
AcDbProxyObject
 90
      499
 91
      596
 95
       25
 70
     0
 93
      515
310
0011441058D49990DA5C98D05C98D4DD185D1963210E38080602D20140EA48640108728152D000000000000010800C16A22A7D9084A01A44266FEF9B2248000000
330
48
330
0
330
0
 94
        0
  0
ACAD_PROXY_OBJECT
  5
EADF
330
48
100
AcDbProxyObject
 90
      499
 91
      596
 95
       25
 70
     0
 93
      515
310
0011441058D49990DA5C98D05C98D4DD185D1967F5D304DCCFCAFA0030391A5B5C92828152D00000000000001080691099BFBE6C89200305A88A9F642328000000
330
48
330
0
330
0
 94
        0
  0
ACAD_PROXY_OBJECT
  5
EBEF
330
48
100
AcDbProxyObject
 90
      499
 91
      596
 95
       25
 70
     0
 93
      451
310
0011441058D49990DA5C98D05C98D4DD185D1965649673B42F32220011F60C89B730608152D000000000000000810305A88A9F642328000000
330
48
330
0
330
0
 94
        0
  0
ACAD_PROXY_OBJECT
  5
102A7
330
48
100
AcDbProxyObject
 90
      499
 91
      596
 95
       25
 70
     0
 93
      451
310
0011441058D49990DA5C98D05C98D4DD185D196782BE430EDAFA0A0041D034B7284A708152D000000000000000810305A88A9F642328000000
330
48
330
0
330
0
 94
        0
  0
ACAD_PROXY_OBJECT
  5
102AB
330
48
100
AcDbProxyObject
 90
      499
 91
      596
 95
       25
 70
     0
 93
      451
310
0011441058D49990DA5C98D05C98D4DD185D196401B276215A99B201C169CE4EC2646A8152D1EA5DE4F9A14004810305A88A9F642328000000
330
48
330
0
330
0
 94
        0
  0
ACAD_PROXY_OBJECT
  5
11579
330
48
100
AcDbProxyObject
 90
      499
 91
      611
 95
       25
 70
     0
 93
      415
310
0011435058D499931A5B9954DD185D1960C964CAA5F7EB3A016493AF56C1A8E08107163094CEDD8C6805924EBD5B06A382040000
330
48
330
0
330
0
 94
        0
  0
ACAD_PROXY_OBJECT
  5
11587
330
48
100
AcDbProxyObject
 90
      499
 91
      596
 95
       25
 70
     0
 93
      451
310
0011441058D49990DA5C98D05C98D4DD185D19613CDCDD0033C38201CDA22586B026DA8152D0000000000001C07F0305A88A9F643F27E00000
330
48
330
0
330
0
 94
        0
  0
ACAD_PROXY_OBJECT
  5
11588
330
48
100
AcDbProxyObject
 90
      499
 91
      596
 95
       25
 70
     0
 93
      515
310
0011441058D49990DA5C98D05C98D4DD185D1967EBE8C5E10C737201CDA22586B026DA8152D0000000000001C07E0C16A22A7D90FC9F8305A88A9F642128000000
330
48
330
0
330
0
 94
        0
  0
DICTIONARY
  5
42
102
{ACAD_REACTORS
330
41
102
}
330
41
100
AcDbDictionary
281
     1
  3
DWGSETTINGS
350
43
  3
FEM
350
AA
  3
Shaft
350
A7
  3
TRANSSETTINGS
350
44
  0
ACAD_PROXY_OBJECT
  5
63
102
{ACAD_REACTORS
330
41
102
}
330
41
100
AcDbProxyObject
 90
      499
 91
      525
 95
       25
 70
     0
 93
    17920
310
41502491013041105357CC201C00030C011E441013141105357CC603800030C011E441013241105357CCA01400030C011E441013341105357CCE01800030C010D9013441105357CD200C00030C010D9013541105357CD600C00030C010D9013641105357CDA00800030C011E9013741105357CDE01000030C010D901384110
310
5357CE200400030C011E9013941105357CE63F400030C0241102324141505357CC4C201C00030C011E902344141505357CC4C600C00030C010D902495041505357CC4CA01C00030C011E40902304E41505357CC13A01C00030C011E902314E41505357CC53A03800030C011E902324E41505357CC93A01400030C011E90233
310
4E41505357CCD3A01800030C010D902344E41505357CD13A00C00030C010D902354E41505357CD53A00C00030C010D902364E41505357CD93A00800030C011E902374E41505357CDD3A01000030C010D902384E41505357CE13A00400030C011E902394E41505357CE53A3F400030C024110332414E41905357CC4C13A01C0
310
0030C011E90334414E41905357CC4C53A00C00030C010D90349504E41905357CC4C93A01C00030C011E409044B4C494E41505357D0D3200400030C011E42504494E464F42105357D410549151A01000030C010D42D055241484D3541905357D093D4A01C00030C011E425045649455742105357D5925155D4E00400030C011
310
E42D06424548494E4441905357D25395A3F400030C0243505545241494C41505357D514A00C00030C010D4250348494441905357D21251201C00030C011E4250356495341905357D59254E01C00030C011E4250650415244494D42505357D41054911253600C00030C010D4250652454644494D42505357D49151911253601
310
000030C010D425534110921395901398000000C0003FFFFFFFE415092139594D06424548494E448000000C0003FFFFFFFE411093D48C9055241484D358010000C30047A411093D48CD055241484D358020000C30047A411093D48D5055241484D358000000C0003FFFFFFFE4110D0530C901348000000C0003FFFFFFFE4110
310
D0530CD01348020000C30047A4110D0530D501348070000C30047A4110D0530DD013481E0000C30047A4110D15393901378000000C0003FFFFFFFE4110D15395D01378000000C0003FFFFFFFE4110D312539044B4C494E8000000C0003FFFFFFFE4110D3D38C501308000000C0003FFFFFFFD034110D3D38C901318000000C
310
0003FFFFFFFD034110D3D38CD01328000000C0003FFFFFFFD034110D3D38D101328000000C0003FFFFFFFD034111115510501348000000C0003FFFFFFFE4111125051D01358000000C0003FFFFFFFE4111125312501358000000C0003FFFFFFFE411112535410650415244494D8000000C0003FFFFFFFE4111125354906524
310
54644494D8000000C0003FFFFFFFE4111915353901388000000C0003FFFFFFFE415191535413901388030000C3004364151915354D410234418000000C0003FFFFFFFE4151915354D510234418030000C300436415191535593901328000000C0003FFFFFFFE415191535595101328030000C3004364112105510D01388000
310
000C0003FFFFFFFD014112125113901338000000C0003FFFFFFFD034112125115D01338000000C0003FFFFFFFD034112131253901348000000C0003FFFFFFFD01411213D0D3901378000000C0003FFFFFFFE411213D0D5D01378000000C0003FFFFFFFE4112539193D04494E464F8000000C0003FFFFFFFE41131150511013
310
58000000C0003FFFFFFFE419397D0921395902394E8000000C0003FFFFFFFE419397D0D3D38C502304E8000000C0003FFFFFFFD03419397D0D3D38C902314E8000000C0003FFFFFFFD03419397D0D3D38CD02324E8000000C0003FFFFFFFD03419397D0D3D38D102324E8000000C0003FFFFFFFD03419397D0D15393902374
310
E8000000C0003FFFFFFFE419397D0D15395D02374E8000000C0003FFFFFFFE419397D1125312502354E8000000C0003FFFFFFFE419397D2105510D02384E8000000C0003FFFFFFFD01419397D2125113902334E8000000C0003FFFFFFFD03419397D2125115D02334E8000000C0003FFFFFFFD03419397D3115051102354E8
310
000000C0003FFFFFFFE419397D391D25410349504E8000000C0003FFFFFFFE419397D412105390334414E8000000C0003FFFFFFFE419397D510D3D3902304E8000000C0003FFFFFFFD03419397D5121312502344E8000000C0003FFFFFFFD01419397D5131153902304E8000000C0003FFFFFFFD03419397D5941312503324
310
14E8000000C0003FFFFFFFE411391D25410249508000000C0003FFFFFFFE411410530C9055241484D358010000C30047A411410530CD055241484D358020000C30047A411410530D5055241484D358000000C0003FFFFFFFE411412105390234418000000C0003FFFFFFFE411413D4D3901358000000C0003FFFFFFFE41149
310
0D1D3901378000000C0003FFFFFFFE411490D1D5D01378000000C0003FFFFFFFE4114D09492D01348000000C0003FFFFFFFD014114D150D5101348000000C0003FFFFFFFD014114D6508CD01358020000C30047A411354D653501358020000C30047A411510D3D3901308000000C0003FFFFFFFD0341151213125013480000
310
00C0003FFFFFFFD01411512550C9055241484D358010000C30047A411512550CD055241484D358020000C30047A411512550D5055241484D358000000C0003FFFFFFFE4115131153901308000000C0003FFFFFFFD03415514905253105545241494C8000000C0003FFFFFFFE4115149312501348000000C0003FFFFFFFD014
310
11516150C501368030000C300436411516150C901368030000C300436411516150CD01368000000C0003FFFFFFFE411516150D501368070000C30047A411516150DD013681E0000C30047A4115925155D04564945578000000C0003FFFFFFFE41159151121034849448000000C0003FFFFFFFD024115915115903564953800
310
0000C0003FFFFFFFD02411594131250232418000000C0003FFFFFFFE4116925690501348000000C0003FFFFFFFD01AAA3F400030C01013F90A4051E4091E40D0D4110D4151E4190D41D1E4391E4791E7F6
340
16
340
16
340
16
340
64
340
16
340
16
340
16
340
65
340
16
340
16
340
65
340
66
340
16
340
16
340
16
340
16
340
64
340
16
340
16
340
16
340
65
340
16
340
16
340
65
340
66
340
16
340
67
340
16
340
16
340
16
340
16
340
16
340
64
340
16
340
16
340
16
340
15
340
15
340
15
340
15
340
15
340
15
340
15
340
15
340
15
340
68
340
15
340
15
340
15
340
15
340
15
340
15
340
15
340
15
340
15
340
15
340
15
340
15
340
15
340
16
340
15
340
15
340
15
340
15
340
69
340
15
340
15
340
68
340
15
340
15
340
15
340
15
340
15
340
15
340
15
340
15
340
68
340
15
340
15
340
15
340
69
340
15
340
15
340
15
340
15
340
15
340
15
340
15
340
15
340
15
340
15
340
15
340
15
340
15
340
15
340
68
340
15
340
15
340
15
340
15
340
15
340
15
340
15
340
15
340
15
340
15
340
15
340
15
340
15
340
15
340
15
340
15
340
15
340
15
340
15
340
15
340
15
340
15
340
6C
 94
        0
  0
ACAD_PROXY_OBJECT
  5
1BD
102
{ACAD_REACTORS
330
1B8
102
}
330
1B8
100
AcDbProxyObject
 90
      499
 91
      580
 95
       25
 70
     0
 93
      253
310
43D1444494D454E53494F4E2C414D44545F2A5F44494D404A9012A404A9012A8
  0
ACAD_PROXY_OBJECT
  5
1BC
102
{ACAD_REACTORS
330
1B8
102
}
330
1B8
100
AcDbProxyObject
 90
      499
 91
      580
 95
       25
 70
     0
 93
      181
310
43D012A42D05357D191504B505357CA9012A404A9012A8
  0
ACAD_PROXY_OBJECT
  5
1B9
102
{ACAD_REACTORS
330
1B8
102
}
330
1B8
100
AcDbProxyObject
 90
      499
 91
      580
 95
       25
 70
     0
 93
      133
310
43D054841544348404A9012A404A9012A8
  0
ACAD_PROXY_OBJECT
  5
1BA
102
{ACAD_REACTORS
330
1B8
102
}
330
1B8
100
AcDbProxyObject
 90
      499
 91
      580
 95
       25
 70
     0
 93
      549
310
43D044C494E4549CE0B0E138B0A8B4E0B0A8B4E138B105357CE0B105357CE138B0A8B505357CE0B0A8B505357CE139012A404A910494E534552542C5354445041525432448
  0
ACAD_PROXY_OBJECT
  5
1BE
102
{ACAD_REACTORS
330
1B8
102
}
330
1B8
100
AcDbProxyObject
 90
      499
 91
      580
 95
       25
 70
     0
 93
      181
310
43D0341524341105357CD5012A404C906494E534552540
  0
ACAD_PROXY_OBJECT
  5
1BB
102
{ACAD_REACTORS
330
1B8
102
}
330
1B8
100
AcDbProxyObject
 90
      499
 91
      580
 95
       25
 70
     0
 93
     1053
310
43D7841434D46434652414D452C41434D444154554D5441524745542C41434D444154554D49442C41434D57454C4453594D2C41434D5355524653594D2C41434D4645415449442C41434D504152545245462C41434D42414C4C4F4F4E2C414D44544544474553594D2C414D47534352455743414C435441424C45404A9012A
310
404A9012A8
  0
XRECORD
  5
8EC
102
{ACAD_REACTORS
330
8EA
102
}
330
8EA
100
AcDbXrecord
280
     1
  1
1,,,,,,,,,^M^J2,,,,,,,,,^M^J3,,,,,,,,,^M^J4,,,,,,,,,^M^J5,,,,,,,,,^M^J6,,,,,,,,,^M^J7,,,,,,,,,^M^J8,,,,,,,,,^M^J9,,,,,,,,,^M^J10,,,,,,,,,
  0

  0
XRECORD
  5
8EB
102
{ACAD_REACTORS
330
8EA
102
}
330
8EA
100
AcDbXrecord
280
     1
  1
10,10
  0

  0
ACAD_PROXY_OBJECT
  5
5D
102
{ACAD_REACTORS
330
5C
102
}
330
5C
100
AcDbProxyObject
 90
      499
 91
      522
 95
       25
 70
     0
 93
      157
310
057356C1D77406406AA8FFFFFFFF05DD01009010
330
1F
330
0
330
108
 94
        0
  0
ACAD_PROXY_OBJECT
  5
2E42
102
{ACAD_REACTORS
330
61
102
}
330
61
100
AcDbProxyObject
 90
      499
 91
      598
 95
       25
 70
     0
 93
     2395
310
5DCB81E85EB51B8BE3F8030000C30041105394D2501640600800030C0200800030C00B81E85EB51B8BE3F48821E8720B1B6A9BAB9332A32BC3A29BA3220480A1282C6DA8C868CA6E8C88120286A0B1B6ABB2B63234B733A9BA3220480A1082C6DA92C8A6E8C88120285A0B1B6A230BA3AB6A9BA3220480A1282C6DA849E9AA
310
6E8C8812028820B6B23A2232BA30B4B629BCB6A9BA3220480A2282DAC8E8A6CAC6E8D2DEDCA6F2DAA6E8C88120288A0B6B23A21B2B73A32B92634B732A9BA3220480A2282DAC8E8A8D0E4CAC2C898D2DCCAA6E8C88120285A0B6B23A2737BA32A9BA3220480A1682C682DACE98C2F2A6E8C88120285A0B1A0B6B3A234B6A9B
310
A3220480A2282C682DACE90DED8CA86D0C2E4E8A6E8C88120286A0B1A0B6B3AA34BA3632A9BA3220480A02812020
340
2E16
360
2E43
360
2E44
360
2E45
360
2E46
360
2E47
360
2E48
360
2E49
360
2E4A
360
2E4B
360
2E4C
360
2E4D
360
2E53
360
2E54
360
2E55
360
2E56
340
0
340
0
 94
        0
  0
ACAD_PROXY_OBJECT
  5
62
102
{ACAD_REACTORS
330
61
102
}
330
61
100
AcDbProxyObject
 90
      499
 91
      524
 95
       25
 70
     0
 93
     2497
310
5DC0000000000000C408000000C00040D254D3D01640600800030C0200800030C000000000000000C40C88A2085A0B6B23A22B233B2A9BA3220480A1C82C6DAA6EAE4CCA8CAF0E8A6E8C88120284A0B1B6A321A329BA3220480A1A82C6DAAECAD8C8D2DCCEA6E8C8812028420B1B6A4B229BA3220480A1682C6DA88C2E8EAD
310
AA6E8C88120284A0B1B6A127A6A9BA3220480A2082DAC8E888CAE8C2D2D8A6F2DAA6E8C88120288A0B6B23A29B2B1BA34B7B729BCB6A9BA3220480A2282DAC8E886CADCE8CAE498D2DCCAA6E8C88120285A0B6B23A2737BA32A9BA3220480A1682C682DACE98C2F2A6E8C88120285A0B1A0B6B3A234B6A9BA3220480A2282C
310
682DACE90DED8CA86D0C2E4E8A6E8C88120286A0B1A0B6B3AA34BA3632A9BA3220480A2282DAC8E8A8D0E4CAC2C898D2DCCAA6E8C8812032048080
340
6D
360
6E
360
6F
360
70
360
71
360
72
360
73
360
74
360
75
360
76
360
77
360
78
360
7F
360
80
360
8C
360
8D
360
10D
340
0
340
0
 94
        0
  0
ACAD_PROXY_OBJECT
  5
1FE
102
{ACAD_REACTORS
330
61
102
}
330
61
100
AcDbProxyObject
 90
      499
 91
      581
 95
       25
 70
     0
 93
     2387
310
5DC33333333333309408030000C30040D29254D01640600800030C0200800030C003333333333330940C8121E8720B1B6A9BAB9332A32BC3A29BA3220480A1282C6DA8C868CA6E8C88120286A0B1B6ABB2B63234B733A9BA3220480A1082C6DA92C8A6E8C88120285A0B1B6A230BA3AB6A9BA3220480A1282C6DA849E9AA6E
310
8C8812028820B6B23A2232BA30B4B629BCB6A9BA3220480A2282DAC8E8A6CAC6E8D2DEDCA6F2DAA6E8C88120288A0B6B23A21B2B73A32B92634B732A9BA3220480A2282DAC8E8A8D0E4CAC2C898D2DCCAA6E8C88120285A0B6B23A2737BA32A9BA3220480A1682C682DACE98C2F2A6E8C88120285A0B1A0B6B3A234B6A9BA3
310
220480A2282C682DACE90DED8CA86D0C2E4E8A6E8C88120286A0B1A0B6B3AA34BA3632A9BA3220480A02812020
340
1FF
360
200
360
201
360
202
360
203
360
204
360
205
360
206
360
207
360
208
360
209
360
20A
360
214
360
215
360
223
360
224
340
0
340
0
 94
        0
  0
ACAD_PROXY_OBJECT
  5
43
102
{ACAD_REACTORS
330
42
102
}
330
42
100
AcDbProxyObject
 90
      499
 91
      504
 95
       25
 70
     0
 93
     2616
310
4050B44574753455454494E4753A1286829C8E82A4A482B282A0472608321A2A720A723A0A849A1ABE1C983E18999AA0C868A9C8892829410134820741301A8083A1A2A72224A0A9A0A8418983E19183E199820E868A9C8892A6A894000000000000010808321A2A72622A7250000000000000122020C868A9C9E8C8C94000
310
0000000000488083A1A2A727A32318A50000000000000122020E868A9C9E8C8C64940000000000000488084A1A624A720A92920ACA0A8119982108698929C8AA8B2A082A0AB098929C8A84A22BA3AAA9A1A0A622A50A0E9882A6A89E849482A0A62646264848426A0A5A2AB24A2ABA7E8120CA0A68682988A0C00800010652
310
455649534941501304154D0D0531150540CC4E8C50954494D455354414D504A02C43A7027F2B734141D5915494D253D3905414C4D4B8C0C1107B44574753455454494E4753454E447D
  0
ACAD_PROXY_OBJECT
  5
AA
102
{ACAD_REACTORS
330
42
102
}
330
42
100
AcDbProxyObject
 90
      499
 91
      504
 95
       25
 70
     0
 93
      411
310
4050346454D21092DCC6E486DECACC942842630BCA3B937BAB820A8320A6AFA322A0A20F688AE8EA68AA8A8929C8EA68A9C88FA0
  0
ACAD_PROXY_OBJECT
  5
A7
102
{ACAD_REACTORS
330
42
102
}
330
42
100
AcDbProxyObject
 90
      499
 91
      504
 95
       25
 70
     0
 93
      513
310
40505536861667421292DCE8CAE4E4EAE0E89FC84A634B3B43A2634B732A7F21A98D2CED0E898D2DCCAACD2CAEE9FC883DA22BA3A9A2AA2A24A723A9A2A7223E80
  0
ACAD_PROXY_OBJECT
  5
44
102
{ACAD_REACTORS
330
42
102
}
330
42
100
AcDbProxyObject
 90
      499
 91
      504
 95
       25
 70
     0
 93
      852
310
4050D5452414E5353455454494E4753A2488A482AE929C8EA8A4829CA69882A8929E9C0C00800050D4F524947494E414C4C595F4F4E0600400028529A7AAA921A2A620A723A0A81A52827212AAA0A48AA68AA4AC8A0C0080001107B44574753455454494E4753454E447D0
  0
ACAD_PROXY_OBJECT
  5
2E43
330
2E42
100
AcDbProxyObject
 90
      499
 91
      599
 95
       25
 70
     0
 93
       96
310
5DC20E80A0280A0280A02808
  0
ACAD_PROXY_OBJECT
  5
2E44
330
2E42
100
AcDbProxyObject
 90
      499
 91
      600
 95
       25
 70
     0
 93
      332
310
5DD0E4050140501405014050140501405014050142501405014050140501405012000000000000000400
340
2E17
 94
        0
  0
ACAD_PROXY_OBJECT
  5
2E45
330
2E42
100
AcDbProxyObject
 90
      499
 91
      601
 95
       25
 70
     0
 93
      403
310
5DCC199999999999E99F91F4050140501405014050140501405014050140501405014050140501405014050140501405014040
340
0
 94
        0
  0
ACAD_PROXY_OBJECT
  5
2E46
330
2E42
100
AcDbProxyObject
 90
      499
 91
      602
 95
       25
 70
     0
 93
       10
310
5DC0
  0
ACAD_PROXY_OBJECT
  5
2E47
330
2E42
100
AcDbProxyObject
 90
      499
 91
      603
 95
       25
 70
     0
 93
      257
310
5DE290EA22A7D90F49F9353333333333727F44D4CCCCCCCCCDC9FC010000618000
340
2E14
340
2E15
 94
        0
  0
ACAD_PROXY_OBJECT
  5
2E48
330
2E42
100
AcDbProxyObject
 90
      499
 91
      604
 95
       25
 70
     0
 93
    13023
310
5DD0E411255115350141236025B6901405014069011309A4F2590CB64FD3347454E545241434F2C4A504E2C302C8D8096DA2C47454E54524154582C25732C2847454E4D53472067656E647767203232322940690120281A8AA2CA0282484A4BE52028120280A03202261349E4B2196C9FA668E8A9CA8A482869E5894A09C58
310
605921292F94588E8A9CA8A482A8B0584AE658508E8A9C9AA68E40CECADCC8EECE406464665280D202405044E414D454050496BC914F4051C40640A8B95C2E97CBE502404CD1D15395149050D3CB1294138B0C0B25AF2453CB11D15395149055160B095CCB0A11D1539354D1C819D95B991DD9C80C8C8D8A50192C3D494628
310
4953424C414E4B28504152543A4E414D45292C424C4F434B3A4E414D452C504152543A4E414D452940480A0A888AA686A480A09251B1DBE80A3A80C81D10782C06030180C8099A3A2A72A2920A1A7962528271618164946C76F9623A2A72A2920AA2C1612B9961423A2A726A9A39033B2B7323BB39019189B94A0248090142
310
14D51053911054911014122D2E29A50147501904A383BFDFEFF5FBFCFD3347454E545241434F2C4A504E2C302C8B4B8A692C47454E54524154582C25732C2847454E4D53472067656E64776720323138294049012028426A0AA22A924A0A62028246EF4BDFA028EA0320B41396D838E9017D9FA668E8A9CA8A482869E5894A
310
09C5860591BBD2F7E588E8A9CA8A482A8B0584AE658508E8A9C9AA68E40CECADCC8EECE406464625280D202405044E4F544540504928D8B4C4051D40641A8B95C2E97CBE5F23F4CD1D15395149050D3CB1294138B0C0B24A362D30B11D15395149055160B095CCB0A11D1539354D1C819D95B991DD9C80C8C8D4A501A40480
310
A0CAC8A9C889EA480A1106F1072706BF02B680A3A80C83D172B85D2F97CBE47E9BA3A2A72A2920A1A79625282716181641BC41C9C1AFC0AD9623A2A72A2920AA2C1612B9961423A2A726A9A39033B2B7323BB39019191A14A0348090141911154D0D48C90141A43825AF880C90147501908A20F0580C0603019013447454E5
310
45241434F2C4A504E2C302C90E096BE20322C47454E54524154582C25732C2847454E4D53472067656E6477672033362940490120284A9AA20A72220A922192028345A5C53490192028EA0321347077FBFDFEBF7F9FA6A8E8A9CA8A482869E5894A09C586059169714D24064588E8A9CA8A482A8B0584AE658508E8A9C9AA6
310
8E40CECADCC8EECE4064646052809202405094D4154455249414C32405068DDE97BF20324051D40642A8272DB071D202FB3F4D11D15395149050D3CB1294138B0C0B2377A5EFC80C8B11D15395149055160B095CCB0A11D1539354D1C819D95B991DD9C80D0C0A501240480A089A82A6A680A091D7F2F9480A3A80A0485A06
310
81172B85D2F97CBE47E9923A2A72A2920A1A796252827161816475FCBE51623A2A72A2920AA2C1612B9961423A2A726A9A39033B2B7323BB3901A1914A024809014154149250D150141226FE29A501475014090C409022E570BA5F2F97C8FD3247454E545241434F2C4A504E2C302C89BF8A692C47454E54524154582C2573
310
2C2847454E4D53472067656E6477672034332940490120281A224A6A02824850CB202028EA028121A81A045CAE174BE5F2F91FA648E8A9CA8A482869E5894A09C58605921432C80588E8A9CA8A482A8B0584AE658508E8A9C9AA68E40CECADCC8EECE406868528092024050E441022E07A17AD46E338FE07800030C0001018
310
ACD56AB55AADF63F2B355AAD56AB7D8FD073D3C4954454D3E405018ACD56AB55AADF63F2B355AAD56AB7D8FD073D3C4954454D3E40501890C7E3F1783CEE3F2431F8FC5E0F3B8FD073D3C4954454D3E40501890C7E3F1783CEE3F2431F8FC5E0F3B8FD073D3C4954454D3E405029012B355AAD56AB7D8FCACD56AB55AADF63
310
F41CF4F125511534F901418F4F1455164F9014062B355AAD56AB7D8FCACD56AB55AADF63F41CF4F125511534F9014061309A4F2590CBA4FC4C2693C96432E93F41CF4F125511534F901901002B355AAD56AB7D8FCACD56AB55AADF63FA2000000000000008204038000618048220681A048120280C88214844882034852034
310
8452028521485214814000000000000F0BF0000000000003C2FD018020000C3008070000C3000EF7D3E365DBA88FC3BDF4F8D976EA23F2E07A17AD46E2F8FF20341A405024150741A4069703D0BD6A3717C7F0040001860100400018601002000186002026280A02
340
0
340
0
 94
        0
  0
ACAD_PROXY_OBJECT
  5
2E49
330
2E42
100
AcDbProxyObject
 90
      499
 91
      605
 95
       25
 70
     0
 93
      994
310
5DC0B81E85EB51B8CE3F4BCF511155105253080F11115510525317D3105091530F971414D0D05311480F11115510525317D05094D4D0D053114F92341C9A9999999999B93F26A666666666724FC000000000000E03F4000000000000004000000000000005100000000000000244081E0000C3002E07A17AD46E338FC0
340
D9
340
2E16
 94
        0
  0
ACAD_PROXY_OBJECT
  5
2E4A
330
2E42
100
AcDbProxyObject
 90
      499
 91
      606
 95
       25
 70
     0
 93
      823
310
5DC031703D0BD6A3719C7E999EA9A2A1AA24A7A7101E29A2A1AA24A7A72FA620A122A62FA324A929AA1F169E29A2A1AA24A7A72FA620A122A62FA620A9AA1F1353333333333B27E3FFFE01C00030C008840F000061801353333333333B27F1703D0BD6A3719C7E
340
D9
340
2E16
 94
        0
  0
ACAD_PROXY_OBJECT
  5
2E4B
330
2E42
100
AcDbProxyObject
 90
      499
 91
      607
 95
       25
 70
     0
 93
      280
310
5DC2B8716D9CEF7C33F0A5723F0BD4A2F0FC295C8FC2F528BC3FA199999999999F99FC
  0
ACAD_PROXY_OBJECT
  5
2E4C
330
2E42
100
AcDbProxyObject
 90
      499
 91
      608
 95
       25
 70
     0
 93
       14
310
5DE4
340
0
 94
        0
  0
ACAD_PROXY_OBJECT
  5
2E4D
330
2E42
100
AcDbProxyObject
 90
      499
 91
      609
 95
       25
 70
     0
 93
     7123
310
5DD084050BA4050AA405024050E836583938376838C815B8367203140405013D3C696628657175616C28486F6C653A7461707065642C223022292C22252563222C486F6C653A6E6F6D696E616C2022202220696628657175616C28486F6C653A756E6974732C223122292C2278222C222D222920222022293E3C6966286571
310
75616C28486F6C653A7461707065642C223022292C486F6C653A6469612C486F6C653A706974636864657363293E207B5C46414D4744543B787D203C696628657175616C28486F6C653A7465726D696E6174696F6E2C223022292C486F6C653A64657074682C228AD192CA22293E5C507B5C46414D4744543B767D2525633C
310
486F6C653A63746469613E207B5C46414D4744543B787D203C486F6C653A637464657074683E406901405034050E836583938376838C815B83672031405FE3D3C696628657175616C28486F6C653A7461707065642C223022292C22252563222C486F6C653A6E6F6D696E616C2022202220696628657175616C28486F6C653
310
A756E6974732C223122292C2278222C222D222920222022293E3C696628657175616C28486F6C653A7461707065642C223022292C486F6C653A6469612C486F6C653A706974636864657363293E207B5C46414D4744543B787D203C696628657175616C28486F6C653A7465726D696E6174696F6E2C223022292C486F6C653
310
A64657074682C228AD192CA22293E5C507B5C46414D4744543B777D2525633C486F6C653A63746469613E2058203C486F6C653A6374616E676C653E252564406901405014050E836583938376838C815B83672031405CF3D3C696628657175616C28486F6C653A7461707065642C223022292C22252563222C486F6C653A6E
310
6F6D696E616C2022202220696628657175616C28486F6C653A756E6974732C223122292C2278222C222D222920222022293E3C696628657175616C28486F6C653A7461707065642C223022292C486F6C653A6469612C486F6C653A706974636864657363293E5C507B5C46414D4744543B787D203C696628657175616C2848
310
6F6C653A7465726D696E6174696F6E2C223022292C486F6C653A64657074682C228AD192CA22293E4069014051E4090E836583938376838C815B83672032405173D3C535444503A444553433E203C535444503A5354443E40690E836583938376838C815B836720314050C3D3C535444503A444553433E40690240515AAABB
310
A060
360
2E4E
330
2E4E
360
2E4F
330
2E4F
360
2E50
330
2E50
360
2E51
360
2E52
330
2E51
330
2E52
 94
        0
  0
ACAD_PROXY_OBJECT
  5
2E53
330
2E42
100
AcDbProxyObject
 90
      499
 91
      537
 95
       25
 70
     0
 93
       26
310
5DD02A80
340
0
 94
        0
  0
ACAD_PROXY_OBJECT
  5
2E54
330
2E42
100
AcDbProxyObject
 90
      499
 91
      538
 95
       25
 70
     0
 93
      258
310
5DD02000000000000380FC000000000000E03F408F0F9023C3E40DB18CCCFFFF80
340
2E18
340
0
340
0
340
2E19
340
2E1A
340
0
340
2E1B
340
2E1C
340
2E1D
340
0
 94
        0
  0
ACAD_PROXY_OBJECT
  5
2E55
330
2E42
100
AcDbProxyObject
 90
      499
 91
      610
 95
       25
 70
     0
 93
    13993
310
5DD1D023FFFFFFFD010300002E07A17AD46E2F8FE00800030C01010300002E07A17AD46E2F8FE00800030C00050C8DC0955782CC838A83588367014ED1D15395149050D3CB1294138B0C0B23702555E0B320E2A0D620D9CB11D15395149055160B095CCB0A11D1539354D1C819D95B991A5B5E880CCC0A78000C0000000000
310
00000000000000000000007B14AE47E17AA43F2E07A17AD46E2F8FE00800030C007B14AE47E17AA43F2E07A17AD46E2F8FE00800030C020143CF4F111959985D5B1D151A5D1B194F8050A8C8A8365815B8375838B014E51D15395149050D3CB1294138B0C0B2322A0D96056E0DD60E2CB11D15395149055160B095CCB0A11D
310
1539354D1C819D95B991A5B5E880CCC4A78000C000000000000000000000000000000007B14AE47E17AA43F2E07A17AD46E2F8FE00800030C007B14AE47E17AA43F2E07A17AD46E2F8FE00800030C020143CF4F111959985D5B1D151A5D1B194F90D4410F4450240D0441507431014391244D05449074510C4350F00014123
310
2D24D7C053247454E545241434F2C4A504E2C302C8CB4935F2C47454E54524154582C25732C2847454E4D53472067656E64696D7A20312900010104002214000282465A49AF80A648E8A9CA8A482869E5894A09C586059196926BE588E8A9CA8A482A8B0584AE658508E8A9C9AA68E40CECADCC8D2DAF44062520002020800
310
43E80005028C8A014C11D15395149050D3CB1294138B0C0B23228B11D15395149055160B095CCB0A11D1539354D1C819D95B991A5B5E880C8A4054E3D3C4946284953424C414E4B28486F6C654974656D292C4F726967696E2C20486F6C654974656D293E3C4946284953424C414E4B28486F6C654974656D292C22222C204
310
86F6C65496E646578293E010104002234000280AC00A5E8E8A9CA8A482869E5894A09C586058B0588E8A9CA8A482A8B0584AE658508E8A9C9AA68E40CECADCC8D2DAF4406652000202000040A800050159014BD1D15395149050D3CB1294138B0C0B164B11D15395149055160B095CCB0A11D1539354D1C819D95B991A5B5E
310
880D0A4000404000081D0000A02A40297A3A2A72A2920A1A796252827161816291623A2A72A2920AA2C1612B9961423A2A726A9A39033B2B73234B6BD101B148000808000104A000140A0F4C053047454E545241434F2C4A504E2C302C83D32C47454E54524154582C25732C2847454E4D53472067656E64696D7A20372900
310
0101030020B400028141E980A608E8A9CA8A482869E5894A09C58605907A6588E8A9CA8A482A8B0584AE658508E8A9C9AA68E40CECADCC8D2DAF4407052000202020041E800050490E096BE014CD1D15395149050D3CB1294138B0C0B243825AF8B11D15395149055160B095CCB0A11D1539354D1C819D95B991A5B5E880C8
310
C0A400040010008650000A091B012DB40299A3A2A72A2920A1A79625282716181646C04B6D1623A2A72A2920AA2C1612B9961423A2A726A9A39033B2B73234B6BD10189A148000808280501A00014320D0E0E4E0D9A0D8A0D3A0D60053B47454E545241434F2C4A504E2C302C8343839383668362834E83582C47454E54524
310
154582C25732C2847454E4D53472067656E64696D7A203135290001010500A1D4000281464500A628E8A9CA8A482869E5894A09C5860591914588E8A9CA8A482A8B0584AE658508E8A9C9AA68E40CECADCC8D2DAF440626C52000202080044A800050E8C8A8343839383668362834E8358014F51D15395149050D3CB129413
310
8B0C0B2322A0D0E0E4E0D9A0D8A0D3A0D60B11D15395149055160B095CCB0A11D1539354D1C819D95B991A5B5E880C4DCA4000404140089D0000A0921292F940299A3A2A72A2920A1A796252827161816484A4BE51623A2A72A2920AA2C1612B9961423A2A726A9A39033B2B73234B6BD10189C948000808300114A0001412
310
2D2E29A4053347454E545241434F2C4A504E2C302C8B4B8A692C47454E54524154582C25732C2847454E4D53472067656E64696D7A20323129000100040021B4878030026A6666666667A4FE064D4CCCCCCCCCF49FC049A9999999999E93F809353333333333D27F0226A6666666667A4FE044D4CCCCCCCCCF49FC0D818000
310
00000000000810026A666666666764FE004D4CCCCCCCCCF49FC009A9999999999E93F801353333333333D27F032E07A17AD46E378FE0633B333333333032050F006004D4CCCCCCCCCF49FC0C9A9999999999E93F819353333333333D27F0326A6666666667A4FE064D4CCCCCCCCCF49FC0C9A9999999999E93F81B03000000
310
00000000102004D4CCCCCCCCCEC9FC009A9999999999E93F819353333333333D27F0026A6666666667A4FE065C0F42F5A8DC6F1FC0C6766666666660640A088800000021E000000890000002260000008220E000200890000002060002008100008000
340
0
340
0
340
0
340
0
340
2E16
340
2E16
 94
        0
  0
ACAD_PROXY_OBJECT
  5
2E56
330
2E42
100
AcDbProxyObject
 90
      499
 91
      540
 95
       25
 70
     0
 93
     5214
310
5DD9741105394D2506414E53495F4342905394D257D512551554D15414E53495F54525F5265766973696F6E6C697374614191143202831372E307832322E30696E63682941905394D257D0D1146202832382E307834302E30696E63682941905394D257D191142202831312E307831372E30696E63682941905394D257D091
310
144202832322E307833342E30696E63682941905394D257D111145202833342E307834342E30696E63682941905394D257D1510412028382E357831312E30696E63682941905394D257D050543905B9CDA482557247A25E4C81110D0C414E53495F5449544C45444343505B9CDA482557247A25E4C81050B414E53495F5449
310
544C454143905B9CDA482557247A25E4C81050D0C414E53495F5449544C454143425554C82557247A25E4D0A414E53495F544954555343505B9CDA482557247A25E4C81110B414E53495F5449544C454442110979A97F0838A8358836720415F42525F45505394D257D09497D4995D9A5CDA5BDB9B1A5CDD18510979A97F08
310
38A8358836720415F54525F45505394D257D51497D4995D9A5CDA5BDB9B1A5CDD18510979A97F0838A8358836720445F42525F45505394D257D09497D4995D9A5CDA5BDB9B1A5CDD19110979A97F0838A8358836720445F54525F45505394D257D51497D4995D9A5CDA5BDB9B1A5CDD19110979A97F0838A8358836720415F
310
424C5F45505394D257D09317D4995D9A5CDA5BDB9B1A5CDD18510979A97F0838A8358836720415F544C5F45505394D257D51317D4995D9A5CDA5BDB9B1A5CDD18510979A97F0838A8358836720445F424C5F45505394D257D09317D4995D9A5CDA5BDB9B1A5CDD19110979A97F0838A8358836720445F544C5F45505394D25
310
7D51317D4995D9A5CDA5BDB9B1A5CDD190
  0
ACAD_PROXY_OBJECT
  5
6E
330
62
100
AcDbProxyObject
 90
      499
 91
      526
 95
       25
 70
     0
 93
       13
310
5DD0
  0
ACAD_PROXY_OBJECT
  5
6F
330
62
100
AcDbProxyObject
 90
      499
 91
      527
 95
       25
 70
     0
 93
       96
310
5DEA0E80A0280A0280A0280F
  0
ACAD_PROXY_OBJECT
  5
70
330
62
100
AcDbProxyObject
 90
      499
 91
      528
 95
       25
 70
     0
 93
      272
310
5DD0E4050140501405014050140501405014050140D01405012C0000000000000040
340
79
 94
        0
  0
ACAD_PROXY_OBJECT
  5
71
330
62
100
AcDbProxyObject
 90
      499
 91
      529
 95
       25
 70
     0
 93
      497
310
5DE8666666666667A67E199999999999E99FD22405014050140501405014050140501405014050140501405014050140501405014050140501405014050100
340
7A
 94
        0
  0
ACAD_PROXY_OBJECT
  5
72
330
62
100
AcDbProxyObject
 90
      499
 91
      530
 95
       25
 70
     0
 93
       10
310
5DC0
  0
ACAD_PROXY_OBJECT
  5
73
330
62
100
AcDbProxyObject
 90
      499
 91
      531
 95
       25
 70
     0
 93
      257
310
5DE290EA22A7D90F49F80000000000001081400000000000004204010000618000
340
7B
340
7C
 94
        0
  0
ACAD_PROXY_OBJECT
  5
74
330
62
100
AcDbProxyObject
 90
      499
 91
      532
 95
       25
 70
     0
 93
    13453
310
5DD0E411255115350141236025B690140501406901000000000000091013347454E545241434F2C4A504E2C302C8D8096DA2C47454E54524154582C25732C2847454E4D53472067656E647767203232322940690120281A8AA2CA0282484A4BE52028120280A0320200000000000012202668E8A9CA8A482869E5894A09C58
310
605921292F94588E8A9CA8A482A8B0584AE658508E8A9C9AA68E40CECADCC8EECE406464665280D202405044E414D454050496BC914F4051C40640A80000000000004E404CD1D15395149050D3CB1294138B0C0B25AF2453CB11D15395149055160B095CCB0A11D1539354D1C819D95B991DD9C80C8C8D8A50192C3D494628
310
4953424C414E4B28504152543A4E414D45292C424C4F434B3A4E414D452C504152543A4E414D452940480A0A888AA686A480A09251B1DBE80A3A80C81D0000000000100A28099A3A2A72A2920A1A7962528271618164946C76F9623A2A72A2920AA2C1612B9961423A2A726A9A39033B2B7323BB39019189B94A0348090142
310
14D51053911054911014122D2E29A50147501904A000000000000125013347454E545241434F2C4A504E2C302C8B4B8A692C47454E54524154582C25732C2847454E4D53472067656E64776720323138294069012028426A0AA22A924A0A62028246EF4BDFA028EA0320B40000000000001CA02668E8A9CA8A482869E5894A
310
09C5860591BBD2F7E588E8A9CA8A482A8B0584AE658508E8A9C9AA68E40CECADCC8EECE406464625280D202405044E4F544540504928D8B4C4051D40641A80000000000003E404CD1D15395149050D3CB1294138B0C0B24A362D30B11D15395149055160B095CCB0A11D1539354D1C819D95B991DD9C80C8C8D4A501240480
310
A0CAC8A9C889EA480A1106F1072706BF02B680A3A80C83D00000000000007C809BA3A2A72A2920A1A79625282716181641BC41C9C1AFC0AD9623A2A72A2920AA2C1612B9961423A2A726A9A39033B2B7323BB39019191A14A0248090141911154D0D48C90141A43825AF880C90147501908A000000000020145013447454E5
310
45241434F2C4A504E2C302C90E096BE20322C47454E54524154582C25732C2847454E4D53472067656E6477672033362940490120284A9AA20A72220A922192028345A5C53490192028EA03213400000000000024A026A8E8A9CA8A482869E5894A09C586059169714D24064588E8A9CA8A482A8B0584AE658508E8A9C9AA6
310
8E40CECADCC8EECE4064646052809202405094D4154455249414C32405068DDE97BF20324051D40642A8713D0AD7A37045404D11D15395149050D3CB1294138B0C0B2377A5EFC80C8B11D15395149055160B095CCB0A11D1539354D1C819D95B991DD9C80D0C0A501240480A089A82A6A680A091D7F2F9480A3A80A0485A06
310
8100000000000007C809923A2A72A2920A1A796252827161816475FCBE51623A2A72A2920AA2C1612B9961423A2A726A9A39033B2B7323BB3901A1914A024809014154149250D150141226FE29A501475014090C409020000000000000F9013247454E545241434F2C4A504E2C302C89BF8A692C47454E54524154582C2573
310
2C2847454E4D53472067656E6477672034332940490120281A224A6A02824850CB202028EA028121A81A040000000000001F202648E8A9CA8A482869E5894A09C58605921432C80588E8A9CA8A482A8B0584AE658508E8A9C9AA68E40CECADCC8EECE406868528092024050E445020000000000000510201C00030C0001018
310
0000000000003E400000000000000F901073D3C4954454D3E4050180000000000003E400000000000000F901073D3C4954454D3E40501800000000000034400000000000000D101073D3C4954454D3E40501800000000000034400000000000000D101073D3C4954454D3E405029010000000000000F9000000000000003E4
310
041CF4F125511534F901418F4F1455164F9014060000000000000F9000000000000003E4041CF4F125511534F9014060000000000000D100000000000000344041CF4F125511534F901901000000000000000F9000000000000003E40A2200000000000008204018000618048220681A048120280A0D2B292AD32AB8882148
310
421F04D904E44104DF06A706AD06C5069C8820321F04D904E44104DF06A706AD06C5069C8520321F04D904E44104DF06A706AD06C5069C8452028521485214814000000000000F0BF0000000000003C2FD018020000C3008070000C3003373333333333B0FCCDCCCCCCCCCCEC3F00000000000003101203416405034110590
310
1A000000000000062040100006180401000061804008000618008098A02808
340
0
340
0
 94
        0
  0
ACAD_PROXY_OBJECT
  5
75
330
62
100
AcDbProxyObject
 90
      499
 91
      533
 95
       25
 70
     0
 93
      898
310
5DC4000000000000144048CF4F11115510525317D3105091530F880A0F11115510525317D05094D4D0D053114F8A51141C9A9999999999B93F26A666666666724FC000000000000E03F400000000000000400000000000000510000000000000024408070000C300000000000000051000
340
16
340
6D
 94
        0
  0
ACAD_PROXY_OBJECT
  5
76
330
62
100
AcDbProxyObject
 90
      499
 91
      534
 95
       25
 70
     0
 93
      823
310
5DC0B00000000000002880959E9E29A2A1AA24A7A72FA620A122A62FA324A929AA1F169E29A2A1AA24A7A72FA620A122A62FA620A9AA1F000000000000048803FFFE01C00030C0088C0380006180000000000000048800000000000000A2000000000000002880
340
7E
340
6D
 94
        0
  0
ACAD_PROXY_OBJECT
  5
77
330
62
100
AcDbProxyObject
 90
      499
 91
      535
 95
       25
 70
     0
 93
      152
310
5DE80000000000000840A3D0A5723F0BD1F200
  0
ACAD_PROXY_OBJECT
  5
78
330
62
100
AcDbProxyObject
 90
      499
 91
      536
 95
       25
 70
     0
 93
     5143
310
5DD084050BA4050AA405024050A54656D706C6174652031405BE3D2525633C486F6C653A63746469613E2078203C486F6C653A637464657074683E20555C503C696628657175616C28486F6C653A7461707065642C223022292C222525632220486F6C653A6469612C20486F6C653A6E6F6D696E616C20222078202220486F
310
6C653A70697463686465736320222078202220486F6C653A7461706465707468293E203C696628657175616C28486F6C653A7465726D696E6174696F6E2C223022292C22202F202220486F6C653A64657074682C222022293E406901405034050A54656D706C6174652031405BF3D2525633C486F6C653A63746469613E207
310
8203C486F6C653A6374616E676C653E2525645C503C696628657175616C28486F6C653A7461707065642C223022292C222525632220486F6C653A6469612C20486F6C653A6E6F6D696E616C20222078202220486F6C653A70697463686465736320222078202220486F6C653A7461706465707468293E203C6966286571756
310
16C28486F6C653A7465726D696E6174696F6E2C223022292C22202F202220486F6C653A64657074682C222022293E406901405014050A54656D706C61746520314059A3D3C696628657175616C28486F6C653A7461707065642C223022292C222525632220486F6C653A6469612C20486F6C653A6E6F6D696E616C20222078
310
202220486F6C653A70697463686465736320222078202220486F6C653A7461706465707468293E203C696628657175616C28486F6C653A7465726D696E6174696F6E2C223022292C22202F202220486F6C653A64657074682C222022293E4069014051E4050A54656D706C61746520314050C3D3C535444503A444553433E4
310
0690140515AAAB5C
360
1AA
330
1AA
360
1AB
330
1AB
360
1AC
330
1AC
360
1AD
330
1AD
 94
        0
  0
ACAD_PROXY_OBJECT
  5
7F
330
62
100
AcDbProxyObject
 90
      499
 91
      537
 95
       25
 70
     0
 93
    17870
310
5DD02491013041105357CC201C00030C0132441013141105357CC603800030C0132441013241105357CCA01400030C0132441013341105357CCE01800030C01199013441105357CD200C00030C01199013541105357CD600C00030C01199013641105357CDA00800030C01239013741105357CDE01000030C0119901384110
310
5357CE200400030C01199013941105357CE63F400030C0241102324141505357CC4C201C00030C0132902344141505357CC4C600C00030C0119902495041505357CC4CA01C00030C013240902304E41505357CC13A01C00030C0132902314E41505357CC53A03800030C0132902324E41505357CC93A01400030C013290233
310
4E41505357CCD3A01800030C0119902344E41505357CD13A00C00030C0119902354E41505357CD53A00C00030C0119902364E41505357CD93A00800030C0123902374E41505357CDD3A01000030C0119902384E41505357CE13A00400030C0119902394E41505357CE53A3F400030C024110332414E41905357CC4C13A01C0
310
0030C013290334414E41905357CC4C53A00C00030C011990349504E41905357CC4C93A01C00030C0132409044B4C494E41505357D0D3200400030C011942504494E464F42105357D410549151A01000030C011942D055241484D3541905357D093D4A01C00030C0132425045649455742105357D5925155D4E00400030C011
310
942D06424548494E4441905357D25395A3F400030C0243505545241494C41505357D514A00C00030C01194250348494441905357D21251201C00030C01194250356495341905357D59254E01C00030C01324250650415244494D42505357D41054911253600C00030C01194250652454644494D42505357D49151911253601
310
000030C0119425534110921395901398000000C0003FFFFFFFE415092139594D06424548494E448000000C0003FFFFFFFE411093D48C9055241484D358010000C300466411093D48CD055241484D358020000C30048E411093D48D5055241484D358000000C0003FFFFFFFE4110D0530C901348000000C0003FFFFFFFE4110
310
D0530CD01348020000C30048E4110D0530D501348070000C3004CA4110D0530DD013481E0000C30051A4110D15393901378000000C0003FFFFFFFE4110D15395D01378000000C0003FFFFFFFE4110D312539044B4C494E8000000C0003FFFFFFFE4110D3D38C501308000000C0003FFFFFFFD034110D3D38C901318000000C
310
0003FFFFFFFD034110D3D38CD01328000000C0003FFFFFFFD034110D3D38D101328000000C0003FFFFFFFD034111115510501348000000C0003FFFFFFFE4111125051D01358000000C0003FFFFFFFE4111125312501358000000C0003FFFFFFFE411112535410650415244494D8000000C0003FFFFFFFE4111125354906524
310
54644494D8000000C0003FFFFFFFE4111915353901388000000C0003FFFFFFFE415191535413901388030000C3003FFFFFFFE4151915354D410234418000000C0003FFFFFFFE4151915354D510234418030000C300466415191535593901328000000C0003FFFFFFFE415191535595101328030000C3004664112105510D01
310
388000000C0003FFFFFFFD014112125113901338000000C0003FFFFFFFD034112125115D01338000000C0003FFFFFFFD034112131253901348000000C0003FFFFFFFD01411213D0D3901378000000C0003FFFFFFFE411213D0D5D01378000000C0003FFFFFFFE4112539193D04494E464F8000000C0003FFFFFFFE41131150
310
51101358000000C0003FFFFFFFE419397D0921395902394E8000000C0003FFFFFFFE419397D0D3D38C502304E8000000C0003FFFFFFFD03419397D0D3D38C902314E8000000C0003FFFFFFFD03419397D0D3D38CD02324E8000000C0003FFFFFFFD03419397D0D3D38D102324E8000000C0003FFFFFFFD03419397D0D15393
310
902374E8000000C0003FFFFFFFE419397D0D15395D02374E8000000C0003FFFFFFFE419397D1125312502354E8000000C0003FFFFFFFE419397D2105510D02384E8000000C0003FFFFFFFD01419397D2125113902334E8000000C0003FFFFFFFD03419397D2125115D02334E8000000C0003FFFFFFFD03419397D311505110
310
2354E8000000C0003FFFFFFFE419397D391D25410349504E8000000C0003FFFFFFFE419397D412105390334414E8000000C0003FFFFFFFE419397D510D3D3902304E8000000C0003FFFFFFFD03419397D5121312502344E8000000C0003FFFFFFFD01419397D5131153902304E8000000C0003FFFFFFFD03419397D5941312
310
50332414E8000000C0003FFFFFFFE411391D25410249508000000C0003FFFFFFFE411410530C9055241484D358010000C300466411410530CD055241484D358020000C30048E411410530D5055241484D358000000C0003FFFFFFFE411412105390234418000000C0003FFFFFFFE411413D4D3901358000000C0003FFFFFFF
310
E411490D1D3901378000000C0003FFFFFFFE411490D1D5D01378000000C0003FFFFFFFE4114D09492D01348000000C0003FFFFFFFD014114D150D5101348000000C0003FFFFFFFD014114D6508CD01358020000C30048E411354D653501358020000C30048E411510D3D3901308000000C0003FFFFFFFD0341151213125013
310
48000000C0003FFFFFFFD01411512550C9055241484D358010000C300466411512550CD055241484D358020000C30048E411512550D5055241484D358000000C0003FFFFFFFE4115131153901308000000C0003FFFFFFFD03415514905253105545241494C8000000C0003FFFFFFFE4115149312501348000000C0003FFFFF
310
FFD01411516150C501368030000C300466411516150C901368030000C300466411516150CD01368000000C0003FFFFFFFE411516150D501368070000C3004CA411516150DD013681E0000C30051A4115925155D04564945578000000C0003FFFFFFFE41159151121034849448000000C0003FFFFFFFD024115915115903564
310
9538000000C0003FFFFFFFD02411594131250232418000000C0003FFFFFFFE4116925690501348000000C0003FFFFFFFD014290E4C9074C906465054C904465034650248D014651E519FD8
340
63
340
16
340
16
340
16
340
64
340
16
340
16
340
16
340
65
340
16
340
16
340
65
340
66
340
16
340
16
340
16
340
16
340
64
340
16
340
16
340
16
340
65
340
16
340
16
340
65
340
66
340
16
340
67
340
16
340
16
340
16
340
16
340
16
340
64
340
16
340
16
340
16
340
15
340
15
340
15
340
15
340
15
340
15
340
15
340
15
340
15
340
68
340
15
340
15
340
15
340
15
340
15
340
15
340
15
340
15
340
15
340
15
340
15
340
15
340
15
340
16
340
15
340
15
340
15
340
15
340
69
340
15
340
15
340
68
340
15
340
15
340
15
340
15
340
15
340
15
340
15
340
15
340
68
340
15
340
15
340
15
340
69
340
15
340
15
340
15
340
15
340
15
340
15
340
15
340
15
340
15
340
15
340
15
340
15
340
15
340
15
340
68
340
15
340
15
340
15
340
15
340
15
340
15
340
15
340
15
340
15
340
15
340
15
340
15
340
15
340
15
340
15
340
15
340
15
340
15
340
15
340
15
340
15
340
15
340
6C
 94
        0
  0
ACAD_PROXY_OBJECT
  5
80
330
62
100
AcDbProxyObject
 90
      499
 91
      538
 95
       25
 70
     0
 93
      250
310
5DD020000000000000A1000000000000002440408F0F9023C3E409A0DCFFFF80
340
81
340
0
340
0
340
82
340
83
340
84
340
85
340
86
340
8B
340
0
 94
        0
  0
ACAD_PROXY_OBJECT
  5
8C
330
62
100
AcDbProxyObject
 90
      499
 91
      539
 95
       25
 70
     0
 93
    14055
310
5DD1D023FFFFFFFD030300030CCCCCCCCCCCC250200800030C01030300030000000000000310200800030C0005134C697374206F6620436F6F7264696E61746573015091D15395149050D3CB1153954B0C0B131A5CDD081BD98810DBDBDC991A5B985D195CCB11D15395149055160B095CCB0A11D1539354D1C819D95B991A
310
5B5E880CCC0A78100C000000000000000000000000000000010CCCCCCCCCCCC250200800030C010CCCCCCCCCCCC250200800030C020143CF4F111959985D5B1D151A5D1B194F8050A486F6C65205461626C65014E51D15395149050D3CB1153954B0C0B121BDB19481518589B194B11D15395149055160B095CCB0A11D1539
310
354D1C819D95B991A5B5E880CCC4A78100C000000000000000000000000000000010CCCCCCCCCCCC250200800030C010CCCCCCCCCCCC250200800030C020143CF4F111959985D5B1D151A5D1B194F90D44111409034110541D0C4350F4050E44D03449074510F000141232D24D7C053447454E545241434F2C454E552C302C
310
4F726967696E2C47454E54524154582C25732C2847454E4D53472067656E64696D7A20312900010105002214000281464500A648E8A9CA8A482869E588A9CAA58605890DED8CA588E8A9CA8A482A8B0584AE658508E8A9C9AA68E40CECADCC8D2DAF4406452029F9E9E27B934B3B4B71F1E24A31427A91424A9A12620A7259
310
427B934B3B4B7149624A9A12620A7259424B73232BC149496111116111711149F1E24B73232BC1F00808200111A000140560052F47454E545241434F2C454E552C302C582C47454E54524154582C25732C2847454E4D53472067656E64696D7A20332900010100002054000280AC80A5E8E8A9CA8A482869E588A9CAA58605
310
8B2588E8A9CA8A482A8B0584AE658508E8A9C9AA68E40CECADCC8D2DAF4406852000202000040E800050172014BD1D15395149050D3CB1153954B0C0B1C8B11D15395149055160B095CCB0A11D1539354D1C819D95B991A5B5E880D8A400040400008250000A05090C029823A2A72A2920A1A79622A72A96181642431623A2
310
A72A2920AA2C1612B9961423A2A726A9A39033B2B73234B6BD101B948000808180105A000140C94958C053147454E545241434F2C454E552C302C2525632C47454E54524154582C25732C2847454E4D53472067656E64696D7A203829000101010020F400028248704B5F00A748E8A9CA8A482869E588A9CAA58605888CAE6
310
C6E4D2E0E8D2DEDC588E8A9CA8A482A8B0584AE658508E8A9C9AA68E40CECADCC8D2DAF440646052000200080043280005048B4B8A69014DD1D15395149050D3CB1153954B0C0B14DD185B99185C990B11D15395149055160B095CCB0A11D1539354D1C819D95B991A5B5E880C8C4A4000400100086D0000A09196926BE029
310
A23A2A72A2920A1A79622A72A96181627B934B3B4B71623A2A72A2920AA2C1612B9961423A2A726A9A39033B2B73234B6BD10189480A026202020A0043E80005048D8096DA014CD1D15395149050D3CB1153954B0C0B125D195B4B11D15395149055160B095CCB0A11D1539354D1C819D95B991A5B5E880C4D0A4000404140
310
080D0000A190687072706CD06C5069D06B0029A23A2A72A2920A1A79622A72A96181624B73232BC1623A2A72A2920AA2C1612B9961423A2A726A9A39033B2B73234B6BD10189A94800080828010EA000143A322A0D0E0E4E0D9A0D8A0D3A0D60053947454E545241434F2C454E552C302C486F6C6520496E6465782C47454E
310
54524154582C25732C2847454E4D53472067656E64696D7A2031372900010105002274000281464500A668E8A9CA8A482869E588A9CAA58605890DED8CA588E8A9CA8A482A8B0584AE658508E8A9C9AA68E40CECADCC8D2DAF440626C52000202080044A8000504909497CA014C91D15395149050D3CB1153954B0C0B145D1
310
E4B11D15395149055160B095CCB0A11D1539354D1C819D95B991A5B5E880C4E4A400040418008A521E000000000000001CA040C00000000000034408080000000000006881010000000000000D102040000000000001A204080000000000003440818000000000000728103000000000000125020600000000004028A04000
310
0000000000034408000000000000004881000000000000000D102000000000000001A204000000000000003440818000000000000508143C0000000000000039408180000000000006881030000000000000D102060000000000001A2040C00000000000034408180000000000006881030000000000000E50206000000000
310
00024A040C000000000080514080000000000000068810000000000000009102000000000000001A2040000000000000034408180000000000006881030000000000000A10283A2000000087800000204000000818000002080000008280000020E00000080A24000000
340
0
340
0
340
0
340
0
340
0
340
0
 94
        0
  0
ACAD_PROXY_OBJECT
  5
8D
330
62
100
AcDbProxyObject
 90
      499
 91
      540
 95
       25
 70
     0
 93
     1578
310
5DD9740D254D3D0649534F5F4133429254D3D7D5125513115051349534F5F42525F5265766973696F6E6C697374A411105265766973696F6E6C6973745F424C5F44D254D3D7D09317D4995D9A5CDA5BDB9B1A5CDD1105265766973696F6E6C6973745F544C5F44D254D3D7D51317D4995D9A5CDA5BDB9B1A5CDD1105265766
310
973696F6E6C6973745F42525F44D254D3D7D09497D4995D9A5CDA5BDB9B1A5CDD1105265766973696F6E6C6973745F54525F44D254D3D7D51497D4995D9A5CDA5BDB9B1A5CDD00
  0
ACAD_PROXY_OBJECT
  5
10D
330
62
100
AcDbProxyObject
 90
      499
 91
      567
 95
       25
 70
     0
 93
       14
310
5DE0
340
0
 94
        0
  0
ACAD_PROXY_OBJECT
  5
200
330
1FE
100
AcDbProxyObject
 90
      499
 91
      582
 95
       25
 70
     0
 93
       86
310
5DEA0C80A0280A0280A034
  0
ACAD_PROXY_OBJECT
  5
201
330
1FE
100
AcDbProxyObject
 90
      499
 91
      583
 95
       25
 70
     0
 93
      282
310
5DD0E4050140501405014050140501405014050141101405014048000000000000001000
340
20B
 94
        0
  0
ACAD_PROXY_OBJECT
  5
202
330
1FE
100
AcDbProxyObject
 90
      499
 91
      584
 95
       25
 70
     0
 93
      387
310
5DC8666666666667A67E6DDB36EDDB36ED9F91740501405014050140501405014050140501405014050140501405014040
340
20C
 94
        0
  0
ACAD_PROXY_OBJECT
  5
203
330
1FE
100
AcDbProxyObject
 90
      499
 91
      585
 95
       25
 70
     0
 93
       10
310
5DC0
  0
ACAD_PROXY_OBJECT
  5
204
330
1FE
100
AcDbProxyObject
 90
      499
 91
      586
 95
       25
 70
     0
 93
      257
310
5DE0C16A22A7D90F49F80000000000001081400000000000004204010000618000
340
20D
340
20E
 94
        0
  0
ACAD_PROXY_OBJECT
  5
205
330
1FE
100
AcDbProxyObject
 90
      499
 91
      587
 95
       25
 70
     0
 93
    13013
310
5DD0E411255115350141236025B690140501406901000000000000091013347454E545241434F2C4A504E2C302C8D8096DA2C47454E54524154582C25732C2847454E4D53472067656E647767203232322940690120281A8AA2CA0282484A4BE52028120280A0320200000000000012202668E8A9CA8A482869E5894A09C58
310
605921292F94588E8A9CA8A482A8B0584AE658508E8A9C9AA68E40CECADCC8EECE406464665280D202405044E414D454050496BC914F4051C40640A80000000000004E404CD1D15395149050D3CB1294138B0C0B25AF2453CB11D15395149055160B095CCB0A11D1539354D1C819D95B991DD9C80C8C8D8A50192C3D494628
310
4953424C414E4B28504152543A4E414D45292C424C4F434B3A4E414D452C504152543A4E414D452940480A0A888AA686A480A09251B1DBE80A3A80C81D0000000000100A28099A3A2A72A2920A1A7962528271618164946C76F9623A2A72A2920AA2C1612B9961423A2A726A9A39033B2B7323BB39019189B94A0348090142
310
14D51053911054911014122D2E29A50147501904A000000000000125013347454E545241434F2C4A504E2C302C8B4B8A692C47454E54524154582C25732C2847454E4D53472067656E64776720323138294069012028426A0AA22A924A0A62028246EF4BDFA028EA0320B40000000000001CA02668E8A9CA8A482869E5894A
310
09C5860591BBD2F7E588E8A9CA8A482A8B0584AE658508E8A9C9AA68E40CECADCC8EECE406464625280D202405044E4F544540504928D8B4C4051D40641A80000000000003E404CD1D15395149050D3CB1294138B0C0B24A362D30B11D15395149055160B095CCB0A11D1539354D1C819D95B991DD9C80C8C8D4A501240480
310
A0CAC8A9C889EA480A1106F1072706BF02B680A3A80C83D00000000000007C809BA3A2A72A2920A1A79625282716181641BC41C9C1AFC0AD9623A2A72A2920AA2C1612B9961423A2A726A9A39033B2B7323BB39019191A14A0248090141911154D0D48C90141A43825AF880C90147501908A000000000020145013447454E5
310
45241434F2C4A504E2C302C90E096BE20322C47454E54524154582C25732C2847454E4D53472067656E6477672033362940490120284A9AA20A72220A922192028345A5C53490192028EA03213400000000000024A026A8E8A9CA8A482869E5894A09C586059169714D24064588E8A9CA8A482A8B0584AE658508E8A9C9AA6
310
8E40CECADCC8EECE4064646052809202405094D4154455249414C32405068DDE97BF20324051D40642A8713D0AD7A37045404D11D15395149050D3CB1294138B0C0B2377A5EFC80C8B11D15395149055160B095CCB0A11D1539354D1C819D95B991DD9C80D0C0A501240480A089A82A6A680A091D7F2F9480A3A80A0485A06
310
8100000000000007C809923A2A72A2920A1A796252827161816475FCBE51623A2A72A2920AA2C1612B9961423A2A726A9A39033B2B7323BB3901A1914A024809014154149250D150141226FE29A501475014090C409020000000000000F9013247454E545241434F2C4A504E2C302C89BF8A692C47454E54524154582C2573
310
2C2847454E4D53472067656E6477672034332940490120281A224A6A02824850CB202028EA028121A81A040000000000001F202648E8A9CA8A482869E5894A09C58605921432C80588E8A9CA8A482A8B0584AE658508E8A9C9AA68E40CECADCC8EECE406868528092024050E445020000000000000490201C00030C0001018
310
0000000000003B400000000000000ED01073D3C4954454D3E4050180000000000003B400000000000000ED01073D3C4954454D3E40501800000000000032400000000000000C901073D3C4954454D3E40501800000000000032400000000000000C901073D3C4954454D3E405029010000000000000ED000000000000003B4
310
041CF4F125511534F901418F4F1455164F9014060000000000000ED000000000000003B4041CF4F125511534F9014060000000000000D100000000000000344041CF4F125511534F901901000000000000000ED000000000000003B40A2200000000000008204018000618048220681A048120280C88214844882034852034
310
8452028521485214814000000000000F0BF0000000000003C2FD018020000C3008070000C3003373333333333B0FCCDCCCCCCCCCCEC3F0CCCCCCCCCCCC25012034164050341105901A19999999999984A040100006180401000061804008000618008098A02808
340
0
340
0
 94
        0
  0
ACAD_PROXY_OBJECT
  5
206
330
1FE
100
AcDbProxyObject
 90
      499
 91
      588
 95
       25
 70
     0
 93
      898
310
5DC4000000000000124048CF4F11115510525317D3105091530F880A0F11115510525317D05094D4D0D053114F8A50241C9A9999999999B93F26A666666666724FC000000000000E03F400000000000000400000000000000510000000000000024408070000C300000000000000049000
340
16
340
1FF
 94
        0
  0
ACAD_PROXY_OBJECT
  5
207
330
1FE
100
AcDbProxyObject
 90
      499
 91
      589
 95
       25
 70
     0
 93
      823
310
5DC0B00000000000002480959E9E29A2A1AA24A7A72FA620A122A62FA324A929AA1F169E29A2A1AA24A7A72FA620A122A62FA620A9AA1F000000000000048803FFFE01C00030C008140380006180000000000000048800000000000000A2000000000000002480
340
65
340
1FF
 94
        0
  0
ACAD_PROXY_OBJECT
  5
208
330
1FE
100
AcDbProxyObject
 90
      499
 91
      590
 95
       25
 70
     0
 93
      152
310
5DE8273108AC1C5A0640A3D0A5723F0BD1F200
  0
ACAD_PROXY_OBJECT
  5
209
330
1FE
100
AcDbProxyObject
 90
      499
 91
      591
 95
       25
 70
     0
 93
       14
310
5DE0
340
0
 94
        0
  0
ACAD_PROXY_OBJECT
  5
20A
330
1FE
100
AcDbProxyObject
 90
      499
 91
      592
 95
       25
 70
     0
 93
     6059
310
5DD084050BA4050AA405024050E836583938376838C815B83672031405983D3C486F6C653A6469613E3C696628657175616C28486F6C653A7465726D696E6174696F6E2C223022292C2220905B82B320222C22208368838A838B22293E3C696628657175616C28486F6C653A7465726D696E6174696F6E2C223022292C486F
310
6C653A64657074682C2222293E2C203C486F6C653A63746469613E2082B482AE82E882CC905B82B3203C486F6C653A637464657074683E406901405034050E836583938376838C815B83672031405EF3D3C486F6C653A6374616E676C653E252564202525633C486F6C653A63746469613E208E4D8C8A2C203C69662865717
310
5616C28486F6C653A7461707065642C223022292C22252563222C486F6C653A6E6F6D696E616C202220782022293E3C696628657175616C28486F6C653A7461707065642C223022292C486F6C653A6469612C486F6C653A706974636864657363293E203C696628657175616C28486F6C653A7465726D696E6174696F6E2C2
310
23022292C22905B82B320222C222022293E3C696628657175616C28486F6C653A7465726D696E6174696F6E2C223022292C486F6C653A64657074682C2222293E406901405014050E836583938376838C815B83672031405C73D3C696628657175616C28486F6C653A7461707065642C223022292C22252563222C486F6C65
310
3A6E6F6D696E616C202220782022293E3C696628657175616C28486F6C653A7461707065642C223022292C486F6C653A6469612C486F6C653A706974636864657363293E203C696628657175616C28486F6C653A7465726D696E6174696F6E2C223022292C22905B82B320222C222022293E3C696628657175616C28486F6C
310
653A7465726D696E6174696F6E2C223022292C486F6C653A64657074682C2222293E4069014051E4090E836583938376838C815B83672032405173D3C535444503A444553433E203C535444503A5354443E40690E836583938376838C815B836720314050C3D3C535444503A444553433E40690240515AAABBA120
360
212
330
212
360
213
330
213
360
211
330
211
360
210
360
20F
330
210
330
20F
 94
        0
  0
ACAD_PROXY_OBJECT
  5
214
330
1FE
100
AcDbProxyObject
 90
      499
 91
      537
 95
       25
 70
     0
 93
       26
310
5DD02A80
340
63
 94
        0
  0
ACAD_PROXY_OBJECT
  5
215
330
1FE
100
AcDbProxyObject
 90
      499
 91
      538
 95
       25
 70
     0
 93
      250
310
5DD020000000000000A1000000000000002440408F0F9023C3E409A0DCFFFF80
340
216
340
0
340
131D
340
21D
340
21E
340
21F
340
220
340
221
340
222
340
0
 94
        0
  0
ACAD_PROXY_OBJECT
  5
223
330
1FE
100
AcDbProxyObject
 90
      499
 91
      593
 95
       25
 70
     0
 93
    13889
310
5DD1D003FFFFFFFD030300030CCCCCCCCCCCC250200800030C01030300030CCCCCCCCCCCC250200800030C00050C8DC0955782CC838A83588367014ED1D15395149050D3CB1294138B0C0B23702555E0B320E2A0D620D9CB11D15395149055160B095CCB0A11D1539354D1C819D95B991A5B5E880CCC0A78000C0000000000
310
00000000000000000000010CCCCCCCCCCCC250200800030C010CCCCCCCCCCCC250200800030C020143CF4F111959985D5B1D151A5D1B194F8050A8C8A8365815B8375838B014E51D15395149050D3CB1294138B0C0B2322A0D96056E0DD60E2CB11D15395149055160B095CCB0A11D1539354D1C819D95B991A5B5E880CCC4
310
A78000C000000000000000000000000000000010CCCCCCCCCCCC250200800030C010CCCCCCCCCCCC250200800030C020143CF4F111959985D5B1D151A5D1B194F90D44111409034110541D0C4350F4050E44D03449074510F000141232D24D7C053247454E545241434F2C4A504E2C302C8CB4935F2C47454E54524154582C
310
25732C2847454E4D53472067656E64696D7A20312900010104002214000281464500A608E8A9CA8A482869E5894A09C5860591914588E8A9CA8A482A8B0584AE658508E8A9C9AA68E40CECADCC8D2DAF4406452029E9E9E27B934B3B4B71F1E24A31427A91424A9A12620A7259427B934B3B4B7149624A9A12620A7259424B
310
A32B6949496111116111711149F1E24BA32B69F00808200111A000140560052F47454E545241434F2C4A504E2C302C582C47454E54524154582C25732C2847454E4D53472067656E64696D7A20332900010100002054000280AC80A5E8E8A9CA8A482869E5894A09C586058B2588E8A9CA8A482A8B0584AE658508E8A9C9AA
310
68E40CECADCC8D2DAF4406852000202000040E800050152014BD1D15395149050D3CB1294138B0C0B148B11D15395149055160B095CCB0A11D1539354D1C819D95B991A5B5E880D8A400040400008250000A0507A6029823A2A72A2920A1A79625282716181641E99623A2A72A2920AA2C1612B9961423A2A726A9A39033B2
310
B73234B6BD101B948000808180105A000140A0F4C053047454E545241434F2C4A504E2C302C83D32C47454E54524154582C25732C2847454E4D53472067656E64696D7A203829000101010020F400028248704B5F00A668E8A9CA8A482869E5894A09C58605921C12D7C588E8A9CA8A482A8B0584AE658508E8A9C9AA68E40
310
CECADCC8D2DAF440646052000200080043280005048B4B8A69014CD1D15395149050D3CB1294138B0C0B22D2E29A4B11D15395149055160B095CCB0A11D1539354D1C819D95B991A5B5E880C8C4A4000400100086D0000A09196926BE029923A2A72A2920A1A796252827161816465A49AF9623A2A72A2920AA2C1612B9961
310
423A2A726A9A39033B2B73234B6BD10189480A02620202080043E80005048D8096DA014CD1D15395149050D3CB1294138B0C0B236025B68B11D15395149055160B095CCB0A11D1539354D1C819D95B991A5B5E880C4D0A4000404140280D0000A190687072706CD06C5069D06B0029DA3A2A72A2920A1A7962528271618164
310
1A1C1C9C1B341B141A741AC1623A2A72A2920AA2C1612B9961423A2A726A9A39033B2B73234B6BD10189A94800080820050EA000143A322A0D0E0E4E0D9A0D8A0D3A0D60053D47454E545241434F2C4A504E2C302C8C8A8343839383668362834E83582C47454E54524154582C25732C2847454E4D53472067656E64696D7A
310
2031372900010105002274000281464500A628E8A9CA8A482869E5894A09C5860591914588E8A9CA8A482A8B0584AE658508E8A9C9AA68E40CECADCC8D2DAF440626C52000202080044A8000504909497CA014CD1D15395149050D3CB1294138B0C0B242525F28B11D15395149055160B095CCB0A11D1539354D1C819D95B9
310
91A5B5E880C4E4A400040418008A521E000000000000001CA040C00000000000034408080000000000006881010000000000000D102040000000000001A204080000000000003440818000000000000728103000000000000125020600000000004028A040000000000000034408000000000000004881000000000000000D
310
102000000000000001A204000000000000003440818000000000000508143C0000000000000039408180000000000006881030000000000000D102060000000000001A2040C00000000000034408180000000000006881030000000000000E5020600000000000024A040C0000000000805140800000000000000688100000
310
00000000009102000000000000001A2040000000000000034408180000000000006881030000000000000A10284220000000878000002020000008380000020400000081800000208000000828000002028900000000
340
0
340
0
340
0
340
0
340
1FF
340
1FF
 94
        0
  0
ACAD_PROXY_OBJECT
  5
224
330
1FE
100
AcDbProxyObject
 90
      499
 91
      540
 95
       25
 70
     0
 93
     2290
310
5DD9740D29254D0A53484D323030355F413440DE184D1134A49535F42525F5265766973696F6E6C6973744050A53484D323030355F41344B10CE971058D8591B4C8C0C0D571058D8591B5711D95B97111DD9D7199BDC9B585D1714D2134C8C0C0D57D04D10140DE184D124433A5C416361646D323030355C416361646D5C47
310
656E5C4477675C5469746C655C7861344110E979A97F0838A835883675F42525F44D29254D7D09497D4995D9A5CDA5BDB9B1A5CDD10E979A97F0838A835883675F54525F44D29254D7D51497D4995D9A5CDA5BDB9B1A5CDD10E979A97F0838A835883675F424C5F44D29254D7D09317D4995D9A5CDA5BDB9B1A5CDD10E979A
310
97F0838A835883675F544C5F44D29254D7D51317D4995D9A5CDA5BDB9B1A5CDD00
  0
ACAD_PROXY_OBJECT
  5
2E4E
330
2E4D
100
AcDbProxyObject
 90
      499
 91
      576
 95
       25
 70
     0
 93
     2256
310
5DE0143A0D960E4E0DDA0E32056E0D9C80C40405013D3C696628657175616C28486F6C653A7461707065642C223022292C22252563222C486F6C653A6E6F6D696E616C2022202220696628657175616C28486F6C653A756E6974732C223122292C2278222C222D222920222022293E3C696628657175616C28486F6C653A74
310
61707065642C223022292C486F6C653A6469612C486F6C653A706974636864657363293E207B5C46414D4744543B787D203C696628657175616C28486F6C653A7465726D696E6174696F6E2C223022292C486F6C653A64657074682C228AD192CA22293E5C507B5C46414D4744543B767D2525633C486F6C653A6374646961
310
3E207B5C46414D4744543B787D203C486F6C653A637464657074683E
  0
ACAD_PROXY_OBJECT
  5
2E4F
330
2E4D
100
AcDbProxyObject
 90
      499
 91
      576
 95
       25
 70
     0
 93
     2192
310
5DE0143A0D960E4E0DDA0E32056E0D9C80C405FE3D3C696628657175616C28486F6C653A7461707065642C223022292C22252563222C486F6C653A6E6F6D696E616C2022202220696628657175616C28486F6C653A756E6974732C223122292C2278222C222D222920222022293E3C696628657175616C28486F6C653A7461
310
707065642C223022292C486F6C653A6469612C486F6C653A706974636864657363293E207B5C46414D4744543B787D203C696628657175616C28486F6C653A7465726D696E6174696F6E2C223022292C486F6C653A64657074682C228AD192CA22293E5C507B5C46414D4744543B777D2525633C486F6C653A63746469613E
310
2058203C486F6C653A6374616E676C653E252564
  0
ACAD_PROXY_OBJECT
  5
2E50
330
2E4D
100
AcDbProxyObject
 90
      499
 91
      576
 95
       25
 70
     0
 93
     1816
310
5DE0143A0D960E4E0DDA0E32056E0D9C80C405CF3D3C696628657175616C28486F6C653A7461707065642C223022292C22252563222C486F6C653A6E6F6D696E616C2022202220696628657175616C28486F6C653A756E6974732C223122292C2278222C222D222920222022293E3C696628657175616C28486F6C653A7461
310
707065642C223022292C486F6C653A6469612C486F6C653A706974636864657363293E5C507B5C46414D4744543B787D203C696628657175616C28486F6C653A7465726D696E6174696F6E2C223022292C486F6C653A64657074682C228AD192CA22293E
  0
ACAD_PROXY_OBJECT
  5
2E51
330
2E4D
100
AcDbProxyObject
 90
      499
 91
      576
 95
       25
 70
     0
 93
      344
310
5DE0143A0D960E4E0DDA0E32056E0D9C80C805173D3C535444503A444553433E203C535444503A5354443E
  0
ACAD_PROXY_OBJECT
  5
2E52
330
2E4D
100
AcDbProxyObject
 90
      499
 91
      576
 95
       25
 70
     0
 93
      256
310
5DE0143A0D960E4E0DDA0E32056E0D9C80C4050C3D3C535444503A444553433E
  0
ACAD_PROXY_OBJECT
  5
1AA
330
78
100
AcDbProxyObject
 90
      499
 91
      576
 95
       25
 70
     0
 93
     1648
310
5DE014295195B5C1B185D19480C405BE3D2525633C486F6C653A63746469613E2078203C486F6C653A637464657074683E20555C503C696628657175616C28486F6C653A7461707065642C223022292C222525632220486F6C653A6469612C20486F6C653A6E6F6D696E616C20222078202220486F6C653A70697463686465
310
736320222078202220486F6C653A7461706465707468293E203C696628657175616C28486F6C653A7465726D696E6174696F6E2C223022292C22202F202220486F6C653A64657074682C222022293E
  0
ACAD_PROXY_OBJECT
  5
1AB
330
78
100
AcDbProxyObject
 90
      499
 91
      576
 95
       25
 70
     0
 93
     1656
310
5DE014295195B5C1B185D19480C405BF3D2525633C486F6C653A63746469613E2078203C486F6C653A6374616E676C653E2525645C503C696628657175616C28486F6C653A7461707065642C223022292C222525632220486F6C653A6469612C20486F6C653A6E6F6D696E616C20222078202220486F6C653A706974636864
310
65736320222078202220486F6C653A7461706465707468293E203C696628657175616C28486F6C653A7465726D696E6174696F6E2C223022292C22202F202220486F6C653A64657074682C222022293E
  0
ACAD_PROXY_OBJECT
  5
1AC
330
78
100
AcDbProxyObject
 90
      499
 91
      576
 95
       25
 70
     0
 93
     1360
310
5DE014295195B5C1B185D19480C4059A3D3C696628657175616C28486F6C653A7461707065642C223022292C222525632220486F6C653A6469612C20486F6C653A6E6F6D696E616C20222078202220486F6C653A70697463686465736320222078202220486F6C653A7461706465707468293E203C696628657175616C2848
310
6F6C653A7465726D696E6174696F6E2C223022292C22202F202220486F6C653A64657074682C222022293E
  0
ACAD_PROXY_OBJECT
  5
1AD
330
78
100
AcDbProxyObject
 90
      499
 91
      576
 95
       25
 70
     0
 93
      224
310
5DE014295195B5C1B185D19480C4050C3D3C535444503A444553433E
  0
ACAD_PROXY_OBJECT
  5
212
330
20A
100
AcDbProxyObject
 90
      499
 91
      576
 95
       25
 70
     0
 93
     1376
310
5DE0143A0D960E4E0DDA0E32056E0D9C80C405983D3C486F6C653A6469613E3C696628657175616C28486F6C653A7465726D696E6174696F6E2C223022292C2220905B82B320222C22208368838A838B22293E3C696628657175616C28486F6C653A7465726D696E6174696F6E2C223022292C486F6C653A64657074682C22
310
22293E2C203C486F6C653A63746469613E2082B482AE82E882CC905B82B3203C486F6C653A637464657074683E
  0
ACAD_PROXY_OBJECT
  5
213
330
20A
100
AcDbProxyObject
 90
      499
 91
      576
 95
       25
 70
     0
 93
     2072
310
5DE0143A0D960E4E0DDA0E32056E0D9C80C405EF3D3C486F6C653A6374616E676C653E252564202525633C486F6C653A63746469613E208E4D8C8A2C203C696628657175616C28486F6C653A7461707065642C223022292C22252563222C486F6C653A6E6F6D696E616C202220782022293E3C696628657175616C28486F6C
310
653A7461707065642C223022292C486F6C653A6469612C486F6C653A706974636864657363293E203C696628657175616C28486F6C653A7465726D696E6174696F6E2C223022292C22905B82B320222C222022293E3C696628657175616C28486F6C653A7465726D696E6174696F6E2C223022292C486F6C653A6465707468
310
2C2222293E
  0
ACAD_PROXY_OBJECT
  5
211
330
20A
100
AcDbProxyObject
 90
      499
 91
      576
 95
       25
 70
     0
 93
     1752
310
5DE0143A0D960E4E0DDA0E32056E0D9C80C405C73D3C696628657175616C28486F6C653A7461707065642C223022292C22252563222C486F6C653A6E6F6D696E616C202220782022293E3C696628657175616C28486F6C653A7461707065642C223022292C486F6C653A6469612C486F6C653A706974636864657363293E20
310
3C696628657175616C28486F6C653A7465726D696E6174696F6E2C223022292C22905B82B320222C222022293E3C696628657175616C28486F6C653A7465726D696E6174696F6E2C223022292C486F6C653A64657074682C2222293E
  0
ACAD_PROXY_OBJECT
  5
210
330
20A
100
AcDbProxyObject
 90
      499
 91
      576
 95
       25
 70
     0
 93
      344
310
5DE0143A0D960E4E0DDA0E32056E0D9C80C805173D3C535444503A444553433E203C535444503A5354443E
  0
ACAD_PROXY_OBJECT
  5
20F
330
20A
100
AcDbProxyObject
 90
      499
 91
      576
 95
       25
 70
     0
 93
      256
310
5DE0143A0D960E4E0DDA0E32056E0D9C80C4050C3D3C535444503A444553433E
  0
ENDSEC
  0
EOF
