  0
SECTION
  2
HEADER
  9
$ACADVER
  1
AC1015
  9
$ACADMAINTVER
 70
    20
  9
$DWGCODEPAGE
  3
ANSI_932
  9
$INSBASE
 10
0.0
 20
0.0
 30
0.0
  9
$EXTMIN
 10
-152.4957651734777
 20
-148.1469202044164
 30
-0.0015258207003583
  9
$EXTMAX
 10
176.6277618084416
 20
54.29937341149241
 30
0.0000000349246037
  9
$LIMMIN
 10
-214.1211185428348
 20
-114.9758677795433
  9
$LIMMAX
 10
188.8200260474679
 20
180.7121265490945
  9
$ORTHOMODE
 70
     0
  9
$REGENMODE
 70
     1
  9
$FILLMODE
 70
     1
  9
$QTEXTMODE
 70
     0
  9
$MIRRTEXT
 70
     1
  9
$LTSCALE
 40
1.0
  9
$ATTMODE
 70
     1
  9
$TEXTSIZE
 40
2.5
  9
$TRACEWID
 40
1.0
  9
$TEXTSTYLE
  7
STANDARD
  9
$CLAYER
  8
AM_5
  9
$CELTYPE
  6
BYLAYER
  9
$CECOLOR
 62
   256
  9
$CELTSCALE
 40
1.0
  9
$DISPSILH
 70
     0
  9
$DIMSCALE
 40
1.0
  9
$DIMASZ
 40
2.5
  9
$DIMEXO
 40
0.0
  9
$DIMDLI
 40
10.0
  9
$DIMRND
 40
0.0
  9
$DIMDLE
 40
0.0
  9
$DIMEXE
 40
1.0
  9
$DIMTP
 40
0.1
  9
$DIMTM
 40
0.1000000001
  9
$DIMTXT
 40
3.799999999999998
  9
$DIMCEN
 40
0.0
  9
$DIMTSZ
 40
0.0
  9
$DIMTOL
 70
     0
  9
$DIMLIM
 70
     0
  9
$DIMTIH
 70
     0
  9
$DIMTOH
 70
     0
  9
$DIMSE1
 70
     0
  9
$DIMSE2
 70
     0
  9
$DIMTAD
 70
     3
  9
$DIMZIN
 70
     9
  9
$DIMBLK
  1
OPEN30
  9
$DIMASO
 70
     1
  9
$DIMSHO
 70
     1
  9
$DIMPOST
  1

  9
$DIMAPOST
  1
"
  9
$DIMALT
 70
     0
  9
$DIMALTD
 70
     2
  9
$DIMALTF
 40
0.0393701
  9
$DIMLFAC
 40
1.0
  9
$DIMTOFL
 70
     1
  9
$DIMTVP
 40
0.0
  9
$DIMTIX
 70
     0
  9
$DIMSOXD
 70
     0
  9
$DIMSAH
 70
     0
  9
$DIMBLK1
  1

  9
$DIMBLK2
  1

  9
$DIMSTYLE
  2
AM_JIS
  9
$DIMCLRD
 70
   256
  9
$DIMCLRE
 70
   256
  9
$DIMCLRT
 70
     2
  9
$DIMTFAC
 40
0.71
  9
$DIMGAP
 40
1.5
  9
$DIMJUST
 70
     0
  9
$DIMSD1
 70
     0
  9
$DIMSD2
 70
     0
  9
$DIMTOLJ
 70
     0
  9
$DIMTZIN
 70
     8
  9
$DIMALTZ
 70
     0
  9
$DIMALTTZ
 70
     0
  9
$DIMUPT
 70
     0
  9
$DIMDEC
 70
     2
  9
$DIMTDEC
 70
     2
  9
$DIMALTU
 70
     2
  9
$DIMALTTD
 70
     2
  9
$DIMTXSTY
  7
STANDARD
  9
$DIMAUNIT
 70
     1
  9
$DIMADEC
 70
     1
  9
$DIMALTRND
 40
0.0
  9
$DIMAZIN
 70
     2
  9
$DIMDSEP
 70
    46
  9
$DIMATFIT
 70
     3
  9
$DIMFRAC
 70
     0
  9
$DIMLDRBLK
  1
OPEN30
  9
$DIMLUNIT
 70
     2
  9
$DIMLWD
 70
    -1
  9
$DIMLWE
 70
    -1
  9
$DIMTMOVE
 70
     0
  9
$LUNITS
 70
     2
  9
$LUPREC
 70
     2
  9
$SKETCHINC
 40
1.0
  9
$FILLETRAD
 40
5.0
  9
$AUNITS
 70
     1
  9
$AUPREC
 70
     5
  9
$MENU
  1
.
  9
$ELEVATION
 40
0.0
  9
$PELEVATION
 40
0.0
  9
$THICKNESS
 40
0.0
  9
$LIMCHECK
 70
     0
  9
$CHAMFERA
 40
1.0
  9
$CHAMFERB
 40
1.0
  9
$CHAMFERC
 40
20.0
  9
$CHAMFERD
 40
0.0
  9
$SKPOLY
 70
     0
  9
$TDCREATE
 40
2451943.610431666
  9
$TDUCREATE
 40
2451943.235431667
  9
$TDUPDATE
 40
2455603.392498183
  9
$TDUUPDATE
 40
2455603.017498183
  9
$TDINDWG
 40
1.0218507523
  9
$TDUSRTIMER
 40
1.0218505787
  9
$USRTIMER
 70
     1
  9
$ANGBASE
 50
0.0
  9
$ANGDIR
 70
     0
  9
$PDMODE
 70
     0
  9
$PDSIZE
 40
0.0
  9
$PLINEWID
 40
0.0
  9
$SPLFRAME
 70
     0
  9
$SPLINETYPE
 70
     6
  9
$SPLINESEGS
 70
     8
  9
$HANDSEED
  5
B140
  9
$SURFTAB1
 70
     6
  9
$SURFTAB2
 70
     6
  9
$SURFTYPE
 70
     6
  9
$SURFU
 70
     6
  9
$SURFV
 70
     6
  9
$UCSBASE
  2

  9
$UCSNAME
  2

  9
$UCSORG
 10
0.0
 20
0.0
 30
0.0
  9
$UCSXDIR
 10
1.0
 20
0.0
 30
0.0
  9
$UCSYDIR
 10
0.0
 20
1.0
 30
0.0
  9
$UCSORTHOREF
  2

  9
$UCSORTHOVIEW
 70
     0
  9
$UCSORGTOP
 10
0.0
 20
0.0
 30
0.0
  9
$UCSORGBOTTOM
 10
0.0
 20
0.0
 30
0.0
  9
$UCSORGLEFT
 10
0.0
 20
0.0
 30
0.0
  9
$UCSORGRIGHT
 10
0.0
 20
0.0
 30
0.0
  9
$UCSORGFRONT
 10
0.0
 20
0.0
 30
0.0
  9
$UCSORGBACK
 10
0.0
 20
0.0
 30
0.0
  9
$PUCSBASE
  2

  9
$PUCSNAME
  2

  9
$PUCSORG
 10
0.0
 20
0.0
 30
0.0
  9
$PUCSXDIR
 10
1.0
 20
0.0
 30
0.0
  9
$PUCSYDIR
 10
0.0
 20
1.0
 30
0.0
  9
$PUCSORTHOREF
  2

  9
$PUCSORTHOVIEW
 70
     0
  9
$PUCSORGTOP
 10
0.0
 20
0.0
 30
0.0
  9
$PUCSORGBOTTOM
 10
0.0
 20
0.0
 30
0.0
  9
$PUCSORGLEFT
 10
0.0
 20
0.0
 30
0.0
  9
$PUCSORGRIGHT
 10
0.0
 20
0.0
 30
0.0
  9
$PUCSORGFRONT
 10
0.0
 20
0.0
 30
0.0
  9
$PUCSORGBACK
 10
0.0
 20
0.0
 30
0.0
  9
$USERI1
 70
     0
  9
$USERI2
 70
     0
  9
$USERI3
 70
     0
  9
$USERI4
 70
     0
  9
$USERI5
 70
     0
  9
$USERR1
 40
0.0
  9
$USERR2
 40
0.0
  9
$USERR3
 40
0.0
  9
$USERR4
 40
0.0
  9
$USERR5
 40
0.0
  9
$WORLDVIEW
 70
     1
  9
$SHADEDGE
 70
     3
  9
$SHADEDIF
 70
    70
  9
$TILEMODE
 70
     1
  9
$MAXACTVP
 70
    64
  9
$PINSBASE
 10
0.0
 20
0.0
 30
0.0
  9
$PLIMCHECK
 70
     0
  9
$PEXTMIN
 10
1.000000000000000E+20
 20
1.000000000000000E+20
 30
1.000000000000000E+20
  9
$PEXTMAX
 10
-1.000000000000000E+20
 20
-1.000000000000000E+20
 30
-1.000000000000000E+20
  9
$PLIMMIN
 10
0.0
 20
0.0
  9
$PLIMMAX
 10
420.0
 20
297.0
  9
$UNITMODE
 70
     0
  9
$VISRETAIN
 70
     1
  9
$PLINEGEN
 70
     0
  9
$PSLTSCALE
 70
     1
  9
$TREEDEPTH
 70
  3020
  9
$CMLSTYLE
  2
STANDARD
  9
$CMLJUST
 70
     0
  9
$CMLSCALE
 40
20.0
  9
$PROXYGRAPHICS
 70
     1
  9
$MEASUREMENT
 70
     1
  9
$CELWEIGHT
370
    -1
  9
$ENDCAPS
280
     0
  9
$JOINSTYLE
280
     0
  9
$LWDISPLAY
290
     0
  9
$INSUNITS
 70
     4
  9
$HYPERLINKBASE
  1

  9
$STYLESHEET
  1
ASAMI.ctb
  9
$XEDIT
290
     1
  9
$CEPSNTYPE
380
     0
  9
$PSTYLEMODE
290
     1
  9
$FINGERPRINTGUID
  2
{C77AB3BE-9CA2-11D3-BAF3-006094EB760E}
  9
$VERSIONGUID
  2
{686A1048-D13D-42E8-AA54-AC94010199AD}
  9
$EXTNAMES
290
     1
  9
$PSVPSCALE
 40
0.0
  9
$OLESTARTUP
290
     0
  0
ENDSEC
  0
SECTION
  2
CLASSES
  0
CLASS
  1
ACDBDICTIONARYWDFLT
  2
AcDbDictionaryWithDefault
  3
ObjectDBX Classes
 90
        0
280
     0
281
     0
  0
CLASS
  1
ACDBPLACEHOLDER
  2
AcDbPlaceHolder
  3
ObjectDBX Classes
 90
        0
280
     0
281
     0
  0
CLASS
  1
LAYOUT
  2
AcDbLayout
  3
ObjectDBX Classes
 90
        0
280
     0
281
     0
  0
CLASS
  1
ACME_DOCUMENT
  2
AcMeDbDoc
  3
AcMeServices
 90
        0
280
     0
281
     0
  0
CLASS
  1
ACMESCOPE
  2
AcMeScope
  3
AcMeServices
 90
        0
280
     0
281
     0
  0
CLASS
  1
ACMECOMMANDHISTORY
  2
AcMeCommandHistory
  3
AcMeServices
 90
        0
280
     0
281
     0
  0
CLASS
  1
DICTIONARYVAR
  2
AcDbDictionaryVar
  3
ObjectDBX Classes
 90
        0
280
     0
281
     0
  0
CLASS
  1
ACIMSYSVARMAN
  2
AcImSysVarManager
  3
AcMeServices
 90
        0
280
     0
281
     0
  0
CLASS
  1
ACIMREALSYSVAR
  2
AcImRealSysVar
  3
AcMeServices
 90
        0
280
     0
281
     0
  0
CLASS
  1
ACIMINTSYSVAR
  2
AcImIntSysVar
  3
AcMeServices
 90
        0
280
     0
281
     0
  0
CLASS
  1
ACMEDRAWINGMAN
  2
AcMeDrawingMan
  3
AcMeServices
 90
        0
280
     0
281
     0
  0
CLASS
  1
ACMEVIEW
  2
AcMeView
  3
AcMeServices
 90
        0
280
     0
281
     0
  0
CLASS
  1
ACDBENTITYCACHE
  2
AcMeEntityCache
  3
AcMeServices
 90
        0
280
     0
281
     0
  0
CLASS
  1
GSMANAGER
  2
AcMeGSManager
  3
AcMeServices
 90
        0
280
     0
281
     0
  0
CLASS
  1
AMDTINTERNALREACTOR
  2
AmdtInternalReactor
  3
AcMeServices
 90
        0
280
     0
281
     0
  0
CLASS
  1
ACMESTATEMGR
  2
AcMeStateMgr
  3
AcMeServices
 90
        0
280
     0
281
     0
  0
CLASS
  1
ACME_DATABASE
  2
AcMeDbDatabase
  3
AcMeServices
 90
        0
280
     0
281
     0
  0
CLASS
  1
ACRFINSADJUSTERMGR
  2
AcRfInsAdjusterMgr
  3
AcMeServices
 90
        0
280
     0
281
     0
  0
CLASS
  1
AMGSETTINGSOBJ
  2
AmgSettingsObj
  3
"AcadM|Product Description: AutoCAD Mechanical 2000|Company: Autodesk"
 90
        0
280
     0
281
     0
  0
CLASS
  1
AMGOBJPROPCFG
  2
AmgObjPropCfg
  3
"AmgLay|Product Description: AutoCAD Mechanical 2000|Company: Autodesk"
 90
        1
280
     0
281
     0
  0
CLASS
  1
ACMDATADICTIONARY
  2
AcmDataDictionary
  3
"AcmSymBB|Product Description: AutoCAD Mechanical 2004 DX|Company: Autodesk"
 90
        0
280
     0
281
     0
  0
CLASS
  1
ACMDATAENTRYBLOCK
  2
AcmDataEntryBlock
  3
"AcmSymBB|Product Description: AutoCAD Mechanical 2004 DX|Company: Autodesk"
 90
    32768
280
     0
281
     0
  0
CLASS
  1
ACIMSTRSYSVAR
  2
AcImStrSysVar
  3
AcMeServices
 90
        0
280
     0
281
     0
  0
CLASS
  1
ACAMGFILTERDAT
  2
AcAmgFilterDat
  3
"AcadM|Product Description: AutoCAD Mechanical 2000|Company: Autodesk"
 90
    32768
280
     0
281
     0
  0
CLASS
  1
LAYER_INDEX
  2
AcDbLayerIndex
  3
ObjectDBX Classes
 90
        0
280
     0
281
     0
  0
CLASS
  1
IDBUFFER
  2
AcDbIdBuffer
  3
ObjectDBX Classes
 90
        0
280
     0
281
     0
  0
CLASS
  1
ACMSTANDARDJIS
  2
AcmStandardJIS
  3
"Amdt_StdImp|Product Description: AutoCAD Mechanical 2004 DX|Company: Autodesk"
 90
    32768
280
     0
281
     0
  0
CLASS
  1
ACMSURFSTANDARDJIS
  2
AcmSurfTextStdJIS
  3
"Amdt_StdImp|Product Description: AutoCAD Mechanical 2004 DX|Company: Autodesk"
 90
    32768
280
     0
281
     0
  0
CLASS
  1
ACMFCFSTANDARDJIS
  2
AcmFCFStdJIS
  3
"Amdt_StdImp|Product Description: AutoCAD Mechanical 2004 DX|Company: Autodesk"
 90
    32768
280
     0
281
     0
  0
CLASS
  1
ACMWELDSTANDARDJIS
  2
AcmWeldingStdJIS
  3
"Amdt_StdImp|Product Description: AutoCAD Mechanical 2004 DX|Company: Autodesk"
 90
    32768
280
     0
281
     0
  0
CLASS
  1
ACMIDSTANDARDJIS
  2
AcmIdStdJIS
  3
"Amdt_StdImp|Product Description: AutoCAD Mechanical 2004 DX|Company: Autodesk"
 90
    32768
280
     0
281
     0
  0
CLASS
  1
ACMDATUMSTANDARDJIS
  2
AcmDatumStdJIS
  3
"Amdt_StdImp|Product Description: AutoCAD Mechanical 2004 DX|Company: Autodesk"
 90
    32768
280
     0
281
     0
  0
CLASS
  1
ACMBOMSTANDARDJIS
  2
AcmBOMStdJIS
  3
"Amdt_StdImp|Product Description: AutoCAD Mechanical 2004 DX|Company: Autodesk"
 90
    32768
280
     0
281
     0
  0
CLASS
  1
AMDTNOTE
  2
AmdtNote
  3
"AcmSymBB|Product Description: AutoCAD Mechanical 2004 DX|Company: Autodesk"
 90
    33791
280
     0
281
     1
  0
CLASS
  1
ACMDATAENTRYPART
  2
AcmDataEntryPart
  3
"AcmSymBB|Product Description: AutoCAD Mechanical 2004 DX|Company: Autodesk"
 90
    32768
280
     0
281
     0
  0
CLASS
  1
ACMPARTREF
  2
AcmPartRef
  3
"AcmSymBB|Product Description: AutoCAD Mechanical 2004 DX|Company: Autodesk"
 90
    33791
280
     0
281
     1
  0
CLASS
  1
ACDB_PROXY_ENTITY_DATA
  2
AcDbProxyEntityData
  3
ObjectDBX Classes
 90
    32768
280
     0
281
     0
  0
CLASS
  1
TABLESTYLE
  2
AcDbTableStyle
  3
ObjectDBX Classes
 90
     2047
280
     0
281
     0
  0
CLASS
  1
ACGREFMASTER
  2
AcGrefMaster
  3
AcAttribServices
 90
        0
280
     0
281
     0
  0
CLASS
  1
AM_DRAWING_MGR
  2
AcDmDwgMgr
  3
AcMechDwgViewMgmt
 90
        0
280
     0
281
     0
  0
CLASS
  1
AM_DWG_DOCUMENT
  2
AcDmDwgDocument
  3
AcMechDwgViewMgmt
 90
        0
280
     0
281
     0
  0
CLASS
  1
AM_DWG_SHEET
  2
AcDmSheet
  3
AcMechDwgViewMgmt
 90
        0
280
     0
281
     0
  0
CLASS
  1
AM_VIEWDIMPARMAP
  2
AcDmViewDimParMap
  3
AcMechDwgViewMgmt
 90
        0
280
     0
281
     0
  0
CLASS
  1
AM_DWGMGR_NAME
  2
AcDmDwgMgrName
  3
AcMechDwgViewMgmt
 90
        0
280
     0
281
     0
  0
CLASS
  1
ACGREFACADMASTER
  2
AcGrefacadMaster
  3
AcGrefServices
 90
        0
280
     0
281
     0
  0
CLASS
  1
AMDTMENUSTATEMGR
  2
AmdtMenuStateMgr
  3
McadcomServices
 90
        0
280
     0
281
     0
  0
CLASS
  1
AMDTMCOMMENUSTATE
  2
AmdtMcomMenuState
  3
McadcomServices
 90
        0
280
     0
281
     0
  0
CLASS
  1
AMIMASTER
  2
AmiMaster
  3
AmiServices
 90
        0
280
     0
281
     0
  0
CLASS
  1
MAPIAMMOUDLE
  2
MApiAmModule
  3
MApiAmServices
 90
        0
280
     0
281
     0
  0
CLASS
  1
AMDTADMENUSTATE
  2
AmdtAdMenuState
  3
DesignerServices
 90
        0
280
     0
281
     0
  0
CLASS
  1
ADAPPL
  2
AcAdAppl
  3
DesignerServices
 90
        0
280
     0
281
     0
  0
CLASS
  1
DEPMGR
  2
AcAdDepMgr
  3
DesignerServices
 90
        0
280
     0
281
     0
  0
CLASS
  1
PARAMMGR
  2
AcAdParamMgr
  3
DesignerServices
 90
        0
280
     0
281
     0
  0
CLASS
  1
PARAMSCOPE
  2
AcAdParamScope
  3
DesignerServices
 90
        0
280
     0
281
     0
  0
CLASS
  1
NAMEDAPPL
  2
AcAdNamedAppl
  3
DesignerServices
 90
        0
280
     0
281
     0
  0
CLASS
  1
AMDTDMMENUSTATE
  2
AmdtDmMenuState
  3
AcMechDwgViewMgmt
 90
        0
280
     0
281
     0
  0
CLASS
  1
AMDTAMMENUSTATE
  2
AmdtAmMenuState
  3
DesignerAssemblies
 90
        0
280
     0
281
     0
  0
CLASS
  1
ACAMPROJECT
  2
AcAmProject
  3
DesignerAssemblies
 90
        0
280
     0
281
     0
  0
CLASS
  1
ACAMGRCOMPDEF
  2
AcAmGrCompDef
  3
DesignerAssemblies
 90
        0
280
     0
281
     0
  0
CLASS
  1
ACCMCONTEXT
  2
AcCmContext
  3
DesignerAssemblies
 90
        0
280
     0
281
     0
  0
CLASS
  1
ACAMCOMPDEF
  2
AcAmCompDef
  3
DesignerAssemblies
 90
        0
280
     0
281
     0
  0
CLASS
  1
ACAMCOMPDEFMGR
  2
AcAmCompDefMgr
  3
DesignerAssemblies
 90
        0
280
     0
281
     0
  0
CLASS
  1
AMCONTEXTMGR
  2
AcAmContextMgr
  3
DesignerAssemblies
 90
        0
280
     0
281
     0
  0
CLASS
  1
ACAMCONTEXTMODELER
  2
AcAmContextModeler
  3
DesignerAssemblies
 90
        0
280
     0
281
     0
  0
CLASS
  1
CATALOGSTATE
  2
AcAmCatalogState
  3
DesignerAssemblies
 90
        0
280
     0
281
     0
  0
CLASS
  1
ACAMGRCOMPDEFSET
  2
AcAmGrCompDefSet
  3
DesignerAssemblies
 90
        0
280
     0
281
     0
  0
CLASS
  1
AMDTBROWSERDBTAB
  2
AmdtBrowserDbTab
  3
McadcomServices
 90
        0
280
     0
281
     0
  0
CLASS
  1
CBROWSERAPPOBJECT
  2
CBrowserAppObject
  3
McadcomServices
 90
        0
280
     0
281
     0
  0
CLASS
  1
DM_PLACEHOLDER
  2
AcDmSelsetPlaceholder
  3
AcMechDwgViewMgmt
 90
        0
280
     0
281
     0
  0
CLASS
  1
ACMSTANDARDISO
  2
AcmStandardISO
  3
"Amdt_StdImp|Product Description: AutoCAD Mechanical 2004 DX|Company: Autodesk"
 90
        0
280
     0
281
     0
  0
CLASS
  1
AMDTEDGESTANDARDISO13715
  2
AmdtEdgeStdISO13715
  3
"Amdt_StdImp|Product Description: AutoCAD Mechanical 2004 DX|Company: Autodesk"
 90
        0
280
     0
281
     0
  0
CLASS
  1
ACMSURFSTANDARDISO
  2
AcmSurfTextStdISO
  3
"Amdt_StdImp|Product Description: AutoCAD Mechanical 2004 DX|Company: Autodesk"
 90
        0
280
     0
281
     0
  0
CLASS
  1
ACMFCFSTANDARDISO
  2
AcmFCFStdISO
  3
"Amdt_StdImp|Product Description: AutoCAD Mechanical 2004 DX|Company: Autodesk"
 90
        0
280
     0
281
     0
  0
CLASS
  1
ACMWELDSTANDARDISO
  2
AcmWeldingStdISO
  3
"Amdt_StdImp|Product Description: AutoCAD Mechanical 2004 DX|Company: Autodesk"
 90
        0
280
     0
281
     0
  0
CLASS
  1
ACMIDSTANDARDISO
  2
AcmIdStdISO
  3
"Amdt_StdImp|Product Description: AutoCAD Mechanical 2004 DX|Company: Autodesk"
 90
        0
280
     0
281
     0
  0
CLASS
  1
ACMDATUMSTANDARDISO
  2
AcmDatumStdISO
  3
"Amdt_StdImp|Product Description: AutoCAD Mechanical 2004 DX|Company: Autodesk"
 90
        0
280
     0
281
     0
  0
CLASS
  1
ACMBOMSTANDARDISO
  2
AcmBOMStdISO
  3
"Amdt_StdImp|Product Description: AutoCAD Mechanical 2004 DX|Company: Autodesk"
 90
        0
280
     0
281
     0
  0
CLASS
  1
ACMDETAILSTANDARDISO
  2
AmdtDetailSymStdISO
  3
"Amdt_StdImp|Product Description: AutoCAD Mechanical 2004 DX|Company: Autodesk"
 90
        0
280
     0
281
     0
  0
CLASS
  1
ACMSECTIONSTANDARDISO
  2
AmdtSectionSymStdISO
  3
"Amdt_StdImp|Product Description: AutoCAD Mechanical 2004 DX|Company: Autodesk"
 90
        0
280
     0
281
     0
  0
CLASS
  1
ACMCENTERLINESTANDARDISO
  2
AmdtCenterLineStdISO
  3
"Amdt_StdImp|Product Description: AutoCAD Mechanical 2004 DX|Company: Autodesk"
 90
        0
280
     0
281
     0
  0
CLASS
  1
ACMTHREADLINESTANDARDISO
  2
AmdtThreadLineStdISO
  3
"Amdt_StdImp|Product Description: AutoCAD Mechanical 2004 DX|Company: Autodesk"
 90
        0
280
     0
281
     0
  0
CLASS
  1
ACMNOTESTANDARDISO
  2
AmdtNoteStdISO
  3
"Amdt_StdImp|Product Description: AutoCAD Mechanical 2004 DX|Company: Autodesk"
 90
        0
280
     0
281
     0
  0
CLASS
  1
AMDTNOTETEMPLATEDB
  2
AmdtNoteTemplateDB
  3
AMDT_STDIMP_MODULE_NAME
 90
        0
280
     0
281
     0
  0
CLASS
  1
ACAMGLAYSTD
  2
AcAmgLayStd
  3
"AcAmgLayStd|Product Description: AutoCAD Mechanical 2000|Company: Autodesk"
 90
        0
280
     0
281
     0
  0
CLASS
  1
ACAMGDIMSTD
  2
AcAmgDimStd
  3
"AcAmgDimStd|Product Description: AutoCAD Mechanical 2000|Company: Autodesk"
 90
        0
280
     0
281
     0
  0
CLASS
  1
ACAMGHOLECHARTSTDISO
  2
AcAmgHoleChartStdISO
  3
ACMSYMBB_MODULE_NAME
 90
        0
280
     0
281
     0
  0
CLASS
  1
ACAMGTITLESTD
  2
AcAmgTitleStd
  3
"TITLEAPP"
 90
        0
280
     0
281
     0
  0
ENDSEC
  0
SECTION
  2
TABLES
  0
TABLE
  2
VPORT
  5
8
330
0
100
AcDbSymbolTable
 70
     3
  0
VPORT
  5
B139
330
8
100
AcDbSymbolTableRecord
100
AcDbViewportTableRecord
  2
*Active
 70
     0
 10
0.0
 20
0.0
 11
1.0
 21
1.0
 12
12.06599831748195
 22
-46.92377339646202
 13
0.0
 23
0.0
 14
2.5
 24
2.5
 15
10.0
 25
10.0
 16
0.0
 26
0.0
 36
1.0
 17
0.0
 27
0.0
 37
0.0
 40
203.8923385703082
 41
2.176400476758045
 42
50.0
 43
0.0
 44
0.0
 50
0.0
 51
0.0
 71
     0
 72
  2000
 73
     1
 74
     3
 75
     0
 76
     0
 77
     0
 78
     0
281
     0
 65
     0
110
0.0
120
0.0
130
0.0
111
1.0
121
0.0
131
0.0
112
0.0
122
1.0
132
0.0
 79
     0
146
0.0
  0
ENDTAB
  0
TABLE
  2
LTYPE
  5
5
330
0
100
AcDbSymbolTable
 70
    17
  0
LTYPE
  5
14
330
5
100
AcDbSymbolTableRecord
100
AcDbLinetypeTableRecord
  2
BYBLOCK
 70
     0
  3

 72
    65
 73
     0
 40
0.0
  0
LTYPE
  5
15
330
5
100
AcDbSymbolTableRecord
100
AcDbLinetypeTableRecord
  2
BYLAYER
 70
     0
  3

 72
    65
 73
     0
 40
0.0
  0
LTYPE
  5
16
330
5
100
AcDbSymbolTableRecord
100
AcDbLinetypeTableRecord
  2
CONTINUOUS
 70
     0
  3
Solid line
 72
    65
 73
     0
 40
0.0
  0
LTYPE
  5
43
330
5
100
AcDbSymbolTableRecord
100
AcDbLinetypeTableRecord
  2
AM_ISO02W050
 70
     0
  3
__ __ __ __ __ __ __ __ __ __ __ __ __ __ __
 72
    65
 73
     2
 40
7.5
 49
6.0
 74
     0
 49
-1.5
 74
     0
  0
LTYPE
  5
44
330
5
100
AcDbSymbolTableRecord
100
AcDbLinetypeTableRecord
  2
AM_ISO08W050
 70
     0
  3
____ . ____ . ____ . ____ . ____ . ____ . ____
 72
    65
 73
     4
 40
18.0
 49
12.0
 74
     0
 49
-1.5
 74
     0
 49
3.0
 74
     0
 49
-1.5
 74
     0
  0
LTYPE
  5
45
330
5
100
AcDbSymbolTableRecord
100
AcDbLinetypeTableRecord
  2
AM_ISO09W050
 70
     0
  3
_____ . . _____ . . _____ . . ____ .. ____
 72
    65
 73
     6
 40
22.5
 49
12.0
 74
     0
 49
-1.5
 74
     0
 49
3.0
 74
     0
 49
-1.5
 74
     0
 49
3.0
 74
     0
 49
-1.5
 74
     0
  0
LTYPE
  5
46
330
5
100
AcDbSymbolTableRecord
100
AcDbLinetypeTableRecord
  2
AMCONSTR
 70
     0
  3
_______________________
 72
    65
 73
     2
 40
9999.0
 49
9999.0
 74
     0
 49
0.0
 74
     0
  0
LTYPE
  5
47
330
5
100
AcDbSymbolTableRecord
100
AcDbLinetypeTableRecord
  2
AM_ISO02W050X2
 70
     0
  3
 _ _ _ _ _ _ _ _ _ _ _ _
 72
    65
 73
     2
 40
3.75
 49
3.0
 74
     0
 49
-0.75
 74
     0
  0
LTYPE
  5
48
330
5
100
AcDbSymbolTableRecord
100
AcDbLinetypeTableRecord
  2
AM_ISO08W050X2
 70
     0
  3
__ . __ . __ . __ . __ . __
 72
    65
 73
     4
 40
9.0
 49
6.0
 74
     0
 49
-0.75
 74
     0
 49
1.5
 74
     0
 49
-0.75
 74
     0
  0
LTYPE
  5
4B
330
5
100
AcDbSymbolTableRecord
100
AcDbLinetypeTableRecord
  2
AMZIGZAG
 70
     0
  3
/\/-/\/-/\/-/\/-/\/-/\/
 72
    65
 73
     2
 40
11.00009999999999
 49
0.0001
 74
     4
 75
   135
340
4A
 46
0.04
 50
0.0
 44
0.0
 45
0.0
 49
-11.0
 74
     0
  0
LTYPE
  5
A2E3
330
5
100
AcDbSymbolTableRecord
100
AcDbLinetypeTableRecord
  2
PHANTOM
 70
     0
  3
Phantom ______  __  __  ______  __  __  ______
 72
    65
 73
     6
 40
63.5
 49
31.75
 74
     0
 49
-6.349999999999998
 74
     0
 49
6.349999999999998
 74
     0
 49
-6.349999999999998
 74
     0
 49
6.349999999999998
 74
     0
 49
-6.349999999999998
 74
     0
  0
LTYPE
  5
B083
330
5
100
AcDbSymbolTableRecord
100
AcDbLinetypeTableRecord
  2
HIDDEN
 70
     0
  3
Hidden __ __ __ __ __ __ __ __ __ __ __ __ __ _
 72
    65
 73
     2
 40
9.524999999999998
 49
6.349999999999999
 74
     0
 49
-3.174999999999999
 74
     0
  0
LTYPE
  5
B084
330
5
100
AcDbSymbolTableRecord
100
AcDbLinetypeTableRecord
  2
PHANTOM2
 70
     0
  3
Phantom (.5x) ___ _ _ ___ _ _ ___ _ _ ___ _ _
 72
    65
 73
     6
 40
31.75
 49
15.875
 74
     0
 49
-3.174999999999999
 74
     0
 49
3.174999999999999
 74
     0
 49
-3.174999999999999
 74
     0
 49
3.174999999999999
 74
     0
 49
-3.174999999999999
 74
     0
  0
LTYPE
  5
B085
330
5
100
AcDbSymbolTableRecord
100
AcDbLinetypeTableRecord
  2
CENTER
 70
     0
  3
Center ____ _ ____ _ ____ _ ____ _ ____ _ ____
 72
    65
 73
     4
 40
50.8
 49
31.75
 74
     0
 49
-6.349999999999999
 74
     0
 49
6.349999999999999
 74
     0
 49
-6.349999999999999
 74
     0
  0
LTYPE
  5
B0C5
330
5
100
AcDbSymbolTableRecord
100
AcDbLinetypeTableRecord
  2
ACISOWELD
 70
     0
  3
_ _ _ _ _
 72
    65
 73
     2
 40
2.0
 49
2.0
 74
     0
 49
-1.0
 74
     0
  0
LTYPE
  5
B0C6
330
5
100
AcDbSymbolTableRecord
100
AcDbLinetypeTableRecord
  2
ACISOTGB
 70
     0
  3
__ . . __ . .
 72
    65
 73
     6
 40
9.0
 49
4.0
 74
     0
 49
-1.0
 74
     0
 49
1.0
 74
     0
 49
-1.0
 74
     0
 49
1.0
 74
     0
 49
-1.0
 74
     0
  0
LTYPE
  5
B0C7
330
5
100
AcDbSymbolTableRecord
100
AcDbLinetypeTableRecord
  2
ACISOTGL
 70
     0
  3
_ _ _ _ _
 72
    65
 73
     2
 40
3.0
 49
2.0
 74
     0
 49
-1.0
 74
     0
  0
ENDTAB
  0
TABLE
  2
LAYER
  5
2
330
0
100
AcDbSymbolTable
 70
    13
  0
LAYER
  5
10
330
2
100
AcDbSymbolTableRecord
100
AcDbLayerTableRecord
  2
0
 70
     0
 62
     7
  6
CONTINUOUS
370
    -3
390
F
  0
LAYER
  5
7D
330
2
100
AcDbSymbolTableRecord
100
AcDbLayerTableRecord
  2
AM_5
 70
     0
 62
     3
  6
CONTINUOUS
370
    -3
390
F
  0
LAYER
  5
7F
330
2
100
AcDbSymbolTableRecord
100
AcDbLayerTableRecord
  2
DEFPOINTS
 70
     0
 62
     7
  6
CONTINUOUS
290
     0
370
    -3
390
F
  0
LAYER
  5
12B1
330
2
100
AcDbSymbolTableRecord
100
AcDbLayerTableRecord
  2
AM_0
 70
     0
 62
     7
  6
CONTINUOUS
370
    -3
390
F
  0
LAYER
  5
2222
330
2
100
AcDbSymbolTableRecord
100
AcDbLayerTableRecord
  2
AM_6
 70
     0
 62
     2
  6
CONTINUOUS
370
    -3
390
F
  0
LAYER
  5
7DB2
330
2
100
AcDbSymbolTableRecord
100
AcDbLayerTableRecord
  2
AM_7
 70
     0
 62
     4
  6
AM_ISO08W050
370
    -3
390
F
  0
LAYER
  5
7DB3
330
2
100
AcDbSymbolTableRecord
100
AcDbLayerTableRecord
  2
AM_4
 70
     0
 62
     3
  6
CONTINUOUS
370
    -3
390
F
  0
LAYER
  5
A2E4
330
2
100
AcDbSymbolTableRecord
100
AcDbLayerTableRecord
  2
AM_11
 70
     0
 62
     3
  6
PHANTOM
370
    -3
390
F
  0
ENDTAB
  0
TABLE
  2
STYLE
  5
3
330
0
100
AcDbSymbolTable
 70
     6
  0
STYLE
  5
11
330
3
100
AcDbSymbolTableRecord
100
AcDbTextStyleTableRecord
  2
STANDARD
 70
     0
 40
0.0
 41
1.0
 50
0.0
 71
     0
 42
2.5
  3
ISOCP.SHX
  4
EXTFONT.SHX
  0
STYLE
  5
4A
330
3
100
AcDbSymbolTableRecord
100
AcDbTextStyleTableRecord
  2

 70
     1
 40
0.0
 41
1.0
 50
0.0
 71
     0
 42
2.5
  3
ltypeshp.shx
  4

  0
STYLE
  5
B0B7
330
3
100
AcDbSymbolTableRecord
100
AcDbTextStyleTableRecord
  2
ACISOTS
 70
     0
 40
1.0
 41
1.0
 50
0.0
 71
     0
 42
2.5
  3
isocp.shx
  4
extfont.shx
  0
STYLE
  5
B0C4
330
3
100
AcDbSymbolTableRecord
100
AcDbTextStyleTableRecord
  2
ACISOGDT
 70
     0
 40
0.0
 41
1.0
 50
0.0
 71
     0
 42
2.5
  3
amgdt.shx
  4

  0
ENDTAB
  0
TABLE
  2
VIEW
  5
6
330
0
100
AcDbSymbolTable
 70
     6
  0
VIEW
  5
A30
330
6
100
AcDbSymbolTableRecord
100
AcDbViewTableRecord
  2
AM_VIEW1
 70
     0
 40
148.5
 10
112.0719649561952
 20
222.75
 41
224.1439299123904
 11
0.0
 21
0.0
 31
1.0
 12
0.0
 22
0.0
 32
0.0
 42
50.0
 43
0.0
 44
0.0
 50
0.0
 71
     0
281
     0
 72
     0
  0
VIEW
  5
A31
330
6
100
AcDbSymbolTableRecord
100
AcDbViewTableRecord
  2
AM_VIEW2
 70
     0
 40
148.5
 10
307.9280350438047
 20
222.75
 41
224.1439299123904
 11
0.0
 21
0.0
 31
1.0
 12
0.0
 22
0.0
 32
0.0
 42
50.0
 43
0.0
 44
0.0
 50
0.0
 71
     0
281
     0
 72
     0
  0
VIEW
  5
A32
330
6
100
AcDbSymbolTableRecord
100
AcDbViewTableRecord
  2
AM_VIEW3
 70
     0
 40
148.5
 10
112.0719649561952
 20
74.25
 41
224.1439299123904
 11
0.0
 21
0.0
 31
1.0
 12
0.0
 22
0.0
 32
0.0
 42
50.0
 43
0.0
 44
0.0
 50
0.0
 71
     0
281
     0
 72
     0
  0
VIEW
  5
A33
330
6
100
AcDbSymbolTableRecord
100
AcDbViewTableRecord
  2
AM_VIEW4
 70
     0
 40
148.5
 10
307.9280350438047
 20
74.25
 41
224.1439299123904
 11
0.0
 21
0.0
 31
1.0
 12
0.0
 22
0.0
 32
0.0
 42
50.0
 43
0.0
 44
0.0
 50
0.0
 71
     0
281
     0
 72
     0
  0
VIEW
  5
A34
330
6
100
AcDbSymbolTableRecord
100
AcDbViewTableRecord
  2
AM_VIEW5
 70
     0
 40
148.5
 10
210.0
 20
148.5
 41
224.1439299123904
 11
0.0
 21
0.0
 31
1.0
 12
0.0
 22
0.0
 32
0.0
 42
50.0
 43
0.0
 44
0.0
 50
0.0
 71
     0
281
     0
 72
     0
  0
VIEW
  5
A35
330
6
100
AcDbSymbolTableRecord
100
AcDbViewTableRecord
  2
AM_VIEW6
 70
     0
 40
296.9970299999999
 10
210.0
 20
148.5
 41
448.2833769461826
 11
0.0
 21
0.0
 31
1.0
 12
0.0
 22
0.0
 32
0.0
 42
50.0
 43
0.0
 44
0.0
 50
0.0
 71
     0
281
     0
 72
     0
  0
ENDTAB
  0
TABLE
  2
UCS
  5
7
330
0
100
AcDbSymbolTable
 70
     0
  0
ENDTAB
  0
TABLE
  2
APPID
  5
9
330
0
100
AcDbSymbolTable
 70
    42
  0
APPID
  5
12
330
9
100
AcDbSymbolTableRecord
100
AcDbRegAppTableRecord
  2
ACAD
 70
     0
  0
APPID
  5
2C
330
9
100
AcDbSymbolTableRecord
100
AcDbRegAppTableRecord
  2
MCAD_NO_VIS
 70
     0
  0
APPID
  5
2D
330
9
100
AcDbSymbolTableRecord
100
AcDbRegAppTableRecord
  2
ACAD_TEMP_GRAPHIC
 70
     0
  0
APPID
  5
B9
330
9
100
AcDbSymbolTableRecord
100
AcDbRegAppTableRecord
  2
GENIUS_GENDTOL_13
 70
     0
  0
APPID
  5
359
330
9
100
AcDbSymbolTableRecord
100
AcDbRegAppTableRecord
  2
GENIUS_GENREC_14
 70
     0
  0
APPID
  5
35A
330
9
100
AcDbSymbolTableRecord
100
AcDbRegAppTableRecord
  2
GENIUS_GENODEF_13
 70
     0
  0
APPID
  5
35B
330
9
100
AcDbSymbolTableRecord
100
AcDbRegAppTableRecord
  2
GENIUS_GENOBJ-N-REC_13
 70
     0
  0
APPID
  5
667
330
9
100
AcDbSymbolTableRecord
100
AcDbRegAppTableRecord
  2
GENIUS_GENCFG_13
 70
     0
  0
APPID
  5
668
330
9
100
AcDbSymbolTableRecord
100
AcDbRegAppTableRecord
  2
GENIUS_GENCFG0_13
 70
     0
  0
APPID
  5
669
330
9
100
AcDbSymbolTableRecord
100
AcDbRegAppTableRecord
  2
GENIUS_GENCFG1_13
 70
     0
  0
APPID
  5
66A
330
9
100
AcDbSymbolTableRecord
100
AcDbRegAppTableRecord
  2
GENIUS_GENCFG2_13
 70
     0
  0
APPID
  5
66B
330
9
100
AcDbSymbolTableRecord
100
AcDbRegAppTableRecord
  2
GENIUS_GENCFG3_13
 70
     0
  0
APPID
  5
66C
330
9
100
AcDbSymbolTableRecord
100
AcDbRegAppTableRecord
  2
GENIUS_GENCFG4_13
 70
     0
  0
APPID
  5
A76
330
9
100
AcDbSymbolTableRecord
100
AcDbRegAppTableRecord
  2
GENIUS_GENBLLY_14
 70
     0
  0
APPID
  5
A77
330
9
100
AcDbSymbolTableRecord
100
AcDbRegAppTableRecord
  2
GENIUS_GENOBJ-N-CEN_13
 70
     0
  0
APPID
  5
A83
330
9
100
AcDbSymbolTableRecord
100
AcDbRegAppTableRecord
  2
GENIUS_GENTRA_14
 70
     0
  0
APPID
  5
A8D
330
9
100
AcDbSymbolTableRecord
100
AcDbRegAppTableRecord
  2
GENIUS_GENOBJ-N-TIT_13
 70
     0
  0
APPID
  5
A8E
330
9
100
AcDbSymbolTableRecord
100
AcDbRegAppTableRecord
  2
GENIUS_GENTITLE_13
 70
     0
  0
APPID
  5
A8F
330
9
100
AcDbSymbolTableRecord
100
AcDbRegAppTableRecord
  2
GENIUS_GENOENT_13
 70
     0
  0
APPID
  5
A90
330
9
100
AcDbSymbolTableRecord
100
AcDbRegAppTableRecord
  2
GENIUS_GENOREF_13
 70
     0
  0
APPID
  5
A91
330
9
100
AcDbSymbolTableRecord
100
AcDbRegAppTableRecord
  2
GENIUS_GENOLIS_13
 70
     0
  0
APPID
  5
A92
330
9
100
AcDbSymbolTableRecord
100
AcDbRegAppTableRecord
  2
GENIUS_GENZVEED_13
 70
     0
  0
APPID
  5
A93
330
9
100
AcDbSymbolTableRecord
100
AcDbRegAppTableRecord
  2
GENIUS_GENSCREG_15
 70
     0
  0
APPID
  5
A94
330
9
100
AcDbSymbolTableRecord
100
AcDbRegAppTableRecord
  2
GENIUS_GENOBJ-N-SDF_13
 70
     0
  0
APPID
  5
12B5
330
9
100
AcDbSymbolTableRecord
100
AcDbRegAppTableRecord
  2
GENIUS_GENOBJ-N-RSBK_13
 70
     0
  0
APPID
  5
12B6
330
9
100
AcDbSymbolTableRecord
100
AcDbRegAppTableRecord
  2
GENIUS_GENOBJ-N-LIB_13
 70
     0
  0
APPID
  5
12B7
330
9
100
AcDbSymbolTableRecord
100
AcDbRegAppTableRecord
  2
GENIUS_GENSCALE_13
 70
     0
  0
APPID
  5
12B8
330
9
100
AcDbSymbolTableRecord
100
AcDbRegAppTableRecord
  2
GENIUS_GENOBJ-N-HTC_13
 70
     0
  0
APPID
  5
12B9
330
9
100
AcDbSymbolTableRecord
100
AcDbRegAppTableRecord
  2
GENIUS_GENHATCH_13
 70
     0
  0
APPID
  5
1C0A
330
9
100
AcDbSymbolTableRecord
100
AcDbRegAppTableRecord
  2
BASE_TYPE
 70
     0
  0
APPID
  5
276B
330
9
100
AcDbSymbolTableRecord
100
AcDbRegAppTableRecord
  2
GENIUS_GENOBJ-N-FIL_13
 70
     0
  0
APPID
  5
3640
330
9
100
AcDbSymbolTableRecord
100
AcDbRegAppTableRecord
  2
GENIUS_GENBH_13
 70
     0
  0
APPID
  5
36D1
330
9
100
AcDbSymbolTableRecord
100
AcDbRegAppTableRecord
  2
GENIUS_GENOBJ-F-SPR_13
 70
     0
  0
APPID
  5
36DA
330
9
100
AcDbSymbolTableRecord
100
AcDbRegAppTableRecord
  2
GENIUS_GEFSPRING_13
 70
     0
  0
APPID
  5
36DB
330
9
100
AcDbSymbolTableRecord
100
AcDbRegAppTableRecord
  2
GENIUS_GEFSPRINGP_13
 70
     0
  0
APPID
  5
4D67
330
9
100
AcDbSymbolTableRecord
100
AcDbRegAppTableRecord
  2
GENIUS_GENFIL_13
 70
     0
  0
APPID
  5
4D68
330
9
100
AcDbSymbolTableRecord
100
AcDbRegAppTableRecord
  2
GENIUS_GENOBJ-N-CHA_13
 70
     0
  0
APPID
  5
B087
330
9
100
AcDbSymbolTableRecord
100
AcDbRegAppTableRecord
  2
AD_DRAW
 70
     0
  0
APPID
  5
B08A
330
9
100
AcDbSymbolTableRecord
100
AcDbRegAppTableRecord
  2
ACATTRIBSERVICES
 70
     0
  0
APPID
  5
B0A8
330
9
100
AcDbSymbolTableRecord
100
AcDbRegAppTableRecord
  2
DESIGNERASSEMBLIES
 70
     0
  0
APPID
  5
B0AD
330
9
100
AcDbSymbolTableRecord
100
AcDbRegAppTableRecord
  2
ACADM_DIM_EDIT
 70
     0
  0
APPID
  5
B0AE
330
9
100
AcDbSymbolTableRecord
100
AcDbRegAppTableRecord
  2
AMDT_DM_ADJ
 70
     0
  0
ENDTAB
  0
TABLE
  2
DIMSTYLE
  5
A
330
0
100
AcDbSymbolTable
 70
    20
100
AcDbDimStyleTable
 71
     0
  0
DIMSTYLE
105
58
330
A
100
AcDbSymbolTableRecord
100
AcDbDimStyleTableRecord
  2
AM_JIS
 70
     0
  4
"
 41
2.5
 42
0.0
 43
10.0
 44
1.0
 47
0.1
 48
0.1000000001
 73
     0
 74
     0
 77
     3
 78
     9
140
3.799999999999998
141
0.0
143
0.0393701
146
0.71
147
1.5
172
     1
176
   256
177
   256
178
     2
271
     2
272
     2
275
     1
283
     0
284
     8
340
11
341
59
342
59
  0
DIMSTYLE
105
5F
102
{ACAD_REACTORS
330
AFE6
102
}
330
A
100
AcDbSymbolTableRecord
100
AcDbDimStyleTableRecord
  2
AM_JIS$3
 70
     0
  4
"
 41
2.5
 42
0.0
 43
10.0
 44
1.0
 47
0.1
 48
0.1000000001
 73
     0
 77
     3
 78
     9
140
3.799999999999998
141
0.0
143
0.0393701
146
0.71
147
1.5
172
     1
176
   256
177
   256
178
     2
271
     2
272
     2
275
     1
283
     0
284
     8
288
     1
340
11
341
59
342
59
  0
DIMSTYLE
105
65F
330
A
100
AcDbSymbolTableRecord
100
AcDbDimStyleTableRecord
  2
STANDARD
 70
     0
340
11
  0
DIMSTYLE
105
1761
102
{ACAD_REACTORS
330
AD75
330
AD82
330
AD9C
330
ADCD
330
ADDA
330
ADE7
330
AE11
330
AE5F
330
AE75
102
}
330
A
100
AcDbSymbolTableRecord
100
AcDbDimStyleTableRecord
  2
AM_JIS$0
 70
     0
  4
"
 41
2.5
 42
0.0
 43
10.0
 44
1.0
 47
0.1
 48
0.1000000001
 73
     0
 74
     0
 77
     3
 78
     9
140
3.799999999999998
141
0.0
143
0.0393701
146
0.71
147
1.5
172
     1
176
     3
177
     3
178
     2
271
     2
272
     2
275
     1
283
     0
284
     8
340
11
341
59
342
59
  0
DIMSTYLE
105
B0D0
330
A
100
AcDbSymbolTableRecord
100
AcDbDimStyleTableRecord
  2
AM_ISO
 70
     0
  4
"
 41
2.5
 42
1.0
 43
10.0
 44
1.0
 47
0.1
 48
0.1
 73
     0
 74
     0
 77
     1
 78
     8
 79
     2
140
3.5
141
0.0
143
0.0393701
146
0.71
147
1.5
172
     1
176
   256
177
   256
178
     2
271
     2
272
     3
274
     4
283
     0
284
     8
340
11
371
    -1
372
    -1
  0
DIMSTYLE
105
B0D1
330
A
100
AcDbSymbolTableRecord
100
AcDbDimStyleTableRecord
  2
AM_ISO$3
 70
     0
  4
"
 41
2.5
 42
1.0
 43
10.0
 44
1.0
 47
0.1
 48
0.1
 73
     0
 77
     1
 78
     8
 79
     2
140
3.5
141
0.0
143
0.0393701
146
0.71
147
1.5
176
   256
177
   256
178
     2
271
     2
272
     3
274
     4
283
     0
284
     8
288
     1
289
     0
340
11
371
    -1
372
    -1
  0
DIMSTYLE
105
B0D2
330
A
100
AcDbSymbolTableRecord
100
AcDbDimStyleTableRecord
  2
AM_ISO$4
 70
     0
  4
"
 41
2.5
 42
1.0
 43
10.0
 44
1.0
 47
0.1
 48
0.1
 73
     0
 77
     1
 78
     8
 79
     2
140
3.5
141
0.0
143
0.0393701
146
0.71
147
1.5
176
   256
177
   256
178
     2
271
     2
272
     3
274
     4
283
     0
284
     8
288
     1
289
     0
340
11
371
    -1
372
    -1
  0
DIMSTYLE
105
B0D3
330
A
100
AcDbSymbolTableRecord
100
AcDbDimStyleTableRecord
  2
AM_ISO$6
 70
     0
  4
"
 41
2.5
 42
1.0
 43
10.0
 44
1.0
 47
0.1
 48
0.1
 73
     0
 74
     0
 78
     8
 79
     2
140
3.5
141
0.0
143
0.0393701
146
0.71
147
1.5
172
     1
176
   256
177
   256
178
     2
271
     2
272
     3
274
     4
283
     0
284
     8
340
11
371
    -1
372
    -1
  0
DIMSTYLE
105
B0D4
330
A
100
AcDbSymbolTableRecord
100
AcDbDimStyleTableRecord
  2
AM_ISO$7
 70
     0
  4
"
 41
2.5
 42
1.0
 43
10.0
 44
1.0
 47
0.1
 48
0.1
 73
     0
 74
     0
 77
     1
 78
     8
 79
     2
140
5.0
141
0.0
143
0.0393701
146
0.71
147
1.5
172
     1
176
   256
177
   256
178
     2
271
     2
272
     3
274
     4
283
     0
284
     8
340
11
371
    -1
372
    -1
  0
DIMSTYLE
105
B0D5
330
A
100
AcDbSymbolTableRecord
100
AcDbDimStyleTableRecord
  2
AM_ISO$SF
 70
     0
  4
"
 41
2.5
 42
1.0
 43
10.0
 44
1.0
 47
0.1
 48
0.1
 73
     0
 74
     0
 75
     1
 76
     1
 77
     1
 78
     8
 79
     2
140
3.5
141
0.0
143
0.0393701
146
0.71
147
1.5
172
     1
176
   256
177
   256
178
     2
271
     2
272
     3
274
     4
283
     0
284
     8
340
11
371
    -1
372
    -1
  0
DIMSTYLE
105
B0D6
330
A
100
AcDbSymbolTableRecord
100
AcDbDimStyleTableRecord
  2
AM_ISO$SH
 70
     0
  4
"
 41
2.5
 42
1.0
 43
10.0
 44
1.0
 47
0.1
 48
0.1
 73
     0
 74
     0
 75
     1
 76
     1
 77
     1
 78
     8
 79
     2
140
3.5
141
0.0
143
0.0393701
144
2.0
146
0.71
147
1.5
172
     1
173
     1
176
   256
177
   256
178
     2
271
     2
272
     3
274
     4
283
     0
284
     8
340
11
343
64
371
    -1
372
    -1
  0
ENDTAB
  0
TABLE
  2
BLOCK_RECORD
  5
1
330
0
100
AcDbSymbolTable
 70
    20
  0
BLOCK_RECORD
  5
1F
102
{ACAD_XDICTIONARY
360
165
102
}
330
1
100
AcDbSymbolTableRecord
100
AcDbBlockTableRecord
  2
*MODEL_SPACE
340
B04F
  0
BLOCK_RECORD
  5
1B
102
{ACAD_XDICTIONARY
360
B042
102
}
330
1
100
AcDbSymbolTableRecord
100
AcDbBlockTableRecord
  2
*PAPER_SPACE
340
B050
  0
BLOCK_RECORD
  5
59
330
1
100
AcDbSymbolTableRecord
100
AcDbBlockTableRecord
  2
_OPEN30
340
0
102
{BLKREFS
331
B0DD
331
B0DE
331
B0E8
331
B0E9
331
B0F1
331
B0F2
331
B0FA
331
B0FB
331
B103
331
B104
331
B10E
331
B10F
331
B117
331
B118
331
B120
331
B121
331
B12B
331
B12C
331
B133
102
}
  0
BLOCK_RECORD
  5
64
330
1
100
AcDbSymbolTableRecord
100
AcDbBlockTableRecord
  2
GENAXEH
340
0
  0
BLOCK_RECORD
  5
AC91
330
1
100
AcDbSymbolTableRecord
100
AcDbBlockTableRecord
  2
CBF06
340
0
102
{BLKREFS
331
ACDA
331
ACDB
102
}
  0
BLOCK_RECORD
  5
ACC2
330
1
100
AcDbSymbolTableRecord
100
AcDbBlockTableRecord
  2
CBF03
340
0
102
{BLKREFS
331
ACCD
102
}
  0
BLOCK_RECORD
  5
AD28
330
1
100
AcDbSymbolTableRecord
100
AcDbBlockTableRecord
  2
CBF08
340
0
102
{BLKREFS
331
AD33
102
}
  0
BLOCK_RECORD
  5
AD34
330
1
100
AcDbSymbolTableRecord
100
AcDbBlockTableRecord
  2
CBS0800
340
0
102
{BLKREFS
331
AD3F
331
AD46
102
}
  0
BLOCK_RECORD
  5
AD76
330
1
100
AcDbSymbolTableRecord
100
AcDbBlockTableRecord
  2
*D9
340
0
  0
BLOCK_RECORD
  5
AD83
330
1
100
AcDbSymbolTableRecord
100
AcDbBlockTableRecord
  2
*D10
340
0
  0
BLOCK_RECORD
  5
AD9D
330
1
100
AcDbSymbolTableRecord
100
AcDbBlockTableRecord
  2
*D11
340
0
  0
BLOCK_RECORD
  5
ADCE
330
1
100
AcDbSymbolTableRecord
100
AcDbBlockTableRecord
  2
*D12
340
0
  0
BLOCK_RECORD
  5
ADDB
330
1
100
AcDbSymbolTableRecord
100
AcDbBlockTableRecord
  2
*D13
340
0
  0
BLOCK_RECORD
  5
ADE8
330
1
100
AcDbSymbolTableRecord
100
AcDbBlockTableRecord
  2
*D14
340
0
  0
BLOCK_RECORD
  5
AE12
330
1
100
AcDbSymbolTableRecord
100
AcDbBlockTableRecord
  2
*D15
340
0
  0
BLOCK_RECORD
  5
AE60
330
1
100
AcDbSymbolTableRecord
100
AcDbBlockTableRecord
  2
*D16
340
0
  0
BLOCK_RECORD
  5
AE76
330
1
100
AcDbSymbolTableRecord
100
AcDbBlockTableRecord
  2
*D17
340
0
  0
BLOCK_RECORD
  5
AFE7
330
1
100
AcDbSymbolTableRecord
100
AcDbBlockTableRecord
  2
*D18
340
0
  0
ENDTAB
  0
ENDSEC
  0
SECTION
  2
BLOCKS
  0
BLOCK
  5
20
330
1F
100
AcDbEntity
  8
0
100
AcDbBlockBegin
  2
*MODEL_SPACE
 70
     0
 10
0.0
 20
0.0
 30
0.0
  3
*MODEL_SPACE
  1

  0
ENDBLK
  5
21
330
1F
100
AcDbEntity
  8
0
100
AcDbBlockEnd
  0
BLOCK
  5
1C
330
1B
100
AcDbEntity
 67
     1
  8
0
100
AcDbBlockBegin
  2
*PAPER_SPACE
 70
     0
 10
0.0
 20
0.0
 30
0.0
  3
*PAPER_SPACE
  1

  0
ENDBLK
  5
1D
330
1B
100
AcDbEntity
 67
     1
  8
0
100
AcDbBlockEnd
  0
BLOCK
  5
5D
330
59
100
AcDbEntity
  8
0
100
AcDbBlockBegin
  2
_OPEN30
 70
     0
 10
0.0
 20
0.0
 30
0.0
  3
_OPEN30
  1

  0
LINE
  5
5A
330
59
100
AcDbEntity
  8
0
 62
     0
100
AcDbLine
 10
-1.0
 20
0.26794919
 30
0.0
 11
0.0
 21
0.0
 31
0.0
  0
LINE
  5
5B
330
59
100
AcDbEntity
  8
0
 62
     0
100
AcDbLine
 10
0.0
 20
0.0
 30
0.0
 11
-1.0
 21
-0.26794919
 31
0.0
  0
LINE
  5
5C
330
59
100
AcDbEntity
  8
0
 62
     0
100
AcDbLine
 10
0.0
 20
0.0
 30
0.0
 11
-1.0
 21
0.0
 31
0.0
  0
ENDBLK
  5
5E
330
59
100
AcDbEntity
  8
0
100
AcDbBlockEnd
  0
BLOCK
  5
66
330
64
100
AcDbEntity
  8
0
100
AcDbBlockBegin
  2
GENAXEH
 70
     0
 10
0.0
 20
0.0
 30
0.0
  3
GENAXEH
  1

  0
LINE
  5
65
330
64
100
AcDbEntity
  8
0
100
AcDbLine
 10
-1.0
 20
0.0
 30
0.0
 11
1.0
 21
0.0
 31
0.0
  0
ENDBLK
  5
67
330
64
100
AcDbEntity
  8
0
100
AcDbBlockEnd
  0
BLOCK
  5
AC9A
330
AC91
100
AcDbEntity
  8
0
100
AcDbBlockBegin
  2
CBF06
 70
     0
 10
0.0
 20
0.0
 30
0.0
  3
CBF06
  1

  0
CIRCLE
  5
AC92
330
AC91
100
AcDbEntity
  8
0
  6
Continuous
100
AcDbCircle
 10
0.0000187875812969
 20
0.0000034482758053
 30
0.0
 40
4.307179353944746
  0
CIRCLE
  5
AC93
330
AC91
100
AcDbEntity
  8
0
  6
Continuous
100
AcDbCircle
 10
0.0000187875812969
 20
0.0000034482758053
 30
0.0
 40
5.0
  0
LINE
  5
AC94
330
AC91
100
AcDbEntity
  8
0
  6
Continuous
100
AcDbLine
 10
-1.443356212418706
 20
-2.499995386098901
 30
0.0
 11
1.443393787581185
 21
-2.499995386098901
 31
0.0
  0
LINE
  5
AC95
330
AC91
100
AcDbEntity
  8
0
  6
Continuous
100
AcDbLine
 10
1.4433937875813
 20
2.500002282650598
 30
0.0
 11
-1.443356212418706
 21
2.500002282650598
 31
0.0
  0
LINE
  5
AC96
330
AC91
100
AcDbEntity
  8
0
  6
Continuous
100
AcDbLine
 10
-2.886731212418651
 20
0.0000034482758053
 30
0.0
 11
-1.443356212418706
 21
-2.499995386098901
 31
0.0
  0
LINE
  5
AC97
330
AC91
100
AcDbEntity
  8
0
  6
Continuous
100
AcDbLine
 10
-1.443356212418706
 20
2.500002282650598
 30
0.0
 11
-2.886731212418651
 21
0.0000034482758053
 31
0.0
  0
LINE
  5
AC98
330
AC91
100
AcDbEntity
  8
0
  6
Continuous
100
AcDbLine
 10
1.443393787581185
 20
-2.499995386098901
 30
0.0
 11
2.886768787581303
 21
0.0000034482758053
 31
0.0
  0
LINE
  5
AC99
330
AC91
100
AcDbEntity
  8
0
  6
Continuous
100
AcDbLine
 10
2.886768787581303
 20
0.0000034482758053
 30
0.0
 11
1.4433937875813
 21
2.500002282650598
 31
0.0
  0
ENDBLK
  5
AC9B
330
AC91
100
AcDbEntity
  8
0
100
AcDbBlockEnd
  0
BLOCK
  5
ACCB
330
ACC2
100
AcDbEntity
  8
0
100
AcDbBlockBegin
  2
CBF03
 70
     0
 10
0.0
 20
0.0
 30
0.0
  3
CBF03
  1

  0
CIRCLE
  5
ACC3
330
ACC2
100
AcDbEntity
  8
0
  6
Continuous
100
AcDbCircle
 10
0.0
 20
0.0
 30
0.0
 40
2.75
  0
CIRCLE
  5
ACC4
330
ACC2
100
AcDbEntity
  8
0
  6
Continuous
100
AcDbCircle
 10
0.0
 20
0.0
 30
0.0
 40
2.403589676972373
  0
LINE
  5
ACC5
330
ACC2
100
AcDbEntity
  8
0
  6
Continuous
100
AcDbLine
 10
1.443375000000003
 20
0.0
 30
0.0
 11
0.7216875000000301
 21
1.249999417187382
 31
0.0
  0
LINE
  5
ACC6
330
ACC2
100
AcDbEntity
  8
0
  6
Continuous
100
AcDbLine
 10
0.7216875000000301
 20
1.249999417187382
 30
0.0
 11
-0.7216874999999732
 21
1.249999417187382
 31
0.0
  0
LINE
  5
ACC7
330
ACC2
100
AcDbEntity
  8
0
  6
Continuous
100
AcDbLine
 10
-0.7216874999999732
 20
1.249999417187382
 30
0.0
 11
-1.443375000000003
 21
0.0
 31
0.0
  0
LINE
  5
ACC8
330
ACC2
100
AcDbEntity
  8
0
  6
Continuous
100
AcDbLine
 10
-1.443375000000003
 20
0.0
 30
0.0
 11
-0.7216874999999732
 21
-1.249999417187297
 31
0.0
  0
LINE
  5
ACC9
330
ACC2
100
AcDbEntity
  8
0
  6
Continuous
100
AcDbLine
 10
-0.7216874999999732
 20
-1.249999417187297
 30
0.0
 11
0.7216875000000301
 21
-1.249999417187297
 31
0.0
  0
LINE
  5
ACCA
330
ACC2
100
AcDbEntity
  8
0
  6
Continuous
100
AcDbLine
 10
0.7216875000000301
 20
-1.249999417187297
 30
0.0
 11
1.443375000000003
 21
0.0
 31
0.0
  0
ENDBLK
  5
ACCC
330
ACC2
100
AcDbEntity
  8
0
100
AcDbBlockEnd
  0
BLOCK
  5
AD31
330
AD28
100
AcDbEntity
  8
0
100
AcDbBlockBegin
  2
CBF08
 70
     0
 10
0.0
 20
0.0
 30
0.0
  3
CBF08
  1

  0
CIRCLE
  5
AD29
330
AD28
100
AcDbEntity
  8
0
  6
Continuous
100
AcDbCircle
 10
0.0000187875812969
 20
0.0000034482758622
 30
0.0
 40
5.633974192430932
  0
CIRCLE
  5
AD2A
330
AD28
100
AcDbEntity
  8
0
  6
Continuous
100
AcDbCircle
 10
0.0000187875812969
 20
0.0000034482758622
 30
0.0
 40
6.5
  0
LINE
  5
AD2B
330
AD28
100
AcDbEntity
  8
0
  6
Continuous
100
AcDbLine
 10
-1.73203121241866
 20
3.000002049525533
 30
0.0
 11
-3.464081212418676
 21
0.0000034482758622
 31
0.0
  0
LINE
  5
AD2C
330
AD28
100
AcDbEntity
  8
0
  6
Continuous
100
AcDbLine
 10
3.464118787581326
 20
0.0000034482758622
 30
0.0
 11
1.732068787581311
 21
3.000002049525533
 31
0.0
  0
LINE
  5
AD2D
330
AD28
100
AcDbEntity
  8
0
  6
Continuous
100
AcDbLine
 10
-1.73203121241866
 20
-2.999995152973837
 30
0.0
 11
1.732068787581311
 21
-2.999995152973837
 31
0.0
  0
LINE
  5
AD2E
330
AD28
100
AcDbEntity
  8
0
  6
Continuous
100
AcDbLine
 10
-3.464081212418676
 20
0.0000034482758622
 30
0.0
 11
-1.73203121241866
 21
-2.999995152973837
 31
0.0
  0
LINE
  5
AD2F
330
AD28
100
AcDbEntity
  8
0
  6
Continuous
100
AcDbLine
 10
1.732068787581311
 20
-2.999995152973837
 30
0.0
 11
3.464118787581326
 21
0.0000034482758622
 31
0.0
  0
LINE
  5
AD30
330
AD28
100
AcDbEntity
  8
0
  6
Continuous
100
AcDbLine
 10
1.732068787581311
 20
3.000002049525533
 30
0.0
 11
-1.73203121241866
 21
3.000002049525533
 31
0.0
  0
ENDBLK
  5
AD32
330
AD28
100
AcDbEntity
  8
0
100
AcDbBlockEnd
  0
BLOCK
  5
AD3D
330
AD34
100
AcDbEntity
  8
0
100
AcDbBlockBegin
  2
CBS0800
 70
     0
 10
0.0
 20
0.0
 30
0.0
  3
CBS0800
  1

  0
LINE
  5
AD35
330
AD34
100
AcDbEntity
  8
0
 48
0.3
100
AcDbLine
 10
6.499999999999971
 20
0.0
 30
0.0
 11
-6.499999999999971
 21
0.0
 31
0.0
  0
LINE
  5
AD36
330
AD34
100
AcDbEntity
  8
0
 48
0.3
100
AcDbLine
 10
5.633974192430968
 20
7.999999999999985
 30
0.0
 11
-5.633974192430912
 21
7.999999999999985
 31
0.0
  0
LINE
  5
AD37
330
AD34
100
AcDbEntity
  8
0
 48
0.3
100
AcDbLine
 10
-6.499999999999971
 20
0.0
 30
0.0
 11
-6.499999999999971
 21
7.499999999999985
 31
0.0
  0
LINE
  5
AD38
330
AD34
100
AcDbEntity
  8
0
 48
0.3
100
AcDbLine
 10
-3.249999999999971
 20
7.499999999999985
 30
0.0
 11
-6.499999999999971
 21
7.499999999999985
 31
0.0
  0
LINE
  5
AD39
330
AD34
100
AcDbEntity
  8
0
 48
0.3
100
AcDbLine
 10
-6.499999999999971
 20
7.499999999999985
 30
0.0
 11
-5.633974192430912
 21
7.999999999999985
 31
0.0
  0
LINE
  5
AD3A
330
AD34
100
AcDbEntity
  8
0
 48
0.3
100
AcDbLine
 10
6.499999999999971
 20
0.0
 30
0.0
 11
6.499999999999971
 21
7.499999999999985
 31
0.0
  0
LINE
  5
AD3B
330
AD34
100
AcDbEntity
  8
0
 48
0.3
100
AcDbLine
 10
6.499999999999971
 20
7.499999999999985
 30
0.0
 11
3.249999999999971
 21
7.499999999999985
 31
0.0
  0
LINE
  5
AD3C
330
AD34
100
AcDbEntity
  8
0
 48
0.3
100
AcDbLine
 10
6.499999999999971
 20
7.499999999999985
 30
0.0
 11
5.633974192430968
 21
7.999999999999985
 31
0.0
  0
ENDBLK
  5
AD3E
330
AD34
100
AcDbEntity
  8
0
100
AcDbBlockEnd
  0
BLOCK
  5
AD80
330
AD76
100
AcDbEntity
  8
0
100
AcDbBlockBegin
  2
*D9
 70
     1
 10
0.0
 20
0.0
 30
0.0
  3
*D9
  1

  0
LINE
  5
B0DA
330
AD76
100
AcDbEntity
  8
AM_5
 62
     3
370
    -2
100
AcDbLine
 10
0.0000000000000007
 20
5.729625333357331
 30
0.0
 11
0.0000000000000034
 21
50.18800240310579
 31
0.0
  0
LINE
  5
B0DB
330
AD76
100
AcDbEntity
  8
AM_5
 62
     3
370
    -2
100
AcDbLine
 10
54.00000000000001
 20
32.99984770675476
 30
0.0
 11
54.00000000000001
 21
50.18800240310579
 31
0.0
  0
LINE
  5
B0DC
330
AD76
100
AcDbEntity
  8
AM_5
 62
     3
370
    -2
100
AcDbLine
 10
2.500000000000003
 20
49.18800240310578
 30
0.0
 11
51.50000000000001
 21
49.18800240310578
 31
0.0
  0
INSERT
  5
B0DD
330
AD76
100
AcDbEntity
  8
AM_5
 62
     3
370
    -2
100
AcDbBlockReference
  2
_OPEN30
 10
0.0000000000000034
 20
49.18800240310578
 30
0.0
 41
2.5
 42
2.5
 43
2.5
 50
180.0
  0
INSERT
  5
B0DE
330
AD76
100
AcDbEntity
  8
AM_5
 62
     3
370
    -2
100
AcDbBlockReference
  2
_OPEN30
 10
54.00000000000001
 20
49.18800240310578
 30
0.0
 41
2.5
 42
2.5
 43
2.5
  0
MTEXT
  5
B0DF
330
AD76
100
AcDbEntity
  8
AM_5
 62
     2
100
AcDbMText
 10
27.00000000000001
 20
52.58800240310578
 30
0.0
 40
3.799999999999998
 41
0.0
 71
     5
 72
     1
  1
54
 73
     1
 44
1.0
1001
ACAD
1000
MTEXTBEGIN
1070
    73
1070
     1
1070
    44
1040
1.0
1070
    74
1070
     0
1000
MTEXTEND
  0
POINT
  5
B0E0
330
AD76
100
AcDbEntity
  8
DEFPOINTS
 62
     0
100
AcDbPoint
 10
0.0000000000000007
 20
5.729625333357331
 30
0.0
  0
POINT
  5
B0E1
330
AD76
100
AcDbEntity
  8
DEFPOINTS
 62
     0
100
AcDbPoint
 10
54.00000000000001
 20
32.99984770675476
 30
0.0
  0
POINT
  5
B0E2
330
AD76
100
AcDbEntity
  8
DEFPOINTS
 62
     0
100
AcDbPoint
 10
54.00000000000001
 20
49.18800240310578
 30
0.0
  0
ENDBLK
  5
AD81
330
AD76
100
AcDbEntity
  8
0
100
AcDbBlockEnd
  0
BLOCK
  5
AD8F
330
AD83
100
AcDbEntity
  8
0
100
AcDbBlockBegin
  2
*D10
 70
     1
 10
0.0
 20
0.0
 30
0.0
  3
*D10
  1

  0
LINE
  5
B0E3
330
AD83
100
AcDbEntity
  8
AM_5
 62
     3
370
    -2
100
AcDbLine
 10
54.00000000000001
 20
32.99984770675476
 30
0.0
 11
69.10186301056274
 21
32.99984770675476
 31
0.0
  0
LINE
  5
B0E4
330
AD83
100
AcDbEntity
  8
AM_5
 62
     3
370
    -2
100
AcDbLine
 10
54.0
 20
25.99984770675475
 30
0.0
 11
69.10186301056272
 21
25.99984770675475
 31
0.0
  0
LINE
  5
B0E5
330
AD83
100
AcDbEntity
  8
AM_5
 62
     3
370
    -2
100
AcDbLine
 10
68.10186301056273
 20
35.49984770675476
 30
0.0
 11
68.10186301056273
 21
37.99984770675476
 31
0.0
  0
LINE
  5
B0E6
330
AD83
100
AcDbEntity
  8
AM_5
 62
     3
370
    -2
100
AcDbLine
 10
68.10186301056273
 20
23.49984770675475
 30
0.0
 11
68.10186301056273
 21
20.99984770675475
 31
0.0
  0
LINE
  5
B0E7
330
AD83
100
AcDbEntity
  8
AM_5
 62
     3
370
    -2
100
AcDbLine
 10
68.10186301056273
 20
32.99984770675476
 30
0.0
 11
68.10186301056273
 21
25.99984770675475
 31
0.0
  0
INSERT
  5
B0E8
330
AD83
100
AcDbEntity
  8
AM_5
 62
     3
370
    -2
100
AcDbBlockReference
  2
_OPEN30
 10
68.10186301056273
 20
32.99984770675476
 30
0.0
 41
2.5
 42
2.5
 43
2.5
 50
270.0
  0
INSERT
  5
B0E9
330
AD83
100
AcDbEntity
  8
AM_5
 62
     3
370
    -2
100
AcDbBlockReference
  2
_OPEN30
 10
68.10186301056273
 20
25.99984770675475
 30
0.0
 41
2.5
 42
2.5
 43
2.5
 50
90.0
  0
MTEXT
  5
B0EA
330
AD83
100
AcDbEntity
  8
AM_5
 62
     2
100
AcDbMText
 10
64.70186301056272
 20
29.49984770675476
 30
0.0
 40
3.799999999999998
 41
0.0
 71
     5
 72
     1
  1
7
 11
0.0000000000000001
 21
1.0
 31
0.0
 73
     1
 44
1.0
1001
ACAD
1000
MTEXTBEGIN
1070
    73
1070
     1
1070
    44
1040
1.0
1070
    74
1070
     0
1000
MTEXTEND
  0
POINT
  5
B0EB
330
AD83
100
AcDbEntity
  8
DEFPOINTS
 62
     0
100
AcDbPoint
 10
54.00000000000001
 20
32.99984770675476
 30
0.0
  0
POINT
  5
B0EC
330
AD83
100
AcDbEntity
  8
DEFPOINTS
 62
     0
100
AcDbPoint
 10
54.0
 20
25.99984770675475
 30
0.0
  0
POINT
  5
B0ED
330
AD83
100
AcDbEntity
  8
DEFPOINTS
 62
     0
100
AcDbPoint
 10
68.10186301056273
 20
25.99984770675475
 30
0.0
  0
ENDBLK
  5
AD90
330
AD83
100
AcDbEntity
  8
0
100
AcDbBlockEnd
  0
BLOCK
  5
ADA7
330
AD9D
100
AcDbEntity
  8
0
100
AcDbBlockBegin
  2
*D11
 70
     1
 10
0.0
 20
0.0
 30
0.0
  3
*D11
  1

  0
LINE
  5
B0EE
330
AD9D
100
AcDbEntity
  8
AM_5
 62
     3
370
    -2
100
AcDbLine
 10
54.0
 20
25.99984770675475
 30
0.0
 11
-33.2235183264072
 21
25.99984770675478
 31
0.0
  0
LINE
  5
B0EF
330
AD9D
100
AcDbEntity
  8
AM_5
 62
     3
370
    -2
100
AcDbLine
 10
0.2587248741756412
 20
-0.0000000000000002
 30
0.0
 11
-33.2235183264072
 21
0.0000000000000093
 31
0.0
  0
LINE
  5
B0F0
330
AD9D
100
AcDbEntity
  8
AM_5
 62
     3
370
    -2
100
AcDbLine
 10
-32.2235183264072
 20
23.49984770675478
 30
0.0
 11
-32.22351832640721
 21
2.500000000000008
 31
0.0
  0
INSERT
  5
B0F1
330
AD9D
100
AcDbEntity
  8
AM_5
 62
     3
370
    -2
100
AcDbBlockReference
  2
_OPEN30
 10
-32.2235183264072
 20
25.99984770675478
 30
0.0
 41
2.5
 42
2.5
 43
2.5
 50
90.0
  0
INSERT
  5
B0F2
330
AD9D
100
AcDbEntity
  8
AM_5
 62
     3
370
    -2
100
AcDbBlockReference
  2
_OPEN30
 10
-32.22351832640721
 20
0.000000000000009
 30
0.0
 41
2.5
 42
2.5
 43
2.5
 50
270.0
  0
MTEXT
  5
B0F3
330
AD9D
100
AcDbEntity
  8
AM_5
 62
     2
100
AcDbMText
 10
-35.62389234215523
 20
12.99992385337739
 30
0.0
 40
3.799999999999998
 41
0.0
 71
     5
 72
     1
  1
26
 11
0.0000000000000001
 21
1.0
 31
0.0
 73
     1
 44
1.0
1001
ACAD
1000
MTEXTBEGIN
1070
    73
1070
     1
1070
    44
1040
1.0
1070
    74
1070
     0
1000
MTEXTEND
  0
POINT
  5
B0F4
330
AD9D
100
AcDbEntity
  8
DEFPOINTS
 62
     0
100
AcDbPoint
 10
54.0
 20
25.99984770675475
 30
0.0
  0
POINT
  5
B0F5
330
AD9D
100
AcDbEntity
  8
DEFPOINTS
 62
     0
100
AcDbPoint
 10
0.2587248741756412
 20
-0.0000000000000002
 30
0.0
  0
POINT
  5
B0F6
330
AD9D
100
AcDbEntity
  8
DEFPOINTS
 62
     0
100
AcDbPoint
 10
-32.22351832640721
 20
0.000000000000009
 30
0.0
  0
ENDBLK
  5
ADA8
330
AD9D
100
AcDbEntity
  8
0
100
AcDbBlockEnd
  0
BLOCK
  5
ADD8
330
ADCE
100
AcDbEntity
  8
0
100
AcDbBlockBegin
  2
*D12
 70
     1
 10
0.0
 20
0.0
 30
0.0
  3
*D12
  1

  0
LINE
  5
B0F7
330
ADCE
100
AcDbEntity
  8
AM_5
 62
     3
370
    -2
100
AcDbLine
 10
150.0
 20
25.99984770675471
 30
0.0
 11
172.777456585615
 21
25.99984770675471
 31
0.0
  0
LINE
  5
B0F8
330
ADCE
100
AcDbEntity
  8
AM_5
 62
     3
370
    -2
100
AcDbLine
 10
150.0
 20
0.999847706754717
 30
0.0
 11
172.777456585615
 21
0.9998477067547105
 31
0.0
  0
LINE
  5
B0F9
330
ADCE
100
AcDbEntity
  8
AM_5
 62
     3
370
    -2
100
AcDbLine
 10
171.777456585615
 20
23.49984770675471
 30
0.0
 11
171.777456585615
 21
3.49984770675471
 31
0.0
  0
INSERT
  5
B0FA
330
ADCE
100
AcDbEntity
  8
AM_5
 62
     3
370
    -2
100
AcDbBlockReference
  2
_OPEN30
 10
171.777456585615
 20
25.99984770675471
 30
0.0
 41
2.5
 42
2.5
 43
2.5
 50
90.0
  0
INSERT
  5
B0FB
330
ADCE
100
AcDbEntity
  8
AM_5
 62
     3
370
    -2
100
AcDbBlockReference
  2
_OPEN30
 10
171.777456585615
 20
0.9998477067547108
 30
0.0
 41
2.5
 42
2.5
 43
2.5
 50
270.0
  0
MTEXT
  5
B0FC
330
ADCE
100
AcDbEntity
  8
AM_5
 62
     2
100
AcDbMText
 10
168.3770825698669
 20
13.49984770675473
 30
0.0
 40
3.799999999999998
 41
0.0
 71
     5
 72
     1
  1
25
 11
0.0000000000000001
 21
1.0
 31
0.0
 73
     1
 44
1.0
1001
ACAD
1000
MTEXTBEGIN
1070
    73
1070
     1
1070
    44
1040
1.0
1070
    74
1070
     0
1000
MTEXTEND
  0
POINT
  5
B0FD
330
ADCE
100
AcDbEntity
  8
DEFPOINTS
 62
     0
100
AcDbPoint
 10
150.0
 20
25.99984770675471
 30
0.0
  0
POINT
  5
B0FE
330
ADCE
100
AcDbEntity
  8
DEFPOINTS
 62
     0
100
AcDbPoint
 10
150.0
 20
0.999847706754717
 30
0.0
  0
POINT
  5
B0FF
330
ADCE
100
AcDbEntity
  8
DEFPOINTS
 62
     0
100
AcDbPoint
 10
171.777456585615
 20
0.9998477067547108
 30
0.0
  0
ENDBLK
  5
ADD9
330
ADCE
100
AcDbEntity
  8
0
100
AcDbBlockEnd
  0
BLOCK
  5
ADE5
330
ADDB
100
AcDbEntity
  8
0
100
AcDbBlockBegin
  2
*D13
 70
     1
 10
0.0
 20
0.0
 30
0.0
  3
*D13
  1

  0
LINE
  5
B100
330
ADDB
100
AcDbEntity
  8
AM_5
 62
     3
370
    -2
100
AcDbLine
 10
150.0
 20
-81.18607246186014
 30
0.0
 11
176.605655067732
 21
-81.18607246186016
 31
0.0
  0
LINE
  5
B101
330
ADDB
100
AcDbEntity
  8
AM_5
 62
     3
370
    -2
100
AcDbLine
 10
150.0
 20
-106.1860724618601
 30
0.0
 11
176.605655067732
 21
-106.1860724618601
 31
0.0
  0
LINE
  5
B102
330
ADDB
100
AcDbEntity
  8
AM_5
 62
     3
370
    -2
100
AcDbLine
 10
175.605655067732
 20
-83.68607246186016
 30
0.0
 11
175.605655067732
 21
-103.6860724618601
 31
0.0
  0
INSERT
  5
B103
330
ADDB
100
AcDbEntity
  8
AM_5
 62
     3
370
    -2
100
AcDbBlockReference
  2
_OPEN30
 10
175.605655067732
 20
-81.18607246186016
 30
0.0
 41
2.5
 42
2.5
 43
2.5
 50
90.0
  0
INSERT
  5
B104
330
ADDB
100
AcDbEntity
  8
AM_5
 62
     3
370
    -2
100
AcDbBlockReference
  2
_OPEN30
 10
175.605655067732
 20
-106.1860724618601
 30
0.0
 41
2.5
 42
2.5
 43
2.5
 50
270.0
  0
MTEXT
  5
B105
330
ADDB
100
AcDbEntity
  8
AM_5
 62
     2
100
AcDbMText
 10
172.205281051984
 20
-93.68607246186011
 30
0.0
 40
3.799999999999998
 41
0.0
 71
     5
 72
     1
  1
25
 11
0.0000000000000001
 21
1.0
 31
0.0
 73
     1
 44
1.0
1001
ACAD
1000
MTEXTBEGIN
1070
    73
1070
     1
1070
    44
1040
1.0
1070
    74
1070
     0
1000
MTEXTEND
  0
POINT
  5
B106
330
ADDB
100
AcDbEntity
  8
DEFPOINTS
 62
     0
100
AcDbPoint
 10
150.0
 20
-81.18607246186014
 30
0.0
  0
POINT
  5
B107
330
ADDB
100
AcDbEntity
  8
DEFPOINTS
 62
     0
100
AcDbPoint
 10
150.0
 20
-106.1860724618601
 30
0.0
  0
POINT
  5
B108
330
ADDB
100
AcDbEntity
  8
DEFPOINTS
 62
     0
100
AcDbPoint
 10
175.605655067732
 20
-106.1860724618601
 30
0.0
  0
ENDBLK
  5
ADE6
330
ADDB
100
AcDbEntity
  8
0
100
AcDbBlockEnd
  0
BLOCK
  5
ADF4
330
ADE8
100
AcDbEntity
  8
0
100
AcDbBlockBegin
  2
*D14
 70
     1
 10
0.0
 20
0.0
 30
0.0
  3
*D14
  1

  0
LINE
  5
B109
330
ADE8
100
AcDbEntity
  8
AM_5
 62
     3
370
    -2
100
AcDbLine
 10
45.99999999999998
 20
-113.18607246186
 30
0.0
 11
69.35648102357113
 21
-113.18607246186
 31
0.0
  0
LINE
  5
B10A
330
ADE8
100
AcDbEntity
  8
AM_5
 62
     3
370
    -2
100
AcDbLine
 10
45.99999999999998
 20
-106.18607246186
 30
0.0
 11
69.35648102357113
 21
-106.18607246186
 31
0.0
  0
LINE
  5
B10B
330
ADE8
100
AcDbEntity
  8
AM_5
 62
     3
370
    -2
100
AcDbLine
 10
68.35648102357113
 20
-115.6860724618601
 30
0.0
 11
68.35648102357113
 21
-118.1860724618601
 31
0.0
  0
LINE
  5
B10C
330
ADE8
100
AcDbEntity
  8
AM_5
 62
     3
370
    -2
100
AcDbLine
 10
68.35648102357113
 20
-103.6860724618601
 30
0.0
 11
68.35648102357113
 21
-101.1860724618601
 31
0.0
  0
LINE
  5
B10D
330
ADE8
100
AcDbEntity
  8
AM_5
 62
     3
370
    -2
100
AcDbLine
 10
68.35648102357113
 20
-113.18607246186
 30
0.0
 11
68.35648102357113
 21
-106.18607246186
 31
0.0
  0
INSERT
  5
B10E
330
ADE8
100
AcDbEntity
  8
AM_5
 62
     3
370
    -2
100
AcDbBlockReference
  2
_OPEN30
 10
68.35648102357113
 20
-113.18607246186
 30
0.0
 41
2.5
 42
2.5
 43
2.5
 50
90.0
  0
INSERT
  5
B10F
330
ADE8
100
AcDbEntity
  8
AM_5
 62
     3
370
    -2
100
AcDbBlockReference
  2
_OPEN30
 10
68.35648102357113
 20
-106.18607246186
 30
0.0
 41
2.5
 42
2.5
 43
2.5
 50
270.0
  0
MTEXT
  5
B110
330
ADE8
100
AcDbEntity
  8
AM_5
 62
     2
100
AcDbMText
 10
64.95648102357115
 20
-109.68607246186
 30
0.0
 40
3.799999999999998
 41
0.0
 71
     5
 72
     1
  1
7
 11
0.0000000000000001
 21
1.0
 31
0.0
 73
     1
 44
1.0
1001
ACAD
1000
MTEXTBEGIN
1070
    73
1070
     1
1070
    44
1040
1.0
1070
    74
1070
     0
1000
MTEXTEND
  0
POINT
  5
B111
330
ADE8
100
AcDbEntity
  8
DEFPOINTS
 62
     0
100
AcDbPoint
 10
45.99999999999998
 20
-113.18607246186
 30
0.0
  0
POINT
  5
B112
330
ADE8
100
AcDbEntity
  8
DEFPOINTS
 62
     0
100
AcDbPoint
 10
45.99999999999998
 20
-106.18607246186
 30
0.0
  0
POINT
  5
B113
330
ADE8
100
AcDbEntity
  8
DEFPOINTS
 62
     0
100
AcDbPoint
 10
68.35648102357113
 20
-106.18607246186
 30
0.0
  0
ENDBLK
  5
ADF5
330
ADE8
100
AcDbEntity
  8
0
100
AcDbBlockEnd
  0
BLOCK
  5
AE1C
330
AE12
100
AcDbEntity
  8
0
100
AcDbBlockBegin
  2
*D15
 70
     1
 10
0.0
 20
0.0
 30
0.0
  3
*D15
  1

  0
LINE
  5
B114
330
AE12
100
AcDbEntity
  8
AM_5
 62
     3
370
    -2
100
AcDbLine
 10
-0.0000000000000029
 20
-23.39903137513189
 30
0.0
 11
-0.0000000000000035
 21
-33.71292956658911
 31
0.0
  0
LINE
  5
B115
330
AE12
100
AcDbEntity
  8
AM_5
 62
     3
370
    -2
100
AcDbLine
 10
150.0
 20
-38.98320422053963
 30
0.0
 11
150.0
 21
-31.7129295665891
 31
0.0
  0
LINE
  5
B116
330
AE12
100
AcDbEntity
  8
AM_5
 62
     3
370
    -2
100
AcDbLine
 10
2.499999999999996
 20
-32.71292956658911
 30
0.0
 11
147.5
 21
-32.71292956658911
 31
0.0
  0
INSERT
  5
B117
330
AE12
100
AcDbEntity
  8
AM_5
 62
     3
370
    -2
100
AcDbBlockReference
  2
_OPEN30
 10
-0.0000000000000034
 20
-32.71292956658911
 30
0.0
 41
2.5
 42
2.5
 43
2.5
 50
180.0
  0
INSERT
  5
B118
330
AE12
100
AcDbEntity
  8
AM_5
 62
     3
370
    -2
100
AcDbBlockReference
  2
_OPEN30
 10
150.0
 20
-32.71292956658911
 30
0.0
 41
2.5
 42
2.5
 43
2.5
  0
MTEXT
  5
B119
330
AE12
100
AcDbEntity
  8
AM_5
 62
     2
100
AcDbMText
 10
75.0
 20
-29.31292956658911
 30
0.0
 40
3.799999999999998
 41
0.0
 71
     5
 72
     1
  1
150
 73
     1
 44
1.0
1001
ACAD
1000
MTEXTBEGIN
1070
    73
1070
     1
1070
    44
1040
1.0
1070
    74
1070
     0
1000
MTEXTEND
  0
POINT
  5
B11A
330
AE12
100
AcDbEntity
  8
DEFPOINTS
 62
     0
100
AcDbPoint
 10
-0.0000000000000029
 20
-23.39903137513189
 30
0.0
  0
POINT
  5
B11B
330
AE12
100
AcDbEntity
  8
DEFPOINTS
 62
     0
100
AcDbPoint
 10
150.0
 20
-38.98320422053963
 30
0.0
  0
POINT
  5
B11C
330
AE12
100
AcDbEntity
  8
DEFPOINTS
 62
     0
100
AcDbPoint
 10
150.0
 20
-32.71292956658911
 30
0.0
  0
ENDBLK
  5
AE1D
330
AE12
100
AcDbEntity
  8
0
100
AcDbBlockEnd
  0
BLOCK
  5
AE6A
330
AE60
100
AcDbEntity
  8
0
100
AcDbBlockBegin
  2
*D16
 70
     1
 10
0.0
 20
0.0
 30
0.0
  3
*D16
  1

  0
LINE
  5
B11D
330
AE60
100
AcDbEntity
  8
AM_5
 62
     3
370
    -2
100
AcDbLine
 10
45.99999999999998
 20
-113.18607246186
 30
0.0
 11
45.99999999999998
 21
-132.6280214127424
 31
0.0
  0
LINE
  5
B11E
330
AE60
100
AcDbEntity
  8
AM_5
 62
     3
370
    -2
100
AcDbLine
 10
0.0000000000001038
 20
-81.18607246186012
 30
0.0
 11
0.0000000000001006
 21
-132.6280214127424
 31
0.0
  0
LINE
  5
B11F
330
AE60
100
AcDbEntity
  8
AM_5
 62
     3
370
    -2
100
AcDbLine
 10
43.49999999999998
 20
-131.6280214127424
 30
0.0
 11
2.5000000000001
 21
-131.6280214127424
 31
0.0
  0
INSERT
  5
B120
330
AE60
100
AcDbEntity
  8
AM_5
 62
     3
370
    -2
100
AcDbBlockReference
  2
_OPEN30
 10
45.99999999999998
 20
-131.6280214127424
 30
0.0
 41
2.5
 42
2.5
 43
2.5
  0
INSERT
  5
B121
330
AE60
100
AcDbEntity
  8
AM_5
 62
     3
370
    -2
100
AcDbBlockReference
  2
_OPEN30
 10
0.0000000000001007
 20
-131.6280214127424
 30
0.0
 41
2.5
 42
2.5
 43
2.5
 50
180.0
  0
MTEXT
  5
B122
330
AE60
100
AcDbEntity
  8
AM_5
 62
     2
100
AcDbMText
 10
23.00000000000004
 20
-128.2280214127424
 30
0.0
 40
3.799999999999998
 41
0.0
 71
     5
 72
     1
  1
46
 73
     1
 44
1.0
1001
ACAD
1000
MTEXTBEGIN
1070
    73
1070
     1
1070
    44
1040
1.0
1070
    74
1070
     0
1000
MTEXTEND
  0
POINT
  5
B123
330
AE60
100
AcDbEntity
  8
DEFPOINTS
 62
     0
100
AcDbPoint
 10
45.99999999999998
 20
-113.18607246186
 30
0.0
  0
POINT
  5
B124
330
AE60
100
AcDbEntity
  8
DEFPOINTS
 62
     0
100
AcDbPoint
 10
0.0000000000001038
 20
-81.18607246186012
 30
0.0
  0
POINT
  5
B125
330
AE60
100
AcDbEntity
  8
DEFPOINTS
 62
     0
100
AcDbPoint
 10
0.0000000000001007
 20
-131.6280214127424
 30
0.0
  0
ENDBLK
  5
AE6B
330
AE60
100
AcDbEntity
  8
0
100
AcDbBlockEnd
  0
BLOCK
  5
AE82
330
AE76
100
AcDbEntity
  8
0
100
AcDbBlockBegin
  2
*D17
 70
     1
 10
0.0
 20
0.0
 30
0.0
  3
*D17
  1

  0
LINE
  5
B126
330
AE76
100
AcDbEntity
  8
AM_5
 62
     3
370
    -2
100
AcDbLine
 10
0.2587248741755282
 20
5.979473040112111
 30
0.0
 11
-20.67013149627303
 21
5.979473040112116
 31
0.0
  0
LINE
  5
B127
330
AE76
100
AcDbEntity
  8
AM_5
 62
     3
370
    -2
100
AcDbLine
 10
0.2587248741755275
 20
-0.0000000000000002
 30
0.0
 11
-20.67013149627303
 21
0.0000000000000058
 31
0.0
  0
LINE
  5
B128
330
AE76
100
AcDbEntity
  8
AM_5
 62
     3
370
    -2
100
AcDbLine
 10
-19.67013149627303
 20
8.479473040112115
 30
0.0
 11
-19.67013149627303
 21
10.97947304011211
 31
0.0
  0
LINE
  5
B129
330
AE76
100
AcDbEntity
  8
AM_5
 62
     3
370
    -2
100
AcDbLine
 10
-19.67013149627303
 20
-2.499999999999994
 30
0.0
 11
-19.67013149627303
 21
-4.999999999999994
 31
0.0
  0
LINE
  5
B12A
330
AE76
100
AcDbEntity
  8
AM_5
 62
     3
370
    -2
100
AcDbLine
 10
-19.67013149627303
 20
5.979473040112116
 30
0.0
 11
-19.67013149627303
 21
0.0000000000000055
 31
0.0
  0
INSERT
  5
B12B
330
AE76
100
AcDbEntity
  8
AM_5
 62
     3
370
    -2
100
AcDbBlockReference
  2
_OPEN30
 10
-19.67013149627303
 20
5.979473040112116
 30
0.0
 41
2.5
 42
2.5
 43
2.5
 50
270.0
  0
INSERT
  5
B12C
330
AE76
100
AcDbEntity
  8
AM_5
 62
     3
370
    -2
100
AcDbBlockReference
  2
_OPEN30
 10
-19.67013149627303
 20
0.0000000000000055
 30
0.0
 41
2.5
 42
2.5
 43
2.5
 50
90.0
  0
MTEXT
  5
B12D
330
AE76
100
AcDbEntity
  8
AM_5
 62
     2
100
AcDbMText
 10
-23.07013149627303
 20
2.989736520056057
 30
0.0
 40
3.799999999999998
 41
0.0
 71
     5
 72
     1
  1
6
 11
0.0000000000000001
 21
1.0
 31
0.0
 73
     1
 44
1.0
1001
ACAD
1000
MTEXTBEGIN
1070
    73
1070
     1
1070
    44
1040
1.0
1070
    74
1070
     0
1000
MTEXTEND
  0
POINT
  5
B12E
330
AE76
100
AcDbEntity
  8
DEFPOINTS
 62
     0
100
AcDbPoint
 10
0.2587248741755282
 20
5.979473040112111
 30
0.0
  0
POINT
  5
B12F
330
AE76
100
AcDbEntity
  8
DEFPOINTS
 62
     0
100
AcDbPoint
 10
0.2587248741755275
 20
-0.0000000000000002
 30
0.0
  0
POINT
  5
B130
330
AE76
100
AcDbEntity
  8
DEFPOINTS
 62
     0
100
AcDbPoint
 10
-19.67013149627303
 20
0.0000000000000055
 30
0.0
  0
ENDBLK
  5
AE83
330
AE76
100
AcDbEntity
  8
0
100
AcDbBlockEnd
  0
BLOCK
  5
AFEE
330
AFE7
100
AcDbEntity
  8
0
100
AcDbBlockBegin
  2
*D18
 70
     1
 10
0.0
 20
0.0
 30
0.0
  3
*D18
  1

  0
LINE
  5
B131
330
AFE7
100
AcDbEntity
  8
AM_5
370
    -2
100
AcDbLine
 10
-83.15728766165987
 20
-67.16500629057437
 30
0.0
 11
-98.27418031521924
 21
-39.50470676105211
 31
0.0
  0
MTEXT
  5
B132
330
AFE7
100
AcDbEntity
  8
AM_5
 62
     2
100
AcDbMText
 10
-83.17182297070059
 20
-60.04875785826139
 30
0.0
 40
3.799999999999998
 41
0.0
 71
     5
 72
     1
  1
\U+2205100
 11
0.4795721792949294
 21
-0.8775024358064838
 31
0.0
 73
     1
 44
1.0
1001
ACAD
1000
MTEXTBEGIN
1070
    73
1070
     1
1070
    44
1040
1.0
1070
    74
1070
     0
1000
MTEXTEND
  0
INSERT
  5
B133
330
AFE7
100
AcDbEntity
  8
AM_5
370
    -2
100
AcDbBlockReference
  2
_OPEN30
 10
-99.47311076345656
 20
-37.3109506715359
 30
0.0
 41
2.5
 42
2.5
 43
2.5
 50
118.6574640992937
  0
POINT
  5
B134
330
AFE7
100
AcDbEntity
  8
DEFPOINTS
 62
     0
100
AcDbPoint
 10
-99.47311076345656
 20
-37.3109506715359
 30
0.0
  0
POINT
  5
B135
330
AFE7
100
AcDbEntity
  8
DEFPOINTS
 62
     0
100
AcDbPoint
 10
-51.51589283396368
 20
-125.0611942521843
 30
0.0
  0
ENDBLK
  5
AFEF
330
AFE7
100
AcDbEntity
  8
0
100
AcDbBlockEnd
  0
ENDSEC
  0
SECTION
  2
ENTITIES
  0
TEXT
  5
83BD
330
1F
100
AcDbEntity
  8
AM_6
100
AcDbText
 10
40.10069642502283
 20
-148.1378668170522
 30
0.0
 40
5.0
  1
GMFWR2525-60-100
 72
     4
 11
69.47322319071827
 21
-145.6378668170522
 31
0.0
100
AcDbText
  0
LINE
  5
AC39
330
1F
100
AcDbEntity
  8
AM_0
100
AcDbLine
 10
150.0
 20
25.99984770675471
 30
0.0
 11
54.0
 21
25.99984770675475
 31
0.0
  0
LINE
  5
AC3A
330
1F
100
AcDbEntity
  8
AM_0
100
AcDbLine
 10
150.0
 20
-106.1860724618601
 30
0.0
 11
150.0
 21
-81.18607246186014
 31
0.0
  0
LINE
  5
AC3B
330
1F
100
AcDbEntity
  8
AM_0
100
AcDbLine
 10
150.0
 20
0.999847706754717
 30
0.0
 11
24.0
 21
0.9998477067547465
 31
0.0
  0
LINE
  5
AC3C
330
1F
100
AcDbEntity
  8
AM_0
100
AcDbLine
 10
23.99999999999999
 20
-113.18607246186
 30
0.0
 11
23.99999999999999
 21
-87.30863649212743
 31
0.0
  0
LINE
  5
AC3E
330
1F
100
AcDbEntity
  8
AM_0
100
AcDbLine
 10
150.0
 20
-106.1860724618601
 30
0.0
 11
45.99999999999998
 21
-106.18607246186
 31
0.0
  0
LINE
  5
AC3F
330
1F
100
AcDbEntity
  8
AM_0
100
AcDbLine
 10
24.0
 20
0.9998477067547465
 30
0.0
 11
24.0
 21
1.199847706754748
 31
0.0
  0
LINE
  5
AC40
330
1F
100
AcDbEntity
  8
AM_0
100
AcDbLine
 10
150.0
 20
0.999847706754717
 30
0.0
 11
150.0
 21
25.99984770675471
 31
0.0
  0
LINE
  5
AC41
330
1F
100
AcDbEntity
  8
AM_7
100
AcDbLine
 10
32.0
 20
5.432001029220838
 30
0.0
 11
32.0
 21
23.0924001174409
 31
0.0
  0
LINE
  5
AC42
330
1F
100
AcDbEntity
  8
AM_0
100
AcDbLine
 10
54.00000000000001
 20
32.99984770675476
 30
0.0
 11
24.0
 21
32.99984770675477
 31
0.0
  0
LINE
  5
AC43
330
1F
100
AcDbEntity
  8
AM_0
100
AcDbLine
 10
54.0
 20
25.99984770675475
 30
0.0
 11
54.00000000000001
 21
32.99984770675476
 31
0.0
  0
LINE
  5
AC44
330
1F
100
AcDbEntity
  8
AM_0
100
AcDbLine
 10
45.0
 20
29.39984770675473
 30
0.0
 11
24.0
 21
29.39984770675474
 31
0.0
  0
LINE
  5
AC45
330
1F
100
AcDbEntity
  8
AM_0
100
AcDbLine
 10
45.0
 20
25.39984770675473
 30
0.0
 11
42.0
 21
25.39984770675474
 31
0.0
  0
ARC
  5
AC47
330
1F
100
AcDbEntity
  8
AM_0
100
AcDbCircle
 10
45.0
 20
27.39984770675479
 30
0.0
 40
2.0
100
AcDbArc
 50
270.0
 51
90.0
  0
LINE
  5
AC48
330
1F
100
AcDbEntity
  8
AM_7
100
AcDbLine
 10
41.18705088988031
 20
15.19984770675474
 30
0.0
 11
22.62609678117929
 21
15.19984770675474
 31
0.0
  0
LINE
  5
AC4A
330
1F
100
AcDbEntity
  8
AM_0
100
AcDbLine
 10
52.0
 20
0.9998477067547431
 30
0.0
 11
52.0
 21
8.299847706754739
 31
0.0
  0
LINE
  5
AC4D
330
1F
100
AcDbEntity
  8
AM_0
100
AcDbLine
 10
52.0
 20
8.299847706754739
 30
0.0
 11
42.60000000000002
 21
8.299847706754741
 31
0.0
  0
LINE
  5
AC4E
330
1F
100
AcDbEntity
  8
AM_4
100
AcDbLine
 10
-0.0000000000000099
 20
-81.18607246186009
 30
0.0
 11
0.0
 21
0.2498477067547638
 31
0.0
  0
LINE
  5
AC72
330
1F
100
AcDbEntity
  8
AM_0
100
AcDbLine
 10
4.799999999999955
 20
5.830847204471011
 30
0.0
 11
4.799999999999954
 21
0.1573562136164519
 31
0.0
  0
LINE
  5
AC73
330
1F
100
AcDbEntity
  8
AM_0
100
AcDbLine
 10
0.0000000000000003
 20
2.489736520056055
 30
0.0
 11
0.0000000000000007
 21
5.729625333357331
 31
0.0
  0
LINE
  5
AC74
330
1F
100
AcDbEntity
  8
AM_0
100
AcDbLine
 10
4.799695499808991
 20
5.82089885162557
 30
0.0
 11
0.2587248741755282
 21
5.979473040112111
 31
0.0
  0
ARC
  5
AC75
330
1F
100
AcDbEntity
  8
AM_0
100
AcDbCircle
 10
0.2500000000000007
 20
5.729625333357347
 30
0.0
 40
0.25
100
AcDbArc
 50
88.00000000000288
 51
180.0
  0
LINE
  5
AC76
330
1F
100
AcDbEntity
  8
AM_0
100
AcDbLine
 10
4.79969549980899
 20
0.1585741884865108
 30
0.0
 11
0.2587248741755275
 21
-0.0000000000000002
 31
0.0
  0
LINE
  5
AC77
330
1F
100
AcDbEntity
  8
AM_0
100
AcDbLine
 10
0.0000000000000003
 20
2.489736520056055
 30
0.0
 11
0.0
 21
0.252041923624432
 31
0.0
  0
ARC
  5
AC78
330
1F
100
AcDbEntity
  8
AM_0
100
AcDbCircle
 10
0.25
 20
0.2498477067547638
 30
0.0
 40
0.25
100
AcDbArc
 50
179.4971160795104
 51
271.9999999999971
  0
LINE
  5
AC79
330
1F
100
AcDbEntity
  8
AM_0
100
AcDbLine
 10
20.62499999999988
 20
0.7047365200560424
 30
0.0
 11
4.799999999999954
 21
0.7047365200560586
 31
0.0
  0
LINE
  5
AC7A
330
1F
100
AcDbEntity
  8
AM_0
100
AcDbLine
 10
20.62499999999988
 20
5.274736520056035
 30
0.0
 11
4.799999999999955
 21
5.27473652005605
 31
0.0
  0
LINE
  5
AC7B
330
1F
100
AcDbEntity
  8
AM_0
100
AcDbLine
 10
20.62530450019085
 20
0.1585741884865088
 30
0.0
 11
25.16627512582431
 21
-0.0000000000000174
 31
0.0
  0
LINE
  5
AC7C
330
1F
100
AcDbEntity
  8
AM_0
100
AcDbLine
 10
25.42499999999984
 20
0.9998477067547463
 30
0.0
 11
25.42499999999984
 21
0.2520419236244147
 31
0.0
  0
ARC
  5
AC7D
330
1F
100
AcDbEntity
  8
AM_0
100
AcDbCircle
 10
25.17499999999984
 20
0.2498477067547608
 30
0.0
 40
0.25
100
AcDbArc
 50
268.0000000000029
 51
0.5028839204893743
  0
LINE
  5
AC7E
330
1F
100
AcDbEntity
  8
AM_0
100
AcDbLine
 10
20.62499999999988
 20
1.199847706754749
 30
0.0
 11
20.62499999999988
 21
0.1573562136164357
 31
0.0
  0
LINE
  5
AC7F
330
1F
100
AcDbEntity
  8
AM_0
100
AcDbLine
 10
20.62499999999988
 20
5.820898851625568
 30
0.0
 11
20.62499999999988
 21
4.999847706754759
 31
0.0
  0
LINE
  5
AC80
330
1F
100
AcDbEntity
  8
AM_0
100
AcDbLine
 10
20.62530450019085
 20
5.820898851625568
 30
0.0
 11
23.44408145320471
 21
5.919332711850413
 31
0.0
  0
LINE
  5
AC81
330
1F
100
AcDbEntity
  8
AM_0
100
AcDbLine
 10
4.800000000000058
 20
-81.18607246186012
 30
0.0
 11
4.800000000000057
 21
-85.49342340527481
 31
0.0
  0
LINE
  5
AC82
330
1F
100
AcDbEntity
  8
AM_0
100
AcDbLine
 10
0.5356549443600791
 20
-87.30863649212743
 30
0.0
 11
-0.0000000000000099
 21
-81.18607246186012
 31
0.0
  0
LINE
  5
AC83
330
1F
100
AcDbEntity
  8
AM_0
100
AcDbLine
 10
4.200000000000034
 20
-81.92664578083567
 30
0.0
 11
0.0000000000001038
 21
-81.18607246186012
 31
0.0
  0
LINE
  5
AC84
330
1F
100
AcDbEntity
  8
AM_0
100
AcDbLine
 10
4.800000000000058
 20
-81.18607246186012
 30
0.0
 11
2.500000000000103
 21
-81.18607246186012
 31
0.0
  0
LINE
  5
AC85
330
1F
100
AcDbEntity
  8
AM_0
100
AcDbLine
 10
4.200000000000034
 20
-81.92664578083567
 30
0.0
 11
4.800000000000058
 21
-81.18607246186012
 31
0.0
  0
LINE
  5
AC86
330
1F
100
AcDbEntity
  8
AM_0
100
AcDbLine
 10
2.500000000000103
 20
-81.18607246186012
 30
0.0
 11
1.969615506024514
 21
-81.53336881719399
 31
0.0
  0
LINE
  5
AC88
330
1F
100
AcDbEntity
  8
AM_0
100
AcDbLine
 10
20.62499999999999
 20
-82.59607246186012
 30
0.0
 11
4.800000000000058
 21
-82.59607246186012
 31
0.0
  0
LINE
  5
AC89
330
1F
100
AcDbEntity
  8
AM_0
100
AcDbLine
 10
25.01277258051845
 20
-85.73956289252508
 30
0.0
 11
25.41115137267547
 21
-81.18607246186014
 31
0.0
  0
LINE
  5
AC8A
330
1F
100
AcDbEntity
  8
AM_0
100
AcDbLine
 10
20.61115137267551
 20
-81.18607246186012
 30
0.0
 11
20.61115137267563
 21
-85.49342340527481
 31
0.0
  0
LINE
  5
AC8B
330
1F
100
AcDbEntity
  8
AM_0
100
AcDbLine
 10
20.62499999999999
 20
-81.18607246186012
 30
0.0
 11
22.92499999999994
 21
-81.18607246186014
 31
0.0
  0
LINE
  5
AC8C
330
1F
100
AcDbEntity
  8
AM_0
100
AcDbLine
 10
21.21115137267564
 20
-81.92664578083569
 30
0.0
 11
20.61115137267551
 21
-81.18607246186012
 31
0.0
  0
LINE
  5
AC8D
330
1F
100
AcDbEntity
  8
AM_0
100
AcDbLine
 10
21.21115137267564
 20
-81.92664578083569
 30
0.0
 11
25.41115137267547
 21
-81.18607246186014
 31
0.0
  0
LINE
  5
AC8E
330
1F
100
AcDbEntity
  8
AM_0
100
AcDbLine
 10
22.91115137267546
 20
-81.18607246186014
 30
0.0
 11
23.44153586665105
 21
-81.53336881719399
 31
0.0
  0
LINE
  5
ACA4
330
1F
100
AcDbEntity
  8
AM_0
100
AcDbLine
 10
42.0
 20
8.899847706754735
 30
0.0
 11
42.00000000000001
 21
29.39984770675474
 31
0.0
  0
LINE
  5
ACA5
330
1F
100
AcDbEntity
  8
AM_0
100
AcDbLine
 10
52.0
 20
7.399847706754748
 30
0.0
 11
43.5
 21
7.399847706754735
 31
0.0
  0
LINE
  5
ACA8
330
1F
100
AcDbEntity
  8
AM_0
100
AcDbLine
 10
7.0
 20
1.19984770675475
 30
0.0
 11
7.0
 21
4.999847706754747
 31
0.0
  0
LINE
  5
ACA9
330
1F
100
AcDbEntity
  8
AM_0
100
AcDbLine
 10
52.0
 20
1.199847706754745
 30
0.0
 11
7.0
 21
1.19984770675475
 31
0.0
  0
LINE
  5
ACAA
330
1F
100
AcDbEntity
  8
AM_0
100
AcDbLine
 10
22.69999999999993
 20
4.999847706754759
 30
0.0
 11
7.0
 21
4.999847706754747
 31
0.0
  0
LINE
  5
ACAB
330
1F
100
AcDbEntity
  8
AM_0
100
AcDbLine
 10
24.19999999999993
 20
6.49984770675476
 30
0.0
 11
24.20000000000004
 21
29.39984770675474
 31
0.0
  0
LINE
  5
ACAC
330
1F
100
AcDbEntity
  8
AM_0
100
AcDbLine
 10
22.69999999999993
 20
4.999847706754759
 30
0.0
 11
24.19999999999993
 21
6.49984770675476
 31
0.0
  0
LINE
  5
ACAD
330
1F
100
AcDbEntity
  8
AM_0
100
AcDbLine
 10
24.0
 20
6.299847706754829
 30
0.0
 11
24.0
 21
32.99984770675477
 31
0.0
  0
LINE
  5
ACAF
330
1F
100
AcDbEntity
  8
AM_7
100
AcDbLine
 10
30.20000000000004
 20
-4.492793410197567
 30
0.0
 11
30.20000000000004
 21
5.553034683196539
 31
0.0
  0
LINE
  5
ACB1
330
1F
100
AcDbEntity
  8
AM_7
100
AcDbLine
 10
46.0
 20
-3.745980386639279
 30
0.0
 11
46.0
 21
6.299847706754826
 31
0.0
  0
LINE
  5
ACB2
330
1F
100
AcDbEntity
  8
AM_0
100
AcDbLine
 10
23.99999999999999
 20
-81.18607246186012
 30
0.0
 11
150.0
 21
-81.18607246186014
 31
0.0
  0
LINE
  5
ACB4
330
1F
100
AcDbEntity
  8
AM_7
100
AcDbLine
 10
30.20000000000003
 20
-104.9860724618601
 30
0.0
 11
30.20000000000003
 21
-92.11035339692877
 31
0.0
  0
LINE
  5
ACB5
330
1F
100
AcDbEntity
  8
AM_7
100
AcDbLine
 10
45.99999999999998
 20
-104.4786451074564
 30
0.0
 11
45.99999999999998
 21
-92.61841149575138
 31
0.0
  0
LINE
  5
ACB6
330
1F
100
AcDbEntity
  8
AM_7
100
AcDbLine
 10
54.34502263949591
 20
-98.48607246186013
 30
0.0
 11
23.99999999999999
 21
-98.48607246186013
 31
0.0
  0
LINE
  5
ACB7
330
1F
100
AcDbEntity
  8
AM_0
100
AcDbLine
 10
53.99999999999998
 20
-104.9860724618601
 30
0.0
 11
23.99999999999999
 21
-104.9860724618601
 31
0.0
  0
LINE
  5
ACB8
330
1F
100
AcDbEntity
  8
AM_0
100
AcDbLine
 10
58.99999999999998
 20
-99.98607246186013
 30
0.0
 11
58.99999999999998
 21
-94.88607246186013
 31
0.0
  0
LINE
  5
ACB9
330
1F
100
AcDbEntity
  8
AM_0
100
AcDbLine
 10
53.99999999999998
 20
-89.88607246186012
 30
0.0
 11
23.49999999999999
 21
-89.88607246186012
 31
0.0
  0
ARC
  5
ACBA
330
1F
100
AcDbEntity
  8
AM_0
100
AcDbCircle
 10
53.99999999999998
 20
-99.98607246186011
 30
0.0
 40
5.0
100
AcDbArc
 50
270.0
 51
0.0
  0
ARC
  5
ACBB
330
1F
100
AcDbEntity
  8
AM_0
100
AcDbCircle
 10
53.99999999999998
 20
-94.88607246186012
 30
0.0
 40
5.0
100
AcDbArc
 50
0.0
 51
90.0
  0
LINE
  5
ACBC
330
1F
100
AcDbEntity
  8
AM_7
100
AcDbLine
 10
47.26833070929045
 20
-86.48607246186012
 30
0.0
 11
41.25314215717411
 21
-86.48607246186012
 31
0.0
  0
LINE
  5
ACBD
330
1F
100
AcDbEntity
  8
AM_0
100
AcDbLine
 10
51.99999999999999
 20
-89.88607246186012
 30
0.0
 11
51.99999999999999
 21
-81.18607246186012
 31
0.0
  0
LINE
  5
ACBE
330
1F
100
AcDbEntity
  8
AM_7
100
AcDbLine
 10
44.1
 20
-89.88607246186012
 30
0.0
 11
44.10000000000001
 21
-84.20541333177549
 31
0.0
  0
INSERT
  5
ACCD
330
1F
100
AcDbEntity
  8
AM_0
100
AcDbBlockReference
  2
CBF03
 10
44.10000000000001
 20
-86.48607246186012
 30
0.0
  0
CIRCLE
  5
ACCE
330
1F
100
AcDbEntity
  8
AM_0
100
AcDbCircle
 10
44.10000000000001
 20
-86.48607246186012
 30
0.0
 40
3.0
  0
LINE
  5
ACCF
330
1F
100
AcDbEntity
  8
AM_0
100
AcDbLine
 10
51.99999999999999
 20
-82.58607246186011
 30
0.0
 11
25.28866724373914
 21
-82.58607246186011
 31
0.0
  0
LINE
  5
ACD0
330
1F
100
AcDbEntity
  8
AM_0
100
AcDbLine
 10
24.64999999999997
 20
-89.88607246186012
 30
0.0
 11
25.28866724373914
 21
-82.58607246186011
 31
0.0
  0
LINE
  5
ACD2
330
1F
100
AcDbEntity
  8
AM_0
100
AcDbLine
 10
23.49999999999999
 20
-89.88607246186012
 30
0.0
 11
23.49999999999999
 21
-85.49342340527481
 31
0.0
  0
LINE
  5
ACD3
330
1F
100
AcDbEntity
  8
AM_0
100
AcDbLine
 10
23.49999999999999
 20
-85.49342340527481
 30
0.0
 11
0.8000000000000008
 21
-85.49342340527481
 31
0.0
  0
LINE
  5
ACD4
330
1F
100
AcDbEntity
  8
AM_0
100
AcDbLine
 10
0.7999999999999977
 20
-110.2860724618601
 30
0.0
 11
0.8000000000000008
 21
-85.49342340527481
 31
0.0
  0
LINE
  5
ACD5
330
1F
100
AcDbEntity
  8
AM_0
100
AcDbLine
 10
23.99999999999999
 20
-110.2860724618601
 30
0.0
 11
0.7999999999999977
 21
-110.2860724618601
 31
0.0
  0
LINE
  5
ACD8
330
1F
100
AcDbEntity
  8
AM_0
100
AcDbLine
 10
0.8000000000000005
 20
-87.30863649212743
 30
0.0
 11
0.5356549443600791
 21
-87.30863649212743
 31
0.0
  0
INSERT
  5
ACDA
330
1F
100
AcDbEntity
  8
AM_0
100
AcDbBlockReference
  2
CBF06
 10
30.20000000000003
 20
-98.52286751922481
 30
0.0
  0
INSERT
  5
ACDB
330
1F
100
AcDbEntity
  8
AM_0
100
AcDbBlockReference
  2
CBF06
 10
45.99999999999998
 20
-98.52286751922481
 30
0.0
  0
LINE
  5
ACDD
330
1F
100
AcDbEntity
  8
AM_0
100
AcDbLine
 10
52.6
 20
-104.9860724618601
 30
0.0
 11
52.6
 21
-89.88607246186012
 31
0.0
  0
LINE
  5
ACE0
330
1F
100
AcDbEntity
  8
AM_0
100
AcDbLine
 10
-152.49450179871
 20
-81.18607246186009
 30
0.0
 11
-148.89450179871
 21
-81.18607246186009
 31
0.0
  0
LINE
  5
ACE3
330
1F
100
AcDbEntity
  8
AM_0
100
AcDbLine
 10
-120.49450179871
 20
-110.2860724618601
 30
0.0
 11
-120.49450179871
 21
-113.18607246186
 31
0.0
  0
LINE
  5
ACF6
330
1F
100
AcDbEntity
  8
AM_0
100
AcDbLine
 10
24.87549642831549
 20
-87.30863649212743
 30
0.0
 11
23.49999999999999
 21
-87.30863649212741
 31
0.0
  0
LINE
  5
ACF8
330
1F
100
AcDbEntity
  8
AM_0
100
AcDbLine
 10
23.99999999999999
 20
-81.43489652272661
 30
0.0
 11
23.99999999999999
 21
-81.18607246186012
 31
0.0
  0
LINE
  5
ACF9
330
1F
100
AcDbEntity
  8
AM_0
100
AcDbLine
 10
45.99999999999998
 20
-106.18607246186
 30
0.0
 11
45.99999999999998
 21
-113.18607246186
 31
0.0
  0
LINE
  5
ACFA
330
1F
100
AcDbEntity
  8
AM_0
100
AcDbLine
 10
45.99999999999998
 20
-113.18607246186
 30
0.0
 11
23.99999999999999
 21
-113.18607246186
 31
0.0
  0
LINE
  5
ACFB
330
1F
100
AcDbEntity
  8
AM_0
100
AcDbLine
 10
-152.49450179871
 20
-81.18607246186009
 30
0.0
 11
-152.49450179871
 21
-113.18607246186
 31
0.0
  0
LINE
  5
ACFC
330
1F
100
AcDbEntity
  8
AM_0
100
AcDbLine
 10
-120.49450179871
 20
-113.18607246186
 30
0.0
 11
-152.49450179871
 21
-113.18607246186
 31
0.0
  0
LINE
  5
AD01
330
1F
100
AcDbEntity
  8
AM_0
100
AcDbLine
 10
19.20000000000004
 20
2.99984770675476
 30
0.0
 11
19.20000000000004
 21
1.199847706754749
 31
0.0
  0
LINE
  5
AD02
330
1F
100
AcDbEntity
  8
AM_0
100
AcDbLine
 10
22.0
 20
2.99984770675476
 30
0.0
 11
19.20000000000004
 21
2.99984770675476
 31
0.0
  0
LINE
  5
AD04
330
1F
100
AcDbEntity
  8
AM_0
100
AcDbLine
 10
11.0
 20
4.999847706754747
 30
0.0
 11
19.20000000000004
 21
2.99984770675476
 31
0.0
  0
LINE
  5
AD06
330
1F
100
AcDbEntity
  8
AM_0
100
AcDbLine
 10
22.0
 20
4.999847706754759
 30
0.0
 11
22.0
 21
2.99984770675476
 31
0.0
  0
LINE
  5
AD07
330
1F
100
AcDbEntity
  8
AM_0
100
AcDbLine
 10
19.21000000000002
 20
-69.88607246186011
 30
0.0
 11
51.99999999999999
 21
-69.88607246186011
 31
0.0
  0
LINE
  5
AD09
330
1F
100
AcDbEntity
  8
AM_0
100
AcDbLine
 10
19.21000000000002
 20
-69.88607246186011
 30
0.0
 11
6.99999999999999
 21
-82.09607246186008
 31
0.0
  0
LINE
  5
AD0A
330
1F
100
AcDbEntity
  8
AM_0
100
AcDbLine
 10
6.99999999999999
 20
-82.09607246186008
 30
0.0
 11
6.99999999999999
 21
-82.59607246186012
 31
0.0
  0
LINE
  5
AD0B
330
1F
100
AcDbEntity
  8
AM_0
100
AcDbLine
 10
51.99999999999999
 20
-69.88607246186011
 30
0.0
 11
51.99999999999999
 21
-81.18607246186012
 31
0.0
  0
LINE
  5
AD0C
330
1F
100
AcDbEntity
  8
AM_0
100
AcDbLine
 10
46.99999999999999
 20
-79.58607246186011
 30
0.0
 11
46.99999999999999
 21
-81.18607246186012
 31
0.0
  0
LINE
  5
AD0D
330
1F
100
AcDbEntity
  8
AM_0
100
AcDbLine
 10
18.99999999999999
 20
-79.58607246186011
 30
0.0
 11
46.99999999999999
 21
-79.58607246186011
 31
0.0
  0
LINE
  5
AD0E
330
1F
100
AcDbEntity
  8
AM_0
100
AcDbLine
 10
18.99999999999999
 20
-79.58607246186011
 30
0.0
 11
18.99999999999999
 21
-82.59607246186012
 31
0.0
  0
LINE
  5
AD11
330
1F
100
AcDbEntity
  8
AM_7
100
AcDbLine
 10
31.99999999999999
 20
-86.23194225259451
 30
0.0
 11
31.99999999999999
 21
-57.96571535607347
 31
0.0
  0
INSERT
  5
AD33
330
1F
100
AcDbEntity
  8
AM_0
100
AcDbBlockReference
  2
CBF08
 10
32.0
 20
15.19984770675472
 30
0.0
  0
INSERT
  5
AD3F
330
1F
100
AcDbEntity
  8
AM_0
100
AcDbBlockReference
  2
CBS0800
 10
31.99999999999999
 20
-69.88607246186011
 30
0.0
  0
LINE
  5
AD41
330
1F
100
AcDbEntity
  8
AM_0
100
AcDbLine
 10
42.0
 20
8.899847706754735
 30
0.0
 11
43.5
 21
7.399847706754735
 31
0.0
  0
LINE
  5
AD43
330
1F
100
AcDbEntity
  8
AM_0
100
AcDbLine
 10
-129.29450179871
 20
-89.88607246186006
 30
0.0
 11
-129.29450179871
 21
-104.98607246186
 31
0.0
  0
LINE
  5
AD44
330
1F
100
AcDbEntity
  8
AM_0
100
AcDbLine
 10
-129.29450179871
 20
-84.88607246186012
 30
0.0
 11
-129.29450179871
 21
-110.2860724618601
 31
0.0
  0
LINE
  5
AD45
330
1F
100
AcDbEntity
  8
AM_7
100
AcDbLine
 10
-134.69450179871
 20
-97.53194225259449
 30
0.0
 11
-134.69450179871
 21
-59.60730937769274
 31
0.0
  0
INSERT
  5
AD46
330
1F
100
AcDbEntity
  8
AM_0
100
AcDbBlockReference
  2
CBS0800
 10
-134.69450179871
 20
-69.8860724618601
 30
0.0
  0
LINE
  5
AD47
330
1F
100
AcDbEntity
  8
AM_0
100
AcDbLine
 10
-148.89450179871
 20
-69.8860724618601
 30
0.0
 11
-120.69450179871
 21
-69.8860724618601
 31
0.0
  0
LINE
  5
AD48
330
1F
100
AcDbEntity
  8
AM_0
100
AcDbLine
 10
-148.89450179871
 20
-69.8860724618601
 30
0.0
 11
-148.89450179871
 21
-82.58607246186008
 31
0.0
  0
LINE
  5
AD49
330
1F
100
AcDbEntity
  8
AM_0
100
AcDbLine
 10
-144.89450179871
 20
-81.18607246186009
 30
0.0
 11
-144.8945017987099
 21
-82.58607246186008
 31
0.0
  0
LINE
  5
AD4A
330
1F
100
AcDbEntity
  8
AM_0
100
AcDbLine
 10
-148.89450179871
 20
-82.58607246186008
 30
0.0
 11
-144.8945017987099
 21
-82.58607246186008
 31
0.0
  0
LINE
  5
AD4B
330
1F
100
AcDbEntity
  8
AM_0
100
AcDbLine
 10
-120.69450179871
 20
-69.8860724618601
 30
0.0
 11
-120.69450179871
 21
-81.18607246186009
 31
0.0
  0
LINE
  5
AD4D
330
1F
100
AcDbEntity
  8
AM_0
100
AcDbLine
 10
-124.49450179871
 20
-69.8860724618601
 30
0.0
 11
-124.49450179871
 21
-81.18607246186009
 31
0.0
  0
LINE
  5
AD4E
330
1F
100
AcDbEntity
  8
AM_0
100
AcDbLine
 10
-144.89450179871
 20
-81.18607246186009
 30
0.0
 11
-124.49450179871
 21
-81.18607246186009
 31
0.0
  0
LINE
  5
AD4F
330
1F
100
AcDbEntity
  8
AM_0
100
AcDbLine
 10
-120.6945017987101
 20
-81.18607246186009
 30
0.0
 11
-120.49450179871
 21
-81.18607246186009
 31
0.0
  0
LINE
  5
AD50
102
{ACAD_REACTORS
330
AD5A
102
}
330
1F
100
AcDbEntity
  8
AM_0
100
AcDbLine
 10
-125.49450179871
 20
-81.18607246186009
 30
0.0
 11
-119.49450179871
 21
-81.18607246186009
 31
0.0
  0
LINE
  5
AD52
102
{ACAD_REACTORS
330
AD5A
102
}
330
1F
100
AcDbEntity
  8
AM_0
100
AcDbLine
 10
-119.49450179871
 20
-81.18607246186009
 30
0.0
 11
-119.8243179779721
 21
-84.95588864112216
 31
0.0
  0
LINE
  5
AD53
102
{ACAD_REACTORS
330
AD5A
102
}
330
1F
100
AcDbEntity
  8
AM_0
100
AcDbLine
 10
-125.49450179871
 20
-81.18607246186009
 30
0.0
 11
-125.164685619448
 21
-84.95588864112217
 31
0.0
  0
LINE
  5
AD54
102
{ACAD_REACTORS
330
AD5A
102
}
330
1F
100
AcDbEntity
  8
AM_0
100
AcDbLine
 10
-122.8145017987101
 20
-87.30607246186009
 30
0.0
 11
-122.17450179871
 21
-87.30607246186009
 31
0.0
  0
LINE
  5
AD56
102
{ACAD_REACTORS
330
AD5A
102
}
330
1F
100
AcDbEntity
  8
AM_0
100
AcDbLine
 10
-125.2345017987101
 20
-84.88607246186012
 30
0.0
 11
-122.49450179871
 21
-87.6260724618602
 31
0.0
  0
LINE
  5
AD57
102
{ACAD_REACTORS
330
AD5A
102
}
330
1F
100
AcDbEntity
  8
AM_0
100
AcDbLine
 10
-119.8243179779721
 20
-84.95588864112216
 30
0.0
 11
-122.49450179871
 21
-87.6260724618602
 31
0.0
  0
LINE
  5
AD5C
330
1F
100
AcDbEntity
  8
AM_7
100
AcDbLine
 10
-125.49450179871
 20
-81.18607246186009
 30
0.0
 11
-0.0000000000000099
 21
-81.18607246186011
 31
0.0
  0
LINE
  5
AD5F
330
1F
100
AcDbEntity
  8
AM_0
100
AcDbLine
 10
-129.29450179871
 20
-110.2860724618601
 30
0.0
 11
-114.4945017987101
 21
-110.2860724618601
 31
0.0
  0
LINE
  5
AD60
330
1F
100
AcDbEntity
  8
AM_0
100
AcDbLine
 10
-129.29450179871
 20
-84.88607246186012
 30
0.0
 11
-125.164685619448
 21
-84.88607246186012
 31
0.0
  0
LINE
  5
AD63
330
1F
100
AcDbEntity
  8
AM_7
100
AcDbLine
 10
-75.49450179871008
 20
-21.26648160012768
 30
0.0
 11
-75.49450179871008
 21
-138.5215185557551
 31
0.0
  0
LINE
  5
AD6A
330
1F
100
AcDbEntity
  8
AM_4
100
AcDbLine
 10
150.0
 20
0.999847706754717
 30
0.0
 11
150.0
 21
-81.18607246186014
 31
0.0
  0
DIMENSION
  5
AD75
330
1F
100
AcDbEntity
  8
AM_5
100
AcDbDimension
  2
*D9
 10
54.00000000000001
 20
49.18800240310578
 30
0.0
 11
27.00000000000001
 21
52.58800240310578
 31
0.0
 70
    32
 71
     5
 42
54.00000000000001
  3
AM_JIS$0
100
AcDbAlignedDimension
 13
0.0000000000000007
 23
5.729625333357331
 33
0.0
 14
54.00000000000001
 24
32.99984770675476
 34
0.0
100
AcDbRotatedDimension
  0
DIMENSION
  5
AD82
330
1F
100
AcDbEntity
  8
AM_5
100
AcDbDimension
  2
*D10
 10
68.10186301056273
 20
25.99984770675475
 30
0.0
 11
68.10186301056273
 21
29.49984770675476
 31
0.0
 70
   160
 71
     5
 42
7.000000000000007
  3
AM_JIS$0
100
AcDbAlignedDimension
 13
54.00000000000001
 23
32.99984770675476
 33
0.0
 14
54.0
 24
25.99984770675475
 34
0.0
 50
89.99999999999998
100
AcDbRotatedDimension
  0
DIMENSION
  5
AD9C
330
1F
100
AcDbEntity
  8
AM_5
100
AcDbDimension
  2
*D11
 10
-32.22351832640721
 20
0.000000000000009
 30
0.0
 11
-35.62389234215523
 21
12.99992385337739
 31
0.0
 70
    32
 71
     5
 42
25.99984770675476
  3
AM_JIS$0
100
AcDbAlignedDimension
 13
54.0
 23
25.99984770675475
 33
0.0
 14
0.2587248741756412
 24
-0.0000000000000002
 34
0.0
 50
89.99999999999998
100
AcDbRotatedDimension
  0
DIMENSION
  5
ADCD
330
1F
100
AcDbEntity
  8
AM_5
100
AcDbDimension
  2
*D12
 10
171.777456585615
 20
0.9998477067547108
 30
0.0
 11
168.3770825698669
 21
13.49984770675473
 31
0.0
 70
    32
 71
     5
 42
25.0
  3
AM_JIS$0
100
AcDbAlignedDimension
 13
150.0
 23
25.99984770675471
 33
0.0
 14
150.0
 24
0.999847706754717
 34
0.0
 50
89.99999999999998
100
AcDbRotatedDimension
  0
DIMENSION
  5
ADDA
330
1F
100
AcDbEntity
  8
AM_5
100
AcDbDimension
  2
*D13
 10
175.605655067732
 20
-106.1860724618601
 30
0.0
 11
172.205281051984
 21
-93.68607246186011
 31
0.0
 70
    32
 71
     5
 42
24.99999999999995
  3
AM_JIS$0
100
AcDbAlignedDimension
 13
150.0
 23
-81.18607246186014
 33
0.0
 14
150.0
 24
-106.1860724618601
 34
0.0
 50
89.99999999999998
100
AcDbRotatedDimension
  0
DIMENSION
  5
ADE7
330
1F
100
AcDbEntity
  8
AM_5
100
AcDbDimension
  2
*D14
 10
68.35648102357113
 20
-106.18607246186
 30
0.0
 11
68.35648102357116
 21
-109.68607246186
 31
0.0
 70
   160
 71
     5
 42
7.0
  3
AM_JIS$0
100
AcDbAlignedDimension
 13
45.99999999999998
 23
-113.18607246186
 33
0.0
 14
45.99999999999998
 24
-106.18607246186
 34
0.0
 50
89.99999999999998
100
AcDbRotatedDimension
  0
LINE
  5
AE01
330
1F
100
AcDbEntity
  8
AM_0
100
AcDbLine
 10
0.7999999999999838
 20
-109.5409662193757
 30
0.0
 11
23.99999999999997
 21
-109.5409662193757
 31
0.0
  0
DIMENSION
  5
AE11
330
1F
100
AcDbEntity
  8
AM_5
100
AcDbDimension
  2
*D15
 10
150.0
 20
-32.71292956658911
 30
0.0
 11
75.0
 21
-29.31292956658911
 31
0.0
 70
    32
 71
     5
 42
150.0
  3
AM_JIS$0
100
AcDbAlignedDimension
 13
-0.0000000000000029
 23
-23.39903137513189
 33
0.0
 14
150.0
 24
-38.98320422053963
 34
0.0
100
AcDbRotatedDimension
  0
LINE
  5
AE56
330
1F
100
AcDbEntity
  8
AM_0
100
AcDbLine
 10
24.0
 20
-5.000152293245252
 30
0.0
 11
0.8000000000000106
 21
-5.000152293245236
 31
0.0
  0
LINE
  5
AE57
330
1F
100
AcDbEntity
  8
AM_0
100
AcDbLine
 10
0.8000000000000111
 20
0.0189017439005282
 30
0.0
 11
0.8000000000000106
 21
-5.000152293245236
 31
0.0
  0
LINE
  5
AE59
330
1F
100
AcDbEntity
  8
AM_0
100
AcDbLine
 10
52.60000000000001
 20
0.199847706754746
 30
0.0
 11
25.42499999999984
 21
0.1998477067547494
 31
0.0
  0
LINE
  5
AE5B
330
1F
100
AcDbEntity
  8
AM_0
100
AcDbLine
 10
24.0
 20
-0.8001522932452502
 30
0.0
 11
24.0
 21
-5.000152293245252
 31
0.0
  0
LINE
  5
AE5C
330
1F
100
AcDbEntity
  8
AM_0
100
AcDbLine
 10
24.79191461342441
 20
-0.008237679820812
 30
0.0
 11
24.0
 21
-0.8001522932452502
 31
0.0
  0
LINE
  5
AE5D
330
1F
100
AcDbEntity
  8
AM_0
100
AcDbLine
 10
52.60000000000001
 20
0.199847706754746
 30
0.0
 11
52.60000000000001
 21
0.999847706754743
 31
0.0
  0
DIMENSION
  5
AE5F
330
1F
100
AcDbEntity
  8
AM_5
100
AcDbDimension
  2
*D16
 10
0.0000000000001007
 20
-131.6280214127424
 30
0.0
 11
23.00000000000004
 21
-128.2280214127424
 31
0.0
 70
    32
 71
     5
 42
45.99999999999988
  3
AM_JIS$0
100
AcDbAlignedDimension
 13
45.99999999999998
 23
-113.18607246186
 33
0.0
 14
0.0000000000001038
 24
-81.18607246186012
 34
0.0
100
AcDbRotatedDimension
  0
DIMENSION
  5
AE75
330
1F
100
AcDbEntity
  8
AM_5
100
AcDbDimension
  2
*D17
 10
-19.67013149627303
 20
0.0000000000000055
 30
0.0
 11
-19.67013149627303
 21
2.989736520056057
 31
0.0
 70
   160
 71
     5
 42
5.979473040112111
  3
AM_JIS$0
100
AcDbAlignedDimension
 13
0.2587248741755282
 23
5.979473040112111
 33
0.0
 14
0.2587248741755275
 24
-0.0000000000000002
 34
0.0
 50
89.99999999999998
100
AcDbRotatedDimension
1001
ACAD
1000
DSTYLE
1002
{
1070
   271
1070
     1
1002
}
  0
ARC
  5
AFE1
330
1F
100
AcDbEntity
  8
AM_0
100
AcDbCircle
 10
-75.49450179871008
 20
-81.18607246186009
 30
0.0
 40
49.5
100
AcDbArc
 50
184.7639378293298
 51
216.0066246067572
  0
ARC
  5
AFE2
330
1F
100
AcDbEntity
  8
AM_0
100
AcDbCircle
 10
-50.49450179871008
 20
-81.18607246186011
 30
0.0
 40
70.0
100
AcDbArc
 50
183.5278434002989
 51
203.8955081861615
  0
LINE
  5
AFE4
330
1F
100
AcDbEntity
  8
AM_0
100
AcDbLine
 10
-114.4945017987101
 20
-109.5409662193757
 30
0.0
 11
-114.4945017987101
 21
-110.2860724618601
 31
0.0
  0
CIRCLE
  5
AFE5
330
1F
100
AcDbEntity
  8
AM_11
 48
0.5
100
AcDbCircle
 10
-75.49450179871008
 20
-81.18607246186009
 30
0.0
 40
50.0
  0
DIMENSION
  5
AFE6
330
1F
100
AcDbEntity
  8
AM_5
100
AcDbDimension
  2
*D18
 10
-51.51589283396368
 20
-125.0611942521843
 30
0.0
 11
-86.15533125244265
 21
-61.67930326786414
 31
0.0
 70
   163
 71
     5
 42
100.0
  3
AM_JIS$3
100
AcDbDiametricDimension
 15
-99.47311076345656
 25
-37.3109506715359
 35
0.0
 40
0.0
  0
ENDSEC
  0
SECTION
  2
OBJECTS
  0
DICTIONARY
  5
C
330
0
100
AcDbDictionary
281
     1
  3
ACAD_COLOR
350
B04C
  3
ACAD_GROUP
350
D
  3
ACAD_LAYOUT
350
1A
  3
ACAD_MATERIAL
350
B04B
  3
ACAD_MLINESTYLE
350
17
  3
ACAD_PLOTSETTINGS
350
19
  3
ACAD_PLOTSTYLENAME
350
E
  3
ACAD_TABLESTYLE
350
B04D
  3
ACDBHEADERROUNDTRIPXREC
350
B13B
  3
ACDBVARIABLEDICTIONARY
350
30
  3
ACMDICTIONARY
350
4D
  3
AMG
350
3F
  3
AMGSNAPSETTINGS
350
73
  3
DWGPROPS
350
B13A
  3
ENG_DATA
350
21C6
  3
FILENAME
350
21C9
  3
HOLD_DIC_DATA
350
21C4
  3
TABLE_DIC_DATA
350
1C0B
  3
ZWKSIZE
350
21CB
  0
DICTIONARY
  5
165
330
1F
100
AcDbDictionary
280
     1
281
     1
  3
ACAD_INDEX
360
B011
  3
ACAD_LAYOUTSELFREF
360
B044
  0
DICTIONARY
  5
B042
330
1B
100
AcDbDictionary
280
     1
281
     1
  3
ACAD_LAYOUTSELFREF
360
B043
  0
DICTIONARY
  5
B04C
102
{ACAD_REACTORS
330
C
102
}
330
C
100
AcDbDictionary
281
     1
  0
DICTIONARY
  5
D
102
{ACAD_REACTORS
330
C
102
}
330
C
100
AcDbDictionary
281
     1
  3
*A1
350
7C0D
  3
*A2
350
7C0E
  3
*A3
350
7FE3
  3
*A4
350
8E0E
  3
*A5
350
AD5A
  0
DICTIONARY
  5
1A
102
{ACAD_REACTORS
330
C
102
}
330
C
100
AcDbDictionary
281
     1
  3
Model
350
B04F
  3
レイアウト1
350
B050
  0
DICTIONARY
  5
B04B
102
{ACAD_REACTORS
330
C
102
}
330
C
100
AcDbDictionary
281
     1
  0
DICTIONARY
  5
17
102
{ACAD_REACTORS
330
C
102
}
330
C
100
AcDbDictionary
281
     1
  3
STANDARD
350
18
  0
DICTIONARY
  5
19
102
{ACAD_REACTORS
330
C
102
}
330
C
100
AcDbDictionary
281
     1
  0
ACDBDICTIONARYWDFLT
  5
E
102
{ACAD_REACTORS
330
C
102
}
330
C
100
AcDbDictionary
281
     1
  3
Normal
350
F
100
AcDbDictionaryWithDefault
340
F
  0
DICTIONARY
  5
B04D
102
{ACAD_REACTORS
330
C
102
}
330
C
100
AcDbDictionary
281
     1
  3
Standard
350
B04E
  0
DICTIONARY
  5
B13B
102
{ACAD_REACTORS
330
C
102
}
330
C
100
AcDbDictionary
281
     1
  0
DICTIONARY
  5
30
102
{ACAD_REACTORS
330
C
102
}
330
C
100
AcDbDictionary
281
     1
  3
CTABLESTYLE
350
B136
  3
DIMASSOC
350
B137
  3
INDEXCTL
350
31
  3
PROJECTNAME
350
B138
  3
SORTENTS
350
42BE
  0
DICTIONARY
  5
4D
102
{ACAD_REACTORS
330
C
102
}
330
C
100
AcDbDictionary
281
     1
  3
ACMSTDDICTIONARY
350
17E
  3
AMDTSECTSYM_ARROWCOLOR
350
B0C8
  0
DICTIONARY
  5
3F
102
{ACAD_REACTORS
330
C
102
}
330
C
100
AcDbDictionary
281
     1
  0
DICTIONARY
  5
73
102
{ACAD_REACTORS
330
C
102
}
330
C
100
AcDbDictionary
281
     1
  0
XRECORD
  5
B13A
102
{ACAD_REACTORS
330
C
102
}
330
C
100
AcDbXrecord
280
     1
  1
DWGPROPS COOKIE
  2

  3

  4

  6

  7

  8

  9

300
AmdtFileType=82
301
=
302
=
303
=
304
=
305
=
306
=
307
=
308
=
309
=
 40
1.021850208333333
 41
2451943.610431666
 42
2455603.392498183
  1

 90
        1
  0
DICTIONARY
  5
21C6
102
{ACAD_REACTORS
330
C
102
}
330
C
100
AcDbDictionary
281
     1
  3
ENG_ID
350
21C7
  0
DICTIONARY
  5
21C9
102
{ACAD_REACTORS
330
C
102
}
330
C
100
AcDbDictionary
281
     1
  3
FILENAME
350
21CA
  0
DICTIONARY
  5
21C4
102
{ACAD_REACTORS
330
C
102
}
330
C
100
AcDbDictionary
281
     1
  3
HOLD_DATA
350
21C5
  0
DICTIONARY
  5
1C0B
102
{ACAD_REACTORS
330
C
102
}
330
C
100
AcDbDictionary
281
     1
  3
INPUT_DATA
350
1C0D
  3
TABLE_DATA
350
1C0C
  0
DICTIONARY
  5
21CB
102
{ACAD_REACTORS
330
C
102
}
330
C
100
AcDbDictionary
281
     1
  3
ZWKSIZE
350
21CC
  0
DICTIONARY
  5
B011
102
{ACAD_REACTORS
330
165
102
}
330
165
100
AcDbDictionary
281
     1
  3
*A1
350
B012
  0
XRECORD
  5
B044
102
{ACAD_REACTORS
330
165
102
}
330
165
100
AcDbXrecord
280
     1
340
1F
  0
XRECORD
  5
B043
102
{ACAD_REACTORS
330
B042
102
}
330
B042
100
AcDbXrecord
280
     1
340
1B
  0
GROUP
  5
7C0D
102
{ACAD_REACTORS
330
D
102
}
330
D
100
AcDbGroup
300

 70
     1
 71
     1
  0
GROUP
  5
7C0E
102
{ACAD_REACTORS
330
D
102
}
330
D
100
AcDbGroup
300

 70
     1
 71
     1
  0
GROUP
  5
7FE3
102
{ACAD_REACTORS
330
D
102
}
330
D
100
AcDbGroup
300

 70
     1
 71
     1
  0
GROUP
  5
8E0E
102
{ACAD_REACTORS
330
D
102
}
330
D
100
AcDbGroup
300

 70
     1
 71
     1
  0
GROUP
  5
AD5A
102
{ACAD_REACTORS
330
D
102
}
330
D
100
AcDbGroup
300

 70
     1
 71
     1
340
AD53
340
AD52
340
AD54
340
AD56
340
AD57
340
AD50
  0
LAYOUT
  5
B04F
102
{ACAD_XDICTIONARY
360
B13C
102
}
102
{ACAD_REACTORS
330
1A
102
}
330
1A
100
AcDbPlotSettings
  1

  2
SII LP-1010 (C2 VR)2R
  4

  6

 40
0.0
 41
0.0
 42
0.0
 43
0.0
 44
0.0
 45
0.0
 46
0.0
 47
0.0
 48
0.0
 49
0.0
140
0.0
141
0.0
142
1.0
143
1.0
 70
  1712
 72
     0
 73
     0
 74
     0
  7
sei_cad.ctb
 75
     0
147
1.0
148
0.0
149
0.0
100
AcDbLayout
  1
Model
 70
     1
 71
     0
 10
0.0
 20
0.0
 11
12.0
 21
9.0
 12
0.0
 22
0.0
 32
0.0
 14
0.0
 24
0.0
 34
0.0
 15
0.0
 25
0.0
 35
0.0
146
0.0
 13
0.0
 23
0.0
 33
0.0
 16
1.0
 26
0.0
 36
0.0
 17
0.0
 27
1.0
 37
0.0
 76
     0
330
1F
  0
LAYOUT
  5
B050
102
{ACAD_XDICTIONARY
360
B13E
102
}
102
{ACAD_REACTORS
330
1A
102
}
330
1A
100
AcDbPlotSettings
  1

  2
SII LP-1010 (C2 VR)2R
  4

  6

 40
0.0
 41
0.0
 42
0.0
 43
0.0
 44
0.0
 45
0.0
 46
0.0
 47
0.0
 48
0.0
 49
0.0
140
0.0
141
0.0
142
1.0
143
1.0
 70
   688
 72
     0
 73
     0
 74
     5
  7
sei_cad.ctb
 75
    16
147
1.0
148
0.0
149
0.0
100
AcDbLayout
  1
レイアウト1
 70
     1
 71
     1
 10
0.0
 20
0.0
 11
420.0
 21
297.0
 12
0.0
 22
0.0
 32
0.0
 14
1.000000000000000E+20
 24
1.000000000000000E+20
 34
1.000000000000000E+20
 15
-1.000000000000000E+20
 25
-1.000000000000000E+20
 35
-1.000000000000000E+20
146
0.0
 13
0.0
 23
0.0
 33
0.0
 16
1.0
 26
0.0
 36
0.0
 17
0.0
 27
1.0
 37
0.0
 76
     0
330
1B
  0
MLINESTYLE
  5
18
102
{ACAD_REACTORS
330
17
102
}
330
17
100
AcDbMlineStyle
  2
STANDARD
 70
     0
  3

 62
   256
 51
90.0
 52
90.0
 71
     2
 49
0.5
 62
   256
  6
BYLAYER
 49
-0.5
 62
   256
  6
BYLAYER
  0
ACDBPLACEHOLDER
  5
F
102
{ACAD_REACTORS
330
E
102
}
330
E
  0
TABLESTYLE
  5
B04E
102
{ACAD_REACTORS
330
B04D
102
}
330
B04D
100
AcDbTableStyle
  3
Standard
 70
     0
 71
     0
 40
1.5
 41
1.5
280
     0
281
     0
  7
STANDARD
140
4.5
170
     2
 62
     0
 63
     7
283
     0
274
    -2
284
     1
 64
     0
275
    -2
285
     1
 65
     0
276
    -2
286
     1
 66
     0
277
    -2
287
     1
 67
     0
278
    -2
288
     1
 68
     0
279
    -2
289
     1
 69
     0
  7
STANDARD
140
6.0
170
     5
 62
     0
 63
     7
283
     0
274
    -2
284
     1
 64
     0
275
    -2
285
     1
 65
     0
276
    -2
286
     1
 66
     0
277
    -2
287
     1
 67
     0
278
    -2
288
     1
 68
     0
279
    -2
289
     1
 69
     0
  7
STANDARD
140
4.5
170
     5
 62
     0
 63
     7
283
     0
274
    -2
284
     1
 64
     0
275
    -2
285
     1
 65
     0
276
    -2
286
     1
 66
     0
277
    -2
287
     1
 67
     0
278
    -2
288
     1
 68
     0
279
    -2
289
     1
 69
     0
  0
DICTIONARYVAR
  5
B136
102
{ACAD_REACTORS
330
30
102
}
330
30
100
DictionaryVariables
280
     0
  1
STANDARD
  0
DICTIONARYVAR
  5
B137
102
{ACAD_REACTORS
330
30
102
}
330
30
100
DictionaryVariables
280
     0
  1
1
  0
DICTIONARYVAR
  5
31
102
{ACAD_REACTORS
330
30
102
}
330
30
100
DictionaryVariables
280
     0
  1
1
  0
DICTIONARYVAR
  5
B138
102
{ACAD_REACTORS
330
30
102
}
330
30
100
DictionaryVariables
280
     0
  1

  0
DICTIONARYVAR
  5
42BE
102
{ACAD_REACTORS
330
30
102
}
330
30
100
DictionaryVariables
280
     0
  1
96
  0
DICTIONARY
  5
17E
102
{ACAD_REACTORS
330
4D
102
}
330
4D
100
AcDbDictionary
281
     1
  0
XRECORD
  5
B0C8
102
{ACAD_REACTORS
330
4D
102
}
330
4D
100
AcDbXrecord
280
     1
 90
-1023410169
  0
XRECORD
  5
21C7
102
{ACAD_REACTORS
330
21C6
102
}
330
21C6
100
AcDbXrecord
280
     1
  1
HOLD
  0
XRECORD
  5
21CA
102
{ACAD_REACTORS
330
21C9
102
}
330
21C9
100
AcDbXrecord
280
     1
  1
21000065__00___
  0
XRECORD
  5
21C5
102
{ACAD_REACTORS
330
21C4
102
}
330
21C4
100
AcDbXrecord
280
     1
  1
クランクシャフト加工用 ^M^J１コーナー型 ^M^J15.875 ^M^J20 ^M^Jクランプオン ^M^J９０° ^M^J1 ^M^J鋼 ^M^J ^M^J ^M^J ^M^J ^M^J
  0
XRECORD
  5
1C0D
102
{ACAD_REACTORS
330
1C0B
102
}
330
1C0B
100
AcDbXrecord
280
     1
  1
1,,,,,,,,,^M^J2,,,,,,,,,^M^J3,,,,,,,,,^M^J4,,,,,,,,,^M^J5,,,,,,,,,^M^J6,,,,,,,,,^M^J7,,,,,,,,,^M^J8,,,,,,,,,^M^J9,,,,,,,,,^M^J10,,,,,,,,,
  0
XRECORD
  5
1C0C
102
{ACAD_REACTORS
330
1C0B
102
}
330
1C0B
100
AcDbXrecord
280
     1
  1
10,10
  0
XRECORD
  5
21CC
102
{ACAD_REACTORS
330
21CB
102
}
330
21CB
100
AcDbXrecord
280
     1
  1
3
  0
LAYER_INDEX
  5
B012
102
{ACAD_REACTORS
330
B011
102
}
330
B011
100
AcDbIndex
 40
2455603.392498183
100
AcDbLayerIndex
  8
0
360
B013
 90
        0
  8
AM_5
360
B014
 90
       10
  8
DEFPOINTS
360
B015
 90
        0
  8
AM_0
360
B016
 90
      120
  8
AM_6
360
B017
 90
        1
  8
AM_7
360
B018
 90
       13
  8
AM_4
360
B019
 90
        2
  8
AM_11
360
B01A
 90
        1
  0
DICTIONARY
  5
B13C
330
B04F
100
AcDbDictionary
280
     1
281
     1
  3
ACAD_XREC_ROUNDTRIP
360
B13D
  0
DICTIONARY
  5
B13E
330
B050
100
AcDbDictionary
280
     1
281
     1
  3
ACAD_XREC_ROUNDTRIP
360
B13F
  0
IDBUFFER
  5
B013
330
0
100
AcDbIdBuffer
  0
IDBUFFER
  5
B014
330
0
100
AcDbIdBuffer
330
AD75
330
AD82
330
AD9C
330
ADCD
330
ADDA
330
ADE7
330
AE11
330
AE5F
330
AE75
330
AFE6
  0
IDBUFFER
  5
B015
330
0
100
AcDbIdBuffer
  0
IDBUFFER
  5
B016
330
0
100
AcDbIdBuffer
330
AC39
330
AC3A
330
AC3B
330
AC3C
330
AC3E
330
AC3F
330
AC40
330
AC42
330
AC43
330
AC44
330
AC45
330
AC47
330
AC4A
330
AC4D
330
AC72
330
AC73
330
AC74
330
AC75
330
AC76
330
AC77
330
AC78
330
AC79
330
AC7A
330
AC7B
330
AC7C
330
AC7D
330
AC7E
330
AC7F
330
AC80
330
AC81
330
AC82
330
AC83
330
AC84
330
AC85
330
AC86
330
AC88
330
AC89
330
AC8A
330
AC8B
330
AC8C
330
AC8D
330
AC8E
330
ACA4
330
ACA5
330
ACA8
330
ACA9
330
ACAA
330
ACAB
330
ACAC
330
ACAD
330
ACB2
330
ACB7
330
ACB8
330
ACB9
330
ACBA
330
ACBB
330
ACBD
330
ACCD
330
ACCE
330
ACCF
330
ACD0
330
ACD2
330
ACD3
330
ACD4
330
ACD5
330
ACD8
330
ACDA
330
ACDB
330
ACDD
330
ACE0
330
ACE3
330
ACF6
330
ACF8
330
ACF9
330
ACFA
330
ACFB
330
ACFC
330
AD01
330
AD02
330
AD04
330
AD06
330
AD07
330
AD09
330
AD0A
330
AD0B
330
AD0C
330
AD0D
330
AD0E
330
AD33
330
AD3F
330
AD41
330
AD43
330
AD44
330
AD46
330
AD47
330
AD48
330
AD49
330
AD4A
330
AD4B
330
AD4D
330
AD4E
330
AD4F
330
AD50
330
AD52
330
AD53
330
AD54
330
AD56
330
AD57
330
AD5F
330
AD60
330
AE01
330
AE56
330
AE57
330
AE59
330
AE5B
330
AE5C
330
AE5D
330
AFE1
330
AFE2
330
AFE4
  0
IDBUFFER
  5
B017
330
0
100
AcDbIdBuffer
330
83BD
  0
IDBUFFER
  5
B018
330
0
100
AcDbIdBuffer
330
AC41
330
AC48
330
ACAF
330
ACB1
330
ACB4
330
ACB5
330
ACB6
330
ACBC
330
ACBE
330
AD11
330
AD45
330
AD5C
330
AD63
  0
IDBUFFER
  5
B019
330
0
100
AcDbIdBuffer
330
AC4E
330
AD6A
  0
IDBUFFER
  5
B01A
330
0
100
AcDbIdBuffer
330
AFE5
  0
XRECORD
  5
B13D
102
{ACAD_REACTORS
330
B13C
102
}
330
B13C
100
AcDbXrecord
280
     1
102
SHADEPLOT
 70
     0
102
SHADEPLOTRESLEVEL
 70
     2
102
SHADEPLOTCUSTOMDPI
 70
   300
  0
XRECORD
  5
B13F
102
{ACAD_REACTORS
330
B13E
102
}
330
B13E
100
AcDbXrecord
280
     1
102
SHADEPLOT
 70
     0
102
SHADEPLOTRESLEVEL
 70
     2
102
SHADEPLOTCUSTOMDPI
 70
   300
  0
ENDSEC
  0
EOF
