  0
SECTION
  2
HEADER
  9
$ACADVER
  1
AC1015
  9
$ACADMAINTVER
 70
    20
  9
$DWGCODEPAGE
  3
ANSI_932
  9
$INSBASE
 10
0.0
 20
0.0
 30
0.0
  9
$EXTMIN
 10
-87.69974733328764
 20
-121.4964615179517
 30
-0.0015258207003583
  9
$EXTMAX
 10
188.1353045709725
 20
77.31415253480372
 30
0.0000000349246037
  9
$LIMMIN
 10
-236.602275036811
 20
-128.7825618372522
  9
$LIMMAX
 10
108.1836484203343
 20
145.1714417013173
  9
$ORTHOMODE
 70
     0
  9
$REGENMODE
 70
     1
  9
$FILLMODE
 70
     1
  9
$QTEXTMODE
 70
     0
  9
$MIRRTEXT
 70
     1
  9
$LTSCALE
 40
1.0
  9
$ATTMODE
 70
     1
  9
$TEXTSIZE
 40
2.5
  9
$TRACEWID
 40
1.0
  9
$TEXTSTYLE
  7
STANDARD
  9
$CLAYER
  8
AM_5
  9
$CELTYPE
  6
BYLAYER
  9
$CECOLOR
 62
   256
  9
$CELTSCALE
 40
1.0
  9
$DISPSILH
 70
     0
  9
$DIMSCALE
 40
1.0
  9
$DIMASZ
 40
2.5
  9
$DIMEXO
 40
0.0
  9
$DIMDLI
 40
10.0
  9
$DIMRND
 40
0.0
  9
$DIMDLE
 40
0.0
  9
$DIMEXE
 40
1.0
  9
$DIMTP
 40
0.1
  9
$DIMTM
 40
0.1000000001
  9
$DIMTXT
 40
3.799999999999998
  9
$DIMCEN
 40
0.0
  9
$DIMTSZ
 40
0.0
  9
$DIMTOL
 70
     0
  9
$DIMLIM
 70
     0
  9
$DIMTIH
 70
     0
  9
$DIMTOH
 70
     0
  9
$DIMSE1
 70
     0
  9
$DIMSE2
 70
     0
  9
$DIMTAD
 70
     3
  9
$DIMZIN
 70
     9
  9
$DIMBLK
  1
OPEN30
  9
$DIMASO
 70
     1
  9
$DIMSHO
 70
     1
  9
$DIMPOST
  1

  9
$DIMAPOST
  1
"
  9
$DIMALT
 70
     0
  9
$DIMALTD
 70
     2
  9
$DIMALTF
 40
0.0393701
  9
$DIMLFAC
 40
1.0
  9
$DIMTOFL
 70
     1
  9
$DIMTVP
 40
0.0
  9
$DIMTIX
 70
     0
  9
$DIMSOXD
 70
     0
  9
$DIMSAH
 70
     0
  9
$DIMBLK1
  1

  9
$DIMBLK2
  1

  9
$DIMSTYLE
  2
AM_JIS
  9
$DIMCLRD
 70
   256
  9
$DIMCLRE
 70
   256
  9
$DIMCLRT
 70
     2
  9
$DIMTFAC
 40
0.71
  9
$DIMGAP
 40
1.5
  9
$DIMJUST
 70
     0
  9
$DIMSD1
 70
     0
  9
$DIMSD2
 70
     0
  9
$DIMTOLJ
 70
     0
  9
$DIMTZIN
 70
     8
  9
$DIMALTZ
 70
     0
  9
$DIMALTTZ
 70
     0
  9
$DIMUPT
 70
     0
  9
$DIMDEC
 70
     2
  9
$DIMTDEC
 70
     2
  9
$DIMALTU
 70
     2
  9
$DIMALTTD
 70
     2
  9
$DIMTXSTY
  7
STANDARD
  9
$DIMAUNIT
 70
     1
  9
$DIMADEC
 70
     1
  9
$DIMALTRND
 40
0.0
  9
$DIMAZIN
 70
     2
  9
$DIMDSEP
 70
    46
  9
$DIMATFIT
 70
     3
  9
$DIMFRAC
 70
     0
  9
$DIMLDRBLK
  1
OPEN30
  9
$DIMLUNIT
 70
     2
  9
$DIMLWD
 70
    -1
  9
$DIMLWE
 70
    -1
  9
$DIMTMOVE
 70
     0
  9
$LUNITS
 70
     2
  9
$LUPREC
 70
     2
  9
$SKETCHINC
 40
1.0
  9
$FILLETRAD
 40
1.0
  9
$AUNITS
 70
     1
  9
$AUPREC
 70
     5
  9
$MENU
  1
.
  9
$ELEVATION
 40
0.0
  9
$PELEVATION
 40
0.0
  9
$THICKNESS
 40
0.0
  9
$LIMCHECK
 70
     0
  9
$CHAMFERA
 40
1.0
  9
$CHAMFERB
 40
1.0
  9
$CHAMFERC
 40
20.0
  9
$CHAMFERD
 40
0.0
  9
$SKPOLY
 70
     0
  9
$TDCREATE
 40
2451943.610431666
  9
$TDUCREATE
 40
2451943.235431667
  9
$TDUPDATE
 40
2455603.373095521
  9
$TDUUPDATE
 40
2455602.998095521
  9
$TDINDWG
 40
1.0716909606
  9
$TDUSRTIMER
 40
1.0716907870
  9
$USRTIMER
 70
     1
  9
$ANGBASE
 50
0.0
  9
$ANGDIR
 70
     0
  9
$PDMODE
 70
     0
  9
$PDSIZE
 40
0.0
  9
$PLINEWID
 40
0.0
  9
$SPLFRAME
 70
     0
  9
$SPLINETYPE
 70
     6
  9
$SPLINESEGS
 70
     8
  9
$HANDSEED
  5
B513
  9
$SURFTAB1
 70
     6
  9
$SURFTAB2
 70
     6
  9
$SURFTYPE
 70
     6
  9
$SURFU
 70
     6
  9
$SURFV
 70
     6
  9
$UCSBASE
  2

  9
$UCSNAME
  2

  9
$UCSORG
 10
0.0
 20
0.0
 30
0.0
  9
$UCSXDIR
 10
1.0
 20
0.0
 30
0.0
  9
$UCSYDIR
 10
0.0
 20
1.0
 30
0.0
  9
$UCSORTHOREF
  2

  9
$UCSORTHOVIEW
 70
     0
  9
$UCSORGTOP
 10
0.0
 20
0.0
 30
0.0
  9
$UCSORGBOTTOM
 10
0.0
 20
0.0
 30
0.0
  9
$UCSORGLEFT
 10
0.0
 20
0.0
 30
0.0
  9
$UCSORGRIGHT
 10
0.0
 20
0.0
 30
0.0
  9
$UCSORGFRONT
 10
0.0
 20
0.0
 30
0.0
  9
$UCSORGBACK
 10
0.0
 20
0.0
 30
0.0
  9
$PUCSBASE
  2

  9
$PUCSNAME
  2

  9
$PUCSORG
 10
0.0
 20
0.0
 30
0.0
  9
$PUCSXDIR
 10
1.0
 20
0.0
 30
0.0
  9
$PUCSYDIR
 10
0.0
 20
1.0
 30
0.0
  9
$PUCSORTHOREF
  2

  9
$PUCSORTHOVIEW
 70
     0
  9
$PUCSORGTOP
 10
0.0
 20
0.0
 30
0.0
  9
$PUCSORGBOTTOM
 10
0.0
 20
0.0
 30
0.0
  9
$PUCSORGLEFT
 10
0.0
 20
0.0
 30
0.0
  9
$PUCSORGRIGHT
 10
0.0
 20
0.0
 30
0.0
  9
$PUCSORGFRONT
 10
0.0
 20
0.0
 30
0.0
  9
$PUCSORGBACK
 10
0.0
 20
0.0
 30
0.0
  9
$USERI1
 70
     0
  9
$USERI2
 70
     0
  9
$USERI3
 70
     0
  9
$USERI4
 70
     0
  9
$USERI5
 70
     0
  9
$USERR1
 40
0.0
  9
$USERR2
 40
0.0
  9
$USERR3
 40
0.0
  9
$USERR4
 40
0.0
  9
$USERR5
 40
0.0
  9
$WORLDVIEW
 70
     1
  9
$SHADEDGE
 70
     3
  9
$SHADEDIF
 70
    70
  9
$TILEMODE
 70
     1
  9
$MAXACTVP
 70
    64
  9
$PINSBASE
 10
0.0
 20
0.0
 30
0.0
  9
$PLIMCHECK
 70
     0
  9
$PEXTMIN
 10
1.000000000000000E+20
 20
1.000000000000000E+20
 30
1.000000000000000E+20
  9
$PEXTMAX
 10
-1.000000000000000E+20
 20
-1.000000000000000E+20
 30
-1.000000000000000E+20
  9
$PLIMMIN
 10
0.0
 20
0.0
  9
$PLIMMAX
 10
420.0
 20
297.0
  9
$UNITMODE
 70
     0
  9
$VISRETAIN
 70
     1
  9
$PLINEGEN
 70
     0
  9
$PSLTSCALE
 70
     1
  9
$TREEDEPTH
 70
  3020
  9
$CMLSTYLE
  2
STANDARD
  9
$CMLJUST
 70
     0
  9
$CMLSCALE
 40
20.0
  9
$PROXYGRAPHICS
 70
     1
  9
$MEASUREMENT
 70
     1
  9
$CELWEIGHT
370
    -1
  9
$ENDCAPS
280
     0
  9
$JOINSTYLE
280
     0
  9
$LWDISPLAY
290
     0
  9
$INSUNITS
 70
     4
  9
$HYPERLINKBASE
  1

  9
$STYLESHEET
  1
ASAMI.ctb
  9
$XEDIT
290
     1
  9
$CEPSNTYPE
380
     0
  9
$PSTYLEMODE
290
     1
  9
$FINGERPRINTGUID
  2
{C77AB3BE-9CA2-11D3-BAF3-006094EB760E}
  9
$VERSIONGUID
  2
{919D0F76-AFD7-4F54-B89B-0B53E24CB073}
  9
$EXTNAMES
290
     1
  9
$PSVPSCALE
 40
0.0
  9
$OLESTARTUP
290
     0
  0
ENDSEC
  0
SECTION
  2
CLASSES
  0
CLASS
  1
ACDBDICTIONARYWDFLT
  2
AcDbDictionaryWithDefault
  3
ObjectDBX Classes
 90
        0
280
     0
281
     0
  0
CLASS
  1
ACDBPLACEHOLDER
  2
AcDbPlaceHolder
  3
ObjectDBX Classes
 90
        0
280
     0
281
     0
  0
CLASS
  1
LAYOUT
  2
AcDbLayout
  3
ObjectDBX Classes
 90
        0
280
     0
281
     0
  0
CLASS
  1
ACME_DOCUMENT
  2
AcMeDbDoc
  3
AcMeServices
 90
        0
280
     0
281
     0
  0
CLASS
  1
ACMESCOPE
  2
AcMeScope
  3
AcMeServices
 90
        0
280
     0
281
     0
  0
CLASS
  1
ACMECOMMANDHISTORY
  2
AcMeCommandHistory
  3
AcMeServices
 90
        0
280
     0
281
     0
  0
CLASS
  1
DICTIONARYVAR
  2
AcDbDictionaryVar
  3
ObjectDBX Classes
 90
        0
280
     0
281
     0
  0
CLASS
  1
ACIMSYSVARMAN
  2
AcImSysVarManager
  3
AcMeServices
 90
        0
280
     0
281
     0
  0
CLASS
  1
ACIMREALSYSVAR
  2
AcImRealSysVar
  3
AcMeServices
 90
        0
280
     0
281
     0
  0
CLASS
  1
ACIMINTSYSVAR
  2
AcImIntSysVar
  3
AcMeServices
 90
        0
280
     0
281
     0
  0
CLASS
  1
ACMEDRAWINGMAN
  2
AcMeDrawingMan
  3
AcMeServices
 90
        0
280
     0
281
     0
  0
CLASS
  1
ACMEVIEW
  2
AcMeView
  3
AcMeServices
 90
        0
280
     0
281
     0
  0
CLASS
  1
ACDBENTITYCACHE
  2
AcMeEntityCache
  3
AcMeServices
 90
        0
280
     0
281
     0
  0
CLASS
  1
GSMANAGER
  2
AcMeGSManager
  3
AcMeServices
 90
        0
280
     0
281
     0
  0
CLASS
  1
AMDTINTERNALREACTOR
  2
AmdtInternalReactor
  3
AcMeServices
 90
        0
280
     0
281
     0
  0
CLASS
  1
ACMESTATEMGR
  2
AcMeStateMgr
  3
AcMeServices
 90
        0
280
     0
281
     0
  0
CLASS
  1
ACME_DATABASE
  2
AcMeDbDatabase
  3
AcMeServices
 90
        0
280
     0
281
     0
  0
CLASS
  1
ACRFINSADJUSTERMGR
  2
AcRfInsAdjusterMgr
  3
AcMeServices
 90
        0
280
     0
281
     0
  0
CLASS
  1
AMGSETTINGSOBJ
  2
AmgSettingsObj
  3
"AcadM|Product Description: AutoCAD Mechanical 2000|Company: Autodesk"
 90
        0
280
     0
281
     0
  0
CLASS
  1
AMGOBJPROPCFG
  2
AmgObjPropCfg
  3
"AmgLay|Product Description: AutoCAD Mechanical 2000|Company: Autodesk"
 90
        1
280
     0
281
     0
  0
CLASS
  1
ACMDATADICTIONARY
  2
AcmDataDictionary
  3
"AcmSymBB|Product Description: AutoCAD Mechanical 2004 DX|Company: Autodesk"
 90
        0
280
     0
281
     0
  0
CLASS
  1
ACMDATAENTRYBLOCK
  2
AcmDataEntryBlock
  3
"AcmSymBB|Product Description: AutoCAD Mechanical 2004 DX|Company: Autodesk"
 90
    32768
280
     0
281
     0
  0
CLASS
  1
ACIMSTRSYSVAR
  2
AcImStrSysVar
  3
AcMeServices
 90
        0
280
     0
281
     0
  0
CLASS
  1
ACAMGFILTERDAT
  2
AcAmgFilterDat
  3
"AcadM|Product Description: AutoCAD Mechanical 2000|Company: Autodesk"
 90
    32768
280
     0
281
     0
  0
CLASS
  1
LAYER_INDEX
  2
AcDbLayerIndex
  3
ObjectDBX Classes
 90
        0
280
     0
281
     0
  0
CLASS
  1
IDBUFFER
  2
AcDbIdBuffer
  3
ObjectDBX Classes
 90
        0
280
     0
281
     0
  0
CLASS
  1
ACMSTANDARDJIS
  2
AcmStandardJIS
  3
"Amdt_StdImp|Product Description: AutoCAD Mechanical 2004 DX|Company: Autodesk"
 90
    32768
280
     0
281
     0
  0
CLASS
  1
ACMSURFSTANDARDJIS
  2
AcmSurfTextStdJIS
  3
"Amdt_StdImp|Product Description: AutoCAD Mechanical 2004 DX|Company: Autodesk"
 90
    32768
280
     0
281
     0
  0
CLASS
  1
ACMFCFSTANDARDJIS
  2
AcmFCFStdJIS
  3
"Amdt_StdImp|Product Description: AutoCAD Mechanical 2004 DX|Company: Autodesk"
 90
    32768
280
     0
281
     0
  0
CLASS
  1
ACMWELDSTANDARDJIS
  2
AcmWeldingStdJIS
  3
"Amdt_StdImp|Product Description: AutoCAD Mechanical 2004 DX|Company: Autodesk"
 90
    32768
280
     0
281
     0
  0
CLASS
  1
ACMIDSTANDARDJIS
  2
AcmIdStdJIS
  3
"Amdt_StdImp|Product Description: AutoCAD Mechanical 2004 DX|Company: Autodesk"
 90
    32768
280
     0
281
     0
  0
CLASS
  1
ACMDATUMSTANDARDJIS
  2
AcmDatumStdJIS
  3
"Amdt_StdImp|Product Description: AutoCAD Mechanical 2004 DX|Company: Autodesk"
 90
    32768
280
     0
281
     0
  0
CLASS
  1
ACMBOMSTANDARDJIS
  2
AcmBOMStdJIS
  3
"Amdt_StdImp|Product Description: AutoCAD Mechanical 2004 DX|Company: Autodesk"
 90
    32768
280
     0
281
     0
  0
CLASS
  1
AMDTNOTE
  2
AmdtNote
  3
"AcmSymBB|Product Description: AutoCAD Mechanical 2004 DX|Company: Autodesk"
 90
    33791
280
     0
281
     1
  0
CLASS
  1
ACMDATAENTRYPART
  2
AcmDataEntryPart
  3
"AcmSymBB|Product Description: AutoCAD Mechanical 2004 DX|Company: Autodesk"
 90
    32768
280
     0
281
     0
  0
CLASS
  1
ACMPARTREF
  2
AcmPartRef
  3
"AcmSymBB|Product Description: AutoCAD Mechanical 2004 DX|Company: Autodesk"
 90
    33791
280
     0
281
     1
  0
CLASS
  1
ACDB_PROXY_ENTITY_DATA
  2
AcDbProxyEntityData
  3
ObjectDBX Classes
 90
    32768
280
     0
281
     0
  0
CLASS
  1
TABLESTYLE
  2
AcDbTableStyle
  3
ObjectDBX Classes
 90
     2047
280
     0
281
     0
  0
CLASS
  1
ACGREFMASTER
  2
AcGrefMaster
  3
AcAttribServices
 90
        0
280
     0
281
     0
  0
CLASS
  1
AM_DRAWING_MGR
  2
AcDmDwgMgr
  3
AcMechDwgViewMgmt
 90
        0
280
     0
281
     0
  0
CLASS
  1
AM_DWG_DOCUMENT
  2
AcDmDwgDocument
  3
AcMechDwgViewMgmt
 90
        0
280
     0
281
     0
  0
CLASS
  1
AM_DWG_SHEET
  2
AcDmSheet
  3
AcMechDwgViewMgmt
 90
        0
280
     0
281
     0
  0
CLASS
  1
AM_VIEWDIMPARMAP
  2
AcDmViewDimParMap
  3
AcMechDwgViewMgmt
 90
        0
280
     0
281
     0
  0
CLASS
  1
AM_DWGMGR_NAME
  2
AcDmDwgMgrName
  3
AcMechDwgViewMgmt
 90
        0
280
     0
281
     0
  0
CLASS
  1
ACGREFACADMASTER
  2
AcGrefacadMaster
  3
AcGrefServices
 90
        0
280
     0
281
     0
  0
CLASS
  1
AMDTMENUSTATEMGR
  2
AmdtMenuStateMgr
  3
McadcomServices
 90
        0
280
     0
281
     0
  0
CLASS
  1
AMDTMCOMMENUSTATE
  2
AmdtMcomMenuState
  3
McadcomServices
 90
        0
280
     0
281
     0
  0
CLASS
  1
AMIMASTER
  2
AmiMaster
  3
AmiServices
 90
        0
280
     0
281
     0
  0
CLASS
  1
MAPIAMMOUDLE
  2
MApiAmModule
  3
MApiAmServices
 90
        0
280
     0
281
     0
  0
CLASS
  1
AMDTADMENUSTATE
  2
AmdtAdMenuState
  3
DesignerServices
 90
        0
280
     0
281
     0
  0
CLASS
  1
ADAPPL
  2
AcAdAppl
  3
DesignerServices
 90
        0
280
     0
281
     0
  0
CLASS
  1
DEPMGR
  2
AcAdDepMgr
  3
DesignerServices
 90
        0
280
     0
281
     0
  0
CLASS
  1
PARAMMGR
  2
AcAdParamMgr
  3
DesignerServices
 90
        0
280
     0
281
     0
  0
CLASS
  1
PARAMSCOPE
  2
AcAdParamScope
  3
DesignerServices
 90
        0
280
     0
281
     0
  0
CLASS
  1
NAMEDAPPL
  2
AcAdNamedAppl
  3
DesignerServices
 90
        0
280
     0
281
     0
  0
CLASS
  1
AMDTDMMENUSTATE
  2
AmdtDmMenuState
  3
AcMechDwgViewMgmt
 90
        0
280
     0
281
     0
  0
CLASS
  1
AMDTAMMENUSTATE
  2
AmdtAmMenuState
  3
DesignerAssemblies
 90
        0
280
     0
281
     0
  0
CLASS
  1
ACAMPROJECT
  2
AcAmProject
  3
DesignerAssemblies
 90
        0
280
     0
281
     0
  0
CLASS
  1
ACAMGRCOMPDEF
  2
AcAmGrCompDef
  3
DesignerAssemblies
 90
        0
280
     0
281
     0
  0
CLASS
  1
ACCMCONTEXT
  2
AcCmContext
  3
DesignerAssemblies
 90
        0
280
     0
281
     0
  0
CLASS
  1
ACAMCOMPDEF
  2
AcAmCompDef
  3
DesignerAssemblies
 90
        0
280
     0
281
     0
  0
CLASS
  1
ACAMCOMPDEFMGR
  2
AcAmCompDefMgr
  3
DesignerAssemblies
 90
        0
280
     0
281
     0
  0
CLASS
  1
AMCONTEXTMGR
  2
AcAmContextMgr
  3
DesignerAssemblies
 90
        0
280
     0
281
     0
  0
CLASS
  1
ACAMCONTEXTMODELER
  2
AcAmContextModeler
  3
DesignerAssemblies
 90
        0
280
     0
281
     0
  0
CLASS
  1
CATALOGSTATE
  2
AcAmCatalogState
  3
DesignerAssemblies
 90
        0
280
     0
281
     0
  0
CLASS
  1
ACAMGRCOMPDEFSET
  2
AcAmGrCompDefSet
  3
DesignerAssemblies
 90
        0
280
     0
281
     0
  0
CLASS
  1
AMDTBROWSERDBTAB
  2
AmdtBrowserDbTab
  3
McadcomServices
 90
        0
280
     0
281
     0
  0
CLASS
  1
CBROWSERAPPOBJECT
  2
CBrowserAppObject
  3
McadcomServices
 90
        0
280
     0
281
     0
  0
CLASS
  1
DM_PLACEHOLDER
  2
AcDmSelsetPlaceholder
  3
AcMechDwgViewMgmt
 90
        0
280
     0
281
     0
  0
CLASS
  1
ACMSTANDARDISO
  2
AcmStandardISO
  3
"Amdt_StdImp|Product Description: AutoCAD Mechanical 2004 DX|Company: Autodesk"
 90
        0
280
     0
281
     0
  0
CLASS
  1
AMDTEDGESTANDARDISO13715
  2
AmdtEdgeStdISO13715
  3
"Amdt_StdImp|Product Description: AutoCAD Mechanical 2004 DX|Company: Autodesk"
 90
        0
280
     0
281
     0
  0
CLASS
  1
ACMSURFSTANDARDISO
  2
AcmSurfTextStdISO
  3
"Amdt_StdImp|Product Description: AutoCAD Mechanical 2004 DX|Company: Autodesk"
 90
        0
280
     0
281
     0
  0
CLASS
  1
ACMFCFSTANDARDISO
  2
AcmFCFStdISO
  3
"Amdt_StdImp|Product Description: AutoCAD Mechanical 2004 DX|Company: Autodesk"
 90
        0
280
     0
281
     0
  0
CLASS
  1
ACMWELDSTANDARDISO
  2
AcmWeldingStdISO
  3
"Amdt_StdImp|Product Description: AutoCAD Mechanical 2004 DX|Company: Autodesk"
 90
        0
280
     0
281
     0
  0
CLASS
  1
ACMIDSTANDARDISO
  2
AcmIdStdISO
  3
"Amdt_StdImp|Product Description: AutoCAD Mechanical 2004 DX|Company: Autodesk"
 90
        0
280
     0
281
     0
  0
CLASS
  1
ACMDATUMSTANDARDISO
  2
AcmDatumStdISO
  3
"Amdt_StdImp|Product Description: AutoCAD Mechanical 2004 DX|Company: Autodesk"
 90
        0
280
     0
281
     0
  0
CLASS
  1
ACMBOMSTANDARDISO
  2
AcmBOMStdISO
  3
"Amdt_StdImp|Product Description: AutoCAD Mechanical 2004 DX|Company: Autodesk"
 90
        0
280
     0
281
     0
  0
CLASS
  1
ACMDETAILSTANDARDISO
  2
AmdtDetailSymStdISO
  3
"Amdt_StdImp|Product Description: AutoCAD Mechanical 2004 DX|Company: Autodesk"
 90
        0
280
     0
281
     0
  0
CLASS
  1
ACMSECTIONSTANDARDISO
  2
AmdtSectionSymStdISO
  3
"Amdt_StdImp|Product Description: AutoCAD Mechanical 2004 DX|Company: Autodesk"
 90
        0
280
     0
281
     0
  0
CLASS
  1
ACMCENTERLINESTANDARDISO
  2
AmdtCenterLineStdISO
  3
"Amdt_StdImp|Product Description: AutoCAD Mechanical 2004 DX|Company: Autodesk"
 90
        0
280
     0
281
     0
  0
CLASS
  1
ACMTHREADLINESTANDARDISO
  2
AmdtThreadLineStdISO
  3
"Amdt_StdImp|Product Description: AutoCAD Mechanical 2004 DX|Company: Autodesk"
 90
        0
280
     0
281
     0
  0
CLASS
  1
ACMNOTESTANDARDISO
  2
AmdtNoteStdISO
  3
"Amdt_StdImp|Product Description: AutoCAD Mechanical 2004 DX|Company: Autodesk"
 90
        0
280
     0
281
     0
  0
CLASS
  1
AMDTNOTETEMPLATEDB
  2
AmdtNoteTemplateDB
  3
AMDT_STDIMP_MODULE_NAME
 90
        0
280
     0
281
     0
  0
CLASS
  1
ACAMGLAYSTD
  2
AcAmgLayStd
  3
"AcAmgLayStd|Product Description: AutoCAD Mechanical 2000|Company: Autodesk"
 90
        0
280
     0
281
     0
  0
CLASS
  1
ACAMGDIMSTD
  2
AcAmgDimStd
  3
"AcAmgDimStd|Product Description: AutoCAD Mechanical 2000|Company: Autodesk"
 90
        0
280
     0
281
     0
  0
CLASS
  1
ACAMGHOLECHARTSTDISO
  2
AcAmgHoleChartStdISO
  3
ACMSYMBB_MODULE_NAME
 90
        0
280
     0
281
     0
  0
CLASS
  1
ACAMGTITLESTD
  2
AcAmgTitleStd
  3
"TITLEAPP"
 90
        0
280
     0
281
     0
  0
ENDSEC
  0
SECTION
  2
TABLES
  0
TABLE
  2
VPORT
  5
8
330
0
100
AcDbSymbolTable
 70
     3
  0
VPORT
  5
B50C
330
8
100
AcDbSymbolTableRecord
100
AcDbViewportTableRecord
  2
*Active
 70
     0
 10
0.0
 20
0.0
 11
1.0
 21
1.0
 12
50.21777861884245
 22
-22.091154491574
 13
0.0
 23
0.0
 14
2.5
 24
2.5
 15
10.0
 25
10.0
 16
0.0
 26
0.0
 36
1.0
 17
0.0
 27
0.0
 37
0.0
 40
200.230689867418
 41
2.176400476758045
 42
50.0
 43
0.0
 44
0.0
 50
0.0
 51
0.0
 71
     0
 72
  2000
 73
     1
 74
     3
 75
     0
 76
     0
 77
     0
 78
     0
281
     0
 65
     0
110
0.0
120
0.0
130
0.0
111
1.0
121
0.0
131
0.0
112
0.0
122
1.0
132
0.0
 79
     0
146
0.0
  0
ENDTAB
  0
TABLE
  2
LTYPE
  5
5
330
0
100
AcDbSymbolTable
 70
    17
  0
LTYPE
  5
14
330
5
100
AcDbSymbolTableRecord
100
AcDbLinetypeTableRecord
  2
BYBLOCK
 70
     0
  3

 72
    65
 73
     0
 40
0.0
  0
LTYPE
  5
15
330
5
100
AcDbSymbolTableRecord
100
AcDbLinetypeTableRecord
  2
BYLAYER
 70
     0
  3

 72
    65
 73
     0
 40
0.0
  0
LTYPE
  5
16
330
5
100
AcDbSymbolTableRecord
100
AcDbLinetypeTableRecord
  2
CONTINUOUS
 70
     0
  3
Solid line
 72
    65
 73
     0
 40
0.0
  0
LTYPE
  5
43
330
5
100
AcDbSymbolTableRecord
100
AcDbLinetypeTableRecord
  2
AM_ISO02W050
 70
     0
  3
__ __ __ __ __ __ __ __ __ __ __ __ __ __ __
 72
    65
 73
     2
 40
7.5
 49
6.0
 74
     0
 49
-1.5
 74
     0
  0
LTYPE
  5
44
330
5
100
AcDbSymbolTableRecord
100
AcDbLinetypeTableRecord
  2
AM_ISO08W050
 70
     0
  3
____ . ____ . ____ . ____ . ____ . ____ . ____
 72
    65
 73
     4
 40
18.0
 49
12.0
 74
     0
 49
-1.5
 74
     0
 49
3.0
 74
     0
 49
-1.5
 74
     0
  0
LTYPE
  5
45
330
5
100
AcDbSymbolTableRecord
100
AcDbLinetypeTableRecord
  2
AM_ISO09W050
 70
     0
  3
_____ . . _____ . . _____ . . ____ .. ____
 72
    65
 73
     6
 40
22.5
 49
12.0
 74
     0
 49
-1.5
 74
     0
 49
3.0
 74
     0
 49
-1.5
 74
     0
 49
3.0
 74
     0
 49
-1.5
 74
     0
  0
LTYPE
  5
46
330
5
100
AcDbSymbolTableRecord
100
AcDbLinetypeTableRecord
  2
AMCONSTR
 70
     0
  3
_______________________
 72
    65
 73
     2
 40
9999.0
 49
9999.0
 74
     0
 49
0.0
 74
     0
  0
LTYPE
  5
47
330
5
100
AcDbSymbolTableRecord
100
AcDbLinetypeTableRecord
  2
AM_ISO02W050X2
 70
     0
  3
 _ _ _ _ _ _ _ _ _ _ _ _
 72
    65
 73
     2
 40
3.75
 49
3.0
 74
     0
 49
-0.75
 74
     0
  0
LTYPE
  5
48
330
5
100
AcDbSymbolTableRecord
100
AcDbLinetypeTableRecord
  2
AM_ISO08W050X2
 70
     0
  3
__ . __ . __ . __ . __ . __
 72
    65
 73
     4
 40
9.0
 49
6.0
 74
     0
 49
-0.75
 74
     0
 49
1.5
 74
     0
 49
-0.75
 74
     0
  0
LTYPE
  5
4B
330
5
100
AcDbSymbolTableRecord
100
AcDbLinetypeTableRecord
  2
AMZIGZAG
 70
     0
  3
/\/-/\/-/\/-/\/-/\/-/\/
 72
    65
 73
     2
 40
11.00009999999999
 49
0.0001
 74
     4
 75
   135
340
4A
 46
0.04
 50
0.0
 44
0.0
 45
0.0
 49
-11.0
 74
     0
  0
LTYPE
  5
A2E3
330
5
100
AcDbSymbolTableRecord
100
AcDbLinetypeTableRecord
  2
PHANTOM
 70
     0
  3
Phantom ______  __  __  ______  __  __  ______
 72
    65
 73
     6
 40
63.5
 49
31.75
 74
     0
 49
-6.349999999999998
 74
     0
 49
6.349999999999998
 74
     0
 49
-6.349999999999998
 74
     0
 49
6.349999999999998
 74
     0
 49
-6.349999999999998
 74
     0
  0
LTYPE
  5
B44D
330
5
100
AcDbSymbolTableRecord
100
AcDbLinetypeTableRecord
  2
HIDDEN
 70
     0
  3
Hidden __ __ __ __ __ __ __ __ __ __ __ __ __ _
 72
    65
 73
     2
 40
9.524999999999998
 49
6.349999999999999
 74
     0
 49
-3.174999999999999
 74
     0
  0
LTYPE
  5
B44E
330
5
100
AcDbSymbolTableRecord
100
AcDbLinetypeTableRecord
  2
PHANTOM2
 70
     0
  3
Phantom (.5x) ___ _ _ ___ _ _ ___ _ _ ___ _ _
 72
    65
 73
     6
 40
31.75
 49
15.875
 74
     0
 49
-3.174999999999999
 74
     0
 49
3.174999999999999
 74
     0
 49
-3.174999999999999
 74
     0
 49
3.174999999999999
 74
     0
 49
-3.174999999999999
 74
     0
  0
LTYPE
  5
B44F
330
5
100
AcDbSymbolTableRecord
100
AcDbLinetypeTableRecord
  2
CENTER
 70
     0
  3
Center ____ _ ____ _ ____ _ ____ _ ____ _ ____
 72
    65
 73
     4
 40
50.8
 49
31.75
 74
     0
 49
-6.349999999999999
 74
     0
 49
6.349999999999999
 74
     0
 49
-6.349999999999999
 74
     0
  0
LTYPE
  5
B48F
330
5
100
AcDbSymbolTableRecord
100
AcDbLinetypeTableRecord
  2
ACISOWELD
 70
     0
  3
_ _ _ _ _
 72
    65
 73
     2
 40
2.0
 49
2.0
 74
     0
 49
-1.0
 74
     0
  0
LTYPE
  5
B490
330
5
100
AcDbSymbolTableRecord
100
AcDbLinetypeTableRecord
  2
ACISOTGB
 70
     0
  3
__ . . __ . .
 72
    65
 73
     6
 40
9.0
 49
4.0
 74
     0
 49
-1.0
 74
     0
 49
1.0
 74
     0
 49
-1.0
 74
     0
 49
1.0
 74
     0
 49
-1.0
 74
     0
  0
LTYPE
  5
B491
330
5
100
AcDbSymbolTableRecord
100
AcDbLinetypeTableRecord
  2
ACISOTGL
 70
     0
  3
_ _ _ _ _
 72
    65
 73
     2
 40
3.0
 49
2.0
 74
     0
 49
-1.0
 74
     0
  0
ENDTAB
  0
TABLE
  2
LAYER
  5
2
330
0
100
AcDbSymbolTable
 70
    13
  0
LAYER
  5
10
330
2
100
AcDbSymbolTableRecord
100
AcDbLayerTableRecord
  2
0
 70
     0
 62
     7
  6
CONTINUOUS
370
    -3
390
F
  0
LAYER
  5
7D
330
2
100
AcDbSymbolTableRecord
100
AcDbLayerTableRecord
  2
AM_5
 70
     0
 62
     3
  6
CONTINUOUS
370
    -3
390
F
  0
LAYER
  5
7F
330
2
100
AcDbSymbolTableRecord
100
AcDbLayerTableRecord
  2
DEFPOINTS
 70
     0
 62
     7
  6
CONTINUOUS
290
     0
370
    -3
390
F
  0
LAYER
  5
12B1
330
2
100
AcDbSymbolTableRecord
100
AcDbLayerTableRecord
  2
AM_0
 70
     0
 62
     7
  6
CONTINUOUS
370
    -3
390
F
  0
LAYER
  5
2222
330
2
100
AcDbSymbolTableRecord
100
AcDbLayerTableRecord
  2
AM_6
 70
     0
 62
     2
  6
CONTINUOUS
370
    -3
390
F
  0
LAYER
  5
7DB2
330
2
100
AcDbSymbolTableRecord
100
AcDbLayerTableRecord
  2
AM_7
 70
     0
 62
     4
  6
AM_ISO08W050
370
    -3
390
F
  0
LAYER
  5
7DB3
330
2
100
AcDbSymbolTableRecord
100
AcDbLayerTableRecord
  2
AM_4
 70
     0
 62
     3
  6
CONTINUOUS
370
    -3
390
F
  0
LAYER
  5
A2E4
330
2
100
AcDbSymbolTableRecord
100
AcDbLayerTableRecord
  2
AM_11
 70
     0
 62
     3
  6
PHANTOM
370
    -3
390
F
  0
ENDTAB
  0
TABLE
  2
STYLE
  5
3
330
0
100
AcDbSymbolTable
 70
     6
  0
STYLE
  5
11
330
3
100
AcDbSymbolTableRecord
100
AcDbTextStyleTableRecord
  2
STANDARD
 70
     0
 40
0.0
 41
1.0
 50
0.0
 71
     0
 42
2.5
  3
ISOCP.SHX
  4
EXTFONT.SHX
  0
STYLE
  5
4A
330
3
100
AcDbSymbolTableRecord
100
AcDbTextStyleTableRecord
  2

 70
     1
 40
0.0
 41
1.0
 50
0.0
 71
     0
 42
2.5
  3
ltypeshp.shx
  4

  0
STYLE
  5
B481
330
3
100
AcDbSymbolTableRecord
100
AcDbTextStyleTableRecord
  2
ACISOTS
 70
     0
 40
1.0
 41
1.0
 50
0.0
 71
     0
 42
2.5
  3
isocp.shx
  4
extfont.shx
  0
STYLE
  5
B48E
330
3
100
AcDbSymbolTableRecord
100
AcDbTextStyleTableRecord
  2
ACISOGDT
 70
     0
 40
0.0
 41
1.0
 50
0.0
 71
     0
 42
2.5
  3
amgdt.shx
  4

  0
ENDTAB
  0
TABLE
  2
VIEW
  5
6
330
0
100
AcDbSymbolTable
 70
     6
  0
VIEW
  5
A30
330
6
100
AcDbSymbolTableRecord
100
AcDbViewTableRecord
  2
AM_VIEW1
 70
     0
 40
148.5
 10
112.0719649561952
 20
222.75
 41
224.1439299123904
 11
0.0
 21
0.0
 31
1.0
 12
0.0
 22
0.0
 32
0.0
 42
50.0
 43
0.0
 44
0.0
 50
0.0
 71
     0
281
     0
 72
     0
  0
VIEW
  5
A31
330
6
100
AcDbSymbolTableRecord
100
AcDbViewTableRecord
  2
AM_VIEW2
 70
     0
 40
148.5
 10
307.9280350438047
 20
222.75
 41
224.1439299123904
 11
0.0
 21
0.0
 31
1.0
 12
0.0
 22
0.0
 32
0.0
 42
50.0
 43
0.0
 44
0.0
 50
0.0
 71
     0
281
     0
 72
     0
  0
VIEW
  5
A32
330
6
100
AcDbSymbolTableRecord
100
AcDbViewTableRecord
  2
AM_VIEW3
 70
     0
 40
148.5
 10
112.0719649561952
 20
74.25
 41
224.1439299123904
 11
0.0
 21
0.0
 31
1.0
 12
0.0
 22
0.0
 32
0.0
 42
50.0
 43
0.0
 44
0.0
 50
0.0
 71
     0
281
     0
 72
     0
  0
VIEW
  5
A33
330
6
100
AcDbSymbolTableRecord
100
AcDbViewTableRecord
  2
AM_VIEW4
 70
     0
 40
148.5
 10
307.9280350438047
 20
74.25
 41
224.1439299123904
 11
0.0
 21
0.0
 31
1.0
 12
0.0
 22
0.0
 32
0.0
 42
50.0
 43
0.0
 44
0.0
 50
0.0
 71
     0
281
     0
 72
     0
  0
VIEW
  5
A34
330
6
100
AcDbSymbolTableRecord
100
AcDbViewTableRecord
  2
AM_VIEW5
 70
     0
 40
148.5
 10
210.0
 20
148.5
 41
224.1439299123904
 11
0.0
 21
0.0
 31
1.0
 12
0.0
 22
0.0
 32
0.0
 42
50.0
 43
0.0
 44
0.0
 50
0.0
 71
     0
281
     0
 72
     0
  0
VIEW
  5
A35
330
6
100
AcDbSymbolTableRecord
100
AcDbViewTableRecord
  2
AM_VIEW6
 70
     0
 40
296.9970299999999
 10
210.0
 20
148.5
 41
448.2833769461826
 11
0.0
 21
0.0
 31
1.0
 12
0.0
 22
0.0
 32
0.0
 42
50.0
 43
0.0
 44
0.0
 50
0.0
 71
     0
281
     0
 72
     0
  0
ENDTAB
  0
TABLE
  2
UCS
  5
7
330
0
100
AcDbSymbolTable
 70
     0
  0
ENDTAB
  0
TABLE
  2
APPID
  5
9
330
0
100
AcDbSymbolTable
 70
    42
  0
APPID
  5
12
330
9
100
AcDbSymbolTableRecord
100
AcDbRegAppTableRecord
  2
ACAD
 70
     0
  0
APPID
  5
2C
330
9
100
AcDbSymbolTableRecord
100
AcDbRegAppTableRecord
  2
MCAD_NO_VIS
 70
     0
  0
APPID
  5
2D
330
9
100
AcDbSymbolTableRecord
100
AcDbRegAppTableRecord
  2
ACAD_TEMP_GRAPHIC
 70
     0
  0
APPID
  5
B9
330
9
100
AcDbSymbolTableRecord
100
AcDbRegAppTableRecord
  2
GENIUS_GENDTOL_13
 70
     0
  0
APPID
  5
359
330
9
100
AcDbSymbolTableRecord
100
AcDbRegAppTableRecord
  2
GENIUS_GENREC_14
 70
     0
  0
APPID
  5
35A
330
9
100
AcDbSymbolTableRecord
100
AcDbRegAppTableRecord
  2
GENIUS_GENODEF_13
 70
     0
  0
APPID
  5
35B
330
9
100
AcDbSymbolTableRecord
100
AcDbRegAppTableRecord
  2
GENIUS_GENOBJ-N-REC_13
 70
     0
  0
APPID
  5
667
330
9
100
AcDbSymbolTableRecord
100
AcDbRegAppTableRecord
  2
GENIUS_GENCFG_13
 70
     0
  0
APPID
  5
668
330
9
100
AcDbSymbolTableRecord
100
AcDbRegAppTableRecord
  2
GENIUS_GENCFG0_13
 70
     0
  0
APPID
  5
669
330
9
100
AcDbSymbolTableRecord
100
AcDbRegAppTableRecord
  2
GENIUS_GENCFG1_13
 70
     0
  0
APPID
  5
66A
330
9
100
AcDbSymbolTableRecord
100
AcDbRegAppTableRecord
  2
GENIUS_GENCFG2_13
 70
     0
  0
APPID
  5
66B
330
9
100
AcDbSymbolTableRecord
100
AcDbRegAppTableRecord
  2
GENIUS_GENCFG3_13
 70
     0
  0
APPID
  5
66C
330
9
100
AcDbSymbolTableRecord
100
AcDbRegAppTableRecord
  2
GENIUS_GENCFG4_13
 70
     0
  0
APPID
  5
A76
330
9
100
AcDbSymbolTableRecord
100
AcDbRegAppTableRecord
  2
GENIUS_GENBLLY_14
 70
     0
  0
APPID
  5
A77
330
9
100
AcDbSymbolTableRecord
100
AcDbRegAppTableRecord
  2
GENIUS_GENOBJ-N-CEN_13
 70
     0
  0
APPID
  5
A83
330
9
100
AcDbSymbolTableRecord
100
AcDbRegAppTableRecord
  2
GENIUS_GENTRA_14
 70
     0
  0
APPID
  5
A8D
330
9
100
AcDbSymbolTableRecord
100
AcDbRegAppTableRecord
  2
GENIUS_GENOBJ-N-TIT_13
 70
     0
  0
APPID
  5
A8E
330
9
100
AcDbSymbolTableRecord
100
AcDbRegAppTableRecord
  2
GENIUS_GENTITLE_13
 70
     0
  0
APPID
  5
A8F
330
9
100
AcDbSymbolTableRecord
100
AcDbRegAppTableRecord
  2
GENIUS_GENOENT_13
 70
     0
  0
APPID
  5
A90
330
9
100
AcDbSymbolTableRecord
100
AcDbRegAppTableRecord
  2
GENIUS_GENOREF_13
 70
     0
  0
APPID
  5
A91
330
9
100
AcDbSymbolTableRecord
100
AcDbRegAppTableRecord
  2
GENIUS_GENOLIS_13
 70
     0
  0
APPID
  5
A92
330
9
100
AcDbSymbolTableRecord
100
AcDbRegAppTableRecord
  2
GENIUS_GENZVEED_13
 70
     0
  0
APPID
  5
A93
330
9
100
AcDbSymbolTableRecord
100
AcDbRegAppTableRecord
  2
GENIUS_GENSCREG_15
 70
     0
  0
APPID
  5
A94
330
9
100
AcDbSymbolTableRecord
100
AcDbRegAppTableRecord
  2
GENIUS_GENOBJ-N-SDF_13
 70
     0
  0
APPID
  5
12B5
330
9
100
AcDbSymbolTableRecord
100
AcDbRegAppTableRecord
  2
GENIUS_GENOBJ-N-RSBK_13
 70
     0
  0
APPID
  5
12B6
330
9
100
AcDbSymbolTableRecord
100
AcDbRegAppTableRecord
  2
GENIUS_GENOBJ-N-LIB_13
 70
     0
  0
APPID
  5
12B7
330
9
100
AcDbSymbolTableRecord
100
AcDbRegAppTableRecord
  2
GENIUS_GENSCALE_13
 70
     0
  0
APPID
  5
12B8
330
9
100
AcDbSymbolTableRecord
100
AcDbRegAppTableRecord
  2
GENIUS_GENOBJ-N-HTC_13
 70
     0
  0
APPID
  5
12B9
330
9
100
AcDbSymbolTableRecord
100
AcDbRegAppTableRecord
  2
GENIUS_GENHATCH_13
 70
     0
  0
APPID
  5
1C0A
330
9
100
AcDbSymbolTableRecord
100
AcDbRegAppTableRecord
  2
BASE_TYPE
 70
     0
  0
APPID
  5
276B
330
9
100
AcDbSymbolTableRecord
100
AcDbRegAppTableRecord
  2
GENIUS_GENOBJ-N-FIL_13
 70
     0
  0
APPID
  5
3640
330
9
100
AcDbSymbolTableRecord
100
AcDbRegAppTableRecord
  2
GENIUS_GENBH_13
 70
     0
  0
APPID
  5
36D1
330
9
100
AcDbSymbolTableRecord
100
AcDbRegAppTableRecord
  2
GENIUS_GENOBJ-F-SPR_13
 70
     0
  0
APPID
  5
36DA
330
9
100
AcDbSymbolTableRecord
100
AcDbRegAppTableRecord
  2
GENIUS_GEFSPRING_13
 70
     0
  0
APPID
  5
36DB
330
9
100
AcDbSymbolTableRecord
100
AcDbRegAppTableRecord
  2
GENIUS_GEFSPRINGP_13
 70
     0
  0
APPID
  5
4D67
330
9
100
AcDbSymbolTableRecord
100
AcDbRegAppTableRecord
  2
GENIUS_GENFIL_13
 70
     0
  0
APPID
  5
4D68
330
9
100
AcDbSymbolTableRecord
100
AcDbRegAppTableRecord
  2
GENIUS_GENOBJ-N-CHA_13
 70
     0
  0
APPID
  5
B451
330
9
100
AcDbSymbolTableRecord
100
AcDbRegAppTableRecord
  2
AD_DRAW
 70
     0
  0
APPID
  5
B454
330
9
100
AcDbSymbolTableRecord
100
AcDbRegAppTableRecord
  2
ACATTRIBSERVICES
 70
     0
  0
APPID
  5
B472
330
9
100
AcDbSymbolTableRecord
100
AcDbRegAppTableRecord
  2
DESIGNERASSEMBLIES
 70
     0
  0
APPID
  5
B477
330
9
100
AcDbSymbolTableRecord
100
AcDbRegAppTableRecord
  2
ACADM_DIM_EDIT
 70
     0
  0
APPID
  5
B478
330
9
100
AcDbSymbolTableRecord
100
AcDbRegAppTableRecord
  2
AMDT_DM_ADJ
 70
     0
  0
ENDTAB
  0
TABLE
  2
DIMSTYLE
  5
A
330
0
100
AcDbSymbolTable
 70
    20
100
AcDbDimStyleTable
 71
     0
  0
DIMSTYLE
105
58
330
A
100
AcDbSymbolTableRecord
100
AcDbDimStyleTableRecord
  2
AM_JIS
 70
     0
  4
"
 41
2.5
 42
0.0
 43
10.0
 44
1.0
 47
0.1
 48
0.1000000001
 73
     0
 74
     0
 77
     3
 78
     9
140
3.799999999999998
141
0.0
143
0.0393701
146
0.71
147
1.5
172
     1
176
   256
177
   256
178
     2
271
     2
272
     2
275
     1
283
     0
284
     8
340
11
341
59
342
59
  0
DIMSTYLE
105
5F
102
{ACAD_REACTORS
330
AD6B
102
}
330
A
100
AcDbSymbolTableRecord
100
AcDbDimStyleTableRecord
  2
AM_JIS$3
 70
     0
  4
"
 41
2.5
 42
0.0
 43
10.0
 44
1.0
 47
0.1
 48
0.1000000001
 73
     0
 77
     3
 78
     9
140
3.799999999999998
141
0.0
143
0.0393701
146
0.71
147
1.5
172
     1
176
   256
177
   256
178
     2
271
     2
272
     2
275
     1
283
     0
284
     8
288
     1
340
11
341
59
342
59
  0
DIMSTYLE
105
65F
330
A
100
AcDbSymbolTableRecord
100
AcDbDimStyleTableRecord
  2
STANDARD
 70
     0
340
11
  0
DIMSTYLE
105
1761
102
{ACAD_REACTORS
330
AD75
330
AD82
330
ADCD
330
ADDA
330
ADE7
330
AE11
330
AE5F
330
B289
330
B2AF
102
}
330
A
100
AcDbSymbolTableRecord
100
AcDbDimStyleTableRecord
  2
AM_JIS$0
 70
     0
  4
"
 41
2.5
 42
0.0
 43
10.0
 44
1.0
 47
0.1
 48
0.1000000001
 73
     0
 74
     0
 77
     3
 78
     9
140
3.799999999999998
141
0.0
143
0.0393701
146
0.71
147
1.5
172
     1
176
     3
177
     3
178
     2
271
     2
272
     2
275
     1
283
     0
284
     8
340
11
341
59
342
59
  0
DIMSTYLE
105
B49A
330
A
100
AcDbSymbolTableRecord
100
AcDbDimStyleTableRecord
  2
AM_ISO
 70
     0
  4
"
 41
2.5
 42
1.0
 43
10.0
 44
1.0
 47
0.1
 48
0.1
 73
     0
 74
     0
 77
     1
 78
     8
 79
     2
140
3.5
141
0.0
143
0.0393701
146
0.71
147
1.5
172
     1
176
   256
177
   256
178
     2
271
     2
272
     3
274
     4
283
     0
284
     8
340
11
371
    -1
372
    -1
  0
DIMSTYLE
105
B49B
330
A
100
AcDbSymbolTableRecord
100
AcDbDimStyleTableRecord
  2
AM_ISO$3
 70
     0
  4
"
 41
2.5
 42
1.0
 43
10.0
 44
1.0
 47
0.1
 48
0.1
 73
     0
 77
     1
 78
     8
 79
     2
140
3.5
141
0.0
143
0.0393701
146
0.71
147
1.5
176
   256
177
   256
178
     2
271
     2
272
     3
274
     4
283
     0
284
     8
288
     1
289
     0
340
11
371
    -1
372
    -1
  0
DIMSTYLE
105
B49C
330
A
100
AcDbSymbolTableRecord
100
AcDbDimStyleTableRecord
  2
AM_ISO$4
 70
     0
  4
"
 41
2.5
 42
1.0
 43
10.0
 44
1.0
 47
0.1
 48
0.1
 73
     0
 77
     1
 78
     8
 79
     2
140
3.5
141
0.0
143
0.0393701
146
0.71
147
1.5
176
   256
177
   256
178
     2
271
     2
272
     3
274
     4
283
     0
284
     8
288
     1
289
     0
340
11
371
    -1
372
    -1
  0
DIMSTYLE
105
B49D
330
A
100
AcDbSymbolTableRecord
100
AcDbDimStyleTableRecord
  2
AM_ISO$6
 70
     0
  4
"
 41
2.5
 42
1.0
 43
10.0
 44
1.0
 47
0.1
 48
0.1
 73
     0
 74
     0
 78
     8
 79
     2
140
3.5
141
0.0
143
0.0393701
146
0.71
147
1.5
172
     1
176
   256
177
   256
178
     2
271
     2
272
     3
274
     4
283
     0
284
     8
340
11
371
    -1
372
    -1
  0
DIMSTYLE
105
B49E
330
A
100
AcDbSymbolTableRecord
100
AcDbDimStyleTableRecord
  2
AM_ISO$7
 70
     0
  4
"
 41
2.5
 42
1.0
 43
10.0
 44
1.0
 47
0.1
 48
0.1
 73
     0
 74
     0
 77
     1
 78
     8
 79
     2
140
5.0
141
0.0
143
0.0393701
146
0.71
147
1.5
172
     1
176
   256
177
   256
178
     2
271
     2
272
     3
274
     4
283
     0
284
     8
340
11
371
    -1
372
    -1
  0
DIMSTYLE
105
B49F
330
A
100
AcDbSymbolTableRecord
100
AcDbDimStyleTableRecord
  2
AM_ISO$SF
 70
     0
  4
"
 41
2.5
 42
1.0
 43
10.0
 44
1.0
 47
0.1
 48
0.1
 73
     0
 74
     0
 75
     1
 76
     1
 77
     1
 78
     8
 79
     2
140
3.5
141
0.0
143
0.0393701
146
0.71
147
1.5
172
     1
176
   256
177
   256
178
     2
271
     2
272
     3
274
     4
283
     0
284
     8
340
11
371
    -1
372
    -1
  0
DIMSTYLE
105
B4A0
330
A
100
AcDbSymbolTableRecord
100
AcDbDimStyleTableRecord
  2
AM_ISO$SH
 70
     0
  4
"
 41
2.5
 42
1.0
 43
10.0
 44
1.0
 47
0.1
 48
0.1
 73
     0
 74
     0
 75
     1
 76
     1
 77
     1
 78
     8
 79
     2
140
3.5
141
0.0
143
0.0393701
144
2.0
146
0.71
147
1.5
172
     1
173
     1
176
   256
177
   256
178
     2
271
     2
272
     3
274
     4
283
     0
284
     8
340
11
343
64
371
    -1
372
    -1
  0
ENDTAB
  0
TABLE
  2
BLOCK_RECORD
  5
1
330
0
100
AcDbSymbolTable
 70
    20
  0
BLOCK_RECORD
  5
1F
102
{ACAD_XDICTIONARY
360
165
102
}
330
1
100
AcDbSymbolTableRecord
100
AcDbBlockTableRecord
  2
*MODEL_SPACE
340
B419
  0
BLOCK_RECORD
  5
1B
102
{ACAD_XDICTIONARY
360
B40C
102
}
330
1
100
AcDbSymbolTableRecord
100
AcDbBlockTableRecord
  2
*PAPER_SPACE
340
B41A
  0
BLOCK_RECORD
  5
59
330
1
100
AcDbSymbolTableRecord
100
AcDbBlockTableRecord
  2
_OPEN30
340
0
102
{BLKREFS
331
B4AF
331
B4B5
331
B4B6
331
B4C0
331
B4C1
331
B4C9
331
B4CA
331
B4D2
331
B4D3
331
B4DD
331
B4DE
331
B4E6
331
B4E7
331
B4EF
331
B4F0
331
B4FA
331
B4FB
331
B503
331
B504
102
}
  0
BLOCK_RECORD
  5
64
330
1
100
AcDbSymbolTableRecord
100
AcDbBlockTableRecord
  2
GENAXEH
340
0
  0
BLOCK_RECORD
  5
AD28
330
1
100
AcDbSymbolTableRecord
100
AcDbBlockTableRecord
  2
CBF08
340
0
102
{BLKREFS
331
B1FF
102
}
  0
BLOCK_RECORD
  5
AD34
330
1
100
AcDbSymbolTableRecord
100
AcDbBlockTableRecord
  2
CBS0800
340
0
102
{BLKREFS
331
AD46
102
}
  0
BLOCK_RECORD
  5
AD6C
330
1
100
AcDbSymbolTableRecord
100
AcDbBlockTableRecord
  2
*D9
340
0
  0
BLOCK_RECORD
  5
AD76
330
1
100
AcDbSymbolTableRecord
100
AcDbBlockTableRecord
  2
*D10
340
0
  0
BLOCK_RECORD
  5
AD83
330
1
100
AcDbSymbolTableRecord
100
AcDbBlockTableRecord
  2
*D11
340
0
  0
BLOCK_RECORD
  5
ADCE
330
1
100
AcDbSymbolTableRecord
100
AcDbBlockTableRecord
  2
*D12
340
0
  0
BLOCK_RECORD
  5
ADDB
330
1
100
AcDbSymbolTableRecord
100
AcDbBlockTableRecord
  2
*D13
340
0
  0
BLOCK_RECORD
  5
ADE8
330
1
100
AcDbSymbolTableRecord
100
AcDbBlockTableRecord
  2
*D14
340
0
  0
BLOCK_RECORD
  5
AE12
330
1
100
AcDbSymbolTableRecord
100
AcDbBlockTableRecord
  2
*D15
340
0
  0
BLOCK_RECORD
  5
AE60
330
1
100
AcDbSymbolTableRecord
100
AcDbBlockTableRecord
  2
*D16
340
0
  0
BLOCK_RECORD
  5
B28A
330
1
100
AcDbSymbolTableRecord
100
AcDbBlockTableRecord
  2
*D17
340
0
  0
BLOCK_RECORD
  5
B2B0
330
1
100
AcDbSymbolTableRecord
100
AcDbBlockTableRecord
  2
*D18
340
0
  0
ENDTAB
  0
ENDSEC
  0
SECTION
  2
BLOCKS
  0
BLOCK
  5
20
330
1F
100
AcDbEntity
  8
0
100
AcDbBlockBegin
  2
*MODEL_SPACE
 70
     0
 10
0.0
 20
0.0
 30
0.0
  3
*MODEL_SPACE
  1

  0
ENDBLK
  5
21
330
1F
100
AcDbEntity
  8
0
100
AcDbBlockEnd
  0
BLOCK
  5
1C
330
1B
100
AcDbEntity
 67
     1
  8
0
100
AcDbBlockBegin
  2
*PAPER_SPACE
 70
     0
 10
0.0
 20
0.0
 30
0.0
  3
*PAPER_SPACE
  1

  0
ENDBLK
  5
1D
330
1B
100
AcDbEntity
 67
     1
  8
0
100
AcDbBlockEnd
  0
BLOCK
  5
5D
330
59
100
AcDbEntity
  8
0
100
AcDbBlockBegin
  2
_OPEN30
 70
     0
 10
0.0
 20
0.0
 30
0.0
  3
_OPEN30
  1

  0
LINE
  5
5A
330
59
100
AcDbEntity
  8
0
 62
     0
100
AcDbLine
 10
-1.0
 20
0.26794919
 30
0.0
 11
0.0
 21
0.0
 31
0.0
  0
LINE
  5
5B
330
59
100
AcDbEntity
  8
0
 62
     0
100
AcDbLine
 10
0.0
 20
0.0
 30
0.0
 11
-1.0
 21
-0.26794919
 31
0.0
  0
LINE
  5
5C
330
59
100
AcDbEntity
  8
0
 62
     0
100
AcDbLine
 10
0.0
 20
0.0
 30
0.0
 11
-1.0
 21
0.0
 31
0.0
  0
ENDBLK
  5
5E
330
59
100
AcDbEntity
  8
0
100
AcDbBlockEnd
  0
BLOCK
  5
66
330
64
100
AcDbEntity
  8
0
100
AcDbBlockBegin
  2
GENAXEH
 70
     0
 10
0.0
 20
0.0
 30
0.0
  3
GENAXEH
  1

  0
LINE
  5
65
330
64
100
AcDbEntity
  8
0
100
AcDbLine
 10
-1.0
 20
0.0
 30
0.0
 11
1.0
 21
0.0
 31
0.0
  0
ENDBLK
  5
67
330
64
100
AcDbEntity
  8
0
100
AcDbBlockEnd
  0
BLOCK
  5
AD31
330
AD28
100
AcDbEntity
  8
0
100
AcDbBlockBegin
  2
CBF08
 70
     0
 10
0.0
 20
0.0
 30
0.0
  3
CBF08
  1

  0
CIRCLE
  5
AD29
330
AD28
100
AcDbEntity
  8
0
  6
Continuous
100
AcDbCircle
 10
0.0000187875812969
 20
0.0000034482758622
 30
0.0
 40
5.633974192430932
  0
CIRCLE
  5
AD2A
330
AD28
100
AcDbEntity
  8
0
  6
Continuous
100
AcDbCircle
 10
0.0000187875812969
 20
0.0000034482758622
 30
0.0
 40
6.5
  0
LINE
  5
AD2B
330
AD28
100
AcDbEntity
  8
0
  6
Continuous
100
AcDbLine
 10
-1.73203121241866
 20
3.000002049525533
 30
0.0
 11
-3.464081212418676
 21
0.0000034482758622
 31
0.0
  0
LINE
  5
AD2C
330
AD28
100
AcDbEntity
  8
0
  6
Continuous
100
AcDbLine
 10
3.464118787581326
 20
0.0000034482758622
 30
0.0
 11
1.732068787581311
 21
3.000002049525533
 31
0.0
  0
LINE
  5
AD2D
330
AD28
100
AcDbEntity
  8
0
  6
Continuous
100
AcDbLine
 10
-1.73203121241866
 20
-2.999995152973837
 30
0.0
 11
1.732068787581311
 21
-2.999995152973837
 31
0.0
  0
LINE
  5
AD2E
330
AD28
100
AcDbEntity
  8
0
  6
Continuous
100
AcDbLine
 10
-3.464081212418676
 20
0.0000034482758622
 30
0.0
 11
-1.73203121241866
 21
-2.999995152973837
 31
0.0
  0
LINE
  5
AD2F
330
AD28
100
AcDbEntity
  8
0
  6
Continuous
100
AcDbLine
 10
1.732068787581311
 20
-2.999995152973837
 30
0.0
 11
3.464118787581326
 21
0.0000034482758622
 31
0.0
  0
LINE
  5
AD30
330
AD28
100
AcDbEntity
  8
0
  6
Continuous
100
AcDbLine
 10
1.732068787581311
 20
3.000002049525533
 30
0.0
 11
-1.73203121241866
 21
3.000002049525533
 31
0.0
  0
ENDBLK
  5
AD32
330
AD28
100
AcDbEntity
  8
0
100
AcDbBlockEnd
  0
BLOCK
  5
AD3D
330
AD34
100
AcDbEntity
  8
0
100
AcDbBlockBegin
  2
CBS0800
 70
     0
 10
0.0
 20
0.0
 30
0.0
  3
CBS0800
  1

  0
LINE
  5
AD35
330
AD34
100
AcDbEntity
  8
0
 48
0.3
100
AcDbLine
 10
6.499999999999971
 20
0.0
 30
0.0
 11
-6.499999999999971
 21
0.0
 31
0.0
  0
LINE
  5
AD36
330
AD34
100
AcDbEntity
  8
0
 48
0.3
100
AcDbLine
 10
5.633974192430968
 20
7.999999999999985
 30
0.0
 11
-5.633974192430912
 21
7.999999999999985
 31
0.0
  0
LINE
  5
AD37
330
AD34
100
AcDbEntity
  8
0
 48
0.3
100
AcDbLine
 10
-6.499999999999971
 20
0.0
 30
0.0
 11
-6.499999999999971
 21
7.499999999999985
 31
0.0
  0
LINE
  5
AD38
330
AD34
100
AcDbEntity
  8
0
 48
0.3
100
AcDbLine
 10
-3.249999999999971
 20
7.499999999999985
 30
0.0
 11
-6.499999999999971
 21
7.499999999999985
 31
0.0
  0
LINE
  5
AD39
330
AD34
100
AcDbEntity
  8
0
 48
0.3
100
AcDbLine
 10
-6.499999999999971
 20
7.499999999999985
 30
0.0
 11
-5.633974192430912
 21
7.999999999999985
 31
0.0
  0
LINE
  5
AD3A
330
AD34
100
AcDbEntity
  8
0
 48
0.3
100
AcDbLine
 10
6.499999999999971
 20
0.0
 30
0.0
 11
6.499999999999971
 21
7.499999999999985
 31
0.0
  0
LINE
  5
AD3B
330
AD34
100
AcDbEntity
  8
0
 48
0.3
100
AcDbLine
 10
6.499999999999971
 20
7.499999999999985
 30
0.0
 11
3.249999999999971
 21
7.499999999999985
 31
0.0
  0
LINE
  5
AD3C
330
AD34
100
AcDbEntity
  8
0
 48
0.3
100
AcDbLine
 10
6.499999999999971
 20
7.499999999999985
 30
0.0
 11
5.633974192430968
 21
7.999999999999985
 31
0.0
  0
ENDBLK
  5
AD3E
330
AD34
100
AcDbEntity
  8
0
100
AcDbBlockEnd
  0
BLOCK
  5
AD73
330
AD6C
100
AcDbEntity
  8
0
100
AcDbBlockBegin
  2
*D9
 70
     1
 10
0.0
 20
0.0
 30
0.0
  3
*D9
  1

  0
LINE
  5
B4AD
330
AD6C
100
AcDbEntity
  8
AM_4
370
    -2
100
AcDbLine
 10
-19.79786410474511
 20
-48.41818964544097
 30
0.0
 11
-6.714120431055297
 21
-34.53027450339403
 31
0.0
  0
MTEXT
  5
B4AE
330
AD6C
100
AcDbEntity
  8
AM_4
 62
     2
100
AcDbMText
 10
-18.63727002679661
 20
-42.22796494094501
 30
0.0
 40
3.799999999999998
 41
0.0
 71
     5
 72
     1
  1
\U+220570
 11
0.6857193713521477
 21
0.7278660204683383
 31
0.0
 73
     1
 44
1.0
1001
ACAD
1000
MTEXTBEGIN
1070
    73
1070
     1
1070
    44
1040
1.0
1070
    74
1070
     0
1000
MTEXTEND
  0
INSERT
  5
B4AF
330
AD6C
100
AcDbEntity
  8
AM_4
370
    -2
100
AcDbBlockReference
  2
_OPEN30
 10
-4.999822002674926
 20
-32.71060945222318
 30
0.0
 41
2.5
 42
2.5
 43
2.5
 50
46.70779207944531
  0
POINT
  5
B4B0
330
AD6C
100
AcDbEntity
  8
DEFPOINTS
 62
     0
100
AcDbPoint
 10
-4.999822002674926
 20
-32.71060945222318
 30
0.0
  0
POINT
  5
B4B1
330
AD6C
100
AcDbEntity
  8
DEFPOINTS
 62
     0
100
AcDbPoint
 10
-53.00017799732522
 20
-83.66123088500675
 30
0.0
  0
ENDBLK
  5
AD74
330
AD6C
100
AcDbEntity
  8
0
100
AcDbBlockEnd
  0
BLOCK
  5
AD80
330
AD76
100
AcDbEntity
  8
0
100
AcDbBlockBegin
  2
*D10
 70
     1
 10
0.0
 20
0.0
 30
0.0
  3
*D10
  1

  0
LINE
  5
B4B2
330
AD76
100
AcDbEntity
  8
AM_5
 62
     3
370
    -2
100
AcDbLine
 10
0.0001522932452077
 20
0.2587248741756269
 30
0.0
 11
0.0001522932452121
 21
73.18815469635095
 31
0.0
  0
LINE
  5
B4B3
330
AD76
100
AcDbEntity
  8
AM_5
 62
     3
370
    -2
100
AcDbLine
 10
30.00000000000001
 20
55.99999999999988
 30
0.0
 11
30.00000000000001
 21
73.18815469635095
 31
0.0
  0
LINE
  5
B4B4
330
AD76
100
AcDbEntity
  8
AM_5
 62
     3
370
    -2
100
AcDbLine
 10
2.500152293245212
 20
72.18815469635095
 30
0.0
 11
27.50000000000001
 21
72.18815469635095
 31
0.0
  0
INSERT
  5
B4B5
330
AD76
100
AcDbEntity
  8
AM_5
 62
     3
370
    -2
100
AcDbBlockReference
  2
_OPEN30
 10
0.0001522932452121
 20
72.18815469635095
 30
0.0
 41
2.5
 42
2.5
 43
2.5
 50
180.0
  0
INSERT
  5
B4B6
330
AD76
100
AcDbEntity
  8
AM_5
 62
     3
370
    -2
100
AcDbBlockReference
  2
_OPEN30
 10
30.00000000000001
 20
72.18815469635095
 30
0.0
 41
2.5
 42
2.5
 43
2.5
  0
MTEXT
  5
B4B7
330
AD76
100
AcDbEntity
  8
AM_5
 62
     2
100
AcDbMText
 10
15.00007614662261
 20
75.58815469635096
 30
0.0
 40
3.799999999999998
 41
0.0
 71
     5
 72
     1
  1
30
 73
     1
 44
1.0
1001
ACAD
1000
MTEXTBEGIN
1070
    73
1070
     1
1070
    44
1040
1.0
1070
    74
1070
     0
1000
MTEXTEND
  0
POINT
  5
B4B8
330
AD76
100
AcDbEntity
  8
DEFPOINTS
 62
     0
100
AcDbPoint
 10
0.0001522932452077
 20
0.2587248741756269
 30
0.0
  0
POINT
  5
B4B9
330
AD76
100
AcDbEntity
  8
DEFPOINTS
 62
     0
100
AcDbPoint
 10
30.00000000000001
 20
55.99999999999988
 30
0.0
  0
POINT
  5
B4BA
330
AD76
100
AcDbEntity
  8
DEFPOINTS
 62
     0
100
AcDbPoint
 10
30.00000000000001
 20
72.18815469635095
 30
0.0
  0
ENDBLK
  5
AD81
330
AD76
100
AcDbEntity
  8
0
100
AcDbBlockEnd
  0
BLOCK
  5
AD8F
330
AD83
100
AcDbEntity
  8
0
100
AcDbBlockBegin
  2
*D11
 70
     1
 10
0.0
 20
0.0
 30
0.0
  3
*D11
  1

  0
LINE
  5
B4BB
330
AD83
100
AcDbEntity
  8
AM_5
 62
     3
370
    -2
100
AcDbLine
 10
30.00000000000001
 20
55.99999999999988
 30
0.0
 11
45.10186301056275
 21
55.99999999999988
 31
0.0
  0
LINE
  5
B4BC
330
AD83
100
AcDbEntity
  8
AM_5
 62
     3
370
    -2
100
AcDbLine
 10
30.00000000000001
 20
48.9999999999999
 30
0.0
 11
45.10186301056275
 21
48.9999999999999
 31
0.0
  0
LINE
  5
B4BD
330
AD83
100
AcDbEntity
  8
AM_5
 62
     3
370
    -2
100
AcDbLine
 10
44.10186301056274
 20
58.49999999999988
 30
0.0
 11
44.10186301056274
 21
60.99999999999988
 31
0.0
  0
LINE
  5
B4BE
330
AD83
100
AcDbEntity
  8
AM_5
 62
     3
370
    -2
100
AcDbLine
 10
44.10186301056273
 20
46.4999999999999
 30
0.0
 11
44.10186301056273
 21
43.9999999999999
 31
0.0
  0
LINE
  5
B4BF
330
AD83
100
AcDbEntity
  8
AM_5
 62
     3
370
    -2
100
AcDbLine
 10
44.10186301056274
 20
55.99999999999988
 30
0.0
 11
44.10186301056274
 21
48.9999999999999
 31
0.0
  0
INSERT
  5
B4C0
330
AD83
100
AcDbEntity
  8
AM_5
 62
     3
370
    -2
100
AcDbBlockReference
  2
_OPEN30
 10
44.10186301056274
 20
55.99999999999988
 30
0.0
 41
2.5
 42
2.5
 43
2.5
 50
270.0
  0
INSERT
  5
B4C1
330
AD83
100
AcDbEntity
  8
AM_5
 62
     3
370
    -2
100
AcDbBlockReference
  2
_OPEN30
 10
44.10186301056274
 20
48.9999999999999
 30
0.0
 41
2.5
 42
2.5
 43
2.5
 50
90.0
  0
MTEXT
  5
B4C2
330
AD83
100
AcDbEntity
  8
AM_5
 62
     2
100
AcDbMText
 10
40.70186301056273
 20
52.4999999999999
 30
0.0
 40
3.799999999999998
 41
0.0
 71
     5
 72
     1
  1
7
 11
0.0000000000000001
 21
1.0
 31
0.0
 73
     1
 44
1.0
1001
ACAD
1000
MTEXTBEGIN
1070
    73
1070
     1
1070
    44
1040
1.0
1070
    74
1070
     0
1000
MTEXTEND
  0
POINT
  5
B4C3
330
AD83
100
AcDbEntity
  8
DEFPOINTS
 62
     0
100
AcDbPoint
 10
30.00000000000001
 20
55.99999999999988
 30
0.0
  0
POINT
  5
B4C4
330
AD83
100
AcDbEntity
  8
DEFPOINTS
 62
     0
100
AcDbPoint
 10
30.00000000000001
 20
48.9999999999999
 30
0.0
  0
POINT
  5
B4C5
330
AD83
100
AcDbEntity
  8
DEFPOINTS
 62
     0
100
AcDbPoint
 10
44.10186301056274
 20
48.9999999999999
 30
0.0
  0
ENDBLK
  5
AD90
330
AD83
100
AcDbEntity
  8
0
100
AcDbBlockEnd
  0
BLOCK
  5
ADD8
330
ADCE
100
AcDbEntity
  8
0
100
AcDbBlockBegin
  2
*D12
 70
     1
 10
0.0
 20
0.0
 30
0.0
  3
*D12
  1

  0
LINE
  5
B4C6
330
ADCE
100
AcDbEntity
  8
AM_5
 62
     3
370
    -2
100
AcDbLine
 10
150.0
 20
48.99999999999988
 30
0.0
 11
172.777456585615
 21
48.99999999999988
 31
0.0
  0
LINE
  5
B4C7
330
ADCE
100
AcDbEntity
  8
AM_5
 62
     3
370
    -2
100
AcDbLine
 10
150.0
 20
23.99999999999989
 30
0.0
 11
172.777456585615
 21
23.99999999999988
 31
0.0
  0
LINE
  5
B4C8
330
ADCE
100
AcDbEntity
  8
AM_5
 62
     3
370
    -2
100
AcDbLine
 10
171.777456585615
 20
46.49999999999988
 30
0.0
 11
171.777456585615
 21
26.49999999999988
 31
0.0
  0
INSERT
  5
B4C9
330
ADCE
100
AcDbEntity
  8
AM_5
 62
     3
370
    -2
100
AcDbBlockReference
  2
_OPEN30
 10
171.777456585615
 20
48.99999999999988
 30
0.0
 41
2.5
 42
2.5
 43
2.5
 50
90.0
  0
INSERT
  5
B4CA
330
ADCE
100
AcDbEntity
  8
AM_5
 62
     3
370
    -2
100
AcDbBlockReference
  2
_OPEN30
 10
171.777456585615
 20
23.99999999999988
 30
0.0
 41
2.5
 42
2.5
 43
2.5
 50
270.0
  0
MTEXT
  5
B4CB
330
ADCE
100
AcDbEntity
  8
AM_5
 62
     2
100
AcDbMText
 10
168.3770825698669
 20
36.49999999999991
 30
0.0
 40
3.799999999999998
 41
0.0
 71
     5
 72
     1
  1
25
 11
0.0000000000000001
 21
1.0
 31
0.0
 73
     1
 44
1.0
1001
ACAD
1000
MTEXTBEGIN
1070
    73
1070
     1
1070
    44
1040
1.0
1070
    74
1070
     0
1000
MTEXTEND
  0
POINT
  5
B4CC
330
ADCE
100
AcDbEntity
  8
DEFPOINTS
 62
     0
100
AcDbPoint
 10
150.0
 20
48.99999999999988
 30
0.0
  0
POINT
  5
B4CD
330
ADCE
100
AcDbEntity
  8
DEFPOINTS
 62
     0
100
AcDbPoint
 10
150.0
 20
23.99999999999989
 30
0.0
  0
POINT
  5
B4CE
330
ADCE
100
AcDbEntity
  8
DEFPOINTS
 62
     0
100
AcDbPoint
 10
171.777456585615
 20
23.99999999999988
 30
0.0
  0
ENDBLK
  5
ADD9
330
ADCE
100
AcDbEntity
  8
0
100
AcDbBlockEnd
  0
BLOCK
  5
ADE5
330
ADDB
100
AcDbEntity
  8
0
100
AcDbBlockBegin
  2
*D13
 70
     1
 10
0.0
 20
0.0
 30
0.0
  3
*D13
  1

  0
LINE
  5
B4CF
330
ADDB
100
AcDbEntity
  8
AM_5
 62
     3
370
    -2
100
AcDbLine
 10
150.0
 20
-58.18592016861497
 30
0.0
 11
176.6056550677321
 21
-58.18592016861497
 31
0.0
  0
LINE
  5
B4D0
330
ADDB
100
AcDbEntity
  8
AM_5
 62
     3
370
    -2
100
AcDbLine
 10
150.0
 20
-83.18592016861497
 30
0.0
 11
176.605655067732
 21
-83.18592016861499
 31
0.0
  0
LINE
  5
B4D1
330
ADDB
100
AcDbEntity
  8
AM_5
 62
     3
370
    -2
100
AcDbLine
 10
175.6056550677321
 20
-60.68592016861497
 30
0.0
 11
175.605655067732
 21
-80.68592016861499
 31
0.0
  0
INSERT
  5
B4D2
330
ADDB
100
AcDbEntity
  8
AM_5
 62
     3
370
    -2
100
AcDbBlockReference
  2
_OPEN30
 10
175.6056550677321
 20
-58.18592016861497
 30
0.0
 41
2.5
 42
2.5
 43
2.5
 50
90.0
  0
INSERT
  5
B4D3
330
ADDB
100
AcDbEntity
  8
AM_5
 62
     3
370
    -2
100
AcDbBlockReference
  2
_OPEN30
 10
175.605655067732
 20
-83.18592016861499
 30
0.0
 41
2.5
 42
2.5
 43
2.5
 50
270.0
  0
MTEXT
  5
B4D4
330
ADDB
100
AcDbEntity
  8
AM_5
 62
     2
100
AcDbMText
 10
172.205281051984
 20
-70.68592016861495
 30
0.0
 40
3.799999999999998
 41
0.0
 71
     5
 72
     1
  1
25
 11
0.0000000000000001
 21
1.0
 31
0.0
 73
     1
 44
1.0
1001
ACAD
1000
MTEXTBEGIN
1070
    73
1070
     1
1070
    44
1040
1.0
1070
    74
1070
     0
1000
MTEXTEND
  0
POINT
  5
B4D5
330
ADDB
100
AcDbEntity
  8
DEFPOINTS
 62
     0
100
AcDbPoint
 10
150.0
 20
-58.18592016861497
 30
0.0
  0
POINT
  5
B4D6
330
ADDB
100
AcDbEntity
  8
DEFPOINTS
 62
     0
100
AcDbPoint
 10
150.0
 20
-83.18592016861497
 30
0.0
  0
POINT
  5
B4D7
330
ADDB
100
AcDbEntity
  8
DEFPOINTS
 62
     0
100
AcDbPoint
 10
175.605655067732
 20
-83.18592016861499
 30
0.0
  0
ENDBLK
  5
ADE6
330
ADDB
100
AcDbEntity
  8
0
100
AcDbBlockEnd
  0
BLOCK
  5
ADF4
330
ADE8
100
AcDbEntity
  8
0
100
AcDbBlockBegin
  2
*D14
 70
     1
 10
0.0
 20
0.0
 30
0.0
  3
*D14
  1

  0
LINE
  5
B4D8
330
ADE8
100
AcDbEntity
  8
AM_5
 62
     3
370
    -2
100
AcDbLine
 10
29.99999999999999
 20
-90.18592016861493
 30
0.0
 11
53.35648102357115
 21
-90.18592016861495
 31
0.0
  0
LINE
  5
B4D9
330
ADE8
100
AcDbEntity
  8
AM_5
 62
     3
370
    -2
100
AcDbLine
 10
29.99999999999999
 20
-83.18592016861492
 30
0.0
 11
53.35648102357115
 21
-83.18592016861494
 31
0.0
  0
LINE
  5
B4DA
330
ADE8
100
AcDbEntity
  8
AM_5
 62
     3
370
    -2
100
AcDbLine
 10
52.35648102357115
 20
-92.68592016861495
 30
0.0
 11
52.35648102357115
 21
-95.18592016861495
 31
0.0
  0
LINE
  5
B4DB
330
ADE8
100
AcDbEntity
  8
AM_5
 62
     3
370
    -2
100
AcDbLine
 10
52.35648102357115
 20
-80.68592016861494
 30
0.0
 11
52.35648102357116
 21
-78.18592016861494
 31
0.0
  0
LINE
  5
B4DC
330
ADE8
100
AcDbEntity
  8
AM_5
 62
     3
370
    -2
100
AcDbLine
 10
52.35648102357115
 20
-90.18592016861495
 30
0.0
 11
52.35648102357115
 21
-83.18592016861494
 31
0.0
  0
INSERT
  5
B4DD
330
ADE8
100
AcDbEntity
  8
AM_5
 62
     3
370
    -2
100
AcDbBlockReference
  2
_OPEN30
 10
52.35648102357115
 20
-90.18592016861495
 30
0.0
 41
2.5
 42
2.5
 43
2.5
 50
90.0
  0
INSERT
  5
B4DE
330
ADE8
100
AcDbEntity
  8
AM_5
 62
     3
370
    -2
100
AcDbBlockReference
  2
_OPEN30
 10
52.35648102357115
 20
-83.18592016861494
 30
0.0
 41
2.5
 42
2.5
 43
2.5
 50
270.0
  0
MTEXT
  5
B4DF
330
ADE8
100
AcDbEntity
  8
AM_5
 62
     2
100
AcDbMText
 10
48.95648102357117
 20
-86.68592016861493
 30
0.0
 40
3.799999999999998
 41
0.0
 71
     5
 72
     1
  1
7
 11
0.0000000000000001
 21
1.0
 31
0.0
 73
     1
 44
1.0
1001
ACAD
1000
MTEXTBEGIN
1070
    73
1070
     1
1070
    44
1040
1.0
1070
    74
1070
     0
1000
MTEXTEND
  0
POINT
  5
B4E0
330
ADE8
100
AcDbEntity
  8
DEFPOINTS
 62
     0
100
AcDbPoint
 10
29.99999999999999
 20
-90.18592016861493
 30
0.0
  0
POINT
  5
B4E1
330
ADE8
100
AcDbEntity
  8
DEFPOINTS
 62
     0
100
AcDbPoint
 10
29.99999999999999
 20
-83.18592016861492
 30
0.0
  0
POINT
  5
B4E2
330
ADE8
100
AcDbEntity
  8
DEFPOINTS
 62
     0
100
AcDbPoint
 10
52.35648102357115
 20
-83.18592016861494
 30
0.0
  0
ENDBLK
  5
ADF5
330
ADE8
100
AcDbEntity
  8
0
100
AcDbBlockEnd
  0
BLOCK
  5
AE1C
330
AE12
100
AcDbEntity
  8
0
100
AcDbBlockBegin
  2
*D15
 70
     1
 10
0.0
 20
0.0
 30
0.0
  3
*D15
  1

  0
LINE
  5
B4E3
330
AE12
100
AcDbEntity
  8
AM_5
 62
     3
370
    -2
100
AcDbLine
 10
0.0
 20
-0.3988790818866903
 30
0.0
 11
-0.0000000000000017
 21
-27.86463697182421
 31
0.0
  0
LINE
  5
B4E4
330
AE12
100
AcDbEntity
  8
AM_5
 62
     3
370
    -2
100
AcDbLine
 10
150.0
 20
-15.98305192729446
 30
0.0
 11
150.0
 21
-27.86463697182421
 31
0.0
  0
LINE
  5
B4E5
330
AE12
100
AcDbEntity
  8
AM_5
 62
     3
370
    -2
100
AcDbLine
 10
2.499999999999998
 20
-26.86463697182422
 30
0.0
 11
147.5
 21
-26.86463697182422
 31
0.0
  0
INSERT
  5
B4E6
330
AE12
100
AcDbEntity
  8
AM_5
 62
     3
370
    -2
100
AcDbBlockReference
  2
_OPEN30
 10
-0.0000000000000016
 20
-26.86463697182422
 30
0.0
 41
2.5
 42
2.5
 43
2.5
 50
180.0
  0
INSERT
  5
B4E7
330
AE12
100
AcDbEntity
  8
AM_5
 62
     3
370
    -2
100
AcDbBlockReference
  2
_OPEN30
 10
150.0
 20
-26.86463697182422
 30
0.0
 41
2.5
 42
2.5
 43
2.5
  0
MTEXT
  5
B4E8
330
AE12
100
AcDbEntity
  8
AM_5
 62
     2
100
AcDbMText
 10
75.0
 20
-23.46463697182421
 30
0.0
 40
3.799999999999998
 41
0.0
 71
     5
 72
     1
  1
150
 73
     1
 44
1.0
1001
ACAD
1000
MTEXTBEGIN
1070
    73
1070
     1
1070
    44
1040
1.0
1070
    74
1070
     0
1000
MTEXTEND
  0
POINT
  5
B4E9
330
AE12
100
AcDbEntity
  8
DEFPOINTS
 62
     0
100
AcDbPoint
 10
0.0
 20
-0.3988790818866903
 30
0.0
  0
POINT
  5
B4EA
330
AE12
100
AcDbEntity
  8
DEFPOINTS
 62
     0
100
AcDbPoint
 10
150.0
 20
-15.98305192729446
 30
0.0
  0
POINT
  5
B4EB
330
AE12
100
AcDbEntity
  8
DEFPOINTS
 62
     0
100
AcDbPoint
 10
150.0
 20
-26.86463697182422
 30
0.0
  0
ENDBLK
  5
AE1D
330
AE12
100
AcDbEntity
  8
0
100
AcDbBlockEnd
  0
BLOCK
  5
AE6A
330
AE60
100
AcDbEntity
  8
0
100
AcDbBlockBegin
  2
*D16
 70
     1
 10
0.0
 20
0.0
 30
0.0
  3
*D16
  1

  0
LINE
  5
B4EC
330
AE60
100
AcDbEntity
  8
AM_5
 62
     3
370
    -2
100
AcDbLine
 10
29.99999999999999
 20
-90.18592016861493
 30
0.0
 11
29.99999999999999
 21
-109.6278691194972
 31
0.0
  0
LINE
  5
B4ED
330
AE60
100
AcDbEntity
  8
AM_5
 62
     3
370
    -2
100
AcDbLine
 10
0.0000000000001066
 20
-58.1859201686149
 30
0.0
 11
0.0000000000001035
 21
-109.6278691194972
 31
0.0
  0
LINE
  5
B4EE
330
AE60
100
AcDbEntity
  8
AM_5
 62
     3
370
    -2
100
AcDbLine
 10
27.49999999999999
 20
-108.6278691194972
 30
0.0
 11
2.500000000000103
 21
-108.6278691194972
 31
0.0
  0
INSERT
  5
B4EF
330
AE60
100
AcDbEntity
  8
AM_5
 62
     3
370
    -2
100
AcDbBlockReference
  2
_OPEN30
 10
29.99999999999999
 20
-108.6278691194972
 30
0.0
 41
2.5
 42
2.5
 43
2.5
  0
INSERT
  5
B4F0
330
AE60
100
AcDbEntity
  8
AM_5
 62
     3
370
    -2
100
AcDbBlockReference
  2
_OPEN30
 10
0.0000000000001035
 20
-108.6278691194972
 30
0.0
 41
2.5
 42
2.5
 43
2.5
 50
180.0
  0
MTEXT
  5
B4F1
330
AE60
100
AcDbEntity
  8
AM_5
 62
     2
100
AcDbMText
 10
15.00000000000004
 20
-105.2278691194972
 30
0.0
 40
3.799999999999998
 41
0.0
 71
     5
 72
     1
  1
30
 73
     1
 44
1.0
1001
ACAD
1000
MTEXTBEGIN
1070
    73
1070
     1
1070
    44
1040
1.0
1070
    74
1070
     0
1000
MTEXTEND
  0
POINT
  5
B4F2
330
AE60
100
AcDbEntity
  8
DEFPOINTS
 62
     0
100
AcDbPoint
 10
29.99999999999999
 20
-90.18592016861493
 30
0.0
  0
POINT
  5
B4F3
330
AE60
100
AcDbEntity
  8
DEFPOINTS
 62
     0
100
AcDbPoint
 10
0.0000000000001066
 20
-58.1859201686149
 30
0.0
  0
POINT
  5
B4F4
330
AE60
100
AcDbEntity
  8
DEFPOINTS
 62
     0
100
AcDbPoint
 10
0.0000000000001035
 20
-108.6278691194972
 30
0.0
  0
ENDBLK
  5
AE6B
330
AE60
100
AcDbEntity
  8
0
100
AcDbBlockEnd
  0
BLOCK
  5
B296
330
B28A
100
AcDbEntity
  8
0
100
AcDbBlockBegin
  2
*D17
 70
     1
 10
0.0
 20
0.0
 30
0.0
  3
*D17
  1

  0
LINE
  5
B4F5
330
B28A
100
AcDbEntity
  8
AM_5
 62
     3
370
    -2
100
AcDbLine
 10
0.0000000000000001
 20
0.2500000000000142
 30
0.0
 11
-0.0000000000000008
 21
-13.27762084124614
 31
0.0
  0
LINE
  5
B4F6
330
B28A
100
AcDbEntity
  8
AM_5
 62
     3
370
    -2
100
AcDbLine
 10
5.97977762660264
 20
0.2500000000000135
 30
0.0
 11
5.979777626602639
 21
-13.27762084124614
 31
0.0
  0
LINE
  5
B4F7
330
B28A
100
AcDbEntity
  8
AM_5
 62
     3
370
    -2
100
AcDbLine
 10
-2.5
 20
-12.27762084124614
 30
0.0
 11
-5.0
 21
-12.27762084124614
 31
0.0
  0
LINE
  5
B4F8
330
B28A
100
AcDbEntity
  8
AM_5
 62
     3
370
    -2
100
AcDbLine
 10
8.47977762660264
 20
-12.27762084124614
 30
0.0
 11
10.97977762660264
 21
-12.27762084124614
 31
0.0
  0
LINE
  5
B4F9
330
B28A
100
AcDbEntity
  8
AM_5
 62
     3
370
    -2
100
AcDbLine
 10
-0.0000000000000007
 20
-12.27762084124614
 30
0.0
 11
5.979777626602639
 21
-12.27762084124614
 31
0.0
  0
INSERT
  5
B4FA
330
B28A
100
AcDbEntity
  8
AM_5
 62
     3
370
    -2
100
AcDbBlockReference
  2
_OPEN30
 10
-0.0000000000000007
 20
-12.27762084124614
 30
0.0
 41
2.5
 42
2.5
 43
2.5
  0
INSERT
  5
B4FB
330
B28A
100
AcDbEntity
  8
AM_5
 62
     3
370
    -2
100
AcDbBlockReference
  2
_OPEN30
 10
5.979777626602639
 20
-12.27762084124614
 30
0.0
 41
2.5
 42
2.5
 43
2.5
 50
180.0
  0
MTEXT
  5
B4FC
330
B28A
100
AcDbEntity
  8
AM_5
 62
     2
100
AcDbMText
 10
2.989888813301319
 20
-8.877620841246141
 30
0.0
 40
3.799999999999998
 41
0.0
 71
     5
 72
     1
  1
6
 73
     1
 44
1.0
1001
ACAD
1000
MTEXTBEGIN
1070
    73
1070
     1
1070
    44
1040
1.0
1070
    74
1070
     0
1000
MTEXTEND
  0
POINT
  5
B4FD
330
B28A
100
AcDbEntity
  8
DEFPOINTS
 62
     0
100
AcDbPoint
 10
0.0000000000000001
 20
0.2500000000000142
 30
0.0
  0
POINT
  5
B4FE
330
B28A
100
AcDbEntity
  8
DEFPOINTS
 62
     0
100
AcDbPoint
 10
5.97977762660264
 20
0.2500000000000135
 30
0.0
  0
POINT
  5
B4FF
330
B28A
100
AcDbEntity
  8
DEFPOINTS
 62
     0
100
AcDbPoint
 10
5.979777626602639
 20
-12.27762084124614
 30
0.0
  0
ENDBLK
  5
B297
330
B28A
100
AcDbEntity
  8
0
100
AcDbBlockEnd
  0
BLOCK
  5
B2BA
330
B2B0
100
AcDbEntity
  8
0
100
AcDbBlockBegin
  2
*D18
 70
     1
 10
0.0
 20
0.0
 30
0.0
  3
*D18
  1

  0
LINE
  5
B500
330
B2B0
100
AcDbEntity
  8
AM_5
 62
     3
370
    -2
100
AcDbLine
 10
0.0
 20
0.0
 30
0.0
 11
188.1217033141956
 21
-0.0000000000000533
 31
0.0
  0
LINE
  5
B501
330
B2B0
100
AcDbEntity
  8
AM_5
 62
     3
370
    -2
100
AcDbLine
 10
150.0
 20
48.99999999999987
 30
0.0
 11
188.1217033141956
 21
48.99999999999987
 31
0.0
  0
LINE
  5
B502
330
B2B0
100
AcDbEntity
  8
AM_5
 62
     3
370
    -2
100
AcDbLine
 10
187.1217033141956
 20
2.499999999999946
 30
0.0
 11
187.1217033141956
 21
46.49999999999987
 31
0.0
  0
INSERT
  5
B503
330
B2B0
100
AcDbEntity
  8
AM_5
 62
     3
370
    -2
100
AcDbBlockReference
  2
_OPEN30
 10
187.1217033141956
 20
-0.000000000000053
 30
0.0
 41
2.5
 42
2.5
 43
2.5
 50
270.0
  0
INSERT
  5
B504
330
B2B0
100
AcDbEntity
  8
AM_5
 62
     3
370
    -2
100
AcDbBlockReference
  2
_OPEN30
 10
187.1217033141956
 20
48.99999999999987
 30
0.0
 41
2.5
 42
2.5
 43
2.5
 50
90.0
  0
MTEXT
  5
B505
330
B2B0
100
AcDbEntity
  8
AM_5
 62
     2
100
AcDbMText
 10
183.7217033141956
 20
24.49999999999994
 30
0.0
 40
3.799999999999998
 41
0.0
 71
     5
 72
     1
  1
49
 11
0.0000000000000001
 21
1.0
 31
0.0
 73
     1
 44
1.0
1001
ACAD
1000
MTEXTBEGIN
1070
    73
1070
     1
1070
    44
1040
1.0
1070
    74
1070
     0
1000
MTEXTEND
  0
POINT
  5
B506
330
B2B0
100
AcDbEntity
  8
DEFPOINTS
 62
     0
100
AcDbPoint
 10
0.0
 20
0.0
 30
0.0
  0
POINT
  5
B507
330
B2B0
100
AcDbEntity
  8
DEFPOINTS
 62
     0
100
AcDbPoint
 10
150.0
 20
48.99999999999987
 30
0.0
  0
POINT
  5
B508
330
B2B0
100
AcDbEntity
  8
DEFPOINTS
 62
     0
100
AcDbPoint
 10
187.1217033141956
 20
48.99999999999987
 30
0.0
  0
ENDBLK
  5
B2BB
330
B2B0
100
AcDbEntity
  8
0
100
AcDbBlockEnd
  0
ENDSEC
  0
SECTION
  2
ENTITIES
  0
TEXT
  5
83BD
330
1F
100
AcDbEntity
  8
AM_6
100
AcDbText
 10
51.35597907729842
 20
-121.4749513557437
 30
0.0
 40
5.0
  1
GMFWSR2525-60-70
 72
     4
 11
81.47850584299385
 21
-118.9749513557437
 31
0.0
100
AcDbText
  0
LINE
  5
AC39
330
1F
100
AcDbEntity
  8
AM_0
100
AcDbLine
 10
150.0
 20
48.99999999999987
 30
0.0
 11
30.00000000000001
 21
48.99999999999997
 31
0.0
  0
LINE
  5
AC3A
330
1F
100
AcDbEntity
  8
AM_0
100
AcDbLine
 10
150.0
 20
-83.18592016861497
 30
0.0
 11
150.0
 21
-58.18592016861497
 31
0.0
  0
LINE
  5
AC3B
330
1F
100
AcDbEntity
  8
AM_0
100
AcDbLine
 10
150.0
 20
23.99999999999989
 30
0.0
 11
6.300000000000127
 21
23.99999999999995
 31
0.0
  0
LINE
  5
AC3E
330
1F
100
AcDbEntity
  8
AM_0
100
AcDbLine
 10
150.0
 20
-83.18592016861497
 30
0.0
 11
29.99999999999999
 21
-83.18592016861492
 31
0.0
  0
LINE
  5
AC40
330
1F
100
AcDbEntity
  8
AM_0
100
AcDbLine
 10
150.0
 20
23.99999999999989
 30
0.0
 11
150.0
 21
48.99999999999987
 31
0.0
  0
LINE
  5
AC42
330
1F
100
AcDbEntity
  8
AM_0
100
AcDbLine
 10
30.00000000000001
 20
55.99999999999988
 30
0.0
 11
1.000000000000006
 21
55.99999999999992
 31
0.0
  0
LINE
  5
AC43
330
1F
100
AcDbEntity
  8
AM_0
100
AcDbLine
 10
30.00000000000001
 20
48.9999999999999
 30
0.0
 11
30.00000000000001
 21
55.99999999999988
 31
0.0
  0
LINE
  5
AC4E
330
1F
100
AcDbEntity
  8
AM_4
100
AcDbLine
 10
-0.0000000000000071
 20
-58.18592016861488
 30
0.0
 11
0.0000000000000001
 21
0.2500000000000142
 31
0.0
  0
LINE
  5
ACB2
330
1F
100
AcDbEntity
  8
AM_0
100
AcDbLine
 10
32.99999999999999
 20
-58.1859201686149
 30
0.0
 11
150.0
 21
-58.18592016861497
 31
0.0
  0
LINE
  5
ACE0
330
1F
100
AcDbEntity
  8
AM_0
100
AcDbLine
 10
32.99999999999994
 20
-58.1859201686149
 30
0.0
 11
29.39999999999996
 21
-58.1859201686149
 31
0.0
  0
LINE
  5
ACE3
330
1F
100
AcDbEntity
  8
AM_0
100
AcDbLine
 10
0.9999999999999893
 20
-87.2859201686149
 30
0.0
 11
0.9999999999999889
 21
-90.18592016861493
 31
0.0
  0
LINE
  5
ACF9
330
1F
100
AcDbEntity
  8
AM_0
100
AcDbLine
 10
29.99999999999999
 20
-83.18592016861492
 30
0.0
 11
29.99999999999999
 21
-90.18592016861493
 31
0.0
  0
LINE
  5
ACFA
330
1F
100
AcDbEntity
  8
AM_0
100
AcDbLine
 10
29.99999999999999
 20
-90.18592016861493
 30
0.0
 11
23.99999999999999
 21
-90.18592016861493
 31
0.0
  0
LINE
  5
ACFC
330
1F
100
AcDbEntity
  8
AM_0
100
AcDbLine
 10
0.9999999999999889
 20
-90.18592016861493
 30
0.0
 11
29.99999999999999
 21
-90.18592016861493
 31
0.0
  0
LINE
  5
AD43
330
1F
100
AcDbEntity
  8
AM_0
100
AcDbLine
 10
9.800000000000002
 20
-66.8859201686149
 30
0.0
 11
9.8
 21
-81.98592016861489
 31
0.0
  0
LINE
  5
AD44
330
1F
100
AcDbEntity
  8
AM_0
100
AcDbLine
 10
9.800000000000004
 20
-61.8859201686149
 30
0.0
 11
9.8
 21
-87.2859201686149
 31
0.0
  0
LINE
  5
AD45
330
1F
100
AcDbEntity
  8
AM_7
100
AcDbLine
 10
15.19999999999997
 20
-74.53178995934931
 30
0.0
 11
15.19999999999997
 21
-36.60715708444756
 31
0.0
  0
INSERT
  5
AD46
330
1F
100
AcDbEntity
  8
AM_0
100
AcDbBlockReference
  2
CBS0800
 10
15.19999999999997
 20
-46.88592016861492
 30
0.0
 41
-1.0
  0
LINE
  5
AD47
330
1F
100
AcDbEntity
  8
AM_0
100
AcDbLine
 10
29.39999999999996
 20
-46.8859201686149
 30
0.0
 11
1.199999999999925
 21
-46.8859201686149
 31
0.0
  0
LINE
  5
AD48
330
1F
100
AcDbEntity
  8
AM_0
100
AcDbLine
 10
29.39999999999996
 20
-46.8859201686149
 30
0.0
 11
29.39999999999996
 21
-59.58592016861491
 31
0.0
  0
LINE
  5
AD49
330
1F
100
AcDbEntity
  8
AM_0
100
AcDbLine
 10
25.40000000000003
 20
-56.5859201686149
 30
0.0
 11
25.39999999999992
 21
-59.58592016861491
 31
0.0
  0
LINE
  5
AD4A
330
1F
100
AcDbEntity
  8
AM_0
100
AcDbLine
 10
29.39999999999996
 20
-59.58592016861491
 30
0.0
 11
25.39999999999992
 21
-59.58592016861491
 31
0.0
  0
LINE
  5
AD4B
330
1F
100
AcDbEntity
  8
AM_0
100
AcDbLine
 10
1.199999999999925
 20
-46.8859201686149
 30
0.0
 11
1.199999999999923
 21
-58.1859201686149
 31
0.0
  0
LINE
  5
AD4D
330
1F
100
AcDbEntity
  8
AM_0
100
AcDbLine
 10
4.999999999999994
 20
-46.8859201686149
 30
0.0
 11
4.999999999999992
 21
-58.1859201686149
 31
0.0
  0
LINE
  5
AD4E
330
1F
100
AcDbEntity
  8
AM_0
100
AcDbLine
 10
25.39999999999996
 20
-58.1859201686149
 30
0.0
 11
4.999999999999992
 21
-58.1859201686149
 31
0.0
  0
LINE
  5
AD4F
330
1F
100
AcDbEntity
  8
AM_0
100
AcDbLine
 10
1.200000000000037
 20
-58.1859201686149
 30
0.0
 11
0.9999999999999928
 21
-58.1859201686149
 31
0.0
  0
LINE
  5
AD50
102
{ACAD_REACTORS
330
AD5A
102
}
330
1F
100
AcDbEntity
  8
AM_0
100
AcDbLine
 10
5.999999999999992
 20
-58.1859201686149
 30
0.0
 11
-0.0000000000000071
 21
-58.1859201686149
 31
0.0
  0
LINE
  5
AD52
102
{ACAD_REACTORS
330
AD5A
102
}
330
1F
100
AcDbEntity
  8
AM_0
100
AcDbLine
 10
-0.0000000000000071
 20
-58.1859201686149
 30
0.0
 11
0.3298161792620173
 21
-61.95573634787698
 31
0.0
  0
LINE
  5
AD53
102
{ACAD_REACTORS
330
AD5A
102
}
330
1F
100
AcDbEntity
  8
AM_0
100
AcDbLine
 10
5.999999999999992
 20
-58.1859201686149
 30
0.0
 11
5.670183820737966
 21
-61.95573634787699
 31
0.0
  0
LINE
  5
AD54
102
{ACAD_REACTORS
330
AD5A
102
}
330
1F
100
AcDbEntity
  8
AM_0
100
AcDbLine
 10
3.320000000000042
 20
-64.30592016861492
 30
0.0
 11
2.679999999999941
 21
-64.30592016861492
 31
0.0
  0
LINE
  5
AD56
102
{ACAD_REACTORS
330
AD5A
102
}
330
1F
100
AcDbEntity
  8
AM_0
100
AcDbLine
 10
5.740000000000113
 20
-61.8859201686149
 30
0.0
 11
2.999999999999992
 21
-64.62592016861501
 31
0.0
  0
LINE
  5
AD57
102
{ACAD_REACTORS
330
AD5A
102
}
330
1F
100
AcDbEntity
  8
AM_0
100
AcDbLine
 10
0.3298161792620173
 20
-61.95573634787698
 30
0.0
 11
2.999999999999992
 21
-64.62592016861501
 31
0.0
  0
LINE
  5
AD5C
330
1F
100
AcDbEntity
  8
AM_7
100
AcDbLine
 10
5.999999999999992
 20
-58.1859201686149
 30
0.0
 11
-87.69306128804387
 21
-58.18592016861488
 31
0.0
  0
LINE
  5
AD5F
330
1F
100
AcDbEntity
  8
AM_0
100
AcDbLine
 10
9.8
 20
-87.2859201686149
 30
0.0
 11
-4.999999999999896
 21
-87.2859201686149
 31
0.0
  0
LINE
  5
AD60
330
1F
100
AcDbEntity
  8
AM_0
100
AcDbLine
 10
9.800000000000004
 20
-61.8859201686149
 30
0.0
 11
5.670183820737966
 21
-61.8859201686149
 31
0.0
  0
LINE
  5
AD63
330
1F
100
AcDbEntity
  8
AM_7
100
AcDbLine
 10
-29.0
 20
-8.71762097402637
 30
0.0
 11
-29.00000000000002
 21
-106.2955524887924
 31
0.0
  0
ARC
  5
AD65
330
1F
100
AcDbEntity
  8
AM_0
100
AcDbCircle
 10
-29.00000000000001
 20
-58.18592016861492
 30
0.0
 40
34.5
100
AcDbArc
 50
314.0792098478875
 51
353.0139879449077
  0
ARC
  5
AD66
330
1F
100
AcDbEntity
  8
AM_0
100
AcDbCircle
 10
-44.00000000000001
 20
-58.18592016861491
 30
0.0
 40
45.0
100
AcDbArc
 50
330.0735651333857
 51
354.5936738698526
  0
CIRCLE
  5
AD68
330
1F
100
AcDbEntity
  8
AM_11
 48
0.5
100
AcDbCircle
 10
-29.00000000000001
 20
-58.18592016861492
 30
0.0
 40
35.0
  0
LINE
  5
AD6A
330
1F
100
AcDbEntity
  8
AM_4
100
AcDbLine
 10
150.0
 20
23.99999999999989
 30
0.0
 11
150.0
 21
-58.18592016861497
 31
0.0
  0
DIMENSION
  5
AD6B
330
1F
100
AcDbEntity
  8
AM_4
100
AcDbDimension
  2
*D9
 10
-53.00017799732522
 20
-83.66123088500675
 30
0.0
 11
-16.16252555720426
 21
-44.55941080354231
 31
0.0
 70
   163
 71
     5
 42
69.99999999999989
  3
AM_JIS$3
100
AcDbDiametricDimension
 15
-4.999822002674926
 25
-32.71060945222318
 35
0.0
 40
0.0
  0
DIMENSION
  5
AD75
330
1F
100
AcDbEntity
  8
AM_5
100
AcDbDimension
  2
*D10
 10
30.00000000000001
 20
72.18815469635095
 30
0.0
 11
15.00007614662261
 21
75.58815469635096
 31
0.0
 70
    32
 71
     5
 42
29.9998477067548
  3
AM_JIS$0
100
AcDbAlignedDimension
 13
0.0001522932452077
 23
0.2587248741756269
 33
0.0
 14
30.00000000000001
 24
55.99999999999988
 34
0.0
100
AcDbRotatedDimension
  0
DIMENSION
  5
AD82
330
1F
100
AcDbEntity
  8
AM_5
100
AcDbDimension
  2
*D11
 10
44.10186301056274
 20
48.9999999999999
 30
0.0
 11
44.10186301056273
 21
52.4999999999999
 31
0.0
 70
   160
 71
     5
 42
6.999999999999985
  3
AM_JIS$0
100
AcDbAlignedDimension
 13
30.00000000000001
 23
55.99999999999988
 33
0.0
 14
30.00000000000001
 24
48.9999999999999
 34
0.0
 50
89.99999999999998
100
AcDbRotatedDimension
  0
DIMENSION
  5
ADCD
330
1F
100
AcDbEntity
  8
AM_5
100
AcDbDimension
  2
*D12
 10
171.777456585615
 20
23.99999999999988
 30
0.0
 11
168.3770825698669
 21
36.49999999999991
 31
0.0
 70
    32
 71
     5
 42
25.0
  3
AM_JIS$0
100
AcDbAlignedDimension
 13
150.0
 23
48.99999999999988
 33
0.0
 14
150.0
 24
23.99999999999989
 34
0.0
 50
89.99999999999998
100
AcDbRotatedDimension
  0
DIMENSION
  5
ADDA
330
1F
100
AcDbEntity
  8
AM_5
100
AcDbDimension
  2
*D13
 10
175.605655067732
 20
-83.18592016861499
 30
0.0
 11
172.205281051984
 21
-70.68592016861495
 31
0.0
 70
    32
 71
     5
 42
25.00000000000001
  3
AM_JIS$0
100
AcDbAlignedDimension
 13
150.0
 23
-58.18592016861497
 33
0.0
 14
150.0
 24
-83.18592016861497
 34
0.0
 50
89.99999999999998
100
AcDbRotatedDimension
  0
DIMENSION
  5
ADE7
330
1F
100
AcDbEntity
  8
AM_5
100
AcDbDimension
  2
*D14
 10
52.35648102357115
 20
-83.18592016861494
 30
0.0
 11
52.35648102357117
 21
-86.68592016861493
 31
0.0
 70
   160
 71
     5
 42
7.0
  3
AM_JIS$0
100
AcDbAlignedDimension
 13
29.99999999999999
 23
-90.18592016861493
 33
0.0
 14
29.99999999999999
 24
-83.18592016861492
 34
0.0
 50
89.99999999999998
100
AcDbRotatedDimension
  0
DIMENSION
  5
AE11
330
1F
100
AcDbEntity
  8
AM_5
100
AcDbDimension
  2
*D15
 10
150.0
 20
-26.86463697182422
 30
0.0
 11
75.0
 21
-23.46463697182421
 31
0.0
 70
    32
 71
     5
 42
150.0
  3
AM_JIS$0
100
AcDbAlignedDimension
 13
0.0
 23
-0.3988790818866903
 33
0.0
 14
150.0
 24
-15.98305192729446
 34
0.0
100
AcDbRotatedDimension
  0
DIMENSION
  5
AE5F
330
1F
100
AcDbEntity
  8
AM_5
100
AcDbDimension
  2
*D16
 10
0.0000000000001035
 20
-108.6278691194972
 30
0.0
 11
15.00000000000004
 21
-105.2278691194972
 31
0.0
 70
    32
 71
     5
 42
29.99999999999988
  3
AM_JIS$0
100
AcDbAlignedDimension
 13
29.99999999999999
 23
-90.18592016861493
 33
0.0
 14
0.0000000000001066
 24
-58.1859201686149
 34
0.0
100
AcDbRotatedDimension
  0
LINE
  5
AFE0
330
1F
100
AcDbEntity
  8
AM_0
100
AcDbLine
 10
-4.999999999999896
 20
-80.63586448925851
 30
0.0
 11
-5.00000000000001
 21
-87.2859201686149
 31
0.0
  0
LINE
  5
B1DE
330
1F
100
AcDbEntity
  8
AM_0
100
AcDbLine
 10
1.000000000000006
 20
52.00000000000001
 30
0.0
 11
1.000000000000006
 21
55.99999999999992
 31
0.0
  0
LINE
  5
B1F7
330
1F
100
AcDbEntity
  8
AM_0
100
AcDbLine
 10
8.300000000000073
 20
42.59999999999997
 30
0.0
 11
8.300000000000018
 21
52.00000000000001
 31
0.0
  0
LINE
  5
B1F8
330
1F
100
AcDbEntity
  8
AM_0
100
AcDbLine
 10
1.000000000000006
 20
52.00000000000001
 30
0.0
 11
8.300000000000018
 21
52.00000000000001
 31
0.0
  0
LINE
  5
B1F9
330
1F
100
AcDbEntity
  8
AM_0
100
AcDbLine
 10
29.40000000000004
 20
23.99999999999992
 30
0.0
 11
29.40000000000004
 21
44.9999999999999
 31
0.0
  0
ARC
  5
B1FC
330
1F
100
AcDbEntity
  8
AM_0
100
AcDbCircle
 10
27.4000000000001
 20
44.99999999999993
 30
0.0
 40
2.000000000000035
100
AcDbArc
 50
0.0
 51
180.0
  0
INSERT
  5
B1FF
330
1F
100
AcDbEntity
  8
AM_0
100
AcDbBlockReference
  2
CBF08
 10
15.10657383552984
 20
32.00000000000002
 30
0.0
 50
180.0
  0
LINE
  5
B22B
102
{ACAD_REACTORS
330
B251
102
}
330
1F
100
AcDbEntity
  8
AM_0
100
AcDbLine
 10
8.900000000000039
 20
42.00000000000001
 30
0.0
 11
29.40000000000004
 21
41.99999999999998
 31
0.0
  0
LINE
  5
B22C
102
{ACAD_REACTORS
330
B251
102
}
330
1F
100
AcDbEntity
  8
AM_0
100
AcDbLine
 10
1.200000000000051
 20
52.00000000000001
 30
0.0
 11
8.300000000000075
 21
52.00000000000001
 31
0.0
  0
LINE
  5
B22D
102
{ACAD_REACTORS
330
B251
102
}
330
1F
100
AcDbEntity
  8
AM_7
100
AcDbLine
 10
-3.745828093393975
 20
46.0
 30
0.0
 11
6.30000000000013
 21
46.0
 31
0.0
  0
LINE
  5
B22E
102
{ACAD_REACTORS
330
B251
102
}
330
1F
100
AcDbEntity
  8
AM_0
100
AcDbLine
 10
5.000000000000059
 20
22.69999999999993
 30
0.0
 11
6.500000000000059
 21
24.19999999999995
 31
0.0
  0
LINE
  5
B22F
102
{ACAD_REACTORS
330
B251
102
}
330
1F
100
AcDbEntity
  8
AM_7
100
AcDbLine
 10
-4.492641116952252
 20
30.20000000000005
 30
0.0
 11
5.553186976441852
 21
30.20000000000005
 31
0.0
  0
LINE
  5
B230
102
{ACAD_REACTORS
330
B251
102
}
330
1F
100
AcDbEntity
  8
AM_7
100
AcDbLine
 10
5.432153322466152
 20
32.00000000000001
 30
0.0
 11
23.0925524106862
 21
31.99999999999999
 31
0.0
  0
LINE
  5
B231
102
{ACAD_REACTORS
330
B251
102
}
330
1F
100
AcDbEntity
  8
AM_0
100
AcDbLine
 10
5.821051144870865
 20
20.62499999999989
 30
0.0
 11
5.000000000000059
 21
20.62499999999989
 31
0.0
  0
LINE
  5
B232
102
{ACAD_REACTORS
330
B251
102
}
330
1F
100
AcDbEntity
  8
AM_0
100
AcDbLine
 10
5.830999497716335
 20
4.799999999999953
 30
0.0
 11
0.157508506861746
 21
4.799999999999954
 31
0.0
  0
LINE
  5
B233
102
{ACAD_REACTORS
330
B251
102
}
330
1F
100
AcDbEntity
  8
AM_0
100
AcDbLine
 10
2.489888813301377
 20
-0.0000000000000003
 30
0.0
 11
5.72977762660264
 21
-0.0000000000000007
 31
0.0
  0
LINE
  5
B234
102
{ACAD_REACTORS
330
B251
102
}
330
1F
100
AcDbEntity
  8
AM_0
100
AcDbLine
 10
5.274888813301346
 20
20.62499999999989
 30
0.0
 11
5.274888813301345
 21
4.799999999999953
 31
0.0
  0
LINE
  5
B235
102
{ACAD_REACTORS
330
B251
102
}
330
1F
100
AcDbEntity
  8
AM_0
100
AcDbLine
 10
0.7048888133013547
 20
20.62499999999989
 30
0.0
 11
0.7048888133013528
 21
4.799999999999954
 31
0.0
  0
LINE
  5
B236
102
{ACAD_REACTORS
330
B251
102
}
330
1F
100
AcDbEntity
  8
AM_0
100
AcDbLine
 10
5.000000000000058
 20
11.0
 30
0.0
 11
3.000000000000058
 21
19.20000000000005
 31
0.0
  0
LINE
  5
B237
102
{ACAD_REACTORS
330
B251
102
}
330
1F
100
AcDbEntity
  8
AM_0
100
AcDbLine
 10
1.200000000000051
 20
52.00000000000001
 30
0.0
 11
1.200000000000045
 21
7.000000000000007
 31
0.0
  0
LINE
  5
B238
102
{ACAD_REACTORS
330
B251
102
}
330
1F
100
AcDbEntity
  8
AM_0
100
AcDbLine
 10
5.000000000000059
 20
22.69999999999993
 30
0.0
 11
5.000000000000057
 21
7.000000000000007
 31
0.0
  0
LINE
  5
B239
102
{ACAD_REACTORS
330
B251
102
}
330
1F
100
AcDbEntity
  8
AM_0
100
AcDbLine
 10
0.1587264817318334
 20
4.79969549980899
 30
0.0
 11
0.0001522932452645
 21
0.2587248741755275
 31
0.0
  0
LINE
  5
B23A
102
{ACAD_REACTORS
330
B251
102
}
330
1F
100
AcDbEntity
  8
AM_0
100
AcDbLine
 10
2.489888813301377
 20
-0.0000000000000003
 30
0.0
 11
0.2521942168697251
 21
0.0
 31
0.0
  0
ARC
  5
B23B
102
{ACAD_REACTORS
330
B251
102
}
330
1F
100
AcDbEntity
  8
AM_0
100
AcDbCircle
 10
0.2500000000000001
 20
0.2500000000000213
 30
0.0
 40
0.25
100
AcDbArc
 50
178.0000000000028
 51
270.5028839204895
  0
LINE
  5
B23C
102
{ACAD_REACTORS
330
B251
102
}
330
1F
100
AcDbEntity
  8
AM_0
100
AcDbLine
 10
1.200000000000045
 20
7.000000000000007
 30
0.0
 11
5.000000000000057
 21
7.000000000000007
 31
0.0
  0
LINE
  5
B23D
102
{ACAD_REACTORS
330
B251
102
}
330
1F
100
AcDbEntity
  8
AM_0
100
AcDbLine
 10
0.200000000000052
 20
52.60000000000003
 30
0.0
 11
0.2000000000000486
 21
25.42499999999984
 31
0.0
  0
LINE
  5
B23E
102
{ACAD_REACTORS
330
B251
102
}
330
1F
100
AcDbEntity
  8
AM_0
100
AcDbLine
 10
0.1587264817318353
 20
20.62530450019085
 30
0.0
 11
0.0001522932452675
 21
25.16627512582432
 31
0.0
  0
LINE
  5
B23F
102
{ACAD_REACTORS
330
B251
102
}
330
1F
100
AcDbEntity
  8
AM_0
100
AcDbLine
 10
1.200000000000047
 20
20.62499999999989
 30
0.0
 11
0.1575085068617479
 21
20.62499999999989
 31
0.0
  0
LINE
  5
B240
102
{ACAD_REACTORS
330
B251
102
}
330
1F
100
AcDbEntity
  8
AM_0
100
AcDbLine
 10
3.000000000000058
 20
22.0
 30
0.0
 11
3.000000000000058
 21
19.20000000000005
 31
0.0
  0
LINE
  5
B241
102
{ACAD_REACTORS
330
B251
102
}
330
1F
100
AcDbEntity
  8
AM_0
100
AcDbLine
 10
3.000000000000058
 20
19.20000000000005
 30
0.0
 11
1.200000000000047
 21
19.20000000000005
 31
0.0
  0
LINE
  5
B242
102
{ACAD_REACTORS
330
B251
102
}
330
1F
100
AcDbEntity
  8
AM_0
100
AcDbLine
 10
5.000000000000059
 20
22.0
 30
0.0
 11
3.000000000000058
 21
22.0
 31
0.0
  0
LINE
  5
B243
102
{ACAD_REACTORS
330
B251
102
}
330
1F
100
AcDbEntity
  8
AM_0
100
AcDbLine
 10
1.000000000000059
 20
25.42499999999984
 30
0.0
 11
0.2521942168697282
 21
25.42499999999984
 31
0.0
  0
ARC
  5
B244
102
{ACAD_REACTORS
330
B251
102
}
330
1F
100
AcDbEntity
  8
AM_0
100
AcDbCircle
 10
0.2500000000000031
 20
25.17499999999984
 30
0.0
 40
0.25
100
AcDbArc
 50
89.49711607951048
 51
181.9999999999971
  0
LINE
  5
B245
102
{ACAD_REACTORS
330
B251
102
}
330
1F
100
AcDbEntity
  8
AM_0
100
AcDbLine
 10
0.200000000000052
 20
52.60000000000003
 30
0.0
 11
1.000000000000062
 21
52.60000000000003
 31
0.0
  0
LINE
  5
B246
102
{ACAD_REACTORS
330
B251
102
}
330
1F
100
AcDbEntity
  8
AM_0
100
AcDbLine
 10
5.821051144870863
 20
4.799695499808989
 30
0.0
 11
5.979625333357375
 21
0.2587248741755268
 31
0.0
  0
ARC
  5
B247
102
{ACAD_REACTORS
330
B251
102
}
330
1F
100
AcDbEntity
  8
AM_0
100
AcDbCircle
 10
5.72977762660264
 20
0.2500000000000206
 30
0.0
 40
0.25
100
AcDbArc
 50
270.0
 51
1.999999999997115
  0
LINE
  5
B248
102
{ACAD_REACTORS
330
B251
102
}
330
1F
100
AcDbEntity
  8
AM_0
100
AcDbLine
 10
29.40000000000004
 20
44.99999999999999
 30
0.0
 11
29.40000000000004
 21
23.99999999999999
 31
0.0
  0
LINE
  5
B249
102
{ACAD_REACTORS
330
B251
102
}
330
1F
100
AcDbEntity
  8
AM_7
100
AcDbLine
 10
15.20000000000004
 20
41.18705088988029
 30
0.0
 11
15.20000000000004
 21
22.62609678117927
 31
0.0
  0
LINE
  5
B24A
102
{ACAD_REACTORS
330
B251
102
}
330
1F
100
AcDbEntity
  8
AM_0
100
AcDbLine
 10
6.500000000000059
 20
24.19999999999995
 30
0.0
 11
29.40000000000004
 21
24.20000000000003
 31
0.0
  0
LINE
  5
B24B
102
{ACAD_REACTORS
330
B251
102
}
330
1F
100
AcDbEntity
  8
AM_0
100
AcDbLine
 10
5.821051144870865
 20
20.62530450019085
 30
0.0
 11
5.919485005095681
 21
23.44408145320472
 31
0.0
  0
LINE
  5
B24C
102
{ACAD_REACTORS
330
B251
102
}
330
1F
100
AcDbEntity
  8
AM_0
100
AcDbLine
 10
7.400000000000041
 20
52.00000000000001
 30
0.0
 11
7.40000000000004
 21
43.5
 31
0.0
  0
LINE
  5
B24D
102
{ACAD_REACTORS
330
B251
102
}
330
1F
100
AcDbEntity
  8
AM_0
100
AcDbLine
 10
8.300000000000075
 20
52.00000000000001
 30
0.0
 11
8.300000000000073
 21
42.60000000000003
 31
0.0
  0
LINE
  5
B24E
102
{ACAD_REACTORS
330
B251
102
}
330
1F
100
AcDbEntity
  8
AM_0
100
AcDbLine
 10
8.900000000000039
 20
42.00000000000001
 30
0.0
 11
7.40000000000004
 21
43.5
 31
0.0
  0
LINE
  5
B24F
102
{ACAD_REACTORS
330
B251
102
}
330
1F
100
AcDbEntity
  8
AM_0
100
AcDbLine
 10
25.40000000000004
 20
44.99999999999999
 30
0.0
 11
25.40000000000004
 21
41.99999999999999
 31
0.0
  0
ARC
  5
B250
102
{ACAD_REACTORS
330
B251
102
}
330
1F
100
AcDbEntity
  8
AM_0
100
AcDbCircle
 10
27.4000000000001
 20
45.0
 30
0.0
 40
2.0
100
AcDbArc
 50
0.0
 51
180.0
  0
LINE
  5
B27F
330
1F
100
AcDbEntity
  8
AM_0
100
AcDbLine
 10
25.39999999999996
 20
-56.5859201686149
 30
0.0
 11
4.999999999999992
 21
-56.5859201686149
 31
0.0
  0
DIMENSION
  5
B289
330
1F
100
AcDbEntity
  8
AM_5
100
AcDbDimension
  2
*D17
 10
5.979777626602639
 20
-12.27762084124614
 30
0.0
 11
2.989888813301319
 21
-8.877620841246141
 31
0.0
 70
    32
 71
     5
 42
5.97977762660264
  3
AM_JIS$0
100
AcDbAlignedDimension
 13
0.0000000000000001
 23
0.2500000000000142
 33
0.0
 14
5.97977762660264
 24
0.2500000000000135
 34
0.0
100
AcDbRotatedDimension
1001
ACAD
1000
DSTYLE
1002
{
1070
   271
1070
     0
1002
}
  0
DIMENSION
  5
B2AF
330
1F
100
AcDbEntity
  8
AM_5
100
AcDbDimension
  2
*D18
 10
187.1217033141956
 20
48.99999999999987
 30
0.0
 11
183.7217033141956
 21
24.49999999999994
 31
0.0
 70
    32
 71
     5
 42
48.99999999999991
  3
AM_JIS$0
100
AcDbAlignedDimension
 13
0.0
 23
0.0
 33
0.0
 14
150.0
 24
48.99999999999987
 34
0.0
 50
89.99999999999998
100
AcDbRotatedDimension
  0
LINE
  5
B38A
330
1F
100
AcDbEntity
  8
AM_0
100
AcDbLine
 10
-5.00000000000001
 20
24.00000000000002
 30
0.0
 11
-5.0
 21
0.8000000000000278
 31
0.0
  0
LINE
  5
B38B
330
1F
100
AcDbEntity
  8
AM_0
100
AcDbLine
 10
-0.8000000000000083
 20
24.00000000000002
 30
0.0
 11
-5.00000000000001
 21
24.00000000000002
 31
0.0
  0
LINE
  5
B38C
330
1F
100
AcDbEntity
  8
AM_0
100
AcDbLine
 10
0.0190540371457645
 20
0.8000000000000271
 30
0.0
 11
-5.0
 21
0.8000000000000278
 31
0.0
  0
LINE
  5
B391
330
1F
100
AcDbEntity
  8
AM_0
100
AcDbLine
 10
-0.0080853865755697
 20
24.79191461342443
 30
0.0
 11
-0.8000000000000083
 21
24.00000000000002
 31
0.0
  0
ENDSEC
  0
SECTION
  2
OBJECTS
  0
DICTIONARY
  5
C
330
0
100
AcDbDictionary
281
     1
  3
ACAD_COLOR
350
B416
  3
ACAD_GROUP
350
D
  3
ACAD_LAYOUT
350
1A
  3
ACAD_MATERIAL
350
B415
  3
ACAD_MLINESTYLE
350
17
  3
ACAD_PLOTSETTINGS
350
19
  3
ACAD_PLOTSTYLENAME
350
E
  3
ACAD_TABLESTYLE
350
B417
  3
ACDBHEADERROUNDTRIPXREC
350
B50E
  3
ACDBVARIABLEDICTIONARY
350
30
  3
ACMDICTIONARY
350
4D
  3
AMG
350
3F
  3
AMGSNAPSETTINGS
350
73
  3
DWGPROPS
350
B50D
  3
ENG_DATA
350
21C6
  3
FILENAME
350
21C9
  3
HOLD_DIC_DATA
350
21C4
  3
TABLE_DIC_DATA
350
1C0B
  3
ZWKSIZE
350
21CB
  0
DICTIONARY
  5
165
330
1F
100
AcDbDictionary
280
     1
281
     1
  3
ACAD_INDEX
360
B3DB
  3
ACAD_LAYOUTSELFREF
360
B40E
  0
DICTIONARY
  5
B40C
330
1B
100
AcDbDictionary
280
     1
281
     1
  3
ACAD_LAYOUTSELFREF
360
B40D
  0
DICTIONARY
  5
B416
102
{ACAD_REACTORS
330
C
102
}
330
C
100
AcDbDictionary
281
     1
  0
DICTIONARY
  5
D
102
{ACAD_REACTORS
330
C
102
}
330
C
100
AcDbDictionary
281
     1
  3
*A1
350
7C0D
  3
*A2
350
7C0E
  3
*A3
350
7FE3
  3
*A4
350
8E0E
  3
*A5
350
AD5A
  3
*A6
350
B180
  3
*A7
350
B22A
  3
*A8
350
B251
  0
DICTIONARY
  5
1A
102
{ACAD_REACTORS
330
C
102
}
330
C
100
AcDbDictionary
281
     1
  3
Model
350
B419
  3
レイアウト1
350
B41A
  0
DICTIONARY
  5
B415
102
{ACAD_REACTORS
330
C
102
}
330
C
100
AcDbDictionary
281
     1
  0
DICTIONARY
  5
17
102
{ACAD_REACTORS
330
C
102
}
330
C
100
AcDbDictionary
281
     1
  3
STANDARD
350
18
  0
DICTIONARY
  5
19
102
{ACAD_REACTORS
330
C
102
}
330
C
100
AcDbDictionary
281
     1
  0
ACDBDICTIONARYWDFLT
  5
E
102
{ACAD_REACTORS
330
C
102
}
330
C
100
AcDbDictionary
281
     1
  3
Normal
350
F
100
AcDbDictionaryWithDefault
340
F
  0
DICTIONARY
  5
B417
102
{ACAD_REACTORS
330
C
102
}
330
C
100
AcDbDictionary
281
     1
  3
Standard
350
B418
  0
DICTIONARY
  5
B50E
102
{ACAD_REACTORS
330
C
102
}
330
C
100
AcDbDictionary
281
     1
  0
DICTIONARY
  5
30
102
{ACAD_REACTORS
330
C
102
}
330
C
100
AcDbDictionary
281
     1
  3
CTABLESTYLE
350
B509
  3
DIMASSOC
350
B50A
  3
INDEXCTL
350
31
  3
PROJECTNAME
350
B50B
  3
SORTENTS
350
42BE
  0
DICTIONARY
  5
4D
102
{ACAD_REACTORS
330
C
102
}
330
C
100
AcDbDictionary
281
     1
  3
ACMSTDDICTIONARY
350
17E
  3
AMDTSECTSYM_ARROWCOLOR
350
B492
  0
DICTIONARY
  5
3F
102
{ACAD_REACTORS
330
C
102
}
330
C
100
AcDbDictionary
281
     1
  0
DICTIONARY
  5
73
102
{ACAD_REACTORS
330
C
102
}
330
C
100
AcDbDictionary
281
     1
  0
XRECORD
  5
B50D
102
{ACAD_REACTORS
330
C
102
}
330
C
100
AcDbXrecord
280
     1
  1
DWGPROPS COOKIE
  2

  3

  4

  6

  7

  8

  9

300
AmdtFileType=82
301
=
302
=
303
=
304
=
305
=
306
=
307
=
308
=
309
=
 40
1.07169042824074
 41
2451943.610431666
 42
2455603.373095521
  1

 90
        1
  0
DICTIONARY
  5
21C6
102
{ACAD_REACTORS
330
C
102
}
330
C
100
AcDbDictionary
281
     1
  3
ENG_ID
350
21C7
  0
DICTIONARY
  5
21C9
102
{ACAD_REACTORS
330
C
102
}
330
C
100
AcDbDictionary
281
     1
  3
FILENAME
350
21CA
  0
DICTIONARY
  5
21C4
102
{ACAD_REACTORS
330
C
102
}
330
C
100
AcDbDictionary
281
     1
  3
HOLD_DATA
350
21C5
  0
DICTIONARY
  5
1C0B
102
{ACAD_REACTORS
330
C
102
}
330
C
100
AcDbDictionary
281
     1
  3
INPUT_DATA
350
1C0D
  3
TABLE_DATA
350
1C0C
  0
DICTIONARY
  5
21CB
102
{ACAD_REACTORS
330
C
102
}
330
C
100
AcDbDictionary
281
     1
  3
ZWKSIZE
350
21CC
  0
DICTIONARY
  5
B3DB
102
{ACAD_REACTORS
330
165
102
}
330
165
100
AcDbDictionary
281
     1
  3
*A1
350
B3DC
  0
XRECORD
  5
B40E
102
{ACAD_REACTORS
330
165
102
}
330
165
100
AcDbXrecord
280
     1
340
1F
  0
XRECORD
  5
B40D
102
{ACAD_REACTORS
330
B40C
102
}
330
B40C
100
AcDbXrecord
280
     1
340
1B
  0
GROUP
  5
7C0D
102
{ACAD_REACTORS
330
D
102
}
330
D
100
AcDbGroup
300

 70
     1
 71
     1
  0
GROUP
  5
7C0E
102
{ACAD_REACTORS
330
D
102
}
330
D
100
AcDbGroup
300

 70
     1
 71
     1
  0
GROUP
  5
7FE3
102
{ACAD_REACTORS
330
D
102
}
330
D
100
AcDbGroup
300

 70
     1
 71
     1
  0
GROUP
  5
8E0E
102
{ACAD_REACTORS
330
D
102
}
330
D
100
AcDbGroup
300

 70
     1
 71
     1
  0
GROUP
  5
AD5A
102
{ACAD_REACTORS
330
D
102
}
330
D
100
AcDbGroup
300

 70
     1
 71
     1
340
AD53
340
AD52
340
AD54
340
AD56
340
AD57
340
AD50
  0
GROUP
  5
B180
102
{ACAD_REACTORS
330
D
102
}
330
D
100
AcDbGroup
300

 70
     1
 71
     1
  0
GROUP
  5
B22A
102
{ACAD_REACTORS
330
D
102
}
330
D
100
AcDbGroup
300

 70
     1
 71
     1
  0
GROUP
  5
B251
102
{ACAD_REACTORS
330
D
102
}
330
D
100
AcDbGroup
300

 70
     1
 71
     1
340
B22C
340
B22D
340
B22E
340
B22F
340
B230
340
B231
340
B232
340
B233
340
B234
340
B235
340
B236
340
B237
340
B238
340
B239
340
B23A
340
B23B
340
B23C
340
B23D
340
B23E
340
B23F
340
B240
340
B241
340
B242
340
B243
340
B244
340
B245
340
B246
340
B247
340
B248
340
B249
340
B24A
340
B24B
340
B22B
340
B24C
340
B24D
340
B24E
340
B24F
340
B250
  0
LAYOUT
  5
B419
102
{ACAD_XDICTIONARY
360
B50F
102
}
102
{ACAD_REACTORS
330
1A
102
}
330
1A
100
AcDbPlotSettings
  1

  2
SII LP-1010 (C2 VR)2R
  4

  6

 40
0.0
 41
0.0
 42
0.0
 43
0.0
 44
0.0
 45
0.0
 46
0.0
 47
0.0
 48
0.0
 49
0.0
140
0.0
141
0.0
142
1.0
143
1.0
 70
  1712
 72
     0
 73
     0
 74
     0
  7
sei_cad.ctb
 75
     0
147
1.0
148
0.0
149
0.0
100
AcDbLayout
  1
Model
 70
     1
 71
     0
 10
0.0
 20
0.0
 11
12.0
 21
9.0
 12
0.0
 22
0.0
 32
0.0
 14
0.0
 24
0.0
 34
0.0
 15
0.0
 25
0.0
 35
0.0
146
0.0
 13
0.0
 23
0.0
 33
0.0
 16
1.0
 26
0.0
 36
0.0
 17
0.0
 27
1.0
 37
0.0
 76
     0
330
1F
  0
LAYOUT
  5
B41A
102
{ACAD_XDICTIONARY
360
B511
102
}
102
{ACAD_REACTORS
330
1A
102
}
330
1A
100
AcDbPlotSettings
  1

  2
SII LP-1010 (C2 VR)2R
  4

  6

 40
0.0
 41
0.0
 42
0.0
 43
0.0
 44
0.0
 45
0.0
 46
0.0
 47
0.0
 48
0.0
 49
0.0
140
0.0
141
0.0
142
1.0
143
1.0
 70
   688
 72
     0
 73
     0
 74
     5
  7
sei_cad.ctb
 75
    16
147
1.0
148
0.0
149
0.0
100
AcDbLayout
  1
レイアウト1
 70
     1
 71
     1
 10
0.0
 20
0.0
 11
420.0
 21
297.0
 12
0.0
 22
0.0
 32
0.0
 14
1.000000000000000E+20
 24
1.000000000000000E+20
 34
1.000000000000000E+20
 15
-1.000000000000000E+20
 25
-1.000000000000000E+20
 35
-1.000000000000000E+20
146
0.0
 13
0.0
 23
0.0
 33
0.0
 16
1.0
 26
0.0
 36
0.0
 17
0.0
 27
1.0
 37
0.0
 76
     0
330
1B
  0
MLINESTYLE
  5
18
102
{ACAD_REACTORS
330
17
102
}
330
17
100
AcDbMlineStyle
  2
STANDARD
 70
     0
  3

 62
   256
 51
90.0
 52
90.0
 71
     2
 49
0.5
 62
   256
  6
BYLAYER
 49
-0.5
 62
   256
  6
BYLAYER
  0
ACDBPLACEHOLDER
  5
F
102
{ACAD_REACTORS
330
E
102
}
330
E
  0
TABLESTYLE
  5
B418
102
{ACAD_REACTORS
330
B417
102
}
330
B417
100
AcDbTableStyle
  3
Standard
 70
     0
 71
     0
 40
1.5
 41
1.5
280
     0
281
     0
  7
STANDARD
140
4.5
170
     2
 62
     0
 63
     7
283
     0
274
    -2
284
     1
 64
     0
275
    -2
285
     1
 65
     0
276
    -2
286
     1
 66
     0
277
    -2
287
     1
 67
     0
278
    -2
288
     1
 68
     0
279
    -2
289
     1
 69
     0
  7
STANDARD
140
6.0
170
     5
 62
     0
 63
     7
283
     0
274
    -2
284
     1
 64
     0
275
    -2
285
     1
 65
     0
276
    -2
286
     1
 66
     0
277
    -2
287
     1
 67
     0
278
    -2
288
     1
 68
     0
279
    -2
289
     1
 69
     0
  7
STANDARD
140
4.5
170
     5
 62
     0
 63
     7
283
     0
274
    -2
284
     1
 64
     0
275
    -2
285
     1
 65
     0
276
    -2
286
     1
 66
     0
277
    -2
287
     1
 67
     0
278
    -2
288
     1
 68
     0
279
    -2
289
     1
 69
     0
  0
DICTIONARYVAR
  5
B509
102
{ACAD_REACTORS
330
30
102
}
330
30
100
DictionaryVariables
280
     0
  1
STANDARD
  0
DICTIONARYVAR
  5
B50A
102
{ACAD_REACTORS
330
30
102
}
330
30
100
DictionaryVariables
280
     0
  1
1
  0
DICTIONARYVAR
  5
31
102
{ACAD_REACTORS
330
30
102
}
330
30
100
DictionaryVariables
280
     0
  1
1
  0
DICTIONARYVAR
  5
B50B
102
{ACAD_REACTORS
330
30
102
}
330
30
100
DictionaryVariables
280
     0
  1

  0
DICTIONARYVAR
  5
42BE
102
{ACAD_REACTORS
330
30
102
}
330
30
100
DictionaryVariables
280
     0
  1
96
  0
DICTIONARY
  5
17E
102
{ACAD_REACTORS
330
4D
102
}
330
4D
100
AcDbDictionary
281
     1
  0
XRECORD
  5
B492
102
{ACAD_REACTORS
330
4D
102
}
330
4D
100
AcDbXrecord
280
     1
 90
-1023410169
  0
XRECORD
  5
21C7
102
{ACAD_REACTORS
330
21C6
102
}
330
21C6
100
AcDbXrecord
280
     1
  1
HOLD
  0
XRECORD
  5
21CA
102
{ACAD_REACTORS
330
21C9
102
}
330
21C9
100
AcDbXrecord
280
     1
  1
21000065__00___
  0
XRECORD
  5
21C5
102
{ACAD_REACTORS
330
21C4
102
}
330
21C4
100
AcDbXrecord
280
     1
  1
クランクシャフト加工用 ^M^J１コーナー型 ^M^J15.875 ^M^J20 ^M^Jクランプオン ^M^J９０° ^M^J1 ^M^J鋼 ^M^J ^M^J ^M^J ^M^J ^M^J
  0
XRECORD
  5
1C0D
102
{ACAD_REACTORS
330
1C0B
102
}
330
1C0B
100
AcDbXrecord
280
     1
  1
1,,,,,,,,,^M^J2,,,,,,,,,^M^J3,,,,,,,,,^M^J4,,,,,,,,,^M^J5,,,,,,,,,^M^J6,,,,,,,,,^M^J7,,,,,,,,,^M^J8,,,,,,,,,^M^J9,,,,,,,,,^M^J10,,,,,,,,,
  0
XRECORD
  5
1C0C
102
{ACAD_REACTORS
330
1C0B
102
}
330
1C0B
100
AcDbXrecord
280
     1
  1
10,10
  0
XRECORD
  5
21CC
102
{ACAD_REACTORS
330
21CB
102
}
330
21CB
100
AcDbXrecord
280
     1
  1
3
  0
LAYER_INDEX
  5
B3DC
102
{ACAD_REACTORS
330
B3DB
102
}
330
B3DB
100
AcDbIndex
 40
2455603.373095521
100
AcDbLayerIndex
  8
0
360
B3DD
 90
        0
  8
AM_5
360
B3DE
 90
        9
  8
DEFPOINTS
360
B3DF
 90
        0
  8
AM_0
360
B3E0
 90
       80
  8
AM_6
360
B3E1
 90
        1
  8
AM_7
360
B3E2
 90
        7
  8
AM_4
360
B3E3
 90
        3
  8
AM_11
360
B3E4
 90
        1
  0
DICTIONARY
  5
B50F
330
B419
100
AcDbDictionary
280
     1
281
     1
  3
ACAD_XREC_ROUNDTRIP
360
B510
  0
DICTIONARY
  5
B511
330
B41A
100
AcDbDictionary
280
     1
281
     1
  3
ACAD_XREC_ROUNDTRIP
360
B512
  0
IDBUFFER
  5
B3DD
330
0
100
AcDbIdBuffer
  0
IDBUFFER
  5
B3DE
330
0
100
AcDbIdBuffer
330
AD75
330
AD82
330
ADCD
330
ADDA
330
ADE7
330
AE11
330
AE5F
330
B289
330
B2AF
  0
IDBUFFER
  5
B3DF
330
0
100
AcDbIdBuffer
  0
IDBUFFER
  5
B3E0
330
0
100
AcDbIdBuffer
330
AC39
330
AC3A
330
AC3B
330
AC3E
330
AC40
330
AC42
330
AC43
330
ACB2
330
ACE0
330
ACE3
330
ACF9
330
ACFA
330
ACFC
330
AD43
330
AD44
330
AD46
330
AD47
330
AD48
330
AD49
330
AD4A
330
AD4B
330
AD4D
330
AD4E
330
AD4F
330
AD50
330
AD52
330
AD53
330
AD54
330
AD56
330
AD57
330
AD5F
330
AD60
330
AD65
330
AD66
330
AFE0
330
B1DE
330
B1F7
330
B1F8
330
B1F9
330
B1FC
330
B1FF
330
B22B
330
B22C
330
B22E
330
B231
330
B232
330
B233
330
B234
330
B235
330
B236
330
B237
330
B238
330
B239
330
B23A
330
B23B
330
B23C
330
B23D
330
B23E
330
B23F
330
B240
330
B241
330
B242
330
B243
330
B244
330
B245
330
B246
330
B247
330
B248
330
B24A
330
B24B
330
B24C
330
B24D
330
B24E
330
B24F
330
B250
330
B27F
330
B38A
330
B38B
330
B38C
330
B391
  0
IDBUFFER
  5
B3E1
330
0
100
AcDbIdBuffer
330
83BD
  0
IDBUFFER
  5
B3E2
330
0
100
AcDbIdBuffer
330
AD45
330
AD5C
330
AD63
330
B22D
330
B22F
330
B230
330
B249
  0
IDBUFFER
  5
B3E3
330
0
100
AcDbIdBuffer
330
AC4E
330
AD6A
330
AD6B
  0
IDBUFFER
  5
B3E4
330
0
100
AcDbIdBuffer
330
AD68
  0
XRECORD
  5
B510
102
{ACAD_REACTORS
330
B50F
102
}
330
B50F
100
AcDbXrecord
280
     1
102
SHADEPLOT
 70
     0
102
SHADEPLOTRESLEVEL
 70
     2
102
SHADEPLOTCUSTOMDPI
 70
   300
  0
XRECORD
  5
B512
102
{ACAD_REACTORS
330
B511
102
}
330
B511
100
AcDbXrecord
280
     1
102
SHADEPLOT
 70
     0
102
SHADEPLOTRESLEVEL
 70
     2
102
SHADEPLOTCUSTOMDPI
 70
   300
  0
ENDSEC
  0
EOF
