  0
SECTION
  2
HEADER
  9
$ACADVER
  1
AC1015
  9
$ACADMAINTVER
 70
    20
  9
$DWGCODEPAGE
  3
ANSI_932
  9
$INSBASE
 10
0.0
 20
0.0
 30
0.0
  9
$EXTMIN
 10
-434.0336583936204
 20
-166.5915730952556
 30
-0.0015258207003583
  9
$EXTMAX
 10
208.7874714444683
 20
56.00136426048255
 30
0.0000000349246037
  9
$LIMMIN
 10
-254.0164474025832
 20
-111.0204447727817
  9
$LIMMAX
 10
127.5053406879706
 20
190.6619199998313
  9
$ORTHOMODE
 70
     0
  9
$REGENMODE
 70
     1
  9
$FILLMODE
 70
     1
  9
$QTEXTMODE
 70
     0
  9
$MIRRTEXT
 70
     1
  9
$LTSCALE
 40
1.0
  9
$ATTMODE
 70
     1
  9
$TEXTSIZE
 40
2.5
  9
$TRACEWID
 40
1.0
  9
$TEXTSTYLE
  7
STANDARD
  9
$CLAYER
  8
AM_0
  9
$CELTYPE
  6
BYLAYER
  9
$CECOLOR
 62
   256
  9
$CELTSCALE
 40
1.0
  9
$DISPSILH
 70
     0
  9
$DIMSCALE
 40
1.0
  9
$DIMASZ
 40
2.5
  9
$DIMEXO
 40
0.0
  9
$DIMDLI
 40
10.0
  9
$DIMRND
 40
0.0
  9
$DIMDLE
 40
0.0
  9
$DIMEXE
 40
1.0
  9
$DIMTP
 40
0.1
  9
$DIMTM
 40
0.1000000001
  9
$DIMTXT
 40
3.799999999999998
  9
$DIMCEN
 40
0.0
  9
$DIMTSZ
 40
0.0
  9
$DIMTOL
 70
     0
  9
$DIMLIM
 70
     0
  9
$DIMTIH
 70
     0
  9
$DIMTOH
 70
     0
  9
$DIMSE1
 70
     0
  9
$DIMSE2
 70
     0
  9
$DIMTAD
 70
     3
  9
$DIMZIN
 70
     9
  9
$DIMBLK
  1
OPEN30
  9
$DIMASO
 70
     1
  9
$DIMSHO
 70
     1
  9
$DIMPOST
  1

  9
$DIMAPOST
  1
"
  9
$DIMALT
 70
     0
  9
$DIMALTD
 70
     2
  9
$DIMALTF
 40
0.0393701
  9
$DIMLFAC
 40
1.0
  9
$DIMTOFL
 70
     1
  9
$DIMTVP
 40
0.0
  9
$DIMTIX
 70
     0
  9
$DIMSOXD
 70
     0
  9
$DIMSAH
 70
     0
  9
$DIMBLK1
  1

  9
$DIMBLK2
  1

  9
$DIMSTYLE
  2
AM_JIS
  9
$DIMCLRD
 70
   256
  9
$DIMCLRE
 70
   256
  9
$DIMCLRT
 70
     2
  9
$DIMTFAC
 40
0.71
  9
$DIMGAP
 40
1.5
  9
$DIMJUST
 70
     0
  9
$DIMSD1
 70
     0
  9
$DIMSD2
 70
     0
  9
$DIMTOLJ
 70
     0
  9
$DIMTZIN
 70
     8
  9
$DIMALTZ
 70
     0
  9
$DIMALTTZ
 70
     0
  9
$DIMUPT
 70
     0
  9
$DIMDEC
 70
     2
  9
$DIMTDEC
 70
     2
  9
$DIMALTU
 70
     2
  9
$DIMALTTD
 70
     2
  9
$DIMTXSTY
  7
STANDARD
  9
$DIMAUNIT
 70
     1
  9
$DIMADEC
 70
     1
  9
$DIMALTRND
 40
0.0
  9
$DIMAZIN
 70
     2
  9
$DIMDSEP
 70
    46
  9
$DIMATFIT
 70
     3
  9
$DIMFRAC
 70
     0
  9
$DIMLDRBLK
  1
OPEN30
  9
$DIMLUNIT
 70
     2
  9
$DIMLWD
 70
    -1
  9
$DIMLWE
 70
    -1
  9
$DIMTMOVE
 70
     0
  9
$LUNITS
 70
     2
  9
$LUPREC
 70
     2
  9
$SKETCHINC
 40
1.0
  9
$FILLETRAD
 40
1.0
  9
$AUNITS
 70
     1
  9
$AUPREC
 70
     5
  9
$MENU
  1
.
  9
$ELEVATION
 40
0.0
  9
$PELEVATION
 40
0.0
  9
$THICKNESS
 40
0.0
  9
$LIMCHECK
 70
     0
  9
$CHAMFERA
 40
0.0
  9
$CHAMFERB
 40
0.0
  9
$CHAMFERC
 40
20.0
  9
$CHAMFERD
 40
0.0
  9
$SKPOLY
 70
     0
  9
$TDCREATE
 40
2451943.610431666
  9
$TDUCREATE
 40
2451943.235431667
  9
$TDUPDATE
 40
2455603.373632269
  9
$TDUUPDATE
 40
2455602.998632269
  9
$TDINDWG
 40
1.0760341204
  9
$TDUSRTIMER
 40
1.0760339468
  9
$USRTIMER
 70
     1
  9
$ANGBASE
 50
0.0
  9
$ANGDIR
 70
     0
  9
$PDMODE
 70
     0
  9
$PDSIZE
 40
0.0
  9
$PLINEWID
 40
0.0
  9
$SPLFRAME
 70
     0
  9
$SPLINETYPE
 70
     6
  9
$SPLINESEGS
 70
     8
  9
$HANDSEED
  5
B88A
  9
$SURFTAB1
 70
     6
  9
$SURFTAB2
 70
     6
  9
$SURFTYPE
 70
     6
  9
$SURFU
 70
     6
  9
$SURFV
 70
     6
  9
$UCSBASE
  2

  9
$UCSNAME
  2

  9
$UCSORG
 10
0.0
 20
0.0
 30
0.0
  9
$UCSXDIR
 10
1.0
 20
0.0
 30
0.0
  9
$UCSYDIR
 10
0.0
 20
1.0
 30
0.0
  9
$UCSORTHOREF
  2

  9
$UCSORTHOVIEW
 70
     0
  9
$UCSORGTOP
 10
0.0
 20
0.0
 30
0.0
  9
$UCSORGBOTTOM
 10
0.0
 20
0.0
 30
0.0
  9
$UCSORGLEFT
 10
0.0
 20
0.0
 30
0.0
  9
$UCSORGRIGHT
 10
0.0
 20
0.0
 30
0.0
  9
$UCSORGFRONT
 10
0.0
 20
0.0
 30
0.0
  9
$UCSORGBACK
 10
0.0
 20
0.0
 30
0.0
  9
$PUCSBASE
  2

  9
$PUCSNAME
  2

  9
$PUCSORG
 10
0.0
 20
0.0
 30
0.0
  9
$PUCSXDIR
 10
1.0
 20
0.0
 30
0.0
  9
$PUCSYDIR
 10
0.0
 20
1.0
 30
0.0
  9
$PUCSORTHOREF
  2

  9
$PUCSORTHOVIEW
 70
     0
  9
$PUCSORGTOP
 10
0.0
 20
0.0
 30
0.0
  9
$PUCSORGBOTTOM
 10
0.0
 20
0.0
 30
0.0
  9
$PUCSORGLEFT
 10
0.0
 20
0.0
 30
0.0
  9
$PUCSORGRIGHT
 10
0.0
 20
0.0
 30
0.0
  9
$PUCSORGFRONT
 10
0.0
 20
0.0
 30
0.0
  9
$PUCSORGBACK
 10
0.0
 20
0.0
 30
0.0
  9
$USERI1
 70
     0
  9
$USERI2
 70
     0
  9
$USERI3
 70
     0
  9
$USERI4
 70
     0
  9
$USERI5
 70
     0
  9
$USERR1
 40
0.0
  9
$USERR2
 40
0.0
  9
$USERR3
 40
0.0
  9
$USERR4
 40
0.0
  9
$USERR5
 40
0.0
  9
$WORLDVIEW
 70
     1
  9
$SHADEDGE
 70
     3
  9
$SHADEDIF
 70
    70
  9
$TILEMODE
 70
     1
  9
$MAXACTVP
 70
    64
  9
$PINSBASE
 10
0.0
 20
0.0
 30
0.0
  9
$PLIMCHECK
 70
     0
  9
$PEXTMIN
 10
1.000000000000000E+20
 20
1.000000000000000E+20
 30
1.000000000000000E+20
  9
$PEXTMAX
 10
-1.000000000000000E+20
 20
-1.000000000000000E+20
 30
-1.000000000000000E+20
  9
$PLIMMIN
 10
0.0
 20
0.0
  9
$PLIMMAX
 10
420.0
 20
297.0
  9
$UNITMODE
 70
     0
  9
$VISRETAIN
 70
     1
  9
$PLINEGEN
 70
     0
  9
$PSLTSCALE
 70
     1
  9
$TREEDEPTH
 70
  3020
  9
$CMLSTYLE
  2
STANDARD
  9
$CMLJUST
 70
     0
  9
$CMLSCALE
 40
20.0
  9
$PROXYGRAPHICS
 70
     1
  9
$MEASUREMENT
 70
     1
  9
$CELWEIGHT
370
    -1
  9
$ENDCAPS
280
     0
  9
$JOINSTYLE
280
     0
  9
$LWDISPLAY
290
     0
  9
$INSUNITS
 70
     4
  9
$HYPERLINKBASE
  1

  9
$STYLESHEET
  1
ASAMI.ctb
  9
$XEDIT
290
     1
  9
$CEPSNTYPE
380
     0
  9
$PSTYLEMODE
290
     1
  9
$FINGERPRINTGUID
  2
{C77AB3BE-9CA2-11D3-BAF3-006094EB760E}
  9
$VERSIONGUID
  2
{DE48A615-7C0A-4A45-B739-259234FCC4F4}
  9
$EXTNAMES
290
     1
  9
$PSVPSCALE
 40
0.0
  9
$OLESTARTUP
290
     0
  0
ENDSEC
  0
SECTION
  2
CLASSES
  0
CLASS
  1
ACDBDICTIONARYWDFLT
  2
AcDbDictionaryWithDefault
  3
ObjectDBX Classes
 90
        0
280
     0
281
     0
  0
CLASS
  1
ACDBPLACEHOLDER
  2
AcDbPlaceHolder
  3
ObjectDBX Classes
 90
        0
280
     0
281
     0
  0
CLASS
  1
LAYOUT
  2
AcDbLayout
  3
ObjectDBX Classes
 90
        0
280
     0
281
     0
  0
CLASS
  1
ACME_DOCUMENT
  2
AcMeDbDoc
  3
AcMeServices
 90
        0
280
     0
281
     0
  0
CLASS
  1
ACMESCOPE
  2
AcMeScope
  3
AcMeServices
 90
        0
280
     0
281
     0
  0
CLASS
  1
ACMECOMMANDHISTORY
  2
AcMeCommandHistory
  3
AcMeServices
 90
        0
280
     0
281
     0
  0
CLASS
  1
DICTIONARYVAR
  2
AcDbDictionaryVar
  3
ObjectDBX Classes
 90
        0
280
     0
281
     0
  0
CLASS
  1
ACIMSYSVARMAN
  2
AcImSysVarManager
  3
AcMeServices
 90
        0
280
     0
281
     0
  0
CLASS
  1
ACIMREALSYSVAR
  2
AcImRealSysVar
  3
AcMeServices
 90
        0
280
     0
281
     0
  0
CLASS
  1
ACIMINTSYSVAR
  2
AcImIntSysVar
  3
AcMeServices
 90
        0
280
     0
281
     0
  0
CLASS
  1
ACMEDRAWINGMAN
  2
AcMeDrawingMan
  3
AcMeServices
 90
        0
280
     0
281
     0
  0
CLASS
  1
ACMEVIEW
  2
AcMeView
  3
AcMeServices
 90
        0
280
     0
281
     0
  0
CLASS
  1
ACDBENTITYCACHE
  2
AcMeEntityCache
  3
AcMeServices
 90
        0
280
     0
281
     0
  0
CLASS
  1
GSMANAGER
  2
AcMeGSManager
  3
AcMeServices
 90
        0
280
     0
281
     0
  0
CLASS
  1
AMDTINTERNALREACTOR
  2
AmdtInternalReactor
  3
AcMeServices
 90
        0
280
     0
281
     0
  0
CLASS
  1
ACMESTATEMGR
  2
AcMeStateMgr
  3
AcMeServices
 90
        0
280
     0
281
     0
  0
CLASS
  1
ACME_DATABASE
  2
AcMeDbDatabase
  3
AcMeServices
 90
        0
280
     0
281
     0
  0
CLASS
  1
ACRFINSADJUSTERMGR
  2
AcRfInsAdjusterMgr
  3
AcMeServices
 90
        0
280
     0
281
     0
  0
CLASS
  1
AMGSETTINGSOBJ
  2
AmgSettingsObj
  3
"AcadM|Product Description: AutoCAD Mechanical 2000|Company: Autodesk"
 90
        0
280
     0
281
     0
  0
CLASS
  1
AMGOBJPROPCFG
  2
AmgObjPropCfg
  3
"AmgLay|Product Description: AutoCAD Mechanical 2000|Company: Autodesk"
 90
        1
280
     0
281
     0
  0
CLASS
  1
ACMDATADICTIONARY
  2
AcmDataDictionary
  3
"AcmSymBB|Product Description: AutoCAD Mechanical 2004 DX|Company: Autodesk"
 90
        0
280
     0
281
     0
  0
CLASS
  1
ACMDATAENTRYBLOCK
  2
AcmDataEntryBlock
  3
"AcmSymBB|Product Description: AutoCAD Mechanical 2004 DX|Company: Autodesk"
 90
    32768
280
     0
281
     0
  0
CLASS
  1
ACIMSTRSYSVAR
  2
AcImStrSysVar
  3
AcMeServices
 90
        0
280
     0
281
     0
  0
CLASS
  1
ACAMGFILTERDAT
  2
AcAmgFilterDat
  3
"AcadM|Product Description: AutoCAD Mechanical 2000|Company: Autodesk"
 90
    32768
280
     0
281
     0
  0
CLASS
  1
LAYER_INDEX
  2
AcDbLayerIndex
  3
ObjectDBX Classes
 90
        0
280
     0
281
     0
  0
CLASS
  1
IDBUFFER
  2
AcDbIdBuffer
  3
ObjectDBX Classes
 90
        0
280
     0
281
     0
  0
CLASS
  1
ACMSTANDARDJIS
  2
AcmStandardJIS
  3
"Amdt_StdImp|Product Description: AutoCAD Mechanical 2004 DX|Company: Autodesk"
 90
    32768
280
     0
281
     0
  0
CLASS
  1
ACMSURFSTANDARDJIS
  2
AcmSurfTextStdJIS
  3
"Amdt_StdImp|Product Description: AutoCAD Mechanical 2004 DX|Company: Autodesk"
 90
    32768
280
     0
281
     0
  0
CLASS
  1
ACMFCFSTANDARDJIS
  2
AcmFCFStdJIS
  3
"Amdt_StdImp|Product Description: AutoCAD Mechanical 2004 DX|Company: Autodesk"
 90
    32768
280
     0
281
     0
  0
CLASS
  1
ACMWELDSTANDARDJIS
  2
AcmWeldingStdJIS
  3
"Amdt_StdImp|Product Description: AutoCAD Mechanical 2004 DX|Company: Autodesk"
 90
    32768
280
     0
281
     0
  0
CLASS
  1
ACMIDSTANDARDJIS
  2
AcmIdStdJIS
  3
"Amdt_StdImp|Product Description: AutoCAD Mechanical 2004 DX|Company: Autodesk"
 90
    32768
280
     0
281
     0
  0
CLASS
  1
ACMDATUMSTANDARDJIS
  2
AcmDatumStdJIS
  3
"Amdt_StdImp|Product Description: AutoCAD Mechanical 2004 DX|Company: Autodesk"
 90
    32768
280
     0
281
     0
  0
CLASS
  1
ACMBOMSTANDARDJIS
  2
AcmBOMStdJIS
  3
"Amdt_StdImp|Product Description: AutoCAD Mechanical 2004 DX|Company: Autodesk"
 90
    32768
280
     0
281
     0
  0
CLASS
  1
AMDTNOTE
  2
AmdtNote
  3
"AcmSymBB|Product Description: AutoCAD Mechanical 2004 DX|Company: Autodesk"
 90
    33791
280
     0
281
     1
  0
CLASS
  1
ACMDATAENTRYPART
  2
AcmDataEntryPart
  3
"AcmSymBB|Product Description: AutoCAD Mechanical 2004 DX|Company: Autodesk"
 90
    32768
280
     0
281
     0
  0
CLASS
  1
ACMPARTREF
  2
AcmPartRef
  3
"AcmSymBB|Product Description: AutoCAD Mechanical 2004 DX|Company: Autodesk"
 90
    33791
280
     0
281
     1
  0
CLASS
  1
ACDB_PROXY_ENTITY_DATA
  2
AcDbProxyEntityData
  3
ObjectDBX Classes
 90
    32768
280
     0
281
     0
  0
CLASS
  1
TABLESTYLE
  2
AcDbTableStyle
  3
ObjectDBX Classes
 90
     2047
280
     0
281
     0
  0
CLASS
  1
ACGREFMASTER
  2
AcGrefMaster
  3
AcAttribServices
 90
        0
280
     0
281
     0
  0
CLASS
  1
AM_DRAWING_MGR
  2
AcDmDwgMgr
  3
AcMechDwgViewMgmt
 90
        0
280
     0
281
     0
  0
CLASS
  1
AM_DWG_DOCUMENT
  2
AcDmDwgDocument
  3
AcMechDwgViewMgmt
 90
        0
280
     0
281
     0
  0
CLASS
  1
AM_DWG_SHEET
  2
AcDmSheet
  3
AcMechDwgViewMgmt
 90
        0
280
     0
281
     0
  0
CLASS
  1
AM_VIEWDIMPARMAP
  2
AcDmViewDimParMap
  3
AcMechDwgViewMgmt
 90
        0
280
     0
281
     0
  0
CLASS
  1
AM_DWGMGR_NAME
  2
AcDmDwgMgrName
  3
AcMechDwgViewMgmt
 90
        0
280
     0
281
     0
  0
CLASS
  1
ACGREFACADMASTER
  2
AcGrefacadMaster
  3
AcGrefServices
 90
        0
280
     0
281
     0
  0
CLASS
  1
AMDTMENUSTATEMGR
  2
AmdtMenuStateMgr
  3
McadcomServices
 90
        0
280
     0
281
     0
  0
CLASS
  1
AMDTMCOMMENUSTATE
  2
AmdtMcomMenuState
  3
McadcomServices
 90
        0
280
     0
281
     0
  0
CLASS
  1
AMIMASTER
  2
AmiMaster
  3
AmiServices
 90
        0
280
     0
281
     0
  0
CLASS
  1
MAPIAMMOUDLE
  2
MApiAmModule
  3
MApiAmServices
 90
        0
280
     0
281
     0
  0
CLASS
  1
AMDTADMENUSTATE
  2
AmdtAdMenuState
  3
DesignerServices
 90
        0
280
     0
281
     0
  0
CLASS
  1
ADAPPL
  2
AcAdAppl
  3
DesignerServices
 90
        0
280
     0
281
     0
  0
CLASS
  1
DEPMGR
  2
AcAdDepMgr
  3
DesignerServices
 90
        0
280
     0
281
     0
  0
CLASS
  1
PARAMMGR
  2
AcAdParamMgr
  3
DesignerServices
 90
        0
280
     0
281
     0
  0
CLASS
  1
PARAMSCOPE
  2
AcAdParamScope
  3
DesignerServices
 90
        0
280
     0
281
     0
  0
CLASS
  1
NAMEDAPPL
  2
AcAdNamedAppl
  3
DesignerServices
 90
        0
280
     0
281
     0
  0
CLASS
  1
AMDTDMMENUSTATE
  2
AmdtDmMenuState
  3
AcMechDwgViewMgmt
 90
        0
280
     0
281
     0
  0
CLASS
  1
AMDTAMMENUSTATE
  2
AmdtAmMenuState
  3
DesignerAssemblies
 90
        0
280
     0
281
     0
  0
CLASS
  1
ACAMPROJECT
  2
AcAmProject
  3
DesignerAssemblies
 90
        0
280
     0
281
     0
  0
CLASS
  1
ACAMGRCOMPDEF
  2
AcAmGrCompDef
  3
DesignerAssemblies
 90
        0
280
     0
281
     0
  0
CLASS
  1
ACCMCONTEXT
  2
AcCmContext
  3
DesignerAssemblies
 90
        0
280
     0
281
     0
  0
CLASS
  1
ACAMCOMPDEF
  2
AcAmCompDef
  3
DesignerAssemblies
 90
        0
280
     0
281
     0
  0
CLASS
  1
ACAMCOMPDEFMGR
  2
AcAmCompDefMgr
  3
DesignerAssemblies
 90
        0
280
     0
281
     0
  0
CLASS
  1
AMCONTEXTMGR
  2
AcAmContextMgr
  3
DesignerAssemblies
 90
        0
280
     0
281
     0
  0
CLASS
  1
ACAMCONTEXTMODELER
  2
AcAmContextModeler
  3
DesignerAssemblies
 90
        0
280
     0
281
     0
  0
CLASS
  1
CATALOGSTATE
  2
AcAmCatalogState
  3
DesignerAssemblies
 90
        0
280
     0
281
     0
  0
CLASS
  1
ACAMGRCOMPDEFSET
  2
AcAmGrCompDefSet
  3
DesignerAssemblies
 90
        0
280
     0
281
     0
  0
CLASS
  1
AMDTBROWSERDBTAB
  2
AmdtBrowserDbTab
  3
McadcomServices
 90
        0
280
     0
281
     0
  0
CLASS
  1
CBROWSERAPPOBJECT
  2
CBrowserAppObject
  3
McadcomServices
 90
        0
280
     0
281
     0
  0
CLASS
  1
DM_PLACEHOLDER
  2
AcDmSelsetPlaceholder
  3
AcMechDwgViewMgmt
 90
        0
280
     0
281
     0
  0
CLASS
  1
ACMSTANDARDISO
  2
AcmStandardISO
  3
"Amdt_StdImp|Product Description: AutoCAD Mechanical 2004 DX|Company: Autodesk"
 90
        0
280
     0
281
     0
  0
CLASS
  1
AMDTEDGESTANDARDISO13715
  2
AmdtEdgeStdISO13715
  3
"Amdt_StdImp|Product Description: AutoCAD Mechanical 2004 DX|Company: Autodesk"
 90
        0
280
     0
281
     0
  0
CLASS
  1
ACMSURFSTANDARDISO
  2
AcmSurfTextStdISO
  3
"Amdt_StdImp|Product Description: AutoCAD Mechanical 2004 DX|Company: Autodesk"
 90
        0
280
     0
281
     0
  0
CLASS
  1
ACMFCFSTANDARDISO
  2
AcmFCFStdISO
  3
"Amdt_StdImp|Product Description: AutoCAD Mechanical 2004 DX|Company: Autodesk"
 90
        0
280
     0
281
     0
  0
CLASS
  1
ACMWELDSTANDARDISO
  2
AcmWeldingStdISO
  3
"Amdt_StdImp|Product Description: AutoCAD Mechanical 2004 DX|Company: Autodesk"
 90
        0
280
     0
281
     0
  0
CLASS
  1
ACMIDSTANDARDISO
  2
AcmIdStdISO
  3
"Amdt_StdImp|Product Description: AutoCAD Mechanical 2004 DX|Company: Autodesk"
 90
        0
280
     0
281
     0
  0
CLASS
  1
ACMDATUMSTANDARDISO
  2
AcmDatumStdISO
  3
"Amdt_StdImp|Product Description: AutoCAD Mechanical 2004 DX|Company: Autodesk"
 90
        0
280
     0
281
     0
  0
CLASS
  1
ACMBOMSTANDARDISO
  2
AcmBOMStdISO
  3
"Amdt_StdImp|Product Description: AutoCAD Mechanical 2004 DX|Company: Autodesk"
 90
        0
280
     0
281
     0
  0
CLASS
  1
ACMDETAILSTANDARDISO
  2
AmdtDetailSymStdISO
  3
"Amdt_StdImp|Product Description: AutoCAD Mechanical 2004 DX|Company: Autodesk"
 90
        0
280
     0
281
     0
  0
CLASS
  1
ACMSECTIONSTANDARDISO
  2
AmdtSectionSymStdISO
  3
"Amdt_StdImp|Product Description: AutoCAD Mechanical 2004 DX|Company: Autodesk"
 90
        0
280
     0
281
     0
  0
CLASS
  1
ACMCENTERLINESTANDARDISO
  2
AmdtCenterLineStdISO
  3
"Amdt_StdImp|Product Description: AutoCAD Mechanical 2004 DX|Company: Autodesk"
 90
        0
280
     0
281
     0
  0
CLASS
  1
ACMTHREADLINESTANDARDISO
  2
AmdtThreadLineStdISO
  3
"Amdt_StdImp|Product Description: AutoCAD Mechanical 2004 DX|Company: Autodesk"
 90
        0
280
     0
281
     0
  0
CLASS
  1
ACMNOTESTANDARDISO
  2
AmdtNoteStdISO
  3
"Amdt_StdImp|Product Description: AutoCAD Mechanical 2004 DX|Company: Autodesk"
 90
        0
280
     0
281
     0
  0
CLASS
  1
AMDTNOTETEMPLATEDB
  2
AmdtNoteTemplateDB
  3
AMDT_STDIMP_MODULE_NAME
 90
        0
280
     0
281
     0
  0
CLASS
  1
ACAMGLAYSTD
  2
AcAmgLayStd
  3
"AcAmgLayStd|Product Description: AutoCAD Mechanical 2000|Company: Autodesk"
 90
        0
280
     0
281
     0
  0
CLASS
  1
ACAMGDIMSTD
  2
AcAmgDimStd
  3
"AcAmgDimStd|Product Description: AutoCAD Mechanical 2000|Company: Autodesk"
 90
        0
280
     0
281
     0
  0
CLASS
  1
ACAMGHOLECHARTSTDISO
  2
AcAmgHoleChartStdISO
  3
ACMSYMBB_MODULE_NAME
 90
        0
280
     0
281
     0
  0
CLASS
  1
ACAMGTITLESTD
  2
AcAmgTitleStd
  3
"TITLEAPP"
 90
        0
280
     0
281
     0
  0
ENDSEC
  0
SECTION
  2
TABLES
  0
TABLE
  2
VPORT
  5
8
330
0
100
AcDbSymbolTable
 70
     4
  0
VPORT
  5
B883
330
8
100
AcDbSymbolTableRecord
100
AcDbViewportTableRecord
  2
*Active
 70
     0
 10
0.0
 20
0.0
 11
1.0
 21
1.0
 12
80.88416441963728
 22
-50.94787110380116
 13
0.0
 23
0.0
 14
2.5
 24
2.5
 15
10.0
 25
10.0
 16
0.0
 26
0.0
 36
1.0
 17
0.0
 27
0.0
 37
0.0
 40
233.5409703688429
 41
2.176400476758045
 42
50.0
 43
0.0
 44
0.0
 50
0.0
 51
0.0
 71
     0
 72
  2000
 73
     1
 74
     3
 75
     0
 76
     0
 77
     0
 78
     0
281
     0
 65
     0
110
0.0
120
0.0
130
0.0
111
1.0
121
0.0
131
0.0
112
0.0
122
1.0
132
0.0
 79
     0
146
0.0
  0
ENDTAB
  0
TABLE
  2
LTYPE
  5
5
330
0
100
AcDbSymbolTable
 70
    17
  0
LTYPE
  5
14
330
5
100
AcDbSymbolTableRecord
100
AcDbLinetypeTableRecord
  2
BYBLOCK
 70
     0
  3

 72
    65
 73
     0
 40
0.0
  0
LTYPE
  5
15
330
5
100
AcDbSymbolTableRecord
100
AcDbLinetypeTableRecord
  2
BYLAYER
 70
     0
  3

 72
    65
 73
     0
 40
0.0
  0
LTYPE
  5
16
330
5
100
AcDbSymbolTableRecord
100
AcDbLinetypeTableRecord
  2
CONTINUOUS
 70
     0
  3
Solid line
 72
    65
 73
     0
 40
0.0
  0
LTYPE
  5
43
330
5
100
AcDbSymbolTableRecord
100
AcDbLinetypeTableRecord
  2
AM_ISO02W050
 70
     0
  3
__ __ __ __ __ __ __ __ __ __ __ __ __ __ __
 72
    65
 73
     2
 40
7.5
 49
6.0
 74
     0
 49
-1.5
 74
     0
  0
LTYPE
  5
44
330
5
100
AcDbSymbolTableRecord
100
AcDbLinetypeTableRecord
  2
AM_ISO08W050
 70
     0
  3
____ . ____ . ____ . ____ . ____ . ____ . ____
 72
    65
 73
     4
 40
18.0
 49
12.0
 74
     0
 49
-1.5
 74
     0
 49
3.0
 74
     0
 49
-1.5
 74
     0
  0
LTYPE
  5
45
330
5
100
AcDbSymbolTableRecord
100
AcDbLinetypeTableRecord
  2
AM_ISO09W050
 70
     0
  3
_____ . . _____ . . _____ . . ____ .. ____
 72
    65
 73
     6
 40
22.5
 49
12.0
 74
     0
 49
-1.5
 74
     0
 49
3.0
 74
     0
 49
-1.5
 74
     0
 49
3.0
 74
     0
 49
-1.5
 74
     0
  0
LTYPE
  5
46
330
5
100
AcDbSymbolTableRecord
100
AcDbLinetypeTableRecord
  2
AMCONSTR
 70
     0
  3
_______________________
 72
    65
 73
     2
 40
9999.0
 49
9999.0
 74
     0
 49
0.0
 74
     0
  0
LTYPE
  5
47
330
5
100
AcDbSymbolTableRecord
100
AcDbLinetypeTableRecord
  2
AM_ISO02W050X2
 70
     0
  3
 _ _ _ _ _ _ _ _ _ _ _ _
 72
    65
 73
     2
 40
3.75
 49
3.0
 74
     0
 49
-0.75
 74
     0
  0
LTYPE
  5
48
330
5
100
AcDbSymbolTableRecord
100
AcDbLinetypeTableRecord
  2
AM_ISO08W050X2
 70
     0
  3
__ . __ . __ . __ . __ . __
 72
    65
 73
     4
 40
9.0
 49
6.0
 74
     0
 49
-0.75
 74
     0
 49
1.5
 74
     0
 49
-0.75
 74
     0
  0
LTYPE
  5
4B
330
5
100
AcDbSymbolTableRecord
100
AcDbLinetypeTableRecord
  2
AMZIGZAG
 70
     0
  3
/\/-/\/-/\/-/\/-/\/-/\/
 72
    65
 73
     2
 40
11.00009999999999
 49
0.0001
 74
     4
 75
   135
340
4A
 46
0.04
 50
0.0
 44
0.0
 45
0.0
 49
-11.0
 74
     0
  0
LTYPE
  5
A2E3
330
5
100
AcDbSymbolTableRecord
100
AcDbLinetypeTableRecord
  2
PHANTOM
 70
     0
  3
Phantom ______  __  __  ______  __  __  ______
 72
    65
 73
     6
 40
63.5
 49
31.75
 74
     0
 49
-6.349999999999998
 74
     0
 49
6.349999999999998
 74
     0
 49
-6.349999999999998
 74
     0
 49
6.349999999999998
 74
     0
 49
-6.349999999999998
 74
     0
  0
LTYPE
  5
B7ED
330
5
100
AcDbSymbolTableRecord
100
AcDbLinetypeTableRecord
  2
HIDDEN
 70
     0
  3
Hidden __ __ __ __ __ __ __ __ __ __ __ __ __ _
 72
    65
 73
     2
 40
9.524999999999998
 49
6.349999999999999
 74
     0
 49
-3.174999999999999
 74
     0
  0
LTYPE
  5
B7EE
330
5
100
AcDbSymbolTableRecord
100
AcDbLinetypeTableRecord
  2
PHANTOM2
 70
     0
  3
Phantom (.5x) ___ _ _ ___ _ _ ___ _ _ ___ _ _
 72
    65
 73
     6
 40
31.75
 49
15.875
 74
     0
 49
-3.174999999999999
 74
     0
 49
3.174999999999999
 74
     0
 49
-3.174999999999999
 74
     0
 49
3.174999999999999
 74
     0
 49
-3.174999999999999
 74
     0
  0
LTYPE
  5
B7EF
330
5
100
AcDbSymbolTableRecord
100
AcDbLinetypeTableRecord
  2
CENTER
 70
     0
  3
Center ____ _ ____ _ ____ _ ____ _ ____ _ ____
 72
    65
 73
     4
 40
50.8
 49
31.75
 74
     0
 49
-6.349999999999999
 74
     0
 49
6.349999999999999
 74
     0
 49
-6.349999999999999
 74
     0
  0
LTYPE
  5
B82F
330
5
100
AcDbSymbolTableRecord
100
AcDbLinetypeTableRecord
  2
ACISOWELD
 70
     0
  3
_ _ _ _ _
 72
    65
 73
     2
 40
2.0
 49
2.0
 74
     0
 49
-1.0
 74
     0
  0
LTYPE
  5
B830
330
5
100
AcDbSymbolTableRecord
100
AcDbLinetypeTableRecord
  2
ACISOTGB
 70
     0
  3
__ . . __ . .
 72
    65
 73
     6
 40
9.0
 49
4.0
 74
     0
 49
-1.0
 74
     0
 49
1.0
 74
     0
 49
-1.0
 74
     0
 49
1.0
 74
     0
 49
-1.0
 74
     0
  0
LTYPE
  5
B831
330
5
100
AcDbSymbolTableRecord
100
AcDbLinetypeTableRecord
  2
ACISOTGL
 70
     0
  3
_ _ _ _ _
 72
    65
 73
     2
 40
3.0
 49
2.0
 74
     0
 49
-1.0
 74
     0
  0
ENDTAB
  0
TABLE
  2
LAYER
  5
2
330
0
100
AcDbSymbolTable
 70
    13
  0
LAYER
  5
10
330
2
100
AcDbSymbolTableRecord
100
AcDbLayerTableRecord
  2
0
 70
     0
 62
     7
  6
CONTINUOUS
370
    -3
390
F
  0
LAYER
  5
7D
330
2
100
AcDbSymbolTableRecord
100
AcDbLayerTableRecord
  2
AM_5
 70
     0
 62
     3
  6
CONTINUOUS
370
    -3
390
F
  0
LAYER
  5
7F
330
2
100
AcDbSymbolTableRecord
100
AcDbLayerTableRecord
  2
DEFPOINTS
 70
     0
 62
     7
  6
CONTINUOUS
290
     0
370
    -3
390
F
  0
LAYER
  5
12B1
330
2
100
AcDbSymbolTableRecord
100
AcDbLayerTableRecord
  2
AM_0
 70
     0
 62
     7
  6
CONTINUOUS
370
    -3
390
F
  0
LAYER
  5
2222
330
2
100
AcDbSymbolTableRecord
100
AcDbLayerTableRecord
  2
AM_6
 70
     0
 62
     2
  6
CONTINUOUS
370
    -3
390
F
  0
LAYER
  5
7DB2
330
2
100
AcDbSymbolTableRecord
100
AcDbLayerTableRecord
  2
AM_7
 70
     0
 62
     4
  6
AM_ISO08W050
370
    -3
390
F
  0
LAYER
  5
7DB3
330
2
100
AcDbSymbolTableRecord
100
AcDbLayerTableRecord
  2
AM_4
 70
     0
 62
     3
  6
CONTINUOUS
370
    -3
390
F
  0
LAYER
  5
A2E4
330
2
100
AcDbSymbolTableRecord
100
AcDbLayerTableRecord
  2
AM_11
 70
     0
 62
     3
  6
PHANTOM
370
    -3
390
F
  0
ENDTAB
  0
TABLE
  2
STYLE
  5
3
330
0
100
AcDbSymbolTable
 70
     6
  0
STYLE
  5
11
330
3
100
AcDbSymbolTableRecord
100
AcDbTextStyleTableRecord
  2
STANDARD
 70
     0
 40
0.0
 41
1.0
 50
0.0
 71
     0
 42
2.5
  3
ISOCP.SHX
  4
EXTFONT.SHX
  0
STYLE
  5
4A
330
3
100
AcDbSymbolTableRecord
100
AcDbTextStyleTableRecord
  2

 70
     1
 40
0.0
 41
1.0
 50
0.0
 71
     0
 42
2.5
  3
ltypeshp.shx
  4

  0
STYLE
  5
B821
330
3
100
AcDbSymbolTableRecord
100
AcDbTextStyleTableRecord
  2
ACISOTS
 70
     0
 40
1.0
 41
1.0
 50
0.0
 71
     0
 42
2.5
  3
isocp.shx
  4
extfont.shx
  0
STYLE
  5
B82E
330
3
100
AcDbSymbolTableRecord
100
AcDbTextStyleTableRecord
  2
ACISOGDT
 70
     0
 40
0.0
 41
1.0
 50
0.0
 71
     0
 42
2.5
  3
amgdt.shx
  4

  0
ENDTAB
  0
TABLE
  2
VIEW
  5
6
330
0
100
AcDbSymbolTable
 70
     6
  0
VIEW
  5
A30
330
6
100
AcDbSymbolTableRecord
100
AcDbViewTableRecord
  2
AM_VIEW1
 70
     0
 40
148.5
 10
112.0719649561952
 20
222.75
 41
224.1439299123904
 11
0.0
 21
0.0
 31
1.0
 12
0.0
 22
0.0
 32
0.0
 42
50.0
 43
0.0
 44
0.0
 50
0.0
 71
     0
281
     0
 72
     0
  0
VIEW
  5
A31
330
6
100
AcDbSymbolTableRecord
100
AcDbViewTableRecord
  2
AM_VIEW2
 70
     0
 40
148.5
 10
307.9280350438047
 20
222.75
 41
224.1439299123904
 11
0.0
 21
0.0
 31
1.0
 12
0.0
 22
0.0
 32
0.0
 42
50.0
 43
0.0
 44
0.0
 50
0.0
 71
     0
281
     0
 72
     0
  0
VIEW
  5
A32
330
6
100
AcDbSymbolTableRecord
100
AcDbViewTableRecord
  2
AM_VIEW3
 70
     0
 40
148.5
 10
112.0719649561952
 20
74.25
 41
224.1439299123904
 11
0.0
 21
0.0
 31
1.0
 12
0.0
 22
0.0
 32
0.0
 42
50.0
 43
0.0
 44
0.0
 50
0.0
 71
     0
281
     0
 72
     0
  0
VIEW
  5
A33
330
6
100
AcDbSymbolTableRecord
100
AcDbViewTableRecord
  2
AM_VIEW4
 70
     0
 40
148.5
 10
307.9280350438047
 20
74.25
 41
224.1439299123904
 11
0.0
 21
0.0
 31
1.0
 12
0.0
 22
0.0
 32
0.0
 42
50.0
 43
0.0
 44
0.0
 50
0.0
 71
     0
281
     0
 72
     0
  0
VIEW
  5
A34
330
6
100
AcDbSymbolTableRecord
100
AcDbViewTableRecord
  2
AM_VIEW5
 70
     0
 40
148.5
 10
210.0
 20
148.5
 41
224.1439299123904
 11
0.0
 21
0.0
 31
1.0
 12
0.0
 22
0.0
 32
0.0
 42
50.0
 43
0.0
 44
0.0
 50
0.0
 71
     0
281
     0
 72
     0
  0
VIEW
  5
A35
330
6
100
AcDbSymbolTableRecord
100
AcDbViewTableRecord
  2
AM_VIEW6
 70
     0
 40
296.9970299999999
 10
210.0
 20
148.5
 41
448.2833769461826
 11
0.0
 21
0.0
 31
1.0
 12
0.0
 22
0.0
 32
0.0
 42
50.0
 43
0.0
 44
0.0
 50
0.0
 71
     0
281
     0
 72
     0
  0
ENDTAB
  0
TABLE
  2
UCS
  5
7
330
0
100
AcDbSymbolTable
 70
     0
  0
ENDTAB
  0
TABLE
  2
APPID
  5
9
330
0
100
AcDbSymbolTable
 70
    42
  0
APPID
  5
12
330
9
100
AcDbSymbolTableRecord
100
AcDbRegAppTableRecord
  2
ACAD
 70
     0
  0
APPID
  5
2C
330
9
100
AcDbSymbolTableRecord
100
AcDbRegAppTableRecord
  2
MCAD_NO_VIS
 70
     0
  0
APPID
  5
2D
330
9
100
AcDbSymbolTableRecord
100
AcDbRegAppTableRecord
  2
ACAD_TEMP_GRAPHIC
 70
     0
  0
APPID
  5
B9
330
9
100
AcDbSymbolTableRecord
100
AcDbRegAppTableRecord
  2
GENIUS_GENDTOL_13
 70
     0
  0
APPID
  5
359
330
9
100
AcDbSymbolTableRecord
100
AcDbRegAppTableRecord
  2
GENIUS_GENREC_14
 70
     0
  0
APPID
  5
35A
330
9
100
AcDbSymbolTableRecord
100
AcDbRegAppTableRecord
  2
GENIUS_GENODEF_13
 70
     0
  0
APPID
  5
35B
330
9
100
AcDbSymbolTableRecord
100
AcDbRegAppTableRecord
  2
GENIUS_GENOBJ-N-REC_13
 70
     0
  0
APPID
  5
667
330
9
100
AcDbSymbolTableRecord
100
AcDbRegAppTableRecord
  2
GENIUS_GENCFG_13
 70
     0
  0
APPID
  5
668
330
9
100
AcDbSymbolTableRecord
100
AcDbRegAppTableRecord
  2
GENIUS_GENCFG0_13
 70
     0
  0
APPID
  5
669
330
9
100
AcDbSymbolTableRecord
100
AcDbRegAppTableRecord
  2
GENIUS_GENCFG1_13
 70
     0
  0
APPID
  5
66A
330
9
100
AcDbSymbolTableRecord
100
AcDbRegAppTableRecord
  2
GENIUS_GENCFG2_13
 70
     0
  0
APPID
  5
66B
330
9
100
AcDbSymbolTableRecord
100
AcDbRegAppTableRecord
  2
GENIUS_GENCFG3_13
 70
     0
  0
APPID
  5
66C
330
9
100
AcDbSymbolTableRecord
100
AcDbRegAppTableRecord
  2
GENIUS_GENCFG4_13
 70
     0
  0
APPID
  5
A76
330
9
100
AcDbSymbolTableRecord
100
AcDbRegAppTableRecord
  2
GENIUS_GENBLLY_14
 70
     0
  0
APPID
  5
A77
330
9
100
AcDbSymbolTableRecord
100
AcDbRegAppTableRecord
  2
GENIUS_GENOBJ-N-CEN_13
 70
     0
  0
APPID
  5
A83
330
9
100
AcDbSymbolTableRecord
100
AcDbRegAppTableRecord
  2
GENIUS_GENTRA_14
 70
     0
  0
APPID
  5
A8D
330
9
100
AcDbSymbolTableRecord
100
AcDbRegAppTableRecord
  2
GENIUS_GENOBJ-N-TIT_13
 70
     0
  0
APPID
  5
A8E
330
9
100
AcDbSymbolTableRecord
100
AcDbRegAppTableRecord
  2
GENIUS_GENTITLE_13
 70
     0
  0
APPID
  5
A8F
330
9
100
AcDbSymbolTableRecord
100
AcDbRegAppTableRecord
  2
GENIUS_GENOENT_13
 70
     0
  0
APPID
  5
A90
330
9
100
AcDbSymbolTableRecord
100
AcDbRegAppTableRecord
  2
GENIUS_GENOREF_13
 70
     0
  0
APPID
  5
A91
330
9
100
AcDbSymbolTableRecord
100
AcDbRegAppTableRecord
  2
GENIUS_GENOLIS_13
 70
     0
  0
APPID
  5
A92
330
9
100
AcDbSymbolTableRecord
100
AcDbRegAppTableRecord
  2
GENIUS_GENZVEED_13
 70
     0
  0
APPID
  5
A93
330
9
100
AcDbSymbolTableRecord
100
AcDbRegAppTableRecord
  2
GENIUS_GENSCREG_15
 70
     0
  0
APPID
  5
A94
330
9
100
AcDbSymbolTableRecord
100
AcDbRegAppTableRecord
  2
GENIUS_GENOBJ-N-SDF_13
 70
     0
  0
APPID
  5
12B5
330
9
100
AcDbSymbolTableRecord
100
AcDbRegAppTableRecord
  2
GENIUS_GENOBJ-N-RSBK_13
 70
     0
  0
APPID
  5
12B6
330
9
100
AcDbSymbolTableRecord
100
AcDbRegAppTableRecord
  2
GENIUS_GENOBJ-N-LIB_13
 70
     0
  0
APPID
  5
12B7
330
9
100
AcDbSymbolTableRecord
100
AcDbRegAppTableRecord
  2
GENIUS_GENSCALE_13
 70
     0
  0
APPID
  5
12B8
330
9
100
AcDbSymbolTableRecord
100
AcDbRegAppTableRecord
  2
GENIUS_GENOBJ-N-HTC_13
 70
     0
  0
APPID
  5
12B9
330
9
100
AcDbSymbolTableRecord
100
AcDbRegAppTableRecord
  2
GENIUS_GENHATCH_13
 70
     0
  0
APPID
  5
1C0A
330
9
100
AcDbSymbolTableRecord
100
AcDbRegAppTableRecord
  2
BASE_TYPE
 70
     0
  0
APPID
  5
276B
330
9
100
AcDbSymbolTableRecord
100
AcDbRegAppTableRecord
  2
GENIUS_GENOBJ-N-FIL_13
 70
     0
  0
APPID
  5
3640
330
9
100
AcDbSymbolTableRecord
100
AcDbRegAppTableRecord
  2
GENIUS_GENBH_13
 70
     0
  0
APPID
  5
36D1
330
9
100
AcDbSymbolTableRecord
100
AcDbRegAppTableRecord
  2
GENIUS_GENOBJ-F-SPR_13
 70
     0
  0
APPID
  5
36DA
330
9
100
AcDbSymbolTableRecord
100
AcDbRegAppTableRecord
  2
GENIUS_GEFSPRING_13
 70
     0
  0
APPID
  5
36DB
330
9
100
AcDbSymbolTableRecord
100
AcDbRegAppTableRecord
  2
GENIUS_GEFSPRINGP_13
 70
     0
  0
APPID
  5
4D67
330
9
100
AcDbSymbolTableRecord
100
AcDbRegAppTableRecord
  2
GENIUS_GENFIL_13
 70
     0
  0
APPID
  5
4D68
330
9
100
AcDbSymbolTableRecord
100
AcDbRegAppTableRecord
  2
GENIUS_GENOBJ-N-CHA_13
 70
     0
  0
APPID
  5
B7F1
330
9
100
AcDbSymbolTableRecord
100
AcDbRegAppTableRecord
  2
AD_DRAW
 70
     0
  0
APPID
  5
B7F4
330
9
100
AcDbSymbolTableRecord
100
AcDbRegAppTableRecord
  2
ACATTRIBSERVICES
 70
     0
  0
APPID
  5
B812
330
9
100
AcDbSymbolTableRecord
100
AcDbRegAppTableRecord
  2
DESIGNERASSEMBLIES
 70
     0
  0
APPID
  5
B817
330
9
100
AcDbSymbolTableRecord
100
AcDbRegAppTableRecord
  2
ACADM_DIM_EDIT
 70
     0
  0
APPID
  5
B818
330
9
100
AcDbSymbolTableRecord
100
AcDbRegAppTableRecord
  2
AMDT_DM_ADJ
 70
     0
  0
ENDTAB
  0
TABLE
  2
DIMSTYLE
  5
A
330
0
100
AcDbSymbolTable
 70
    20
100
AcDbDimStyleTable
 71
     0
  0
DIMSTYLE
105
58
330
A
100
AcDbSymbolTableRecord
100
AcDbDimStyleTableRecord
  2
AM_JIS
 70
     0
  4
"
 41
2.5
 42
0.0
 43
10.0
 44
1.0
 47
0.1
 48
0.1000000001
 73
     0
 74
     0
 77
     3
 78
     9
140
3.799999999999998
141
0.0
143
0.0393701
146
0.71
147
1.5
172
     1
176
   256
177
   256
178
     2
271
     2
272
     2
275
     1
283
     0
284
     8
340
11
341
59
342
59
  0
DIMSTYLE
105
5F
102
{ACAD_REACTORS
330
B705
102
}
330
A
100
AcDbSymbolTableRecord
100
AcDbDimStyleTableRecord
  2
AM_JIS$3
 70
     0
  4
"
 41
2.5
 42
0.0
 43
10.0
 44
1.0
 47
0.1
 48
0.1000000001
 73
     0
 77
     3
 78
     9
140
3.799999999999998
141
0.0
143
0.0393701
146
0.71
147
1.5
172
     1
176
   256
177
   256
178
     2
271
     2
272
     2
275
     1
283
     0
284
     8
288
     1
340
11
341
59
342
59
  0
DIMSTYLE
105
65F
330
A
100
AcDbSymbolTableRecord
100
AcDbDimStyleTableRecord
  2
STANDARD
 70
     0
340
11
  0
DIMSTYLE
105
1761
102
{ACAD_REACTORS
330
ADCD
330
ADDA
330
AE11
330
B310
330
B3E2
102
}
330
A
100
AcDbSymbolTableRecord
100
AcDbDimStyleTableRecord
  2
AM_JIS$0
 70
     0
  4
"
 41
2.5
 42
0.0
 43
10.0
 44
1.0
 47
0.1
 48
0.1000000001
 73
     0
 74
     0
 77
     3
 78
     9
140
3.799999999999998
141
0.0
143
0.0393701
146
0.71
147
1.5
172
     1
176
     3
177
     3
178
     2
271
     2
272
     2
275
     1
283
     0
284
     8
340
11
341
59
342
59
  0
DIMSTYLE
105
B83A
330
A
100
AcDbSymbolTableRecord
100
AcDbDimStyleTableRecord
  2
AM_ISO
 70
     0
  4
"
 41
2.5
 42
1.0
 43
10.0
 44
1.0
 47
0.1
 48
0.1
 73
     0
 74
     0
 77
     1
 78
     8
 79
     2
140
3.5
141
0.0
143
0.0393701
146
0.71
147
1.5
172
     1
176
   256
177
   256
178
     2
271
     2
272
     3
274
     4
283
     0
284
     8
340
11
371
    -1
372
    -1
  0
DIMSTYLE
105
B83B
330
A
100
AcDbSymbolTableRecord
100
AcDbDimStyleTableRecord
  2
AM_ISO$3
 70
     0
  4
"
 41
2.5
 42
1.0
 43
10.0
 44
1.0
 47
0.1
 48
0.1
 73
     0
 77
     1
 78
     8
 79
     2
140
3.5
141
0.0
143
0.0393701
146
0.71
147
1.5
176
   256
177
   256
178
     2
271
     2
272
     3
274
     4
283
     0
284
     8
288
     1
289
     0
340
11
371
    -1
372
    -1
  0
DIMSTYLE
105
B83C
330
A
100
AcDbSymbolTableRecord
100
AcDbDimStyleTableRecord
  2
AM_ISO$4
 70
     0
  4
"
 41
2.5
 42
1.0
 43
10.0
 44
1.0
 47
0.1
 48
0.1
 73
     0
 77
     1
 78
     8
 79
     2
140
3.5
141
0.0
143
0.0393701
146
0.71
147
1.5
176
   256
177
   256
178
     2
271
     2
272
     3
274
     4
283
     0
284
     8
288
     1
289
     0
340
11
371
    -1
372
    -1
  0
DIMSTYLE
105
B83D
330
A
100
AcDbSymbolTableRecord
100
AcDbDimStyleTableRecord
  2
AM_ISO$6
 70
     0
  4
"
 41
2.5
 42
1.0
 43
10.0
 44
1.0
 47
0.1
 48
0.1
 73
     0
 74
     0
 78
     8
 79
     2
140
3.5
141
0.0
143
0.0393701
146
0.71
147
1.5
172
     1
176
   256
177
   256
178
     2
271
     2
272
     3
274
     4
283
     0
284
     8
340
11
371
    -1
372
    -1
  0
DIMSTYLE
105
B83E
330
A
100
AcDbSymbolTableRecord
100
AcDbDimStyleTableRecord
  2
AM_ISO$7
 70
     0
  4
"
 41
2.5
 42
1.0
 43
10.0
 44
1.0
 47
0.1
 48
0.1
 73
     0
 74
     0
 77
     1
 78
     8
 79
     2
140
5.0
141
0.0
143
0.0393701
146
0.71
147
1.5
172
     1
176
   256
177
   256
178
     2
271
     2
272
     3
274
     4
283
     0
284
     8
340
11
371
    -1
372
    -1
  0
DIMSTYLE
105
B83F
330
A
100
AcDbSymbolTableRecord
100
AcDbDimStyleTableRecord
  2
AM_ISO$SF
 70
     0
  4
"
 41
2.5
 42
1.0
 43
10.0
 44
1.0
 47
0.1
 48
0.1
 73
     0
 74
     0
 75
     1
 76
     1
 77
     1
 78
     8
 79
     2
140
3.5
141
0.0
143
0.0393701
146
0.71
147
1.5
172
     1
176
   256
177
   256
178
     2
271
     2
272
     3
274
     4
283
     0
284
     8
340
11
371
    -1
372
    -1
  0
DIMSTYLE
105
B840
330
A
100
AcDbSymbolTableRecord
100
AcDbDimStyleTableRecord
  2
AM_ISO$SH
 70
     0
  4
"
 41
2.5
 42
1.0
 43
10.0
 44
1.0
 47
0.1
 48
0.1
 73
     0
 74
     0
 75
     1
 76
     1
 77
     1
 78
     8
 79
     2
140
3.5
141
0.0
143
0.0393701
144
2.0
146
0.71
147
1.5
172
     1
173
     1
176
   256
177
   256
178
     2
271
     2
272
     3
274
     4
283
     0
284
     8
340
11
343
64
371
    -1
372
    -1
  0
ENDTAB
  0
TABLE
  2
BLOCK_RECORD
  5
1
330
0
100
AcDbSymbolTable
 70
    16
  0
BLOCK_RECORD
  5
1F
102
{ACAD_XDICTIONARY
360
165
102
}
330
1
100
AcDbSymbolTableRecord
100
AcDbBlockTableRecord
  2
*MODEL_SPACE
340
B7B9
  0
BLOCK_RECORD
  5
1B
102
{ACAD_XDICTIONARY
360
B7A7
102
}
330
1
100
AcDbSymbolTableRecord
100
AcDbBlockTableRecord
  2
*PAPER_SPACE
340
B7BA
  0
BLOCK_RECORD
  5
59
330
1
100
AcDbSymbolTableRecord
100
AcDbBlockTableRecord
  2
_OPEN30
340
0
102
{BLKREFS
331
B851
331
B852
331
B85A
331
B85B
331
B863
331
B864
331
B86C
331
B86D
331
B875
331
B876
331
B87D
102
}
  0
BLOCK_RECORD
  5
64
330
1
100
AcDbSymbolTableRecord
100
AcDbBlockTableRecord
  2
GENAXEH
340
0
  0
BLOCK_RECORD
  5
AD28
330
1
100
AcDbSymbolTableRecord
100
AcDbBlockTableRecord
  2
CBF08
340
0
102
{BLKREFS
331
B3E0
102
}
  0
BLOCK_RECORD
  5
AD34
330
1
100
AcDbSymbolTableRecord
100
AcDbBlockTableRecord
  2
CBS0800
340
0
102
{BLKREFS
331
B467
102
}
  0
BLOCK_RECORD
  5
ADCE
330
1
100
AcDbSymbolTableRecord
100
AcDbBlockTableRecord
  2
*D9
340
0
  0
BLOCK_RECORD
  5
ADDB
330
1
100
AcDbSymbolTableRecord
100
AcDbBlockTableRecord
  2
*D10
340
0
  0
BLOCK_RECORD
  5
AE12
330
1
100
AcDbSymbolTableRecord
100
AcDbBlockTableRecord
  2
*D11
340
0
  0
BLOCK_RECORD
  5
B315
330
1
100
AcDbSymbolTableRecord
100
AcDbBlockTableRecord
  2
*D12
340
0
  0
BLOCK_RECORD
  5
B3E3
330
1
100
AcDbSymbolTableRecord
100
AcDbBlockTableRecord
  2
*D13
340
0
  0
BLOCK_RECORD
  5
B707
330
1
100
AcDbSymbolTableRecord
100
AcDbBlockTableRecord
  2
*D14
340
0
  0
ENDTAB
  0
ENDSEC
  0
SECTION
  2
BLOCKS
  0
BLOCK
  5
20
330
1F
100
AcDbEntity
  8
0
100
AcDbBlockBegin
  2
*MODEL_SPACE
 70
     0
 10
0.0
 20
0.0
 30
0.0
  3
*MODEL_SPACE
  1

  0
ENDBLK
  5
21
330
1F
100
AcDbEntity
  8
0
100
AcDbBlockEnd
  0
BLOCK
  5
1C
330
1B
100
AcDbEntity
 67
     1
  8
0
100
AcDbBlockBegin
  2
*PAPER_SPACE
 70
     0
 10
0.0
 20
0.0
 30
0.0
  3
*PAPER_SPACE
  1

  0
ENDBLK
  5
1D
330
1B
100
AcDbEntity
 67
     1
  8
0
100
AcDbBlockEnd
  0
BLOCK
  5
5D
330
59
100
AcDbEntity
  8
0
100
AcDbBlockBegin
  2
_OPEN30
 70
     0
 10
0.0
 20
0.0
 30
0.0
  3
_OPEN30
  1

  0
LINE
  5
5A
330
59
100
AcDbEntity
  8
0
 62
     0
100
AcDbLine
 10
-1.0
 20
0.26794919
 30
0.0
 11
0.0
 21
0.0
 31
0.0
  0
LINE
  5
5B
330
59
100
AcDbEntity
  8
0
 62
     0
100
AcDbLine
 10
0.0
 20
0.0
 30
0.0
 11
-1.0
 21
-0.26794919
 31
0.0
  0
LINE
  5
5C
330
59
100
AcDbEntity
  8
0
 62
     0
100
AcDbLine
 10
0.0
 20
0.0
 30
0.0
 11
-1.0
 21
0.0
 31
0.0
  0
ENDBLK
  5
5E
330
59
100
AcDbEntity
  8
0
100
AcDbBlockEnd
  0
BLOCK
  5
66
330
64
100
AcDbEntity
  8
0
100
AcDbBlockBegin
  2
GENAXEH
 70
     0
 10
0.0
 20
0.0
 30
0.0
  3
GENAXEH
  1

  0
LINE
  5
65
330
64
100
AcDbEntity
  8
0
100
AcDbLine
 10
-1.0
 20
0.0
 30
0.0
 11
1.0
 21
0.0
 31
0.0
  0
ENDBLK
  5
67
330
64
100
AcDbEntity
  8
0
100
AcDbBlockEnd
  0
BLOCK
  5
AD31
330
AD28
100
AcDbEntity
  8
0
100
AcDbBlockBegin
  2
CBF08
 70
     0
 10
0.0
 20
0.0
 30
0.0
  3
CBF08
  1

  0
CIRCLE
  5
AD29
330
AD28
100
AcDbEntity
  8
0
  6
Continuous
100
AcDbCircle
 10
0.0000187875812969
 20
0.0000034482758622
 30
0.0
 40
5.633974192430932
  0
CIRCLE
  5
AD2A
330
AD28
100
AcDbEntity
  8
0
  6
Continuous
100
AcDbCircle
 10
0.0000187875812969
 20
0.0000034482758622
 30
0.0
 40
6.5
  0
LINE
  5
AD2B
330
AD28
100
AcDbEntity
  8
0
  6
Continuous
100
AcDbLine
 10
-1.73203121241866
 20
3.000002049525533
 30
0.0
 11
-3.464081212418676
 21
0.0000034482758622
 31
0.0
  0
LINE
  5
AD2C
330
AD28
100
AcDbEntity
  8
0
  6
Continuous
100
AcDbLine
 10
3.464118787581326
 20
0.0000034482758622
 30
0.0
 11
1.732068787581311
 21
3.000002049525533
 31
0.0
  0
LINE
  5
AD2D
330
AD28
100
AcDbEntity
  8
0
  6
Continuous
100
AcDbLine
 10
-1.73203121241866
 20
-2.999995152973837
 30
0.0
 11
1.732068787581311
 21
-2.999995152973837
 31
0.0
  0
LINE
  5
AD2E
330
AD28
100
AcDbEntity
  8
0
  6
Continuous
100
AcDbLine
 10
-3.464081212418676
 20
0.0000034482758622
 30
0.0
 11
-1.73203121241866
 21
-2.999995152973837
 31
0.0
  0
LINE
  5
AD2F
330
AD28
100
AcDbEntity
  8
0
  6
Continuous
100
AcDbLine
 10
1.732068787581311
 20
-2.999995152973837
 30
0.0
 11
3.464118787581326
 21
0.0000034482758622
 31
0.0
  0
LINE
  5
AD30
330
AD28
100
AcDbEntity
  8
0
  6
Continuous
100
AcDbLine
 10
1.732068787581311
 20
3.000002049525533
 30
0.0
 11
-1.73203121241866
 21
3.000002049525533
 31
0.0
  0
ENDBLK
  5
AD32
330
AD28
100
AcDbEntity
  8
0
100
AcDbBlockEnd
  0
BLOCK
  5
AD3D
330
AD34
100
AcDbEntity
  8
0
100
AcDbBlockBegin
  2
CBS0800
 70
     0
 10
0.0
 20
0.0
 30
0.0
  3
CBS0800
  1

  0
LINE
  5
AD35
330
AD34
100
AcDbEntity
  8
0
 48
0.3
100
AcDbLine
 10
6.499999999999971
 20
0.0
 30
0.0
 11
-6.499999999999971
 21
0.0
 31
0.0
  0
LINE
  5
AD36
330
AD34
100
AcDbEntity
  8
0
 48
0.3
100
AcDbLine
 10
5.633974192430968
 20
7.999999999999985
 30
0.0
 11
-5.633974192430912
 21
7.999999999999985
 31
0.0
  0
LINE
  5
AD37
330
AD34
100
AcDbEntity
  8
0
 48
0.3
100
AcDbLine
 10
-6.499999999999971
 20
0.0
 30
0.0
 11
-6.499999999999971
 21
7.499999999999985
 31
0.0
  0
LINE
  5
AD38
330
AD34
100
AcDbEntity
  8
0
 48
0.3
100
AcDbLine
 10
-3.249999999999971
 20
7.499999999999985
 30
0.0
 11
-6.499999999999971
 21
7.499999999999985
 31
0.0
  0
LINE
  5
AD39
330
AD34
100
AcDbEntity
  8
0
 48
0.3
100
AcDbLine
 10
-6.499999999999971
 20
7.499999999999985
 30
0.0
 11
-5.633974192430912
 21
7.999999999999985
 31
0.0
  0
LINE
  5
AD3A
330
AD34
100
AcDbEntity
  8
0
 48
0.3
100
AcDbLine
 10
6.499999999999971
 20
0.0
 30
0.0
 11
6.499999999999971
 21
7.499999999999985
 31
0.0
  0
LINE
  5
AD3B
330
AD34
100
AcDbEntity
  8
0
 48
0.3
100
AcDbLine
 10
6.499999999999971
 20
7.499999999999985
 30
0.0
 11
3.249999999999971
 21
7.499999999999985
 31
0.0
  0
LINE
  5
AD3C
330
AD34
100
AcDbEntity
  8
0
 48
0.3
100
AcDbLine
 10
6.499999999999971
 20
7.499999999999985
 30
0.0
 11
5.633974192430968
 21
7.999999999999985
 31
0.0
  0
ENDBLK
  5
AD3E
330
AD34
100
AcDbEntity
  8
0
100
AcDbBlockEnd
  0
BLOCK
  5
ADD8
330
ADCE
100
AcDbEntity
  8
0
100
AcDbBlockBegin
  2
*D9
 70
     1
 10
0.0
 20
0.0
 30
0.0
  3
*D9
  1

  0
LINE
  5
B84E
330
ADCE
100
AcDbEntity
  8
AM_5
 62
     3
370
    -2
100
AcDbLine
 10
170.0
 20
55.9999999999998
 30
0.0
 11
192.777456585615
 21
55.9999999999998
 31
0.0
  0
LINE
  5
B84F
330
ADCE
100
AcDbEntity
  8
AM_5
 62
     3
370
    -2
100
AcDbLine
 10
170.0
 20
23.99999999999987
 30
0.0
 11
192.777456585615
 21
23.99999999999987
 31
0.0
  0
LINE
  5
B850
330
ADCE
100
AcDbEntity
  8
AM_5
 62
     3
370
    -2
100
AcDbLine
 10
191.777456585615
 20
53.4999999999998
 30
0.0
 11
191.777456585615
 21
26.49999999999987
 31
0.0
  0
INSERT
  5
B851
330
ADCE
100
AcDbEntity
  8
AM_5
 62
     3
370
    -2
100
AcDbBlockReference
  2
_OPEN30
 10
191.777456585615
 20
55.9999999999998
 30
0.0
 41
2.5
 42
2.5
 43
2.5
 50
90.0
  0
INSERT
  5
B852
330
ADCE
100
AcDbEntity
  8
AM_5
 62
     3
370
    -2
100
AcDbBlockReference
  2
_OPEN30
 10
191.777456585615
 20
23.99999999999987
 30
0.0
 41
2.5
 42
2.5
 43
2.5
 50
270.0
  0
MTEXT
  5
B853
330
ADCE
100
AcDbEntity
  8
AM_5
 62
     2
100
AcDbMText
 10
188.3770825698669
 20
39.99999999999986
 30
0.0
 40
3.799999999999998
 41
0.0
 71
     5
 72
     1
  1
32
 11
0.0000000000000001
 21
1.0
 31
0.0
 73
     1
 44
1.0
1001
ACAD
1000
MTEXTBEGIN
1070
    73
1070
     1
1070
    44
1040
1.0
1070
    74
1070
     0
1000
MTEXTEND
  0
POINT
  5
B854
330
ADCE
100
AcDbEntity
  8
DEFPOINTS
 62
     0
100
AcDbPoint
 10
170.0
 20
55.9999999999998
 30
0.0
  0
POINT
  5
B855
330
ADCE
100
AcDbEntity
  8
DEFPOINTS
 62
     0
100
AcDbPoint
 10
170.0
 20
23.99999999999987
 30
0.0
  0
POINT
  5
B856
330
ADCE
100
AcDbEntity
  8
DEFPOINTS
 62
     0
100
AcDbPoint
 10
191.777456585615
 20
23.99999999999987
 30
0.0
  0
ENDBLK
  5
ADD9
330
ADCE
100
AcDbEntity
  8
0
100
AcDbBlockEnd
  0
BLOCK
  5
ADE5
330
ADDB
100
AcDbEntity
  8
0
100
AcDbBlockBegin
  2
*D10
 70
     1
 10
0.0
 20
0.0
 30
0.0
  3
*D10
  1

  0
LINE
  5
B857
330
ADDB
100
AcDbEntity
  8
AM_5
 62
     3
370
    -2
100
AcDbLine
 10
170.0
 20
-96.27612919898673
 30
0.0
 11
196.605655067732
 21
-96.27612919898673
 31
0.0
  0
LINE
  5
B858
330
ADDB
100
AcDbEntity
  8
AM_5
 62
     3
370
    -2
100
AcDbLine
 10
170.0
 20
-128.2761291989866
 30
0.0
 11
196.605655067732
 21
-128.2761291989866
 31
0.0
  0
LINE
  5
B859
330
ADDB
100
AcDbEntity
  8
AM_5
 62
     3
370
    -2
100
AcDbLine
 10
195.605655067732
 20
-98.77612919898673
 30
0.0
 11
195.605655067732
 21
-125.7761291989866
 31
0.0
  0
INSERT
  5
B85A
330
ADDB
100
AcDbEntity
  8
AM_5
 62
     3
370
    -2
100
AcDbBlockReference
  2
_OPEN30
 10
195.605655067732
 20
-96.27612919898673
 30
0.0
 41
2.5
 42
2.5
 43
2.5
 50
90.0
  0
INSERT
  5
B85B
330
ADDB
100
AcDbEntity
  8
AM_5
 62
     3
370
    -2
100
AcDbBlockReference
  2
_OPEN30
 10
195.605655067732
 20
-128.2761291989866
 30
0.0
 41
2.5
 42
2.5
 43
2.5
 50
270.0
  0
MTEXT
  5
B85C
330
ADDB
100
AcDbEntity
  8
AM_5
 62
     2
100
AcDbMText
 10
192.205281051984
 20
-112.2761291989866
 30
0.0
 40
3.799999999999998
 41
0.0
 71
     5
 72
     1
  1
32
 11
0.0000000000000001
 21
1.0
 31
0.0
 73
     1
 44
1.0
1001
ACAD
1000
MTEXTBEGIN
1070
    73
1070
     1
1070
    44
1040
1.0
1070
    74
1070
     0
1000
MTEXTEND
  0
POINT
  5
B85D
330
ADDB
100
AcDbEntity
  8
DEFPOINTS
 62
     0
100
AcDbPoint
 10
170.0
 20
-96.27612919898673
 30
0.0
  0
POINT
  5
B85E
330
ADDB
100
AcDbEntity
  8
DEFPOINTS
 62
     0
100
AcDbPoint
 10
170.0
 20
-128.2761291989866
 30
0.0
  0
POINT
  5
B85F
330
ADDB
100
AcDbEntity
  8
DEFPOINTS
 62
     0
100
AcDbPoint
 10
195.605655067732
 20
-128.2761291989866
 30
0.0
  0
ENDBLK
  5
ADE6
330
ADDB
100
AcDbEntity
  8
0
100
AcDbBlockEnd
  0
BLOCK
  5
AE1C
330
AE12
100
AcDbEntity
  8
0
100
AcDbBlockBegin
  2
*D11
 70
     1
 10
0.0
 20
0.0
 30
0.0
  3
*D11
  1

  0
LINE
  5
B860
330
AE12
100
AcDbEntity
  8
AM_5
 62
     3
370
    -2
100
AcDbLine
 10
0.0
 20
-0.39887908188674
 30
0.0
 11
-0.0000000000000017
 21
-27.3050366152186
 31
0.0
  0
LINE
  5
B861
330
AE12
100
AcDbEntity
  8
AM_5
 62
     3
370
    -2
100
AcDbLine
 10
170.0
 20
-15.98305192729448
 30
0.0
 11
170.0
 21
-27.3050366152186
 31
0.0
  0
LINE
  5
B862
330
AE12
100
AcDbEntity
  8
AM_5
 62
     3
370
    -2
100
AcDbLine
 10
2.499999999999998
 20
-26.3050366152186
 30
0.0
 11
167.5
 21
-26.3050366152186
 31
0.0
  0
INSERT
  5
B863
330
AE12
100
AcDbEntity
  8
AM_5
 62
     3
370
    -2
100
AcDbBlockReference
  2
_OPEN30
 10
-0.0000000000000016
 20
-26.3050366152186
 30
0.0
 41
2.5
 42
2.5
 43
2.5
 50
180.0
  0
INSERT
  5
B864
330
AE12
100
AcDbEntity
  8
AM_5
 62
     3
370
    -2
100
AcDbBlockReference
  2
_OPEN30
 10
170.0
 20
-26.3050366152186
 30
0.0
 41
2.5
 42
2.5
 43
2.5
  0
MTEXT
  5
B865
330
AE12
100
AcDbEntity
  8
AM_5
 62
     2
100
AcDbMText
 10
85.0
 20
-22.9050366152186
 30
0.0
 40
3.799999999999998
 41
0.0
 71
     5
 72
     1
  1
170
 73
     1
 44
1.0
1001
ACAD
1000
MTEXTBEGIN
1070
    73
1070
     1
1070
    44
1040
1.0
1070
    74
1070
     0
1000
MTEXTEND
  0
POINT
  5
B866
330
AE12
100
AcDbEntity
  8
DEFPOINTS
 62
     0
100
AcDbPoint
 10
0.0
 20
-0.39887908188674
 30
0.0
  0
POINT
  5
B867
330
AE12
100
AcDbEntity
  8
DEFPOINTS
 62
     0
100
AcDbPoint
 10
170.0
 20
-15.98305192729448
 30
0.0
  0
POINT
  5
B868
330
AE12
100
AcDbEntity
  8
DEFPOINTS
 62
     0
100
AcDbPoint
 10
170.0
 20
-26.3050366152186
 30
0.0
  0
ENDBLK
  5
AE1D
330
AE12
100
AcDbEntity
  8
0
100
AcDbBlockEnd
  0
BLOCK
  5
B31F
330
B315
100
AcDbEntity
  8
0
100
AcDbBlockBegin
  2
*D12
 70
     1
 10
0.0
 20
0.0
 30
0.0
  3
*D12
  1

  0
LINE
  5
B869
330
B315
100
AcDbEntity
  8
AM_5
 62
     3
370
    -2
100
AcDbLine
 10
0.0
 20
0.0000000000000003
 30
0.0
 11
208.771382106001
 21
-0.0000000000000588
 31
0.0
  0
LINE
  5
B86A
330
B315
100
AcDbEntity
  8
AM_5
 62
     3
370
    -2
100
AcDbLine
 10
170.0
 20
55.9999999999998
 30
0.0
 11
208.771382106001
 21
55.9999999999998
 31
0.0
  0
LINE
  5
B86B
330
B315
100
AcDbEntity
  8
AM_5
 62
     3
370
    -2
100
AcDbLine
 10
207.771382106001
 20
2.499999999999941
 30
0.0
 11
207.771382106001
 21
53.4999999999998
 31
0.0
  0
INSERT
  5
B86C
330
B315
100
AcDbEntity
  8
AM_5
 62
     3
370
    -2
100
AcDbBlockReference
  2
_OPEN30
 10
207.771382106001
 20
-0.0000000000000585
 30
0.0
 41
2.5
 42
2.5
 43
2.5
 50
270.0
  0
INSERT
  5
B86D
330
B315
100
AcDbEntity
  8
AM_5
 62
     3
370
    -2
100
AcDbBlockReference
  2
_OPEN30
 10
207.771382106001
 20
55.9999999999998
 30
0.0
 41
2.5
 42
2.5
 43
2.5
 50
90.0
  0
MTEXT
  5
B86E
330
B315
100
AcDbEntity
  8
AM_5
 62
     2
100
AcDbMText
 10
204.371382106001
 20
27.9999999999999
 30
0.0
 40
3.799999999999998
 41
0.0
 71
     5
 72
     1
  1
56
 11
0.0000000000000001
 21
1.0
 31
0.0
 73
     1
 44
1.0
1001
ACAD
1000
MTEXTBEGIN
1070
    73
1070
     1
1070
    44
1040
1.0
1070
    74
1070
     0
1000
MTEXTEND
  0
POINT
  5
B86F
330
B315
100
AcDbEntity
  8
DEFPOINTS
 62
     0
100
AcDbPoint
 10
0.0
 20
0.0000000000000003
 30
0.0
  0
POINT
  5
B870
330
B315
100
AcDbEntity
  8
DEFPOINTS
 62
     0
100
AcDbPoint
 10
170.0
 20
55.9999999999998
 30
0.0
  0
POINT
  5
B871
330
B315
100
AcDbEntity
  8
DEFPOINTS
 62
     0
100
AcDbPoint
 10
207.771382106001
 20
55.9999999999998
 30
0.0
  0
ENDBLK
  5
B320
330
B315
100
AcDbEntity
  8
0
100
AcDbBlockEnd
  0
BLOCK
  5
B3EF
330
B3E3
100
AcDbEntity
  8
0
100
AcDbBlockBegin
  2
*D13
 70
     1
 10
0.0
 20
0.0
 30
0.0
  3
*D13
  1

  0
LINE
  5
B872
330
B3E3
100
AcDbEntity
  8
AM_5
 62
     3
370
    -2
100
AcDbLine
 10
8.00207952159144
 20
0.2487695021883941
 30
0.0
 11
8.002079521591438
 21
-14.9716189487749
 31
0.0
  0
LINE
  5
B873
330
B3E3
100
AcDbEntity
  8
AM_5
 62
     3
370
    -2
100
AcDbLine
 10
0.0
 20
0.2587248741755275
 30
0.0
 11
-0.0000000000000009
 21
-14.9716189487749
 31
0.0
  0
LINE
  5
B874
330
B3E3
100
AcDbEntity
  8
AM_5
 62
     3
370
    -2
100
AcDbLine
 10
5.50207952159144
 20
-13.9716189487749
 30
0.0
 11
2.499999999999999
 21
-13.9716189487749
 31
0.0
  0
INSERT
  5
B875
330
B3E3
100
AcDbEntity
  8
AM_5
 62
     3
370
    -2
100
AcDbBlockReference
  2
_OPEN30
 10
8.00207952159144
 20
-13.9716189487749
 30
0.0
 41
2.5
 42
2.5
 43
2.5
  0
INSERT
  5
B876
330
B3E3
100
AcDbEntity
  8
AM_5
 62
     3
370
    -2
100
AcDbBlockReference
  2
_OPEN30
 10
-0.0000000000000008
 20
-13.9716189487749
 30
0.0
 41
2.5
 42
2.5
 43
2.5
 50
180.0
  0
MTEXT
  5
B877
330
B3E3
100
AcDbEntity
  8
AM_5
 62
     2
100
AcDbMText
 10
4.001039760795718
 20
-10.5716189487749
 30
0.0
 40
3.799999999999998
 41
0.0
 71
     5
 72
     1
  1
8
 73
     1
 44
1.0
1001
ACAD
1000
MTEXTBEGIN
1070
    73
1070
     1
1070
    44
1040
1.0
1070
    74
1070
     0
1000
MTEXTEND
  0
POINT
  5
B878
330
B3E3
100
AcDbEntity
  8
DEFPOINTS
 62
     0
100
AcDbPoint
 10
8.00207952159144
 20
0.2487695021883941
 30
0.0
  0
POINT
  5
B879
330
B3E3
100
AcDbEntity
  8
DEFPOINTS
 62
     0
100
AcDbPoint
 10
0.0
 20
0.2587248741755275
 30
0.0
  0
POINT
  5
B87A
330
B3E3
100
AcDbEntity
  8
DEFPOINTS
 62
     0
100
AcDbPoint
 10
-0.0000000000000008
 20
-13.9716189487749
 30
0.0
  0
ENDBLK
  5
B3F0
330
B3E3
100
AcDbEntity
  8
0
100
AcDbBlockEnd
  0
BLOCK
  5
B70D
330
B707
100
AcDbEntity
  8
0
100
AcDbBlockBegin
  2
*D14
 70
     1
 10
0.0
 20
0.0
 30
0.0
  3
*D14
  1

  0
LINE
  5
B87B
330
B707
100
AcDbEntity
  8
AM_5
370
    -2
100
AcDbLine
 10
-87.77617570307441
 20
-131.6612974224216
 30
0.0
 11
-2.40015316182243
 21
-155.0396870986809
 31
0.0
  0
MTEXT
  5
B87C
330
B707
100
AcDbEntity
  8
AM_5
 62
     2
100
AcDbMText
 10
-80.29892578314496
 20
-130.1836160723559
 30
0.0
 40
3.799999999999998
 41
0.0
 71
     5
 72
     1
  1
\U+2205450
 11
0.9644936936547306
 21
-0.2641058782008732
 31
0.0
 73
     1
 44
1.0
1001
ACAD
1000
MTEXTBEGIN
1070
    73
1070
     1
1070
    44
1040
1.0
1070
    74
1070
     0
1000
MTEXTEND
  0
INSERT
  5
B87D
330
B707
100
AcDbEntity
  8
AM_5
370
    -2
100
AcDbBlockReference
  2
_OPEN30
 10
0.0110810723143899
 20
-155.6999517941831
 30
0.0
 41
2.5
 42
2.5
 43
2.5
 50
344.6861692880016
  0
POINT
  5
B87E
330
B707
100
AcDbEntity
  8
DEFPOINTS
 62
     0
100
AcDbPoint
 10
0.0110810723143899
 20
-155.6999517941831
 30
0.0
  0
POINT
  5
B87F
330
B707
100
AcDbEntity
  8
DEFPOINTS
 62
     0
100
AcDbPoint
 10
-434.0110810723142
 20
-36.8523066037902
 30
0.0
  0
ENDBLK
  5
B70E
330
B707
100
AcDbEntity
  8
0
100
AcDbBlockEnd
  0
ENDSEC
  0
SECTION
  2
ENTITIES
  0
TEXT
  5
83BD
330
1F
100
AcDbEntity
  8
AM_6
100
AcDbText
 10
75.17727872101485
 20
-150.162208223818
 30
0.0
 40
5.0
  1
GMFWSR3232-80-450
 72
     4
 11
107.2998054867102
 21
-147.6622082238179
 31
0.0
100
AcDbText
  0
LINE
  5
AC3A
330
1F
100
AcDbEntity
  8
AM_0
100
AcDbLine
 10
170.0
 20
-128.2761291989866
 30
0.0
 11
170.0
 21
-96.27612919898673
 31
0.0
  0
LINE
  5
AC3B
330
1F
100
AcDbEntity
  8
AM_0
100
AcDbLine
 10
170.0
 20
23.99999999999987
 30
0.0
 11
7.999847706754734
 21
23.99999999999991
 31
0.0
  0
LINE
  5
AC40
330
1F
100
AcDbEntity
  8
AM_0
100
AcDbLine
 10
170.0
 20
23.99999999999987
 30
0.0
 11
170.0
 21
55.9999999999998
 31
0.0
  0
LINE
  5
AC4E
330
1F
100
AcDbEntity
  8
AM_4
100
AcDbLine
 10
-0.0000000000000118
 20
-96.2766420781495
 30
0.0
 11
0.0000000000000028
 21
23.24999999999993
 31
0.0
  0
LINE
  5
ACB2
330
1F
100
AcDbEntity
  8
AM_0
100
AcDbLine
 10
29.39999999999996
 20
-96.27612919898671
 30
0.0
 11
170.0
 21
-96.27612919898673
 31
0.0
  0
LINE
  5
AD6A
330
1F
100
AcDbEntity
  8
AM_4
100
AcDbLine
 10
170.0
 20
23.99999999999986
 30
0.0
 11
170.0
 21
-96.27612919898673
 31
0.0
  0
DIMENSION
  5
ADCD
330
1F
100
AcDbEntity
  8
AM_5
100
AcDbDimension
  2
*D9
 10
191.777456585615
 20
23.99999999999987
 30
0.0
 11
188.3770825698669
 21
39.99999999999986
 31
0.0
 70
    32
 71
     5
 42
31.99999999999994
  3
AM_JIS$0
100
AcDbAlignedDimension
 13
170.0
 23
55.9999999999998
 33
0.0
 14
170.0
 24
23.99999999999987
 34
0.0
 50
89.99999999999998
100
AcDbRotatedDimension
  0
DIMENSION
  5
ADDA
330
1F
100
AcDbEntity
  8
AM_5
100
AcDbDimension
  2
*D10
 10
195.605655067732
 20
-128.2761291989866
 30
0.0
 11
192.205281051984
 21
-112.2761291989866
 31
0.0
 70
    32
 71
     5
 42
31.99999999999989
  3
AM_JIS$0
100
AcDbAlignedDimension
 13
170.0
 23
-96.27612919898673
 33
0.0
 14
170.0
 24
-128.2761291989866
 34
0.0
 50
89.99999999999998
100
AcDbRotatedDimension
  0
DIMENSION
  5
AE11
330
1F
100
AcDbEntity
  8
AM_5
100
AcDbDimension
  2
*D11
 10
170.0
 20
-26.3050366152186
 30
0.0
 11
85.0
 21
-22.9050366152186
 31
0.0
 70
    32
 71
     5
 42
170.0
  3
AM_JIS$0
100
AcDbAlignedDimension
 13
0.0
 23
-0.39887908188674
 33
0.0
 14
170.0
 24
-15.98305192729448
 34
0.0
100
AcDbRotatedDimension
  0
DIMENSION
  5
B310
330
1F
100
AcDbEntity
  8
AM_5
100
AcDbDimension
  2
*D12
 10
207.771382106001
 20
55.9999999999998
 30
0.0
 11
204.371382106001
 21
27.9999999999999
 31
0.0
 70
    32
 71
     5
 42
55.99999999999984
  3
AM_JIS$0
100
AcDbAlignedDimension
 13
0.0
 23
0.0000000000000003
 33
0.0
 14
170.0
 24
55.9999999999998
 34
0.0
 50
89.99999999999998
100
AcDbRotatedDimension
  0
LINE
  5
B314
330
1F
100
AcDbEntity
  8
AM_0
100
AcDbLine
 10
170.0
 20
55.9999999999998
 30
0.0
 11
1.000000000000006
 21
55.99999999999992
 31
0.0
  0
LINE
  5
B37F
330
1F
100
AcDbEntity
  8
AM_0
100
AcDbLine
 10
0.9999999999999843
 20
-128.2761291989866
 30
0.0
 11
29.99999999999999
 21
-128.2761291989866
 31
0.0
  0
LINE
  5
B380
330
1F
100
AcDbEntity
  8
AM_0
100
AcDbLine
 10
29.99999999999999
 20
-128.2761291989866
 30
0.0
 11
23.99999999999999
 21
-128.2761291989866
 31
0.0
  0
LINE
  5
B383
330
1F
100
AcDbEntity
  8
AM_0
100
AcDbLine
 10
0.9999999999999843
 20
-126.7761291989865
 30
0.0
 11
0.9999999999999843
 21
-128.2761291989866
 31
0.0
  0
LINE
  5
B384
330
1F
100
AcDbEntity
  8
AM_0
100
AcDbLine
 10
9.799999999999998
 20
-101.3761291989867
 30
0.0
 11
9.799999999999995
 21
-125.3761291989866
 31
0.0
  0
LINE
  5
B3B5
330
1F
100
AcDbEntity
  8
AM_7
100
AcDbLine
 10
15.19984770675475
 20
41.18705088988031
 30
0.0
 11
15.19984770675475
 21
22.62609678117928
 31
0.0
  0
LINE
  5
B3B6
330
1F
100
AcDbEntity
  8
AM_0
100
AcDbLine
 10
1.199847706754758
 20
52.0
 30
0.0
 11
1.199847706754753
 21
8.300000000000011
 31
0.0
  0
LINE
  5
B3B7
102
{ACAD_REACTORS
330
B3FC
102
}
330
1F
100
AcDbEntity
  8
AM_0
100
AcDbLine
 10
0.0000000000000035
 20
28.3162751258244
 30
0.0
 11
0.2144580530543321
 21
22.17499999999995
 31
0.0
  0
LINE
  5
B3B8
330
1F
100
AcDbEntity
  8
AM_7
100
AcDbLine
 10
-4.492793410197573
 20
30.20000000000004
 30
0.0
 11
5.553034683196531
 21
30.20000000000004
 31
0.0
  0
LINE
  5
B3B9
330
1F
100
AcDbEntity
  8
AM_7
100
AcDbLine
 10
-3.745980386639268
 20
46.0
 30
0.0
 11
6.299847706754837
 21
46.0
 31
0.0
  0
LINE
  5
B3BA
330
1F
100
AcDbEntity
  8
AM_0
100
AcDbLine
 10
8.299847706754754
 20
52.0
 30
0.0
 11
8.299847706754752
 21
42.60000000000002
 31
0.0
  0
LINE
  5
B3BB
330
1F
100
AcDbEntity
  8
AM_0
100
AcDbLine
 10
7.399847706754774
 20
52.0
 30
0.0
 11
7.399847706754746
 21
43.5
 31
0.0
  0
LINE
  5
B3BC
330
1F
100
AcDbEntity
  8
AM_0
100
AcDbLine
 10
0.199847706754759
 20
52.60000000000001
 30
0.0
 11
0.1998477067547561
 21
28.57499999999999
 31
0.0
  0
LINE
  5
B3BD
330
1F
100
AcDbEntity
  8
AM_0
100
AcDbLine
 10
0.9998477067547419
 20
52.0
 30
0.0
 11
8.299847706754754
 21
52.0
 31
0.0
  0
LINE
  5
B3BE
330
1F
100
AcDbEntity
  8
AM_0
100
AcDbLine
 10
0.199847706754759
 20
52.60000000000001
 30
0.0
 11
0.9998477067547419
 21
52.60000000000001
 31
0.0
  0
LINE
  5
B3BF
330
1F
100
AcDbEntity
  8
AM_0
100
AcDbLine
 10
8.899847706754746
 20
42.0
 30
0.0
 11
7.399847706754746
 21
43.5
 31
0.0
  0
LINE
  5
B3C0
102
{ACAD_REACTORS
330
B3FC
102
}
330
1F
100
AcDbEntity
  8
AM_0
100
AcDbLine
 10
0.2498477067547959
 20
28.57499999999999
 30
0.0
 11
0.5009651283071187
 21
28.57499999999999
 31
0.0
  0
LINE
  5
B3C1
102
{ACAD_REACTORS
330
B3FC
102
}
330
1F
100
AcDbEntity
  8
AM_0
100
AcDbLine
 10
0.5009651283071187
 20
28.57499999999999
 30
0.0
 11
1.199847706754755
 21
28.57499999999999
 31
0.0
  0
ARC
  5
B3C2
102
{ACAD_REACTORS
330
B3FC
102
}
330
1F
100
AcDbEntity
  8
AM_0
100
AcDbCircle
 10
0.2498477067547959
 20
28.32499999999999
 30
0.0
 40
0.25
100
AcDbArc
 50
90.0
 51
181.9999999999987
  0
LINE
  5
B3C5
330
1F
100
AcDbEntity
  8
AM_0
100
AcDbLine
 10
6.699847706754755
 20
22.69999999999993
 30
0.0
 11
6.699847706754753
 21
8.300000000000011
 31
0.0
  0
LINE
  5
B3C6
102
{ACAD_REACTORS
330
B3FC
102
}
330
1F
100
AcDbEntity
  8
AM_0
100
AcDbLine
 10
7.000965128307117
 20
22.17499999999995
 30
0.0
 11
7.000965128307143
 21
6.399999999999976
 31
0.0
  0
LINE
  5
B3C7
102
{ACAD_REACTORS
330
B3FC
102
}
330
1F
100
AcDbEntity
  8
AM_0
100
AcDbLine
 10
1.000965128307117
 20
22.17499999999995
 30
0.0
 11
1.000965128307143
 21
6.399999999999977
 31
0.0
  0
LINE
  5
B3C8
330
1F
100
AcDbEntity
  8
AM_0
100
AcDbLine
 10
6.699847706754754
 20
12.30000000000001
 30
0.0
 11
5.299847706754748
 21
20.5
 31
0.0
  0
LINE
  5
B3C9
330
1F
100
AcDbEntity
  8
AM_0
100
AcDbLine
 10
5.299847706754748
 20
20.5
 30
0.0
 11
1.199847706754754
 21
20.5
 31
0.0
  0
LINE
  5
B3CA
330
1F
100
AcDbEntity
  8
AM_0
100
AcDbLine
 10
6.699847706754755
 20
22.69999999999993
 30
0.0
 11
8.199847706754756
 21
24.19999999999993
 31
0.0
  0
LINE
  5
B3CB
102
{ACAD_REACTORS
330
B3FC
102
}
330
1F
100
AcDbEntity
  8
AM_0
100
AcDbLine
 10
7.845609537060485
 20
23.83983540731514
 30
0.0
 11
7.787472203559959
 21
22.17499999999995
 31
0.0
  0
LINE
  5
B3CC
330
1F
100
AcDbEntity
  8
AM_0
100
AcDbLine
 10
6.699847706754755
 20
21.80000000000001
 30
0.0
 11
5.299847706754748
 21
21.80000000000001
 31
0.0
  0
LINE
  5
B3CD
330
1F
100
AcDbEntity
  8
AM_0
100
AcDbLine
 10
6.699847706754755
 20
22.17499999999995
 30
0.0
 11
7.787472203559959
 21
22.17499999999995
 31
0.0
  0
LINE
  5
B3CE
330
1F
100
AcDbEntity
  8
AM_0
100
AcDbLine
 10
5.299847706754748
 20
21.80000000000001
 30
0.0
 11
5.299847706754748
 21
20.5
 31
0.0
  0
LINE
  5
B3D1
102
{ACAD_REACTORS
330
B3FC
102
}
330
1F
100
AcDbEntity
  8
AM_0
100
AcDbLine
 10
0.2144580530543321
 20
22.17499999999995
 30
0.0
 11
0.5009651283071178
 21
22.17499999999995
 31
0.0
  0
LINE
  5
B3D2
102
{ACAD_REACTORS
330
B3FC
102
}
330
1F
100
AcDbEntity
  8
AM_0
100
AcDbLine
 10
0.2144702328030262
 20
22.17499999999995
 30
0.0
 11
1.199847706754754
 21
22.17499999999995
 31
0.0
  0
ARC
  5
B3D3
102
{ACAD_REACTORS
330
B3FC
102
}
330
1F
100
AcDbEntity
  8
AM_0
100
AcDbCircle
 10
0.2498477067547924
 20
0.2500000000000071
 30
0.0
 40
0.25
100
AcDbArc
 50
178.0000000000011
 51
270.0
  0
ARC
  5
B3D4
102
{ACAD_REACTORS
330
B3FC
102
}
330
1F
100
AcDbEntity
  8
AM_0
100
AcDbCircle
 10
7.752082549859493
 20
0.2500000000000062
 30
0.0
 40
0.25
100
AcDbArc
 50
270.0
 51
2.000000000000472
  0
LINE
  5
B3D5
330
1F
100
AcDbEntity
  8
AM_0
100
AcDbLine
 10
1.199847706754753
 20
8.300000000000011
 30
0.0
 11
6.699847706754753
 21
8.300000000000011
 31
0.0
  0
LINE
  5
B3D6
102
{ACAD_REACTORS
330
B3FC
102
}
330
1F
100
AcDbEntity
  8
AM_0
100
AcDbLine
 10
0.2144702328030243
 20
6.399999999999977
 30
0.0
 11
7.787472203559957
 21
6.399999999999976
 31
0.0
  0
LINE
  5
B3D7
102
{ACAD_REACTORS
330
B3FC
102
}
330
1F
100
AcDbEntity
  8
AM_0
100
AcDbLine
 10
8.001930256614258
 20
0.2587248741756402
 30
0.0
 11
7.787472203559957
 21
6.399999999999976
 31
0.0
  0
LINE
  5
B3D8
102
{ACAD_REACTORS
330
B3FC
102
}
330
1F
100
AcDbEntity
  8
AM_0
100
AcDbLine
 10
0.0
 20
0.2587248741756412
 30
0.0
 11
0.2144580530543302
 21
6.399999999999977
 31
0.0
  0
LINE
  5
B3D9
102
{ACAD_REACTORS
330
B3FC
102
}
330
1F
100
AcDbEntity
  8
AM_0
100
AcDbLine
 10
0.2498477067547924
 20
0.0
 30
0.0
 11
7.752082549859493
 21
-0.0000000000000009
 31
0.0
  0
LINE
  5
B3DB
330
1F
100
AcDbEntity
  8
AM_0
100
AcDbLine
 10
8.899847706754746
 20
42.0
 30
0.0
 11
29.39984770675474
 21
41.99999999999999
 31
0.0
  0
LINE
  5
B3DC
330
1F
100
AcDbEntity
  8
AM_0
100
AcDbLine
 10
8.199847706754756
 20
24.19999999999993
 30
0.0
 11
29.39984770675474
 21
24.20000000000003
 31
0.0
  0
LINE
  5
B3DD
330
1F
100
AcDbEntity
  8
AM_0
100
AcDbLine
 10
29.39984770675474
 20
44.99999999999999
 30
0.0
 11
29.39984770675474
 21
24.0
 31
0.0
  0
ARC
  5
B3DE
330
1F
100
AcDbEntity
  8
AM_0
100
AcDbCircle
 10
27.3998477067548
 20
45.0
 30
0.0
 40
2.0
100
AcDbArc
 50
0.0
 51
180.0
  0
LINE
  5
B3DF
330
1F
100
AcDbEntity
  8
AM_0
100
AcDbLine
 10
25.39984770675475
 20
45.0
 30
0.0
 11
25.39984770675474
 21
42.0
 31
0.0
  0
INSERT
  5
B3E0
330
1F
100
AcDbEntity
  8
AM_0
100
AcDbBlockReference
  2
CBF08
 10
15.19984770675472
 20
32.00000000000001
 30
0.0
 41
-1.0
 50
270.0
  0
LINE
  5
B3E1
330
1F
100
AcDbEntity
  8
AM_7
100
AcDbLine
 10
5.432001029220831
 20
32.0
 30
0.0
 11
23.09240011744088
 21
32.0
 31
0.0
  0
DIMENSION
  5
B3E2
330
1F
100
AcDbEntity
  8
AM_5
100
AcDbDimension
  2
*D13
 10
-0.0000000000000008
 20
-13.9716189487749
 30
0.0
 11
4.001039760795718
 21
-13.9716189487749
 31
0.0
 70
   160
 71
     5
 42
8.00207952159144
  3
AM_JIS$0
100
AcDbAlignedDimension
 13
8.00207952159144
 23
0.2487695021883941
 33
0.0
 14
0.0
 24
0.2587248741755275
 34
0.0
100
AcDbRotatedDimension
1001
ACAD
1000
DSTYLE
1002
{
1070
   271
1070
     1
1002
}
  0
LINE
  5
B462
330
1F
100
AcDbEntity
  8
AM_0
100
AcDbLine
 10
6.700000000000034
 20
-84.97612919898662
 30
0.0
 11
6.700000000000033
 21
-96.27612919898671
 31
0.0
  0
LINE
  5
B463
330
1F
100
AcDbEntity
  8
AM_0
100
AcDbLine
 10
1.19999999999992
 20
-84.97612919898669
 30
0.0
 11
1.199999999999919
 21
-96.27612919898671
 31
0.0
  0
LINE
  5
B464
330
1F
100
AcDbEntity
  8
AM_0
100
AcDbLine
 10
29.39999999999996
 20
-84.97612919898662
 30
0.0
 11
29.39999999999996
 21
-97.67612919898668
 31
0.0
  0
LINE
  5
B465
330
1F
100
AcDbEntity
  8
AM_7
100
AcDbLine
 10
15.19999999999991
 20
-112.621998989721
 30
0.0
 11
15.19999999999992
 21
-74.69736611481934
 31
0.0
  0
LINE
  5
B466
330
1F
100
AcDbEntity
  8
AM_0
100
AcDbLine
 10
29.39999999999996
 20
-84.97612919898662
 30
0.0
 11
1.19999999999992
 21
-84.97612919898669
 31
0.0
  0
INSERT
  5
B467
330
1F
100
AcDbEntity
  8
AM_0
100
AcDbBlockReference
  2
CBS0800
 10
15.19999999999992
 20
-84.97612919898669
 30
0.0
 41
-1.0
  0
LINE
  5
B468
330
1F
100
AcDbEntity
  8
AM_0
100
AcDbLine
 10
25.39999999999996
 20
-94.6761291989867
 30
0.0
 11
6.700000000000033
 21
-94.6761291989867
 31
0.0
  0
LINE
  5
B469
330
1F
100
AcDbEntity
  8
AM_0
100
AcDbLine
 10
25.39999999999996
 20
-96.27612919898671
 30
0.0
 11
4.999999999999988
 21
-96.27612919898671
 31
0.0
  0
LINE
  5
B46A
330
1F
100
AcDbEntity
  8
AM_0
100
AcDbLine
 10
0.9999999999999843
 20
-128.2761291989866
 30
0.0
 11
170.0
 21
-128.2761291989866
 31
0.0
  0
LINE
  5
B46B
330
1F
100
AcDbEntity
  8
AM_0
100
AcDbLine
 10
32.99999999999986
 20
-96.27612919898671
 30
0.0
 11
29.39999999999996
 21
-96.27612919898671
 31
0.0
  0
LINE
  5
B46C
330
1F
100
AcDbEntity
  8
AM_0
100
AcDbLine
 10
25.39999999999996
 20
-94.6761291989867
 30
0.0
 11
25.39999999999996
 21
-97.67612919898668
 31
0.0
  0
LINE
  5
B46D
330
1F
100
AcDbEntity
  8
AM_0
100
AcDbLine
 10
29.39999999999996
 20
-97.67612919898668
 30
0.0
 11
25.39999999999996
 21
-97.67612919898668
 31
0.0
  0
LINE
  5
B46E
330
1F
100
AcDbEntity
  8
AM_0
100
AcDbLine
 10
9.800000000000055
 20
-101.3761291989867
 30
0.0
 11
9.800000000000052
 21
-126.7761291989865
 31
0.0
  0
LINE
  5
B46F
330
1F
100
AcDbEntity
  8
AM_0
100
AcDbLine
 10
9.800000000000055
 20
-104.9761291989866
 30
0.0
 11
9.800000000000054
 21
-120.0761291989866
 31
0.0
  0
LINE
  5
B472
102
{ACAD_REACTORS
330
B48E
102
}
330
1F
100
AcDbEntity
  8
AM_0
100
AcDbLine
 10
7.950669727555679
 20
-96.27612919898671
 30
0.0
 11
-0.0000000000000118
 21
-96.27612919898671
 31
0.0
  0
LINE
  5
B473
102
{ACAD_REACTORS
330
B48E
102
}
330
1F
100
AcDbEntity
  8
AM_0
100
AcDbLine
 10
3.975334863777775
 20
-104.9292061084167
 30
0.0
 11
0.4193510935399321
 21
-101.3732223381788
 31
0.0
  0
LINE
  5
B474
102
{ACAD_REACTORS
330
B48E
102
}
330
1F
100
AcDbEntity
  8
AM_0
100
AcDbLine
 10
7.527156052750555
 20
-101.3773849194439
 30
0.0
 11
3.975334863777775
 21
-104.9292061084167
 31
0.0
  0
LINE
  5
B475
102
{ACAD_REACTORS
330
B48E
102
}
330
1F
100
AcDbEntity
  8
AM_0
100
AcDbLine
 10
7.973458098037315
 20
-96.27612919898671
 30
0.0
 11
7.527156052750555
 21
-101.3773849194439
 31
0.0
  0
LINE
  5
B476
330
1F
100
AcDbEntity
  8
AM_0
100
AcDbLine
 10
9.800000000000055
 20
-101.3761291989867
 30
0.0
 11
7.527156052750555
 21
-101.3761291989867
 31
0.0
  0
LINE
  5
B477
102
{ACAD_REACTORS
330
B48E
102
}
330
1F
100
AcDbEntity
  8
AM_0
100
AcDbLine
 10
3.59533486377778
 20
-104.5492061084167
 30
0.0
 11
4.355334863777771
 21
-104.5492061084167
 31
0.0
  0
LINE
  5
B478
102
{ACAD_REACTORS
330
B48E
102
}
330
1F
100
AcDbEntity
  8
AM_0
100
AcDbLine
 10
-0.0265419019626852
 20
-96.2766420781495
 30
0.0
 11
0.4193510935399321
 21
-101.3732223381788
 31
0.0
  0
LINE
  5
B47A
330
1F
100
AcDbEntity
  8
AM_0
100
AcDbLine
 10
0.9999999999999843
 20
-126.7761291989865
 30
0.0
 11
0.9999999999999843
 21
-128.2761291989866
 31
0.0
  0
LINE
  5
B672
330
1F
100
AcDbEntity
  8
AM_0
100
AcDbLine
 10
0.1998477067547554
 20
22.59338557718572
 30
0.0
 11
0.1998477067547534
 21
6.399999999999977
 31
0.0
  0
LINE
  5
B678
330
1F
100
AcDbEntity
  8
AM_0
100
AcDbLine
 10
0.9000000000000785
 20
-101.8538712446389
 30
0.0
 11
0.9000000000000753
 21
-126.7761291989865
 31
0.0
  0
LINE
  5
B67B
330
1F
100
AcDbEntity
  8
AM_7
100
AcDbLine
 10
38.53028896844403
 20
-96.27612919898671
 30
0.0
 11
-77.67013725900007
 21
-96.2761291989867
 31
0.0
  0
LINE
  5
B67D
330
1F
100
AcDbEntity
  8
AM_0
100
AcDbLine
 10
7.100000000000066
 20
-101.8045409721945
 30
0.0
 11
7.100000000000065
 21
-106.5761291989867
 31
0.0
  0
LINE
  5
B67E
330
1F
100
AcDbEntity
  8
AM_0
100
AcDbLine
 10
9.800000000000052
 20
-126.7761291989865
 30
0.0
 11
0.9000000000000753
 21
-126.7761291989867
 31
0.0
  0
LINE
  5
B6FE
330
1F
100
AcDbEntity
  8
AM_0
100
AcDbLine
 10
0.9998477067547419
 20
52.0
 30
0.0
 11
1.000000000000006
 21
55.99999999999992
 31
0.0
  0
ARC
  5
B704
330
1F
100
AcDbEntity
  8
AM_11
 48
0.5
100
AcDbCircle
 10
-216.9999999999999
 20
-96.27612919898668
 30
0.0
 40
225.0
100
AcDbArc
 50
341.7930097549606
 51
19.50791789836993
  0
DIMENSION
  5
B705
330
1F
100
AcDbEntity
  8
AM_5
100
AcDbDimension
  2
*D14
 10
-434.0110810723142
 20
-36.8523066037902
 30
0.0
 11
-81.19688576902793
 21
-133.462894630782
 31
0.0
 70
   163
 71
     5
 42
449.9999999999998
  3
AM_JIS$3
100
AcDbDiametricDimension
 15
0.0110810723143899
 25
-155.6999517941831
 35
0.0
 40
0.0
1001
ACAD
1000
DSTYLE
1002
{
1070
   287
1070
     4
1070
   279
1070
     1
1002
}
  0
LINE
  5
B706
330
1F
100
AcDbEntity
  8
AM_0
100
AcDbLine
 10
7.100000000000009
 20
-106.5761291989867
 30
0.0
 11
5.332728996776365
 21
-126.7761291989867
 31
0.0
  0
ENDSEC
  0
SECTION
  2
OBJECTS
  0
DICTIONARY
  5
C
330
0
100
AcDbDictionary
281
     1
  3
ACAD_COLOR
350
B7B6
  3
ACAD_GROUP
350
D
  3
ACAD_LAYOUT
350
1A
  3
ACAD_MATERIAL
350
B7B5
  3
ACAD_MLINESTYLE
350
17
  3
ACAD_PLOTSETTINGS
350
19
  3
ACAD_PLOTSTYLENAME
350
E
  3
ACAD_TABLESTYLE
350
B7B7
  3
ACDBHEADERROUNDTRIPXREC
350
B885
  3
ACDBVARIABLEDICTIONARY
350
30
  3
ACMDICTIONARY
350
4D
  3
AMG
350
3F
  3
AMGSNAPSETTINGS
350
73
  3
DWGPROPS
350
B884
  3
ENG_DATA
350
21C6
  3
FILENAME
350
21C9
  3
HOLD_DIC_DATA
350
21C4
  3
TABLE_DIC_DATA
350
1C0B
  3
ZWKSIZE
350
21CB
  0
DICTIONARY
  5
165
330
1F
100
AcDbDictionary
280
     1
281
     1
  3
ACAD_INDEX
360
B776
  3
ACAD_LAYOUTSELFREF
360
B7A9
  0
DICTIONARY
  5
B7A7
330
1B
100
AcDbDictionary
280
     1
281
     1
  3
ACAD_LAYOUTSELFREF
360
B7A8
  0
DICTIONARY
  5
B7B6
102
{ACAD_REACTORS
330
C
102
}
330
C
100
AcDbDictionary
281
     1
  0
DICTIONARY
  5
D
102
{ACAD_REACTORS
330
C
102
}
330
C
100
AcDbDictionary
281
     1
  3
*A1
350
7C0D
  3
*A10
350
B231
  3
*A11
350
B232
  3
*A12
350
B3FC
  3
*A13
350
B48E
  3
*A2
350
7C0E
  3
*A3
350
7FE3
  3
*A4
350
8E0E
  3
*A5
350
AD5A
  3
*A6
350
B056
  3
*A7
350
B07A
  3
*A8
350
B08F
  3
*A9
350
B230
  0
DICTIONARY
  5
1A
102
{ACAD_REACTORS
330
C
102
}
330
C
100
AcDbDictionary
281
     1
  3
Model
350
B7B9
  3
レイアウト1
350
B7BA
  0
DICTIONARY
  5
B7B5
102
{ACAD_REACTORS
330
C
102
}
330
C
100
AcDbDictionary
281
     1
  0
DICTIONARY
  5
17
102
{ACAD_REACTORS
330
C
102
}
330
C
100
AcDbDictionary
281
     1
  3
STANDARD
350
18
  0
DICTIONARY
  5
19
102
{ACAD_REACTORS
330
C
102
}
330
C
100
AcDbDictionary
281
     1
  0
ACDBDICTIONARYWDFLT
  5
E
102
{ACAD_REACTORS
330
C
102
}
330
C
100
AcDbDictionary
281
     1
  3
Normal
350
F
100
AcDbDictionaryWithDefault
340
F
  0
DICTIONARY
  5
B7B7
102
{ACAD_REACTORS
330
C
102
}
330
C
100
AcDbDictionary
281
     1
  3
Standard
350
B7B8
  0
DICTIONARY
  5
B885
102
{ACAD_REACTORS
330
C
102
}
330
C
100
AcDbDictionary
281
     1
  0
DICTIONARY
  5
30
102
{ACAD_REACTORS
330
C
102
}
330
C
100
AcDbDictionary
281
     1
  3
CTABLESTYLE
350
B880
  3
DIMASSOC
350
B881
  3
INDEXCTL
350
31
  3
PROJECTNAME
350
B882
  3
SORTENTS
350
42BE
  0
DICTIONARY
  5
4D
102
{ACAD_REACTORS
330
C
102
}
330
C
100
AcDbDictionary
281
     1
  3
ACMSTDDICTIONARY
350
17E
  3
AMDTSECTSYM_ARROWCOLOR
350
B832
  0
DICTIONARY
  5
3F
102
{ACAD_REACTORS
330
C
102
}
330
C
100
AcDbDictionary
281
     1
  0
DICTIONARY
  5
73
102
{ACAD_REACTORS
330
C
102
}
330
C
100
AcDbDictionary
281
     1
  0
XRECORD
  5
B884
102
{ACAD_REACTORS
330
C
102
}
330
C
100
AcDbXrecord
280
     1
  1
DWGPROPS COOKIE
  2

  3

  4

  6

  7

  8

  9

300
AmdtFileType=82
301
=
302
=
303
=
304
=
305
=
306
=
307
=
308
=
309
=
 40
1.076033402777777
 41
2451943.610431666
 42
2455603.373632269
  1

 90
        1
  0
DICTIONARY
  5
21C6
102
{ACAD_REACTORS
330
C
102
}
330
C
100
AcDbDictionary
281
     1
  3
ENG_ID
350
21C7
  0
DICTIONARY
  5
21C9
102
{ACAD_REACTORS
330
C
102
}
330
C
100
AcDbDictionary
281
     1
  3
FILENAME
350
21CA
  0
DICTIONARY
  5
21C4
102
{ACAD_REACTORS
330
C
102
}
330
C
100
AcDbDictionary
281
     1
  3
HOLD_DATA
350
21C5
  0
DICTIONARY
  5
1C0B
102
{ACAD_REACTORS
330
C
102
}
330
C
100
AcDbDictionary
281
     1
  3
INPUT_DATA
350
1C0D
  3
TABLE_DATA
350
1C0C
  0
DICTIONARY
  5
21CB
102
{ACAD_REACTORS
330
C
102
}
330
C
100
AcDbDictionary
281
     1
  3
ZWKSIZE
350
21CC
  0
DICTIONARY
  5
B776
102
{ACAD_REACTORS
330
165
102
}
330
165
100
AcDbDictionary
281
     1
  3
*A1
350
B777
  0
XRECORD
  5
B7A9
102
{ACAD_REACTORS
330
165
102
}
330
165
100
AcDbXrecord
280
     1
340
1F
  0
XRECORD
  5
B7A8
102
{ACAD_REACTORS
330
B7A7
102
}
330
B7A7
100
AcDbXrecord
280
     1
340
1B
  0
GROUP
  5
7C0D
102
{ACAD_REACTORS
330
D
102
}
330
D
100
AcDbGroup
300

 70
     1
 71
     1
  0
GROUP
  5
B231
102
{ACAD_REACTORS
330
D
102
}
330
D
100
AcDbGroup
300

 70
     1
 71
     1
  0
GROUP
  5
B232
102
{ACAD_REACTORS
330
D
102
}
330
D
100
AcDbGroup
300

 70
     1
 71
     1
  0
GROUP
  5
B3FC
102
{ACAD_REACTORS
330
D
102
}
330
D
100
AcDbGroup
300

 70
     1
 71
     1
340
B3C6
340
B3C7
340
B3D2
340
B3C1
340
B3CB
340
B3B7
340
B3C0
340
B3C2
340
B3D1
340
B3D9
340
B3D6
340
B3D7
340
B3D4
340
B3D8
340
B3D3
  0
GROUP
  5
B48E
102
{ACAD_REACTORS
330
D
102
}
330
D
100
AcDbGroup
300

 70
     1
 71
     1
340
B472
340
B475
340
B478
340
B473
340
B477
340
B474
  0
GROUP
  5
7C0E
102
{ACAD_REACTORS
330
D
102
}
330
D
100
AcDbGroup
300

 70
     1
 71
     1
  0
GROUP
  5
7FE3
102
{ACAD_REACTORS
330
D
102
}
330
D
100
AcDbGroup
300

 70
     1
 71
     1
  0
GROUP
  5
8E0E
102
{ACAD_REACTORS
330
D
102
}
330
D
100
AcDbGroup
300

 70
     1
 71
     1
  0
GROUP
  5
AD5A
102
{ACAD_REACTORS
330
D
102
}
330
D
100
AcDbGroup
300

 70
     1
 71
     1
  0
GROUP
  5
B056
102
{ACAD_REACTORS
330
D
102
}
330
D
100
AcDbGroup
300

 70
     1
 71
     1
  0
GROUP
  5
B07A
102
{ACAD_REACTORS
330
D
102
}
330
D
100
AcDbGroup
300

 70
     1
 71
     1
  0
GROUP
  5
B08F
102
{ACAD_REACTORS
330
D
102
}
330
D
100
AcDbGroup
300

 70
     1
 71
     1
  0
GROUP
  5
B230
102
{ACAD_REACTORS
330
D
102
}
330
D
100
AcDbGroup
300

 70
     1
 71
     1
  0
LAYOUT
  5
B7B9
102
{ACAD_XDICTIONARY
360
B886
102
}
102
{ACAD_REACTORS
330
1A
102
}
330
1A
100
AcDbPlotSettings
  1

  2
SII LP-1010 (C2 VR)2R
  4

  6

 40
0.0
 41
0.0
 42
0.0
 43
0.0
 44
0.0
 45
0.0
 46
0.0
 47
0.0
 48
0.0
 49
0.0
140
0.0
141
0.0
142
1.0
143
1.0
 70
  1712
 72
     0
 73
     0
 74
     0
  7
sei_cad.ctb
 75
     0
147
1.0
148
0.0
149
0.0
100
AcDbLayout
  1
Model
 70
     1
 71
     0
 10
0.0
 20
0.0
 11
12.0
 21
9.0
 12
0.0
 22
0.0
 32
0.0
 14
0.0
 24
0.0
 34
0.0
 15
0.0
 25
0.0
 35
0.0
146
0.0
 13
0.0
 23
0.0
 33
0.0
 16
1.0
 26
0.0
 36
0.0
 17
0.0
 27
1.0
 37
0.0
 76
     0
330
1F
  0
LAYOUT
  5
B7BA
102
{ACAD_XDICTIONARY
360
B888
102
}
102
{ACAD_REACTORS
330
1A
102
}
330
1A
100
AcDbPlotSettings
  1

  2
SII LP-1010 (C2 VR)2R
  4

  6

 40
0.0
 41
0.0
 42
0.0
 43
0.0
 44
0.0
 45
0.0
 46
0.0
 47
0.0
 48
0.0
 49
0.0
140
0.0
141
0.0
142
1.0
143
1.0
 70
   688
 72
     0
 73
     0
 74
     5
  7
sei_cad.ctb
 75
    16
147
1.0
148
0.0
149
0.0
100
AcDbLayout
  1
レイアウト1
 70
     1
 71
     1
 10
0.0
 20
0.0
 11
420.0
 21
297.0
 12
0.0
 22
0.0
 32
0.0
 14
1.000000000000000E+20
 24
1.000000000000000E+20
 34
1.000000000000000E+20
 15
-1.000000000000000E+20
 25
-1.000000000000000E+20
 35
-1.000000000000000E+20
146
0.0
 13
0.0
 23
0.0
 33
0.0
 16
1.0
 26
0.0
 36
0.0
 17
0.0
 27
1.0
 37
0.0
 76
     0
330
1B
  0
MLINESTYLE
  5
18
102
{ACAD_REACTORS
330
17
102
}
330
17
100
AcDbMlineStyle
  2
STANDARD
 70
     0
  3

 62
   256
 51
90.0
 52
90.0
 71
     2
 49
0.5
 62
   256
  6
BYLAYER
 49
-0.5
 62
   256
  6
BYLAYER
  0
ACDBPLACEHOLDER
  5
F
102
{ACAD_REACTORS
330
E
102
}
330
E
  0
TABLESTYLE
  5
B7B8
102
{ACAD_REACTORS
330
B7B7
102
}
330
B7B7
100
AcDbTableStyle
  3
Standard
 70
     0
 71
     0
 40
1.5
 41
1.5
280
     0
281
     0
  7
STANDARD
140
4.5
170
     2
 62
     0
 63
     7
283
     0
274
    -2
284
     1
 64
     0
275
    -2
285
     1
 65
     0
276
    -2
286
     1
 66
     0
277
    -2
287
     1
 67
     0
278
    -2
288
     1
 68
     0
279
    -2
289
     1
 69
     0
  7
STANDARD
140
6.0
170
     5
 62
     0
 63
     7
283
     0
274
    -2
284
     1
 64
     0
275
    -2
285
     1
 65
     0
276
    -2
286
     1
 66
     0
277
    -2
287
     1
 67
     0
278
    -2
288
     1
 68
     0
279
    -2
289
     1
 69
     0
  7
STANDARD
140
4.5
170
     5
 62
     0
 63
     7
283
     0
274
    -2
284
     1
 64
     0
275
    -2
285
     1
 65
     0
276
    -2
286
     1
 66
     0
277
    -2
287
     1
 67
     0
278
    -2
288
     1
 68
     0
279
    -2
289
     1
 69
     0
  0
DICTIONARYVAR
  5
B880
102
{ACAD_REACTORS
330
30
102
}
330
30
100
DictionaryVariables
280
     0
  1
STANDARD
  0
DICTIONARYVAR
  5
B881
102
{ACAD_REACTORS
330
30
102
}
330
30
100
DictionaryVariables
280
     0
  1
1
  0
DICTIONARYVAR
  5
31
102
{ACAD_REACTORS
330
30
102
}
330
30
100
DictionaryVariables
280
     0
  1
1
  0
DICTIONARYVAR
  5
B882
102
{ACAD_REACTORS
330
30
102
}
330
30
100
DictionaryVariables
280
     0
  1

  0
DICTIONARYVAR
  5
42BE
102
{ACAD_REACTORS
330
30
102
}
330
30
100
DictionaryVariables
280
     0
  1
96
  0
DICTIONARY
  5
17E
102
{ACAD_REACTORS
330
4D
102
}
330
4D
100
AcDbDictionary
281
     1
  0
XRECORD
  5
B832
102
{ACAD_REACTORS
330
4D
102
}
330
4D
100
AcDbXrecord
280
     1
 90
-1023410169
  0
XRECORD
  5
21C7
102
{ACAD_REACTORS
330
21C6
102
}
330
21C6
100
AcDbXrecord
280
     1
  1
HOLD
  0
XRECORD
  5
21CA
102
{ACAD_REACTORS
330
21C9
102
}
330
21C9
100
AcDbXrecord
280
     1
  1
21000065__00___
  0
XRECORD
  5
21C5
102
{ACAD_REACTORS
330
21C4
102
}
330
21C4
100
AcDbXrecord
280
     1
  1
クランクシャフト加工用 ^M^J１コーナー型 ^M^J15.875 ^M^J20 ^M^Jクランプオン ^M^J９０° ^M^J1 ^M^J鋼 ^M^J ^M^J ^M^J ^M^J ^M^J
  0
XRECORD
  5
1C0D
102
{ACAD_REACTORS
330
1C0B
102
}
330
1C0B
100
AcDbXrecord
280
     1
  1
1,,,,,,,,,^M^J2,,,,,,,,,^M^J3,,,,,,,,,^M^J4,,,,,,,,,^M^J5,,,,,,,,,^M^J6,,,,,,,,,^M^J7,,,,,,,,,^M^J8,,,,,,,,,^M^J9,,,,,,,,,^M^J10,,,,,,,,,
  0
XRECORD
  5
1C0C
102
{ACAD_REACTORS
330
1C0B
102
}
330
1C0B
100
AcDbXrecord
280
     1
  1
10,10
  0
XRECORD
  5
21CC
102
{ACAD_REACTORS
330
21CB
102
}
330
21CB
100
AcDbXrecord
280
     1
  1
3
  0
LAYER_INDEX
  5
B777
102
{ACAD_REACTORS
330
B776
102
}
330
B776
100
AcDbIndex
 40
2455603.373632269
100
AcDbLayerIndex
  8
0
360
B778
 90
        0
  8
AM_5
360
B779
 90
        6
  8
DEFPOINTS
360
B77A
 90
        0
  8
AM_0
360
B77B
 90
       72
  8
AM_6
360
B77C
 90
        1
  8
AM_7
360
B77D
 90
        6
  8
AM_4
360
B77E
 90
        2
  8
AM_11
360
B77F
 90
        1
  0
DICTIONARY
  5
B886
330
B7B9
100
AcDbDictionary
280
     1
281
     1
  3
ACAD_XREC_ROUNDTRIP
360
B887
  0
DICTIONARY
  5
B888
330
B7BA
100
AcDbDictionary
280
     1
281
     1
  3
ACAD_XREC_ROUNDTRIP
360
B889
  0
IDBUFFER
  5
B778
330
0
100
AcDbIdBuffer
  0
IDBUFFER
  5
B779
330
0
100
AcDbIdBuffer
330
ADCD
330
ADDA
330
AE11
330
B310
330
B3E2
330
B705
  0
IDBUFFER
  5
B77A
330
0
100
AcDbIdBuffer
  0
IDBUFFER
  5
B77B
330
0
100
AcDbIdBuffer
330
AC3A
330
AC3B
330
AC40
330
ACB2
330
B314
330
B37F
330
B380
330
B383
330
B384
330
B3B6
330
B3B7
330
B3BA
330
B3BB
330
B3BC
330
B3BD
330
B3BE
330
B3BF
330
B3C0
330
B3C1
330
B3C2
330
B3C5
330
B3C6
330
B3C7
330
B3C8
330
B3C9
330
B3CA
330
B3CB
330
B3CC
330
B3CD
330
B3CE
330
B3D1
330
B3D2
330
B3D3
330
B3D4
330
B3D5
330
B3D6
330
B3D7
330
B3D8
330
B3D9
330
B3DB
330
B3DC
330
B3DD
330
B3DE
330
B3DF
330
B3E0
330
B462
330
B463
330
B464
330
B466
330
B467
330
B468
330
B469
330
B46A
330
B46B
330
B46C
330
B46D
330
B46E
330
B46F
330
B472
330
B473
330
B474
330
B475
330
B476
330
B477
330
B478
330
B47A
330
B672
330
B678
330
B67D
330
B67E
330
B6FE
330
B706
  0
IDBUFFER
  5
B77C
330
0
100
AcDbIdBuffer
330
83BD
  0
IDBUFFER
  5
B77D
330
0
100
AcDbIdBuffer
330
B3B5
330
B3B8
330
B3B9
330
B3E1
330
B465
330
B67B
  0
IDBUFFER
  5
B77E
330
0
100
AcDbIdBuffer
330
AC4E
330
AD6A
  0
IDBUFFER
  5
B77F
330
0
100
AcDbIdBuffer
330
B704
  0
XRECORD
  5
B887
102
{ACAD_REACTORS
330
B886
102
}
330
B886
100
AcDbXrecord
280
     1
102
SHADEPLOT
 70
     0
102
SHADEPLOTRESLEVEL
 70
     2
102
SHADEPLOTCUSTOMDPI
 70
   300
  0
XRECORD
  5
B889
102
{ACAD_REACTORS
330
B888
102
}
330
B888
100
AcDbXrecord
280
     1
102
SHADEPLOT
 70
     0
102
SHADEPLOTRESLEVEL
 70
     2
102
SHADEPLOTCUSTOMDPI
 70
   300
  0
ENDSEC
  0
EOF
