  0
SECTION
  2
HEADER
  9
$ACADVER
  1
AC1015
  9
$ACADMAINTVER
 70
    20
  9
$DWGCODEPAGE
  3
ANSI_932
  9
$INSBASE
 10
0.0
 20
0.0
 30
0.0
  9
$EXTMIN
 10
-87.96059594827751
 20
-94.47384769255871
 30
-0.0015258207003583
  9
$EXTMAX
 10
256.6438656586481
 20
41.08341893015665
 30
0.0000000349246037
  9
$LIMMIN
 10
-279.2311745383401
 20
-71.0000426030017
  9
$LIMMAX
 10
108.8767134010056
 20
111.1213397040675
  9
$ORTHOMODE
 70
     0
  9
$REGENMODE
 70
     1
  9
$FILLMODE
 70
     1
  9
$QTEXTMODE
 70
     0
  9
$MIRRTEXT
 70
     1
  9
$LTSCALE
 40
0.5
  9
$ATTMODE
 70
     1
  9
$TEXTSIZE
 40
2.5
  9
$TRACEWID
 40
1.0
  9
$TEXTSTYLE
  7
STANDARD
  9
$CLAYER
  8
AM_0
  9
$CELTYPE
  6
BYLAYER
  9
$CECOLOR
 62
   256
  9
$CELTSCALE
 40
1.0
  9
$DISPSILH
 70
     0
  9
$DIMSCALE
 40
1.0
  9
$DIMASZ
 40
2.5
  9
$DIMEXO
 40
0.0
  9
$DIMDLI
 40
10.0
  9
$DIMRND
 40
0.0
  9
$DIMDLE
 40
0.0
  9
$DIMEXE
 40
1.0
  9
$DIMTP
 40
0.1
  9
$DIMTM
 40
0.1000000001
  9
$DIMTXT
 40
3.799999999999998
  9
$DIMCEN
 40
0.0
  9
$DIMTSZ
 40
0.0
  9
$DIMTOL
 70
     0
  9
$DIMLIM
 70
     0
  9
$DIMTIH
 70
     0
  9
$DIMTOH
 70
     0
  9
$DIMSE1
 70
     0
  9
$DIMSE2
 70
     0
  9
$DIMTAD
 70
     3
  9
$DIMZIN
 70
     9
  9
$DIMBLK
  1
OPEN30
  9
$DIMASO
 70
     1
  9
$DIMSHO
 70
     1
  9
$DIMPOST
  1

  9
$DIMAPOST
  1
"
  9
$DIMALT
 70
     0
  9
$DIMALTD
 70
     2
  9
$DIMALTF
 40
0.0393701
  9
$DIMLFAC
 40
1.0
  9
$DIMTOFL
 70
     1
  9
$DIMTVP
 40
0.0
  9
$DIMTIX
 70
     0
  9
$DIMSOXD
 70
     0
  9
$DIMSAH
 70
     0
  9
$DIMBLK1
  1

  9
$DIMBLK2
  1

  9
$DIMSTYLE
  2
AM_JIS
  9
$DIMCLRD
 70
   256
  9
$DIMCLRE
 70
   256
  9
$DIMCLRT
 70
     2
  9
$DIMTFAC
 40
0.71
  9
$DIMGAP
 40
1.5
  9
$DIMJUST
 70
     0
  9
$DIMSD1
 70
     0
  9
$DIMSD2
 70
     0
  9
$DIMTOLJ
 70
     0
  9
$DIMTZIN
 70
     8
  9
$DIMALTZ
 70
     0
  9
$DIMALTTZ
 70
     0
  9
$DIMUPT
 70
     0
  9
$DIMDEC
 70
     2
  9
$DIMTDEC
 70
     2
  9
$DIMALTU
 70
     2
  9
$DIMALTTD
 70
     2
  9
$DIMTXSTY
  7
STANDARD
  9
$DIMAUNIT
 70
     1
  9
$DIMADEC
 70
     1
  9
$DIMALTRND
 40
0.0
  9
$DIMAZIN
 70
     2
  9
$DIMDSEP
 70
    46
  9
$DIMATFIT
 70
     3
  9
$DIMFRAC
 70
     0
  9
$DIMLDRBLK
  1
OPEN30
  9
$DIMLUNIT
 70
     2
  9
$DIMLWD
 70
    -1
  9
$DIMLWE
 70
    -1
  9
$DIMTMOVE
 70
     0
  9
$LUNITS
 70
     2
  9
$LUPREC
 70
     2
  9
$SKETCHINC
 40
1.0
  9
$FILLETRAD
 40
3.0
  9
$AUNITS
 70
     1
  9
$AUPREC
 70
     5
  9
$MENU
  1
.
  9
$ELEVATION
 40
0.0
  9
$PELEVATION
 40
0.0
  9
$THICKNESS
 40
0.0
  9
$LIMCHECK
 70
     0
  9
$CHAMFERA
 40
4.0
  9
$CHAMFERB
 40
4.0
  9
$CHAMFERC
 40
20.0
  9
$CHAMFERD
 40
0.0
  9
$SKPOLY
 70
     0
  9
$TDCREATE
 40
2451943.610431666
  9
$TDUCREATE
 40
2451943.235431667
  9
$TDUPDATE
 40
2455603.394932720
  9
$TDUUPDATE
 40
2455603.019932720
  9
$TDINDWG
 40
1.7332857986
  9
$TDUSRTIMER
 40
1.7332856250
  9
$USRTIMER
 70
     1
  9
$ANGBASE
 50
0.0
  9
$ANGDIR
 70
     0
  9
$PDMODE
 70
     0
  9
$PDSIZE
 40
0.0
  9
$PLINEWID
 40
0.0
  9
$SPLFRAME
 70
     0
  9
$SPLINETYPE
 70
     6
  9
$SPLINESEGS
 70
     8
  9
$HANDSEED
  5
B7CC
  9
$SURFTAB1
 70
     6
  9
$SURFTAB2
 70
     6
  9
$SURFTYPE
 70
     6
  9
$SURFU
 70
     6
  9
$SURFV
 70
     6
  9
$UCSBASE
  2

  9
$UCSNAME
  2

  9
$UCSORG
 10
0.0
 20
0.0
 30
0.0
  9
$UCSXDIR
 10
1.0
 20
0.0
 30
0.0
  9
$UCSYDIR
 10
0.0
 20
1.0
 30
0.0
  9
$UCSORTHOREF
  2

  9
$UCSORTHOVIEW
 70
     0
  9
$UCSORGTOP
 10
0.0
 20
0.0
 30
0.0
  9
$UCSORGBOTTOM
 10
0.0
 20
0.0
 30
0.0
  9
$UCSORGLEFT
 10
0.0
 20
0.0
 30
0.0
  9
$UCSORGRIGHT
 10
0.0
 20
0.0
 30
0.0
  9
$UCSORGFRONT
 10
0.0
 20
0.0
 30
0.0
  9
$UCSORGBACK
 10
0.0
 20
0.0
 30
0.0
  9
$PUCSBASE
  2

  9
$PUCSNAME
  2

  9
$PUCSORG
 10
0.0
 20
0.0
 30
0.0
  9
$PUCSXDIR
 10
1.0
 20
0.0
 30
0.0
  9
$PUCSYDIR
 10
0.0
 20
1.0
 30
0.0
  9
$PUCSORTHOREF
  2

  9
$PUCSORTHOVIEW
 70
     0
  9
$PUCSORGTOP
 10
0.0
 20
0.0
 30
0.0
  9
$PUCSORGBOTTOM
 10
0.0
 20
0.0
 30
0.0
  9
$PUCSORGLEFT
 10
0.0
 20
0.0
 30
0.0
  9
$PUCSORGRIGHT
 10
0.0
 20
0.0
 30
0.0
  9
$PUCSORGFRONT
 10
0.0
 20
0.0
 30
0.0
  9
$PUCSORGBACK
 10
0.0
 20
0.0
 30
0.0
  9
$USERI1
 70
     0
  9
$USERI2
 70
     0
  9
$USERI3
 70
     0
  9
$USERI4
 70
     0
  9
$USERI5
 70
     0
  9
$USERR1
 40
0.0
  9
$USERR2
 40
0.0
  9
$USERR3
 40
0.0
  9
$USERR4
 40
0.0
  9
$USERR5
 40
0.0
  9
$WORLDVIEW
 70
     1
  9
$SHADEDGE
 70
     3
  9
$SHADEDIF
 70
    70
  9
$TILEMODE
 70
     1
  9
$MAXACTVP
 70
    64
  9
$PINSBASE
 10
0.0
 20
0.0
 30
0.0
  9
$PLIMCHECK
 70
     0
  9
$PEXTMIN
 10
1.000000000000000E+20
 20
1.000000000000000E+20
 30
1.000000000000000E+20
  9
$PEXTMAX
 10
-1.000000000000000E+20
 20
-1.000000000000000E+20
 30
-1.000000000000000E+20
  9
$PLIMMIN
 10
0.0
 20
0.0
  9
$PLIMMAX
 10
420.0
 20
297.0
  9
$UNITMODE
 70
     0
  9
$VISRETAIN
 70
     1
  9
$PLINEGEN
 70
     0
  9
$PSLTSCALE
 70
     1
  9
$TREEDEPTH
 70
  3020
  9
$CMLSTYLE
  2
STANDARD
  9
$CMLJUST
 70
     0
  9
$CMLSCALE
 40
20.0
  9
$PROXYGRAPHICS
 70
     1
  9
$MEASUREMENT
 70
     1
  9
$CELWEIGHT
370
    -1
  9
$ENDCAPS
280
     0
  9
$JOINSTYLE
280
     0
  9
$LWDISPLAY
290
     0
  9
$INSUNITS
 70
     4
  9
$HYPERLINKBASE
  1

  9
$STYLESHEET
  1
ASAMI.ctb
  9
$XEDIT
290
     1
  9
$CEPSNTYPE
380
     0
  9
$PSTYLEMODE
290
     1
  9
$FINGERPRINTGUID
  2
{C77AB3BE-9CA2-11D3-BAF3-006094EB760E}
  9
$VERSIONGUID
  2
{B65DA859-662E-4E0A-9F9E-F84BE14490F1}
  9
$EXTNAMES
290
     1
  9
$PSVPSCALE
 40
0.0
  9
$OLESTARTUP
290
     0
  0
ENDSEC
  0
SECTION
  2
CLASSES
  0
CLASS
  1
ACDBDICTIONARYWDFLT
  2
AcDbDictionaryWithDefault
  3
ObjectDBX Classes
 90
        0
280
     0
281
     0
  0
CLASS
  1
ACDBPLACEHOLDER
  2
AcDbPlaceHolder
  3
ObjectDBX Classes
 90
        0
280
     0
281
     0
  0
CLASS
  1
LAYOUT
  2
AcDbLayout
  3
ObjectDBX Classes
 90
        0
280
     0
281
     0
  0
CLASS
  1
ACME_DOCUMENT
  2
AcMeDbDoc
  3
AcMeServices
 90
        0
280
     0
281
     0
  0
CLASS
  1
ACMESCOPE
  2
AcMeScope
  3
AcMeServices
 90
        0
280
     0
281
     0
  0
CLASS
  1
ACMECOMMANDHISTORY
  2
AcMeCommandHistory
  3
AcMeServices
 90
        0
280
     0
281
     0
  0
CLASS
  1
DICTIONARYVAR
  2
AcDbDictionaryVar
  3
ObjectDBX Classes
 90
        0
280
     0
281
     0
  0
CLASS
  1
ACIMSYSVARMAN
  2
AcImSysVarManager
  3
AcMeServices
 90
        0
280
     0
281
     0
  0
CLASS
  1
ACIMREALSYSVAR
  2
AcImRealSysVar
  3
AcMeServices
 90
        0
280
     0
281
     0
  0
CLASS
  1
ACIMINTSYSVAR
  2
AcImIntSysVar
  3
AcMeServices
 90
        0
280
     0
281
     0
  0
CLASS
  1
ACMEDRAWINGMAN
  2
AcMeDrawingMan
  3
AcMeServices
 90
        0
280
     0
281
     0
  0
CLASS
  1
ACMEVIEW
  2
AcMeView
  3
AcMeServices
 90
        0
280
     0
281
     0
  0
CLASS
  1
ACDBENTITYCACHE
  2
AcMeEntityCache
  3
AcMeServices
 90
        0
280
     0
281
     0
  0
CLASS
  1
GSMANAGER
  2
AcMeGSManager
  3
AcMeServices
 90
        0
280
     0
281
     0
  0
CLASS
  1
AMDTINTERNALREACTOR
  2
AmdtInternalReactor
  3
AcMeServices
 90
        0
280
     0
281
     0
  0
CLASS
  1
ACMESTATEMGR
  2
AcMeStateMgr
  3
AcMeServices
 90
        0
280
     0
281
     0
  0
CLASS
  1
ACME_DATABASE
  2
AcMeDbDatabase
  3
AcMeServices
 90
        0
280
     0
281
     0
  0
CLASS
  1
ACRFINSADJUSTERMGR
  2
AcRfInsAdjusterMgr
  3
AcMeServices
 90
        0
280
     0
281
     0
  0
CLASS
  1
AMGSETTINGSOBJ
  2
AmgSettingsObj
  3
"AcadM|Product Description: AutoCAD Mechanical 2000|Company: Autodesk"
 90
        0
280
     0
281
     0
  0
CLASS
  1
AMGOBJPROPCFG
  2
AmgObjPropCfg
  3
"AmgLay|Product Description: AutoCAD Mechanical 2000|Company: Autodesk"
 90
        1
280
     0
281
     0
  0
CLASS
  1
ACMDATADICTIONARY
  2
AcmDataDictionary
  3
"AcmSymBB|Product Description: AutoCAD Mechanical 2004 DX|Company: Autodesk"
 90
        0
280
     0
281
     0
  0
CLASS
  1
ACMDATAENTRYBLOCK
  2
AcmDataEntryBlock
  3
"AcmSymBB|Product Description: AutoCAD Mechanical 2004 DX|Company: Autodesk"
 90
    32768
280
     0
281
     0
  0
CLASS
  1
ACIMSTRSYSVAR
  2
AcImStrSysVar
  3
AcMeServices
 90
        0
280
     0
281
     0
  0
CLASS
  1
ACAMGFILTERDAT
  2
AcAmgFilterDat
  3
"AcadM|Product Description: AutoCAD Mechanical 2000|Company: Autodesk"
 90
    32768
280
     0
281
     0
  0
CLASS
  1
LAYER_INDEX
  2
AcDbLayerIndex
  3
ObjectDBX Classes
 90
        0
280
     0
281
     0
  0
CLASS
  1
IDBUFFER
  2
AcDbIdBuffer
  3
ObjectDBX Classes
 90
        0
280
     0
281
     0
  0
CLASS
  1
ACMSTANDARDJIS
  2
AcmStandardJIS
  3
"Amdt_StdImp|Product Description: AutoCAD Mechanical 2004 DX|Company: Autodesk"
 90
    32768
280
     0
281
     0
  0
CLASS
  1
ACMSURFSTANDARDJIS
  2
AcmSurfTextStdJIS
  3
"Amdt_StdImp|Product Description: AutoCAD Mechanical 2004 DX|Company: Autodesk"
 90
    32768
280
     0
281
     0
  0
CLASS
  1
ACMFCFSTANDARDJIS
  2
AcmFCFStdJIS
  3
"Amdt_StdImp|Product Description: AutoCAD Mechanical 2004 DX|Company: Autodesk"
 90
    32768
280
     0
281
     0
  0
CLASS
  1
ACMWELDSTANDARDJIS
  2
AcmWeldingStdJIS
  3
"Amdt_StdImp|Product Description: AutoCAD Mechanical 2004 DX|Company: Autodesk"
 90
    32768
280
     0
281
     0
  0
CLASS
  1
ACMIDSTANDARDJIS
  2
AcmIdStdJIS
  3
"Amdt_StdImp|Product Description: AutoCAD Mechanical 2004 DX|Company: Autodesk"
 90
    32768
280
     0
281
     0
  0
CLASS
  1
ACMDATUMSTANDARDJIS
  2
AcmDatumStdJIS
  3
"Amdt_StdImp|Product Description: AutoCAD Mechanical 2004 DX|Company: Autodesk"
 90
    32768
280
     0
281
     0
  0
CLASS
  1
ACMBOMSTANDARDJIS
  2
AcmBOMStdJIS
  3
"Amdt_StdImp|Product Description: AutoCAD Mechanical 2004 DX|Company: Autodesk"
 90
    32768
280
     0
281
     0
  0
CLASS
  1
AMDTNOTE
  2
AmdtNote
  3
"AcmSymBB|Product Description: AutoCAD Mechanical 2004 DX|Company: Autodesk"
 90
    33791
280
     0
281
     1
  0
CLASS
  1
ACMDATAENTRYPART
  2
AcmDataEntryPart
  3
"AcmSymBB|Product Description: AutoCAD Mechanical 2004 DX|Company: Autodesk"
 90
    32768
280
     0
281
     0
  0
CLASS
  1
ACMPARTREF
  2
AcmPartRef
  3
"AcmSymBB|Product Description: AutoCAD Mechanical 2004 DX|Company: Autodesk"
 90
    33791
280
     0
281
     1
  0
CLASS
  1
ACDB_PROXY_ENTITY_DATA
  2
AcDbProxyEntityData
  3
ObjectDBX Classes
 90
    32768
280
     0
281
     0
  0
CLASS
  1
TABLESTYLE
  2
AcDbTableStyle
  3
ObjectDBX Classes
 90
     2047
280
     0
281
     0
  0
CLASS
  1
ACGREFMASTER
  2
AcGrefMaster
  3
AcAttribServices
 90
        0
280
     0
281
     0
  0
CLASS
  1
AM_DRAWING_MGR
  2
AcDmDwgMgr
  3
AcMechDwgViewMgmt
 90
        0
280
     0
281
     0
  0
CLASS
  1
AM_DWG_DOCUMENT
  2
AcDmDwgDocument
  3
AcMechDwgViewMgmt
 90
        0
280
     0
281
     0
  0
CLASS
  1
AM_DWG_SHEET
  2
AcDmSheet
  3
AcMechDwgViewMgmt
 90
        0
280
     0
281
     0
  0
CLASS
  1
AM_VIEWDIMPARMAP
  2
AcDmViewDimParMap
  3
AcMechDwgViewMgmt
 90
        0
280
     0
281
     0
  0
CLASS
  1
AM_DWGMGR_NAME
  2
AcDmDwgMgrName
  3
AcMechDwgViewMgmt
 90
        0
280
     0
281
     0
  0
CLASS
  1
ACGREFACADMASTER
  2
AcGrefacadMaster
  3
AcGrefServices
 90
        0
280
     0
281
     0
  0
CLASS
  1
AMDTMENUSTATEMGR
  2
AmdtMenuStateMgr
  3
McadcomServices
 90
        0
280
     0
281
     0
  0
CLASS
  1
AMDTMCOMMENUSTATE
  2
AmdtMcomMenuState
  3
McadcomServices
 90
        0
280
     0
281
     0
  0
CLASS
  1
AMIMASTER
  2
AmiMaster
  3
AmiServices
 90
        0
280
     0
281
     0
  0
CLASS
  1
MAPIAMMOUDLE
  2
MApiAmModule
  3
MApiAmServices
 90
        0
280
     0
281
     0
  0
CLASS
  1
AMDTADMENUSTATE
  2
AmdtAdMenuState
  3
DesignerServices
 90
        0
280
     0
281
     0
  0
CLASS
  1
ADAPPL
  2
AcAdAppl
  3
DesignerServices
 90
        0
280
     0
281
     0
  0
CLASS
  1
DEPMGR
  2
AcAdDepMgr
  3
DesignerServices
 90
        0
280
     0
281
     0
  0
CLASS
  1
PARAMMGR
  2
AcAdParamMgr
  3
DesignerServices
 90
        0
280
     0
281
     0
  0
CLASS
  1
PARAMSCOPE
  2
AcAdParamScope
  3
DesignerServices
 90
        0
280
     0
281
     0
  0
CLASS
  1
NAMEDAPPL
  2
AcAdNamedAppl
  3
DesignerServices
 90
        0
280
     0
281
     0
  0
CLASS
  1
AMDTDMMENUSTATE
  2
AmdtDmMenuState
  3
AcMechDwgViewMgmt
 90
        0
280
     0
281
     0
  0
CLASS
  1
AMDTAMMENUSTATE
  2
AmdtAmMenuState
  3
DesignerAssemblies
 90
        0
280
     0
281
     0
  0
CLASS
  1
ACAMPROJECT
  2
AcAmProject
  3
DesignerAssemblies
 90
        0
280
     0
281
     0
  0
CLASS
  1
ACAMGRCOMPDEF
  2
AcAmGrCompDef
  3
DesignerAssemblies
 90
        0
280
     0
281
     0
  0
CLASS
  1
ACCMCONTEXT
  2
AcCmContext
  3
DesignerAssemblies
 90
        0
280
     0
281
     0
  0
CLASS
  1
ACAMCOMPDEF
  2
AcAmCompDef
  3
DesignerAssemblies
 90
        0
280
     0
281
     0
  0
CLASS
  1
ACAMCOMPDEFMGR
  2
AcAmCompDefMgr
  3
DesignerAssemblies
 90
        0
280
     0
281
     0
  0
CLASS
  1
AMCONTEXTMGR
  2
AcAmContextMgr
  3
DesignerAssemblies
 90
        0
280
     0
281
     0
  0
CLASS
  1
ACAMCONTEXTMODELER
  2
AcAmContextModeler
  3
DesignerAssemblies
 90
        0
280
     0
281
     0
  0
CLASS
  1
CATALOGSTATE
  2
AcAmCatalogState
  3
DesignerAssemblies
 90
        0
280
     0
281
     0
  0
CLASS
  1
ACAMGRCOMPDEFSET
  2
AcAmGrCompDefSet
  3
DesignerAssemblies
 90
        0
280
     0
281
     0
  0
CLASS
  1
AMDTBROWSERDBTAB
  2
AmdtBrowserDbTab
  3
McadcomServices
 90
        0
280
     0
281
     0
  0
CLASS
  1
CBROWSERAPPOBJECT
  2
CBrowserAppObject
  3
McadcomServices
 90
        0
280
     0
281
     0
  0
CLASS
  1
DM_PLACEHOLDER
  2
AcDmSelsetPlaceholder
  3
AcMechDwgViewMgmt
 90
        0
280
     0
281
     0
  0
CLASS
  1
ACMSTANDARDISO
  2
AcmStandardISO
  3
"Amdt_StdImp|Product Description: AutoCAD Mechanical 2004 DX|Company: Autodesk"
 90
        0
280
     0
281
     0
  0
CLASS
  1
AMDTEDGESTANDARDISO13715
  2
AmdtEdgeStdISO13715
  3
"Amdt_StdImp|Product Description: AutoCAD Mechanical 2004 DX|Company: Autodesk"
 90
        0
280
     0
281
     0
  0
CLASS
  1
ACMSURFSTANDARDISO
  2
AcmSurfTextStdISO
  3
"Amdt_StdImp|Product Description: AutoCAD Mechanical 2004 DX|Company: Autodesk"
 90
        0
280
     0
281
     0
  0
CLASS
  1
ACMFCFSTANDARDISO
  2
AcmFCFStdISO
  3
"Amdt_StdImp|Product Description: AutoCAD Mechanical 2004 DX|Company: Autodesk"
 90
        0
280
     0
281
     0
  0
CLASS
  1
ACMWELDSTANDARDISO
  2
AcmWeldingStdISO
  3
"Amdt_StdImp|Product Description: AutoCAD Mechanical 2004 DX|Company: Autodesk"
 90
        0
280
     0
281
     0
  0
CLASS
  1
ACMIDSTANDARDISO
  2
AcmIdStdISO
  3
"Amdt_StdImp|Product Description: AutoCAD Mechanical 2004 DX|Company: Autodesk"
 90
        0
280
     0
281
     0
  0
CLASS
  1
ACMDATUMSTANDARDISO
  2
AcmDatumStdISO
  3
"Amdt_StdImp|Product Description: AutoCAD Mechanical 2004 DX|Company: Autodesk"
 90
        0
280
     0
281
     0
  0
CLASS
  1
ACMBOMSTANDARDISO
  2
AcmBOMStdISO
  3
"Amdt_StdImp|Product Description: AutoCAD Mechanical 2004 DX|Company: Autodesk"
 90
        0
280
     0
281
     0
  0
CLASS
  1
ACMDETAILSTANDARDISO
  2
AmdtDetailSymStdISO
  3
"Amdt_StdImp|Product Description: AutoCAD Mechanical 2004 DX|Company: Autodesk"
 90
        0
280
     0
281
     0
  0
CLASS
  1
ACMSECTIONSTANDARDISO
  2
AmdtSectionSymStdISO
  3
"Amdt_StdImp|Product Description: AutoCAD Mechanical 2004 DX|Company: Autodesk"
 90
        0
280
     0
281
     0
  0
CLASS
  1
ACMCENTERLINESTANDARDISO
  2
AmdtCenterLineStdISO
  3
"Amdt_StdImp|Product Description: AutoCAD Mechanical 2004 DX|Company: Autodesk"
 90
        0
280
     0
281
     0
  0
CLASS
  1
ACMTHREADLINESTANDARDISO
  2
AmdtThreadLineStdISO
  3
"Amdt_StdImp|Product Description: AutoCAD Mechanical 2004 DX|Company: Autodesk"
 90
        0
280
     0
281
     0
  0
CLASS
  1
ACMNOTESTANDARDISO
  2
AmdtNoteStdISO
  3
"Amdt_StdImp|Product Description: AutoCAD Mechanical 2004 DX|Company: Autodesk"
 90
        0
280
     0
281
     0
  0
CLASS
  1
AMDTNOTETEMPLATEDB
  2
AmdtNoteTemplateDB
  3
AMDT_STDIMP_MODULE_NAME
 90
        0
280
     0
281
     0
  0
CLASS
  1
ACAMGLAYSTD
  2
AcAmgLayStd
  3
"AcAmgLayStd|Product Description: AutoCAD Mechanical 2000|Company: Autodesk"
 90
        0
280
     0
281
     0
  0
CLASS
  1
ACAMGDIMSTD
  2
AcAmgDimStd
  3
"AcAmgDimStd|Product Description: AutoCAD Mechanical 2000|Company: Autodesk"
 90
        0
280
     0
281
     0
  0
CLASS
  1
ACAMGHOLECHARTSTDISO
  2
AcAmgHoleChartStdISO
  3
ACMSYMBB_MODULE_NAME
 90
        0
280
     0
281
     0
  0
CLASS
  1
ACAMGTITLESTD
  2
AcAmgTitleStd
  3
"TITLEAPP"
 90
        0
280
     0
281
     0
  0
ENDSEC
  0
SECTION
  2
TABLES
  0
TABLE
  2
VPORT
  5
8
330
0
100
AcDbSymbolTable
 70
     4
  0
VPORT
  5
B7C5
330
8
100
AcDbSymbolTableRecord
100
AcDbViewportTableRecord
  2
*Active
 70
     0
 10
0.0
 20
0.0
 11
1.0
 21
1.0
 12
84.34163485518533
 22
-26.69521438120103
 13
0.0
 23
0.0
 14
2.5
 24
2.5
 15
10.0
 25
10.0
 16
0.0
 26
0.0
 36
1.0
 17
0.0
 27
0.0
 37
0.0
 40
158.8565353734042
 41
2.176400476758045
 42
50.0
 43
0.0
 44
0.0
 50
0.0
 51
0.0
 71
     0
 72
  2000
 73
     1
 74
     3
 75
     0
 76
     0
 77
     0
 78
     0
281
     0
 65
     0
110
0.0
120
0.0
130
0.0
111
1.0
121
0.0
131
0.0
112
0.0
122
1.0
132
0.0
 79
     0
146
0.0
  0
ENDTAB
  0
TABLE
  2
LTYPE
  5
5
330
0
100
AcDbSymbolTable
 70
    17
  0
LTYPE
  5
14
330
5
100
AcDbSymbolTableRecord
100
AcDbLinetypeTableRecord
  2
BYBLOCK
 70
     0
  3

 72
    65
 73
     0
 40
0.0
  0
LTYPE
  5
15
330
5
100
AcDbSymbolTableRecord
100
AcDbLinetypeTableRecord
  2
BYLAYER
 70
     0
  3

 72
    65
 73
     0
 40
0.0
  0
LTYPE
  5
16
330
5
100
AcDbSymbolTableRecord
100
AcDbLinetypeTableRecord
  2
CONTINUOUS
 70
     0
  3
Solid line
 72
    65
 73
     0
 40
0.0
  0
LTYPE
  5
43
330
5
100
AcDbSymbolTableRecord
100
AcDbLinetypeTableRecord
  2
AM_ISO02W050
 70
     0
  3
__ __ __ __ __ __ __ __ __ __ __ __ __ __ __
 72
    65
 73
     2
 40
7.5
 49
6.0
 74
     0
 49
-1.5
 74
     0
  0
LTYPE
  5
44
330
5
100
AcDbSymbolTableRecord
100
AcDbLinetypeTableRecord
  2
AM_ISO08W050
 70
     0
  3
____ . ____ . ____ . ____ . ____ . ____ . ____
 72
    65
 73
     4
 40
18.0
 49
12.0
 74
     0
 49
-1.5
 74
     0
 49
3.0
 74
     0
 49
-1.5
 74
     0
  0
LTYPE
  5
45
330
5
100
AcDbSymbolTableRecord
100
AcDbLinetypeTableRecord
  2
AM_ISO09W050
 70
     0
  3
_____ . . _____ . . _____ . . ____ .. ____
 72
    65
 73
     6
 40
22.5
 49
12.0
 74
     0
 49
-1.5
 74
     0
 49
3.0
 74
     0
 49
-1.5
 74
     0
 49
3.0
 74
     0
 49
-1.5
 74
     0
  0
LTYPE
  5
46
330
5
100
AcDbSymbolTableRecord
100
AcDbLinetypeTableRecord
  2
AMCONSTR
 70
     0
  3
_______________________
 72
    65
 73
     2
 40
9999.0
 49
9999.0
 74
     0
 49
0.0
 74
     0
  0
LTYPE
  5
47
330
5
100
AcDbSymbolTableRecord
100
AcDbLinetypeTableRecord
  2
AM_ISO02W050X2
 70
     0
  3
 _ _ _ _ _ _ _ _ _ _ _ _
 72
    65
 73
     2
 40
3.75
 49
3.0
 74
     0
 49
-0.75
 74
     0
  0
LTYPE
  5
48
330
5
100
AcDbSymbolTableRecord
100
AcDbLinetypeTableRecord
  2
AM_ISO08W050X2
 70
     0
  3
__ . __ . __ . __ . __ . __
 72
    65
 73
     4
 40
9.0
 49
6.0
 74
     0
 49
-0.75
 74
     0
 49
1.5
 74
     0
 49
-0.75
 74
     0
  0
LTYPE
  5
4B
330
5
100
AcDbSymbolTableRecord
100
AcDbLinetypeTableRecord
  2
AMZIGZAG
 70
     0
  3
/\/-/\/-/\/-/\/-/\/-/\/
 72
    65
 73
     2
 40
11.00009999999999
 49
0.0001
 74
     4
 75
   135
340
4A
 46
0.04
 50
0.0
 44
0.0
 45
0.0
 49
-11.0
 74
     0
  0
LTYPE
  5
A2E3
330
5
100
AcDbSymbolTableRecord
100
AcDbLinetypeTableRecord
  2
PHANTOM
 70
     0
  3
Phantom ______  __  __  ______  __  __  ______
 72
    65
 73
     6
 40
63.5
 49
31.75
 74
     0
 49
-6.349999999999998
 74
     0
 49
6.349999999999998
 74
     0
 49
-6.349999999999998
 74
     0
 49
6.349999999999998
 74
     0
 49
-6.349999999999998
 74
     0
  0
LTYPE
  5
B6F9
330
5
100
AcDbSymbolTableRecord
100
AcDbLinetypeTableRecord
  2
HIDDEN
 70
     0
  3
Hidden __ __ __ __ __ __ __ __ __ __ __ __ __ _
 72
    65
 73
     2
 40
9.524999999999998
 49
6.349999999999999
 74
     0
 49
-3.174999999999999
 74
     0
  0
LTYPE
  5
B6FA
330
5
100
AcDbSymbolTableRecord
100
AcDbLinetypeTableRecord
  2
PHANTOM2
 70
     0
  3
Phantom (.5x) ___ _ _ ___ _ _ ___ _ _ ___ _ _
 72
    65
 73
     6
 40
31.75
 49
15.875
 74
     0
 49
-3.174999999999999
 74
     0
 49
3.174999999999999
 74
     0
 49
-3.174999999999999
 74
     0
 49
3.174999999999999
 74
     0
 49
-3.174999999999999
 74
     0
  0
LTYPE
  5
B6FB
330
5
100
AcDbSymbolTableRecord
100
AcDbLinetypeTableRecord
  2
CENTER
 70
     0
  3
Center ____ _ ____ _ ____ _ ____ _ ____ _ ____
 72
    65
 73
     4
 40
50.8
 49
31.75
 74
     0
 49
-6.349999999999999
 74
     0
 49
6.349999999999999
 74
     0
 49
-6.349999999999999
 74
     0
  0
LTYPE
  5
B73B
330
5
100
AcDbSymbolTableRecord
100
AcDbLinetypeTableRecord
  2
ACISOWELD
 70
     0
  3
_ _ _ _ _
 72
    65
 73
     2
 40
2.0
 49
2.0
 74
     0
 49
-1.0
 74
     0
  0
LTYPE
  5
B73C
330
5
100
AcDbSymbolTableRecord
100
AcDbLinetypeTableRecord
  2
ACISOTGB
 70
     0
  3
__ . . __ . .
 72
    65
 73
     6
 40
9.0
 49
4.0
 74
     0
 49
-1.0
 74
     0
 49
1.0
 74
     0
 49
-1.0
 74
     0
 49
1.0
 74
     0
 49
-1.0
 74
     0
  0
LTYPE
  5
B73D
330
5
100
AcDbSymbolTableRecord
100
AcDbLinetypeTableRecord
  2
ACISOTGL
 70
     0
  3
_ _ _ _ _
 72
    65
 73
     2
 40
3.0
 49
2.0
 74
     0
 49
-1.0
 74
     0
  0
ENDTAB
  0
TABLE
  2
LAYER
  5
2
330
0
100
AcDbSymbolTable
 70
    13
  0
LAYER
  5
10
330
2
100
AcDbSymbolTableRecord
100
AcDbLayerTableRecord
  2
0
 70
     0
 62
     7
  6
CONTINUOUS
370
    -3
390
F
  0
LAYER
  5
7D
330
2
100
AcDbSymbolTableRecord
100
AcDbLayerTableRecord
  2
AM_5
 70
     0
 62
     3
  6
CONTINUOUS
370
    -3
390
F
  0
LAYER
  5
7F
330
2
100
AcDbSymbolTableRecord
100
AcDbLayerTableRecord
  2
DEFPOINTS
 70
     0
 62
     7
  6
CONTINUOUS
290
     0
370
    -3
390
F
  0
LAYER
  5
12B1
330
2
100
AcDbSymbolTableRecord
100
AcDbLayerTableRecord
  2
AM_0
 70
     0
 62
     7
  6
CONTINUOUS
370
    -3
390
F
  0
LAYER
  5
2222
330
2
100
AcDbSymbolTableRecord
100
AcDbLayerTableRecord
  2
AM_6
 70
     0
 62
     2
  6
CONTINUOUS
370
    -3
390
F
  0
LAYER
  5
4379
330
2
100
AcDbSymbolTableRecord
100
AcDbLayerTableRecord
  2
AM_1
 70
     0
 62
     3
  6
CONTINUOUS
370
    -3
390
F
  0
LAYER
  5
7DB1
330
2
100
AcDbSymbolTableRecord
100
AcDbLayerTableRecord
  2
AM_3
 70
     0
 62
     6
  6
AM_ISO02W050
370
    -3
390
F
  0
LAYER
  5
7DB2
330
2
100
AcDbSymbolTableRecord
100
AcDbLayerTableRecord
  2
AM_7
 70
     0
 62
     4
  6
AM_ISO08W050
370
    -3
390
F
  0
LAYER
  5
A2E4
330
2
100
AcDbSymbolTableRecord
100
AcDbLayerTableRecord
  2
AM_11
 70
     0
 62
     3
  6
PHANTOM
370
    -3
390
F
  0
ENDTAB
  0
TABLE
  2
STYLE
  5
3
330
0
100
AcDbSymbolTable
 70
     6
  0
STYLE
  5
11
330
3
100
AcDbSymbolTableRecord
100
AcDbTextStyleTableRecord
  2
STANDARD
 70
     0
 40
0.0
 41
1.0
 50
0.0
 71
     0
 42
2.5
  3
ISOCP.SHX
  4
EXTFONT.SHX
  0
STYLE
  5
4A
330
3
100
AcDbSymbolTableRecord
100
AcDbTextStyleTableRecord
  2

 70
     1
 40
0.0
 41
1.0
 50
0.0
 71
     0
 42
2.5
  3
ltypeshp.shx
  4

  0
STYLE
  5
B72D
330
3
100
AcDbSymbolTableRecord
100
AcDbTextStyleTableRecord
  2
ACISOTS
 70
     0
 40
1.0
 41
1.0
 50
0.0
 71
     0
 42
2.5
  3
isocp.shx
  4
extfont.shx
  0
STYLE
  5
B73A
330
3
100
AcDbSymbolTableRecord
100
AcDbTextStyleTableRecord
  2
ACISOGDT
 70
     0
 40
0.0
 41
1.0
 50
0.0
 71
     0
 42
2.5
  3
amgdt.shx
  4

  0
ENDTAB
  0
TABLE
  2
VIEW
  5
6
330
0
100
AcDbSymbolTable
 70
     6
  0
VIEW
  5
A30
330
6
100
AcDbSymbolTableRecord
100
AcDbViewTableRecord
  2
AM_VIEW1
 70
     0
 40
148.5
 10
112.0719649561952
 20
222.75
 41
224.1439299123904
 11
0.0
 21
0.0
 31
1.0
 12
0.0
 22
0.0
 32
0.0
 42
50.0
 43
0.0
 44
0.0
 50
0.0
 71
     0
281
     0
 72
     0
  0
VIEW
  5
A31
330
6
100
AcDbSymbolTableRecord
100
AcDbViewTableRecord
  2
AM_VIEW2
 70
     0
 40
148.5
 10
307.9280350438047
 20
222.75
 41
224.1439299123904
 11
0.0
 21
0.0
 31
1.0
 12
0.0
 22
0.0
 32
0.0
 42
50.0
 43
0.0
 44
0.0
 50
0.0
 71
     0
281
     0
 72
     0
  0
VIEW
  5
A32
330
6
100
AcDbSymbolTableRecord
100
AcDbViewTableRecord
  2
AM_VIEW3
 70
     0
 40
148.5
 10
112.0719649561952
 20
74.25
 41
224.1439299123904
 11
0.0
 21
0.0
 31
1.0
 12
0.0
 22
0.0
 32
0.0
 42
50.0
 43
0.0
 44
0.0
 50
0.0
 71
     0
281
     0
 72
     0
  0
VIEW
  5
A33
330
6
100
AcDbSymbolTableRecord
100
AcDbViewTableRecord
  2
AM_VIEW4
 70
     0
 40
148.5
 10
307.9280350438047
 20
74.25
 41
224.1439299123904
 11
0.0
 21
0.0
 31
1.0
 12
0.0
 22
0.0
 32
0.0
 42
50.0
 43
0.0
 44
0.0
 50
0.0
 71
     0
281
     0
 72
     0
  0
VIEW
  5
A34
330
6
100
AcDbSymbolTableRecord
100
AcDbViewTableRecord
  2
AM_VIEW5
 70
     0
 40
148.5
 10
210.0
 20
148.5
 41
224.1439299123904
 11
0.0
 21
0.0
 31
1.0
 12
0.0
 22
0.0
 32
0.0
 42
50.0
 43
0.0
 44
0.0
 50
0.0
 71
     0
281
     0
 72
     0
  0
VIEW
  5
A35
330
6
100
AcDbSymbolTableRecord
100
AcDbViewTableRecord
  2
AM_VIEW6
 70
     0
 40
296.9970299999999
 10
210.0
 20
148.5
 41
448.2833769461826
 11
0.0
 21
0.0
 31
1.0
 12
0.0
 22
0.0
 32
0.0
 42
50.0
 43
0.0
 44
0.0
 50
0.0
 71
     0
281
     0
 72
     0
  0
ENDTAB
  0
TABLE
  2
UCS
  5
7
330
0
100
AcDbSymbolTable
 70
     0
  0
ENDTAB
  0
TABLE
  2
APPID
  5
9
330
0
100
AcDbSymbolTable
 70
    42
  0
APPID
  5
12
330
9
100
AcDbSymbolTableRecord
100
AcDbRegAppTableRecord
  2
ACAD
 70
     0
  0
APPID
  5
2C
330
9
100
AcDbSymbolTableRecord
100
AcDbRegAppTableRecord
  2
MCAD_NO_VIS
 70
     0
  0
APPID
  5
2D
330
9
100
AcDbSymbolTableRecord
100
AcDbRegAppTableRecord
  2
ACAD_TEMP_GRAPHIC
 70
     0
  0
APPID
  5
B9
330
9
100
AcDbSymbolTableRecord
100
AcDbRegAppTableRecord
  2
GENIUS_GENDTOL_13
 70
     0
  0
APPID
  5
359
330
9
100
AcDbSymbolTableRecord
100
AcDbRegAppTableRecord
  2
GENIUS_GENREC_14
 70
     0
  0
APPID
  5
35A
330
9
100
AcDbSymbolTableRecord
100
AcDbRegAppTableRecord
  2
GENIUS_GENODEF_13
 70
     0
  0
APPID
  5
35B
330
9
100
AcDbSymbolTableRecord
100
AcDbRegAppTableRecord
  2
GENIUS_GENOBJ-N-REC_13
 70
     0
  0
APPID
  5
667
330
9
100
AcDbSymbolTableRecord
100
AcDbRegAppTableRecord
  2
GENIUS_GENCFG_13
 70
     0
  0
APPID
  5
668
330
9
100
AcDbSymbolTableRecord
100
AcDbRegAppTableRecord
  2
GENIUS_GENCFG0_13
 70
     0
  0
APPID
  5
669
330
9
100
AcDbSymbolTableRecord
100
AcDbRegAppTableRecord
  2
GENIUS_GENCFG1_13
 70
     0
  0
APPID
  5
66A
330
9
100
AcDbSymbolTableRecord
100
AcDbRegAppTableRecord
  2
GENIUS_GENCFG2_13
 70
     0
  0
APPID
  5
66B
330
9
100
AcDbSymbolTableRecord
100
AcDbRegAppTableRecord
  2
GENIUS_GENCFG3_13
 70
     0
  0
APPID
  5
66C
330
9
100
AcDbSymbolTableRecord
100
AcDbRegAppTableRecord
  2
GENIUS_GENCFG4_13
 70
     0
  0
APPID
  5
A76
330
9
100
AcDbSymbolTableRecord
100
AcDbRegAppTableRecord
  2
GENIUS_GENBLLY_14
 70
     0
  0
APPID
  5
A77
330
9
100
AcDbSymbolTableRecord
100
AcDbRegAppTableRecord
  2
GENIUS_GENOBJ-N-CEN_13
 70
     0
  0
APPID
  5
A83
330
9
100
AcDbSymbolTableRecord
100
AcDbRegAppTableRecord
  2
GENIUS_GENTRA_14
 70
     0
  0
APPID
  5
A8D
330
9
100
AcDbSymbolTableRecord
100
AcDbRegAppTableRecord
  2
GENIUS_GENOBJ-N-TIT_13
 70
     0
  0
APPID
  5
A8E
330
9
100
AcDbSymbolTableRecord
100
AcDbRegAppTableRecord
  2
GENIUS_GENTITLE_13
 70
     0
  0
APPID
  5
A8F
330
9
100
AcDbSymbolTableRecord
100
AcDbRegAppTableRecord
  2
GENIUS_GENOENT_13
 70
     0
  0
APPID
  5
A90
330
9
100
AcDbSymbolTableRecord
100
AcDbRegAppTableRecord
  2
GENIUS_GENOREF_13
 70
     0
  0
APPID
  5
A91
330
9
100
AcDbSymbolTableRecord
100
AcDbRegAppTableRecord
  2
GENIUS_GENOLIS_13
 70
     0
  0
APPID
  5
A92
330
9
100
AcDbSymbolTableRecord
100
AcDbRegAppTableRecord
  2
GENIUS_GENZVEED_13
 70
     0
  0
APPID
  5
A93
330
9
100
AcDbSymbolTableRecord
100
AcDbRegAppTableRecord
  2
GENIUS_GENSCREG_15
 70
     0
  0
APPID
  5
A94
330
9
100
AcDbSymbolTableRecord
100
AcDbRegAppTableRecord
  2
GENIUS_GENOBJ-N-SDF_13
 70
     0
  0
APPID
  5
12B5
330
9
100
AcDbSymbolTableRecord
100
AcDbRegAppTableRecord
  2
GENIUS_GENOBJ-N-RSBK_13
 70
     0
  0
APPID
  5
12B6
330
9
100
AcDbSymbolTableRecord
100
AcDbRegAppTableRecord
  2
GENIUS_GENOBJ-N-LIB_13
 70
     0
  0
APPID
  5
12B7
330
9
100
AcDbSymbolTableRecord
100
AcDbRegAppTableRecord
  2
GENIUS_GENSCALE_13
 70
     0
  0
APPID
  5
12B8
330
9
100
AcDbSymbolTableRecord
100
AcDbRegAppTableRecord
  2
GENIUS_GENOBJ-N-HTC_13
 70
     0
  0
APPID
  5
12B9
330
9
100
AcDbSymbolTableRecord
100
AcDbRegAppTableRecord
  2
GENIUS_GENHATCH_13
 70
     0
  0
APPID
  5
1C0A
330
9
100
AcDbSymbolTableRecord
100
AcDbRegAppTableRecord
  2
BASE_TYPE
 70
     0
  0
APPID
  5
276B
330
9
100
AcDbSymbolTableRecord
100
AcDbRegAppTableRecord
  2
GENIUS_GENOBJ-N-FIL_13
 70
     0
  0
APPID
  5
3640
330
9
100
AcDbSymbolTableRecord
100
AcDbRegAppTableRecord
  2
GENIUS_GENBH_13
 70
     0
  0
APPID
  5
36D1
330
9
100
AcDbSymbolTableRecord
100
AcDbRegAppTableRecord
  2
GENIUS_GENOBJ-F-SPR_13
 70
     0
  0
APPID
  5
36DA
330
9
100
AcDbSymbolTableRecord
100
AcDbRegAppTableRecord
  2
GENIUS_GEFSPRING_13
 70
     0
  0
APPID
  5
36DB
330
9
100
AcDbSymbolTableRecord
100
AcDbRegAppTableRecord
  2
GENIUS_GEFSPRINGP_13
 70
     0
  0
APPID
  5
4D67
330
9
100
AcDbSymbolTableRecord
100
AcDbRegAppTableRecord
  2
GENIUS_GENFIL_13
 70
     0
  0
APPID
  5
4D68
330
9
100
AcDbSymbolTableRecord
100
AcDbRegAppTableRecord
  2
GENIUS_GENOBJ-N-CHA_13
 70
     0
  0
APPID
  5
B6FD
330
9
100
AcDbSymbolTableRecord
100
AcDbRegAppTableRecord
  2
AD_DRAW
 70
     0
  0
APPID
  5
B700
330
9
100
AcDbSymbolTableRecord
100
AcDbRegAppTableRecord
  2
ACATTRIBSERVICES
 70
     0
  0
APPID
  5
B71E
330
9
100
AcDbSymbolTableRecord
100
AcDbRegAppTableRecord
  2
DESIGNERASSEMBLIES
 70
     0
  0
APPID
  5
B723
330
9
100
AcDbSymbolTableRecord
100
AcDbRegAppTableRecord
  2
ACADM_DIM_EDIT
 70
     0
  0
APPID
  5
B724
330
9
100
AcDbSymbolTableRecord
100
AcDbRegAppTableRecord
  2
AMDT_DM_ADJ
 70
     0
  0
ENDTAB
  0
TABLE
  2
DIMSTYLE
  5
A
330
0
100
AcDbSymbolTable
 70
    20
100
AcDbDimStyleTable
 71
     0
  0
DIMSTYLE
105
58
330
A
100
AcDbSymbolTableRecord
100
AcDbDimStyleTableRecord
  2
AM_JIS
 70
     0
  4
"
 41
2.5
 42
0.0
 43
10.0
 44
1.0
 47
0.1
 48
0.1000000001
 73
     0
 74
     0
 77
     3
 78
     9
140
3.799999999999998
141
0.0
143
0.0393701
146
0.71
147
1.5
172
     1
176
   256
177
   256
178
     2
271
     2
272
     2
275
     1
283
     0
284
     8
340
11
341
59
342
59
  0
DIMSTYLE
105
5F
102
{ACAD_REACTORS
330
B432
330
B5A2
102
}
330
A
100
AcDbSymbolTableRecord
100
AcDbDimStyleTableRecord
  2
AM_JIS$3
 70
     0
  4
"
 41
2.5
 42
0.0
 43
10.0
 44
1.0
 47
0.1
 48
0.1000000001
 73
     0
 77
     1
 78
     9
140
3.799999999999998
141
0.0
143
0.0393701
146
0.71
147
1.5
172
     1
176
   256
177
   256
178
     2
271
     2
272
     2
275
     1
283
     0
284
     8
340
11
341
59
342
59
  0
DIMSTYLE
105
65F
330
A
100
AcDbSymbolTableRecord
100
AcDbDimStyleTableRecord
  2
STANDARD
 70
     0
340
11
  0
DIMSTYLE
105
1761
102
{ACAD_REACTORS
330
B3CE
330
B416
330
B423
330
B59D
102
}
330
A
100
AcDbSymbolTableRecord
100
AcDbDimStyleTableRecord
  2
AM_JIS$0
 70
     0
  4
"
 41
2.5
 42
0.0
 43
10.0
 44
1.0
 47
0.1
 48
0.1000000001
 73
     0
 74
     0
 77
     3
 78
     9
140
3.799999999999998
141
0.0
143
0.0393701
146
0.71
147
1.5
172
     1
176
     3
177
     3
178
     2
271
     2
272
     2
275
     1
283
     0
284
     8
340
11
341
59
342
59
  0
DIMSTYLE
105
B746
330
A
100
AcDbSymbolTableRecord
100
AcDbDimStyleTableRecord
  2
AM_ISO
 70
     0
  4
"
 41
2.5
 42
1.0
 43
10.0
 44
1.0
 47
0.1
 48
0.1
 73
     0
 74
     0
 77
     1
 78
     8
 79
     2
140
3.5
141
0.0
143
0.0393701
146
0.71
147
1.5
172
     1
176
   256
177
   256
178
     2
271
     2
272
     3
274
     4
283
     0
284
     8
340
11
371
    -1
372
    -1
  0
DIMSTYLE
105
B747
330
A
100
AcDbSymbolTableRecord
100
AcDbDimStyleTableRecord
  2
AM_ISO$3
 70
     0
  4
"
 41
2.5
 42
1.0
 43
10.0
 44
1.0
 47
0.1
 48
0.1
 73
     0
 77
     1
 78
     8
 79
     2
140
3.5
141
0.0
143
0.0393701
146
0.71
147
1.5
176
   256
177
   256
178
     2
271
     2
272
     3
274
     4
283
     0
284
     8
288
     1
289
     0
340
11
371
    -1
372
    -1
  0
DIMSTYLE
105
B748
330
A
100
AcDbSymbolTableRecord
100
AcDbDimStyleTableRecord
  2
AM_ISO$4
 70
     0
  4
"
 41
2.5
 42
1.0
 43
10.0
 44
1.0
 47
0.1
 48
0.1
 73
     0
 77
     1
 78
     8
 79
     2
140
3.5
141
0.0
143
0.0393701
146
0.71
147
1.5
176
   256
177
   256
178
     2
271
     2
272
     3
274
     4
283
     0
284
     8
288
     1
289
     0
340
11
371
    -1
372
    -1
  0
DIMSTYLE
105
B749
330
A
100
AcDbSymbolTableRecord
100
AcDbDimStyleTableRecord
  2
AM_ISO$6
 70
     0
  4
"
 41
2.5
 42
1.0
 43
10.0
 44
1.0
 47
0.1
 48
0.1
 73
     0
 74
     0
 78
     8
 79
     2
140
3.5
141
0.0
143
0.0393701
146
0.71
147
1.5
172
     1
176
   256
177
   256
178
     2
271
     2
272
     3
274
     4
283
     0
284
     8
340
11
371
    -1
372
    -1
  0
DIMSTYLE
105
B74A
330
A
100
AcDbSymbolTableRecord
100
AcDbDimStyleTableRecord
  2
AM_ISO$7
 70
     0
  4
"
 41
2.5
 42
1.0
 43
10.0
 44
1.0
 47
0.1
 48
0.1
 73
     0
 74
     0
 77
     1
 78
     8
 79
     2
140
5.0
141
0.0
143
0.0393701
146
0.71
147
1.5
172
     1
176
   256
177
   256
178
     2
271
     2
272
     3
274
     4
283
     0
284
     8
340
11
371
    -1
372
    -1
  0
DIMSTYLE
105
B74B
330
A
100
AcDbSymbolTableRecord
100
AcDbDimStyleTableRecord
  2
AM_ISO$SF
 70
     0
  4
"
 41
2.5
 42
1.0
 43
10.0
 44
1.0
 47
0.1
 48
0.1
 73
     0
 74
     0
 75
     1
 76
     1
 77
     1
 78
     8
 79
     2
140
3.5
141
0.0
143
0.0393701
146
0.71
147
1.5
172
     1
176
   256
177
   256
178
     2
271
     2
272
     3
274
     4
283
     0
284
     8
340
11
371
    -1
372
    -1
  0
DIMSTYLE
105
B74C
330
A
100
AcDbSymbolTableRecord
100
AcDbDimStyleTableRecord
  2
AM_ISO$SH
 70
     0
  4
"
 41
2.5
 42
1.0
 43
10.0
 44
1.0
 47
0.1
 48
0.1
 73
     0
 74
     0
 75
     1
 76
     1
 77
     1
 78
     8
 79
     2
140
3.5
141
0.0
143
0.0393701
144
2.0
146
0.71
147
1.5
172
     1
173
     1
176
   256
177
   256
178
     2
271
     2
272
     3
274
     4
283
     0
284
     8
340
11
343
64
371
    -1
372
    -1
  0
ENDTAB
  0
TABLE
  2
BLOCK_RECORD
  5
1
330
0
100
AcDbSymbolTable
 70
    18
  0
BLOCK_RECORD
  5
1F
102
{ACAD_XDICTIONARY
360
165
102
}
330
1
100
AcDbSymbolTableRecord
100
AcDbBlockTableRecord
  2
*MODEL_SPACE
340
B6C5
  0
BLOCK_RECORD
  5
1B
102
{ACAD_XDICTIONARY
360
B6B8
102
}
330
1
100
AcDbSymbolTableRecord
100
AcDbBlockTableRecord
  2
*PAPER_SPACE
340
B6C6
  0
BLOCK_RECORD
  5
59
330
1
100
AcDbSymbolTableRecord
100
AcDbBlockTableRecord
  2
_OPEN30
340
0
102
{BLKREFS
331
B790
331
B791
331
B79B
331
B79C
331
B7A6
331
B7A7
331
B7AD
331
B7AE
331
B7B5
331
B7BC
331
B7BD
102
}
  0
BLOCK_RECORD
  5
64
330
1
100
AcDbSymbolTableRecord
100
AcDbBlockTableRecord
  2
GENAXEH
340
0
  0
BLOCK_RECORD
  5
AB1E
330
1
100
AcDbSymbolTableRecord
100
AcDbBlockTableRecord
  2
CBF06
340
0
102
{BLKREFS
331
B33B
102
}
  0
BLOCK_RECORD
  5
B3CF
330
1
100
AcDbSymbolTableRecord
100
AcDbBlockTableRecord
  2
*D11
340
0
  0
BLOCK_RECORD
  5
B417
330
1
100
AcDbSymbolTableRecord
100
AcDbBlockTableRecord
  2
*D12
340
0
  0
BLOCK_RECORD
  5
B424
330
1
100
AcDbSymbolTableRecord
100
AcDbBlockTableRecord
  2
*D13
340
0
  0
BLOCK_RECORD
  5
B433
330
1
100
AcDbSymbolTableRecord
100
AcDbBlockTableRecord
  2
*D14
340
0
  0
BLOCK_RECORD
  5
B5AD
330
1
100
AcDbSymbolTableRecord
100
AcDbBlockTableRecord
  2
*D15
340
0
  0
BLOCK_RECORD
  5
B5B9
330
1
100
AcDbSymbolTableRecord
100
AcDbBlockTableRecord
  2
*D16
340
0
  0
ENDTAB
  0
ENDSEC
  0
SECTION
  2
BLOCKS
  0
BLOCK
  5
20
330
1F
100
AcDbEntity
  8
0
100
AcDbBlockBegin
  2
*MODEL_SPACE
 70
     0
 10
0.0
 20
0.0
 30
0.0
  3
*MODEL_SPACE
  1

  0
ENDBLK
  5
21
330
1F
100
AcDbEntity
  8
0
100
AcDbBlockEnd
  0
BLOCK
  5
1C
330
1B
100
AcDbEntity
 67
     1
  8
0
100
AcDbBlockBegin
  2
*PAPER_SPACE
 70
     0
 10
0.0
 20
0.0
 30
0.0
  3
*PAPER_SPACE
  1

  0
ENDBLK
  5
1D
330
1B
100
AcDbEntity
 67
     1
  8
0
100
AcDbBlockEnd
  0
BLOCK
  5
5D
330
59
100
AcDbEntity
  8
0
100
AcDbBlockBegin
  2
_OPEN30
 70
     0
 10
0.0
 20
0.0
 30
0.0
  3
_OPEN30
  1

  0
LINE
  5
5A
330
59
100
AcDbEntity
  8
0
 62
     0
100
AcDbLine
 10
-1.0
 20
0.26794919
 30
0.0
 11
0.0
 21
0.0
 31
0.0
  0
LINE
  5
5B
330
59
100
AcDbEntity
  8
0
 62
     0
100
AcDbLine
 10
0.0
 20
0.0
 30
0.0
 11
-1.0
 21
-0.26794919
 31
0.0
  0
LINE
  5
5C
330
59
100
AcDbEntity
  8
0
 62
     0
100
AcDbLine
 10
0.0
 20
0.0
 30
0.0
 11
-1.0
 21
0.0
 31
0.0
  0
ENDBLK
  5
5E
330
59
100
AcDbEntity
  8
0
100
AcDbBlockEnd
  0
BLOCK
  5
66
330
64
100
AcDbEntity
  8
0
100
AcDbBlockBegin
  2
GENAXEH
 70
     0
 10
0.0
 20
0.0
 30
0.0
  3
GENAXEH
  1

  0
LINE
  5
65
330
64
100
AcDbEntity
  8
0
100
AcDbLine
 10
-1.0
 20
0.0
 30
0.0
 11
1.0
 21
0.0
 31
0.0
  0
ENDBLK
  5
67
330
64
100
AcDbEntity
  8
0
100
AcDbBlockEnd
  0
BLOCK
  5
AB27
330
AB1E
100
AcDbEntity
  8
0
100
AcDbBlockBegin
  2
CBF06
 70
     0
 10
0.0
 20
0.0
 30
0.0
  3
CBF06
  1

  0
CIRCLE
  5
AB1F
330
AB1E
100
AcDbEntity
  8
0
  6
Continuous
100
AcDbCircle
 10
0.0000187875812969
 20
0.0000034482758053
 30
0.0
 40
4.307179353944746
  0
CIRCLE
  5
AB20
330
AB1E
100
AcDbEntity
  8
0
  6
Continuous
100
AcDbCircle
 10
0.0000187875812969
 20
0.0000034482758053
 30
0.0
 40
5.0
  0
LINE
  5
AB21
330
AB1E
100
AcDbEntity
  8
0
  6
Continuous
100
AcDbLine
 10
-1.443356212418706
 20
-2.499995386098901
 30
0.0
 11
1.443393787581185
 21
-2.499995386098901
 31
0.0
  0
LINE
  5
AB22
330
AB1E
100
AcDbEntity
  8
0
  6
Continuous
100
AcDbLine
 10
1.4433937875813
 20
2.500002282650598
 30
0.0
 11
-1.443356212418706
 21
2.500002282650598
 31
0.0
  0
LINE
  5
AB23
330
AB1E
100
AcDbEntity
  8
0
  6
Continuous
100
AcDbLine
 10
-2.886731212418651
 20
0.0000034482758053
 30
0.0
 11
-1.443356212418706
 21
-2.499995386098901
 31
0.0
  0
LINE
  5
AB24
330
AB1E
100
AcDbEntity
  8
0
  6
Continuous
100
AcDbLine
 10
-1.443356212418706
 20
2.500002282650598
 30
0.0
 11
-2.886731212418651
 21
0.0000034482758053
 31
0.0
  0
LINE
  5
AB25
330
AB1E
100
AcDbEntity
  8
0
  6
Continuous
100
AcDbLine
 10
1.443393787581185
 20
-2.499995386098901
 30
0.0
 11
2.886768787581303
 21
0.0000034482758053
 31
0.0
  0
LINE
  5
AB26
330
AB1E
100
AcDbEntity
  8
0
  6
Continuous
100
AcDbLine
 10
2.886768787581303
 20
0.0000034482758053
 30
0.0
 11
1.4433937875813
 21
2.500002282650598
 31
0.0
  0
ENDBLK
  5
AB28
330
AB1E
100
AcDbEntity
  8
0
100
AcDbBlockEnd
  0
BLOCK
  5
B3D9
330
B3CF
100
AcDbEntity
  8
0
100
AcDbBlockBegin
  2
*D11
 70
     1
 10
0.0
 20
0.0
 30
0.0
  3
*D11
  1

  0
LINE
  5
B7B9
330
B3CF
100
AcDbEntity
  8
AM_5
 62
     3
370
    -2
100
AcDbLine
 10
-0.0000160380698015
 20
-61.16270714904721
 30
0.0
 11
-0.0000160380697993
 21
-24.55834286235404
 31
0.0
  0
LINE
  5
B7BA
330
B3CF
100
AcDbEntity
  8
AM_5
 62
     3
370
    -2
100
AcDbLine
 10
249.9999845794485
 20
-28.70635357452363
 30
0.0
 11
249.9999845794485
 21
-24.55834286235405
 31
0.0
  0
LINE
  5
B7BB
330
B3CF
100
AcDbEntity
  8
AM_5
 62
     3
370
    -2
100
AcDbLine
 10
2.4999839619302
 20
-25.55834286235404
 30
0.0
 11
247.4999845794485
 21
-25.55834286235404
 31
0.0
  0
INSERT
  5
B7BC
330
B3CF
100
AcDbEntity
  8
AM_5
 62
     3
370
    -2
100
AcDbBlockReference
  2
_OPEN30
 10
-0.0000160380697993
 20
-25.55834286235404
 30
0.0
 41
2.5
 42
2.5
 43
2.5
 50
180.0
  0
INSERT
  5
B7BD
330
B3CF
100
AcDbEntity
  8
AM_5
 62
     3
370
    -2
100
AcDbBlockReference
  2
_OPEN30
 10
249.9999845794485
 20
-25.55834286235404
 30
0.0
 41
2.5
 42
2.5
 43
2.5
  0
MTEXT
  5
B7BE
330
B3CF
100
AcDbEntity
  8
AM_5
 62
     2
100
AcDbMText
 10
124.9999842706893
 20
-22.15796884660601
 30
0.0
 40
3.799999999999998
 41
0.0
 71
     5
 72
     1
  1
250
 73
     1
 44
1.0
1001
ACAD
1000
MTEXTBEGIN
1070
    73
1070
     1
1070
    44
1040
1.0
1070
    74
1070
     0
1000
MTEXTEND
  0
POINT
  5
B7BF
330
B3CF
100
AcDbEntity
  8
DEFPOINTS
 62
     0
100
AcDbPoint
 10
-0.0000160380698015
 20
-61.16270714904721
 30
0.0
  0
POINT
  5
B7C0
330
B3CF
100
AcDbEntity
  8
DEFPOINTS
 62
     0
100
AcDbPoint
 10
249.9999845794485
 20
-28.70635357452363
 30
0.0
  0
POINT
  5
B7C1
330
B3CF
100
AcDbEntity
  8
DEFPOINTS
 62
     0
100
AcDbPoint
 10
249.9999845794485
 20
-25.55834286235404
 30
0.0
  0
ENDBLK
  5
B3DA
330
B3CF
100
AcDbEntity
  8
0
100
AcDbBlockEnd
  0
BLOCK
  5
B421
330
B417
100
AcDbEntity
  8
0
100
AcDbBlockBegin
  2
*D12
 70
     1
 10
0.0
 20
0.0
 30
0.0
  3
*D12
  1

  0
LINE
  5
B78D
330
B417
100
AcDbEntity
  8
AM_5
 62
     3
370
    -2
100
AcDbLine
 10
-6.205478393384305
 20
19.49999999999999
 30
0.0
 11
-17.93664598079245
 21
19.5
 31
0.0
  0
LINE
  5
B78E
330
B417
100
AcDbEntity
  8
AM_5
 62
     3
370
    -2
100
AcDbLine
 10
0.2589987418465002
 20
0.0
 30
0.0
 11
-17.93664598079245
 21
0.0000000000000052
 31
0.0
  0
LINE
  5
B78F
330
B417
100
AcDbEntity
  8
AM_5
 62
     3
370
    -2
100
AcDbLine
 10
-16.93664598079245
 20
17.0
 30
0.0
 11
-16.93664598079245
 21
2.500000000000004
 31
0.0
  0
INSERT
  5
B790
330
B417
100
AcDbEntity
  8
AM_5
 62
     3
370
    -2
100
AcDbBlockReference
  2
_OPEN30
 10
-16.93664598079245
 20
19.5
 30
0.0
 41
2.5
 42
2.5
 43
2.5
 50
90.0
  0
INSERT
  5
B791
330
B417
100
AcDbEntity
  8
AM_5
 62
     3
370
    -2
100
AcDbBlockReference
  2
_OPEN30
 10
-16.93664598079245
 20
0.0000000000000049
 30
0.0
 41
2.5
 42
2.5
 43
2.5
 50
270.0
  0
MTEXT
  5
B792
330
B417
100
AcDbEntity
  8
AM_5
 62
     2
100
AcDbMText
 10
-20.33664598079246
 20
9.749999999999998
 30
0.0
 40
3.799999999999998
 41
0.0
 71
     5
 72
     1
  1
19.5
 11
0.0000000000000001
 21
1.0
 31
0.0
 73
     1
 44
1.0
1001
ACAD
1000
MTEXTBEGIN
1070
    73
1070
     1
1070
    44
1040
1.0
1070
    74
1070
     0
1000
MTEXTEND
  0
POINT
  5
B793
330
B417
100
AcDbEntity
  8
DEFPOINTS
 62
     0
100
AcDbPoint
 10
-6.205478393384305
 20
19.49999999999999
 30
0.0
  0
POINT
  5
B794
330
B417
100
AcDbEntity
  8
DEFPOINTS
 62
     0
100
AcDbPoint
 10
0.2589987418465002
 20
0.0
 30
0.0
  0
POINT
  5
B795
330
B417
100
AcDbEntity
  8
DEFPOINTS
 62
     0
100
AcDbPoint
 10
-16.93664598079245
 20
0.0000000000000049
 30
0.0
  0
ENDBLK
  5
B422
330
B417
100
AcDbEntity
  8
0
100
AcDbBlockEnd
  0
BLOCK
  5
B430
330
B424
100
AcDbEntity
  8
0
100
AcDbBlockBegin
  2
*D13
 70
     1
 10
0.0
 20
0.0
 30
0.0
  3
*D13
  1

  0
LINE
  5
B796
330
B424
100
AcDbEntity
  8
AM_5
 62
     3
370
    -2
100
AcDbLine
 10
3.998863316835936
 20
0.2936031110476511
 30
0.0
 11
3.998863316835935
 21
-16.54847766973441
 31
0.0
  0
LINE
  5
B797
330
B424
100
AcDbEntity
  8
AM_5
 62
     3
370
    -2
100
AcDbLine
 10
0.0
 20
0.2492068574207438
 30
0.0
 11
-0.000000000000001
 21
-16.54847766973441
 31
0.0
  0
LINE
  5
B798
330
B424
100
AcDbEntity
  8
AM_5
 62
     3
370
    -2
100
AcDbLine
 10
6.498863316835935
 20
-15.54847766973441
 30
0.0
 11
8.998863316835935
 21
-15.54847766973441
 31
0.0
  0
LINE
  5
B799
330
B424
100
AcDbEntity
  8
AM_5
 62
     3
370
    -2
100
AcDbLine
 10
-2.5
 20
-15.54847766973441
 30
0.0
 11
-9.899999999999998
 21
-15.54847766973441
 31
0.0
  0
LINE
  5
B79A
330
B424
100
AcDbEntity
  8
AM_5
 62
     3
370
    -2
100
AcDbLine
 10
3.998863316835935
 20
-15.54847766973441
 30
0.0
 11
-0.000000000000001
 21
-15.54847766973441
 31
0.0
  0
INSERT
  5
B79B
330
B424
100
AcDbEntity
  8
AM_5
 62
     3
370
    -2
100
AcDbBlockReference
  2
_OPEN30
 10
3.998863316835935
 20
-15.54847766973441
 30
0.0
 41
2.5
 42
2.5
 43
2.5
 50
180.0
  0
INSERT
  5
B79C
330
B424
100
AcDbEntity
  8
AM_5
 62
     3
370
    -2
100
AcDbBlockReference
  2
_OPEN30
 10
-0.000000000000001
 20
-15.54847766973441
 30
0.0
 41
2.5
 42
2.5
 43
2.5
  0
MTEXT
  5
B79D
330
B424
100
AcDbEntity
  8
AM_5
 62
     2
100
AcDbMText
 10
-7.45
 20
-12.14847766973441
 30
0.0
 40
3.799999999999998
 41
0.0
 71
     5
 72
     1
  1
4
 73
     1
 44
1.0
1001
ACAD
1000
MTEXTBEGIN
1070
    73
1070
     1
1070
    44
1040
1.0
1070
    74
1070
     0
1000
MTEXTEND
  0
POINT
  5
B79E
330
B424
100
AcDbEntity
  8
DEFPOINTS
 62
     0
100
AcDbPoint
 10
3.998863316835936
 20
0.2936031110476511
 30
0.0
  0
POINT
  5
B79F
330
B424
100
AcDbEntity
  8
DEFPOINTS
 62
     0
100
AcDbPoint
 10
0.0
 20
0.2492068574207438
 30
0.0
  0
POINT
  5
B7A0
330
B424
100
AcDbEntity
  8
DEFPOINTS
 62
     0
100
AcDbPoint
 10
-0.000000000000001
 20
-15.54847766973441
 30
0.0
  0
ENDBLK
  5
B431
330
B424
100
AcDbEntity
  8
0
100
AcDbBlockEnd
  0
BLOCK
  5
B43C
330
B433
100
AcDbEntity
  8
0
100
AcDbBlockBegin
  2
*D14
 70
     1
 10
0.0
 20
0.0
 30
0.0
  3
*D14
  1

  0
LINE
  5
B7A1
330
B433
100
AcDbEntity
  8
AM_5
370
    -2
100
AcDbLine
 10
-39.42878026245317
 20
-2.970670744865312
 30
0.0
 11
-48.80083548265986
 21
-2.970670744865312
 31
0.0
  0
LINE
  5
B7A2
330
B433
100
AcDbEntity
  8
AM_5
370
    -2
100
AcDbLine
 10
-48.80083548265986
 20
-2.970670744865312
 30
0.0
 11
-52.84694317354912
 21
2.18860308602348
 31
0.0
  0
LINE
  5
B7A3
330
B433
100
AcDbEntity
  8
AM_5
370
    -2
100
AcDbLine
 10
-79.99951482978564
 20
36.8113969139765
 30
0.0
 11
-81.54227458298089
 21
38.77860110874654
 31
0.0
  0
MTEXT
  5
B7A4
330
B433
100
AcDbEntity
  8
AM_5
 62
     2
100
AcDbMText
 10
-43.36480787255651
 20
0.4293292551346975
 30
0.0
 40
3.799999999999998
 41
0.0
 71
     5
 72
     1
  1
\U+220539
 73
     1
 44
1.0
1001
ACAD
1000
MTEXTBEGIN
1070
    73
1070
     1
1070
    44
1040
1.0
1070
    74
1070
     0
1000
MTEXTEND
  0
LINE
  5
B7A5
330
B433
100
AcDbEntity
  8
AM_5
370
    -2
100
AcDbLine
 10
-78.45675507659038
 20
34.84419271920643
 30
0.0
 11
-54.38970292674438
 21
4.155807280793538
 31
0.0
  0
INSERT
  5
B7A6
330
B433
100
AcDbEntity
  8
AM_5
370
    -2
100
AcDbBlockReference
  2
_OPEN30
 10
-78.45675507659038
 20
34.84419271920643
 30
0.0
 41
2.5
 42
2.5
 43
2.5
 50
308.1049530679969
  0
INSERT
  5
B7A7
330
B433
100
AcDbEntity
  8
AM_5
370
    -2
100
AcDbBlockReference
  2
_OPEN30
 10
-54.38970292674438
 20
4.155807280793538
 30
0.0
 41
2.5
 42
2.5
 43
2.5
 50
128.1049530679969
  0
POINT
  5
B7A8
330
B433
100
AcDbEntity
  8
DEFPOINTS
 62
     0
100
AcDbPoint
 10
-54.38970292674438
 20
4.155807280793538
 30
0.0
  0
POINT
  5
B7A9
330
B433
100
AcDbEntity
  8
DEFPOINTS
 62
     0
100
AcDbPoint
 10
-78.45675507659038
 20
34.84419271920643
 30
0.0
  0
ENDBLK
  5
B43D
330
B433
100
AcDbEntity
  8
0
100
AcDbBlockEnd
  0
BLOCK
  5
B5B7
330
B5AD
100
AcDbEntity
  8
0
100
AcDbBlockBegin
  2
*D15
 70
     1
 10
0.0
 20
0.0
 30
0.0
  3
*D15
  1

  0
LINE
  5
B7AA
330
B5AD
100
AcDbEntity
  8
AM_5
 62
     3
370
    -2
100
AcDbLine
 10
140.9838215794485
 20
13.87223563716984
 30
0.0
 11
140.9838215794485
 21
-11.63007000290296
 31
0.0
  0
LINE
  5
B7AB
330
B5AD
100
AcDbEntity
  8
AM_5
 62
     3
370
    -2
100
AcDbLine
 10
110.9838215794484
 20
14.54102051443366
 30
0.0
 11
110.9838215794484
 21
-11.63007000290296
 31
0.0
  0
LINE
  5
B7AC
330
B5AD
100
AcDbEntity
  8
AM_5
 62
     3
370
    -2
100
AcDbLine
 10
138.4838215794485
 20
-10.63007000290296
 30
0.0
 11
113.4838215794484
 21
-10.63007000290296
 31
0.0
  0
INSERT
  5
B7AD
330
B5AD
100
AcDbEntity
  8
AM_5
 62
     3
370
    -2
100
AcDbBlockReference
  2
_OPEN30
 10
140.9838215794485
 20
-10.63007000290296
 30
0.0
 41
2.5
 42
2.5
 43
2.5
  0
INSERT
  5
B7AE
330
B5AD
100
AcDbEntity
  8
AM_5
 62
     3
370
    -2
100
AcDbBlockReference
  2
_OPEN30
 10
110.9838215794484
 20
-10.63007000290296
 30
0.0
 41
2.5
 42
2.5
 43
2.5
 50
180.0
  0
MTEXT
  5
B7AF
330
B5AD
100
AcDbEntity
  8
AM_5
 62
     2
100
AcDbMText
 10
125.9838215794484
 20
-7.230070002902963
 30
0.0
 40
3.799999999999998
 41
0.0
 71
     5
 72
     1
  1
30
 73
     1
 44
1.0
1001
ACAD
1000
MTEXTBEGIN
1070
    73
1070
     1
1070
    44
1040
1.0
1070
    74
1070
     0
1000
MTEXTEND
  0
POINT
  5
B7B0
330
B5AD
100
AcDbEntity
  8
DEFPOINTS
 62
     0
100
AcDbPoint
 10
140.9838215794485
 20
13.87223563716984
 30
0.0
  0
POINT
  5
B7B1
330
B5AD
100
AcDbEntity
  8
DEFPOINTS
 62
     0
100
AcDbPoint
 10
110.9838215794484
 20
14.54102051443366
 30
0.0
  0
POINT
  5
B7B2
330
B5AD
100
AcDbEntity
  8
DEFPOINTS
 62
     0
100
AcDbPoint
 10
110.9838215794484
 20
-10.63007000290296
 30
0.0
  0
ENDBLK
  5
B5B8
330
B5AD
100
AcDbEntity
  8
0
100
AcDbBlockEnd
  0
BLOCK
  5
B5C0
330
B5B9
100
AcDbEntity
  8
0
100
AcDbBlockBegin
  2
*D16
 70
     1
 10
0.0
 20
0.0
 30
0.0
  3
*D16
  1

  0
LINE
  5
B7B3
330
B5B9
100
AcDbEntity
  8
AM_5
370
    -2
100
AcDbLine
 10
125.188725128673
 20
18.81529961375674
 30
0.0
 11
136.5992375461349
 21
27.78044026740904
 31
0.0
  0
MTEXT
  5
B7B4
330
B5B9
100
AcDbEntity
  8
AM_5
 62
     2
100
AcDbMText
 10
127.3452019270632
 20
24.8340006555369
 30
0.0
 40
3.799999999999998
 41
0.0
 71
     5
 72
     1
  1
\U+220532
 11
0.7863271086434388
 21
0.6178103901784508
 31
0.0
 73
     1
 44
1.0
1001
ACAD
1000
MTEXTBEGIN
1070
    73
1070
     1
1070
    44
1040
1.0
1070
    74
1070
     0
1000
MTEXTEND
  0
INSERT
  5
B7B5
330
B5B9
100
AcDbEntity
  8
AM_5
370
    -2
100
AcDbBlockReference
  2
_OPEN30
 10
138.5650553177435
 20
29.32496624285518
 30
0.0
 41
2.5
 42
2.5
 43
2.5
 50
38.15641328089133
  0
POINT
  5
B7B6
330
B5B9
100
AcDbEntity
  8
DEFPOINTS
 62
     0
100
AcDbPoint
 10
138.5650553177435
 20
29.32496624285518
 30
0.0
  0
POINT
  5
B7B7
330
B5B9
100
AcDbEntity
  8
DEFPOINTS
 62
     0
100
AcDbPoint
 10
113.4025878411535
 20
9.555033757144791
 30
0.0
  0
ENDBLK
  5
B5C1
330
B5B9
100
AcDbEntity
  8
0
100
AcDbBlockEnd
  0
ENDSEC
  0
SECTION
  2
ENTITIES
  0
TEXT
  5
83BD
330
1F
100
AcDbEntity
  8
AM_6
100
AcDbText
 10
120.7570219984549
 20
-94.45431958986285
 30
0.0
 40
5.0
  1
GMIR432
 72
     4
 11
133.2777278980086
 21
-91.95431958986285
 31
0.0
100
AcDbText
  0
LINE
  5
B1C5
330
1F
100
AcDbEntity
  8
AM_0
 48
0.3
100
AcDbLine
 10
16.04100125642099
 20
-51.1323714010194
 30
0.0
 11
7.426641902476088
 21
-51.1323714010194
 31
0.0
  0
LINE
  5
B1C6
330
1F
100
AcDbEntity
  8
AM_0
 48
0.3
100
AcDbLine
 10
16.7338215794486
 20
-51.53237140101944
 30
0.0
 11
11.7338215794486
 21
-51.53237140101944
 31
0.0
  0
LINE
  5
B1C9
330
1F
100
AcDbEntity
  8
AM_0
 48
0.3
100
AcDbLine
 10
16.7338215794486
 20
-51.53237140101944
 30
0.0
 11
16.7338215794486
 21
-53.13237140101939
 31
0.0
  0
LINE
  5
B1CA
330
1F
100
AcDbEntity
  8
AM_0
 48
0.3
100
AcDbLine
 10
16.7338215794486
 20
-51.53237140101944
 30
0.0
 11
16.04100125642099
 21
-51.1323714010194
 31
0.0
  0
LINE
  5
B1D9
330
1F
100
AcDbEntity
  8
AM_7
100
AcDbLine
 10
11.73382157944859
 20
-68.67751227049473
 30
0.0
 11
11.7338215794486
 21
-49.49787270004474
 31
0.0
  0
LINE
  5
B1DA
330
1F
100
AcDbEntity
  8
AM_0
 48
0.3
100
AcDbLine
 10
11.7338215794486
 20
-51.53237140101944
 30
0.0
 11
6.733821579448541
 21
-51.53237140101944
 31
0.0
  0
LINE
  5
B1DB
330
1F
100
AcDbEntity
  8
AM_0
 48
0.3
100
AcDbLine
 10
6.733821579448541
 20
-51.53237140101944
 30
0.0
 11
6.733821579448541
 21
-53.13237140101939
 31
0.0
  0
LINE
  5
B1DC
330
1F
100
AcDbEntity
  8
AM_0
 48
0.3
100
AcDbLine
 10
6.733821579448541
 20
-51.53237140101944
 30
0.0
 11
7.426641902476088
 21
-51.1323714010194
 31
0.0
  0
LINE
  5
B292
330
1F
100
AcDbEntity
  8
AM_7
100
AcDbLine
 10
256.6422985036849
 20
19.49999999999993
 30
0.0
 11
-6.205478393384304
 21
19.49999999999999
 31
0.0
  0
LINE
  5
B295
330
1F
100
AcDbEntity
  8
AM_0
100
AcDbLine
 10
0.7338215794485209
 20
7.879999999999991
 30
0.0
 11
0.7338215794485576
 21
34.43999999999999
 31
0.0
  0
LINE
  5
B2A7
330
1F
100
AcDbEntity
  8
AM_7
100
AcDbLine
 10
252.7334371118307
 20
-61.16237140101947
 30
0.0
 11
-5.557442512381857
 21
-61.16237140101943
 31
0.0
  0
LINE
  5
B2AC
330
1F
100
AcDbEntity
  8
AM_0
100
AcDbLine
 10
0.7338215794485111
 20
-78.66237140101943
 30
0.0
 11
0.7338215794485126
 21
-66.3965849633925
 31
0.0
  0
LINE
  5
B2B4
330
1F
100
AcDbEntity
  8
AM_0
100
AcDbLine
 10
33.4338215794485
 20
-76.22237140101941
 30
0.0
 11
33.4338215794485
 21
-66.59013576384932
 31
0.0
  0
LINE
  5
B2B5
330
1F
100
AcDbEntity
  8
AM_0
100
AcDbLine
 10
3.27382157944851
 20
-78.66237140101943
 30
0.0
 11
0.7338215794485104
 21
-78.66237140101943
 31
0.0
  0
LINE
  5
B2BD
330
1F
100
AcDbEntity
  8
AM_0
100
AcDbLine
 10
2.003821579448511
 20
-67.66658496339248
 30
0.0
 11
3.103821579448506
 21
-66.5665849633925
 31
0.0
  0
LINE
  5
B2BE
330
1F
100
AcDbEntity
  8
AM_0
100
AcDbLine
 10
2.003821579448511
 20
-67.66658496339248
 30
0.0
 11
0.258821579448508
 21
-65.92158496339249
 31
0.0
  0
LINE
  5
B2C0
330
1F
100
AcDbEntity
  8
AM_0
100
AcDbLine
 10
5.733821579448511
 20
-66.3965849633925
 30
0.0
 11
3.273821579448512
 21
-66.3965849633925
 31
0.0
  0
LINE
  5
B2C2
330
1F
100
AcDbEntity
  8
AM_0
100
AcDbLine
 10
5.733821579448513
 20
-60.2623714010194
 30
0.0
 11
5.733821579448511
 21
-66.3965849633925
 31
0.0
  0
LINE
  5
B2C5
330
1F
100
AcDbEntity
  8
AM_0
100
AcDbLine
 10
25.23382157944851
 20
-54.7623714010194
 30
0.0
 11
22.83382157944854
 21
-54.7623714010194
 31
0.0
  0
LINE
  5
B2C6
330
1F
100
AcDbEntity
  8
AM_0
100
AcDbLine
 10
22.83382157944854
 20
-53.13237140101939
 30
0.0
 11
22.83382157944854
 21
-62.6623714010194
 31
0.0
  0
LINE
  5
B2C7
330
1F
100
AcDbEntity
  8
AM_0
100
AcDbLine
 10
25.23382157944851
 20
-46.22237140101942
 30
0.0
 11
25.23382157944851
 21
-54.7623714010194
 31
0.0
  0
LINE
  5
B2C9
330
1F
100
AcDbEntity
  8
AM_0
100
AcDbLine
 10
22.83382157944851
 20
-62.6623714010194
 30
0.0
 11
19.63382157944851
 21
-62.6623714010194
 31
0.0
  0
LINE
  5
B2CA
330
1F
100
AcDbEntity
  8
AM_0
100
AcDbLine
 10
19.63382157944849
 20
-60.2623714010194
 30
0.0
 11
19.63382157944854
 21
-62.6623714010194
 31
0.0
  0
LINE
  5
B2CB
330
1F
100
AcDbEntity
  8
AM_0
100
AcDbLine
 10
23.63382157944851
 20
-54.7623714010194
 30
0.0
 11
23.63382157944855
 21
-61.16237140101944
 31
0.0
  0
LINE
  5
B2CD
330
1F
100
AcDbEntity
  8
AM_0
100
AcDbLine
 10
5.733821579448513
 20
-61.16237140101943
 30
0.0
 11
19.6338215794485
 21
-61.16237140101943
 31
0.0
  0
LINE
  5
B2D6
330
1F
100
AcDbEntity
  8
AM_0
100
AcDbLine
 10
33.4338215794485
 20
-55.85460703818953
 30
0.0
 11
33.4338215794485
 21
-46.22237140101943
 31
0.0
  0
LINE
  5
B2D8
330
1F
100
AcDbEntity
  8
AM_0
100
AcDbLine
 10
33.43382157944851
 20
24.80776436282989
 30
0.0
 11
33.43382157944857
 21
34.43999999999999
 31
0.0
  0
LINE
  5
B2DB
330
1F
100
AcDbEntity
  8
AM_0
100
AcDbLine
 10
33.43382157944851
 20
4.439999999999986
 30
0.0
 11
33.43382157944851
 21
14.07223563717009
 31
0.0
  0
LINE
  5
B2DD
330
1F
100
AcDbEntity
  8
AM_0
100
AcDbLine
 10
25.23382157944855
 20
34.43999999999999
 30
0.0
 11
25.23382157944852
 21
4.439999999999987
 31
0.0
  0
LINE
  5
B2DE
330
1F
100
AcDbEntity
  8
AM_0
100
AcDbLine
 10
20.63382157944853
 20
24.99999999999998
 30
0.0
 11
0.7338215794485512
 21
24.99999999999999
 31
0.0
  0
LINE
  5
B2DF
330
1F
100
AcDbEntity
  8
AM_0
100
AcDbLine
 10
23.63382157944853
 20
22.1952964797455
 30
0.0
 11
23.63382157944852
 21
4.499999999999982
 31
0.0
  0
ARC
  5
B2E0
330
1F
100
AcDbEntity
  8
AM_0
100
AcDbCircle
 10
20.63382157944847
 20
21.99999999999993
 30
0.0
 40
3.0
100
AcDbArc
 50
3.732527506581924
 51
89.99999999999896
  0
LINE
  5
B2E2
330
1F
100
AcDbEntity
  8
AM_0
100
AcDbLine
 10
22.83382157944854
 20
21.89999999999996
 30
0.0
 11
22.83382157944854
 21
4.499999999999983
 31
0.0
  0
ARC
  5
B2E4
330
1F
100
AcDbEntity
  8
AM_0
100
AcDbCircle
 10
21.23382157944854
 20
21.89999999999996
 30
0.0
 40
1.600000000000015
100
AcDbArc
 50
0.0
 51
114.2951889453644
  0
LINE
  5
B2E6
330
1F
100
AcDbEntity
  8
AM_7
100
AcDbLine
 10
11.73382157944854
 20
23.75853406351935
 30
0.0
 11
11.73382157944854
 21
10.04898595829055
 31
0.0
  0
LINE
  5
B2E7
330
1F
100
AcDbEntity
  8
AM_7
100
AcDbLine
 10
18.82890226122478
 20
17.04999999999999
 30
0.0
 11
4.541202745721623
 21
17.05
 31
0.0
  0
LINE
  5
B2E8
330
1F
100
AcDbEntity
  8
AM_0
100
AcDbLine
 10
5.53382157944852
 20
4.499999999999999
 30
0.0
 11
5.53382157944852
 21
5.189999999999988
 31
0.0
  0
LINE
  5
B2EA
330
1F
100
AcDbEntity
  8
AM_7
100
AcDbLine
 10
-66.42322900166735
 20
41.07860413081914
 30
0.0
 11
-66.42322900166735
 21
-3.299340185158588
 31
0.0
  0
LINE
  5
B2F3
330
1F
100
AcDbEntity
  8
AM_0
100
AcDbLine
 10
-60.02322900166721
 20
34.50000000000003
 30
0.0
 11
-60.02322900166736
 21
25.09999999999998
 31
0.0
  0
LINE
  5
B2F4
330
1F
100
AcDbEntity
  8
AM_0
100
AcDbLine
 10
-66.42322900166735
 20
30.99999999999999
 30
0.0
 11
-66.42322900166735
 21
20.49999999999998
 31
0.0
  0
LINE
  5
B2F5
330
1F
100
AcDbEntity
  8
AM_0
100
AcDbLine
 10
-58.42322900166731
 20
25.09999999999998
 30
0.0
 11
-67.92322900166738
 21
25.09999999999997
 31
0.0
  0
LINE
  5
B316
330
1F
100
AcDbEntity
  8
AM_7
100
AcDbLine
 10
-65.81513590585394
 20
23.74999999999999
 30
0.0
 11
-74.75149718694807
 21
23.75
 31
0.0
  0
LINE
  5
B317
330
1F
100
AcDbEntity
  8
AM_7
100
AcDbLine
 10
-70.42322900166734
 20
28.25638852129852
 30
0.0
 11
-70.42322900166734
 21
18.95664945181672
 31
0.0
  0
CIRCLE
  5
B318
330
1F
100
AcDbEntity
  8
AM_0
100
AcDbCircle
 10
-70.42322900166734
 20
23.75
 30
0.0
 40
2.5
  0
LINE
  5
B31A
330
1F
100
AcDbEntity
  8
AM_7
100
AcDbLine
 10
-44.6564214651458
 20
19.5
 30
0.0
 11
-87.95575421782071
 21
19.5
 31
0.0
  0
ARC
  5
B32B
102
{ACAD_REACTORS
330
B337
102
}
330
1F
100
AcDbEntity
  8
AM_0
100
AcDbCircle
 10
3.750233584951231
 20
0.2499999999999711
 30
0.0
 40
0.25
100
AcDbArc
 50
270.0
 51
1.999999999999753
  0
ARC
  5
B32C
102
{ACAD_REACTORS
330
B337
102
}
330
1F
100
AcDbEntity
  8
AM_0
100
AcDbCircle
 10
0.2499987418465283
 20
0.2499999999999716
 30
0.0
 40
0.25
100
AcDbArc
 50
178.0000000000001
 51
270.0
  0
LINE
  5
B32D
102
{ACAD_REACTORS
330
B337
102
}
330
1F
100
AcDbEntity
  8
AM_0
100
AcDbLine
 10
0.1307992413658389
 20
4.0
 30
0.0
 11
3.869433085431878
 21
3.999999999999999
 31
0.0
  0
LINE
  5
B32F
102
{ACAD_REACTORS
330
B337
102
}
330
1F
100
AcDbEntity
  8
AM_0
100
AcDbLine
 10
0.1307992413658389
 20
4.0
 30
0.0
 11
0.0001510350917501
 21
0.2587248741755848
 31
0.0
  0
LINE
  5
B330
102
{ACAD_REACTORS
330
B337
102
}
330
1F
100
AcDbEntity
  8
AM_0
100
AcDbLine
 10
3.869433085431878
 20
3.999999999999999
 30
0.0
 11
4.000081291706023
 21
0.2587248741755843
 31
0.0
  0
LINE
  5
B331
102
{ACAD_REACTORS
330
B337
102
}
330
1F
100
AcDbEntity
  8
AM_0
100
AcDbLine
 10
0.2589987418465002
 20
0.0
 30
0.0
 11
1.500116163398856
 21
0.0
 31
0.0
  0
LINE
  5
B332
102
{ACAD_REACTORS
330
B337
102
}
330
1F
100
AcDbEntity
  8
AM_0
100
AcDbLine
 10
3.750233584951224
 20
-0.0000000000000004
 30
0.0
 11
1.500116163398856
 21
0.0
 31
0.0
  0
CIRCLE
  5
B33A
330
1F
100
AcDbEntity
  8
AM_0
100
AcDbCircle
 10
11.73382157944854
 20
17.04999999999999
 30
0.0
 40
5.299999999999998
  0
INSERT
  5
B33B
330
1F
100
AcDbEntity
  8
AM_0
100
AcDbBlockReference
  2
CBF06
 10
11.73382157944854
 20
17.05
 30
0.0
  0
LINE
  5
B33E
330
1F
100
AcDbEntity
  8
AM_0
100
AcDbLine
 10
18.83382157944854
 20
24.99999999999999
 30
0.0
 11
22.83382157944854
 21
20.99999999999999
 31
0.0
  0
LINE
  5
B341
330
1F
100
AcDbEntity
  8
AM_0
100
AcDbLine
 10
3.573821579448519
 20
4.379999999999988
 30
0.0
 11
3.573821579448519
 21
5.189999999999988
 31
0.0
  0
LINE
  5
B342
330
1F
100
AcDbEntity
  8
AM_0
100
AcDbLine
 10
3.573821579448519
 20
4.379999999999988
 30
0.0
 11
0.7338215794485202
 21
4.379999999999988
 31
0.0
  0
LINE
  5
B344
330
1F
100
AcDbEntity
  8
AM_0
100
AcDbLine
 10
5.533821579448479
 20
24.99999999999998
 30
0.0
 11
5.533821579448593
 21
34.43999999999999
 31
0.0
  0
LINE
  5
B346
330
1F
100
AcDbEntity
  8
AM_0
100
AcDbLine
 10
8.774022094023585
 20
9.829999999999975
 30
0.0
 11
22.83382157944854
 21
9.829999999999973
 31
0.0
  0
LINE
  5
B349
330
1F
100
AcDbEntity
  8
AM_0
100
AcDbLine
 10
4.824022094023579
 20
13.77999999999998
 30
0.0
 11
0.7338215794485354
 21
13.77999999999998
 31
0.0
  0
LINE
  5
B34A
330
1F
100
AcDbEntity
  8
AM_0
100
AcDbLine
 10
4.824022094023579
 20
13.77999999999998
 30
0.0
 11
8.774022094023585
 21
9.829999999999975
 31
0.0
  0
LINE
  5
B34B
330
1F
100
AcDbEntity
  8
AM_0
100
AcDbLine
 10
8.774022094023585
 20
4.349999999999979
 30
0.0
 11
8.774022094023585
 21
9.829999999999975
 31
0.0
  0
LINE
  5
B34C
330
1F
100
AcDbEntity
  8
AM_0
100
AcDbLine
 10
4.824022094023579
 20
13.77999999999998
 30
0.0
 11
4.824022094023577
 21
5.189999999999988
 31
0.0
  0
LINE
  5
B350
102
{ACAD_REACTORS
330
B368
102
}
330
1F
100
AcDbEntity
  8
AM_0
100
AcDbLine
 10
-67.82322900166732
 20
4.000000000000007
 30
0.0
 11
-67.82322900166732
 21
18.22499999999991
 31
0.0
  0
LINE
  5
B354
102
{ACAD_REACTORS
330
B368
102
}
330
1F
100
AcDbEntity
  8
AM_0
100
AcDbLine
 10
-67.04037343414697
 20
3.500000000000007
 30
0.0
 11
-66.42322900166735
 21
0.000000000000008
 31
0.0
  0
LINE
  5
B357
102
{ACAD_REACTORS
330
B368
102
}
330
1F
100
AcDbEntity
  8
AM_0
100
AcDbLine
 10
-66.42322900166735
 20
4.000000000000007
 30
0.0
 11
-70.52322900166732
 21
4.000000000000008
 31
0.0
  0
LINE
  5
B358
102
{ACAD_REACTORS
330
B368
102
}
330
1F
100
AcDbEntity
  8
AM_0
100
AcDbLine
 10
-67.04037343414697
 20
3.500000000000007
 30
0.0
 11
-66.42322900166735
 21
4.000000000000007
 31
0.0
  0
LINE
  5
B359
102
{ACAD_REACTORS
330
B368
102
}
330
1F
100
AcDbEntity
  8
AM_0
100
AcDbLine
 10
-66.42322900166735
 20
2.500000000000007
 30
0.0
 11
-66.77052535700116
 21
1.969615506024418
 31
0.0
  0
LINE
  5
B35A
102
{ACAD_REACTORS
330
B368
102
}
330
1F
100
AcDbEntity
  8
AM_0
100
AcDbLine
 10
-66.42322900166735
 20
4.000000000000007
 30
0.0
 11
-66.42322900166735
 21
2.500000000000007
 31
0.0
  0
LINE
  5
B35C
102
{ACAD_REACTORS
330
B368
102
}
330
1F
100
AcDbEntity
  8
AM_0
100
AcDbLine
 10
-67.04037343414691
 20
18.71717020395284
 30
0.0
 11
-66.42322900166731
 21
22.21717020395284
 31
0.0
  0
LINE
  5
B35E
102
{ACAD_REACTORS
330
B368
102
}
330
1F
100
AcDbEntity
  8
AM_0
100
AcDbLine
 10
-66.42322900166731
 20
18.21717020395284
 30
0.0
 11
-70.52322900166732
 21
18.21717020395284
 31
0.0
  0
LINE
  5
B35F
102
{ACAD_REACTORS
330
B368
102
}
330
1F
100
AcDbEntity
  8
AM_0
100
AcDbLine
 10
-66.42322900166731
 20
18.21717020395284
 30
0.0
 11
-66.42322900166731
 21
19.71717020395283
 31
0.0
  0
LINE
  5
B360
102
{ACAD_REACTORS
330
B368
102
}
330
1F
100
AcDbEntity
  8
AM_0
100
AcDbLine
 10
-67.04037343414691
 20
18.71717020395284
 30
0.0
 11
-66.42322900166731
 21
18.21717020395284
 31
0.0
  0
LINE
  5
B361
102
{ACAD_REACTORS
330
B368
102
}
330
1F
100
AcDbEntity
  8
AM_0
100
AcDbLine
 10
-66.42322900166731
 20
19.71717020395283
 30
0.0
 11
-66.77052535700116
 21
20.24755469792843
 31
0.0
  0
LINE
  5
B366
102
{ACAD_REACTORS
330
B368
102
}
330
1F
100
AcDbEntity
  8
AM_0
100
AcDbLine
 10
-66.47984114231305
 20
0.0049529205243828
 30
0.0
 11
-66.42322900166735
 21
-0.000000000000048
 31
0.0
  0
LINE
  5
B36B
102
{ACAD_REACTORS
330
B381
102
}
330
1F
100
AcDbEntity
  8
AM_0
100
AcDbLine
 10
-66.52322900166732
 20
22.20842133760025
 30
0.0
 11
-66.42322900166731
 21
22.21717020395284
 31
0.0
  0
LINE
  5
B36C
102
{ACAD_REACTORS
330
B381
102
}
330
1F
100
AcDbEntity
  8
AM_0
100
AcDbLine
 10
-67.04037343414691
 20
18.71717020395284
 30
0.0
 11
-66.42322900166731
 21
22.21717020395284
 31
0.0
  0
LINE
  5
B36F
102
{ACAD_REACTORS
330
B381
102
}
330
1F
100
AcDbEntity
  8
AM_0
100
AcDbLine
 10
-67.04037343414697
 20
3.500000000000007
 30
0.0
 11
-66.42322900166735
 21
0.000000000000008
 31
0.0
  0
LINE
  5
B373
102
{ACAD_REACTORS
330
B381
102
}
330
1F
100
AcDbEntity
  8
AM_0
100
AcDbLine
 10
-67.82322900166732
 20
4.000000000000007
 30
0.0
 11
-67.82322900166732
 21
18.22499999999991
 31
0.0
  0
LINE
  5
B374
102
{ACAD_REACTORS
330
B381
102
}
330
1F
100
AcDbEntity
  8
AM_0
100
AcDbLine
 10
-66.42322900166735
 20
4.000000000000007
 30
0.0
 11
-70.52322900166732
 21
4.000000000000008
 31
0.0
  0
LINE
  5
B375
102
{ACAD_REACTORS
330
B381
102
}
330
1F
100
AcDbEntity
  8
AM_0
100
AcDbLine
 10
-66.42322900166735
 20
4.000000000000007
 30
0.0
 11
-66.42322900166735
 21
2.500000000000007
 31
0.0
  0
LINE
  5
B376
102
{ACAD_REACTORS
330
B381
102
}
330
1F
100
AcDbEntity
  8
AM_0
100
AcDbLine
 10
-67.04037343414697
 20
3.500000000000007
 30
0.0
 11
-66.42322900166735
 21
4.000000000000007
 31
0.0
  0
LINE
  5
B377
102
{ACAD_REACTORS
330
B381
102
}
330
1F
100
AcDbEntity
  8
AM_0
100
AcDbLine
 10
-66.42322900166735
 20
2.500000000000007
 30
0.0
 11
-66.77052535700116
 21
1.969615506024418
 31
0.0
  0
LINE
  5
B378
102
{ACAD_REACTORS
330
B381
102
}
330
1F
100
AcDbEntity
  8
AM_0
100
AcDbLine
 10
-70.52322900166732
 20
4.000000000000008
 30
0.0
 11
-71.65322900166735
 21
4.000000000000008
 31
0.0
  0
LINE
  5
B379
102
{ACAD_REACTORS
330
B381
102
}
330
1F
100
AcDbEntity
  8
AM_0
100
AcDbLine
 10
-66.42322900166731
 20
18.21717020395284
 30
0.0
 11
-70.52322900166732
 21
18.21717020395284
 31
0.0
  0
LINE
  5
B37A
102
{ACAD_REACTORS
330
B381
102
}
330
1F
100
AcDbEntity
  8
AM_0
100
AcDbLine
 10
-66.42322900166731
 20
18.21717020395284
 30
0.0
 11
-66.42322900166731
 21
19.71717020395283
 31
0.0
  0
LINE
  5
B37B
102
{ACAD_REACTORS
330
B381
102
}
330
1F
100
AcDbEntity
  8
AM_0
100
AcDbLine
 10
-67.04037343414691
 20
18.71717020395284
 30
0.0
 11
-66.42322900166731
 21
18.21717020395284
 31
0.0
  0
LINE
  5
B37C
102
{ACAD_REACTORS
330
B381
102
}
330
1F
100
AcDbEntity
  8
AM_0
100
AcDbLine
 10
-66.42322900166731
 20
19.71717020395283
 30
0.0
 11
-66.77052535700116
 21
20.24755469792843
 31
0.0
  0
LINE
  5
B37E
102
{ACAD_REACTORS
330
B381
102
}
330
1F
100
AcDbEntity
  8
AM_0
100
AcDbLine
 10
-70.52322900166732
 20
18.21717020395284
 30
0.0
 11
-71.35322900166734
 21
18.21717020395284
 31
0.0
  0
LINE
  5
B388
330
1F
100
AcDbEntity
  8
AM_0
100
AcDbLine
 10
-71.35322900166734
 20
20.91422673815793
 30
0.0
 11
-66.52322900166732
 21
22.20842133760025
 31
0.0
  0
LINE
  5
B38A
102
{ACAD_REACTORS
330
B396
102
}
330
1F
100
AcDbEntity
  8
AM_0
100
AcDbLine
 10
0.0038215794485131
 20
-61.16237140101943
 30
0.0
 11
1.503821579448512
 21
-61.16237140101943
 31
0.0
  0
LINE
  5
B38B
102
{ACAD_REACTORS
330
B396
102
}
330
1F
100
AcDbEntity
  8
AM_0
100
AcDbLine
 10
1.66380793405561
 20
-67.32657131799962
 30
0.0
 11
2.003821579448511
 21
-67.32657131799962
 31
0.0
  0
LINE
  5
B38C
102
{ACAD_REACTORS
330
B396
102
}
330
1F
100
AcDbEntity
  8
AM_0
100
AcDbLine
 10
-0.0000160380698015
 20
-61.16270714904721
 30
0.0
 11
0.4314333992101442
 21
-66.09419678315411
 31
0.0
  0
LINE
  5
B390
102
{ACAD_REACTORS
330
B396
102
}
330
1F
100
AcDbEntity
  8
AM_0
100
AcDbLine
 10
0.258821579448508
 20
-65.92158496339249
 30
0.0
 11
0.2588215794485082
 21
-64.12123465520354
 31
0.0
  0
LINE
  5
B391
102
{ACAD_REACTORS
330
B396
102
}
330
1F
100
AcDbEntity
  8
AM_0
100
AcDbLine
 10
4.007659196966827
 20
-61.16270714904721
 30
0.0
 11
3.576209759686876
 21
-66.09419678315415
 31
0.0
  0
LINE
  5
B392
102
{ACAD_REACTORS
330
B396
102
}
330
1F
100
AcDbEntity
  8
AM_0
100
AcDbLine
 10
3.748821579448517
 20
-65.92158496339251
 30
0.0
 11
3.748821579448517
 21
-64.12123465520354
 31
0.0
  0
LINE
  5
B393
102
{ACAD_REACTORS
330
B396
102
}
330
1F
100
AcDbEntity
  8
AM_0
100
AcDbLine
 10
3.748821579448517
 20
-65.92158496339249
 30
0.0
 11
2.343835224841412
 21
-67.32657131799959
 31
0.0
  0
LINE
  5
B394
102
{ACAD_REACTORS
330
B396
102
}
330
1F
100
AcDbEntity
  8
AM_0
100
AcDbLine
 10
2.343835224841412
 20
-67.32657131799962
 30
0.0
 11
2.003821579448511
 21
-67.32657131799962
 31
0.0
  0
LINE
  5
B395
102
{ACAD_REACTORS
330
B396
102
}
330
1F
100
AcDbEntity
  8
AM_0
100
AcDbLine
 10
4.007659196966827
 20
-61.16237140101943
 30
0.0
 11
1.503821579448512
 21
-61.16237140101943
 31
0.0
  0
LINE
  5
B3AA
330
1F
100
AcDbEntity
  8
AM_0
100
AcDbLine
 10
0.7338215794485415
 20
-61.16237140101943
 30
0.0
 11
0.7338215794485424
 21
-53.13237140101939
 31
0.0
  0
LINE
  5
B3AB
330
1F
100
AcDbEntity
  8
AM_0
100
AcDbLine
 10
3.573821579448512
 20
-61.16237140101943
 30
0.0
 11
3.573821579448512
 21
-60.26237140101942
 31
0.0
  0
LINE
  5
B3AC
330
1F
100
AcDbEntity
  8
AM_0
100
AcDbLine
 10
3.573821579448512
 20
-60.2623714010194
 30
0.0
 11
19.63382157944849
 21
-60.2623714010194
 31
0.0
  0
LINE
  5
B3AD
330
1F
100
AcDbEntity
  8
AM_0
100
AcDbLine
 10
22.83382157944851
 20
-61.6623714010194
 30
0.0
 11
19.63382157944851
 21
-61.6623714010194
 31
0.0
  0
LINE
  5
B3AE
330
1F
100
AcDbEntity
  8
AM_0
100
AcDbLine
 10
22.83382157944854
 20
-61.16237140101943
 30
0.0
 11
23.63382157944855
 21
-61.16237140101943
 31
0.0
  0
LINE
  5
B3AF
330
1F
100
AcDbEntity
  8
AM_0
100
AcDbLine
 10
22.83382157944851
 20
-53.13237140101939
 30
0.0
 11
0.7338215794485424
 21
-53.13237140101939
 31
0.0
  0
LINE
  5
B3B0
330
1F
100
AcDbEntity
  8
AM_0
100
AcDbLine
 10
4.324022094023572
 20
-53.13237140101944
 30
0.0
 11
4.324022094023572
 21
-60.2623714010194
 31
0.0
  0
LINE
  5
B3B1
330
1F
100
AcDbEntity
  8
AM_0
100
AcDbLine
 10
7.733821579448513
 20
-53.13237140101939
 30
0.0
 11
7.733821579448513
 21
-57.90237140101942
 31
0.0
  0
LINE
  5
B3B2
330
1F
100
AcDbEntity
  8
AM_0
100
AcDbLine
 10
22.83382157944851
 20
-57.90237140101942
 30
0.0
 11
7.733821579448513
 21
-57.90237140101942
 31
0.0
  0
LINE
  5
B3B5
330
1F
100
AcDbEntity
  8
AM_0
100
AcDbLine
 10
7.733821579448513
 20
-57.90237140101936
 30
0.0
 11
5.373821579448497
 21
-60.2623714010194
 31
0.0
  0
LINE
  5
B3B8
330
1F
100
AcDbEntity
  8
AM_0
100
AcDbLine
 10
-58.42322900166735
 20
25.09999999999998
 30
0.0
 11
-58.42322900166734
 21
9.829999999999984
 31
0.0
  0
LINE
  5
B3B9
330
1F
100
AcDbEntity
  8
AM_0
100
AcDbLine
 10
-63.06322900166732
 20
5.189999999999997
 30
0.0
 11
-67.01322900166733
 21
5.18999999999999
 31
0.0
  0
LINE
  5
B3BB
330
1F
100
AcDbEntity
  8
AM_0
100
AcDbLine
 10
-65.52322900166737
 20
22.69999999999997
 30
0.0
 11
-67.92322900166738
 21
22.69999999999997
 31
0.0
  0
LINE
  5
B3BC
330
1F
100
AcDbEntity
  8
AM_0
100
AcDbLine
 10
-65.52322900166737
 20
22.69999999999997
 30
0.0
 11
-65.52322900166737
 21
16.99999999999998
 31
0.0
  0
LINE
  5
B3BD
330
1F
100
AcDbEntity
  8
AM_0
100
AcDbLine
 10
-65.52322900166737
 20
16.99999999999998
 30
0.0
 11
-67.82322900166732
 21
16.99999999999998
 31
0.0
  0
LINE
  5
B3BE
330
1F
100
AcDbEntity
  8
AM_0
100
AcDbLine
 10
-66.42322900166735
 20
5.099999999999958
 30
0.0
 11
-66.42322900166735
 21
4.500000000000008
 31
0.0
  0
LINE
  5
B3C0
330
1F
100
AcDbEntity
  8
AM_0
 48
0.3
100
AcDbLine
 10
-56.82322900166735
 20
17.04999999999994
 30
0.0
 11
-56.82322900166735
 21
22.05000000000001
 31
0.0
  0
LINE
  5
B3C1
330
1F
100
AcDbEntity
  8
AM_0
 48
0.3
100
AcDbLine
 10
-56.42322900166734
 20
12.74282032302755
 30
0.0
 11
-56.42322900166734
 21
21.35717967697246
 31
0.0
  0
LINE
  5
B3C2
330
1F
100
AcDbEntity
  8
AM_0
 48
0.3
100
AcDbLine
 10
-56.82322900166737
 20
22.05000000000001
 30
0.0
 11
-58.42322900166735
 21
22.05000000000001
 31
0.0
  0
LINE
  5
B3C3
330
1F
100
AcDbEntity
  8
AM_0
 48
0.3
100
AcDbLine
 10
-56.82322900166735
 20
22.05000000000001
 30
0.0
 11
-56.42322900166734
 21
21.35717967697246
 31
0.0
  0
LINE
  5
B3C4
330
1F
100
AcDbEntity
  8
AM_0
 48
0.3
100
AcDbLine
 10
-56.82322900166735
 20
12.04999999999995
 30
0.0
 11
-56.82322900166735
 21
17.04999999999994
 31
0.0
  0
LINE
  5
B3C5
330
1F
100
AcDbEntity
  8
AM_0
 48
0.3
100
AcDbLine
 10
-56.82322900166735
 20
12.04999999999995
 30
0.0
 11
-58.42322900166735
 21
12.04999999999995
 31
0.0
  0
LINE
  5
B3C6
330
1F
100
AcDbEntity
  8
AM_0
 48
0.3
100
AcDbLine
 10
-56.82322900166735
 20
12.04999999999995
 30
0.0
 11
-56.42322900166734
 21
12.74282032302755
 31
0.0
  0
LINE
  5
B3C9
330
1F
100
AcDbEntity
  8
AM_7
100
AcDbLine
 10
-54.20884377897814
 20
17.05000000000001
 30
0.0
 11
-75.79054159780288
 21
17.05000000000001
 31
0.0
  0
LINE
  5
B3CB
330
1F
100
AcDbEntity
  8
AM_1
100
AcDbLine
 10
249.9999845794485
 20
7.999999999999941
 30
0.0
 11
249.9999845794485
 21
-49.66237140101947
 31
0.0
  0
LINE
  5
B3CD
330
1F
100
AcDbEntity
  8
AM_1
100
AcDbLine
 10
0.0000000000000004
 20
3.749206857418577
 30
0.0
 11
-0.0038376175183078
 21
-61.16350029162859
 31
0.0
  0
DIMENSION
  5
B3CE
330
1F
100
AcDbEntity
  8
AM_5
100
AcDbDimension
  2
*D11
 10
249.9999845794485
 20
-25.55834286235404
 30
0.0
 11
124.9999842706893
 21
-22.15796884660601
 31
0.0
 70
    32
 71
     5
 42
250.0000006175183
  3
AM_JIS$0
100
AcDbAlignedDimension
 13
-0.0000160380698015
 23
-61.16270714904721
 33
0.0
 14
249.9999845794485
 24
-28.70635357452363
 34
0.0
 50
180.0
100
AcDbRotatedDimension
1001
ACAD
1000
DSTYLE
1002
{
1070
   271
1070
     0
1002
}
  0
DIMENSION
  5
B416
330
1F
100
AcDbEntity
  8
AM_5
100
AcDbDimension
  2
*D12
 10
-16.93664598079245
 20
0.0000000000000049
 30
0.0
 11
-20.33664598079246
 21
9.749999999999998
 31
0.0
 70
    32
 71
     5
 42
19.49999999999999
  3
AM_JIS$0
100
AcDbAlignedDimension
 13
-6.205478393384305
 23
19.49999999999999
 33
0.0
 14
0.2589987418465002
 24
0.0
 34
0.0
 50
270.0
100
AcDbRotatedDimension
  0
DIMENSION
  5
B423
330
1F
100
AcDbEntity
  8
AM_5
100
AcDbDimension
  2
*D13
 10
-0.000000000000001
 20
-15.54847766973441
 30
0.0
 11
-7.45
 21
-12.14847766973441
 31
0.0
 70
    32
 71
     5
 42
3.998863316835936
  3
AM_JIS$0
100
AcDbAlignedDimension
 13
3.998863316835936
 23
0.2936031110476511
 33
0.0
 14
0.0
 24
0.2492068574207438
 34
0.0
 50
180.0
100
AcDbRotatedDimension
  0
DIMENSION
  5
B432
330
1F
100
AcDbEntity
  8
AM_5
100
AcDbDimension
  2
*D14
 10
-78.45675507659038
 20
34.84419271920643
 30
0.0
 11
-43.36480787255651
 21
-2.970670744865302
 31
0.0
 70
   163
  1
<>
 71
     5
 42
39.0
  3
AM_JIS$3
100
AcDbDiametricDimension
 15
-54.38970292674438
 25
4.155807280793538
 35
0.0
 40
0.0
1001
ACAD
1000
DSTYLE
1002
{
1070
   288
1070
     1
1002
}
  0
LINE
  5
B4A7
330
1F
100
AcDbEntity
  8
AM_0
100
AcDbLine
 10
3.715116163398856
 20
3.999999999999999
 30
0.0
 11
3.715116163398856
 21
5.189999999999988
 31
0.0
  0
LINE
  5
B4A8
330
1F
100
AcDbEntity
  8
AM_0
100
AcDbLine
 10
0.2851161633988574
 20
4.0
 30
0.0
 11
0.2851161633988592
 21
18.22499999999991
 31
0.0
  0
LINE
  5
B4AD
330
1F
100
AcDbEntity
  8
AM_0
100
AcDbLine
 10
22.83382157944854
 20
5.189999999999972
 30
0.0
 11
3.573821579448519
 21
5.189999999999988
 31
0.0
  0
LINE
  5
B4AF
330
1F
100
AcDbEntity
  8
AM_0
100
AcDbLine
 10
3.273821579448544
 20
24.99999999999999
 30
0.0
 11
3.273821579448557
 21
34.43999999999999
 31
0.0
  0
LINE
  5
B4B0
330
1F
100
AcDbEntity
  8
AM_0
100
AcDbLine
 10
2.003821579448544
 20
24.99999999999999
 30
0.0
 11
2.003821579448557
 21
34.43999999999999
 31
0.0
  0
LINE
  5
B4B3
330
1F
100
AcDbEntity
  8
AM_0
100
AcDbLine
 10
3.27382157944851
 20
-78.66237140101943
 30
0.0
 11
3.273821579448512
 21
-66.3965849633925
 31
0.0
  0
LINE
  5
B4D6
330
1F
100
AcDbEntity
  8
AM_0
100
AcDbLine
 10
0.1307992413658406
 20
18.22499999999991
 30
0.0
 11
0.0001510350917527
 21
21.96627512582432
 31
0.0
  0
ARC
  5
B4D7
330
1F
100
AcDbEntity
  8
AM_0
100
AcDbCircle
 10
0.249998741846531
 20
21.97499999999993
 30
0.0
 40
0.25
100
AcDbArc
 50
90.0
 51
181.9999999999998
  0
LINE
  5
B4D8
330
1F
100
AcDbEntity
  8
AM_0
100
AcDbLine
 10
0.258998741846503
 20
22.2249999999999
 30
0.0
 11
0.7338215794485437
 21
22.2249999999999
 31
0.0
  0
LINE
  5
B4D9
330
1F
100
AcDbEntity
  8
AM_0
100
AcDbLine
 10
0.1307992413658406
 20
18.22499999999991
 30
0.0
 11
0.7338215794485361
 21
18.22499999999991
 31
0.0
  0
LINE
  5
B4F7
330
1F
100
AcDbEntity
  8
AM_0
100
AcDbLine
 10
-67.92322900166738
 20
25.09999999999997
 30
0.0
 11
-67.92322900166738
 21
22.69999999999997
 31
0.0
  0
LINE
  5
B4FA
330
1F
100
AcDbEntity
  8
AM_0
100
AcDbLine
 10
-58.42322900166732
 20
13.77999999999999
 30
0.0
 11
-67.82322900166732
 21
4.379999999999996
 31
0.0
  0
LINE
  5
B4FE
330
1F
100
AcDbEntity
  8
AM_0
100
AcDbLine
 10
-58.42322900166732
 20
9.829999999999984
 30
0.0
 11
-63.06322900166732
 21
5.189999999999997
 31
0.0
  0
LINE
  5
B501
330
1F
100
AcDbEntity
  8
AM_0
100
AcDbLine
 10
-72.54079303193461
 20
1.628980084712349
 30
0.0
 11
-66.47984114231305
 21
0.0049529205243859
 31
0.0
  0
LINE
  5
B502
330
1F
100
AcDbEntity
  8
AM_3
100
AcDbLine
 10
-72.54079303193461
 20
1.628980084712347
 30
0.0
 11
-71.66461684234566
 21
1.394209382284619
 31
0.0
  0
LINE
  5
B506
330
1F
100
AcDbEntity
  8
AM_0
100
AcDbLine
 10
-71.35322900166734
 20
34.50000000000005
 30
0.0
 11
-71.35322900166734
 21
1.708082848716158
 31
0.0
  0
LINE
  5
B58A
330
1F
100
AcDbEntity
  8
AM_0
100
AcDbLine
 10
249.9999845794485
 20
-46.22237140101947
 30
0.0
 11
249.9999845794485
 21
-76.22237140101947
 31
0.0
  0
LINE
  5
B58B
330
1F
100
AcDbEntity
  8
AM_0
100
AcDbLine
 10
248.9999845794485
 20
-46.22237140101947
 30
0.0
 11
248.9999845794485
 21
-55.65460703818962
 31
0.0
  0
LINE
  5
B58C
330
1F
100
AcDbEntity
  8
AM_0
100
AcDbLine
 10
248.9999845794485
 20
-66.79013576384938
 30
0.0
 11
248.9999845794485
 21
-76.22237140101947
 31
0.0
  0
ARC
  5
B58D
330
1F
100
AcDbEntity
  8
AM_0
100
AcDbCircle
 10
234.1186950033261
 20
-61.2223714010195
 30
0.0
 40
15.88876267833358
100
AcDbArc
 50
339.4869007004896
 51
20.51309929951007
  0
LINE
  5
B58E
330
1F
100
AcDbEntity
  8
AM_0
100
AcDbLine
 10
33.43382157944852
 20
-55.65460703818958
 30
0.0
 11
249.1328045794485
 21
-55.65460703818962
 31
0.0
  0
LINE
  5
B58F
330
1F
100
AcDbEntity
  8
AM_0
100
AcDbLine
 10
250.1328045794485
 20
-46.22237140101947
 30
0.0
 11
25.23382157944853
 21
-46.22237140101942
 31
0.0
  0
LINE
  5
B590
330
1F
100
AcDbEntity
  8
AM_0
100
AcDbLine
 10
33.43382157944849
 20
-66.79013576384929
 30
0.0
 11
249.1328045794485
 21
-66.79013576384938
 31
0.0
  0
LINE
  5
B591
330
1F
100
AcDbEntity
  8
AM_0
100
AcDbLine
 10
250.1328045794485
 20
-76.22237140101947
 30
0.0
 11
3.273821579448515
 21
-76.22237140101941
 31
0.0
  0
LINE
  5
B594
330
1F
100
AcDbEntity
  8
AM_0
100
AcDbLine
 10
250.1328045794485
 20
4.439999999999928
 30
0.0
 11
137.6643851343939
 21
4.439999999999959
 31
0.0
  0
LINE
  5
B595
330
1F
100
AcDbEntity
  8
AM_0
100
AcDbLine
 10
144.1733778182309
 20
13.87223563717006
 30
0.0
 11
249.1328045794485
 21
13.87223563717004
 31
0.0
  0
LINE
  5
B596
330
1F
100
AcDbEntity
  8
AM_0
100
AcDbLine
 10
249.9999845794485
 20
34.43999999999991
 30
0.0
 11
249.9999845794485
 21
4.439999999999925
 31
0.0
  0
LINE
  5
B597
330
1F
100
AcDbEntity
  8
AM_0
100
AcDbLine
 10
248.9999845794485
 20
13.87223563717004
 30
0.0
 11
248.9999845794485
 21
4.439999999999928
 31
0.0
  0
ARC
  5
B598
330
1F
100
AcDbEntity
  8
AM_0
100
AcDbCircle
 10
234.1186950033261
 20
19.43999999999991
 30
0.0
 40
15.88876267833358
100
AcDbArc
 50
339.4869007004896
 51
20.51309929951007
  0
LINE
  5
B599
330
1F
100
AcDbEntity
  8
AM_0
100
AcDbLine
 10
248.9999845794485
 20
34.43999999999991
 30
0.0
 11
248.9999845794485
 21
25.00776436282978
 31
0.0
  0
LINE
  5
B59A
330
1F
100
AcDbEntity
  8
AM_0
100
AcDbLine
 10
144.1733778182309
 20
25.00776436282981
 30
0.0
 11
249.1328045794485
 21
25.00776436282978
 31
0.0
  0
LINE
  5
B59B
330
1F
100
AcDbEntity
  8
AM_0
100
AcDbLine
 10
250.1328045794485
 20
34.43999999999991
 30
0.0
 11
137.6643851343939
 21
34.43999999999996
 31
0.0
  0
LINE
  5
B59C
330
1F
100
AcDbEntity
  8
AM_7
100
AcDbLine
 10
125.9838215794484
 20
37.78771660456246
 30
0.0
 11
125.9838215794484
 21
-1.011110877929101
 31
0.0
  0
DIMENSION
  5
B59D
330
1F
100
AcDbEntity
  8
AM_5
100
AcDbDimension
  2
*D15
 10
110.9838215794484
 20
-10.63007000290296
 30
0.0
 11
125.9838215794484
 21
-7.230070002902963
 31
0.0
 70
    32
 71
     5
 42
30.00000000000007
  3
AM_JIS$0
100
AcDbAlignedDimension
 13
140.9838215794485
 23
13.87223563716984
 33
0.0
 14
110.9838215794484
 24
14.54102051443366
 34
0.0
 50
180.0
100
AcDbRotatedDimension
  0
ARC
  5
B59E
330
1F
100
AcDbEntity
  8
AM_0
100
AcDbCircle
 10
125.9838215794485
 20
19.43999999999997
 30
0.0
 40
16.0
100
AcDbArc
 50
200.3641348063174
 51
249.6358651936822
  0
ARC
  5
B59F
330
1F
100
AcDbEntity
  8
AM_0
100
AcDbCircle
 10
125.9838215794485
 20
19.43999999999997
 30
0.0
 40
16.0
100
AcDbArc
 50
110.3641348063177
 51
159.6358651936826
  0
ARC
  5
B5A0
330
1F
100
AcDbEntity
  8
AM_0
100
AcDbCircle
 10
125.9838215794485
 20
19.43999999999997
 30
0.0
 40
16.0
100
AcDbArc
 50
290.3641348063177
 51
339.6358651936817
  0
ARC
  5
B5A1
330
1F
100
AcDbEntity
  8
AM_0
100
AcDbCircle
 10
125.9838215794485
 20
19.43999999999997
 30
0.0
 40
16.0
100
AcDbArc
 50
20.36413480631811
 51
69.6358651936822
  0
DIMENSION
  5
B5A2
330
1F
100
AcDbEntity
  8
AM_5
100
AcDbDimension
  2
*D16
 10
113.4025878411535
 20
9.555033757144791
 30
0.0
 11
129.4459883244851
 21
22.16019438742747
 31
0.0
 70
   163
 71
     5
 42
31.99999999999993
  3
AM_JIS$3
100
AcDbDiametricDimension
 15
138.5650553177435
 25
29.32496624285518
 35
0.0
 40
0.0
1001
ACAD
1000
DSTYLE
1002
{
1070
   288
1070
     1
1002
}
  0
LINE
  5
B5A3
330
1F
100
AcDbEntity
  8
AM_0
100
AcDbLine
 10
140.9838215794485
 20
25.00776436283008
 30
0.0
 11
140.9838215794485
 21
13.87223563716984
 31
0.0
  0
LINE
  5
B5A4
330
1F
100
AcDbEntity
  8
AM_0
100
AcDbLine
 10
131.5515859422785
 20
34.43999999999996
 30
0.0
 11
120.4160572166185
 21
34.43999999999997
 31
0.0
  0
LINE
  5
B5A5
330
1F
100
AcDbEntity
  8
AM_0
100
AcDbLine
 10
131.5515859422785
 20
4.439999999999965
 30
0.0
 11
120.4160572166185
 21
4.439999999999966
 31
0.0
  0
LINE
  5
B5A6
330
1F
100
AcDbEntity
  8
AM_0
100
AcDbLine
 10
110.9838215794484
 20
25.00776436282981
 30
0.0
 11
110.9838215794484
 21
13.87223563717007
 31
0.0
  0
LINE
  5
B5A7
330
1F
100
AcDbEntity
  8
AM_0
100
AcDbLine
 10
33.43382157944851
 20
25.00776436282983
 30
0.0
 11
107.860048862216
 21
25.00776436282981
 31
0.0
  0
LINE
  5
B5A8
330
1F
100
AcDbEntity
  8
AM_0
100
AcDbLine
 10
115.0541995215806
 20
34.43999999999997
 30
0.0
 11
0.7338215794485511
 21
34.43999999999999
 31
0.0
  0
LINE
  5
B5A9
330
1F
100
AcDbEntity
  8
AM_0
100
AcDbLine
 10
33.43382157944851
 20
13.87223563717008
 30
0.0
 11
107.860048862216
 21
13.87223563717008
 31
0.0
  0
LINE
  5
B5AA
330
1F
100
AcDbEntity
  8
AM_0
100
AcDbLine
 10
115.0541995215806
 20
4.439999999999962
 30
0.0
 11
4.291760510872041
 21
4.439999999999995
 31
0.0
  0
LINE
  5
B5F6
330
1F
100
AcDbEntity
  8
AM_0
100
AcDbLine
 10
25.23382157944852
 20
14.07223563717009
 30
0.0
 11
33.43382157944851
 21
14.07223563717009
 31
0.0
  0
LINE
  5
B5F7
330
1F
100
AcDbEntity
  8
AM_0
100
AcDbLine
 10
25.23382157944853
 20
24.80776436282989
 30
0.0
 11
33.43382157944851
 21
24.80776436282989
 31
0.0
  0
LINE
  5
B5F8
330
1F
100
AcDbEntity
  8
AM_0
100
AcDbLine
 10
3.27382157944851
 20
-66.59013576384932
 30
0.0
 11
33.43382157944849
 21
-66.59013576384932
 31
0.0
  0
LINE
  5
B5F9
330
1F
100
AcDbEntity
  8
AM_0
100
AcDbLine
 10
23.63382157944851
 20
-55.85460703818952
 30
0.0
 11
33.43382157944849
 21
-55.85460703818953
 31
0.0
  0
ARC
  5
B610
330
1F
100
AcDbEntity
  8
AM_0
100
AcDbCircle
 10
-66.42322900166735
 20
18.50000000000001
 30
0.0
 40
17.5
100
AcDbArc
 50
113.9224509608417
 51
253.6455481325134
  0
CIRCLE
  5
B611
330
1F
100
AcDbEntity
  8
AM_11
 48
0.5
100
AcDbCircle
 10
-66.42322900166736
 20
19.49999999999998
 30
0.0
 40
19.5
  0
ARC
  5
B61D
330
1F
100
AcDbEntity
  8
AM_0
100
AcDbCircle
 10
-66.42322900166732
 20
19.50000000000002
 30
0.0
 40
16.5
100
AcDbArc
 50
294.6199773286575
 51
335.3800226713429
  0
LINE
  5
B61E
330
1F
100
AcDbEntity
  8
AM_0
100
AcDbLine
 10
-51.42322900166731
 20
26.37386354243376
 30
0.0
 11
-51.42322900166729
 21
12.6261364575663
 31
0.0
  0
ARC
  5
B61F
330
1F
100
AcDbEntity
  8
AM_0
100
AcDbCircle
 10
-66.42322900166732
 20
19.50000000000002
 30
0.0
 40
16.5
100
AcDbArc
 50
24.6199773286571
 51
65.38002267134243
  0
LINE
  5
B620
330
1F
100
AcDbEntity
  8
AM_0
100
AcDbLine
 10
-59.5493654592335
 20
34.50000000000003
 30
0.0
 11
-73.52095500722929
 21
34.50000000000005
 31
0.0
  0
LINE
  5
B622
330
1F
100
AcDbEntity
  8
AM_0
100
AcDbLine
 10
-59.5493654592335
 20
4.500000000000042
 30
0.0
 11
-67.00969896572252
 21
4.500000000000035
 31
0.0
  0
LINE
  5
B625
330
1F
100
AcDbEntity
  8
AM_0
100
AcDbLine
 10
-71.82322900166733
 20
1.436709382284627
 30
0.0
 11
-71.82322900166735
 21
1.853979454536293
 31
0.0
  0
LINE
  5
B626
330
1F
100
AcDbEntity
  8
AM_0
100
AcDbLine
 10
-72.54079303193461
 20
1.628980084712347
 30
0.0
 11
-72.54079303193461
 21
2.104103856892121
 31
0.0
  0
ENDSEC
  0
SECTION
  2
OBJECTS
  0
DICTIONARY
  5
C
330
0
100
AcDbDictionary
281
     1
  3
ACAD_COLOR
350
B6C2
  3
ACAD_GROUP
350
D
  3
ACAD_LAYOUT
350
1A
  3
ACAD_MATERIAL
350
B6C1
  3
ACAD_MLINESTYLE
350
17
  3
ACAD_PLOTSETTINGS
350
19
  3
ACAD_PLOTSTYLENAME
350
E
  3
ACAD_TABLESTYLE
350
B6C3
  3
ACDBHEADERROUNDTRIPXREC
350
B7C7
  3
ACDBVARIABLEDICTIONARY
350
30
  3
ACMDICTIONARY
350
4D
  3
AMG
350
3F
  3
AMGSNAPSETTINGS
350
73
  3
DWGPROPS
350
B7C6
  3
ENG_DATA
350
21C6
  3
FILENAME
350
21C9
  3
HOLD_DIC_DATA
350
21C4
  3
TABLE_DIC_DATA
350
1C0B
  3
ZWKSIZE
350
21CB
  0
DICTIONARY
  5
165
330
1F
100
AcDbDictionary
280
     1
281
     1
  3
ACAD_INDEX
360
B687
  3
ACAD_LAYOUTSELFREF
360
B6BA
  0
DICTIONARY
  5
B6B8
330
1B
100
AcDbDictionary
280
     1
281
     1
  3
ACAD_LAYOUTSELFREF
360
B6B9
  0
DICTIONARY
  5
B6C2
102
{ACAD_REACTORS
330
C
102
}
330
C
100
AcDbDictionary
281
     1
  0
DICTIONARY
  5
D
102
{ACAD_REACTORS
330
C
102
}
330
C
100
AcDbDictionary
281
     1
  3
*A1
350
7C0D
  3
*A2
350
7C0E
  3
*A3
350
7FE3
  3
*A4
350
8E0E
  3
*A5
350
B337
  3
*A6
350
B368
  3
*A7
350
B381
  3
*A8
350
B396
  0
DICTIONARY
  5
1A
102
{ACAD_REACTORS
330
C
102
}
330
C
100
AcDbDictionary
281
     1
  3
Model
350
B6C5
  3
レイアウト1
350
B6C6
  0
DICTIONARY
  5
B6C1
102
{ACAD_REACTORS
330
C
102
}
330
C
100
AcDbDictionary
281
     1
  0
DICTIONARY
  5
17
102
{ACAD_REACTORS
330
C
102
}
330
C
100
AcDbDictionary
281
     1
  3
STANDARD
350
18
  0
DICTIONARY
  5
19
102
{ACAD_REACTORS
330
C
102
}
330
C
100
AcDbDictionary
281
     1
  0
ACDBDICTIONARYWDFLT
  5
E
102
{ACAD_REACTORS
330
C
102
}
330
C
100
AcDbDictionary
281
     1
  3
Normal
350
F
100
AcDbDictionaryWithDefault
340
F
  0
DICTIONARY
  5
B6C3
102
{ACAD_REACTORS
330
C
102
}
330
C
100
AcDbDictionary
281
     1
  3
Standard
350
B6C4
  0
DICTIONARY
  5
B7C7
102
{ACAD_REACTORS
330
C
102
}
330
C
100
AcDbDictionary
281
     1
  0
DICTIONARY
  5
30
102
{ACAD_REACTORS
330
C
102
}
330
C
100
AcDbDictionary
281
     1
  3
CTABLESTYLE
350
B7C2
  3
DIMASSOC
350
B7C3
  3
INDEXCTL
350
31
  3
PROJECTNAME
350
B7C4
  3
SORTENTS
350
42BE
  0
DICTIONARY
  5
4D
102
{ACAD_REACTORS
330
C
102
}
330
C
100
AcDbDictionary
281
     1
  3
ACMSTDDICTIONARY
350
17E
  3
AMDTSECTSYM_ARROWCOLOR
350
B73E
  0
DICTIONARY
  5
3F
102
{ACAD_REACTORS
330
C
102
}
330
C
100
AcDbDictionary
281
     1
  0
DICTIONARY
  5
73
102
{ACAD_REACTORS
330
C
102
}
330
C
100
AcDbDictionary
281
     1
  0
XRECORD
  5
B7C6
102
{ACAD_REACTORS
330
C
102
}
330
C
100
AcDbXrecord
280
     1
  1
DWGPROPS COOKIE
  2

  3

  4

  6

  7

  8

  9

300
AmdtFileType=82
301
=
302
=
303
=
304
=
305
=
306
=
307
=
308
=
309
=
 40
1.733285254629629
 41
2451943.610431666
 42
2455603.39493272
  1

 90
        1
  0
DICTIONARY
  5
21C6
102
{ACAD_REACTORS
330
C
102
}
330
C
100
AcDbDictionary
281
     1
  3
ENG_ID
350
21C7
  0
DICTIONARY
  5
21C9
102
{ACAD_REACTORS
330
C
102
}
330
C
100
AcDbDictionary
281
     1
  3
FILENAME
350
21CA
  0
DICTIONARY
  5
21C4
102
{ACAD_REACTORS
330
C
102
}
330
C
100
AcDbDictionary
281
     1
  3
HOLD_DATA
350
21C5
  0
DICTIONARY
  5
1C0B
102
{ACAD_REACTORS
330
C
102
}
330
C
100
AcDbDictionary
281
     1
  3
INPUT_DATA
350
1C0D
  3
TABLE_DATA
350
1C0C
  0
DICTIONARY
  5
21CB
102
{ACAD_REACTORS
330
C
102
}
330
C
100
AcDbDictionary
281
     1
  3
ZWKSIZE
350
21CC
  0
DICTIONARY
  5
B687
102
{ACAD_REACTORS
330
165
102
}
330
165
100
AcDbDictionary
281
     1
  3
*A1
350
B688
  0
XRECORD
  5
B6BA
102
{ACAD_REACTORS
330
165
102
}
330
165
100
AcDbXrecord
280
     1
340
1F
  0
XRECORD
  5
B6B9
102
{ACAD_REACTORS
330
B6B8
102
}
330
B6B8
100
AcDbXrecord
280
     1
340
1B
  0
GROUP
  5
7C0D
102
{ACAD_REACTORS
330
D
102
}
330
D
100
AcDbGroup
300

 70
     1
 71
     1
  0
GROUP
  5
7C0E
102
{ACAD_REACTORS
330
D
102
}
330
D
100
AcDbGroup
300

 70
     1
 71
     1
  0
GROUP
  5
7FE3
102
{ACAD_REACTORS
330
D
102
}
330
D
100
AcDbGroup
300

 70
     1
 71
     1
  0
GROUP
  5
8E0E
102
{ACAD_REACTORS
330
D
102
}
330
D
100
AcDbGroup
300

 70
     1
 71
     1
  0
GROUP
  5
B337
102
{ACAD_REACTORS
330
D
102
}
330
D
100
AcDbGroup
300

 70
     1
 71
     1
340
B32F
340
B330
340
B332
340
B32C
340
B331
340
B32B
340
B32D
  0
GROUP
  5
B368
102
{ACAD_REACTORS
330
D
102
}
330
D
100
AcDbGroup
300

 70
     1
 71
     1
340
B35C
340
B354
340
B366
340
B350
340
B357
340
B35A
340
B358
340
B359
340
B35E
340
B35F
340
B360
340
B361
  0
GROUP
  5
B381
102
{ACAD_REACTORS
330
D
102
}
330
D
100
AcDbGroup
300

 70
     1
 71
     1
340
B36B
340
B36C
340
B36F
340
B373
340
B374
340
B375
340
B376
340
B377
340
B378
340
B379
340
B37A
340
B37B
340
B37C
340
B37E
  0
GROUP
  5
B396
102
{ACAD_REACTORS
330
D
102
}
330
D
100
AcDbGroup
300

 70
     1
 71
     1
340
B395
340
B393
340
B38C
340
B390
340
B394
340
B38B
340
B38A
340
B391
340
B392
  0
LAYOUT
  5
B6C5
102
{ACAD_XDICTIONARY
360
B7C8
102
}
102
{ACAD_REACTORS
330
1A
102
}
330
1A
100
AcDbPlotSettings
  1

  2
SII LP-1010 (C2 VR)2R
  4

  6

 40
0.0
 41
0.0
 42
0.0
 43
0.0
 44
0.0
 45
0.0
 46
0.0
 47
0.0
 48
0.0
 49
0.0
140
0.0
141
0.0
142
1.0
143
1.0
 70
  1712
 72
     0
 73
     0
 74
     0
  7
sei_cad.ctb
 75
     0
147
1.0
148
0.0
149
0.0
100
AcDbLayout
  1
Model
 70
     1
 71
     0
 10
0.0
 20
0.0
 11
12.0
 21
9.0
 12
0.0
 22
0.0
 32
0.0
 14
0.0
 24
0.0
 34
0.0
 15
0.0
 25
0.0
 35
0.0
146
0.0
 13
0.0
 23
0.0
 33
0.0
 16
1.0
 26
0.0
 36
0.0
 17
0.0
 27
1.0
 37
0.0
 76
     0
330
1F
  0
LAYOUT
  5
B6C6
102
{ACAD_XDICTIONARY
360
B7CA
102
}
102
{ACAD_REACTORS
330
1A
102
}
330
1A
100
AcDbPlotSettings
  1

  2
SII LP-1010 (C2 VR)2R
  4

  6

 40
0.0
 41
0.0
 42
0.0
 43
0.0
 44
0.0
 45
0.0
 46
0.0
 47
0.0
 48
0.0
 49
0.0
140
0.0
141
0.0
142
1.0
143
1.0
 70
   688
 72
     0
 73
     0
 74
     5
  7
sei_cad.ctb
 75
    16
147
1.0
148
0.0
149
0.0
100
AcDbLayout
  1
レイアウト1
 70
     1
 71
     1
 10
0.0
 20
0.0
 11
420.0
 21
297.0
 12
0.0
 22
0.0
 32
0.0
 14
1.000000000000000E+20
 24
1.000000000000000E+20
 34
1.000000000000000E+20
 15
-1.000000000000000E+20
 25
-1.000000000000000E+20
 35
-1.000000000000000E+20
146
0.0
 13
0.0
 23
0.0
 33
0.0
 16
1.0
 26
0.0
 36
0.0
 17
0.0
 27
1.0
 37
0.0
 76
     0
330
1B
  0
MLINESTYLE
  5
18
102
{ACAD_REACTORS
330
17
102
}
330
17
100
AcDbMlineStyle
  2
STANDARD
 70
     0
  3

 62
   256
 51
90.0
 52
90.0
 71
     2
 49
0.5
 62
   256
  6
BYLAYER
 49
-0.5
 62
   256
  6
BYLAYER
  0
ACDBPLACEHOLDER
  5
F
102
{ACAD_REACTORS
330
E
102
}
330
E
  0
TABLESTYLE
  5
B6C4
102
{ACAD_REACTORS
330
B6C3
102
}
330
B6C3
100
AcDbTableStyle
  3
Standard
 70
     0
 71
     0
 40
1.5
 41
1.5
280
     0
281
     0
  7
STANDARD
140
4.5
170
     2
 62
     0
 63
     7
283
     0
274
    -2
284
     1
 64
     0
275
    -2
285
     1
 65
     0
276
    -2
286
     1
 66
     0
277
    -2
287
     1
 67
     0
278
    -2
288
     1
 68
     0
279
    -2
289
     1
 69
     0
  7
STANDARD
140
6.0
170
     5
 62
     0
 63
     7
283
     0
274
    -2
284
     1
 64
     0
275
    -2
285
     1
 65
     0
276
    -2
286
     1
 66
     0
277
    -2
287
     1
 67
     0
278
    -2
288
     1
 68
     0
279
    -2
289
     1
 69
     0
  7
STANDARD
140
4.5
170
     5
 62
     0
 63
     7
283
     0
274
    -2
284
     1
 64
     0
275
    -2
285
     1
 65
     0
276
    -2
286
     1
 66
     0
277
    -2
287
     1
 67
     0
278
    -2
288
     1
 68
     0
279
    -2
289
     1
 69
     0
  0
DICTIONARYVAR
  5
B7C2
102
{ACAD_REACTORS
330
30
102
}
330
30
100
DictionaryVariables
280
     0
  1
STANDARD
  0
DICTIONARYVAR
  5
B7C3
102
{ACAD_REACTORS
330
30
102
}
330
30
100
DictionaryVariables
280
     0
  1
1
  0
DICTIONARYVAR
  5
31
102
{ACAD_REACTORS
330
30
102
}
330
30
100
DictionaryVariables
280
     0
  1
1
  0
DICTIONARYVAR
  5
B7C4
102
{ACAD_REACTORS
330
30
102
}
330
30
100
DictionaryVariables
280
     0
  1

  0
DICTIONARYVAR
  5
42BE
102
{ACAD_REACTORS
330
30
102
}
330
30
100
DictionaryVariables
280
     0
  1
96
  0
DICTIONARY
  5
17E
102
{ACAD_REACTORS
330
4D
102
}
330
4D
100
AcDbDictionary
281
     1
  0
XRECORD
  5
B73E
102
{ACAD_REACTORS
330
4D
102
}
330
4D
100
AcDbXrecord
280
     1
 90
-1023410169
  0
XRECORD
  5
21C7
102
{ACAD_REACTORS
330
21C6
102
}
330
21C6
100
AcDbXrecord
280
     1
  1
HOLD
  0
XRECORD
  5
21CA
102
{ACAD_REACTORS
330
21C9
102
}
330
21C9
100
AcDbXrecord
280
     1
  1
21000065__00___
  0
XRECORD
  5
21C5
102
{ACAD_REACTORS
330
21C4
102
}
330
21C4
100
AcDbXrecord
280
     1
  1
クランクシャフト加工用 ^M^J１コーナー型 ^M^J15.875 ^M^J20 ^M^Jクランプオン ^M^J９０° ^M^J1 ^M^J鋼 ^M^J ^M^J ^M^J ^M^J ^M^J
  0
XRECORD
  5
1C0D
102
{ACAD_REACTORS
330
1C0B
102
}
330
1C0B
100
AcDbXrecord
280
     1
  1
1,,,,,,,,,^M^J2,,,,,,,,,^M^J3,,,,,,,,,^M^J4,,,,,,,,,^M^J5,,,,,,,,,^M^J6,,,,,,,,,^M^J7,,,,,,,,,^M^J8,,,,,,,,,^M^J9,,,,,,,,,^M^J10,,,,,,,,,
  0
XRECORD
  5
1C0C
102
{ACAD_REACTORS
330
1C0B
102
}
330
1C0B
100
AcDbXrecord
280
     1
  1
10,10
  0
XRECORD
  5
21CC
102
{ACAD_REACTORS
330
21CB
102
}
330
21CB
100
AcDbXrecord
280
     1
  1
3
  0
LAYER_INDEX
  5
B688
102
{ACAD_REACTORS
330
B687
102
}
330
B687
100
AcDbIndex
 40
2455603.39493272
100
AcDbLayerIndex
  8
0
360
B689
 90
        0
  8
AM_5
360
B68A
 90
        6
  8
DEFPOINTS
360
B68B
 90
        0
  8
AM_0
360
B68C
 90
      168
  8
AM_6
360
B68D
 90
        1
  8
AM_1
360
B68E
 90
        2
  8
AM_3
360
B68F
 90
        1
  8
AM_7
360
B690
 90
       11
  8
AM_11
360
B691
 90
        1
  0
DICTIONARY
  5
B7C8
330
B6C5
100
AcDbDictionary
280
     1
281
     1
  3
ACAD_XREC_ROUNDTRIP
360
B7C9
  0
DICTIONARY
  5
B7CA
330
B6C6
100
AcDbDictionary
280
     1
281
     1
  3
ACAD_XREC_ROUNDTRIP
360
B7CB
  0
IDBUFFER
  5
B689
330
0
100
AcDbIdBuffer
  0
IDBUFFER
  5
B68A
330
0
100
AcDbIdBuffer
330
B3CE
330
B416
330
B423
330
B432
330
B59D
330
B5A2
  0
IDBUFFER
  5
B68B
330
0
100
AcDbIdBuffer
  0
IDBUFFER
  5
B68C
330
0
100
AcDbIdBuffer
330
B1C5
330
B1C6
330
B1C9
330
B1CA
330
B1DA
330
B1DB
330
B1DC
330
B295
330
B2AC
330
B2B4
330
B2B5
330
B2BD
330
B2BE
330
B2C0
330
B2C2
330
B2C5
330
B2C6
330
B2C7
330
B2C9
330
B2CA
330
B2CB
330
B2CD
330
B2D6
330
B2D8
330
B2DB
330
B2DD
330
B2DE
330
B2DF
330
B2E0
330
B2E2
330
B2E4
330
B2E8
330
B2F3
330
B2F4
330
B2F5
330
B318
330
B32B
330
B32C
330
B32D
330
B32F
330
B330
330
B331
330
B332
330
B33A
330
B33B
330
B33E
330
B341
330
B342
330
B344
330
B346
330
B349
330
B34A
330
B34B
330
B34C
330
B350
330
B354
330
B357
330
B358
330
B359
330
B35A
330
B35C
330
B35E
330
B35F
330
B360
330
B361
330
B366
330
B36B
330
B36C
330
B36F
330
B373
330
B374
330
B375
330
B376
330
B377
330
B378
330
B379
330
B37A
330
B37B
330
B37C
330
B37E
330
B388
330
B38A
330
B38B
330
B38C
330
B390
330
B391
330
B392
330
B393
330
B394
330
B395
330
B3AA
330
B3AB
330
B3AC
330
B3AD
330
B3AE
330
B3AF
330
B3B0
330
B3B1
330
B3B2
330
B3B5
330
B3B8
330
B3B9
330
B3BB
330
B3BC
330
B3BD
330
B3BE
330
B3C0
330
B3C1
330
B3C2
330
B3C3
330
B3C4
330
B3C5
330
B3C6
330
B4A7
330
B4A8
330
B4AD
330
B4AF
330
B4B0
330
B4B3
330
B4D6
330
B4D7
330
B4D8
330
B4D9
330
B4F7
330
B4FA
330
B4FE
330
B501
330
B506
330
B58A
330
B58B
330
B58C
330
B58D
330
B58E
330
B58F
330
B590
330
B591
330
B594
330
B595
330
B596
330
B597
330
B598
330
B599
330
B59A
330
B59B
330
B59E
330
B59F
330
B5A0
330
B5A1
330
B5A3
330
B5A4
330
B5A5
330
B5A6
330
B5A7
330
B5A8
330
B5A9
330
B5AA
330
B5F6
330
B5F7
330
B5F8
330
B5F9
330
B610
330
B61D
330
B61E
330
B61F
330
B620
330
B622
330
B625
330
B626
  0
IDBUFFER
  5
B68D
330
0
100
AcDbIdBuffer
330
83BD
  0
IDBUFFER
  5
B68E
330
0
100
AcDbIdBuffer
330
B3CB
330
B3CD
  0
IDBUFFER
  5
B68F
330
0
100
AcDbIdBuffer
330
B502
  0
IDBUFFER
  5
B690
330
0
100
AcDbIdBuffer
330
B317
330
B31A
330
B3C9
330
B59C
330
B1D9
330
B292
330
B2A7
330
B2E6
330
B2E7
330
B2EA
330
B316
  0
IDBUFFER
  5
B691
330
0
100
AcDbIdBuffer
330
B611
  0
XRECORD
  5
B7C9
102
{ACAD_REACTORS
330
B7C8
102
}
330
B7C8
100
AcDbXrecord
280
     1
102
SHADEPLOT
 70
     0
102
SHADEPLOTRESLEVEL
 70
     2
102
SHADEPLOTCUSTOMDPI
 70
   300
  0
XRECORD
  5
B7CB
102
{ACAD_REACTORS
330
B7CA
102
}
330
B7CA
100
AcDbXrecord
280
     1
102
SHADEPLOT
 70
     0
102
SHADEPLOTRESLEVEL
 70
     2
102
SHADEPLOTCUSTOMDPI
 70
   300
  0
ENDSEC
  0
EOF
